  0
SECTION
  2
HEADER
  9
$ACADVER
  1
AC1021
  9
$ACADMAINTVER
 70
     1
  9
$DWGCODEPAGE
  3
ANSI_1252
  9
$LASTSAVEDBY
  1
travi
  9
$INSBASE
 10
0.0
 20
0.0
 30
0.0
  9
$EXTMIN
 10
-19.2737723972026
 20
-12.97386765047821
 30
-0.0000000000112498
  9
$EXTMAX
 10
228.2337788592924
 20
178.2819674113597
 30
0.0000000000002956
  9
$LIMMIN
 10
0.0
 20
0.0
  9
$LIMMAX
 10
12.0
 20
9.0
  9
$ORTHOMODE
 70
     1
  9
$REGENMODE
 70
     1
  9
$FILLMODE
 70
     1
  9
$QTEXTMODE
 70
     0
  9
$MIRRTEXT
 70
     0
  9
$LTSCALE
 40
4.0
  9
$ATTMODE
 70
     1
  9
$TEXTSIZE
 40
1.768799999999999
  9
$TRACEWID
 40
0.05
  9
$TEXTSTYLE
  7
ROMANS
  9
$CLAYER
  8
0
  9
$CELTYPE
  6
BYLAYER
  9
$CECOLOR
 62
   256
  9
$CELTSCALE
 40
1.0
  9
$DISPSILH
 70
     0
  9
$DIMSCALE
 40
11.0
  9
$DIMASZ
 40
0.125
  9
$DIMEXO
 40
0.0625
  9
$DIMDLI
 40
0.375
  9
$DIMRND
 40
0.0
  9
$DIMDLE
 40
0.0
  9
$DIMEXE
 40
0.0625
  9
$DIMTP
 40
0.0
  9
$DIMTM
 40
0.0
  9
$DIMTXT
 40
0.18
  9
$DIMCEN
 40
0.0625
  9
$DIMTSZ
 40
0.0
  9
$DIMTOL
 70
     0
  9
$DIMLIM
 70
     0
  9
$DIMTIH
 70
     1
  9
$DIMTOH
 70
     1
  9
$DIMSE1
 70
     0
  9
$DIMSE2
 70
     0
  9
$DIMTAD
 70
     0
  9
$DIMZIN
 70
     3
  9
$DIMBLK
  1

  9
$DIMASO
 70
     1
  9
$DIMSHO
 70
     1
  9
$DIMPOST
  1

  9
$DIMAPOST
  1

  9
$DIMALT
 70
     0
  9
$DIMALTD
 70
     2
  9
$DIMALTF
 40
25.4
  9
$DIMLFAC
 40
1.0
  9
$DIMTOFL
 70
     0
  9
$DIMTVP
 40
0.0
  9
$DIMTIX
 70
     0
  9
$DIMSOXD
 70
     0
  9
$DIMSAH
 70
     0
  9
$DIMBLK1
  1

  9
$DIMBLK2
  1

  9
$DIMSTYLE
  2
STANDARD
  9
$DIMCLRD
 70
     0
  9
$DIMCLRE
 70
     0
  9
$DIMCLRT
 70
     0
  9
$DIMTFAC
 40
1.0
  9
$DIMGAP
 40
0.0625
  9
$DIMJUST
 70
     0
  9
$DIMSD1
 70
     0
  9
$DIMSD2
 70
     0
  9
$DIMTOLJ
 70
     1
  9
$DIMTZIN
 70
     3
  9
$DIMALTZ
 70
     0
  9
$DIMALTTZ
 70
     0
  9
$DIMUPT
 70
     0
  9
$DIMDEC
 70
     4
  9
$DIMTDEC
 70
     4
  9
$DIMALTU
 70
     2
  9
$DIMALTTD
 70
     2
  9
$DIMTXSTY
  7
ROMANS
  9
$DIMAUNIT
 70
     0
  9
$DIMADEC
 70
     0
  9
$DIMALTRND
 40
0.0
  9
$DIMAZIN
 70
     0
  9
$DIMDSEP
 70
    46
  9
$DIMATFIT
 70
     3
  9
$DIMFRAC
 70
     2
  9
$DIMLDRBLK
  1

  9
$DIMLUNIT
 70
     4
  9
$DIMLWD
 70
    -2
  9
$DIMLWE
 70
    -2
  9
$DIMTMOVE
 70
     2
  9
$DIMFXL
 40
1.0
  9
$DIMFXLON
 70
     0
  9
$DIMJOGANG
 40
0.7853981633974483
  9
$DIMTFILL
 70
     0
  9
$DIMTFILLCLR
 70
     0
  9
$DIMARCSYM
 70
     0
  9
$DIMLTYPE
  6

  9
$DIMLTEX1
  6

  9
$DIMLTEX2
  6

  9
$LUNITS
 70
     4
  9
$LUPREC
 70
     4
  9
$SKETCHINC
 40
0.1
  9
$FILLETRAD
 40
0.0
  9
$AUNITS
 70
     0
  9
$AUPREC
 70
     0
  9
$MENU
  1
acad
  9
$ELEVATION
 40
0.0
  9
$PELEVATION
 40
0.0
  9
$THICKNESS
 40
0.0
  9
$LIMCHECK
 70
     0
  9
$CHAMFERA
 40
0.0
  9
$CHAMFERB
 40
0.0
  9
$CHAMFERC
 40
0.0
  9
$CHAMFERD
 40
0.0
  9
$SKPOLY
 70
     0
  9
$TDCREATE
 40
2450857.415251736
  9
$TDUCREATE
 40
2450857.623585070
  9
$TDUPDATE
 40
2459592.370527674
  9
$TDUUPDATE
 40
2459592.578861007
  9
$TDINDWG
 40
0.1630110995
  9
$TDUSRTIMER
 40
0.1630110995
  9
$USRTIMER
 70
     1
  9
$ANGBASE
 50
0.0
  9
$ANGDIR
 70
     0
  9
$PDMODE
 70
    33
  9
$PDSIZE
 40
0.0
  9
$PLINEWID
 40
0.0
  9
$SPLFRAME
 70
     0
  9
$SPLINETYPE
 70
     6
  9
$SPLINESEGS
 70
     8
  9
$HANDSEED
  5
344F
  9
$SURFTAB1
 70
     6
  9
$SURFTAB2
 70
     6
  9
$SURFTYPE
 70
     6
  9
$SURFU
 70
     6
  9
$SURFV
 70
     6
  9
$UCSBASE
  2

  9
$UCSNAME
  2

  9
$UCSORG
 10
0.0000000000000213
 20
0.0000000000000284
 30
0.0
  9
$UCSXDIR
 10
1.0
 20
0.0000000000000142
 30
0.0
  9
$UCSYDIR
 10
-0.0000000000000142
 20
1.0
 30
0.0
  9
$UCSORTHOREF
  2

  9
$UCSORTHOVIEW
 70
     0
  9
$UCSORGTOP
 10
0.0
 20
0.0
 30
0.0
  9
$UCSORGBOTTOM
 10
0.0
 20
0.0
 30
0.0
  9
$UCSORGLEFT
 10
0.0
 20
0.0
 30
0.0
  9
$UCSORGRIGHT
 10
0.0
 20
0.0
 30
0.0
  9
$UCSORGFRONT
 10
0.0
 20
0.0
 30
0.0
  9
$UCSORGBACK
 10
0.0
 20
0.0
 30
0.0
  9
$PUCSBASE
  2

  9
$PUCSNAME
  2

  9
$PUCSORG
 10
0.0
 20
0.0
 30
0.0
  9
$PUCSXDIR
 10
1.0
 20
0.0
 30
0.0
  9
$PUCSYDIR
 10
0.0
 20
1.0
 30
0.0
  9
$PUCSORTHOREF
  2

  9
$PUCSORTHOVIEW
 70
     0
  9
$PUCSORGTOP
 10
0.0
 20
0.0
 30
0.0
  9
$PUCSORGBOTTOM
 10
0.0
 20
0.0
 30
0.0
  9
$PUCSORGLEFT
 10
0.0
 20
0.0
 30
0.0
  9
$PUCSORGRIGHT
 10
0.0
 20
0.0
 30
0.0
  9
$PUCSORGFRONT
 10
0.0
 20
0.0
 30
0.0
  9
$PUCSORGBACK
 10
0.0
 20
0.0
 30
0.0
  9
$USERI1
 70
     0
  9
$USERI2
 70
     0
  9
$USERI3
 70
     0
  9
$USERI4
 70
     0
  9
$USERI5
 70
     0
  9
$USERR1
 40
0.0
  9
$USERR2
 40
0.0
  9
$USERR3
 40
0.0
  9
$USERR4
 40
0.0
  9
$USERR5
 40
0.0
  9
$WORLDVIEW
 70
     1
  9
$SHADEDGE
 70
     3
  9
$SHADEDIF
 70
    70
  9
$TILEMODE
 70
     1
  9
$MAXACTVP
 70
    16
  9
$PINSBASE
 10
0.0
 20
0.0
 30
0.0
  9
$PLIMCHECK
 70
     0
  9
$PEXTMIN
 10
1.000000000000000E+20
 20
1.000000000000000E+20
 30
1.000000000000000E+20
  9
$PEXTMAX
 10
-1.000000000000000E+20
 20
-1.000000000000000E+20
 30
-1.000000000000000E+20
  9
$PLIMMIN
 10
0.0
 20
0.0
  9
$PLIMMAX
 10
12.0
 20
9.0
  9
$UNITMODE
 70
     0
  9
$VISRETAIN
 70
     0
  9
$PLINEGEN
 70
     0
  9
$PSLTSCALE
 70
     1
  9
$TREEDEPTH
 70
  3020
  9
$CMLSTYLE
  2
STANDARD
  9
$CMLJUST
 70
     0
  9
$CMLSCALE
 40
1.0
  9
$PROXYGRAPHICS
 70
     1
  9
$MEASUREMENT
 70
     0
  9
$CELWEIGHT
370
    -1
  9
$ENDCAPS
280
     0
  9
$JOINSTYLE
280
     0
  9
$LWDISPLAY
290
     0
  9
$INSUNITS
 70
     0
  9
$HYPERLINKBASE
  1

  9
$STYLESHEET
  1
acad.ctb
  9
$XEDIT
290
     1
  9
$CEPSNTYPE
380
     0
  9
$PSTYLEMODE
290
     1
  9
$FINGERPRINTGUID
  2
{2C36354F-6328-11D6-8735-0010B50CF566}
  9
$VERSIONGUID
  2
{5359A9D0-28C4-4F1B-9841-BB102DE39C86}
  9
$EXTNAMES
290
     1
  9
$PSVPSCALE
 40
0.0
  9
$OLESTARTUP
290
     0
  9
$SORTENTS
280
   127
  9
$INDEXCTL
280
     0
  9
$HIDETEXT
280
     0
  9
$XCLIPFRAME
290
     0
  9
$HALOGAP
280
     0
  9
$OBSCOLOR
 70
   257
  9
$OBSLTYPE
280
     0
  9
$INTERSECTIONDISPLAY
280
     0
  9
$INTERSECTIONCOLOR
 70
   257
  9
$DIMASSOC
280
     1
  9
$PROJECTNAME
  1

  9
$CAMERADISPLAY
290
     0
  9
$LENSLENGTH
 40
50.0
  9
$CAMERAHEIGHT
 40
0.0
  9
$STEPSPERSEC
 40
2.0
  9
$STEPSIZE
 40
6.0
  9
$3DDWFPREC
 40
2.0
  9
$PSOLWIDTH
 40
0.25
  9
$PSOLHEIGHT
 40
4.0
  9
$LOFTANG1
 40
1.570796326794896
  9
$LOFTANG2
 40
1.570796326794896
  9
$LOFTMAG1
 40
0.0
  9
$LOFTMAG2
 40
0.0
  9
$LOFTPARAM
 70
     7
  9
$LOFTNORMALS
280
     1
  9
$LATITUDE
 40
37.795
  9
$LONGITUDE
 40
-122.394
  9
$NORTHDIRECTION
 40
0.0
  9
$TIMEZONE
 70
 -8000
  9
$LIGHTGLYPHDISPLAY
280
     1
  9
$TILEMODELIGHTSYNCH
280
     1
  9
$CMATERIAL
347
2C48
  9
$SOLIDHIST
280
     1
  9
$SHOWHIST
280
     1
  9
$DWFFRAME
280
     2
  9
$DGNFRAME
280
     0
  9
$REALWORLDSCALE
290
     1
  9
$INTERFERECOLOR
 62
     1
  9
$INTERFEREOBJVS
345
2C55
  9
$INTERFEREVPVS
346
2C52
  9
$CSHADOW
280
     0
  9
$SHADOWPLANELOCATION
 40
0.0
  0
ENDSEC
  0
SECTION
  2
CLASSES
  0
CLASS
  1
ACDBDICTIONARYWDFLT
  2
AcDbDictionaryWithDefault
  3
ObjectDBX Classes
 90
        0
 91
        1
280
     0
281
     0
  0
CLASS
  1
IDBUFFER
  2
AcDbIdBuffer
  3
ObjectDBX Classes
 90
        0
 91
        0
280
     0
281
     0
  0
CLASS
  1
MATERIAL
  2
AcDbMaterial
  3
ObjectDBX Classes
 90
     1024
 91
        3
280
     0
281
     0
  0
CLASS
  1
VISUALSTYLE
  2
AcDbVisualStyle
  3
ObjectDBX Classes
 90
     4095
 91
       16
280
     0
281
     0
  0
CLASS
  1
TABLESTYLE
  2
AcDbTableStyle
  3
ObjectDBX Classes
 90
     4095
 91
        1
280
     0
281
     0
  0
CLASS
  1
SORTENTSTABLE
  2
AcDbSortentsTable
  3
ObjectDBX Classes
 90
        0
 91
        4
280
     0
281
     0
  0
CLASS
  1
DICTIONARYVAR
  2
AcDbDictionaryVar
  3
ObjectDBX Classes
 90
        0
 91
        4
280
     0
281
     0
  0
CLASS
  1
EXACXREFPANELOBJECT
  2
ExAcXREFPanelObject
  3
EXAC_ESW
 90
     1025
 91
        0
280
     0
281
     0
  0
CLASS
  1
NPOCOLLECTION
  2
AcDbImpNonPersistentObjectsCollection
  3
ObjectDBX Classes
 90
     1153
 91
        0
280
     0
281
     0
  0
CLASS
  1
EXACTERMXREFMAP
  2
ExAcTermXrefMap
  3
EXAC_SERVICE
 90
     1025
 91
        0
280
     0
281
     0
  0
CLASS
  1
ACAD_EVALUATION_GRAPH
  2
AcDbEvalGraph
  3
ObjectDBX Classes
 90
     1153
 91
        1
280
     0
281
     0
  0
CLASS
  1
ACAECUSTOBJ
  2
AcAeEditorObj
  3
AcAeEditorObj
 90
     1024
 91
        0
280
     0
281
     0
  0
CLASS
  1
ACDB_DYNAMICBLOCKPURGEPREVENTER_VERSION
  2
AcDbDynamicBlockPurgePreventer
  3
ObjectDBX Classes
 90
     1153
 91
        1
280
     0
281
     0
  0
ENDSEC
  0
SECTION
  2
TABLES
  0
TABLE
  2
VPORT
  5
1DD8
102
{ACAD_XDICTIONARY
360
2DA2
102
}
330
0
100
AcDbSymbolTable
 70
     1
  0
VPORT
  5
2C45
330
1DD8
100
AcDbSymbolTableRecord
100
AcDbViewportTableRecord
  2
*Active
 70
     0
 10
0.0
 20
0.0
 11
1.0
 21
1.0
 12
104.4800026547187
 22
82.65404943509777
 13
0.0
 23
0.0
 14
1.0
 24
1.0
 15
0.0
 25
0.0
 16
0.0
 26
0.0
 36
1.0
 17
0.0
 27
0.0
 37
0.0
 40
192.6078118690122
 41
2.108265424912689
 42
50.0
 43
0.0
 44
0.0
 50
0.0
 51
0.0
 71
     0
 72
   100
 73
     1
 74
     0
 75
     0
 76
     0
 77
     0
 78
     2
281
     0
 65
     1
110
0.0000000000000213
120
0.0000000000000284
130
0.0
111
1.0
121
0.0000000000000142
131
0.0
112
-0.0000000000000142
122
1.0
132
0.0
 79
     0
146
0.0
348
2C51
 60
     3
 61
     5
292
     1
282
     1
141
0.0
142
0.0
 63
   250
421
  3355443
  0
ENDTAB
  0
TABLE
  2
LTYPE
  5
1DD5
330
0
100
AcDbSymbolTable
 70
     4
  0
LTYPE
  5
1DE2
330
1DD5
100
AcDbSymbolTableRecord
100
AcDbLinetypeTableRecord
  2
BYBLOCK
 70
     0
  3

 72
    65
 73
     0
 40
0.0
  0
LTYPE
  5
1DE3
330
1DD5
100
AcDbSymbolTableRecord
100
AcDbLinetypeTableRecord
  2
BYLAYER
 70
     0
  3

 72
    65
 73
     0
 40
0.0
  0
LTYPE
  5
1DE4
330
1DD5
100
AcDbSymbolTableRecord
100
AcDbLinetypeTableRecord
  2
CONTINUOUS
 70
     0
  3
Solid line
 72
    65
 73
     0
 40
0.0
  0
LTYPE
  5
1E6A
330
1DD5
100
AcDbSymbolTableRecord
100
AcDbLinetypeTableRecord
  2
HIDDEN
 70
     0
  3
__ __ __ __ __ __ __ __ __ __ __ __ __ __ __ __
 72
    65
 73
     2
 40
0.375
 49
0.25
 74
     0
 49
-0.125
 74
     0
  0
LTYPE
  5
1E6B
330
1DD5
100
AcDbSymbolTableRecord
100
AcDbLinetypeTableRecord
  2
CENTER
 70
     0
  3
____ _ ____ _ ____ _ ____ _ ____ _ ____ _ ____ 
 72
    65
 73
     4
 40
2.0
 49
1.25
 74
     0
 49
-0.25
 74
     0
 49
0.25
 74
     0
 49
-0.25
 74
     0
  0
LTYPE
  5
1E6E
330
1DD5
100
AcDbSymbolTableRecord
100
AcDbLinetypeTableRecord
  2
PHANTOM
 70
     0
  3
______  __  __  ______  __  __  ______  __  __ 
 72
    65
 73
     6
 40
2.5
 49
1.25
 74
     0
 49
-0.25
 74
     0
 49
0.25
 74
     0
 49
-0.25
 74
     0
 49
0.25
 74
     0
 49
-0.25
 74
     0
  0
ENDTAB
  0
TABLE
  2
LAYER
  5
1DD2
330
0
100
AcDbSymbolTable
 70
     3
  0
LAYER
  5
1DDF
330
1DD2
100
AcDbSymbolTableRecord
100
AcDbLayerTableRecord
  2
0
 70
     0
 62
     7
  6
CONTINUOUS
370
    -3
390
2B41
347
2C4A
  0
LAYER
  5
1E74
330
1DD2
100
AcDbSymbolTableRecord
100
AcDbLayerTableRecord
  2
DEFPOINTS
 70
     0
 62
     7
  6
CONTINUOUS
290
     0
370
    -3
390
2B41
347
2C4A
  0
LAYER
  5
2C11
330
1DD2
100
AcDbSymbolTableRecord
100
AcDbLayerTableRecord
  2
Work-Order
 70
     0
 62
     5
  6
CONTINUOUS
290
     0
370
    -3
390
2B41
347
2C4A
  0
ENDTAB
  0
TABLE
  2
STYLE
  5
1DD3
330
0
100
AcDbSymbolTable
 70
     5
  0
STYLE
  5
1DE0
330
1DD3
100
AcDbSymbolTableRecord
100
AcDbTextStyleTableRecord
  2
STANDARD
 70
     0
 40
0.0
 41
1.0
 50
0.0
 71
     0
 42
0.2
  3
txt
  4

  0
STYLE
  5
1E68
330
1DD3
100
AcDbSymbolTableRecord
100
AcDbTextStyleTableRecord
  2
ROMANS
 70
     0
 40
0.0
 41
1.0
 50
0.0
 71
     0
 42
1.768799999999999
  3
romans
  4

  0
STYLE
  5
1E69
330
1DD3
100
AcDbSymbolTableRecord
100
AcDbTextStyleTableRecord
  2
ROMANC
 70
     0
 40
1.5314
 41
1.0
 50
0.0
 71
     0
 42
1.768799999999999
  3
romanc
  4

  0
STYLE
  5
2E51
330
1DD3
100
AcDbSymbolTableRecord
100
AcDbTextStyleTableRecord
  2
STYLE1
 70
     0
 40
0.0
 41
1.0
 50
0.0
 71
     0
 42
3.0954
  3
C:\Program Files\AutoCAD LT\romanc.shx
  4

  0
ENDTAB
  0
TABLE
  2
VIEW
  5
1DD6
330
0
100
AcDbSymbolTable
 70
     0
  0
ENDTAB
  0
TABLE
  2
UCS
  5
1DD7
330
0
100
AcDbSymbolTable
 70
     0
  0
ENDTAB
  0
TABLE
  2
APPID
  5
1DD9
330
0
100
AcDbSymbolTable
 70
     6
  0
APPID
  5
1DE1
330
1DD9
100
AcDbSymbolTableRecord
100
AcDbRegAppTableRecord
  2
ACAD
 70
     0
  0
APPID
  5
2D2A
330
1DD9
100
AcDbSymbolTableRecord
100
AcDbRegAppTableRecord
  2
ACAUTHENVIRON
 70
     0
  0
APPID
  5
2D2D
330
1DD9
100
AcDbSymbolTableRecord
100
AcDbRegAppTableRecord
  2
AcDbDynamicBlockTrueName
 70
     0
  0
APPID
  5
2D2E
330
1DD9
100
AcDbSymbolTableRecord
100
AcDbRegAppTableRecord
  2
AcDbDynamicBlockGUID
 70
     0
  0
APPID
  5
2D30
330
1DD9
100
AcDbSymbolTableRecord
100
AcDbRegAppTableRecord
  2
AcDbBlockRepETag
 70
     0
  0
APPID
  5
3375
330
1DD9
100
AcDbSymbolTableRecord
100
AcDbRegAppTableRecord
  2
ACAD_PSEXT
 70
     0
  0
ENDTAB
  0
TABLE
  2
DIMSTYLE
  5
1DDA
330
0
100
AcDbSymbolTable
 70
     4
100
AcDbDimStyleTable
 71
     1
340
1E71
  0
DIMSTYLE
105
1E71
102
{ACAD_REACTORS
330
DFB
330
DFC
330
DFE
330
E03
330
E04
330
E05
330
E36
102
}
330
1DDA
100
AcDbSymbolTableRecord
100
AcDbDimStyleTableRecord
  2
STANDARD
 70
     0
 40
11.0
 41
0.125
 43
0.375
 44
0.0625
 78
     3
141
0.0625
147
0.0625
276
     2
277
     4
279
     2
284
     3
340
1E68
  0
DIMSTYLE
105
291B
330
1DDA
100
AcDbSymbolTableRecord
100
AcDbDimStyleTableRecord
  2
STANDARD$2
 70
     0
 40
11.0
 41
0.125
 43
0.375
 44
0.0625
 78
     3
141
0.0625
147
0.0625
271
     0
272
     0
276
     2
277
     4
279
     2
284
     3
340
1E68
  0
DIMSTYLE
105
29B9
102
{ACAD_REACTORS
330
DC8
330
2CAE
330
2DFC
330
2E1E
330
33DA
102
}
330
1DDA
100
AcDbSymbolTableRecord
100
AcDbDimStyleTableRecord
  2
STANDARD$0
 70
     0
 40
11.0
 41
0.125
 43
0.375
 44
0.0625
 78
     3
141
0.0625
147
0.0625
276
     2
277
     4
279
     2
284
     3
340
1E68
  0
ENDTAB
  0
TABLE
  2
BLOCK_RECORD
  5
1DD1
330
0
100
AcDbSymbolTable
 70
    18
  0
BLOCK_RECORD
  5
1DE8
102
{ACAD_XDICTIONARY
360
2BFA
102
}
330
1DD1
100
AcDbSymbolTableRecord
100
AcDbBlockTableRecord
  2
*MODEL_SPACE
340
2B44
 70
     0
280
     1
281
     0
  0
BLOCK_RECORD
  5
1DE5
102
{ACAD_XDICTIONARY
360
2BF8
102
}
330
1DD1
100
AcDbSymbolTableRecord
100
AcDbBlockTableRecord
  2
*PAPER_SPACE
340
2B45
 70
     0
280
     1
281
     0
  0
BLOCK_RECORD
  5
1E0F
330
1DD1
100
AcDbSymbolTableRecord
100
AcDbBlockTableRecord
  2
LINETYPE
340
0
102
{BLKREFS
331
E5D
331
E5E
331
E5F
331
14C8
331
14C9
331
14CA
331
1A41
331
1A42
331
1AB1
331
1AB6
331
2718
102
}
 70
     0
280
     1
281
     0
  0
BLOCK_RECORD
  5
27F0
330
1DD1
100
AcDbSymbolTableRecord
100
AcDbBlockTableRecord
  2
*D1
340
0
 70
     0
280
     1
281
     0
  0
BLOCK_RECORD
  5
27FD
330
1DD1
100
AcDbSymbolTableRecord
100
AcDbBlockTableRecord
  2
*D2
340
0
 70
     0
280
     1
281
     0
  0
BLOCK_RECORD
  5
280A
330
1DD1
100
AcDbSymbolTableRecord
100
AcDbBlockTableRecord
  2
*D3
340
0
 70
     0
280
     1
281
     0
  0
BLOCK_RECORD
  5
2817
330
1DD1
100
AcDbSymbolTableRecord
100
AcDbBlockTableRecord
  2
*D4
340
0
 70
     0
280
     1
281
     0
  0
BLOCK_RECORD
  5
2824
330
1DD1
100
AcDbSymbolTableRecord
100
AcDbBlockTableRecord
  2
*D5
340
0
 70
     0
280
     1
281
     0
  0
BLOCK_RECORD
  5
2831
330
1DD1
100
AcDbSymbolTableRecord
100
AcDbBlockTableRecord
  2
*D6
340
0
 70
     0
280
     1
281
     0
  0
BLOCK_RECORD
  5
284B
330
1DD1
100
AcDbSymbolTableRecord
100
AcDbBlockTableRecord
  2
*D7
340
0
 70
     0
280
     1
281
     0
  0
BLOCK_RECORD
  5
2A03
330
1DD1
100
AcDbSymbolTableRecord
100
AcDbBlockTableRecord
  2
*D8
340
0
 70
     0
280
     1
281
     0
  0
BLOCK_RECORD
  5
2B18
102
{ACAD_XDICTIONARY
360
2C04
102
}
330
1DD1
100
AcDbSymbolTableRecord
100
AcDbBlockTableRecord
  2
BORDER
340
0
102
{BLKREFS
331
2B1C
102
}
 70
     0
280
     1
281
     0
  0
BLOCK_RECORD
  5
2B1D
330
1DD1
100
AcDbSymbolTableRecord
100
AcDbBlockTableRecord
  2
BORDER-T
340
0
102
{BLKREFS
331
2B2E
102
}
 70
     0
280
     1
281
     0
  0
BLOCK_RECORD
  5
2C87
102
{ACAD_XDICTIONARY
360
2D28
102
}
330
1DD1
100
AcDbSymbolTableRecord
100
AcDbBlockTableRecord
  2
*U11
340
0
102
{BLKREFS
331
2C92
102
}
 70
     0
280
     1
281
     0
1001
ACAUTHENVIRON
1005
2D1F
1001
AcDbDynamicBlockTrueName
1000
A$C716264CC
1001
AcDbDynamicBlockGUID
1000
{E3A04D33-5A04-41E8-B311-91C74CDD9F8D}
1001
AcDbBlockRepETag
1070
     1
1071
        6
  0
BLOCK_RECORD
  5
2CAF
330
1DD1
100
AcDbSymbolTableRecord
100
AcDbBlockTableRecord
  2
*D12
340
0
 70
     0
280
     1
281
     0
  0
BLOCK_RECORD
  5
2DFD
330
1DD1
100
AcDbSymbolTableRecord
100
AcDbBlockTableRecord
  2
*D13
340
0
 70
     0
280
     1
281
     0
  0
BLOCK_RECORD
  5
2E1F
330
1DD1
100
AcDbSymbolTableRecord
100
AcDbBlockTableRecord
  2
*D14
340
0
 70
     0
280
     1
281
     0
  0
BLOCK_RECORD
  5
2E54
330
1DD1
100
AcDbSymbolTableRecord
100
AcDbBlockTableRecord
  2
*X15
340
0
102
{BLKREFS
331
2E53
102
}
 70
     0
280
     1
281
     0
  0
BLOCK_RECORD
  5
33DB
330
1DD1
100
AcDbSymbolTableRecord
100
AcDbBlockTableRecord
  2
*D16
340
0
 70
     0
280
     1
281
     0
  0
ENDTAB
  0
ENDSEC
  0
SECTION
  2
BLOCKS
  0
BLOCK
  5
1E77
330
1DE8
100
AcDbEntity
  8
0
100
AcDbBlockBegin
  2
*MODEL_SPACE
 70
     0
 10
0.0
 20
0.0
 30
0.0
  3
*MODEL_SPACE
  1

  0
ENDBLK
  5
1E78
330
1DE8
100
AcDbEntity
  8
0
100
AcDbBlockEnd
  0
BLOCK
  5
1E75
330
1DE5
100
AcDbEntity
 67
     1
  8
0
100
AcDbBlockBegin
  2
*PAPER_SPACE
 70
     0
 10
0.0
 20
0.0
 30
0.0
  3
*PAPER_SPACE
  1

  0
ENDBLK
  5
1E76
330
1DE5
100
AcDbEntity
 67
     1
  8
0
100
AcDbBlockEnd
  0
BLOCK
  5
380
330
1E0F
100
AcDbEntity
  8
0
100
AcDbBlockBegin
  2
LINETYPE
 70
     0
 10
0.0
 20
0.0
 30
0.0
  3
LINETYPE
  1

  0
ENDBLK
  5
381
330
1E0F
100
AcDbEntity
  8
0
100
AcDbBlockEnd
  0
BLOCK
  5
2972
330
27F0
100
AcDbEntity
  8
0
100
AcDbBlockBegin
  2
*D1
 70
     1
 10
0.0
 20
0.0
 30
0.0
  3
*D1
  1

  0
LINE
  5
2D79
330
27F0
100
AcDbEntity
  8
0
 62
     0
370
    -2
100
AcDbLine
 10
179.0440233878828
 20
61.15552042703491
 30
0.0
 11
179.0440233878828
 21
56.27622831767194
 31
0.0
  0
LINE
  5
2D7A
330
27F0
100
AcDbEntity
  8
0
 62
     0
370
    -2
100
AcDbLine
 10
204.2440233878831
 20
61.15552042703491
 30
0.0
 11
204.2440233878831
 21
56.27622831767194
 31
0.0
  0
LINE
  5
2D7B
330
27F0
100
AcDbEntity
  8
0
 62
     0
370
    -2
100
AcDbLine
 10
180.4190233878827
 20
56.96372831767194
 30
0.0
 11
189.5893805307401
 21
56.96372831767194
 31
0.0
  0
LINE
  5
2D7C
330
27F0
100
AcDbEntity
  8
0
 62
     0
370
    -2
100
AcDbLine
 10
202.8690233878831
 20
56.96372831767194
 30
0.0
 11
193.6986662450258
 21
56.96372831767194
 31
0.0
  0
SOLID
  5
2D7D
330
27F0
100
AcDbEntity
  8
0
 62
     0
100
AcDbTrace
 10
180.4190233878827
 20
57.19289498433861
 30
0.0
 11
180.4190233878827
 21
56.73456165100528
 31
0.0
 12
179.0440233878828
 22
56.96372831767194
 32
0.0
 13
179.0440233878828
 23
56.96372831767194
 33
0.0
  0
SOLID
  5
2D7E
330
27F0
100
AcDbEntity
  8
0
 62
     0
100
AcDbTrace
 10
202.8690233878831
 20
57.19289498433861
 30
0.0
 11
202.8690233878831
 21
56.73456165100528
 31
0.0
 12
204.2440233878831
 22
56.96372831767194
 32
0.0
 13
204.2440233878831
 23
56.96372831767194
 33
0.0
  0
MTEXT
  5
2D7F
330
27F0
100
AcDbEntity
  8
0
 62
     0
100
AcDbMText
 10
191.6440233878829
 20
56.96372831767194
 30
0.0
 40
1.98
 41
0.0
 46
0.0
 71
     5
 72
     1
  1
\A1;4"
  7
ROMANS
 73
     1
 44
1.0
  0
POINT
  5
2D80
330
27F0
100
AcDbEntity
  8
DEFPOINTS
 62
     0
100
AcDbPoint
 10
179.0440233878828
 20
61.84302042703492
 30
0.0
  0
POINT
  5
2D81
330
27F0
100
AcDbEntity
  8
DEFPOINTS
 62
     0
100
AcDbPoint
 10
204.2440233878831
 20
61.84302042703492
 30
0.0
  0
POINT
  5
2D82
330
27F0
100
AcDbEntity
  8
DEFPOINTS
 62
     0
100
AcDbPoint
 10
204.2440233878831
 20
56.96372831767194
 30
0.0
  0
ENDBLK
  5
297D
330
27F0
100
AcDbEntity
  8
0
100
AcDbBlockEnd
  0
BLOCK
  5
2966
330
27FD
100
AcDbEntity
  8
0
100
AcDbBlockBegin
  2
*D2
 70
     1
 10
0.0
 20
0.0
 30
0.0
  3
*D2
  1

  0
LINE
  5
2D6F
330
27FD
100
AcDbEntity
  8
0
 62
     0
370
    -2
100
AcDbLine
 10
211.1080234897331
 20
70.79927042703491
 30
0.0
 11
211.1080234897331
 21
77.36664897278962
 31
0.0
  0
LINE
  5
2D70
330
27FD
100
AcDbEntity
  8
0
 62
     0
370
    -2
100
AcDbLine
 10
178.1722715829707
 20
70.97802918630737
 30
0.0
 11
178.1722715829707
 21
77.36664897278962
 31
0.0
  0
LINE
  5
2D71
330
27FD
100
AcDbEntity
  8
0
 62
     0
370
    -2
100
AcDbLine
 10
209.733023489733
 20
76.67914897278961
 30
0.0
 11
201.7862189649233
 21
76.67914897278961
 31
0.0
  0
LINE
  5
2D72
330
27FD
100
AcDbEntity
  8
0
 62
     0
370
    -2
100
AcDbLine
 10
179.5472715829707
 20
76.67914897278961
 30
0.0
 11
187.4940761077805
 21
76.67914897278961
 31
0.0
  0
SOLID
  5
2D73
330
27FD
100
AcDbEntity
  8
0
 62
     0
100
AcDbTrace
 10
209.733023489733
 20
76.90831563945629
 30
0.0
 11
209.733023489733
 21
76.44998230612294
 31
0.0
 12
211.1080234897331
 22
76.67914897278961
 32
0.0
 13
211.1080234897331
 23
76.67914897278961
 33
0.0
  0
SOLID
  5
2D74
330
27FD
100
AcDbEntity
  8
0
 62
     0
100
AcDbTrace
 10
179.5472715829707
 20
76.90831563945629
 30
0.0
 11
179.5472715829707
 21
76.44998230612294
 31
0.0
 12
178.1722715829707
 22
76.67914897278961
 32
0.0
 13
178.1722715829707
 23
76.67914897278961
 33
0.0
  0
MTEXT
  5
2D75
330
27FD
100
AcDbEntity
  8
0
 62
     0
100
AcDbMText
 10
194.6401475363519
 20
76.67914897278961
 30
0.0
 40
1.98
 41
0.0
 46
0.0
 71
     5
 72
     1
  1
\A1;5-3/16"
  7
ROMANS
 73
     1
 44
1.0
  0
POINT
  5
2D76
330
27FD
100
AcDbEntity
  8
DEFPOINTS
 62
     0
100
AcDbPoint
 10
211.1080234897331
 20
70.11177042703491
 30
0.0
  0
POINT
  5
2D77
330
27FD
100
AcDbEntity
  8
DEFPOINTS
 62
     0
100
AcDbPoint
 10
178.1722715829707
 20
70.29052918630736
 30
0.0
  0
POINT
  5
2D78
330
27FD
100
AcDbEntity
  8
DEFPOINTS
 62
     0
100
AcDbPoint
 10
178.1722715829707
 20
76.67914897278961
 30
0.0
  0
ENDBLK
  5
2971
330
27FD
100
AcDbEntity
  8
0
100
AcDbBlockEnd
  0
BLOCK
  5
29D4
330
280A
100
AcDbEntity
  8
0
100
AcDbBlockBegin
  2
*D3
 70
     1
 10
0.0
 20
0.0
 30
0.0
  3
*D3
  1

  0
LINE
  5
2D5B
330
280A
100
AcDbEntity
  8
0
 62
     0
370
    -2
100
AcDbLine
 10
181.3208035653092
 20
139.0143687823228
 30
0.0
 11
171.7843016390797
 21
133.5084668280868
 31
0.0
  0
LINE
  5
2D5C
330
280A
100
AcDbEntity
  8
0
 62
     0
370
    -2
100
AcDbLine
 10
181.3208035653092
 20
148.0143687823228
 30
0.0
 11
171.7843016390797
 21
142.5084668280868
 31
0.0
  0
LINE
  5
2D5D
330
280A
100
AcDbEntity
  8
0
 62
     0
370
    -2
100
AcDbLine
 10
172.4718016390797
 20
135.2803951381547
 30
0.0
 11
172.4718016390797
 21
136.2093237095833
 31
0.0
  0
LINE
  5
2D5E
330
280A
100
AcDbEntity
  8
0
 62
     0
370
    -2
100
AcDbLine
 10
172.4718016390797
 20
141.5303951381547
 30
0.0
 11
172.4718016390797
 21
140.6014665667261
 31
0.0
  0
SOLID
  5
2D5F
330
280A
100
AcDbEntity
  8
0
 62
     0
100
AcDbTrace
 10
172.2426349724131
 20
135.2803951381547
 30
0.0
 11
172.7009683057464
 21
135.2803951381547
 31
0.0
 12
172.4718016390797
 22
133.9053951381547
 32
0.0
 13
172.4718016390797
 23
133.9053951381547
 33
0.0
  0
SOLID
  5
2D60
330
280A
100
AcDbEntity
  8
0
 62
     0
100
AcDbTrace
 10
172.2426349724131
 20
141.5303951381547
 30
0.0
 11
172.7009683057464
 21
141.5303951381547
 31
0.0
 12
172.4718016390797
 22
142.9053951381547
 32
0.0
 13
172.4718016390797
 23
142.9053951381547
 33
0.0
  0
MTEXT
  5
2D61
330
280A
100
AcDbEntity
  8
0
 62
     0
100
AcDbMText
 10
172.4718016390797
 20
138.4053951381547
 30
0.0
 40
1.98
 41
0.0
 46
0.0
 71
     5
 72
     1
  1
\A1;2-1/2"
  7
ROMANS
 73
     1
 44
1.0
  0
POINT
  5
2D62
330
280A
100
AcDbEntity
  8
DEFPOINTS
 62
     0
100
AcDbPoint
 10
182.0083035653092
 20
139.4112970923906
 30
0.0
  0
POINT
  5
2D63
330
280A
100
AcDbEntity
  8
DEFPOINTS
 62
     0
100
AcDbPoint
 10
182.0083035653092
 20
148.4112970923907
 30
0.0
  0
POINT
  5
2D64
330
280A
100
AcDbEntity
  8
DEFPOINTS
 62
     0
100
AcDbPoint
 10
172.4718016390797
 20
142.9053951381547
 30
0.0
  0
ENDBLK
  5
29DF
330
280A
100
AcDbEntity
  8
0
100
AcDbBlockEnd
  0
BLOCK
  5
2936
330
2817
100
AcDbEntity
  8
0
100
AcDbBlockBegin
  2
*D4
 70
     1
 10
0.0
 20
0.0
 30
0.0
  3
*D4
  1

  0
LINE
  5
2D51
330
2817
100
AcDbEntity
  8
0
 62
     0
370
    -2
100
AcDbLine
 10
200.8173851394985
 20
147.5707254024585
 30
0.0
 11
208.9212019578583
 21
152.2494662240019
 31
0.0
  0
LINE
  5
2D52
330
2817
100
AcDbEntity
  8
0
 62
     0
370
    -2
100
AcDbLine
 10
186.0083507347846
 20
156.1207254024585
 30
0.0
 11
194.1121675531444
 21
160.7994662240019
 31
0.0
  0
LINE
  5
2D53
330
2817
100
AcDbEntity
  8
0
 62
     0
370
    -2
100
AcDbLine
 10
207.0429170276547
 20
152.5400379139341
 30
0.0
 11
204.6328920468375
 21
153.9314664853626
 31
0.0
  0
LINE
  5
2D54
330
2817
100
AcDbEntity
  8
0
 62
     0
370
    -2
100
AcDbLine
 10
194.615452483348
 20
159.7150379139341
 30
0.0
 11
197.0254774641653
 21
158.3236093425054
 31
0.0
  0
SOLID
  5
2D55
330
2817
100
AcDbEntity
  8
0
 62
     0
100
AcDbTrace
 10
207.157500360988
 20
152.738502068968
 30
0.0
 11
206.9283336943213
 21
152.3415737589002
 31
0.0
 12
208.2337019578583
 22
151.8525379139341
 32
0.0
 13
208.2337019578583
 23
151.8525379139341
 33
0.0
  0
SOLID
  5
2D56
330
2817
100
AcDbEntity
  8
0
 62
     0
100
AcDbTrace
 10
194.7300358166813
 20
159.913502068968
 30
0.0
 11
194.5008691500147
 21
159.5165737589001
 31
0.0
 12
193.4246675531444
 22
160.4025379139341
 32
0.0
 13
193.4246675531444
 23
160.4025379139341
 33
0.0
  0
MTEXT
  5
2D57
330
2817
100
AcDbEntity
  8
0
 62
     0
100
AcDbMText
 10
200.8291847555013
 20
156.1275379139341
 30
0.0
 40
1.98
 41
0.0
 46
0.0
 71
     5
 72
     1
  1
\A1;4-3/4"
  7
ROMANS
 73
     1
 44
1.0
  0
POINT
  5
2D58
330
2817
100
AcDbEntity
  8
DEFPOINTS
 62
     0
100
AcDbPoint
 10
200.1298851394985
 20
147.1737970923907
 30
0.0
  0
POINT
  5
2D59
330
2817
100
AcDbEntity
  8
DEFPOINTS
 62
     0
100
AcDbPoint
 10
185.3208507347846
 20
155.7237970923907
 30
0.0
  0
POINT
  5
2D5A
330
2817
100
AcDbEntity
  8
DEFPOINTS
 62
     0
100
AcDbPoint
 10
193.4246675531444
 20
160.4025379139341
 30
0.0
  0
ENDBLK
  5
2941
330
2817
100
AcDbEntity
  8
0
100
AcDbBlockEnd
  0
BLOCK
  5
292A
330
2824
100
AcDbEntity
  8
0
100
AcDbBlockBegin
  2
*D5
 70
     1
 10
0.0
 20
0.0
 30
0.0
  3
*D5
  1

  0
LINE
  5
2D47
330
2824
100
AcDbEntity
  8
0
 62
     0
370
    -2
100
AcDbLine
 10
200.8173851394985
 20
129.5707254024585
 30
0.0
 11
208.9212019578584
 21
134.249466224002
 31
0.0
  0
LINE
  5
2D48
330
2824
100
AcDbEntity
  8
0
 62
     0
370
    -2
100
AcDbLine
 10
200.8173851394985
 20
147.5707254024585
 30
0.0
 11
208.9212019578584
 21
152.249466224002
 31
0.0
  0
LINE
  5
2D49
330
2824
100
AcDbEntity
  8
0
 62
     0
370
    -2
100
AcDbLine
 10
208.2337019578584
 20
135.2275379139341
 30
0.0
 11
208.2337019578584
 21
140.9864664853627
 31
0.0
  0
LINE
  5
2D4A
330
2824
100
AcDbEntity
  8
0
 62
     0
370
    -2
100
AcDbLine
 10
208.2337019578584
 20
150.4775379139342
 30
0.0
 11
208.2337019578584
 21
144.7186093425055
 31
0.0
  0
SOLID
  5
2D4B
330
2824
100
AcDbEntity
  8
0
 62
     0
100
AcDbTrace
 10
208.0045352911918
 20
135.2275379139341
 30
0.0
 11
208.4628686245251
 21
135.2275379139341
 31
0.0
 12
208.2337019578584
 22
133.8525379139341
 32
0.0
 13
208.2337019578584
 23
133.8525379139341
 33
0.0
  0
SOLID
  5
2D4C
330
2824
100
AcDbEntity
  8
0
 62
     0
100
AcDbTrace
 10
208.0045352911918
 20
150.4775379139342
 30
0.0
 11
208.4628686245251
 21
150.4775379139342
 31
0.0
 12
208.2337019578584
 22
151.8525379139342
 32
0.0
 13
208.2337019578584
 23
151.8525379139342
 33
0.0
  0
MTEXT
  5
2D4D
330
2824
100
AcDbEntity
  8
0
 62
     0
100
AcDbMText
 10
208.2337019578584
 20
142.8525379139342
 30
0.0
 40
1.98
 41
0.0
 46
0.0
 71
     5
 72
     1
  1
\A1;5"
  7
ROMANS
 73
     1
 44
1.0
  0
POINT
  5
2D4E
330
2824
100
AcDbEntity
  8
DEFPOINTS
 62
     0
100
AcDbPoint
 10
200.1298851394985
 20
129.1737970923906
 30
0.0
  0
POINT
  5
2D4F
330
2824
100
AcDbEntity
  8
DEFPOINTS
 62
     0
100
AcDbPoint
 10
200.1298851394985
 20
147.1737970923907
 30
0.0
  0
POINT
  5
2D50
330
2824
100
AcDbEntity
  8
DEFPOINTS
 62
     0
100
AcDbPoint
 10
208.2337019578584
 20
151.8525379139342
 30
0.0
  0
ENDBLK
  5
2935
330
2824
100
AcDbEntity
  8
0
100
AcDbBlockEnd
  0
BLOCK
  5
29C7
330
2831
100
AcDbEntity
  8
0
100
AcDbBlockBegin
  2
*D6
 70
     1
 10
0.0
 20
0.0
 30
0.0
  3
*D6
  1

  0
LINE
  5
2D65
330
2831
100
AcDbEntity
  8
0
 62
     0
370
    -2
100
AcDbLine
 10
199.3504622760925
 20
127.9299404722549
 30
0.0
 11
199.3504622760925
 21
124.2555192907566
 31
0.0
  0
LINE
  5
2D66
330
2831
100
AcDbEntity
  8
0
 62
     0
370
    -2
100
AcDbLine
 10
200.1298851394985
 20
128.3799404722549
 30
0.0
 11
200.1298851394984
 21
124.7055192907566
 31
0.0
  0
LINE
  5
2D67
330
2831
100
AcDbEntity
  8
0
 62
     0
370
    -2
100
AcDbLine
 10
198.1596773458888
 20
124.3618759108924
 30
0.0
 11
196.9688924156852
 21
123.6743759108924
 31
0.0
  0
LINE
  5
2D68
330
2831
100
AcDbEntity
  8
0
 62
     0
370
    -2
100
AcDbLine
 10
201.3206700697021
 20
126.1868759108923
 30
0.0
 11
202.5114549999056
 21
126.8743759108923
 31
0.0
  0
MTEXT
  5
2D69
330
2831
100
AcDbEntity
  8
0
 62
     0
100
AcDbMText
 10
193.4675854212336
 20
123.9061863394442
 30
0.0
 40
1.98
 41
0.0
 46
0.0
 71
     5
 72
     1
  1
\A1;1/4"
  7
ROMANS
 73
     1
 44
1.0
  0
SOLID
  5
2D6A
330
2831
100
AcDbEntity
  8
0
 62
     0
100
AcDbTrace
 10
198.0450940125555
 20
124.5603400659263
 30
0.0
 11
198.2742606792221
 21
124.1634117558584
 31
0.0
 12
199.3504622760924
 22
125.0493759108924
 32
0.0
 13
199.3504622760924
 23
125.0493759108924
 33
0.0
  0
SOLID
  5
2D6B
330
2831
100
AcDbEntity
  8
0
 62
     0
100
AcDbTrace
 10
201.2060867363687
 20
126.3853400659263
 30
0.0
 11
201.4352534030354
 21
125.9884117558584
 31
0.0
 12
200.1298851394984
 22
125.4993759108923
 32
0.0
 13
200.1298851394984
 23
125.4993759108923
 33
0.0
  0
POINT
  5
2D6C
330
2831
100
AcDbEntity
  8
DEFPOINTS
 62
     0
100
AcDbPoint
 10
199.3504622760925
 20
128.7237970923907
 30
0.0
  0
POINT
  5
2D6D
330
2831
100
AcDbEntity
  8
DEFPOINTS
 62
     0
100
AcDbPoint
 10
200.1298851394985
 20
129.1737970923906
 30
0.0
  0
POINT
  5
2D6E
330
2831
100
AcDbEntity
  8
DEFPOINTS
 62
     0
100
AcDbPoint
 10
200.1298851394984
 20
125.4993759108923
 30
0.0
  0
ENDBLK
  5
29D3
330
2831
100
AcDbEntity
  8
0
100
AcDbBlockEnd
  0
BLOCK
  5
2989
330
284B
100
AcDbEntity
  8
0
100
AcDbBlockBegin
  2
*D7
 70
     1
 10
0.0
 20
0.0
 30
0.0
  3
*D7
  1

  0
LINE
  5
33A2
330
284B
100
AcDbEntity
  8
0
 62
     0
370
    -2
100
AcDbLine
 10
22.46213702257988
 20
154.6148046906706
 30
0.0
 11
22.46213702257988
 21
150.6536276533762
 31
0.0
  0
LINE
  5
33A3
330
284B
100
AcDbEntity
  8
0
 62
     0
370
    -2
100
AcDbLine
 10
-0.9378629774201243
 20
154.6148046906706
 30
0.0
 11
-0.9378629774201247
 21
150.6536276533762
 31
0.0
  0
LINE
  5
33A4
330
284B
100
AcDbEntity
  8
0
 62
     0
370
    -2
100
AcDbLine
 10
21.08713702257988
 20
151.3411276533762
 30
0.0
 11
13.75963702257988
 21
151.3411276533762
 31
0.0
  0
LINE
  5
33A5
330
284B
100
AcDbEntity
  8
0
 62
     0
370
    -2
100
AcDbLine
 10
0.4371370225798755
 20
151.3411276533762
 30
0.0
 11
7.764637022579877
 21
151.3411276533762
 31
0.0
  0
SOLID
  5
33A6
330
284B
100
AcDbEntity
  8
0
 62
     0
100
AcDbTrace
 10
21.08713702257988
 20
151.5702943200429
 30
0.0
 11
21.08713702257988
 21
151.1119609867096
 31
0.0
 12
22.46213702257988
 22
151.3411276533762
 32
0.0
 13
22.46213702257988
 23
151.3411276533762
 33
0.0
  0
SOLID
  5
33A7
330
284B
100
AcDbEntity
  8
0
 62
     0
100
AcDbTrace
 10
0.4371370225798755
 20
151.5702943200429
 30
0.0
 11
0.4371370225798755
 21
151.1119609867096
 31
0.0
 12
-0.9378629774201245
 22
151.3411276533762
 32
0.0
 13
-0.9378629774201245
 23
151.3411276533762
 33
0.0
  0
MTEXT
  5
33A8
330
284B
100
AcDbEntity
  8
0
 62
     0
100
AcDbMText
 10
10.76213702257987
 20
151.3411276533762
 30
0.0
 40
1.98
 41
0.0
 46
0.0
 71
     5
 72
     1
  1
\A1;20"
  7
ROMANS
 73
     1
 44
1.0
  0
POINT
  5
33A9
330
284B
100
AcDbEntity
  8
DEFPOINTS
 62
     0
100
AcDbPoint
 10
22.46213702257988
 20
155.3023046906707
 30
0.0
  0
POINT
  5
33AA
330
284B
100
AcDbEntity
  8
DEFPOINTS
 62
     0
100
AcDbPoint
 10
-0.9378629774201243
 20
155.3023046906707
 30
0.0
  0
POINT
  5
33AB
330
284B
100
AcDbEntity
  8
DEFPOINTS
 62
     0
100
AcDbPoint
 10
-0.9378629774201245
 20
151.3411276533762
 30
0.0
  0
ENDBLK
  5
2994
330
284B
100
AcDbEntity
  8
0
100
AcDbBlockEnd
  0
BLOCK
  5
2A04
330
2A03
100
AcDbEntity
  8
0
100
AcDbBlockBegin
  2
*D8
 70
     1
 10
0.0
 20
0.0
 30
0.0
  3
*D8
  1

  0
LINE
  5
2E14
330
2A03
100
AcDbEntity
  8
0
 62
     0
370
    -2
100
AcDbLine
 10
142.4844381669137
 20
18.32410411472175
 30
0.0
 11
142.4844381669137
 21
12.41050820521873
 31
0.0
  0
LINE
  5
2E15
330
2A03
100
AcDbEntity
  8
0
 62
     0
370
    -2
100
AcDbLine
 10
118.4844381669137
 20
18.32410411472183
 30
0.0
 11
118.4844381669137
 21
12.41050820521873
 31
0.0
  0
LINE
  5
2E16
330
2A03
100
AcDbEntity
  8
0
 62
     0
370
    -2
100
AcDbLine
 10
141.1094381669137
 20
13.09800820521873
 30
0.0
 11
137.1119381669137
 21
13.09800820521873
 31
0.0
  0
LINE
  5
2E17
330
2A03
100
AcDbEntity
  8
0
 62
     0
370
    -2
100
AcDbLine
 10
119.8594381669137
 20
13.09800820521873
 30
0.0
 11
123.8569381669137
 21
13.09800820521873
 31
0.0
  0
SOLID
  5
2E18
330
2A03
100
AcDbEntity
  8
0
 62
     0
100
AcDbTrace
 10
141.1094381669137
 20
13.3271748718854
 30
0.0
 11
141.1094381669137
 21
12.86884153855206
 31
0.0
 12
142.4844381669137
 22
13.09800820521873
 32
0.0
 13
142.4844381669137
 23
13.09800820521873
 33
0.0
  0
SOLID
  5
2E19
330
2A03
100
AcDbEntity
  8
0
 62
     0
100
AcDbTrace
 10
119.8594381669137
 20
13.3271748718854
 30
0.0
 11
119.8594381669137
 21
12.86884153855206
 31
0.0
 12
118.4844381669137
 22
13.09800820521873
 32
0.0
 13
118.4844381669137
 23
13.09800820521873
 33
0.0
  0
MTEXT
  5
2E1A
330
2A03
100
AcDbEntity
  8
0
 62
     0
100
AcDbMText
 10
130.4844381669137
 20
13.09800820521873
 30
0.0
 40
1.98
 41
0.0
 46
0.0
 71
     5
 72
     1
  1
\A1;24" STD
  7
ROMANS
 73
     1
 44
1.0
  0
POINT
  5
2E1B
330
2A03
100
AcDbEntity
  8
DEFPOINTS
 62
     0
100
AcDbPoint
 10
142.4844381669137
 20
19.01160411472175
 30
0.0
  0
POINT
  5
2E1C
330
2A03
100
AcDbEntity
  8
DEFPOINTS
 62
     0
100
AcDbPoint
 10
118.4844381669137
 20
19.01160411472183
 30
0.0
  0
POINT
  5
2E1D
330
2A03
100
AcDbEntity
  8
DEFPOINTS
 62
     0
100
AcDbPoint
 10
118.4844381669137
 20
13.09800820521873
 30
0.0
  0
ENDBLK
  5
2A0F
330
2A03
100
AcDbEntity
  8
0
100
AcDbBlockEnd
  0
BLOCK
  5
2B19
330
2B18
100
AcDbEntity
  8
0
 62
     7
100
AcDbBlockBegin
  2
BORDER
 70
     0
 10
-0.7091800116219247
 20
15.8157349101412
 30
0.0
  3
BORDER
  1
\\precisionserver\c$\Cad Files\Ladders\STANDARD\X-REF\BORDER.DWG
  0
TEXT
  5
2E47
330
2B18
100
AcDbEntity
  8
0
 62
     7
100
AcDbText
 10
14.88063647735446
 20
3.555192752089312
 30
0.0
 40
1.424754602022192
  1
Ph: (423) 586-2265 Fax: (423) 586-2091
  7
ROMANS
100
AcDbText
  0
TEXT
  5
2E48
330
2B18
100
AcDbEntity
  8
0
 62
     7
100
AcDbText
 10
14.08259024903725
 20
5.861938298220419
 30
0.0
 40
1.424754602022192
  1
P.O. BOX 2279 Morristown, TN 37816-2279
  7
ROMANS
100
AcDbText
  0
POLYLINE
  5
2E49
330
2B18
100
AcDbEntity
  8
0
 62
     7
100
AcDb2dPolyline
 66
     1
 10
0.0
 20
0.0
 30
0.0
1001
ACAD
1000
ASC_BOUNDS
1002
{
1070
    19
1002
}
  0
VERTEX
  5
2E4A
330
2E49
100
AcDbEntity
  8
0
 62
     7
100
AcDbVertex
100
AcDb2dVertex
 10
8.76668081738618
 20
6.443475067235917
 30
0.0
  0
VERTEX
  5
2E4B
330
2E49
100
AcDbEntity
  8
0
 62
     7
100
AcDbVertex
100
AcDb2dVertex
 10
8.994566881815796
 20
6.559590470402543
 30
0.0
1001
ACAD
1000
ASC_BOUNDS
1002
{
1070
    19
1002
}
  0
VERTEX
  5
2E4C
330
2E49
100
AcDbEntity
  8
0
 62
     7
100
AcDbVertex
100
AcDb2dVertex
 10
10.52763436609126
 20
3.491790326072929
 30
0.0
1001
ACAD
1000
ASC_BOUNDS
1002
{
1070
    19
1002
}
  0
VERTEX
  5
2E4D
330
2E49
100
AcDbEntity
  8
0
 62
     7
100
AcDbVertex
100
AcDb2dVertex
 10
10.03502769416031
 20
3.494898529831858
 30
0.0
  0
VERTEX
  5
2E4E
330
2E49
100
AcDbEntity
  8
0
 62
     7
100
AcDbVertex
100
AcDb2dVertex
 10
8.603173268005281
 20
6.360162623077897
 30
0.0
  0
SEQEND
  5
2E4F
330
2E49
100
AcDbEntity
  8
0
 62
     7
  0
TEXT
  5
2E50
330
2B18
100
AcDbEntity
  8
0
 62
     7
100
AcDbText
 10
9.015369284921124
 20
8.285226862434923
 30
0.0
 40
2.328886132939683
  1
Precision Ladders, LLC
  7
STYLE1
100
AcDbText
  0
CIRCLE
  5
2E52
330
2B18
100
AcDbEntity
  8
0
100
AcDbCircle
 10
7.214644270335542
 20
7.94378092785312
 30
0.0
 40
6.38678347424664
1001
ACAD
1000
ASC_BOUNDS
1002
{
1070
    19
1002
}
  0
INSERT
  5
2E53
330
2B18
100
AcDbEntity
  8
0
100
AcDbBlockReference
  2
*X15
 10
26.35103919121864
 20
151.2550454807789
 30
0.0
 41
0.5167726248169388
 42
0.5167726248169388
 43
0.5167726248169388
1001
ACAD
1000
HATCH
1002
{
1070
    19
1000
ANSI31
1040
0.8843871093750001
1040
0.0
1002
}
  0
LWPOLYLINE
  5
30A1
330
2B18
100
AcDbEntity
  8
0
 62
     7
100
AcDbPolyline
 90
        4
 70
     1
 43
0.0
 10
2.975488579343778
 20
11.20574487544478
 10
2.975488579343778
 20
11.66813709808385
 10
7.899965750449311
 20
11.66813709808385
 10
7.899965750449311
 20
11.20574487544478
1001
ACAD
1000
ASC_BOUNDS
1002
{
1070
    19
1005
0
1005
0
1002
}
  0
LINE
  5
30A2
330
2B18
100
AcDbEntity
  8
0
 62
     7
100
AcDbLine
 10
3.147317460242414
 20
11.15583866480144
 30
0.0
 11
5.194053803500196
 21
7.138892415524503
 31
0.0
1001
ACAD
1000
ASC_BOUNDS
1002
{
1070
    19
1002
}
  0
LWPOLYLINE
  5
30A3
330
2B18
100
AcDbEntity
  8
0
 62
     7
100
AcDbPolyline
 90
        4
 70
     0
 43
0.0
 10
3.043241497727863
 20
11.20371728648949
 10
5.210472883142562
 20
6.950286201614064
 10
5.200585015452041
 20
6.945248081384525
 10
3.033353630037339
 20
11.19867916625991
1001
ACAD
1000
ASC_BOUNDS
1002
{
1070
    19
1002
}
  0
LINE
  5
30A4
330
2B18
100
AcDbEntity
  8
0
 62
     7
100
AcDbLine
 10
3.085518287176609
 20
11.12435041336667
 30
0.0
 11
3.147317460242414
 21
11.15583866480144
 31
0.0
1001
ACAD
1000
ASC_BOUNDS
1002
{
1070
    19
1002
}
  0
LINE
  5
30A5
330
2B18
100
AcDbEntity
  8
0
 62
     7
100
AcDbLine
 10
3.147317460242414
 20
11.15583866480144
 30
0.0
 11
3.24526391354098
 21
11.20574487544478
 31
0.0
1001
ACAD
1000
ASC_BOUNDS
1002
{
1070
    19
1002
}
  0
LINE
  5
30A6
330
2B18
100
AcDbEntity
  8
0
 62
     7
100
AcDbLine
 10
3.147317460242414
 20
11.15583866480144
 30
0.0
 11
3.273270465981353
 21
10.90864197253827
 31
0.0
1001
ACAD
1000
ASC_BOUNDS
1002
{
1070
    19
1002
}
  0
LINE
  5
30A7
330
2B18
100
AcDbEntity
  8
0
 62
     7
100
AcDbLine
 10
5.072300872670789
 20
9.537448078706589
 30
0.0
 11
4.595747463433541
 21
8.569300236298884
 31
0.0
1001
ACAD
1000
ASC_BOUNDS
1002
{
1070
    19
1005
0
1002
}
  0
LWPOLYLINE
  5
30A8
330
2B18
100
AcDbEntity
  8
0
 62
     7
100
AcDbPolyline
 90
        2
 70
     0
 43
0.0
 10
4.96050641954463
 20
9.543645531164395
 10
4.503413916137343
 20
8.615033727373596
1001
ACAD
1000
ASC_BOUNDS
1002
{
1070
    19
1005
0
1002
}
  0
LINE
  5
30A9
330
2B18
100
AcDbEntity
  8
0
 62
     7
100
AcDbLine
 10
4.056007838214296
 20
11.20574487544478
 30
0.0
 11
4.932195406234606
 21
9.486129949655133
 31
0.0
1001
ACAD
1000
ASC_BOUNDS
1002
{
1070
    19
1002
}
  0
LINE
  5
30AA
330
2B18
100
AcDbEntity
  8
0
 62
     7
100
AcDbLine
 10
3.978164599682428
 20
11.20574487544478
 30
0.0
 11
4.89394569271214
 21
9.408423281521599
 31
0.0
1001
ACAD
1000
ASC_BOUNDS
1002
{
1070
    19
1002
}
  0
LINE
  5
30AB
330
2B18
100
AcDbEntity
  8
0
 62
     7
100
AcDbLine
 10
3.898137361914258
 20
10.64985270363091
 30
0.0
 11
4.715447029607362
 21
9.045792163565488
 31
0.0
1001
ACAD
1000
ASC_BOUNDS
1002
{
1070
    19
1002
}
  0
LINE
  5
30AC
330
2B18
100
AcDbEntity
  8
0
 62
     7
100
AcDbLine
 10
5.484078733523913
 20
6.9101431448873
 30
0.0
 11
8.603173268005281
 21
6.360162623077897
 31
0.0
1001
ACAD
1000
ASC_BOUNDS
1002
{
1070
    19
1002
}
  0
POLYLINE
  5
30AD
330
2B18
100
AcDbEntity
  8
0
 62
     7
100
AcDb2dPolyline
 66
     1
 10
0.0
 20
0.0
 30
0.0
1001
ACAD
1000
ASC_BOUNDS
1002
{
1070
    19
1002
}
  0
VERTEX
  5
30AE
330
30AD
100
AcDbEntity
  8
0
 62
     7
100
AcDbVertex
100
AcDb2dVertex
 10
5.558944561790159
 20
7.225843565768943
 30
0.0
  0
VERTEX
  5
30AF
330
30AD
100
AcDbEntity
  8
0
 62
     7
100
AcDbVertex
100
AcDb2dVertex
 10
5.585448566250242
 20
7.338318007944602
 30
0.0
1001
ACAD
1000
ASC_BOUNDS
1002
{
1070
    19
1002
}
  0
VERTEX
  5
30B0
330
30AD
100
AcDbEntity
  8
0
 62
     7
100
AcDbVertex
100
AcDb2dVertex
 10
8.691008811799829
 20
6.790723946438552
 30
0.0
1001
ACAD
1000
ASC_BOUNDS
1002
{
1070
    19
1002
}
  0
VERTEX
  5
30B1
330
30AD
100
AcDbEntity
  8
0
 62
     7
100
AcDbVertex
100
AcDb2dVertex
 10
8.636574317061809
 20
6.523891328589773
 30
0.0
  0
SEQEND
  5
30B2
330
30AD
100
AcDbEntity
  8
0
 62
     7
  0
LINE
  5
30B3
330
2B18
100
AcDbEntity
  8
0
 62
     7
100
AcDbLine
 10
4.952359499322801
 20
9.293779731001045
 30
0.0
 11
5.847982934755888
 21
7.536019767643503
 31
0.0
1001
ACAD
1000
ASC_BOUNDS
1002
{
1070
    19
1005
0
1002
}
  0
LWPOLYLINE
  5
30B4
330
2B18
100
AcDbEntity
  8
0
 62
     7
100
AcDbPolyline
 90
        2
 70
     0
 43
0.0
 10
4.990609212845239
 20
9.371486399134528
 10
5.907719454906818
 20
7.571556203358111
1001
ACAD
1000
ASC_BOUNDS
1002
{
1070
    19
1002
}
  0
LWPOLYLINE
  5
30B5
330
2B18
100
AcDbEntity
  8
0
 62
     7
100
AcDbPolyline
 90
        3
 70
     0
 43
0.0
 10
4.504244055464262
 20
8.499766960532991
 10
4.670482206169474
 20
8.58084672409489
 10
4.635360593571968
 20
8.64977676994899
1001
ACAD
1000
ASC_BOUNDS
1002
{
1070
    19
1002
}
  0
CIRCLE
  5
30B6
330
2B18
100
AcDbEntity
  8
0
 62
     7
100
AcDbCircle
 10
4.570160018674123
 20
8.632639705777032
 30
0.0
 40
0.0173397083489631
1001
ACAD
1000
ASC_BOUNDS
1002
{
1070
    19
1002
}
  0
LINE
  5
30B7
330
2B18
100
AcDbEntity
  8
0
 62
     7
100
AcDbLine
 10
4.561762586535445
 20
8.733572674442774
 30
0.0
 11
4.420275384971654
 21
8.664564755375153
 31
0.0
1001
ACAD
1000
ASC_BOUNDS
1002
{
1070
    19
1002
}
  0
LINE
  5
30B8
330
2B18
100
AcDbEntity
  8
0
 62
     7
100
AcDbLine
 10
4.39770569294264
 20
8.699031828263089
 30
0.0
 11
4.523658698681582
 21
8.451835135999917
 31
0.0
1001
ACAD
1000
ASC_BOUNDS
1002
{
1070
    19
1002
}
  0
LINE
  5
30B9
330
2B18
100
AcDbEntity
  8
0
 62
     7
100
AcDbLine
 10
4.595674768008855
 20
8.569197878952621
 30
0.0
 11
4.503235545724734
 21
8.614717395049259
 31
0.0
1001
ACAD
1000
ASC_BOUNDS
1002
{
1070
    19
1002
}
  0
LWPOLYLINE
  5
30BA
330
2B18
100
AcDbEntity
  8
0
 62
     1
100
AcDbPolyline
 90
        2
 70
     1
 43
0.0
 10
4.587499727023093
 20
8.632639705777032
 42
-1.0
 10
4.55282031032517
 20
8.632639705777032
 42
-1.0
1001
ACAD
1000
ASC_BOUNDS
1002
{
1070
    19
1002
}
  0
LINE
  5
30BB
330
2B18
100
AcDbEntity
  8
0
 62
     7
100
AcDbLine
 10
5.908215410248866
 20
7.571854203391936
 30
0.0
 11
5.848763286247107
 21
7.536131763361781
 31
0.0
1001
ACAD
1000
ASC_BOUNDS
1002
{
1070
    19
1002
}
  0
LINE
  5
30BC
330
2B18
100
AcDbEntity
  8
0
 62
     7
100
AcDbLine
 10
5.430122954348517
 20
7.259175655722275
 30
0.0
 11
5.130795973607249
 21
7.106660941314313
 31
0.0
1001
ACAD
1000
ASC_BOUNDS
1002
{
1070
    19
1002
}
  0
POLYLINE
  5
30BD
330
2B18
100
AcDbEntity
  8
0
 62
     7
100
AcDb2dPolyline
 66
     1
 10
0.0
 20
0.0
 30
0.0
1001
ACAD
1000
ASC_BOUNDS
1002
{
1070
    19
1002
}
  0
VERTEX
  5
30BE
330
30BD
100
AcDbEntity
  8
0
 62
     7
100
AcDbVertex
100
AcDb2dVertex
 10
5.484532578181232
 20
6.910063119829056
 30
0.0
  0
VERTEX
  5
30BF
330
30BD
100
AcDbEntity
  8
0
 62
     7
100
AcDbVertex
100
AcDb2dVertex
 10
5.546463850673873
 20
7.172879455274847
 30
0.0
1001
ACAD
1000
ASC_BOUNDS
1002
{
1070
    19
1002
}
  0
SEQEND
  5
30C0
330
30BD
100
AcDbEntity
  8
0
 62
     7
  0
LINE
  5
30C1
330
2B18
100
AcDbEntity
  8
0
 62
     7
100
AcDbLine
 10
4.77386083621802
 20
8.931148613044875
 30
0.0
 11
5.339284363245942
 21
7.821442458840071
 31
0.0
1001
ACAD
1000
ASC_BOUNDS
1002
{
1070
    19
1002
}
  0
LINE
  5
30C2
330
2B18
100
AcDbEntity
  8
0
 62
     7
100
AcDbLine
 10
5.372431002767807
 20
7.756388515892282
 30
0.0
 11
5.585448566250242
 21
7.338318007944602
 31
0.0
1001
ACAD
1000
ASC_BOUNDS
1002
{
1070
    19
1002
}
  0
LWPOLYLINE
  5
30C3
330
2B18
100
AcDbEntity
  8
0
 62
     7
100
AcDbPolyline
 90
        4
 70
     0
 43
0.0
 10
5.663392081283449
 20
7.89829971588861
 10
5.184306973023732
 20
7.664634295893696
 10
5.152818721589007
 20
7.726433468959536
 10
5.627680504219661
 20
7.968387632202146
1001
ACAD
1000
ASC_BOUNDS
1002
{
1070
    19
1005
0
1002
}
  0
LWPOLYLINE
  5
30C4
330
2B18
100
AcDbEntity
  8
0
 62
     7
100
AcDbPolyline
 90
        5
 70
     0
 43
0.0
 10
5.58544856627228
 20
7.338318008040809
 10
5.59793485041721
 20
7.310058788560711
 10
5.75177677310665
 20
6.999255221859691
 10
5.648175584206336
 20
6.947974580963293
 10
5.517682900888962
 20
7.236519860065415
1001
ACAD
1000
ASC_BOUNDS
1002
{
1070
    19
1002
}
  0
POLYLINE
  5
30C5
330
2B18
100
AcDbEntity
  8
0
 62
     7
100
AcDb2dPolyline
 66
     1
 10
0.0
 20
0.0
 30
0.0
 70
     1
1001
ACAD
1000
ASC_BOUNDS
1002
{
1070
    19
1002
}
  0
VERTEX
  5
30C6
330
30C5
100
AcDbEntity
  8
0
 62
     7
100
AcDbVertex
100
AcDb2dVertex
 10
5.195606360788612
 20
7.318468839405728
 30
0.0
1001
ACAD
1000
ASC_BOUNDS
1002
{
1070
    19
1002
}
  0
VERTEX
  5
30C7
330
30C5
100
AcDbEntity
  8
0
 62
     7
100
AcDbVertex
100
AcDb2dVertex
 10
5.217042192292936
 20
7.421416678144876
 30
0.0
  0
VERTEX
  5
30C8
330
30C5
100
AcDbEntity
  8
0
 62
     7
100
AcDbVertex
100
AcDb2dVertex
 10
5.246883850365481
 20
7.413418789619864
 30
0.0
  0
VERTEX
  5
30C9
330
30C5
100
AcDbEntity
  8
0
 62
     7
100
AcDbVertex
100
AcDb2dVertex
 10
5.58544856627228
 20
7.338318008040809
 30
0.0
  0
VERTEX
  5
30CA
330
30C5
100
AcDbEntity
  8
0
 62
     7
100
AcDbVertex
100
AcDb2dVertex
 10
5.560414972412596
 20
7.225463102738613
 30
0.0
  0
VERTEX
  5
30CB
330
30C5
100
AcDbEntity
  8
0
 62
     7
100
AcDbVertex
100
AcDb2dVertex
 10
5.224677480462091
 20
7.312333873137037
 30
0.0
  0
SEQEND
  5
30CC
330
30C5
100
AcDbEntity
  8
0
 62
     7
  0
LWPOLYLINE
  5
30CD
330
2B18
100
AcDbEntity
  8
0
 62
     7
100
AcDbPolyline
 90
        5
 70
     0
 43
0.0
 10
8.603173268005274
 20
6.360162623077897
 10
8.589470773575794
 20
6.387852556696197
 10
8.422268196328207
 20
6.69167732924224
 10
8.523543120510186
 20
6.747411521657982
 10
8.666451280049759
 20
6.464809369457251
1001
ACAD
1000
ASC_BOUNDS
1002
{
1070
    19
1002
}
  0
LINE
  5
30CE
330
2B18
100
AcDbEntity
  8
0
 62
     7
100
AcDbLine
 10
8.626266396393791
 20
6.473362900436553
 30
0.0
 11
8.603173268005281
 21
6.360162623077897
 31
0.0
1001
ACAD
1000
ASC_BOUNDS
1002
{
1070
    19
1002
}
  0
POLYLINE
  5
30CF
330
2B18
100
AcDbEntity
  8
0
 62
     7
100
AcDb2dPolyline
 66
     1
 10
0.0
 20
0.0
 30
0.0
 70
     1
1001
ACAD
1000
ASC_BOUNDS
1002
{
1070
    19
1002
}
  0
VERTEX
  5
30D0
330
30CF
100
AcDbEntity
  8
0
 62
     7
100
AcDbVertex
100
AcDb2dVertex
 10
8.991784676367736
 20
6.396933643765679
 30
0.0
1001
ACAD
1000
ASC_BOUNDS
1002
{
1070
    19
1002
}
  0
VERTEX
  5
30D1
330
30CF
100
AcDbEntity
  8
0
 62
     7
100
AcDbVertex
100
AcDb2dVertex
 10
8.974842694154414
 20
6.293151556621433
 30
0.0
  0
VERTEX
  5
30D2
330
30CF
100
AcDbEntity
  8
0
 62
     7
100
AcDbVertex
100
AcDb2dVertex
 10
8.94468167655167
 20
6.299845120286859
 30
0.0
  0
VERTEX
  5
30D3
330
30CF
100
AcDbEntity
  8
0
 62
     7
100
AcDbVertex
100
AcDb2dVertex
 10
8.603173268005274
 20
6.360162623077897
 30
0.0
  0
VERTEX
  5
30D4
330
30CF
100
AcDbEntity
  8
0
 62
     7
100
AcDbVertex
100
AcDb2dVertex
 10
8.623279102268952
 20
6.473998759260011
 30
0.0
  0
VERTEX
  5
30D5
330
30CF
100
AcDbEntity
  8
0
 62
     7
100
AcDbVertex
100
AcDb2dVertex
 10
8.96247442263037
 20
6.401799528684037
 30
0.0
  0
SEQEND
  5
30D6
330
30CF
100
AcDbEntity
  8
0
 62
     7
  0
LINE
  5
30D7
330
2B18
100
AcDbEntity
  8
0
 62
     1
100
AcDbLine
 10
8.691008811799829
 20
6.790723946438552
 30
0.0
 11
8.636574317061809
 21
6.523891328589773
 31
0.0
1001
ACAD
1000
ASC_BOUNDS
1002
{
1070
    19
1002
}
  0
LINE
  5
30D8
330
2B18
100
AcDbEntity
  8
0
 62
     1
100
AcDbLine
 10
8.636574317061809
 20
6.523891328589773
 30
0.0
 11
8.666451280049759
 21
6.464809369457251
 31
0.0
1001
ACAD
1000
ASC_BOUNDS
1002
{
1070
    19
1002
}
  0
LINE
  5
30D9
330
2B18
100
AcDbEntity
  8
0
 62
     1
100
AcDbLine
 10
8.666451280049759
 20
6.464809369457251
 30
0.0
 11
8.766680817386196
 21
6.443475067235917
 31
0.0
  0
LINE
  5
30DA
330
2B18
100
AcDbEntity
  8
0
 62
     1
100
AcDbLine
 10
8.766680817386196
 20
6.443475067235917
 30
0.0
 11
8.994566881815796
 21
6.559590470402543
 31
0.0
1001
ACAD
1000
ASC_BOUNDS
1002
{
1070
    19
1002
}
  0
LINE
  5
30DB
330
2B18
100
AcDbEntity
  8
0
 62
     7
100
AcDbLine
 10
3.614896153200331
 20
11.20574487544478
 30
0.0
 11
3.868295867876062
 21
10.70841993333026
 31
0.0
1001
ACAD
1000
ASC_BOUNDS
1002
{
1070
    19
1002
}
  0
LWPOLYLINE
  5
30DC
330
2B18
100
AcDbEntity
  8
0
 62
     7
100
AcDbPolyline
 90
        4
 70
     0
 43
0.0
 10
4.159256946391717
 20
10.85033113332661
 10
3.682035225907973
 20
10.61757454827515
 10
3.712440137243662
 20
10.55523524176073
 10
4.186533502887983
 20
10.79679787699294
1001
ACAD
1000
ASC_BOUNDS
1002
{
1070
    19
1002
}
  0
LINE
  5
30DD
330
2B18
100
AcDbEntity
  8
0
 62
     7
100
AcDbLine
 10
5.709486798505537
 20
11.20574487544478
 30
0.0
 11
5.117289910609759
 21
10.13539932711145
 31
0.0
1001
ACAD
1000
ASC_BOUNDS
1002
{
1070
    19
1002
}
  0
LINE
  5
30DE
330
2B18
100
AcDbEntity
  8
0
 62
     7
100
AcDbLine
 10
5.577375125302518
 20
11.20574487544478
 30
0.0
 11
5.136154627876381
 21
10.40827632249178
 31
0.0
1001
ACAD
1000
ASC_BOUNDS
1002
{
1070
    19
1002
}
  0
CIRCLE
  5
30DF
330
2B18
100
AcDbEntity
  8
0
 62
     7
100
AcDbCircle
 10
5.02104187821431
 20
9.565686892025858
 30
0.0
 40
0.0173397083489631
1001
ACAD
1000
ASC_BOUNDS
1002
{
1070
    19
1002
}
  0
LWPOLYLINE
  5
30E0
330
2B18
100
AcDbEntity
  8
0
 62
     1
100
AcDbPolyline
 90
        2
 70
     1
 43
0.0
 10
5.038381586563277
 20
9.565686892025858
 42
-1.0
 10
5.00370216986535
 20
9.565686892025858
 42
-1.0
1001
ACAD
1000
ASC_BOUNDS
1002
{
1070
    19
1002
}
  0
LINE
  5
30E1
330
2B18
100
AcDbEntity
  8
0
 62
     1
100
AcDbLine
 10
5.075828546832793
 20
9.53566320533798
 30
0.0
 11
5.071422300771322
 21
9.53566320533798
 31
0.0
  0
LINE
  5
30E2
330
2B18
100
AcDbEntity
  8
0
 62
     7
100
AcDbLine
 10
5.191285764011574
 20
11.20574487544478
 30
0.0
 11
5.07527738144579
 21
9.527690631318536
 31
0.0
1001
ACAD
1000
ASC_BOUNDS
1002
{
1070
    19
1005
0
1002
}
  0
LWPOLYLINE
  5
30E3
330
2B18
100
AcDbEntity
  8
0
 62
     7
100
AcDbPolyline
 90
        3
 70
     0
 43
0.0
 10
5.075411797167864
 20
11.20574487544478
 10
4.9599545799891
 20
9.53566320533798
 10
5.075552635648852
 20
9.53566320533798
1001
ACAD
1000
ASC_BOUNDS
1002
{
1070
    19
1005
0
1002
}
  0
TEXT
  5
30E4
330
2B18
100
AcDbEntity
  8
0
 62
     7
100
AcDbText
 10
21.37027972100178
 20
0.9805520374701973
 30
0.0
 40
1.638467792325521
  1
www.PrecisionLadders.com
  7
ROMANS
100
AcDbText
  0
LWPOLYLINE
  5
30E5
330
2B18
100
AcDbEntity
  8
0
 62
     7
100
AcDbPolyline
 90
        9
 70
     0
 43
0.0
 10
10.36633405241564
 20
3.428726298408128
 10
10.36655286501773
 20
3.463405024791236
 10
10.26251668586845
 20
3.464061462597577
 10
10.19315923310224
 20
3.464499087801734
 10
10.19294042050013
 20
3.429820361418696
 42
0.4142135623730939
 10
10.20442705842713
 20
3.418187848423537
 10
10.35470153942057
 20
3.417239660481111
 42
0.4142135623730989
 10
10.36633405241563
 20
3.428726298408128
 42
-0.4142135623730944
 10
10.35470153942057
 20
3.417239660481111
1001
ACAD
1000
ASC_BOUNDS
1002
{
1070
    19
1002
}
  0
LINE
  5
30E6
330
2B18
100
AcDbEntity
  8
0
 62
     7
100
AcDbLine
 10
10.31311986264364
 20
3.493143849733801
 30
0.0
 11
10.31270923207142
 21
3.463744762338133
 31
0.0
1001
ACAD
1000
ASC_BOUNDS
1002
{
1070
    19
1002
}
  0
LINE
  5
30E7
330
2B18
100
AcDbEntity
  8
0
 62
     7
100
AcDbLine
 10
10.24954219760797
 20
3.493545006170978
 30
0.0
 11
10.31311986264364
 21
3.493143849733801
 31
0.0
1001
ACAD
1000
ASC_BOUNDS
1002
{
1070
    19
1002
}
  0
LINE
  5
30E8
330
2B18
100
AcDbEntity
  8
0
 62
     7
100
AcDbLine
 10
10.24938007573795
 20
3.467850965163849
 30
0.0
 11
10.24954219760797
 21
3.493545006170978
 31
0.0
1001
ACAD
1000
ASC_BOUNDS
1002
{
1070
    19
1002
}
  0
TEXT
  5
30E9
330
2B18
100
AcDbEntity
  8
0
100
AcDbText
 10
66.24482379919353
 20
0.7698485708019996
 30
0.0
 40
1.1055
  1
WORK ORDER: ( )
 50
90.0
 41
0.9
  7
ROMANS
100
AcDbText
  0
TEXT
  5
30EA
330
2B18
100
AcDbEntity
  8
0
100
AcDbText
 10
67.90690698866296
 20
3.50275324912874
 30
0.0
 40
1.1055
  1
CHECKED BY:
  7
ROMANS
100
AcDbText
  0
TEXT
  5
30EB
330
2B18
100
AcDbEntity
  8
0
100
AcDbText
 10
67.90690698866296
 20
13.80825974738629
 30
0.0
 40
1.1055
  1
DWG. CHECK
  7
ROMANS
100
AcDbText
  0
TEXT
  5
30EC
330
2B18
100
AcDbEntity
  8
0
100
AcDbText
 10
67.90690698866296
 20
8.655506498257526
 30
0.0
 40
1.1055
  1
BUILT BY:
  7
ROMANS
100
AcDbText
  0
TEXT
  5
30ED
330
2B18
100
AcDbEntity
  8
0
100
AcDbText
 10
99.41250000000003
 20
3.50275324912874
 30
0.0
 40
1.1055
  1
DRAWN BY:
  7
ROMANS
100
AcDbText
  0
TEXT
  5
30EE
330
2B18
100
AcDbEntity
  8
0
100
AcDbText
 10
99.41250000000003
 20
8.655506498257526
 30
0.0
 40
1.1055
  1
PURCHASE ORDER
  7
ROMANS
100
AcDbText
  0
TEXT
  5
30EF
330
2B18
100
AcDbEntity
  8
0
100
AcDbText
 10
99.41250000000003
 20
13.80825974738629
 30
0.0
 40
1.1055
  1
ARCH'T OR ENG'R.
  7
ROMANS
100
AcDbText
  0
TEXT
  5
30F0
330
2B18
100
AcDbEntity
  8
0
100
AcDbText
 10
220.5524394415514
 20
8.236073841958665
 30
0.0
 40
1.1055
  1
SERIAL#
  7
ROMANS
100
AcDbText
  0
TEXT
  5
30F1
330
2B18
100
AcDbEntity
  8
0
100
AcDbText
 10
220.4125000000001
 20
13.80825974738629
 30
0.0
 40
1.1055
  1
PRECISION REP
  7
ROMANS
100
AcDbText
  0
TEXT
  5
30F2
330
2B18
100
AcDbEntity
  8
0
100
AcDbText
 10
143.4125
 20
3.50275324912874
 30
0.0
 40
1.1055
  1
DATE
  7
ROMANS
100
AcDbText
  0
TEXT
  5
30F3
330
2B18
100
AcDbEntity
  8
0
100
AcDbText
 10
159.9125
 20
3.50275324912874
 30
0.0
 40
1.1055
  1
MODEL#
  7
ROMANS
100
AcDbText
  0
TEXT
  5
30F4
330
2B18
100
AcDbEntity
  8
0
100
AcDbText
 10
143.4125
 20
13.80825974738629
 30
0.0
 40
1.1055
  1
PROJECT
  7
ROMANS
100
AcDbText
  0
TEXT
  5
30F5
330
2B18
100
AcDbEntity
  8
0
100
AcDbText
 10
143.4125
 20
8.655506498257526
 30
0.0
 40
1.1055
  1
WORK ORDER
  7
ROMANS
100
AcDbText
  0
TEXT
  5
30F6
330
2B18
100
AcDbEntity
  8
0
100
AcDbText
 10
159.9125
 20
8.655506498257526
 30
0.0
 40
1.1055
  1
PURCHASER
  7
ROMANS
100
AcDbText
  0
TEXT
  5
30F7
330
2B18
100
AcDbEntity
  8
0
100
AcDbText
 10
209.4125000000002
 20
3.50275324912874
 30
0.0
 40
1.1055
  1
QTY.
  7
ROMANS
100
AcDbText
  0
LINE
  5
30F8
330
2B18
100
AcDbEntity
  8
0
 62
     1
100
AcDbLine
 10
67.49440698866294
 20
5.152753249128782
 30
0.0
 11
220.0000000000001
 21
5.152753249128782
 31
0.0
  0
LINE
  5
30F9
330
2B18
100
AcDbEntity
  8
0
 62
     1
100
AcDbLine
 10
275.0000000000007
 20
212.5
 30
0.0
 11
0.0
 21
212.5
 31
0.0
  0
LINE
  5
30FA
330
2B18
100
AcDbEntity
  8
0
 62
     1
100
AcDbLine
 10
0.0
 20
212.5
 30
0.0
 11
0.0
 21
0.0000000000000067
 31
0.0
  0
LINE
  5
30FB
330
2B18
100
AcDbEntity
  8
0
 62
     1
100
AcDbLine
 10
0.0
 20
0.0000000000000067
 30
0.0
 11
275.0000000000007
 21
0.0000000000000067
 31
0.0
  0
LINE
  5
30FC
330
2B18
100
AcDbEntity
  8
0
 62
     1
100
AcDbLine
 10
67.49440698866294
 20
0.0000000000000067
 30
0.0
 11
67.49440698866294
 21
15.45825974738628
 31
0.0
  0
LINE
  5
30FD
330
2B18
100
AcDbEntity
  8
0
 62
     1
100
AcDbLine
 10
99.0
 20
0.0000000000000067
 30
0.0
 11
99.0
 21
15.45825974738628
 31
0.0
  0
LINE
  5
30FE
330
2B18
100
AcDbEntity
  8
0
 62
     1
100
AcDbLine
 10
143.0
 20
0.0000000000000067
 30
0.0
 11
143.0
 21
15.45825974738628
 31
0.0
  0
LINE
  5
30FF
330
2B18
100
AcDbEntity
  8
0
 62
     1
100
AcDbLine
 10
159.5
 20
0.0000000000000067
 30
0.0
 11
159.5
 21
10.30550649825751
 31
0.0
  0
LINE
  5
3100
330
2B18
100
AcDbEntity
  8
0
 62
     1
100
AcDbLine
 10
220.0000000000001
 20
0.0000000000000067
 30
0.0
 11
220.0000000000001
 21
15.45825974738628
 31
0.0
  0
LINE
  5
3101
330
2B18
100
AcDbEntity
  8
0
 62
     1
100
AcDbLine
 10
209.0
 20
0.0000000000000067
 30
0.0
 11
209.0
 21
5.152753249128782
 31
0.0
  0
LINE
  5
3102
330
2B18
100
AcDbEntity
  8
0
 62
     1
100
AcDbLine
 10
0.0
 20
15.45825974738628
 30
0.0
 11
275.0000000000007
 21
15.45825974738628
 31
0.0
  0
LINE
  5
3103
330
2B18
100
AcDbEntity
  8
0
 62
     1
100
AcDbLine
 10
67.49440698866294
 20
10.30550649825751
 30
0.0
 11
275.0000000000007
 21
10.30550649825751
 31
0.0
  0
LINE
  5
3104
330
2B18
100
AcDbEntity
  8
0
 62
     1
100
AcDbLine
 10
275.0000000000008
 20
0.000000000000008
 30
0.0
 11
275.0000000000008
 21
212.5
 31
0.0
  0
ENDBLK
  5
2B1B
330
2B18
100
AcDbEntity
  8
0
 62
     7
100
AcDbBlockEnd
  0
BLOCK
  5
2B2C
330
2B1D
100
AcDbEntity
  8
0
100
AcDbBlockBegin
  2
BORDER-T
 70
     2
 10
0.0
 20
0.0
 30
0.0
  3
BORDER-T
  1

  0
ATTDEF
  5
2B1E
330
2B1D
100
AcDbEntity
  8
0
 62
     5
100
AcDbText
 10
1.270598029493498
 20
16.95296065185261
 30
0.0
 40
2.25
  1

  7
ROMANS
100
AcDbAttributeDefinition
  3
SCALE
  2
SCALE
 70
     0
280
     0
  0
ATTDEF
  5
2B1F
330
2B1D
100
AcDbEntity
  8
0
100
AcDbText
 10
261.9539163537752
 20
16.97014926946124
 30
0.0
 40
1.7518359375
  1

  7
ROMANS
 72
     4
 11
267.5431072019895
 21
17.84606723821125
 31
0.0
100
AcDbAttributeDefinition
  3
SAVED AS
  2
SAVEDAS
 70
     0
280
     0
  0
ATTDEF
  5
2B20
330
2B1D
100
AcDbEntity
  8
0
 62
     5
100
AcDbText
 10
66.39640383685495
 20
12.89673285282586
 30
0.0
 40
1.248161764705882
  1

 50
90.0
  7
ROMANS
 72
     4
 11
65.77232295450201
 21
13.4910955979239
 31
0.0
100
AcDbAttributeDefinition
  3
WORK ORDER (X)
  2
X
 70
     0
280
     0
  0
ATTDEF
  5
2B21
330
2B1D
100
AcDbEntity
  8
0
100
AcDbText
 10
112.9846649640199
 20
11.16830391662092
 30
0.0
 40
1.769029714285714
  1

  7
ROMANS
 72
     1
 11
120.7768196578975
 21
11.16830391662092
 31
0.0
100
AcDbAttributeDefinition
  3
ARCHITECT OR ENGINEER
  2
ARCHORENG
 70
     0
280
     0
  0
ATTDEF
  5
2B22
330
2B1D
100
AcDbEntity
  8
0
100
AcDbText
 10
109.4466055354485
 20
6.014881478758579
 30
0.0
 40
1.769029714285714
  1

  7
ROMANS
 72
     1
 11
120.7768196578975
 21
6.014881478758579
 31
0.0
100
AcDbAttributeDefinition
  3
PURCHASE ORDER
  2
PURCHASEORDER
 70
     0
280
     0
  0
ATTDEF
  5
2B23
330
2B1D
100
AcDbEntity
  8
0
100
AcDbText
 10
114.5430959027954
 20
0.8614590408961362
 30
0.0
 40
1.769029714285714
  1
JEB
  7
ROMANS
 72
     1
 11
120.7768196578975
 21
0.8614590408961362
 31
0.0
100
AcDbAttributeDefinition
  3
WHO ARE YOU?
  2
DRAWNBY
 70
     0
280
     0
  0
ATTDEF
  5
2B24
330
2B1D
100
AcDbEntity
  8
0
100
AcDbText
 10
147.829646841571
 20
6.014881478758579
 30
0.0
 40
1.769029714285714
  1

  7
ROMANS
 72
     1
 11
151.0307482293261
 21
6.014881478758579
 31
0.0
100
AcDbAttributeDefinition
  3
WORK ORDER DATE?
  2
DATE
 70
     0
280
     0
  0
ATTDEF
  5
2B25
330
2B1D
100
AcDbEntity
  8
0
100
AcDbText
 10
147.829646841571
 20
0.8614590408961362
 30
0.0
 40
1.769029714285714
  1

  7
ROMANS
 72
     1
 11
151.0307482293261
 21
0.8614590408961362
 31
0.0
100
AcDbAttributeDefinition
  3
WHAT IS TODAY'S DATE?
  2
DATE
 70
     0
280
     0
  0
ATTDEF
  5
2B26
330
2B1D
100
AcDbEntity
  8
0
100
AcDbText
 10
175.430030841571
 20
11.16830391662092
 30
0.0
 40
1.769029714285714
  1

  7
ROMANS
 72
     1
 11
181.2846768007546
 21
11.16830391662092
 31
0.0
100
AcDbAttributeDefinition
  3
PROJECT
  2
PROJECT
 70
     0
280
     0
  0
ATTDEF
  5
2B27
330
2B1D
100
AcDbEntity
  8
0
100
AcDbText
 10
181.7014737803464
 20
6.014881478758579
 30
0.0
 40
1.769029714285714
  1

  7
ROMANS
 72
     1
 11
189.535748229326
 21
6.014881478758579
 31
0.0
100
AcDbAttributeDefinition
  3
PURCHASER
  2
PURCHASER
 70
     0
280
     0
  0
ATTDEF
  5
2B28
330
2B1D
100
AcDbEntity
  8
0
100
AcDbText
 10
179.5703399027954
 20
0.8614590408962374
 30
0.0
 40
1.769029714285714
  1

  7
ROMANS
 72
     1
 11
184.0350339436118
 21
0.8614590408962374
 31
0.0
100
AcDbAttributeDefinition
  3
MODEL #
  2
MODEL
 70
     0
280
     0
  0
ATTDEF
  5
2B29
330
2B1D
100
AcDbEntity
  8
0
100
AcDbText
 10
211.8460167191219
 20
0.8614590408961362
 30
0.0
 40
1.769029714285714
  1
1
  7
ROMANS
 72
     1
 11
214.2889625150403
 21
0.8614590408961362
 31
0.0
100
AcDbAttributeDefinition
  3
QUANTITY
  2
QTY
 70
     0
280
     0
  0
ATTDEF
  5
2B2A
330
2B1D
100
AcDbEntity
  8
0
100
AcDbText
 10
244.6818234129996
 20
11.16763472788734
 30
0.0
 40
1.769029714285714
  1

  7
ROMANS
 72
     1
 11
247.2932482293261
 21
11.16763472788734
 31
0.0
100
AcDbAttributeDefinition
  3
PRECISION REP
  2
REP
 70
     0
280
     0
  0
ATTDEF
  5
2B2B
330
2B1D
100
AcDbEntity
  8
0
100
AcDbText
 10
235.9748273066308
 20
3.153238685427304
 30
0.0
 40
3.455136160714285
  1

  7
ROMANS
 72
     1
 11
247.3274175489777
 21
3.153238685427304
 31
0.0
100
AcDbAttributeDefinition
  3
SERIAL #
  2
L010000
 70
     0
280
     0
  0
ENDBLK
  5
2B2D
330
2B1D
100
AcDbEntity
  8
0
100
AcDbBlockEnd
  0
BLOCK
  5
2C90
330
2C87
100
AcDbEntity
  8
0
100
AcDbBlockBegin
  2
*U11
 70
     1
 10
0.0
 20
0.0
 30
0.0
  3
*U11
  1

  0
TEXT
  5
2D22
330
2C87
100
AcDbEntity
  8
0
  6
ByBlock
 62
     0
100
AcDbText
 10
-6.477376547913625
 20
-10.23237600000037
 30
0.0
 40
1.485792000000056
  1
20 FT MAX
  7
ROMANS
 72
     1
 11
-0.1804485479133859
 21
-9.489480000000341
 31
0.0
100
AcDbText
 73
     2
1001
AcDbBlockRepETag
1070
     1
1071
        0
1005
2D22
  0
LINE
  5
2D23
330
2C87
100
AcDbEntity
  8
0
  6
ByBlock
 62
     0
100
AcDbLine
 10
-7.420120547913654
 20
-11.38737600000041
 30
0.0
 11
7.059223452086882
 21
-11.38737600000041
 31
0.0
1001
AcDbBlockRepETag
1070
     1
1071
        1
1005
2D23
  0
LINE
  5
2D24
330
2C87
100
AcDbEntity
  8
0
  6
ByBlock
 62
     0
100
AcDbLine
 10
7.059223452086882
 20
-11.38737600000041
 30
0.0
 11
7.059223452086882
 21
0.0
 31
0.0
1001
AcDbBlockRepETag
1070
     1
1071
        2
1005
2D24
  0
LINE
  5
2D25
330
2C87
100
AcDbEntity
  8
0
  6
ByBlock
 62
     0
100
AcDbLine
 10
7.059223452086882
 20
-7.591584000000274
 30
0.0
 11
-7.420120547913654
 21
-7.591584000000274
 31
0.0
1001
AcDbBlockRepETag
1070
     1
1071
        3
1005
2D25
  0
LINE
  5
2D26
330
2C87
100
AcDbEntity
  8
0
  6
ByBlock
 62
     0
100
AcDbLine
 10
-7.420120547913654
 20
0.0
 30
0.0
 11
-7.420120547913654
 21
-11.38737600000041
 31
0.0
1001
AcDbBlockRepETag
1070
     1
1071
        4
1005
2D26
  0
LINE
  5
2D27
330
2C87
100
AcDbEntity
  8
0
  6
ByBlock
 62
     0
100
AcDbLine
 10
7.059223452086882
 20
0.0
 30
0.0
 11
-7.420120547913654
 21
0.0
 31
0.0
1001
AcDbBlockRepETag
1070
     1
1071
        5
1005
2D27
  0
ENDBLK
  5
2C91
330
2C87
100
AcDbEntity
  8
0
100
AcDbBlockEnd
  0
BLOCK
  5
2CBA
330
2CAF
100
AcDbEntity
  8
0
100
AcDbBlockBegin
  2
*D12
 70
     1
 10
0.0
 20
0.0
 30
0.0
  3
*D12
  1

  0
LINE
  5
2D8D
330
2CAF
100
AcDbEntity
  8
0
 62
     0
370
    -2
100
AcDbLine
 10
72.39496166023828
 20
18.32410411472294
 30
0.0
 11
72.39496166023837
 21
12.41050820521986
 31
0.0
  0
LINE
  5
2D8E
330
2CAF
100
AcDbEntity
  8
0
 62
     0
370
    -2
100
AcDbLine
 10
11.75458192666817
 20
18.324104114722
 30
0.0
 11
11.75458192666825
 21
12.41050820521899
 31
0.0
  0
LINE
  5
2D8F
330
2CAF
100
AcDbEntity
  8
0
 62
     0
370
    -2
100
AcDbLine
 10
71.01996166023837
 20
13.09800820521984
 30
0.0
 11
49.73941465059616
 21
13.09800820521954
 31
0.0
  0
LINE
  5
2D90
330
2CAF
100
AcDbEntity
  8
0
 62
     0
370
    -2
100
AcDbLine
 10
13.12958192666825
 20
13.09800820521901
 30
0.0
 11
34.41012893631044
 21
13.09800820521931
 31
0.0
  0
SOLID
  5
2D91
330
2CAF
100
AcDbEntity
  8
0
 62
     0
100
AcDbTrace
 10
71.01996166023835
 20
13.32717487188651
 30
0.0
 11
71.01996166023837
 21
12.86884153855318
 31
0.0
 12
72.39496166023837
 22
13.09800820521986
 32
0.0
 13
72.39496166023837
 23
13.09800820521986
 33
0.0
  0
SOLID
  5
2D92
330
2CAF
100
AcDbEntity
  8
0
 62
     0
100
AcDbTrace
 10
13.12958192666824
 20
13.32717487188567
 30
0.0
 11
13.12958192666825
 21
12.86884153855234
 31
0.0
 12
11.75458192666824
 22
13.09800820521899
 32
0.0
 13
11.75458192666824
 23
13.09800820521899
 33
0.0
  0
MTEXT
  5
2D93
330
2CAF
100
AcDbEntity
  8
0
 62
     0
100
AcDbMText
 10
42.0747717934533
 20
13.09800820521942
 30
0.0
 40
1.98
 41
0.0
 46
0.0
 71
     5
 72
     1
  1
\A1;AS REQ'D
  7
ROMANS
 73
     1
 44
1.0
  0
POINT
  5
2D94
330
2CAF
100
AcDbEntity
  8
DEFPOINTS
 62
     0
100
AcDbPoint
 10
72.39496166023855
 20
19.01160411472189
 30
0.0
  0
POINT
  5
2D95
330
2CAF
100
AcDbEntity
  8
DEFPOINTS
 62
     0
100
AcDbPoint
 10
11.75458192666843
 20
19.01160411472183
 30
0.0
  0
POINT
  5
2D96
330
2CAF
100
AcDbEntity
  8
DEFPOINTS
 62
     0
100
AcDbPoint
 10
11.75458192666843
 20
13.09800820521882
 30
0.0
  0
ENDBLK
  5
2CBB
330
2CAF
100
AcDbEntity
  8
0
100
AcDbBlockEnd
  0
BLOCK
  5
2E08
330
2DFD
100
AcDbEntity
  8
0
100
AcDbBlockBegin
  2
*D13
 70
     1
 10
0.0
 20
0.0
 30
0.0
  3
*D13
  1

  0
LINE
  5
2E0A
330
2DFD
100
AcDbEntity
  8
0
 62
     0
370
    -2
100
AcDbLine
 10
12.47452218405119
 20
56.42456642720024
 30
0.0
 11
5.635860352321511
 21
43.00293687265
 31
0.0
  0
LINE
  5
2E0B
330
2DFD
100
AcDbEntity
  8
0
 62
     0
370
    -2
100
AcDbLine
 10
27.03682808280082
 20
49.00470096846474
 30
0.0
 11
20.19816625107114
 21
35.5830714139145
 31
0.0
  0
LINE
  5
2E0C
330
2DFD
100
AcDbEntity
  8
0
 62
     0
370
    -2
100
AcDbLine
 10
7.173112791651455
 20
42.99126692088765
 30
0.0
 11
11.73446832594125
 21
40.66714019197482
 31
0.0
  0
LINE
  5
2E0D
330
2DFD
100
AcDbEntity
  8
0
 62
     0
370
    -2
100
AcDbLine
 10
19.28515074888305
 20
36.81987533643586
 30
0.0
 11
14.72379521459324
 21
39.1440020653487
 31
0.0
  0
SOLID
  5
2E0E
330
2DFD
100
AcDbEntity
  8
0
 62
     0
100
AcDbTrace
 10
7.277152281175098
 20
43.19545591601415
 30
0.0
 11
7.069073302127815
 21
42.78707792576115
 31
0.0
 12
5.947978820892441
 22
43.61550385802951
 32
0.0
 13
5.947978820892441
 23
43.61550385802951
 33
0.0
  0
SOLID
  5
2E0F
330
2DFD
100
AcDbEntity
  8
0
 62
     0
100
AcDbTrace
 10
19.38919023840669
 20
37.02406433156236
 30
0.0
 11
19.18111125935941
 21
36.61568634130937
 31
0.0
 12
20.51028471964206
 22
36.19563839929401
 32
0.0
 13
20.51028471964206
 23
36.19563839929401
 33
0.0
  0
MTEXT
  5
2E10
330
2DFD
100
AcDbEntity
  8
0
 62
     0
100
AcDbMText
 10
13.22913177026725
 20
39.90557112866176
 30
0.0
 40
1.98
 41
0.0
 46
0.0
 71
     5
 72
     1
  1
\A1;VARIES
  7
ROMANS
 11
0.453990499739534
 21
0.8910065241883744
 31
0.0
 73
     1
 44
1.0
  0
POINT
  5
2E11
330
2DFD
100
AcDbEntity
  8
DEFPOINTS
 62
     0
100
AcDbPoint
 10
12.78664065262294
 20
57.03713341257957
 30
0.0
  0
POINT
  5
2E12
330
2DFD
100
AcDbEntity
  8
DEFPOINTS
 62
     0
100
AcDbPoint
 10
27.34894655137246
 20
49.61726795384385
 30
0.0
  0
POINT
  5
2E13
330
2DFD
100
AcDbEntity
  8
DEFPOINTS
 62
     0
100
AcDbPoint
 10
20.51028471964259
 20
36.19563839929371
 30
0.0
  0
ENDBLK
  5
2E09
330
2DFD
100
AcDbEntity
  8
0
100
AcDbBlockEnd
  0
BLOCK
  5
2E2A
330
2E1F
100
AcDbEntity
  8
0
100
AcDbBlockBegin
  2
*D14
 70
     1
 10
0.0
 20
0.0
 30
0.0
  3
*D14
  1

  0
LINE
  5
2E20
330
2E1F
100
AcDbEntity
  8
0
 62
     0
370
    -2
100
AcDbLine
 10
121.6094381669119
 20
125.1991041147236
 30
0.0
 11
121.6094381669118
 21
131.4809823627489
 31
0.0
  0
LINE
  5
2E21
330
2E1F
100
AcDbEntity
  8
0
 62
     0
370
    -2
100
AcDbLine
 10
139.3594381669119
 20
125.1991041147238
 30
0.0
 11
139.3594381669118
 21
131.4809823627492
 31
0.0
  0
LINE
  5
2E22
330
2E1F
100
AcDbEntity
  8
0
 62
     0
370
    -2
100
AcDbLine
 10
120.2344381669118
 20
130.7934823627489
 30
0.0
 11
118.8594381669118
 21
130.7934823627489
 31
0.0
  0
LINE
  5
2E23
330
2E1F
100
AcDbEntity
  8
0
 62
     0
370
    -2
100
AcDbLine
 10
140.7344381669118
 20
130.7934823627492
 30
0.0
 11
142.1094381669118
 21
130.7934823627492
 31
0.0
  0
SOLID
  5
2E24
330
2E1F
100
AcDbEntity
  8
0
 62
     0
100
AcDbTrace
 10
120.2344381669118
 20
131.0226490294155
 30
0.0
 11
120.2344381669118
 21
130.5643156960822
 31
0.0
 12
121.6094381669118
 22
130.7934823627489
 32
0.0
 13
121.6094381669118
 23
130.7934823627489
 33
0.0
  0
SOLID
  5
2E25
330
2E1F
100
AcDbEntity
  8
0
 62
     0
100
AcDbTrace
 10
140.7344381669118
 20
131.0226490294158
 30
0.0
 11
140.7344381669118
 21
130.5643156960825
 31
0.0
 12
139.3594381669118
 22
130.7934823627492
 32
0.0
 13
139.3594381669118
 23
130.7934823627492
 33
0.0
  0
MTEXT
  5
2E26
330
2E1F
100
AcDbEntity
  8
0
 62
     0
100
AcDbMText
 10
130.4844381669118
 20
130.793482362749
 30
0.0
 40
1.98
 41
0.0
 46
0.0
 71
     5
 72
     1
  1
\A1;1'-5 3/4"
  7
ROMANS
 73
     1
 44
1.0
  0
POINT
  5
2E27
330
2E1F
100
AcDbEntity
  8
DEFPOINTS
 62
     0
100
AcDbPoint
 10
121.6094381669137
 20
124.5116041147218
 30
0.0
  0
POINT
  5
2E28
330
2E1F
100
AcDbEntity
  8
DEFPOINTS
 62
     0
100
AcDbPoint
 10
139.3594381669137
 20
124.5116041147217
 30
0.0
  0
POINT
  5
2E29
330
2E1F
100
AcDbEntity
  8
DEFPOINTS
 62
     0
100
AcDbPoint
 10
139.3594381669137
 20
130.7934823627471
 30
0.0
  0
ENDBLK
  5
2E2B
330
2E1F
100
AcDbEntity
  8
0
100
AcDbBlockEnd
  0
BLOCK
  5
2E55
330
2E54
100
AcDbEntity
  8
0
100
AcDbBlockBegin
  2
*X15
 70
     1
 10
0.0
 20
0.0
 30
0.0
  3
*X15
  1

  0
LINE
  5
2E56
330
2E54
100
AcDbEntity
  8
0
 62
     0
100
AcDbLine
 10
-39.38783740946116
 20
-279.4947837961181
 30
0.0
 11
-38.65407559127778
 21
-278.7610219779348
 31
0.0
  0
LINE
  5
2E57
330
2E54
100
AcDbEntity
  8
0
 62
     0
100
AcDbLine
 10
-39.50054631068232
 20
-279.4749101758668
 30
0.0
 11
-38.76678449249896
 21
-278.7411483576835
 31
0.0
  0
LINE
  5
2E58
330
2E54
100
AcDbEntity
  8
0
 62
     0
100
AcDbLine
 10
-39.61325521190351
 20
-279.4550365556156
 30
0.0
 11
-38.87949339372014
 21
-278.7212747374322
 31
0.0
  0
LINE
  5
2E59
330
2E54
100
AcDbEntity
  8
0
 62
     0
100
AcDbLine
 10
-39.7259641131247
 20
-279.4351629353642
 30
0.0
 11
-38.99220229494132
 21
-278.7014011171809
 31
0.0
  0
LINE
  5
2E5A
330
2E54
100
AcDbEntity
  8
0
 62
     0
100
AcDbLine
 10
-39.83867301434587
 20
-279.415289315113
 30
0.0
 11
-39.1049111961625
 21
-278.6815274969296
 31
0.0
  0
LINE
  5
2E5B
330
2E54
100
AcDbEntity
  8
0
 62
     0
100
AcDbLine
 10
-39.95138191556705
 20
-279.3954156948617
 30
0.0
 11
-39.21762009738368
 21
-278.6616538766783
 31
0.0
  0
LINE
  5
2E5C
330
2E54
100
AcDbEntity
  8
0
 62
     0
100
AcDbLine
 10
-40.06409081678821
 20
-279.3755420746104
 30
0.0
 11
-39.33032899860484
 21
-278.641780256427
 31
0.0
  0
LINE
  5
2E5D
330
2E54
100
AcDbEntity
  8
0
 62
     0
100
AcDbLine
 10
-40.1767997180094
 20
-279.3556684543591
 30
0.0
 11
-40.06372011526283
 21
-279.2425888516125
 31
0.0
  0
LINE
  5
2E5E
330
2E54
100
AcDbEntity
  8
0
 62
     0
100
AcDbLine
 10
-39.89688315430998
 20
-279.0757518906596
 30
0.0
 11
-39.44303789982602
 21
-278.6219066361756
 31
0.0
  0
LINE
  5
2E5F
330
2E54
100
AcDbEntity
  8
0
 62
     0
100
AcDbLine
 10
-40.06372011526283
 20
-279.2425888516125
 30
0.0
 11
-39.89688315430998
 21
-279.0757518906597
 31
0.0
  0
LINE
  5
2E60
330
2E54
100
AcDbEntity
  8
0
 62
     0
100
AcDbLine
 10
-40.28950861923056
 20
-279.3357948341077
 30
0.0
 11
-40.10500766087813
 21
-279.1512938757553
 31
0.0
  0
LINE
  5
2E61
330
2E54
100
AcDbEntity
  8
0
 62
     0
100
AcDbLine
 10
-39.94078059974761
 20
-278.9870668146248
 30
0.0
 11
-39.5557468010472
 21
-278.6020330159244
 31
0.0
  0
LINE
  5
2E62
330
2E54
100
AcDbEntity
  8
0
 62
     0
100
AcDbLine
 10
-40.10500766087811
 20
-279.1512938757553
 30
0.0
 11
-39.9407805997476
 21
-278.9870668146248
 31
0.0
  0
LINE
  5
2E63
330
2E54
100
AcDbEntity
  8
0
 62
     0
100
AcDbLine
 10
-40.36990717715883
 20
-279.2836108705636
 30
0.0
 11
-40.1462952064934
 21
-279.0599988998982
 31
0.0
  0
LINE
  5
2E64
330
2E54
100
AcDbEntity
  8
0
 62
     0
100
AcDbLine
 10
-39.98467804518519
 20
-278.8983817385899
 30
0.0
 11
-39.66845570226838
 21
-278.5821593956731
 31
0.0
  0
LINE
  5
2E65
330
2E54
100
AcDbEntity
  8
0
 62
     0
100
AcDbLine
 10
-40.14629520649338
 20
-279.0599988998981
 30
0.0
 11
-39.98467804518524
 21
-278.89838173859
 31
0.0
  0
LINE
  5
2E66
330
2E54
100
AcDbEntity
  8
0
 62
     0
100
AcDbLine
 10
-40.32903303677044
 20
-279.1101542087027
 30
0.0
 11
-40.18758275210868
 21
-278.968703924041
 31
0.0
  0
LINE
  5
2E67
330
2E54
100
AcDbEntity
  8
0
 62
     0
100
AcDbLine
 10
-40.02857549062279
 20
-278.8096966625551
 30
0.0
 11
-39.78116460348956
 21
-278.5622857754218
 31
0.0
  0
LINE
  5
2E68
330
2E54
100
AcDbEntity
  8
0
 62
     0
100
AcDbLine
 10
-40.18758275210866
 20
-278.9687039240409
 30
0.0
 11
-40.02857549062286
 21
-278.8096966625551
 31
0.0
  0
LINE
  5
2E69
330
2E54
100
AcDbEntity
  8
0
 62
     0
100
AcDbLine
 10
-40.28815889638206
 20
-278.9366975468419
 30
0.0
 11
-40.22887029772395
 21
-278.8774089481838
 31
0.0
  0
LINE
  5
2E6A
330
2E54
100
AcDbEntity
  8
0
 62
     0
100
AcDbLine
 10
-40.07247293606041
 20
-278.7210115865202
 30
0.0
 11
-39.89387350471074
 21
-278.5424121551705
 31
0.0
  0
LINE
  5
2E6B
330
2E54
100
AcDbEntity
  8
0
 62
     0
100
AcDbLine
 10
-40.22887029772394
 20
-278.8774089481837
 30
0.0
 11
-40.07247293606049
 21
-278.7210115865203
 31
0.0
  0
LINE
  5
2E6C
330
2E54
100
AcDbEntity
  8
0
 62
     0
100
AcDbLine
 10
-40.27015784333923
 20
-278.7861139723266
 30
0.0
 11
-40.11637038149812
 21
-278.6323265104854
 31
0.0
  0
LINE
  5
2E6D
330
2E54
100
AcDbEntity
  8
0
 62
     0
100
AcDbLine
 10
-40.116370381498
 20
-278.6323265104853
 30
0.0
 11
-40.00658240593192
 21
-278.5225385349192
 31
0.0
  0
LINE
  5
2E6E
330
2E54
100
AcDbEntity
  8
0
 62
     0
100
AcDbLine
 10
-40.31144538895452
 20
-278.6948189964694
 30
0.0
 11
-40.30692854477254
 21
-278.6903021522874
 31
0.0
  0
LINE
  5
2E6F
330
2E54
100
AcDbEntity
  8
0
 62
     0
100
AcDbLine
 10
-39.69215944246978
 20
-278.0755330499846
 30
0.0
 11
-39.59237083622737
 21
-277.9757444437422
 31
0.0
  0
LINE
  5
2E70
330
2E54
100
AcDbEntity
  8
0
 62
     0
100
AcDbLine
 10
-40.30692854477248
 20
-278.6903021522873
 30
0.0
 11
-40.20641061560525
 21
-278.5897842231201
 31
0.0
  0
LINE
  5
2E71
330
2E54
100
AcDbEntity
  8
0
 62
     0
100
AcDbLine
 10
-40.16017812122486
 20
-278.5435517287397
 30
0.0
 11
-40.11929130715309
 21
-278.5026649146679
 31
0.0
  0
LINE
  5
2E72
330
2E54
100
AcDbEntity
  8
0
 62
     0
100
AcDbLine
 10
-40.20466276288202
 20
-278.5880363703969
 30
0.0
 11
-40.16017812122502
 21
-278.5435517287398
 31
0.0
  0
LINE
  5
2E73
330
2E54
100
AcDbEntity
  8
0
 62
     0
100
AcDbLine
 10
-40.41225758634928
 20
-278.6630486723916
 30
0.0
 11
-40.23018407840633
 21
-278.4809751644487
 31
0.0
  0
LINE
  5
2E74
330
2E54
100
AcDbEntity
  8
0
 62
     0
100
AcDbLine
 10
-39.73691136690469
 20
-277.987702452947
 30
0.0
 11
-39.6371227606623
 21
-277.8879138467047
 31
0.0
  0
LINE
  5
2E75
330
2E54
100
AcDbEntity
  8
0
 62
     0
100
AcDbLine
 10
-40.23018407840633
 20
-278.4809751644486
 30
0.0
 11
-40.20259152936932
 21
-278.4533826154117
 31
0.0
  0
LINE
  5
2E76
330
2E54
100
AcDbEntity
  8
0
 62
     0
100
AcDbLine
 10
-40.57051962558798
 20
-278.6887281901577
 30
0.0
 11
-40.51758662792604
 21
-278.6357951924959
 31
0.0
  0
LINE
  5
2E77
330
2E54
100
AcDbEntity
  8
0
 62
     0
100
AcDbLine
 10
-39.78166329133961
 20
-277.8998718559094
 30
0.0
 11
-39.68187468509722
 21
-277.8000832496671
 31
0.0
  0
LINE
  5
2E78
330
2E54
100
AcDbEntity
  8
0
 62
     0
100
AcDbLine
 10
-40.51758662792603
 20
-278.6357951924959
 30
0.0
 11
-40.33869630383812
 21
-278.456904868408
 31
0.0
  0
LINE
  5
2E79
330
2E54
100
AcDbEntity
  8
0
 62
     0
100
AcDbLine
 10
-40.33869630383812
 20
-278.456904868408
 30
0.0
 11
-40.24734345380425
 21
-278.3655520183742
 31
0.0
  0
LINE
  5
2E7A
330
2E54
100
AcDbEntity
  8
0
 62
     0
100
AcDbLine
 10
-40.84083440815077
 20
-278.8264604512481
 30
0.0
 11
-40.62291566950281
 21
-278.6085417126002
 31
0.0
  0
LINE
  5
2E7B
330
2E54
100
AcDbEntity
  8
0
 62
     0
100
AcDbLine
 10
-39.82641521577454
 20
-277.812041258872
 30
0.0
 11
-39.72662660953214
 21
-277.7122526526295
 31
0.0
  0
LINE
  5
2E7C
330
2E54
100
AcDbEntity
  8
0
 62
     0
100
AcDbLine
 10
-40.62291566950278
 20
-278.6085417126002
 30
0.0
 11
-40.44720852926992
 21
-278.4328345723673
 31
0.0
  0
LINE
  5
2E7D
330
2E54
100
AcDbEntity
  8
0
 62
     0
100
AcDbLine
 10
-40.44720852926991
 20
-278.4328345723673
 30
0.0
 11
-40.29209537823916
 21
-278.2777214213366
 31
0.0
  0
LINE
  5
2E7E
330
2E54
100
AcDbEntity
  8
0
 62
     0
100
AcDbLine
 10
-41.07098574326527
 20
-278.9240292648902
 30
0.0
 11
-40.96884180887604
 21
-278.821885330501
 31
0.0
  0
LINE
  5
2E7F
330
2E54
100
AcDbEntity
  8
0
 62
     0
100
AcDbLine
 10
-39.87116714020946
 20
-277.7242106618344
 30
0.0
 11
-39.77137853396706
 21
-277.624422055592
 31
0.0
  0
LINE
  5
2E80
330
2E54
100
AcDbEntity
  8
0
 62
     0
100
AcDbLine
 10
-40.96884180887601
 20
-278.8218853305009
 30
0.0
 11
-40.72824471107957
 21
-278.5812882327045
 31
0.0
  0
LINE
  5
2E81
330
2E54
100
AcDbEntity
  8
0
 62
     0
100
AcDbLine
 10
-40.55572075470169
 20
-278.4087642763266
 30
0.0
 11
-40.33684730267409
 21
-278.189890824299
 31
0.0
  0
LINE
  5
2E82
330
2E54
100
AcDbEntity
  8
0
 62
     0
100
AcDbLine
 10
-40.72824471107958
 20
-278.5812882327045
 30
0.0
 11
-40.55572075470172
 21
-278.4087642763266
 31
0.0
  0
LINE
  5
2E83
330
2E54
100
AcDbEntity
  8
0
 62
     0
100
AcDbLine
 10
-41.11573766770019
 20
-278.8361986678526
 30
0.0
 11
-41.01359373331094
 21
-278.7340547334634
 31
0.0
  0
LINE
  5
2E84
330
2E54
100
AcDbEntity
  8
0
 62
     0
100
AcDbLine
 10
-39.91591906464438
 20
-277.6363800647968
 30
0.0
 11
-39.81613045840198
 21
-277.5365914585544
 31
0.0
  0
LINE
  5
2E85
330
2E54
100
AcDbEntity
  8
0
 62
     0
100
AcDbLine
 10
-41.01359373331097
 20
-278.7340547334634
 30
0.0
 11
-40.83357375265634
 21
-278.5540347528088
 31
0.0
  0
LINE
  5
2E86
330
2E54
100
AcDbEntity
  8
0
 62
     0
100
AcDbLine
 10
-40.66423298013347
 20
-278.3846939802859
 30
0.0
 11
-40.38159922710902
 21
-278.1020602272615
 31
0.0
  0
LINE
  5
2E87
330
2E54
100
AcDbEntity
  8
0
 62
     0
100
AcDbLine
 10
-40.83357375265634
 20
-278.5540347528088
 30
0.0
 11
-40.66423298013349
 21
-278.384693980286
 31
0.0
  0
LINE
  5
2E88
330
2E54
100
AcDbEntity
  8
0
 62
     0
100
AcDbLine
 10
-41.16048959213512
 20
-278.7483680708151
 30
0.0
 11
-41.05834565774588
 21
-278.6462241364259
 31
0.0
  0
LINE
  5
2E89
330
2E54
100
AcDbEntity
  8
0
 62
     0
100
AcDbLine
 10
-39.96067098907931
 20
-277.5485494677593
 30
0.0
 11
-39.86088238283691
 21
-277.4487608615169
 31
0.0
  0
LINE
  5
2E8A
330
2E54
100
AcDbEntity
  8
0
 62
     0
100
AcDbLine
 10
-41.05834565774586
 20
-278.6462241364258
 30
0.0
 11
-40.93646758632097
 21
-278.524346065001
 31
0.0
  0
LINE
  5
2E8B
330
2E54
100
AcDbEntity
  8
0
 62
     0
100
AcDbLine
 10
-40.77274520556526
 20
-278.3606236842452
 30
0.0
 11
-40.42635115154395
 21
-278.0142296302239
 31
0.0
  0
LINE
  5
2E8C
330
2E54
100
AcDbEntity
  8
0
 62
     0
100
AcDbLine
 10
-40.93646758632099
 20
-278.524346065001
 30
0.0
 11
-40.77274520556528
 21
-278.3606236842453
 31
0.0
  0
LINE
  5
2E8D
330
2E54
100
AcDbEntity
  8
0
 62
     0
100
AcDbLine
 10
-41.20524151657004
 20
-278.6605374737775
 30
0.0
 11
-41.10309758218079
 21
-278.5583935393883
 31
0.0
  0
LINE
  5
2E8E
330
2E54
100
AcDbEntity
  8
0
 62
     0
100
AcDbLine
 10
-40.00542291351423
 20
-277.4607188707217
 30
0.0
 11
-39.90563430727183
 21
-277.3609302644794
 31
0.0
  0
LINE
  5
2E8F
330
2E54
100
AcDbEntity
  8
0
 62
     0
100
AcDbLine
 10
-41.10309758218081
 20
-278.5583935393883
 30
0.0
 11
-40.90160135388338
 21
-278.3568973110909
 31
0.0
  0
LINE
  5
2E90
330
2E54
100
AcDbEntity
  8
0
 62
     0
100
AcDbLine
 10
-40.87969543086212
 20
-278.3349913880696
 30
0.0
 11
-40.47110307597886
 21
-277.9263990331864
 31
0.0
  0
LINE
  5
2E91
330
2E54
100
AcDbEntity
  8
0
 62
     0
100
AcDbLine
 10
-40.9016013538834
 20
-278.3568973110909
 30
0.0
 11
-40.87969543086214
 21
-278.3349913880696
 31
0.0
  0
LINE
  5
2E92
330
2E54
100
AcDbEntity
  8
0
 62
     0
100
AcDbLine
 10
-41.24999344100497
 20
-278.57270687674
 30
0.0
 11
-41.14784950661573
 21
-278.4705629423507
 31
0.0
  0
LINE
  5
2E93
330
2E54
100
AcDbEntity
  8
0
 62
     0
100
AcDbLine
 10
-40.05017483794916
 20
-277.3728882736842
 30
0.0
 11
-39.95038623170675
 21
-277.2730996674417
 31
0.0
  0
LINE
  5
2E94
330
2E54
100
AcDbEntity
  8
0
 62
     0
100
AcDbLine
 10
-41.14784950661571
 20
-278.4705629423507
 30
0.0
 11
-40.51585500041379
 21
-277.8385684361488
 31
0.0
  0
LINE
  5
2E95
330
2E54
100
AcDbEntity
  8
0
 62
     0
100
AcDbLine
 10
-40.13520989857035
 20
-277.4579233343053
 30
0.0
 11
-40.05017483794913
 21
-277.3728882736842
 31
0.0
  0
LINE
  5
2E96
330
2E54
100
AcDbEntity
  8
0
 62
     0
100
AcDbLine
 10
-41.29474536543989
 20
-278.4848762797024
 30
0.0
 11
-41.19260143105066
 21
-278.3827323453132
 31
0.0
  0
LINE
  5
2E97
330
2E54
100
AcDbEntity
  8
0
 62
     0
100
AcDbLine
 10
-40.09492676238408
 20
-277.2850576766466
 30
0.0
 11
-39.99513815614167
 21
-277.1852690704042
 31
0.0
  0
LINE
  5
2E98
330
2E54
100
AcDbEntity
  8
0
 62
     0
100
AcDbLine
 10
-41.19260143105065
 20
-278.3827323453131
 30
0.0
 11
-40.56060692484869
 21
-277.7507378391113
 31
0.0
  0
LINE
  5
2E99
330
2E54
100
AcDbEntity
  8
0
 62
     0
100
AcDbLine
 10
-40.39402495983168
 20
-277.5841558740942
 30
0.0
 11
-40.09492676238404
 21
-277.2850576766466
 31
0.0
  0
LINE
  5
2E9A
330
2E54
100
AcDbEntity
  8
0
 62
     0
100
AcDbLine
 10
-41.3394972898748
 20
-278.3970456826649
 30
0.0
 11
-41.23735335548558
 21
-278.2949017482756
 31
0.0
  0
LINE
  5
2E9B
330
2E54
100
AcDbEntity
  8
0
 62
     0
100
AcDbLine
 10
-40.13967868681899
 20
-277.197227079609
 30
0.0
 11
-40.0398900805766
 21
-277.0974384733666
 31
0.0
  0
LINE
  5
2E9C
330
2E54
100
AcDbEntity
  8
0
 62
     0
100
AcDbLine
 10
-41.23735335548557
 20
-278.2949017482756
 30
0.0
 11
-40.65284002109301
 21
-277.7103884138831
 31
0.0
  0
LINE
  5
2E9D
330
2E54
100
AcDbEntity
  8
0
 62
     0
100
AcDbLine
 10
-40.65284002109302
 20
-277.710388413883
 30
0.0
 11
-40.33209807941335
 21
-277.3896464722034
 31
0.0
  0
LINE
  5
2E9E
330
2E54
100
AcDbEntity
  8
0
 62
     0
100
AcDbLine
 10
-41.38424921430973
 20
-278.3092150856273
 30
0.0
 11
-41.28210527992051
 21
-278.2070711512381
 31
0.0
  0
LINE
  5
2E9F
330
2E54
100
AcDbEntity
  8
0
 62
     0
100
AcDbLine
 10
-40.18443061125393
 20
-277.1093964825715
 30
0.0
 11
-40.08464200501151
 21
-277.0096078763291
 31
0.0
  0
LINE
  5
2EA0
330
2E54
100
AcDbEntity
  8
0
 62
     0
100
AcDbLine
 10
-41.2821052799205
 20
-278.2070711512381
 30
0.0
 11
-40.91165508235433
 21
-277.8366209536719
 31
0.0
  0
LINE
  5
2EA1
330
2E54
100
AcDbEntity
  8
0
 62
     0
100
AcDbLine
 10
-40.91165508235427
 20
-277.8366209536719
 30
0.0
 11
-40.60241286197611
 21
-277.5273787332937
 31
0.0
  0
LINE
  5
2EA2
330
2E54
100
AcDbEntity
  8
0
 62
     0
100
AcDbLine
 10
-41.42900113874467
 20
-278.2213844885897
 30
0.0
 11
-41.32685720435543
 21
-278.1192405542005
 31
0.0
  0
LINE
  5
2EA3
330
2E54
100
AcDbEntity
  8
0
 62
     0
100
AcDbLine
 10
-40.22918253568884
 20
-277.0215658855339
 30
0.0
 11
-40.12939392944644
 21
-276.9217772792915
 31
0.0
  0
LINE
  5
2EA4
330
2E54
100
AcDbEntity
  8
0
 62
     0
100
AcDbLine
 10
-41.32685720435541
 20
-278.1192405542005
 30
0.0
 11
-40.99595323982196
 21
-277.788336589667
 31
0.0
  0
LINE
  5
2EA5
330
2E54
100
AcDbEntity
  8
0
 62
     0
100
AcDbLine
 10
-40.87272764453877
 20
-277.6651109943838
 30
0.0
 11
-40.69486269815346
 21
-277.4872460479985
 31
0.0
  0
LINE
  5
2EA6
330
2E54
100
AcDbEntity
  8
0
 62
     0
100
AcDbLine
 10
-40.99595323982194
 20
-277.788336589667
 30
0.0
 11
-40.87272764453897
 21
-277.665110994384
 31
0.0
  0
LINE
  5
2EA7
330
2E54
100
AcDbEntity
  8
0
 62
     0
100
AcDbLine
 10
-41.47375306317957
 20
-278.1335538915521
 30
0.0
 11
-41.37160912879036
 21
-278.031409957163
 31
0.0
  0
LINE
  5
2EA8
330
2E54
100
AcDbEntity
  8
0
 62
     0
100
AcDbLine
 10
-40.27393446012377
 20
-276.9337352884964
 30
0.0
 11
-40.17414585388136
 21
-276.833946682254
 31
0.0
  0
LINE
  5
2EA9
330
2E54
100
AcDbEntity
  8
0
 62
     0
100
AcDbLine
 10
-41.37160912879035
 20
-278.0314099571629
 30
0.0
 11
-40.73961462258838
 21
-277.399415450961
 31
0.0
  0
LINE
  5
2EAA
330
2E54
100
AcDbEntity
  8
0
 62
     0
100
AcDbLine
 10
-41.51850498761451
 20
-278.0457232945146
 30
0.0
 11
-41.41636105322528
 21
-277.9435793601255
 31
0.0
  0
LINE
  5
2EAB
330
2E54
100
AcDbEntity
  8
0
 62
     0
100
AcDbLine
 10
-40.3186863845587
 20
-276.8459046914588
 30
0.0
 11
-40.21889777831629
 21
-276.7461160852164
 31
0.0
  0
LINE
  5
2EAC
330
2E54
100
AcDbEntity
  8
0
 62
     0
100
AcDbLine
 10
-41.41636105322527
 20
-277.9435793601254
 30
0.0
 11
-40.78436654702331
 21
-277.3115848539234
 31
0.0
  0
LINE
  5
2EAD
330
2E54
100
AcDbEntity
  8
0
 62
     0
100
AcDbLine
 10
-41.56325691204942
 20
-277.9578926974771
 30
0.0
 11
-41.46111297766021
 21
-277.8557487630879
 31
0.0
  0
LINE
  5
2EAE
330
2E54
100
AcDbEntity
  8
0
 62
     0
100
AcDbLine
 10
-40.36343830899361
 20
-276.7580740944213
 30
0.0
 11
-40.2636497027512
 21
-276.6582854881789
 31
0.0
  0
LINE
  5
2EAF
330
2E54
100
AcDbEntity
  8
0
 62
     0
100
AcDbLine
 10
-41.4611129776602
 20
-277.8557487630878
 30
0.0
 11
-40.82911847145823
 21
-277.2237542568859
 31
0.0
  0
LINE
  5
2EB0
330
2E54
100
AcDbEntity
  8
0
 62
     0
100
AcDbLine
 10
-41.60800883648435
 20
-277.8700621004395
 30
0.0
 11
-41.50586490209513
 21
-277.7679181660503
 31
0.0
  0
LINE
  5
2EB1
330
2E54
100
AcDbEntity
  8
0
 62
     0
100
AcDbLine
 10
-40.40819023342854
 20
-276.6702434973837
 30
0.0
 11
-40.30840162718615
 21
-276.5704548911414
 31
0.0
  0
LINE
  5
2EB2
330
2E54
100
AcDbEntity
  8
0
 62
     0
100
AcDbLine
 10
-41.50586490209512
 20
-277.7679181660503
 30
0.0
 11
-40.87387039589315
 21
-277.1359236598483
 31
0.0
  0
LINE
  5
2EB3
330
2E54
100
AcDbEntity
  8
0
 62
     0
100
AcDbLine
 10
-41.65276076091928
 20
-277.782231503402
 30
0.0
 11
-41.55061682653006
 21
-277.6800875690128
 31
0.0
  0
LINE
  5
2EB4
330
2E54
100
AcDbEntity
  8
0
 62
     0
100
AcDbLine
 10
-40.45294215786347
 20
-276.5824129003462
 30
0.0
 11
-40.35315355162107
 21
-276.4826242941037
 31
0.0
  0
LINE
  5
2EB5
330
2E54
100
AcDbEntity
  8
0
 62
     0
100
AcDbLine
 10
-41.55061682653004
 20
-277.6800875690128
 30
0.0
 11
-40.91862232032808
 21
-277.0480930628108
 31
0.0
  0
LINE
  5
2EB6
330
2E54
100
AcDbEntity
  8
0
 62
     0
100
AcDbLine
 10
-41.6975126853542
 20
-277.6944009063644
 30
0.0
 11
-41.59536875096497
 21
-277.5922569719752
 31
0.0
  0
LINE
  5
2EB7
330
2E54
100
AcDbEntity
  8
0
 62
     0
100
AcDbLine
 10
-40.49769408229838
 20
-276.4945823033086
 30
0.0
 11
-40.39790547605599
 21
-276.3947936970662
 31
0.0
  0
LINE
  5
2EB8
330
2E54
100
AcDbEntity
  8
0
 62
     0
100
AcDbLine
 10
-41.59536875096496
 20
-277.5922569719751
 30
0.0
 11
-40.963374244763
 21
-276.9602624657732
 31
0.0
  0
LINE
  5
2EB9
330
2E54
100
AcDbEntity
  8
0
 62
     0
100
AcDbLine
 10
-41.74226460978912
 20
-277.6065703093268
 30
0.0
 11
-41.6401206753999
 21
-277.5044263749377
 31
0.0
  0
LINE
  5
2EBA
330
2E54
100
AcDbEntity
  8
0
 62
     0
100
AcDbLine
 10
-40.54244600673332
 20
-276.4067517062711
 30
0.0
 11
-40.44265740049091
 21
-276.3069631000287
 31
0.0
  0
LINE
  5
2EBB
330
2E54
100
AcDbEntity
  8
0
 62
     0
100
AcDbLine
 10
-41.64012067539989
 20
-277.5044263749376
 30
0.0
 11
-41.00812616919793
 21
-276.8724318687357
 31
0.0
  0
LINE
  5
2EBC
330
2E54
100
AcDbEntity
  8
0
 62
     0
100
AcDbLine
 10
-41.78701653422404
 20
-277.5187397122893
 30
0.0
 11
-41.68487259983481
 21
-277.4165957779001
 31
0.0
  0
LINE
  5
2EBD
330
2E54
100
AcDbEntity
  8
0
 62
     0
100
AcDbLine
 10
-40.58719793116824
 20
-276.3189211092335
 30
0.0
 11
-40.48740932492584
 21
-276.2191325029911
 31
0.0
  0
LINE
  5
2EBE
330
2E54
100
AcDbEntity
  8
0
 62
     0
100
AcDbLine
 10
-41.68487259983482
 20
-277.4165957779001
 30
0.0
 11
-41.05287809363285
 21
-276.7846012716981
 31
0.0
  0
LINE
  5
2EBF
330
2E54
100
AcDbEntity
  8
0
 62
     0
100
AcDbLine
 10
-41.83176845865896
 20
-277.4309091152518
 30
0.0
 11
-41.72962452426975
 21
-277.3287651808626
 31
0.0
  0
LINE
  5
2EC0
330
2E54
100
AcDbEntity
  8
0
 62
     0
100
AcDbLine
 10
-40.63194985560315
 20
-276.2310905121959
 30
0.0
 11
-40.53216124936076
 21
-276.1313019059535
 31
0.0
  0
LINE
  5
2EC1
330
2E54
100
AcDbEntity
  8
0
 62
     0
100
AcDbLine
 10
-41.72962452426975
 20
-277.3287651808625
 30
0.0
 11
-41.09763001806778
 21
-276.6967706746606
 31
0.0
  0
LINE
  5
2EC2
330
2E54
100
AcDbEntity
  8
0
 62
     0
100
AcDbLine
 10
-41.8765203830939
 20
-277.3430785182142
 30
0.0
 11
-41.77437644870467
 21
-277.240934583825
 31
0.0
  0
LINE
  5
2EC3
330
2E54
100
AcDbEntity
  8
0
 62
     0
100
AcDbLine
 10
-40.67670178003808
 20
-276.1432599151584
 30
0.0
 11
-40.57691317379568
 21
-276.043471308916
 31
0.0
  0
LINE
  5
2EC4
330
2E54
100
AcDbEntity
  8
0
 62
     0
100
AcDbLine
 10
-41.77437644870467
 20
-277.240934583825
 30
0.0
 11
-41.1423819425027
 21
-276.608940077623
 31
0.0
  0
LINE
  5
2EC5
330
2E54
100
AcDbEntity
  8
0
 62
     0
100
AcDbLine
 10
-41.92127230752881
 20
-277.2552479211766
 30
0.0
 11
-41.8191283731396
 21
-277.1531039867875
 31
0.0
  0
LINE
  5
2EC6
330
2E54
100
AcDbEntity
  8
0
 62
     0
100
AcDbLine
 10
-40.72145370447301
 20
-276.0554293181209
 30
0.0
 11
-40.6216650982306
 21
-275.9556407118785
 31
0.0
  0
LINE
  5
2EC7
330
2E54
100
AcDbEntity
  8
0
 62
     0
100
AcDbLine
 10
-41.81912837313959
 20
-277.1531039867874
 30
0.0
 11
-41.18713386693762
 21
-276.5211094805855
 31
0.0
  0
LINE
  5
2EC8
330
2E54
100
AcDbEntity
  8
0
 62
     0
100
AcDbLine
 10
-41.96602423196374
 20
-277.1674173241391
 30
0.0
 11
-41.86388029757452
 21
-277.0652733897499
 31
0.0
  0
LINE
  5
2EC9
330
2E54
100
AcDbEntity
  8
0
 62
     0
100
AcDbLine
 10
-35.8061910555824
 20
-271.0075841477578
 30
0.0
 11
-35.70443277119299
 21
-270.9058258633683
 31
0.0
  0
LINE
  5
2ECA
330
2E54
100
AcDbEntity
  8
0
 62
     0
100
AcDbLine
 10
-41.86388029757451
 20
-277.0652733897498
 30
0.0
 11
-41.23188579137255
 21
-276.4332788835479
 31
0.0
  0
LINE
  5
2ECB
330
2E54
100
AcDbEntity
  8
0
 62
     0
100
AcDbLine
 10
-40.76620562890794
 20
-275.9675987210833
 30
0.0
 11
-40.66641702266553
 21
-275.8678101148409
 31
0.0
  0
LINE
  5
2ECC
330
2E54
100
AcDbEntity
  8
0
 62
     0
100
AcDbLine
 10
-42.01077615639866
 20
-277.0795867271015
 30
0.0
 11
-41.90863222200944
 21
-276.9774427927123
 31
0.0
  0
LINE
  5
2ECD
330
2E54
100
AcDbEntity
  8
0
 62
     0
100
AcDbLine
 10
-35.93877357705487
 20
-271.0075841477578
 30
0.0
 11
-35.70443277119299
 21
-270.7732433418959
 31
0.0
  0
LINE
  5
2ECE
330
2E54
100
AcDbEntity
  8
0
 62
     0
100
AcDbLine
 10
-41.90863222200944
 20
-276.9774427927123
 30
0.0
 11
-41.27663771580747
 21
-276.3454482865104
 31
0.0
  0
LINE
  5
2ECF
330
2E54
100
AcDbEntity
  8
0
 62
     0
100
AcDbLine
 10
-40.81095755334286
 20
-275.8797681240458
 30
0.0
 11
-40.71116894710044
 21
-275.7799795178034
 31
0.0
  0
LINE
  5
2ED0
330
2E54
100
AcDbEntity
  8
0
 62
     0
100
AcDbLine
 10
-42.05552808083359
 20
-276.991756130064
 30
0.0
 11
-41.95338414644437
 21
-276.8896121956748
 31
0.0
  0
LINE
  5
2ED1
330
2E54
100
AcDbEntity
  8
0
 62
     0
100
AcDbLine
 10
-36.07135609852736
 20
-271.0075841477578
 30
0.0
 11
-35.70443277119299
 21
-270.6406608204234
 31
0.0
  0
LINE
  5
2ED2
330
2E54
100
AcDbEntity
  8
0
 62
     0
100
AcDbLine
 10
-41.95338414644437
 20
-276.8896121956748
 30
0.0
 11
-41.32138964024239
 21
-276.2576176894728
 31
0.0
  0
LINE
  5
2ED3
330
2E54
100
AcDbEntity
  8
0
 62
     0
100
AcDbLine
 10
-40.85570947777777
 20
-275.7919375270082
 30
0.0
 11
-40.75592087153537
 21
-275.6921489207658
 31
0.0
  0
LINE
  5
2ED4
330
2E54
100
AcDbEntity
  8
0
 62
     0
100
AcDbLine
 10
-42.10028000526851
 20
-276.9039255330264
 30
0.0
 11
-41.99813607087929
 21
-276.8017815986373
 31
0.0
  0
LINE
  5
2ED5
330
2E54
100
AcDbEntity
  8
0
 62
     0
100
AcDbLine
 10
-36.20393861999985
 20
-271.0075841477578
 30
0.0
 11
-35.70443277119299
 21
-270.5080782989509
 31
0.0
  0
LINE
  5
2ED6
330
2E54
100
AcDbEntity
  8
0
 62
     0
100
AcDbLine
 10
-41.99813607087929
 20
-276.8017815986372
 30
0.0
 11
-41.36614156467731
 21
-276.1697870924352
 31
0.0
  0
LINE
  5
2ED7
330
2E54
100
AcDbEntity
  8
0
 62
     0
100
AcDbLine
 10
-40.90046140221271
 20
-275.7041069299706
 30
0.0
 11
-40.80067279597029
 21
-275.6043183237283
 31
0.0
  0
LINE
  5
2ED8
330
2E54
100
AcDbEntity
  8
0
 62
     0
100
AcDbLine
 10
-42.14503192970343
 20
-276.8160949359889
 30
0.0
 11
-42.04288799531422
 21
-276.7139510015997
 31
0.0
  0
LINE
  5
2ED9
330
2E54
100
AcDbEntity
  8
0
 62
     0
100
AcDbLine
 10
-36.33652114147233
 20
-271.0075841477578
 30
0.0
 11
-35.70443277119299
 21
-270.3754957774785
 31
0.0
  0
LINE
  5
2EDA
330
2E54
100
AcDbEntity
  8
0
 62
     0
100
AcDbLine
 10
-42.04288799531422
 20
-276.7139510015996
 30
0.0
 11
-41.41089348911224
 21
-276.0819564953977
 31
0.0
  0
LINE
  5
2EDB
330
2E54
100
AcDbEntity
  8
0
 62
     0
100
AcDbLine
 10
-40.94521332664762
 20
-275.6162763329331
 30
0.0
 11
-40.84542472040522
 21
-275.5164877266907
 31
0.0
  0
LINE
  5
2EDC
330
2E54
100
AcDbEntity
  8
0
 62
     0
100
AcDbLine
 10
-42.18978385413836
 20
-276.7282643389513
 30
0.0
 11
-42.08763991974914
 21
-276.6261204045621
 31
0.0
  0
LINE
  5
2EDD
330
2E54
100
AcDbEntity
  8
0
 62
     0
100
AcDbLine
 10
-36.46910366294478
 20
-271.0075841477578
 30
0.0
 11
-35.70443277119299
 21
-270.242913256006
 31
0.0
  0
LINE
  5
2EDE
330
2E54
100
AcDbEntity
  8
0
 62
     0
100
AcDbLine
 10
-42.08763991974914
 20
-276.6261204045621
 30
0.0
 11
-41.45564541354717
 21
-275.9941258983601
 31
0.0
  0
LINE
  5
2EDF
330
2E54
100
AcDbEntity
  8
0
 62
     0
100
AcDbLine
 10
-40.98996525108254
 20
-275.5284457358955
 30
0.0
 11
-40.89017664484013
 21
-275.4286571296531
 31
0.0
  0
LINE
  5
2EE0
330
2E54
100
AcDbEntity
  8
0
 62
     0
100
AcDbLine
 10
-42.23453577857329
 20
-276.6404337419138
 30
0.0
 11
-42.13239184418406
 21
-276.5382898075245
 31
0.0
  0
LINE
  5
2EE1
330
2E54
100
AcDbEntity
  8
0
 62
     0
100
AcDbLine
 10
-36.60168618441726
 20
-271.0075841477578
 30
0.0
 11
-35.7069169949642
 21
-270.1128149583047
 31
0.0
  0
LINE
  5
2EE2
330
2E54
100
AcDbEntity
  8
0
 62
     0
100
AcDbLine
 10
-42.13239184418408
 20
-276.5382898075245
 30
0.0
 11
-41.50039733798208
 21
-275.9062953013226
 31
0.0
  0
LINE
  5
2EE3
330
2E54
100
AcDbEntity
  8
0
 62
     0
100
AcDbLine
 10
-41.03471717551747
 20
-275.4406151388579
 30
0.0
 11
-40.93492856927506
 21
-275.3408265326156
 31
0.0
  0
LINE
  5
2EE4
330
2E54
100
AcDbEntity
  8
0
 62
     0
100
AcDbLine
 10
-42.2792877030082
 20
-276.5526031448762
 30
0.0
 11
-42.17714376861898
 21
-276.450459210487
 31
0.0
  0
LINE
  5
2EE5
330
2E54
100
AcDbEntity
  8
0
 62
     0
100
AcDbLine
 10
-36.73426870588975
 20
-271.0075841477578
 30
0.0
 11
-35.83949951643669
 21
-270.1128149583047
 31
0.0
  0
LINE
  5
2EE6
330
2E54
100
AcDbEntity
  8
0
 62
     0
100
AcDbLine
 10
-42.17714376861898
 20
-276.450459210487
 30
0.0
 11
-41.54514926241701
 21
-275.818464704285
 31
0.0
  0
LINE
  5
2EE7
330
2E54
100
AcDbEntity
  8
0
 62
     0
100
AcDbLine
 10
-41.0794690999524
 20
-275.3527845418204
 30
0.0
 11
-40.97968049370998
 21
-275.2529959355781
 31
0.0
  0
LINE
  5
2EE8
330
2E54
100
AcDbEntity
  8
0
 62
     0
100
AcDbLine
 10
-42.32403962744313
 20
-276.4647725478386
 30
0.0
 11
-42.22189569305391
 21
-276.3626286134495
 31
0.0
  0
LINE
  5
2EE9
330
2E54
100
AcDbEntity
  8
0
 62
     0
100
AcDbLine
 10
-36.86685122736224
 20
-271.0075841477578
 30
0.0
 11
-35.97208203790917
 21
-270.1128149583047
 31
0.0
  0
LINE
  5
2EEA
330
2E54
100
AcDbEntity
  8
0
 62
     0
100
AcDbLine
 10
-42.22189569305391
 20
-276.3626286134494
 30
0.0
 11
-41.58990118685194
 21
-275.7306341072474
 31
0.0
  0
LINE
  5
2EEB
330
2E54
100
AcDbEntity
  8
0
 62
     0
100
AcDbLine
 10
-41.12422102438733
 20
-275.2649539447828
 30
0.0
 11
-41.02443241814492
 21
-275.1651653385405
 31
0.0
  0
LINE
  5
2EEC
330
2E54
100
AcDbEntity
  8
0
 62
     0
100
AcDbLine
 10
-42.36879155187804
 20
-276.3769419508011
 30
0.0
 11
-42.2684645752521
 21
-276.2766149741751
 31
0.0
  0
LINE
  5
2EED
330
2E54
100
AcDbEntity
  8
0
 62
     0
100
AcDbLine
 10
-36.99943374883472
 20
-271.0075841477578
 30
0.0
 11
-36.10466455938166
 21
-270.1128149583047
 31
0.0
  0
LINE
  5
2EEE
330
2E54
100
AcDbEntity
  8
0
 62
     0
100
AcDbLine
 10
-42.26664761748884
 20
-276.2747980164119
 30
0.0
 11
-42.19792528481469
 21
-276.2060756837377
 31
0.0
  0
LINE
  5
2EEF
330
2E54
100
AcDbEntity
  8
0
 62
     0
100
AcDbLine
 10
-41.16897294882225
 20
-275.1771233477454
 30
0.0
 11
-41.06918434257984
 21
-275.0773347415029
 31
0.0
  0
LINE
  5
2EF0
330
2E54
100
AcDbEntity
  8
0
 62
     0
100
AcDbLine
 10
-42.1979252848146
 20
-276.2060756837377
 30
0.0
 11
-42.10043854447298
 21
-276.108588943396
 31
0.0
  0
LINE
  5
2EF1
330
2E54
100
AcDbEntity
  8
0
 62
     0
100
AcDbLine
 10
-41.99598251496389
 20
-276.004132913887
 30
0.0
 11
-41.63465311128686
 21
-275.6428035102099
 31
0.0
  0
LINE
  5
2EF2
330
2E54
100
AcDbEntity
  8
0
 62
     0
100
AcDbLine
 10
-42.10043854447292
 20
-276.1085889433959
 30
0.0
 11
-42.09566753742882
 21
-276.1038179363519
 31
0.0
  0
LINE
  5
2EF3
330
2E54
100
AcDbEntity
  8
0
 62
     0
100
AcDbLine
 10
-42.09566753742871
 20
-276.1038179363518
 30
0.0
 11
-41.99598251496389
 21
-276.004132913887
 31
0.0
  0
LINE
  5
2EF4
330
2E54
100
AcDbEntity
  8
0
 62
     0
100
AcDbLine
 10
-42.41354347631298
 20
-276.2891113537635
 30
0.0
 11
-42.31321649968703
 21
-276.1887843771376
 31
0.0
  0
LINE
  5
2EF5
330
2E54
100
AcDbEntity
  8
0
 62
     0
100
AcDbLine
 10
-37.13201627030717
 20
-271.0075841477578
 30
0.0
 11
-36.23724708085414
 21
-270.1128149583047
 31
0.0
  0
LINE
  5
2EF6
330
2E54
100
AcDbEntity
  8
0
 62
     0
100
AcDbLine
 10
-42.31139954192374
 20
-276.1869674193743
 30
0.0
 11
-42.1892754338011
 21
-276.0648433112517
 31
0.0
  0
LINE
  5
2EF7
330
2E54
100
AcDbEntity
  8
0
 62
     0
100
AcDbLine
 10
-41.21372487325716
 20
-275.0892927507078
 30
0.0
 11
-41.11393626701477
 21
-274.9895041444653
 31
0.0
  0
LINE
  5
2EF8
330
2E54
100
AcDbEntity
  8
0
 62
     0
100
AcDbLine
 10
-42.18927543380108
 20
-276.0648433112517
 30
0.0
 11
-42.14458912338753
 21
-276.0201570008381
 31
0.0
  0
LINE
  5
2EF9
330
2E54
100
AcDbEntity
  8
0
 62
     0
100
AcDbLine
 10
-41.96714156490001
 20
-275.8427094423506
 30
0.0
 11
-41.67940503572178
 21
-275.5549729131724
 31
0.0
  0
LINE
  5
2EFA
330
2E54
100
AcDbEntity
  8
0
 62
     0
100
AcDbLine
 10
-42.11450619999326
 20
-275.9900740774438
 30
0.0
 11
-41.96714156489998
 21
-275.8427094423506
 31
0.0
  0
LINE
  5
2EFB
330
2E54
100
AcDbEntity
  8
0
 62
     0
100
AcDbLine
 10
-42.4582954007479
 20
-276.201280756726
 30
0.0
 11
-42.35796842412195
 21
-276.1009537801001
 31
0.0
  0
LINE
  5
2EFC
330
2E54
100
AcDbEntity
  8
0
 62
     0
100
AcDbLine
 10
-37.26459879177965
 20
-271.0075841477578
 30
0.0
 11
-36.36982960232659
 21
-270.1128149583047
 31
0.0
  0
LINE
  5
2EFD
330
2E54
100
AcDbEntity
  8
0
 62
     0
100
AcDbLine
 10
-42.35615146635868
 20
-276.0991368223368
 30
0.0
 11
-42.27628628029851
 21
-276.0192716362766
 31
0.0
  0
LINE
  5
2EFE
330
2E54
100
AcDbEntity
  8
0
 62
     0
100
AcDbLine
 10
-41.2584767976921
 20
-275.0014621536702
 30
0.0
 11
-41.15868819144969
 21
-274.9016735474278
 31
0.0
  0
LINE
  5
2EFF
330
2E54
100
AcDbEntity
  8
0
 62
     0
100
AcDbLine
 10
-42.27628628029848
 20
-276.0192716362765
 30
0.0
 11
-41.83861559237119
 21
-275.5816009483493
 31
0.0
  0
LINE
  5
2F00
330
2E54
100
AcDbEntity
  8
0
 62
     0
100
AcDbLine
 10
-41.83861559237118
 20
-275.5816009483492
 30
0.0
 11
-41.72415696015671
 21
-275.4671423161348
 31
0.0
  0
LINE
  5
2F01
330
2E54
100
AcDbEntity
  8
0
 62
     0
100
AcDbLine
 10
-42.50304732518282
 20
-276.1134501596885
 30
0.0
 11
-42.40272034855689
 21
-276.0131231830625
 31
0.0
  0
LINE
  5
2F02
330
2E54
100
AcDbEntity
  8
0
 62
     0
100
AcDbLine
 10
-37.39718131325214
 20
-271.0075841477578
 30
0.0
 11
-36.50241212379908
 21
-270.1128149583047
 31
0.0
  0
LINE
  5
2F03
330
2E54
100
AcDbEntity
  8
0
 62
     0
100
AcDbLine
 10
-42.4009033907936
 20
-276.0113062252992
 30
0.0
 11
-42.19714334742477
 21
-275.8075461819304
 31
0.0
  0
LINE
  5
2F04
330
2E54
100
AcDbEntity
  8
0
 62
     0
100
AcDbLine
 10
-41.30322872212701
 20
-274.9136315566326
 30
0.0
 11
-41.20344011588461
 21
-274.8138429503903
 31
0.0
  0
LINE
  5
2F05
330
2E54
100
AcDbEntity
  8
0
 62
     0
100
AcDbLine
 10
-42.19714334742469
 20
-275.8075461819303
 30
0.0
 11
-42.14776030776967
 21
-275.7581631422754
 31
0.0
  0
LINE
  5
2F06
330
2E54
100
AcDbEntity
  8
0
 62
     0
100
AcDbLine
 10
-42.14776030776969
 20
-275.7581631422754
 30
0.0
 11
-41.71008961984234
 21
-275.320492454348
 31
0.0
  0
LINE
  5
2F07
330
2E54
100
AcDbEntity
  8
0
 62
     0
100
AcDbLine
 10
-42.54779924961775
 20
-276.0256195626509
 30
0.0
 11
-42.44747227299181
 21
-275.925292586025
 31
0.0
  0
LINE
  5
2F08
330
2E54
100
AcDbEntity
  8
0
 62
     0
100
AcDbLine
 10
-37.52976383472462
 20
-271.0075841477578
 30
0.0
 11
-36.63499464527156
 21
-270.1128149583047
 31
0.0
  0
LINE
  5
2F09
330
2E54
100
AcDbEntity
  8
0
 62
     0
100
AcDbLine
 10
-42.44565531522854
 20
-275.9234756282617
 30
0.0
 11
-42.01923433524084
 21
-275.497054648274
 31
0.0
  0
LINE
  5
2F0A
330
2E54
100
AcDbEntity
  8
0
 62
     0
100
AcDbLine
 10
-41.34798064656194
 20
-274.8258009595951
 30
0.0
 11
-41.24819204031953
 21
-274.7260123533527
 31
0.0
  0
LINE
  5
2F0B
330
2E54
100
AcDbEntity
  8
0
 62
     0
100
AcDbLine
 10
-42.01923433524087
 20
-275.497054648274
 30
0.0
 11
-41.58156364731355
 21
-275.0593839603467
 31
0.0
  0
LINE
  5
2F0C
330
2E54
100
AcDbEntity
  8
0
 62
     0
100
AcDbLine
 10
-42.59255117405266
 20
-275.9377889656133
 30
0.0
 11
-42.49040723966347
 21
-275.8356450312241
 31
0.0
  0
LINE
  5
2F0D
330
2E54
100
AcDbEntity
  8
0
 62
     0
100
AcDbLine
 10
-37.6623463561971
 20
-271.0075841477578
 30
0.0
 11
-36.76757716674404
 21
-270.1128149583047
 31
0.0
  0
LINE
  5
2F0E
330
2E54
100
AcDbEntity
  8
0
 62
     0
100
AcDbLine
 10
-42.49040723966347
 20
-275.8356450312241
 30
0.0
 11
-41.89070836271205
 21
-275.2359461542728
 31
0.0
  0
LINE
  5
2F0F
330
2E54
100
AcDbEntity
  8
0
 62
     0
100
AcDbLine
 10
-41.39273257099687
 20
-274.7379703625575
 30
0.0
 11
-41.29294396475446
 21
-274.6381817563151
 31
0.0
  0
LINE
  5
2F10
330
2E54
100
AcDbEntity
  8
0
 62
     0
100
AcDbLine
 10
-41.89070836271203
 20
-275.2359461542727
 30
0.0
 11
-41.45303767478471
 21
-274.7982754663454
 31
0.0
  0
LINE
  5
2F11
330
2E54
100
AcDbEntity
  8
0
 62
     0
100
AcDbLine
 10
-42.63730309848759
 20
-275.8499583685758
 30
0.0
 11
-42.53515916409838
 21
-275.7478144341866
 31
0.0
  0
LINE
  5
2F12
330
2E54
100
AcDbEntity
  8
0
 62
     0
100
AcDbLine
 10
-37.79492887766956
 20
-271.0075841477578
 30
0.0
 11
-36.90015968821653
 21
-270.1128149583047
 31
0.0
  0
LINE
  5
2F13
330
2E54
100
AcDbEntity
  8
0
 62
     0
100
AcDbLine
 10
-42.53515916409839
 20
-275.7478144341866
 30
0.0
 11
-41.90316465789641
 21
-275.1158199279846
 31
0.0
  0
LINE
  5
2F14
330
2E54
100
AcDbEntity
  8
0
 62
     0
100
AcDbLine
 10
-41.76218239018321
 20
-274.9748376602715
 30
0.0
 11
-41.32451170225591
 21
-274.5371669723441
 31
0.0
  0
LINE
  5
2F15
330
2E54
100
AcDbEntity
  8
0
 62
     0
100
AcDbLine
 10
-42.68205502292253
 20
-275.7621277715383
 30
0.0
 11
-42.57991108853331
 21
-275.6599838371491
 31
0.0
  0
LINE
  5
2F16
330
2E54
100
AcDbEntity
  8
0
 62
     0
100
AcDbLine
 10
-37.92751139914204
 20
-271.0075841477578
 30
0.0
 11
-37.03274220968898
 21
-270.1128149583047
 31
0.0
  0
LINE
  5
2F17
330
2E54
100
AcDbEntity
  8
0
 62
     0
100
AcDbLine
 10
-42.57991108853332
 20
-275.659983837149
 30
0.0
 11
-41.94791658233133
 21
-275.027989330947
 31
0.0
  0
LINE
  5
2F18
330
2E54
100
AcDbEntity
  8
0
 62
     0
100
AcDbLine
 10
-41.63365641765442
 20
-274.7137291662701
 30
0.0
 11
-41.19598572972707
 21
-274.2760584783428
 31
0.0
  0
LINE
  5
2F19
330
2E54
100
AcDbEntity
  8
0
 62
     0
100
AcDbLine
 10
-42.72680694735743
 20
-275.6742971745007
 30
0.0
 11
-42.62466301296824
 21
-275.5721532401115
 31
0.0
  0
LINE
  5
2F1A
330
2E54
100
AcDbEntity
  8
0
 62
     0
100
AcDbLine
 10
-38.06009392061452
 20
-271.0075841477578
 30
0.0
 11
-37.16532473116146
 21
-270.1128149583047
 31
0.0
  0
LINE
  5
2F1B
330
2E54
100
AcDbEntity
  8
0
 62
     0
100
AcDbLine
 10
-42.62466301296824
 20
-275.5721532401115
 30
0.0
 11
-41.99266850676624
 21
-274.9401587339095
 31
0.0
  0
LINE
  5
2F1C
330
2E54
100
AcDbEntity
  8
0
 62
     0
100
AcDbLine
 10
-41.24320808781802
 20
-274.1906983149613
 30
0.0
 11
-41.16028905131896
 21
-274.1077792784622
 31
0.0
  0
LINE
  5
2F1D
330
2E54
100
AcDbEntity
  8
0
 62
     0
100
AcDbLine
 10
-41.52698834430164
 20
-274.4744785714449
 30
0.0
 11
-41.50513044512558
 21
-274.4526206722688
 31
0.0
  0
LINE
  5
2F1E
330
2E54
100
AcDbEntity
  8
0
 62
     0
100
AcDbLine
 10
-41.2918472873847
 20
-274.2393375145279
 30
0.0
 11
-41.26594175883485
 21
-274.2134319859781
 31
0.0
  0
LINE
  5
2F1F
330
2E54
100
AcDbEntity
  8
0
 62
     0
100
AcDbLine
 10
-41.50513044512556
 20
-274.4526206722688
 30
0.0
 11
-41.29184728738475
 21
-274.239337514528
 31
0.0
  0
LINE
  5
2F20
330
2E54
100
AcDbEntity
  8
0
 62
     0
100
AcDbLine
 10
-42.77155887179236
 20
-275.5864665774631
 30
0.0
 11
-42.66941493740316
 21
-275.484322643074
 31
0.0
  0
LINE
  5
2F21
330
2E54
100
AcDbEntity
  8
0
 62
     0
100
AcDbLine
 10
-38.192676442087
 20
-271.0075841477578
 30
0.0
 11
-37.29790725263395
 21
-270.1128149583047
 31
0.0
  0
LINE
  5
2F22
330
2E54
100
AcDbEntity
  8
0
 62
     0
100
AcDbLine
 10
-42.66941493740316
 20
-275.484322643074
 30
0.0
 11
-42.03742043120118
 21
-274.8523281368719
 31
0.0
  0
LINE
  5
2F23
330
2E54
100
AcDbEntity
  8
0
 62
     0
100
AcDbLine
 10
-41.39132135807054
 20
-274.2062290637413
 30
0.0
 11
-41.15044255176923
 21
-273.96535025744
 31
0.0
  0
LINE
  5
2F24
330
2E54
100
AcDbEntity
  8
0
 62
     0
100
AcDbLine
 10
-41.57174026873658
 20
-274.3866479744074
 30
0.0
 11
-41.47195166249413
 21
-274.2868593681649
 31
0.0
  0
LINE
  5
2F25
330
2E54
100
AcDbEntity
  8
0
 62
     0
100
AcDbLine
 10
-42.81631079622728
 20
-275.4986359804255
 30
0.0
 11
-42.71416686183809
 21
-275.3964920460364
 31
0.0
  0
LINE
  5
2F26
330
2E54
100
AcDbEntity
  8
0
 62
     0
100
AcDbLine
 10
-38.32525896355949
 20
-271.0075841477578
 30
0.0
 11
-37.43048977410643
 21
-270.1128149583047
 31
0.0
  0
LINE
  5
2F27
330
2E54
100
AcDbEntity
  8
0
 62
     0
100
AcDbLine
 10
-42.71416686183809
 20
-275.3964920460364
 30
0.0
 11
-42.0821723556361
 21
-274.7644975398344
 31
0.0
  0
LINE
  5
2F28
330
2E54
100
AcDbEntity
  8
0
 62
     0
100
AcDbLine
 10
-41.3814748585208
 20
-274.0638000427191
 30
0.0
 11
-41.1405960522195
 21
-273.8229212364178
 31
0.0
  0
LINE
  5
2F29
330
2E54
100
AcDbEntity
  8
0
 62
     0
100
AcDbLine
 10
-41.6164921931715
 20
-274.2988173773698
 30
0.0
 11
-41.51670358692905
 21
-274.1990287711273
 31
0.0
  0
LINE
  5
2F2A
330
2E54
100
AcDbEntity
  8
0
 62
     0
100
AcDbLine
 10
-42.86106272066221
 20
-275.410805383388
 30
0.0
 11
-42.75891878627302
 21
-275.3086614489988
 31
0.0
  0
LINE
  5
2F2B
330
2E54
100
AcDbEntity
  8
0
 62
     0
100
AcDbLine
 10
-38.45784148503194
 20
-271.0075841477578
 30
0.0
 11
-37.56307229557891
 21
-270.1128149583047
 31
0.0
  0
LINE
  5
2F2C
330
2E54
100
AcDbEntity
  8
0
 62
     0
100
AcDbLine
 10
-42.75891878627301
 20
-275.3086614489988
 30
0.0
 11
-42.12692428007102
 21
-274.6766669427968
 31
0.0
  0
LINE
  5
2F2D
330
2E54
100
AcDbEntity
  8
0
 62
     0
100
AcDbLine
 10
-41.37162835897107
 20
-273.9213710216969
 30
0.0
 11
-41.13074955266977
 21
-273.6804922153956
 31
0.0
  0
LINE
  5
2F2E
330
2E54
100
AcDbEntity
  8
0
 62
     0
100
AcDbLine
 10
-41.66124411760642
 20
-274.2109867803322
 30
0.0
 11
-41.56145551136398
 21
-274.1111981740898
 31
0.0
  0
LINE
  5
2F2F
330
2E54
100
AcDbEntity
  8
0
 62
     0
100
AcDbLine
 10
-42.90581464509713
 20
-275.3229747863504
 30
0.0
 11
-42.80367071070794
 21
-275.2208308519613
 31
0.0
  0
LINE
  5
2F30
330
2E54
100
AcDbEntity
  8
0
 62
     0
100
AcDbLine
 10
-38.59042400650442
 20
-271.0075841477578
 30
0.0
 11
-37.69565481705136
 21
-270.1128149583047
 31
0.0
  0
LINE
  5
2F31
330
2E54
100
AcDbEntity
  8
0
 62
     0
100
AcDbLine
 10
-42.80367071070794
 20
-275.2208308519613
 30
0.0
 11
-42.17167620450595
 21
-274.5888363457593
 31
0.0
  0
LINE
  5
2F32
330
2E54
100
AcDbEntity
  8
0
 62
     0
100
AcDbLine
 10
-41.36178185942134
 20
-273.7789420006746
 30
0.0
 11
-41.12090305312004
 21
-273.5380631943733
 31
0.0
  0
LINE
  5
2F33
330
2E54
100
AcDbEntity
  8
0
 62
     0
100
AcDbLine
 10
-41.70599604204134
 20
-274.1231561832947
 30
0.0
 11
-41.60620743579889
 21
-274.0233675770522
 31
0.0
  0
LINE
  5
2F34
330
2E54
100
AcDbEntity
  8
0
 62
     0
100
AcDbLine
 10
-42.95056656953206
 20
-275.2351441893129
 30
0.0
 11
-42.84842263514287
 21
-275.1330002549237
 31
0.0
  0
LINE
  5
2F35
330
2E54
100
AcDbEntity
  8
0
 62
     0
100
AcDbLine
 10
-38.72300652797691
 20
-271.0075841477578
 30
0.0
 11
-37.82823733852385
 21
-270.1128149583047
 31
0.0
  0
LINE
  5
2F36
330
2E54
100
AcDbEntity
  8
0
 62
     0
100
AcDbLine
 10
-42.84842263514287
 20
-275.1330002549237
 30
0.0
 11
-42.21642812894087
 21
-274.5010057487217
 31
0.0
  0
LINE
  5
2F37
330
2E54
100
AcDbEntity
  8
0
 62
     0
100
AcDbLine
 10
-41.35193535987162
 20
-273.6365129796524
 30
0.0
 11
-41.11105655357031
 21
-273.3956341733511
 31
0.0
  0
LINE
  5
2F38
330
2E54
100
AcDbEntity
  8
0
 62
     0
100
AcDbLine
 10
-41.75074796647627
 20
-274.0353255862571
 30
0.0
 11
-41.65095936023383
 21
-273.9355369800147
 31
0.0
  0
LINE
  5
2F39
330
2E54
100
AcDbEntity
  8
0
 62
     0
100
AcDbLine
 10
-42.99531849396698
 20
-275.1473135922753
 30
0.0
 11
-42.89317455957778
 21
-275.0451696578862
 31
0.0
  0
LINE
  5
2F3A
330
2E54
100
AcDbEntity
  8
0
 62
     0
100
AcDbLine
 10
-38.85558904944939
 20
-271.0075841477578
 30
0.0
 11
-37.96081985999633
 21
-270.1128149583047
 31
0.0
  0
LINE
  5
2F3B
330
2E54
100
AcDbEntity
  8
0
 62
     0
100
AcDbLine
 10
-42.89317455957778
 20
-275.0451696578862
 30
0.0
 11
-42.2611800533758
 21
-274.4131751516842
 31
0.0
  0
LINE
  5
2F3C
330
2E54
100
AcDbEntity
  8
0
 62
     0
100
AcDbLine
 10
-41.34208886032189
 20
-273.4940839586302
 30
0.0
 11
-41.10121005402058
 21
-273.2532051523289
 31
0.0
  0
LINE
  5
2F3D
330
2E54
100
AcDbEntity
  8
0
 62
     0
100
AcDbLine
 10
-41.79549989091119
 20
-273.9474949892195
 30
0.0
 11
-41.69571128466874
 21
-273.8477063829771
 31
0.0
  0
LINE
  5
2F3E
330
2E54
100
AcDbEntity
  8
0
 62
     0
100
AcDbLine
 10
-43.0400704184019
 20
-275.0594829952378
 30
0.0
 11
-42.93792648401271
 21
-274.9573390608487
 31
0.0
  0
LINE
  5
2F3F
330
2E54
100
AcDbEntity
  8
0
 62
     0
100
AcDbLine
 10
-38.98817157092188
 20
-271.0075841477578
 30
0.0
 11
-38.09340238146882
 21
-270.1128149583047
 31
0.0
  0
LINE
  5
2F40
330
2E54
100
AcDbEntity
  8
0
 62
     0
100
AcDbLine
 10
-42.93792648401271
 20
-274.9573390608486
 30
0.0
 11
-42.30593197781072
 21
-274.3253445546466
 31
0.0
  0
LINE
  5
2F41
330
2E54
100
AcDbEntity
  8
0
 62
     0
100
AcDbLine
 10
-41.33224236077215
 20
-273.351654937608
 30
0.0
 11
-41.09136355447085
 21
-273.1107761313067
 31
0.0
  0
LINE
  5
2F42
330
2E54
100
AcDbEntity
  8
0
 62
     0
100
AcDbLine
 10
-41.84025181534611
 20
-273.859664392182
 30
0.0
 11
-41.74046320910367
 21
-273.7598757859395
 31
0.0
  0
LINE
  5
2F43
330
2E54
100
AcDbEntity
  8
0
 62
     0
100
AcDbLine
 10
-43.08482234283682
 20
-274.9716523982002
 30
0.0
 11
-42.98267840844763
 21
-274.8695084638111
 31
0.0
  0
LINE
  5
2F44
330
2E54
100
AcDbEntity
  8
0
 62
     0
100
AcDbLine
 10
-39.12075409239436
 20
-271.0075841477578
 30
0.0
 11
-38.2259849029413
 21
-270.1128149583047
 31
0.0
  0
LINE
  5
2F45
330
2E54
100
AcDbEntity
  8
0
 62
     0
100
AcDbLine
 10
-42.98267840844764
 20
-274.8695084638111
 30
0.0
 11
-42.35068390224564
 21
-274.2375139576091
 31
0.0
  0
LINE
  5
2F46
330
2E54
100
AcDbEntity
  8
0
 62
     0
100
AcDbLine
 10
-41.08151705492112
 20
-272.9683471102845
 30
0.0
 11
-40.96181643366968
 21
-272.848646489033
 31
0.0
  0
LINE
  5
2F47
330
2E54
100
AcDbEntity
  8
0
 62
     0
100
AcDbLine
 10
-41.88500373978103
 20
-273.7718337951445
 30
0.0
 11
-41.78521513353859
 21
-273.672045188902
 31
0.0
  0
LINE
  5
2F48
330
2E54
100
AcDbEntity
  8
0
 62
     0
100
AcDbLine
 10
-41.32239586122242
 20
-273.2092259165858
 30
0.0
 11
-41.08151705492112
 21
-272.9683471102845
 31
0.0
  0
LINE
  5
2F49
330
2E54
100
AcDbEntity
  8
0
 62
     0
100
AcDbLine
 10
-43.12957426727176
 20
-274.8838218011627
 30
0.0
 11
-43.02743033288257
 21
-274.7816778667736
 31
0.0
  0
LINE
  5
2F4A
330
2E54
100
AcDbEntity
  8
0
 62
     0
100
AcDbLine
 10
-39.25333661386681
 20
-271.0075841477578
 30
0.0
 11
-38.35856742441375
 21
-270.1128149583047
 31
0.0
  0
LINE
  5
2F4B
330
2E54
100
AcDbEntity
  8
0
 62
     0
100
AcDbLine
 10
-43.02743033288256
 20
-274.7816778667735
 30
0.0
 11
-42.39543582668058
 21
-274.1496833605715
 31
0.0
  0
LINE
  5
2F4C
330
2E54
100
AcDbEntity
  8
0
 62
     0
100
AcDbLine
 10
-41.07167055537138
 20
-272.8259180892623
 30
0.0
 11
-40.79761027123158
 21
-272.5518578051226
 31
0.0
  0
LINE
  5
2F4D
330
2E54
100
AcDbEntity
  8
0
 62
     0
100
AcDbLine
 10
-41.92975566421597
 20
-273.6840031981069
 30
0.0
 11
-41.82996705797352
 21
-273.5842145918645
 31
0.0
  0
LINE
  5
2F4E
330
2E54
100
AcDbEntity
  8
0
 62
     0
100
AcDbLine
 10
-41.3125493616727
 20
-273.0667968955636
 30
0.0
 11
-41.07167055537138
 21
-272.8259180892623
 31
0.0
  0
LINE
  5
2F4F
330
2E54
100
AcDbEntity
  8
0
 62
     0
100
AcDbLine
 10
-43.17432619170667
 20
-274.7959912041251
 30
0.0
 11
-43.07218225731747
 21
-274.693847269736
 31
0.0
  0
LINE
  5
2F50
330
2E54
100
AcDbEntity
  8
0
 62
     0
100
AcDbLine
 10
-39.3859191353393
 20
-271.0075841477578
 30
0.0
 11
-38.49114994588624
 21
-270.1128149583047
 31
0.0
  0
LINE
  5
2F51
330
2E54
100
AcDbEntity
  8
0
 62
     0
100
AcDbLine
 10
-43.07218225731748
 20
-274.693847269736
 30
0.0
 11
-42.44018775111549
 21
-274.0618527635339
 31
0.0
  0
LINE
  5
2F52
330
2E54
100
AcDbEntity
  8
0
 62
     0
100
AcDbLine
 10
-41.06182405582166
 20
-272.6834890682401
 30
0.0
 11
-40.63340410879347
 21
-272.2550691212119
 31
0.0
  0
LINE
  5
2F53
330
2E54
100
AcDbEntity
  8
0
 62
     0
100
AcDbLine
 10
-41.97450758865088
 20
-273.5961726010693
 30
0.0
 11
-41.87471898240843
 21
-273.4963839948269
 31
0.0
  0
LINE
  5
2F54
330
2E54
100
AcDbEntity
  8
0
 62
     0
100
AcDbLine
 10
-41.30270286212296
 20
-272.9243678745414
 30
0.0
 11
-41.06182405582166
 21
-272.6834890682401
 31
0.0
  0
LINE
  5
2F55
330
2E54
100
AcDbEntity
  8
0
 62
     0
100
AcDbLine
 10
-43.2190781161416
 20
-274.7081606070876
 30
0.0
 11
-43.11693418175241
 21
-274.6060166726984
 31
0.0
  0
LINE
  5
2F56
330
2E54
100
AcDbEntity
  8
0
 62
     0
100
AcDbLine
 10
-39.51850165681178
 20
-271.0075841477578
 30
0.0
 11
-38.62373246735872
 21
-270.1128149583047
 31
0.0
  0
LINE
  5
2F57
330
2E54
100
AcDbEntity
  8
0
 62
     0
100
AcDbLine
 10
-43.11693418175241
 20
-274.6060166726984
 30
0.0
 11
-42.48493967555043
 21
-273.9740221664964
 31
0.0
  0
LINE
  5
2F58
330
2E54
100
AcDbEntity
  8
0
 62
     0
100
AcDbLine
 10
-41.04147028864789
 20
-272.5305527795939
 30
0.0
 11
-40.46919794635537
 21
-271.9582804373014
 31
0.0
  0
LINE
  5
2F59
330
2E54
100
AcDbEntity
  8
0
 62
     0
100
AcDbLine
 10
-42.0192595130858
 20
-273.5083420040318
 30
0.0
 11
-41.91947090684336
 21
-273.4085533977893
 31
0.0
  0
LINE
  5
2F5A
330
2E54
100
AcDbEntity
  8
0
 62
     0
100
AcDbLine
 10
-41.29285636257323
 20
-272.7819388535192
 30
0.0
 11
-41.05197755627193
 21
-272.5410600472179
 31
0.0
  0
LINE
  5
2F5B
330
2E54
100
AcDbEntity
  8
0
 62
     0
100
AcDbLine
 10
-43.26383004057651
 20
-274.62033001005
 30
0.0
 11
-43.16168610618734
 21
-274.5181860756609
 31
0.0
  0
LINE
  5
2F5C
330
2E54
100
AcDbEntity
  8
0
 62
     0
100
AcDbLine
 10
-39.65108417828427
 20
-271.0075841477578
 30
0.0
 11
-38.7563149888312
 21
-270.1128149583047
 31
0.0
  0
LINE
  5
2F5D
330
2E54
100
AcDbEntity
  8
0
 62
     0
100
AcDbLine
 10
-43.16168610618732
 20
-274.5181860756608
 30
0.0
 11
-42.52969159998534
 21
-273.8861915694589
 31
0.0
  0
LINE
  5
2F5E
330
2E54
100
AcDbEntity
  8
0
 62
     0
100
AcDbLine
 10
-40.87726412620977
 20
-272.2337640956832
 30
0.0
 11
-40.30499178391731
 21
-271.6614917533908
 31
0.0
  0
LINE
  5
2F5F
330
2E54
100
AcDbEntity
  8
0
 62
     0
100
AcDbLine
 10
-42.06401143752072
 20
-273.4205114069942
 30
0.0
 11
-41.96422283127828
 21
-273.3207228007517
 31
0.0
  0
LINE
  5
2F60
330
2E54
100
AcDbEntity
  8
0
 62
     0
100
AcDbLine
 10
-41.2830098630235
 20
-272.639509832497
 30
0.0
 11
-41.04213105672219
 21
-272.3986310261957
 31
0.0
  0
LINE
  5
2F61
330
2E54
100
AcDbEntity
  8
0
 62
     0
100
AcDbLine
 10
-43.30858196501145
 20
-274.5324994130124
 30
0.0
 11
-43.20643803062226
 21
-274.4303554786233
 31
0.0
  0
LINE
  5
2F62
330
2E54
100
AcDbEntity
  8
0
 62
     0
100
AcDbLine
 10
-39.78366669975674
 20
-271.0075841477578
 30
0.0
 11
-38.88889751030369
 21
-270.1128149583047
 31
0.0
  0
LINE
  5
2F63
330
2E54
100
AcDbEntity
  8
0
 62
     0
100
AcDbLine
 10
-43.20643803062226
 20
-274.4303554786232
 30
0.0
 11
-42.57444352442026
 21
-273.7983609724213
 31
0.0
  0
LINE
  5
2F64
330
2E54
100
AcDbEntity
  8
0
 62
     0
100
AcDbLine
 10
-40.71305796377171
 20
-271.9369754117727
 30
0.0
 11
-40.14078562147921
 21
-271.3647030694802
 31
0.0
  0
LINE
  5
2F65
330
2E54
100
AcDbEntity
  8
0
 62
     0
100
AcDbLine
 10
-42.10876336195565
 20
-273.3326808099567
 30
0.0
 11
-42.00897475571321
 21
-273.2328922037142
 31
0.0
  0
LINE
  5
2F66
330
2E54
100
AcDbEntity
  8
0
 62
     0
100
AcDbLine
 10
-41.27316336347377
 20
-272.4970808114748
 30
0.0
 11
-41.03228455717245
 21
-272.2562020051735
 31
0.0
  0
LINE
  5
2F67
330
2E54
100
AcDbEntity
  8
0
 62
     0
100
AcDbLine
 10
-43.35333388944637
 20
-274.4446688159749
 30
0.0
 11
-43.25118995505717
 21
-274.3425248815857
 31
0.0
  0
LINE
  5
2F68
330
2E54
100
AcDbEntity
  8
0
 62
     0
100
AcDbLine
 10
-39.9162492212292
 20
-271.0075841477578
 30
0.0
 11
-39.02148003177617
 21
-270.1128149583047
 31
0.0
  0
LINE
  5
2F69
330
2E54
100
AcDbEntity
  8
0
 62
     0
100
AcDbLine
 10
-43.25118995505718
 20
-274.3425248815857
 30
0.0
 11
-42.61919544885519
 21
-273.7105303753837
 31
0.0
  0
LINE
  5
2F6A
330
2E54
100
AcDbEntity
  8
0
 62
     0
100
AcDbLine
 10
-40.5488518013336
 20
-271.6401867278622
 30
0.0
 11
-39.97657945904111
 21
-271.0679143855696
 31
0.0
  0
LINE
  5
2F6B
330
2E54
100
AcDbEntity
  8
0
 62
     0
100
AcDbLine
 10
-42.15351528639057
 20
-273.2448502129191
 30
0.0
 11
-42.05372668014815
 21
-273.1450616066767
 31
0.0
  0
LINE
  5
2F6C
330
2E54
100
AcDbEntity
  8
0
 62
     0
100
AcDbLine
 10
-41.26331686392403
 20
-272.3546517904526
 30
0.0
 11
-41.02243805762273
 21
-272.1137729841512
 31
0.0
  0
LINE
  5
2F6D
330
2E54
100
AcDbEntity
  8
0
 62
     0
100
AcDbLine
 10
-43.39808581388129
 20
-274.3568382189374
 30
0.0
 11
-43.29594187949211
 21
-274.2546942845482
 31
0.0
  0
LINE
  5
2F6E
330
2E54
100
AcDbEntity
  8
0
 62
     0
100
AcDbLine
 10
-40.04883174270166
 20
-271.0075841477577
 30
0.0
 11
-39.15406255324862
 21
-270.1128149583047
 31
0.0
  0
LINE
  5
2F6F
330
2E54
100
AcDbEntity
  8
0
 62
     0
100
AcDbLine
 10
-43.29594187949211
 20
-274.2546942845482
 30
0.0
 11
-42.66394737329011
 21
-273.6226997783461
 31
0.0
  0
LINE
  5
2F70
330
2E54
100
AcDbEntity
  8
0
 62
     0
100
AcDbLine
 10
-40.38464563889553
 20
-271.3433980439516
 30
0.0
 11
-40.04883174270168
 21
-271.0075841477578
 31
0.0
  0
LINE
  5
2F71
330
2E54
100
AcDbEntity
  8
0
 62
     0
100
AcDbLine
 10
-42.19826721082549
 20
-273.1570196158815
 30
0.0
 11
-42.09847860458307
 21
-273.0572310096391
 31
0.0
  0
LINE
  5
2F72
330
2E54
100
AcDbEntity
  8
0
 62
     0
100
AcDbLine
 10
-41.25347036437431
 20
-272.2122227694304
 30
0.0
 11
-41.01259155807299
 21
-271.971343963129
 31
0.0
  0
LINE
  5
2F73
330
2E54
100
AcDbEntity
  8
0
 62
     0
100
AcDbLine
 10
-43.44283773831622
 20
-274.2690076218998
 30
0.0
 11
-43.34069380392703
 21
-274.1668636875106
 31
0.0
  0
LINE
  5
2F74
330
2E54
100
AcDbEntity
  8
0
 62
     0
100
AcDbLine
 10
-40.18141426417416
 20
-271.0075841477577
 30
0.0
 11
-39.28664507472111
 21
-270.1128149583047
 31
0.0
  0
LINE
  5
2F75
330
2E54
100
AcDbEntity
  8
0
 62
     0
100
AcDbLine
 10
-43.34069380392703
 20
-274.1668636875106
 30
0.0
 11
-42.70869929772504
 21
-273.5348691813086
 31
0.0
  0
LINE
  5
2F76
330
2E54
100
AcDbEntity
  8
0
 62
     0
100
AcDbLine
 10
-40.22043947645742
 20
-271.046609360041
 30
0.0
 11
-40.18141426417416
 21
-271.0075841477578
 31
0.0
  0
LINE
  5
2F77
330
2E54
100
AcDbEntity
  8
0
 62
     0
100
AcDbLine
 10
-42.24301913526041
 20
-273.069189018844
 30
0.0
 11
-42.14323052901799
 21
-272.9694004126015
 31
0.0
  0
LINE
  5
2F78
330
2E54
100
AcDbEntity
  8
0
 62
     0
100
AcDbLine
 10
-41.24362386482458
 20
-272.0697937484081
 30
0.0
 11
-41.00274505852326
 21
-271.8289149421068
 31
0.0
  0
LINE
  5
2F79
330
2E54
100
AcDbEntity
  8
0
 62
     0
100
AcDbLine
 10
-43.48758966275113
 20
-274.1811770248623
 30
0.0
 11
-43.38544572836195
 21
-274.0790330904731
 31
0.0
  0
LINE
  5
2F7A
330
2E54
100
AcDbEntity
  8
0
 62
     0
100
AcDbLine
 10
-40.31399678564665
 20
-271.0075841477578
 30
0.0
 11
-39.41922759619359
 21
-270.1128149583047
 31
0.0
  0
LINE
  5
2F7B
330
2E54
100
AcDbEntity
  8
0
 62
     0
100
AcDbLine
 10
-43.38544572836195
 20
-274.0790330904731
 30
0.0
 11
-42.75345122215997
 21
-273.447038584271
 31
0.0
  0
LINE
  5
2F7C
330
2E54
100
AcDbEntity
  8
0
 62
     0
100
AcDbLine
 10
-41.23377736527484
 20
-271.9273647273859
 30
0.0
 11
-40.99289855897352
 21
-271.6864859210846
 31
0.0
  0
LINE
  5
2F7D
330
2E54
100
AcDbEntity
  8
0
 62
     0
100
AcDbLine
 10
-42.28777105969533
 20
-272.9813584218064
 30
0.0
 11
-42.18798245345292
 21
-272.881569815564
 31
0.0
  0
LINE
  5
2F7E
330
2E54
100
AcDbEntity
  8
0
 62
     0
100
AcDbLine
 10
-43.53234158718605
 20
-274.0933464278247
 30
0.0
 11
-43.43019765279687
 21
-273.9912024934355
 31
0.0
  0
LINE
  5
2F7F
330
2E54
100
AcDbEntity
  8
0
 62
     0
100
AcDbLine
 10
-40.44657930711912
 20
-271.0075841477578
 30
0.0
 11
-39.55181011766607
 21
-270.1128149583047
 31
0.0
  0
LINE
  5
2F80
330
2E54
100
AcDbEntity
  8
0
 62
     0
100
AcDbLine
 10
-43.43019765279688
 20
-273.9912024934355
 30
0.0
 11
-42.79820314659487
 21
-273.3592079872335
 31
0.0
  0
LINE
  5
2F81
330
2E54
100
AcDbEntity
  8
0
 62
     0
100
AcDbLine
 10
-41.22393086572511
 20
-271.7849357063637
 30
0.0
 11
-40.9830520594238
 21
-271.5440569000624
 31
0.0
  0
LINE
  5
2F82
330
2E54
100
AcDbEntity
  8
0
 62
     0
100
AcDbLine
 10
-42.33252298413026
 20
-272.8935278247689
 30
0.0
 11
-42.23273437788784
 21
-272.7937392185264
 31
0.0
  0
LINE
  5
2F83
330
2E54
100
AcDbEntity
  8
0
 62
     0
100
AcDbLine
 10
-43.57709351162099
 20
-274.0055158307872
 30
0.0
 11
-43.4749495772318
 21
-273.903371896398
 31
0.0
  0
LINE
  5
2F84
330
2E54
100
AcDbEntity
  8
0
 62
     0
100
AcDbLine
 10
-40.57916182859158
 20
-271.0075841477578
 30
0.0
 11
-39.68439263913856
 21
-270.1128149583047
 31
0.0
  0
LINE
  5
2F85
330
2E54
100
AcDbEntity
  8
0
 62
     0
100
AcDbLine
 10
-43.4749495772318
 20
-273.903371896398
 30
0.0
 11
-42.84295507102982
 21
-273.2713773901959
 31
0.0
  0
LINE
  5
2F86
330
2E54
100
AcDbEntity
  8
0
 62
     0
100
AcDbLine
 10
-41.21408436617539
 20
-271.6425066853415
 30
0.0
 11
-40.97320555987406
 21
-271.4016278790402
 31
0.0
  0
LINE
  5
2F87
330
2E54
100
AcDbEntity
  8
0
 62
     0
100
AcDbLine
 10
-42.37727490856518
 20
-272.8056972277314
 30
0.0
 11
-42.27748630232276
 21
-272.705908621489
 31
0.0
  0
LINE
  5
2F88
330
2E54
100
AcDbEntity
  8
0
 62
     0
100
AcDbLine
 10
-43.6218454360559
 20
-273.9176852337496
 30
0.0
 11
-43.51970150166672
 21
-273.8155412993604
 31
0.0
  0
LINE
  5
2F89
330
2E54
100
AcDbEntity
  8
0
 62
     0
100
AcDbLine
 10
-40.71174435006406
 20
-271.0075841477578
 30
0.0
 11
-39.81697516061101
 21
-270.1128149583047
 31
0.0
  0
LINE
  5
2F8A
330
2E54
100
AcDbEntity
  8
0
 62
     0
100
AcDbLine
 10
-43.51970150166672
 20
-273.8155412993604
 30
0.0
 11
-42.88770699546473
 21
-273.1835467931584
 31
0.0
  0
LINE
  5
2F8B
330
2E54
100
AcDbEntity
  8
0
 62
     0
100
AcDbLine
 10
-41.20423786662565
 20
-271.5000776643193
 30
0.0
 11
-40.96335906032432
 21
-271.259198858018
 31
0.0
  0
LINE
  5
2F8C
330
2E54
100
AcDbEntity
  8
0
 62
     0
100
AcDbLine
 10
-42.4220268330001
 20
-272.7178666306938
 30
0.0
 11
-42.32223822675769
 21
-272.6180780244514
 31
0.0
  0
LINE
  5
2F8D
330
2E54
100
AcDbEntity
  8
0
 62
     0
100
AcDbLine
 10
-43.66659736049083
 20
-273.829854636712
 30
0.0
 11
-43.56445342610165
 21
-273.7277107023229
 31
0.0
  0
LINE
  5
2F8E
330
2E54
100
AcDbEntity
  8
0
 62
     0
100
AcDbLine
 10
-40.84432687153655
 20
-271.0075841477578
 30
0.0
 11
-39.94955768208349
 21
-270.1128149583047
 31
0.0
  0
LINE
  5
2F8F
330
2E54
100
AcDbEntity
  8
0
 62
     0
100
AcDbLine
 10
-43.56445342610164
 20
-273.7277107023228
 30
0.0
 11
-42.93245891989965
 21
-273.0957161961208
 31
0.0
  0
LINE
  5
2F90
330
2E54
100
AcDbEntity
  8
0
 62
     0
100
AcDbLine
 10
-41.19439136707593
 20
-271.3576486432971
 30
0.0
 11
-40.95351256077459
 21
-271.1167698369958
 31
0.0
  0
LINE
  5
2F91
330
2E54
100
AcDbEntity
  8
0
 62
     0
100
AcDbLine
 10
-42.46677875743502
 20
-272.6300360336562
 30
0.0
 11
-42.36699015119261
 21
-272.5302474274138
 31
0.0
  0
LINE
  5
2F92
330
2E54
100
AcDbEntity
  8
0
 62
     0
100
AcDbLine
 10
-43.71134928492576
 20
-273.7420240396744
 30
0.0
 11
-43.60920535053657
 21
-273.6398801052853
 31
0.0
  0
LINE
  5
2F93
330
2E54
100
AcDbEntity
  8
0
 62
     0
100
AcDbLine
 10
-40.97690939300903
 20
-271.0075841477578
 30
0.0
 11
-40.08214020355597
 21
-270.1128149583047
 31
0.0
  0
LINE
  5
2F94
330
2E54
100
AcDbEntity
  8
0
 62
     0
100
AcDbLine
 10
-43.60920535053657
 20
-273.6398801052853
 30
0.0
 11
-42.97721084433458
 21
-273.0078855990833
 31
0.0
  0
LINE
  5
2F95
330
2E54
100
AcDbEntity
  8
0
 62
     0
100
AcDbLine
 10
-41.1845448675262
 20
-271.2152196222749
 30
0.0
 11
-40.97690939300904
 21
-271.0075841477578
 31
0.0
  0
LINE
  5
2F96
330
2E54
100
AcDbEntity
  8
0
 62
     0
100
AcDbLine
 10
-42.51153068186996
 20
-272.5422054366187
 30
0.0
 11
-42.41174207562753
 21
-272.4424168303762
 31
0.0
  0
LINE
  5
2F97
330
2E54
100
AcDbEntity
  8
0
 62
     0
100
AcDbLine
 10
-43.75610120936068
 20
-273.6541934426369
 30
0.0
 11
-43.65395727497149
 21
-273.5520495082478
 31
0.0
  0
LINE
  5
2F98
330
2E54
100
AcDbEntity
  8
0
 62
     0
100
AcDbLine
 10
-41.10949191448152
 20
-271.0075841477578
 30
0.0
 11
-40.21472272502846
 21
-270.1128149583047
 31
0.0
  0
LINE
  5
2F99
330
2E54
100
AcDbEntity
  8
0
 62
     0
100
AcDbLine
 10
-43.65395727497149
 20
-273.5520495082478
 30
0.0
 11
-43.02196276876951
 21
-272.9200550020458
 31
0.0
  0
LINE
  5
2F9A
330
2E54
100
AcDbEntity
  8
0
 62
     0
100
AcDbLine
 10
-41.17469836797646
 20
-271.0727906012527
 30
0.0
 11
-41.10949191448153
 21
-271.0075841477578
 31
0.0
  0
LINE
  5
2F9B
330
2E54
100
AcDbEntity
  8
0
 62
     0
100
AcDbLine
 10
-42.55628260630487
 20
-272.4543748395811
 30
0.0
 11
-42.45649400006246
 21
-272.3545862333387
 31
0.0
  0
LINE
  5
2F9C
330
2E54
100
AcDbEntity
  8
0
 62
     0
100
AcDbLine
 10
-43.8008531337956
 20
-273.5663628455994
 30
0.0
 11
-43.69870919940642
 21
-273.4642189112102
 31
0.0
  0
LINE
  5
2F9D
330
2E54
100
AcDbEntity
  8
0
 62
     0
100
AcDbLine
 10
-41.242074435954
 20
-271.0075841477578
 30
0.0
 11
-40.34730524650094
 21
-270.1128149583047
 31
0.0
  0
LINE
  5
2F9E
330
2E54
100
AcDbEntity
  8
0
 62
     0
100
AcDbLine
 10
-43.69870919940643
 20
-273.4642189112102
 30
0.0
 11
-43.06671469320444
 21
-272.8322244050082
 31
0.0
  0
LINE
  5
2F9F
330
2E54
100
AcDbEntity
  8
0
 62
     0
100
AcDbLine
 10
-42.6010345307398
 20
-272.3665442425436
 30
0.0
 11
-42.50124592449738
 21
-272.2667556363012
 31
0.0
  0
LINE
  5
2FA0
330
2E54
100
AcDbEntity
  8
0
 62
     0
100
AcDbLine
 10
-43.84560505823052
 20
-273.4785322485618
 30
0.0
 11
-43.74346112384134
 21
-273.3763883141727
 31
0.0
  0
LINE
  5
2FA1
330
2E54
100
AcDbEntity
  8
0
 62
     0
100
AcDbLine
 10
-41.37465695742645
 20
-271.0075841477578
 30
0.0
 11
-40.47988776797339
 21
-270.1128149583047
 31
0.0
  0
LINE
  5
2FA2
330
2E54
100
AcDbEntity
  8
0
 62
     0
100
AcDbLine
 10
-43.74346112384134
 20
-273.3763883141726
 30
0.0
 11
-43.11146661763936
 21
-272.7443938079706
 31
0.0
  0
LINE
  5
2FA3
330
2E54
100
AcDbEntity
  8
0
 62
     0
100
AcDbLine
 10
-42.64578645517471
 20
-272.278713645506
 30
0.0
 11
-42.5459978489323
 21
-272.1789250392636
 31
0.0
  0
LINE
  5
2FA4
330
2E54
100
AcDbEntity
  8
0
 62
     0
100
AcDbLine
 10
-43.89035698266545
 20
-273.3907016515242
 30
0.0
 11
-43.78821304827627
 21
-273.2885577171351
 31
0.0
  0
LINE
  5
2FA5
330
2E54
100
AcDbEntity
  8
0
 62
     0
100
AcDbLine
 10
-41.50723947889893
 20
-271.0075841477578
 30
0.0
 11
-40.61247028944587
 21
-270.1128149583047
 31
0.0
  0
LINE
  5
2FA6
330
2E54
100
AcDbEntity
  8
0
 62
     0
100
AcDbLine
 10
-43.78821304827627
 20
-273.2885577171351
 30
0.0
 11
-43.15621854207427
 21
-272.6565632109331
 31
0.0
  0
LINE
  5
2FA7
330
2E54
100
AcDbEntity
  8
0
 62
     0
100
AcDbLine
 10
-42.69053837960965
 20
-272.1908830484685
 30
0.0
 11
-42.59074977336722
 21
-272.0910944422261
 31
0.0
  0
LINE
  5
2FA8
330
2E54
100
AcDbEntity
  8
0
 62
     0
100
AcDbLine
 10
-43.93510890710039
 20
-273.3028710544867
 30
0.0
 11
-43.83296497271119
 21
-273.2007271200976
 31
0.0
  0
LINE
  5
2FA9
330
2E54
100
AcDbEntity
  8
0
 62
     0
100
AcDbLine
 10
-41.63982200037142
 20
-271.0075841477578
 30
0.0
 11
-40.74505281091837
 21
-270.1128149583047
 31
0.0
  0
LINE
  5
2FAA
330
2E54
100
AcDbEntity
  8
0
 62
     0
100
AcDbLine
 10
-43.83296497271119
 20
-273.2007271200975
 30
0.0
 11
-43.2009704665092
 21
-272.5687326138955
 31
0.0
  0
LINE
  5
2FAB
330
2E54
100
AcDbEntity
  8
0
 62
     0
100
AcDbLine
 10
-42.73529030404456
 20
-272.1030524514309
 30
0.0
 11
-42.63550169780215
 21
-272.0032638451885
 31
0.0
  0
LINE
  5
2FAC
330
2E54
100
AcDbEntity
  8
0
 62
     0
100
AcDbLine
 10
-43.97986083153529
 20
-273.2150404574491
 30
0.0
 11
-43.87771689714611
 21
-273.11289652306
 31
0.0
  0
LINE
  5
2FAD
330
2E54
100
AcDbEntity
  8
0
 62
     0
100
AcDbLine
 10
-41.7724045218439
 20
-271.0075841477578
 30
0.0
 11
-40.87763533239084
 21
-270.1128149583047
 31
0.0
  0
LINE
  5
2FAE
330
2E54
100
AcDbEntity
  8
0
 62
     0
100
AcDbLine
 10
-43.87771689714612
 20
-273.11289652306
 30
0.0
 11
-43.24572239094412
 21
-272.480902016858
 31
0.0
  0
LINE
  5
2FAF
330
2E54
100
AcDbEntity
  8
0
 62
     0
100
AcDbLine
 10
-42.78004222847949
 20
-272.0152218543934
 30
0.0
 11
-42.68025362223707
 21
-271.9154332481509
 31
0.0
  0
LINE
  5
2FB0
330
2E54
100
AcDbEntity
  8
0
 62
     0
100
AcDbLine
 10
-44.02461275597022
 20
-273.1272098604116
 30
0.0
 11
-43.92246882158103
 21
-273.0250659260224
 31
0.0
  0
LINE
  5
2FB1
330
2E54
100
AcDbEntity
  8
0
 62
     0
100
AcDbLine
 10
-41.90498704331639
 20
-271.0075841477578
 30
0.0
 11
-41.01021785386333
 21
-270.1128149583047
 31
0.0
  0
LINE
  5
2FB2
330
2E54
100
AcDbEntity
  8
0
 62
     0
100
AcDbLine
 10
-43.92246882158103
 20
-273.0250659260224
 30
0.0
 11
-43.29047431537905
 21
-272.3930714198204
 31
0.0
  0
LINE
  5
2FB3
330
2E54
100
AcDbEntity
  8
0
 62
     0
100
AcDbLine
 10
-42.8247941529144
 20
-271.9273912573558
 30
0.0
 11
-42.72500554667199
 21
-271.8276026511134
 31
0.0
  0
LINE
  5
2FB4
330
2E54
100
AcDbEntity
  8
0
 62
     0
100
AcDbLine
 10
-44.06936468040514
 20
-273.0393792633741
 30
0.0
 11
-43.96722074601596
 21
-272.9372353289849
 31
0.0
  0
LINE
  5
2FB5
330
2E54
100
AcDbEntity
  8
0
 62
     0
100
AcDbLine
 10
-42.03756956478883
 20
-271.0075841477578
 30
0.0
 11
-41.14280037533577
 21
-270.1128149583047
 31
0.0
  0
LINE
  5
2FB6
330
2E54
100
AcDbEntity
  8
0
 62
     0
100
AcDbLine
 10
-43.96722074601596
 20
-272.9372353289849
 30
0.0
 11
-43.33522623981397
 21
-272.3052408227829
 31
0.0
  0
LINE
  5
2FB7
330
2E54
100
AcDbEntity
  8
0
 62
     0
100
AcDbLine
 10
-42.86954607734934
 20
-271.8395606603182
 30
0.0
 11
-42.76975747110692
 21
-271.7397720540759
 31
0.0
  0
LINE
  5
2FB8
330
2E54
100
AcDbEntity
  8
0
 62
     0
100
AcDbLine
 10
-44.11411660484007
 20
-272.9515486663365
 30
0.0
 11
-44.01197267045088
 21
-272.8494047319474
 31
0.0
  0
LINE
  5
2FB9
330
2E54
100
AcDbEntity
  8
0
 62
     0
100
AcDbLine
 10
-42.17015208626132
 20
-271.0075841477578
 30
0.0
 11
-41.27538289680827
 21
-270.1128149583047
 31
0.0
  0
LINE
  5
2FBA
330
2E54
100
AcDbEntity
  8
0
 62
     0
100
AcDbLine
 10
-44.01197267045089
 20
-272.8494047319474
 30
0.0
 11
-43.3799781642489
 21
-272.2174102257453
 31
0.0
  0
LINE
  5
2FBB
330
2E54
100
AcDbEntity
  8
0
 62
     0
100
AcDbLine
 10
-42.91429800178426
 20
-271.7517300632807
 30
0.0
 11
-42.81450939554184
 21
-271.6519414570383
 31
0.0
  0
LINE
  5
2FBC
330
2E54
100
AcDbEntity
  8
0
 62
     0
100
AcDbLine
 10
-43.03552049306387
 20
-271.8729525545603
 30
0.0
 11
-42.91429800178426
 21
-271.7517300632807
 31
0.0
  0
LINE
  5
2FBD
330
2E54
100
AcDbEntity
  8
0
 62
     0
100
AcDbLine
 10
-44.15886852927499
 20
-272.8637180692989
 30
0.0
 11
-44.0567245948858
 21
-272.7615741349098
 31
0.0
  0
LINE
  5
2FBE
330
2E54
100
AcDbEntity
  8
0
 62
     0
100
AcDbLine
 10
-42.30273460773381
 20
-271.0075841477578
 30
0.0
 11
-41.40796541828075
 21
-270.1128149583047
 31
0.0
  0
LINE
  5
2FBF
330
2E54
100
AcDbEntity
  8
0
 62
     0
100
AcDbLine
 10
-44.05672459488581
 20
-272.7615741349098
 30
0.0
 11
-43.42473008868381
 21
-272.1295796287078
 31
0.0
  0
LINE
  5
2FC0
330
2E54
100
AcDbEntity
  8
0
 62
     0
100
AcDbLine
 10
-42.95904992621917
 20
-271.6638994662432
 30
0.0
 11
-42.85926131997678
 21
-271.5641108600007
 31
0.0
  0
LINE
  5
2FC1
330
2E54
100
AcDbEntity
  8
0
 62
     0
100
AcDbLine
 10
-43.30583527562661
 20
-272.0106848156506
 30
0.0
 11
-43.03567928394395
 21
-271.7405288239679
 31
0.0
  0
LINE
  5
2FC2
330
2E54
100
AcDbEntity
  8
0
 62
     0
100
AcDbLine
 10
-44.20362045370992
 20
-272.7758874722614
 30
0.0
 11
-44.10147651932073
 21
-272.6737435378722
 31
0.0
  0
LINE
  5
2FC3
330
2E54
100
AcDbEntity
  8
0
 62
     0
100
AcDbLine
 10
-42.43531712920629
 20
-271.0075841477578
 30
0.0
 11
-41.54054793975324
 21
-270.1128149583047
 31
0.0
  0
LINE
  5
2FC4
330
2E54
100
AcDbEntity
  8
0
 62
     0
100
AcDbLine
 10
-44.10147651932073
 20
-272.6737435378722
 30
0.0
 11
-43.57615005818931
 21
-272.1484170767408
 31
0.0
  0
LINE
  5
2FC5
330
2E54
100
AcDbEntity
  8
0
 62
     0
100
AcDbLine
 10
-43.00380185065409
 20
-271.5760688692056
 30
0.0
 11
-42.9040132444117
 21
-271.4762802629631
 31
0.0
  0
LINE
  5
2FC6
330
2E54
100
AcDbEntity
  8
0
 62
     0
100
AcDbLine
 10
-43.57615005818945
 20
-272.1484170767408
 30
0.0
 11
-43.29449434520518
 21
-271.8667613637567
 31
0.0
  0
LINE
  5
2FC7
330
2E54
100
AcDbEntity
  8
0
 62
     0
100
AcDbLine
 10
-44.24837237814484
 20
-272.6880568752238
 30
0.0
 11
-44.14622844375565
 21
-272.5859129408347
 31
0.0
  0
LINE
  5
2FC8
330
2E54
100
AcDbEntity
  8
0
 62
     0
100
AcDbLine
 10
-42.56789965067877
 20
-271.0075841477578
 30
0.0
 11
-41.67313046122571
 21
-270.1128149583047
 31
0.0
  0
LINE
  5
2FC9
330
2E54
100
AcDbEntity
  8
0
 62
     0
100
AcDbLine
 10
-44.14622844375567
 20
-272.5859129408347
 30
0.0
 11
-43.81389900091518
 21
-272.2535834979942
 31
0.0
  0
LINE
  5
2FCA
330
2E54
100
AcDbEntity
  8
0
 62
     0
100
AcDbLine
 10
-43.04855377508903
 20
-271.488238272168
 30
0.0
 11
-42.94876516884662
 21
-271.3884496659257
 31
0.0
  0
LINE
  5
2FCB
330
2E54
100
AcDbEntity
  8
0
 62
     0
100
AcDbLine
 10
-43.81389900091516
 20
-272.2535834979942
 30
0.0
 11
-43.5533094064665
 21
-271.9929939035455
 31
0.0
  0
LINE
  5
2FCC
330
2E54
100
AcDbEntity
  8
0
 62
     0
100
AcDbLine
 10
-43.55330940646641
 20
-271.9929939035454
 30
0.0
 11
-43.51423393755367
 21
-271.9539184346327
 31
0.0
  0
LINE
  5
2FCD
330
2E54
100
AcDbEntity
  8
0
 62
     0
100
AcDbLine
 10
-44.29312430257975
 20
-272.6002262781863
 30
0.0
 11
-44.19098036819057
 21
-272.4980823437971
 31
0.0
  0
LINE
  5
2FCE
330
2E54
100
AcDbEntity
  8
0
 62
     0
100
AcDbLine
 10
-42.70048217215122
 20
-271.0075841477578
 30
0.0
 11
-41.80571298269817
 21
-270.1128149583047
 31
0.0
  0
LINE
  5
2FCF
330
2E54
100
AcDbEntity
  8
0
 62
     0
100
AcDbLine
 10
-44.19098036819058
 20
-272.4980823437971
 30
0.0
 11
-43.85736435006013
 21
-272.1644663256667
 31
0.0
  0
LINE
  5
2FD0
330
2E54
100
AcDbEntity
  8
0
 62
     0
100
AcDbLine
 10
-43.09330569952394
 20
-271.4004076751304
 30
0.0
 11
-42.99351709328155
 21
-271.3006190688881
 31
0.0
  0
LINE
  5
2FD1
330
2E54
100
AcDbEntity
  8
0
 62
     0
100
AcDbLine
 10
-43.85736435006017
 20
-272.1644663256666
 30
0.0
 11
-43.81212446772781
 21
-272.1192264433343
 31
0.0
  0
LINE
  5
2FD2
330
2E54
100
AcDbEntity
  8
0
 62
     0
100
AcDbLine
 10
-43.81212446772774
 20
-272.1192264433343
 30
0.0
 11
-43.5589858619886
 21
-271.8660878375951
 31
0.0
  0
LINE
  5
2FD3
330
2E54
100
AcDbEntity
  8
0
 62
     0
100
AcDbLine
 10
-44.33787622701468
 20
-272.5123956811487
 30
0.0
 11
-44.23573229262551
 21
-272.4102517467596
 31
0.0
  0
LINE
  5
2FD4
330
2E54
100
AcDbEntity
  8
0
 62
     0
100
AcDbLine
 10
-42.83306469362371
 20
-271.0075841477578
 30
0.0
 11
-41.93829550417065
 21
-270.1128149583047
 31
0.0
  0
LINE
  5
2FD5
330
2E54
100
AcDbEntity
  8
0
 62
     0
100
AcDbLine
 10
-44.23573229262551
 20
-272.4102517467596
 30
0.0
 11
-43.60373778642352
 21
-271.7782572405575
 31
0.0
  0
LINE
  5
2FD6
330
2E54
100
AcDbEntity
  8
0
 62
     0
100
AcDbLine
 10
-43.13805762395886
 20
-271.3125770780929
 30
0.0
 11
-43.03826901771647
 21
-271.2127884718505
 31
0.0
  0
LINE
  5
2FD7
330
2E54
100
AcDbEntity
  8
0
 62
     0
100
AcDbLine
 10
-44.38262815144962
 20
-272.4245650841112
 30
0.0
 11
-44.28048421706043
 21
-272.3224211497221
 31
0.0
  0
LINE
  5
2FD8
330
2E54
100
AcDbEntity
  8
0
 62
     0
100
AcDbLine
 10
-42.9656472150962
 20
-271.0075841477578
 30
0.0
 11
-42.07087802564314
 21
-270.1128149583047
 31
0.0
  0
LINE
  5
2FD9
330
2E54
100
AcDbEntity
  8
0
 62
     0
100
AcDbLine
 10
-44.28048421706043
 20
-272.322421149722
 30
0.0
 11
-43.64848971085844
 21
-271.69042664352
 31
0.0
  0
LINE
  5
2FDA
330
2E54
100
AcDbEntity
  8
0
 62
     0
100
AcDbLine
 10
-43.18280954839378
 20
-271.2247464810554
 30
0.0
 11
-43.08302094215139
 21
-271.1249578748129
 31
0.0
  0
LINE
  5
2FDB
330
2E54
100
AcDbEntity
  8
0
 62
     0
100
AcDbLine
 10
-44.42738007588452
 20
-272.3367344870736
 30
0.0
 11
-44.32523614149536
 21
-272.2345905526844
 31
0.0
  0
LINE
  5
2FDC
330
2E54
100
AcDbEntity
  8
0
 62
     0
100
AcDbLine
 10
-43.09822973656867
 20
-271.0075841477578
 30
0.0
 11
-42.20346054711562
 21
-270.1128149583047
 31
0.0
  0
LINE
  5
2FDD
330
2E54
100
AcDbEntity
  8
0
 62
     0
100
AcDbLine
 10
-44.32523614149537
 20
-272.2345905526844
 30
0.0
 11
-43.69324163529338
 21
-271.6025960464825
 31
0.0
  0
LINE
  5
2FDE
330
2E54
100
AcDbEntity
  8
0
 62
     0
100
AcDbLine
 10
-43.22756147282872
 20
-271.1369158840178
 30
0.0
 11
-43.12777286658632
 21
-271.0371272777754
 31
0.0
  0
LINE
  5
2FDF
330
2E54
100
AcDbEntity
  8
0
 62
     0
100
AcDbLine
 10
-44.47213200031946
 20
-272.2489038900361
 30
0.0
 11
-44.36998806593027
 21
-272.1467599556469
 31
0.0
  0
LINE
  5
2FE0
330
2E54
100
AcDbEntity
  8
0
 62
     0
100
AcDbLine
 10
-43.23081225804116
 20
-271.0075841477578
 30
0.0
 11
-42.3360430685881
 21
-270.1128149583047
 31
0.0
  0
LINE
  5
2FE1
330
2E54
100
AcDbEntity
  8
0
 62
     0
100
AcDbLine
 10
-44.36998806593028
 20
-272.1467599556469
 30
0.0
 11
-43.7379935597283
 21
-271.5147654494449
 31
0.0
  0
LINE
  5
2FE2
330
2E54
100
AcDbEntity
  8
0
 62
     0
100
AcDbLine
 10
-43.27231339726363
 20
-271.0490852869802
 30
0.0
 11
-43.23081225804115
 21
-271.0075841477578
 31
0.0
  0
LINE
  5
2FE3
330
2E54
100
AcDbEntity
  8
0
 62
     0
100
AcDbLine
 10
-44.51688392475437
 20
-272.1610732929985
 30
0.0
 11
-44.41473999036521
 21
-272.0589293586094
 31
0.0
  0
LINE
  5
2FE4
330
2E54
100
AcDbEntity
  8
0
 62
     0
100
AcDbLine
 10
-43.36339477951361
 20
-271.0075841477578
 30
0.0
 11
-42.46862559006059
 21
-270.1128149583047
 31
0.0
  0
LINE
  5
2FE5
330
2E54
100
AcDbEntity
  8
0
 62
     0
100
AcDbLine
 10
-44.4147399903652
 20
-272.0589293586093
 30
0.0
 11
-43.78274548416323
 21
-271.4269348524073
 31
0.0
  0
LINE
  5
2FE6
330
2E54
100
AcDbEntity
  8
0
 62
     0
100
AcDbLine
 10
-44.5616358491893
 20
-272.0732426959609
 30
0.0
 11
-44.45949191480012
 21
-271.9710987615718
 31
0.0
  0
LINE
  5
2FE7
330
2E54
100
AcDbEntity
  8
0
 62
     0
100
AcDbLine
 10
-43.4959773009861
 20
-271.0075841477578
 30
0.0
 11
-42.60120811153304
 21
-270.1128149583047
 31
0.0
  0
LINE
  5
2FE8
330
2E54
100
AcDbEntity
  8
0
 62
     0
100
AcDbLine
 10
-44.45949191480013
 20
-271.9710987615718
 30
0.0
 11
-43.82749740859814
 21
-271.3391042553698
 31
0.0
  0
LINE
  5
2FE9
330
2E54
100
AcDbEntity
  8
0
 62
     0
100
AcDbLine
 10
-44.60638777362423
 20
-271.9854120989233
 30
0.0
 11
-44.50424383923505
 21
-271.8832681645342
 31
0.0
  0
LINE
  5
2FEA
330
2E54
100
AcDbEntity
  8
0
 62
     0
100
AcDbLine
 10
-43.62855982245858
 20
-271.0075841477578
 30
0.0
 11
-42.73379063300552
 21
-270.1128149583047
 31
0.0
  0
LINE
  5
2FEB
330
2E54
100
AcDbEntity
  8
0
 62
     0
100
AcDbLine
 10
-44.50424383923506
 20
-271.8832681645342
 30
0.0
 11
-43.87224933303307
 21
-271.2512736583323
 31
0.0
  0
LINE
  5
2FEC
330
2E54
100
AcDbEntity
  8
0
 62
     0
100
AcDbLine
 10
-44.65113969805915
 20
-271.8975815018858
 30
0.0
 11
-44.54899576366996
 21
-271.7954375674967
 31
0.0
  0
LINE
  5
2FED
330
2E54
100
AcDbEntity
  8
0
 62
     0
100
AcDbLine
 10
-43.76114234393106
 20
-271.0075841477578
 30
0.0
 11
-42.86637315447801
 21
-270.1128149583047
 31
0.0
  0
LINE
  5
2FEE
330
2E54
100
AcDbEntity
  8
0
 62
     0
100
AcDbLine
 10
-44.54899576366997
 20
-271.7954375674967
 30
0.0
 11
-43.91700125746799
 21
-271.1634430612947
 31
0.0
  0
LINE
  5
2FEF
330
2E54
100
AcDbEntity
  8
0
 62
     0
100
AcDbLine
 10
-44.69589162249408
 20
-271.8097509048483
 30
0.0
 11
-44.5937476881049
 21
-271.7076069704591
 31
0.0
  0
LINE
  5
2FF0
330
2E54
100
AcDbEntity
  8
0
 62
     0
100
AcDbLine
 10
-43.89372486540355
 20
-271.0075841477578
 30
0.0
 11
-42.99895567595049
 21
-270.1128149583047
 31
0.0
  0
LINE
  5
2FF1
330
2E54
100
AcDbEntity
  8
0
 62
     0
100
AcDbLine
 10
-44.59374768810491
 20
-271.7076069704591
 30
0.0
 11
-43.96175318190293
 21
-271.0756124642572
 31
0.0
  0
LINE
  5
2FF2
330
2E54
100
AcDbEntity
  8
0
 62
     0
100
AcDbLine
 10
-44.74064354692899
 20
-271.7219203078107
 30
0.0
 11
-44.63849961253981
 21
-271.6197763734216
 31
0.0
  0
LINE
  5
2FF3
330
2E54
100
AcDbEntity
  8
0
 62
     0
100
AcDbLine
 10
-44.02630738687596
 20
-271.0075841477577
 30
0.0
 11
-43.13153819742297
 21
-270.1128149583047
 31
0.0
  0
LINE
  5
2FF4
330
2E54
100
AcDbEntity
  8
0
 62
     0
100
AcDbLine
 10
-44.63849961253983
 20
-271.6197763734216
 30
0.0
 11
-44.02630738687603
 21
-271.0075841477578
 31
0.0
  0
LINE
  5
2FF5
330
2E54
100
AcDbEntity
  8
0
 62
     0
100
AcDbLine
 10
-44.78539547136391
 20
-271.6340897107732
 30
0.0
 11
-44.68325153697474
 21
-271.5319457763841
 31
0.0
  0
LINE
  5
2FF6
330
2E54
100
AcDbEntity
  8
0
 62
     0
100
AcDbLine
 10
-44.15888990834845
 20
-271.0075841477577
 30
0.0
 11
-43.26412071889542
 21
-270.1128149583047
 31
0.0
  0
LINE
  5
2FF7
330
2E54
100
AcDbEntity
  8
0
 62
     0
100
AcDbLine
 10
-44.68325153697477
 20
-271.531945776384
 30
0.0
 11
-44.15888990834848
 21
-271.0075841477578
 31
0.0
  0
LINE
  5
2FF8
330
2E54
100
AcDbEntity
  8
0
 62
     0
100
AcDbLine
 10
-44.83014739579885
 20
-271.5462591137356
 30
0.0
 11
-44.72800346140967
 21
-271.4441151793465
 31
0.0
  0
LINE
  5
2FF9
330
2E54
100
AcDbEntity
  8
0
 62
     0
100
AcDbLine
 10
-44.29147242982091
 20
-271.0075841477577
 30
0.0
 11
-43.39670324036791
 21
-270.1128149583047
 31
0.0
  0
LINE
  5
2FFA
330
2E54
100
AcDbEntity
  8
0
 62
     0
100
AcDbLine
 10
-44.72800346140968
 20
-271.4441151793465
 30
0.0
 11
-44.29147242982097
 21
-271.0075841477578
 31
0.0
  0
LINE
  5
2FFB
330
2E54
100
AcDbEntity
  8
0
 62
     0
100
AcDbLine
 10
-44.87489932023376
 20
-271.4584285166981
 30
0.0
 11
-44.7727553858446
 21
-271.3562845823089
 31
0.0
  0
LINE
  5
2FFC
330
2E54
100
AcDbEntity
  8
0
 62
     0
100
AcDbLine
 10
-44.42405495129341
 20
-271.0075841477577
 30
0.0
 11
-43.5292857618404
 21
-270.1128149583047
 31
0.0
  0
LINE
  5
2FFD
330
2E54
100
AcDbEntity
  8
0
 62
     0
100
AcDbLine
 10
-44.77275538584461
 20
-271.3562845823089
 30
0.0
 11
-44.42405495129345
 21
-271.0075841477578
 31
0.0
  0
LINE
  5
2FFE
330
2E54
100
AcDbEntity
  8
0
 62
     0
100
AcDbLine
 10
-44.91965124466869
 20
-271.3705979196606
 30
0.0
 11
-44.81750731027952
 21
-271.2684539852714
 31
0.0
  0
LINE
  5
2FFF
330
2E54
100
AcDbEntity
  8
0
 62
     0
100
AcDbLine
 10
-44.55663747276587
 20
-271.0075841477577
 30
0.0
 11
-43.66186828331287
 21
-270.1128149583047
 31
0.0
  0
LINE
  5
3000
330
2E54
100
AcDbEntity
  8
0
 62
     0
100
AcDbLine
 10
-44.81750731027953
 20
-271.2684539852714
 30
0.0
 11
-44.55663747276593
 21
-271.0075841477578
 31
0.0
  0
LINE
  5
3001
330
2E54
100
AcDbEntity
  8
0
 62
     0
100
AcDbLine
 10
-44.96440316910361
 20
-271.282767322623
 30
0.0
 11
-44.86225923471444
 21
-271.1806233882338
 31
0.0
  0
LINE
  5
3002
330
2E54
100
AcDbEntity
  8
0
 62
     0
100
AcDbLine
 10
-44.68921999423836
 20
-271.0075841477577
 30
0.0
 11
-43.79445080478536
 21
-270.1128149583047
 31
0.0
  0
LINE
  5
3003
330
2E54
100
AcDbEntity
  8
0
 62
     0
100
AcDbLine
 10
-44.86225923471446
 20
-271.1806233882338
 30
0.0
 11
-44.68921999423842
 21
-271.0075841477578
 31
0.0
  0
LINE
  5
3004
330
2E54
100
AcDbEntity
  8
0
 62
     0
100
AcDbLine
 10
-45.00915509353854
 20
-271.1949367255854
 30
0.0
 11
-44.93619626528839
 21
-271.1219778973352
 31
0.0
  0
LINE
  5
3005
330
2E54
100
AcDbEntity
  8
0
 62
     0
100
AcDbLine
 10
-44.82180251571087
 20
-271.0075841477578
 30
0.0
 11
-43.92703332625781
 21
-270.1128149583047
 31
0.0
  0
LINE
  5
3006
330
2E54
100
AcDbEntity
  8
0
 62
     0
100
AcDbLine
 10
-44.95438503718335
 20
-271.0075841477578
 30
0.0
 11
-44.0596158477303
 21
-270.1128149583047
 31
0.0
  0
LINE
  5
3007
330
2E54
100
AcDbEntity
  8
0
 62
     0
100
AcDbLine
 10
-45.08696755865584
 20
-271.0075841477578
 30
0.0
 11
-44.19219836920278
 21
-270.1128149583047
 31
0.0
  0
LINE
  5
3008
330
2E54
100
AcDbEntity
  8
0
 62
     0
100
AcDbLine
 10
-45.21955008012832
 20
-271.0075841477578
 30
0.0
 11
-44.32478089067527
 21
-270.1128149583047
 31
0.0
  0
LINE
  5
3009
330
2E54
100
AcDbEntity
  8
0
 62
     0
100
AcDbLine
 10
-45.23372463886881
 20
-270.8891761850257
 30
0.0
 11
-44.45736341214774
 21
-270.1128149583047
 31
0.0
  0
LINE
  5
300A
330
2E54
100
AcDbEntity
  8
0
 62
     0
100
AcDbLine
 10
-45.23372463886881
 20
-270.7565936635533
 30
0.0
 11
-44.5899459336202
 21
-270.1128149583047
 31
0.0
  0
LINE
  5
300B
330
2E54
100
AcDbEntity
  8
0
 62
     0
100
AcDbLine
 10
-45.23372463886881
 20
-270.6240111420808
 30
0.0
 11
-44.72252845509268
 21
-270.1128149583047
 31
0.0
  0
LINE
  5
300C
330
2E54
100
AcDbEntity
  8
0
 62
     0
100
AcDbLine
 10
-45.23372463886881
 20
-270.4914286206083
 30
0.0
 11
-44.85511097656517
 21
-270.1128149583047
 31
0.0
  0
LINE
  5
300D
330
2E54
100
AcDbEntity
  8
0
 62
     0
100
AcDbLine
 10
-45.2337246388688
 20
-270.3588460991359
 30
0.0
 11
-44.98769349803765
 21
-270.1128149583047
 31
0.0
  0
LINE
  5
300E
330
2E54
100
AcDbEntity
  8
0
 62
     0
100
AcDbLine
 10
-45.2337246388688
 20
-270.2262635776634
 30
0.0
 11
-45.12027601951014
 21
-270.1128149583047
 31
0.0
  0
LINE
  5
300F
330
2E54
100
AcDbEntity
  8
0
 62
     0
100
AcDbLine
 10
-39.27512850824
 20
-279.5146574163695
 30
0.0
 11
-38.5413666900566
 21
-278.7808955981861
 31
0.0
  0
LINE
  5
3010
330
2E54
100
AcDbEntity
  8
0
 62
     0
100
AcDbLine
 10
-39.16241960701883
 20
-279.5345310366208
 30
0.0
 11
-38.42865778883542
 21
-278.8007692184374
 31
0.0
  0
LINE
  5
3011
330
2E54
100
AcDbEntity
  8
0
 62
     0
100
AcDbLine
 10
-39.04971070579762
 20
-279.5544046568721
 30
0.0
 11
-38.31594888761424
 21
-278.8206428386887
 31
0.0
  0
LINE
  5
3012
330
2E54
100
AcDbEntity
  8
0
 62
     0
100
AcDbLine
 10
-38.93700180457646
 20
-279.5742782771234
 30
0.0
 11
-38.20323998639308
 21
-278.84051645894
 31
0.0
  0
LINE
  5
3013
330
2E54
100
AcDbEntity
  8
0
 62
     0
100
AcDbLine
 10
-38.82429290335529
 20
-279.5941518973747
 30
0.0
 11
-38.0905310851719
 21
-278.8603900791913
 31
0.0
  0
LINE
  5
3014
330
2E54
100
AcDbEntity
  8
0
 62
     0
100
AcDbLine
 10
-38.71158400213412
 20
-279.614025517626
 30
0.0
 11
-37.97782218395072
 21
-278.8802636994426
 31
0.0
  0
LINE
  5
3015
330
2E54
100
AcDbEntity
  8
0
 62
     0
100
AcDbLine
 10
-38.59887510091292
 20
-279.6338991378773
 30
0.0
 11
-37.86511328272954
 21
-278.9001373196939
 31
0.0
  0
LINE
  5
3016
330
2E54
100
AcDbEntity
  8
0
 62
     0
100
AcDbLine
 10
-38.48616619969174
 20
-279.6537727581286
 30
0.0
 11
-37.75240438150836
 21
-278.9200109399452
 31
0.0
  0
LINE
  5
3017
330
2E54
100
AcDbEntity
  8
0
 62
     0
100
AcDbLine
 10
-38.37345729847058
 20
-279.6736463783799
 30
0.0
 11
-37.63969548028717
 21
-278.9398845601965
 31
0.0
  0
LINE
  5
3018
330
2E54
100
AcDbEntity
  8
0
 62
     0
100
AcDbLine
 10
-38.26074839724942
 20
-279.6935199986312
 30
0.0
 11
-37.526986579066
 21
-278.9597581804478
 31
0.0
  0
LINE
  5
3019
330
2E54
100
AcDbEntity
  8
0
 62
     0
100
AcDbLine
 10
-38.14803949602821
 20
-279.7133936188825
 30
0.0
 11
-37.41427767784482
 21
-278.9796318006991
 31
0.0
  0
LINE
  5
301A
330
2E54
100
AcDbEntity
  8
0
 62
     0
100
AcDbLine
 10
-38.03533059480704
 20
-279.7332672391338
 30
0.0
 11
-37.30156877662363
 21
-278.9995054209504
 31
0.0
  0
LINE
  5
301B
330
2E54
100
AcDbEntity
  8
0
 62
     0
100
AcDbLine
 10
-37.92262169358588
 20
-279.7531408593851
 30
0.0
 11
-37.18885987540245
 21
-279.0193790412017
 31
0.0
  0
LINE
  5
301C
330
2E54
100
AcDbEntity
  8
0
 62
     0
100
AcDbLine
 10
-37.80991279236471
 20
-279.7730144796364
 30
0.0
 11
-37.07615097418127
 21
-279.039252661453
 31
0.0
  0
LINE
  5
301D
330
2E54
100
AcDbEntity
  8
0
 62
     0
100
AcDbLine
 10
-37.6972038911435
 20
-279.7928880998877
 30
0.0
 11
-36.96344207296009
 21
-279.0591262817043
 31
0.0
  0
LINE
  5
301E
330
2E54
100
AcDbEntity
  8
0
 62
     0
100
AcDbLine
 10
-37.58449498992233
 20
-279.812761720139
 30
0.0
 11
-36.85073317173891
 21
-279.0789999019556
 31
0.0
  0
LINE
  5
301F
330
2E54
100
AcDbEntity
  8
0
 62
     0
100
AcDbLine
 10
-37.47178608870117
 20
-279.8326353403903
 30
0.0
 11
-36.73802427051778
 21
-279.0988735222069
 31
0.0
  0
LINE
  5
3020
330
2E54
100
AcDbEntity
  8
0
 62
     0
100
AcDbLine
 10
-37.35907718748001
 20
-279.8525089606416
 30
0.0
 11
-36.62531536929659
 21
-279.1187471424582
 31
0.0
  0
LINE
  5
3021
330
2E54
100
AcDbEntity
  8
0
 62
     0
100
AcDbLine
 10
-37.24636828625879
 20
-279.8723825808929
 30
0.0
 11
-36.51260646807542
 21
-279.1386207627095
 31
0.0
  0
LINE
  5
3022
330
2E54
100
AcDbEntity
  8
0
 62
     0
100
AcDbLine
 10
-37.13365938503763
 20
-279.8922562011442
 30
0.0
 11
-36.39989756685424
 21
-279.1584943829608
 31
0.0
  0
LINE
  5
3023
330
2E54
100
AcDbEntity
  8
0
 62
     0
100
AcDbLine
 10
-37.02095048381647
 20
-279.9121298213955
 30
0.0
 11
-36.28718866563306
 21
-279.1783680032121
 31
0.0
  0
LINE
  5
3024
330
2E54
100
AcDbEntity
  8
0
 62
     0
100
AcDbLine
 10
-36.9082415825953
 20
-279.9320034416468
 30
0.0
 11
-36.17447976441188
 21
-279.1982416234634
 31
0.0
  0
LINE
  5
3025
330
2E54
100
AcDbEntity
  8
0
 62
     0
100
AcDbLine
 10
-36.79553268137409
 20
-279.9518770618981
 30
0.0
 11
-36.0617708631907
 21
-279.2181152437147
 31
0.0
  0
LINE
  5
3026
330
2E54
100
AcDbEntity
  8
0
 62
     0
100
AcDbLine
 10
-36.68282378015292
 20
-279.9717506821494
 30
0.0
 11
-35.94906196196951
 21
-279.237988863966
 31
0.0
  0
LINE
  5
3027
330
2E54
100
AcDbEntity
  8
0
 62
     0
100
AcDbLine
 10
-36.57011487893175
 20
-279.9916243024007
 30
0.0
 11
-35.83635306074833
 21
-279.2578624842173
 31
0.0
  0
LINE
  5
3028
330
2E54
100
AcDbEntity
  8
0
 62
     0
100
AcDbLine
 10
-36.45740597771059
 20
-280.011497922652
 30
0.0
 11
-35.72364415952716
 21
-279.2777361044686
 31
0.0
  0
LINE
  5
3029
330
2E54
100
AcDbEntity
  8
0
 62
     0
100
AcDbLine
 10
-36.34469707648938
 20
-280.0313715429033
 30
0.0
 11
-35.61093525830597
 21
-279.2976097247199
 31
0.0
  0
LINE
  5
302A
330
2E54
100
AcDbEntity
  8
0
 62
     0
100
AcDbLine
 10
-36.23198817526822
 20
-280.0512451631546
 30
0.0
 11
-35.49822635708479
 21
-279.3174833449712
 31
0.0
  0
LINE
  5
302B
330
2E54
100
AcDbEntity
  8
0
 62
     0
100
AcDbLine
 10
-36.11927927404706
 20
-280.0711187834059
 30
0.0
 11
-35.38551745586361
 21
-279.3373569652225
 31
0.0
  0
LINE
  5
302C
330
2E54
100
AcDbEntity
  8
0
 62
     0
100
AcDbLine
 10
-36.00657037282589
 20
-280.0909924036572
 30
0.0
 11
-35.27280855464243
 21
-279.3572305854738
 31
0.0
  0
LINE
  5
302D
330
2E54
100
AcDbEntity
  8
0
 62
     0
100
AcDbLine
 10
-35.89386147160467
 20
-280.1108660239085
 30
0.0
 11
-35.16009965342125
 21
-279.3771042057251
 31
0.0
  0
LINE
  5
302E
330
2E54
100
AcDbEntity
  8
0
 62
     0
100
AcDbLine
 10
-35.78115257038351
 20
-280.1307396441598
 30
0.0
 11
-35.04739075220007
 21
-279.3969778259764
 31
0.0
  0
LINE
  5
302F
330
2E54
100
AcDbEntity
  8
0
 62
     0
100
AcDbLine
 10
-35.66844366916234
 20
-280.1506132644111
 30
0.0
 11
-34.93468185097889
 21
-279.4168514462277
 31
0.0
  0
LINE
  5
3030
330
2E54
100
AcDbEntity
  8
0
 62
     0
100
AcDbLine
 10
-35.55573476794118
 20
-280.1704868846624
 30
0.0
 11
-34.82197294975771
 21
-279.436725066479
 31
0.0
  0
LINE
  5
3031
330
2E54
100
AcDbEntity
  8
0
 62
     0
100
AcDbLine
 10
-35.44302586671997
 20
-280.1903605049137
 30
0.0
 11
-34.70926404853658
 21
-279.4565986867303
 31
0.0
  0
LINE
  5
3032
330
2E54
100
AcDbEntity
  8
0
 62
     0
100
AcDbLine
 10
-35.3303169654988
 20
-280.210234125165
 30
0.0
 11
-34.59655514731539
 21
-279.4764723069816
 31
0.0
  0
LINE
  5
3033
330
2E54
100
AcDbEntity
  8
0
 62
     0
100
AcDbLine
 10
-35.21760806427764
 20
-280.2301077454163
 30
0.0
 11
-34.48384624609421
 21
-279.496345927233
 31
0.0
  0
LINE
  5
3034
330
2E54
100
AcDbEntity
  8
0
 62
     0
100
AcDbLine
 10
-35.10489916305647
 20
-280.2499813656676
 30
0.0
 11
-34.65961316436878
 21
-279.80469536698
 31
0.0
  0
LINE
  5
3035
330
2E54
100
AcDbEntity
  8
0
 62
     0
100
AcDbLine
 10
-34.49507239555112
 20
-279.6401545981623
 30
0.0
 11
-34.37113734487303
 21
-279.5162195474842
 31
0.0
  0
LINE
  5
3036
330
2E54
100
AcDbEntity
  8
0
 62
     0
100
AcDbLine
 10
-34.65961316436874
 20
-279.8046953669799
 30
0.0
 11
-34.49507239555113
 21
-279.6401545981623
 31
0.0
  0
LINE
  5
3037
330
2E54
100
AcDbEntity
  8
0
 62
     0
100
AcDbLine
 10
-34.99219026183526
 20
-280.2698549859189
 30
0.0
 11
-34.61254978408334
 21
-279.890214508167
 31
0.0
  0
LINE
  5
3038
330
2E54
100
AcDbEntity
  8
0
 62
     0
100
AcDbLine
 10
-34.4505443932725
 20
-279.7282091173562
 30
0.0
 11
-34.25842844365185
 21
-279.5360931677355
 31
0.0
  0
LINE
  5
3039
330
2E54
100
AcDbEntity
  8
0
 62
     0
100
AcDbLine
 10
-34.61254978408327
 20
-279.8902145081669
 30
0.0
 11
-34.45054439327251
 21
-279.7282091173562
 31
0.0
  0
LINE
  5
303A
330
2E54
100
AcDbEntity
  8
0
 62
     0
100
AcDbLine
 10
-34.8794813606141
 20
-280.2897286061702
 30
0.0
 11
-34.56548640379791
 21
-279.975733649354
 31
0.0
  0
LINE
  5
303B
330
2E54
100
AcDbEntity
  8
0
 62
     0
100
AcDbLine
 10
-34.40601639099387
 20
-279.81626363655
 30
0.0
 11
-34.18212969867614
 21
-279.5923769442322
 31
0.0
  0
LINE
  5
303C
330
2E54
100
AcDbEntity
  8
0
 62
     0
100
AcDbLine
 10
-34.5654864037978
 20
-279.975733649354
 30
0.0
 11
-34.4060163909939
 21
-279.81626363655
 31
0.0
  0
LINE
  5
303D
330
2E54
100
AcDbEntity
  8
0
 62
     0
100
AcDbLine
 10
-34.76677245939293
 20
-280.3096022264215
 30
0.0
 11
-34.51842302351247
 21
-280.0612527905411
 31
0.0
  0
LINE
  5
303E
330
2E54
100
AcDbEntity
  8
0
 62
     0
100
AcDbLine
 10
-34.36148838871525
 20
-279.9043181557439
 30
0.0
 11
-34.21610863625688
 21
-279.7589384032855
 31
0.0
  0
LINE
  5
303F
330
2E54
100
AcDbEntity
  8
0
 62
     0
100
AcDbLine
 10
-34.51842302351233
 20
-280.0612527905409
 30
0.0
 11
-34.36148838871528
 21
-279.9043181557439
 31
0.0
  0
LINE
  5
3040
330
2E54
100
AcDbEntity
  8
0
 62
     0
100
AcDbLine
 10
-34.65406355817177
 20
-280.3294758466728
 30
0.0
 11
-34.47135964322703
 21
-280.1467719317281
 31
0.0
  0
LINE
  5
3041
330
2E54
100
AcDbEntity
  8
0
 62
     0
100
AcDbLine
 10
-34.31696038643663
 20
-279.9923726749377
 30
0.0
 11
-34.25008757383762
 21
-279.9254998623387
 31
0.0
  0
LINE
  5
3042
330
2E54
100
AcDbEntity
  8
0
 62
     0
100
AcDbLine
 10
-34.47135964322686
 20
-280.1467719317279
 30
0.0
 11
-34.31696038643667
 21
-279.9923726749378
 31
0.0
  0
LINE
  5
3043
330
2E54
100
AcDbEntity
  8
0
 62
     0
100
AcDbLine
 10
-34.54135465695056
 20
-280.3493494669242
 30
0.0
 11
-34.4242962629416
 21
-280.2322910729151
 31
0.0
  0
LINE
  5
3044
330
2E54
100
AcDbEntity
  8
0
 62
     0
100
AcDbLine
 10
-34.42429626294139
 20
-280.232291072915
 30
0.0
 11
-34.27243238415805
 21
-280.0804271941316
 31
0.0
  0
LINE
  5
3045
330
2E54
100
AcDbEntity
  8
0
 62
     0
100
AcDbLine
 10
-34.42864575572939
 20
-280.3692230871754
 30
0.0
 11
-34.37723288265617
 21
-280.3178102141022
 31
0.0
  0
LINE
  5
3046
330
2E54
100
AcDbEntity
  8
0
 62
     0
100
AcDbLine
 10
-34.23763487951733
 20
-280.1782122109634
 30
0.0
 11
-34.22790438187941
 21
-280.1684817133254
 31
0.0
  0
LINE
  5
3047
330
2E54
100
AcDbEntity
  8
0
 62
     0
100
AcDbLine
 10
-34.37723288265592
 20
-280.317810214102
 30
0.0
 11
-34.32222178119469
 21
-280.2627991126407
 31
0.0
  0
LINE
  5
3048
330
2E54
100
AcDbEntity
  8
0
 62
     0
100
AcDbLine
 10
-34.3180454489991
 20
-280.2586227804452
 30
0.0
 11
-34.23763487951734
 21
-280.1782122109634
 31
0.0
  0
LINE
  5
3049
330
2E54
100
AcDbEntity
  8
0
 62
     0
100
AcDbLine
 10
-34.33279649784393
 20
-280.4059563507625
 30
0.0
 11
-34.31594377963411
 21
-280.3891036325526
 31
0.0
  0
LINE
  5
304A
330
2E54
100
AcDbEntity
  8
0
 62
     0
100
AcDbLine
 10
-34.31594377963405
 20
-280.3891036325526
 30
0.0
 11
-34.12832042519916
 21
-280.2014802781177
 31
0.0
  0
LINE
  5
304B
330
2E54
100
AcDbEntity
  8
0
 62
     0
100
AcDbLine
 10
-34.2886183190611
 20
-280.4943606934521
 30
0.0
 11
-34.20326302751831
 21
-280.4090054019093
 31
0.0
  0
LINE
  5
304C
330
2E54
100
AcDbEntity
  8
0
 62
     0
100
AcDbLine
 10
-34.01900597088106
 20
-280.224748345272
 30
0.0
 11
-34.00684354492805
 21
-280.2125859193191
 31
0.0
  0
LINE
  5
304D
330
2E54
100
AcDbEntity
  8
0
 62
     0
100
AcDbLine
 10
-34.20326302751827
 20
-280.4090054019093
 30
0.0
 11
-34.01900597088101
 21
-280.224748345272
 31
0.0
  0
LINE
  5
304E
330
2E54
100
AcDbEntity
  8
0
 62
     0
100
AcDbLine
 10
-34.24444014027825
 20
-280.5827650361417
 30
0.0
 11
-34.09058227540249
 21
-280.4289071712659
 31
0.0
  0
LINE
  5
304F
330
2E54
100
AcDbEntity
  8
0
 62
     0
100
AcDbLine
 10
-33.90969151656292
 20
-280.2480164124263
 30
0.0
 11
-33.73652476279732
 21
-280.0748496586608
 31
0.0
  0
LINE
  5
3050
330
2E54
100
AcDbEntity
  8
0
 62
     0
100
AcDbLine
 10
-34.09058227540246
 20
-280.4289071712659
 30
0.0
 11
-33.90969151656286
 21
-280.2480164124263
 31
0.0
  0
LINE
  5
3051
330
2E54
100
AcDbEntity
  8
0
 62
     0
100
AcDbLine
 10
-34.20026196149541
 20
-280.6711693788314
 30
0.0
 11
-33.9779015232867
 21
-280.4488089406227
 31
0.0
  0
LINE
  5
3052
330
2E54
100
AcDbEntity
  8
0
 62
     0
100
AcDbLine
 10
-33.80037706224471
 20
-280.2712844795807
 30
0.0
 11
-33.56665993146914
 21
-280.0375673488051
 31
0.0
  0
LINE
  5
3053
330
2E54
100
AcDbEntity
  8
0
 62
     0
100
AcDbLine
 10
-33.97790152328667
 20
-280.4488089406226
 30
0.0
 11
-33.80037706224476
 21
-280.2712844795808
 31
0.0
  0
LINE
  5
3054
330
2E54
100
AcDbEntity
  8
0
 62
     0
100
AcDbLine
 10
-34.15608378271257
 20
-280.759573721521
 30
0.0
 11
-33.86522077117088
 21
-280.4687107099793
 31
0.0
  0
LINE
  5
3055
330
2E54
100
AcDbEntity
  8
0
 62
     0
100
AcDbLine
 10
-33.69106260792654
 20
-280.294552546735
 30
0.0
 11
-33.52248175268631
 21
-280.1259716914947
 31
0.0
  0
LINE
  5
3056
330
2E54
100
AcDbEntity
  8
0
 62
     0
100
AcDbLine
 10
-33.86522077117085
 20
-280.4687107099793
 30
0.0
 11
-33.69106260792662
 21
-280.2945525467351
 31
0.0
  0
LINE
  5
3057
330
2E54
100
AcDbEntity
  8
0
 62
     0
100
AcDbLine
 10
-34.11190560392971
 20
-280.8479780642106
 30
0.0
 11
-33.75254001905505
 21
-280.488612479336
 31
0.0
  0
LINE
  5
3058
330
2E54
100
AcDbEntity
  8
0
 62
     0
100
AcDbLine
 10
-33.59453372366715
 20
-280.330606183948
 30
0.0
 11
-33.47830357390347
 21
-280.2143760341844
 31
0.0
  0
LINE
  5
3059
330
2E54
100
AcDbEntity
  8
0
 62
     0
100
AcDbLine
 10
-33.75254001905507
 20
-280.4886124793359
 30
0.0
 11
-33.59453372366719
 21
-280.3306061839481
 31
0.0
  0
LINE
  5
305A
330
2E54
100
AcDbEntity
  8
0
 62
     0
100
AcDbLine
 10
-34.06772742514688
 20
-280.9363824069003
 30
0.0
 11
-33.64145204273529
 21
-280.5101070244887
 31
0.0
  0
LINE
  5
305B
330
2E54
100
AcDbEntity
  8
0
 62
     0
100
AcDbLine
 10
-33.62039977625162
 20
-280.489054758005
 30
0.0
 11
-33.43412539512061
 21
-280.302780376874
 31
0.0
  0
LINE
  5
305C
330
2E54
100
AcDbEntity
  8
0
 62
     0
100
AcDbLine
 10
-33.64145204273528
 20
-280.5101070244887
 30
0.0
 11
-33.62039977625164
 21
-280.489054758005
 31
0.0
  0
LINE
  5
305D
330
2E54
100
AcDbEntity
  8
0
 62
     0
100
AcDbLine
 10
-34.02354924636404
 20
-281.0247867495899
 30
0.0
 11
-33.38994721633778
 21
-280.3911847195636
 31
0.0
  0
LINE
  5
305E
330
2E54
100
AcDbEntity
  8
0
 62
     0
100
AcDbLine
 10
-33.97937106758119
 20
-281.1131910922795
 30
0.0
 11
-33.34576903755494
 21
-280.4795890622533
 31
0.0
  0
LINE
  5
305F
330
2E54
100
AcDbEntity
  8
0
 62
     0
100
AcDbLine
 10
-33.93519288879836
 20
-281.2015954349691
 30
0.0
 11
-33.30159085877209
 21
-280.567993404943
 31
0.0
  0
LINE
  5
3060
330
2E54
100
AcDbEntity
  8
0
 62
     0
100
AcDbLine
 10
-33.89101471001551
 20
-281.2899997776588
 30
0.0
 11
-33.25741267998925
 21
-280.6563977476325
 31
0.0
  0
LINE
  5
3061
330
2E54
100
AcDbEntity
  8
0
 62
     0
100
AcDbLine
 10
-33.84683653123266
 20
-281.3784041203485
 30
0.0
 11
-33.21323450120642
 21
-280.7448020903222
 31
0.0
  0
LINE
  5
3062
330
2E54
100
AcDbEntity
  8
0
 62
     0
100
AcDbLine
 10
-33.80265835244982
 20
-281.4668084630381
 30
0.0
 11
-33.16905632242356
 21
-280.8332064330118
 31
0.0
  0
LINE
  5
3063
330
2E54
100
AcDbEntity
  8
0
 62
     0
100
AcDbLine
 10
-33.75848017366698
 20
-281.5552128057277
 30
0.0
 11
-33.12487814364072
 21
-280.9216107757015
 31
0.0
  0
LINE
  5
3064
330
2E54
100
AcDbEntity
  8
0
 62
     0
100
AcDbLine
 10
-33.71430199488414
 20
-281.6436171484174
 30
0.0
 11
-33.08069996485789
 21
-281.010015118391
 31
0.0
  0
LINE
  5
3065
330
2E54
100
AcDbEntity
  8
0
 62
     0
100
AcDbLine
 10
-33.6701238161013
 20
-281.732021491107
 30
0.0
 11
-33.03652178607503
 21
-281.0984194610807
 31
0.0
  0
LINE
  5
3066
330
2E54
100
AcDbEntity
  8
0
 62
     0
100
AcDbLine
 10
-33.62594563731845
 20
-281.8204258337966
 30
0.0
 11
-32.9923436072922
 21
-281.1868238037704
 31
0.0
  0
LINE
  5
3067
330
2E54
100
AcDbEntity
  8
0
 62
     0
100
AcDbLine
 10
-33.58176745853561
 20
-281.9088301764862
 30
0.0
 11
-32.94816542850937
 21
-281.2752281464601
 31
0.0
  0
LINE
  5
3068
330
2E54
100
AcDbEntity
  8
0
 62
     0
100
AcDbLine
 10
-33.53758927975277
 20
-281.9972345191759
 30
0.0
 11
-32.90398724972653
 21
-281.3636324891497
 31
0.0
  0
LINE
  5
3069
330
2E54
100
AcDbEntity
  8
0
 62
     0
100
AcDbLine
 10
-33.49341110096992
 20
-282.0856388618656
 30
0.0
 11
-32.85980907094367
 21
-281.4520368318393
 31
0.0
  0
LINE
  5
306A
330
2E54
100
AcDbEntity
  8
0
 62
     0
100
AcDbLine
 10
-33.44923292218708
 20
-282.1740432045552
 30
0.0
 11
-32.81563089216084
 21
-281.5404411745289
 31
0.0
  0
LINE
  5
306B
330
2E54
100
AcDbEntity
  8
0
 62
     0
100
AcDbLine
 10
-33.40505474340423
 20
-282.2624475472448
 30
0.0
 11
-32.771452713378
 21
-281.6288455172186
 31
0.0
  0
LINE
  5
306C
330
2E54
100
AcDbEntity
  8
0
 62
     0
100
AcDbLine
 10
-33.36087656462139
 20
-282.3508518899345
 30
0.0
 11
-32.72727453459515
 21
-281.7172498599082
 31
0.0
  0
LINE
  5
306D
330
2E54
100
AcDbEntity
  8
0
 62
     0
100
AcDbLine
 10
-33.31669838583855
 20
-282.4392562326241
 30
0.0
 11
-32.68309635581231
 21
-281.8056542025978
 31
0.0
  0
LINE
  5
306E
330
2E54
100
AcDbEntity
  8
0
 62
     0
100
AcDbLine
 10
-33.27252020705571
 20
-282.5276605753137
 30
0.0
 11
-32.63891817702948
 21
-281.8940585452875
 31
0.0
  0
LINE
  5
306F
330
2E54
100
AcDbEntity
  8
0
 62
     0
100
AcDbLine
 10
-33.22834202827287
 20
-282.6160649180033
 30
0.0
 11
-32.59473999824662
 21
-281.9824628879771
 31
0.0
  0
LINE
  5
3070
330
2E54
100
AcDbEntity
  8
0
 62
     0
100
AcDbLine
 10
-33.18416384949003
 20
-282.704469260693
 30
0.0
 11
-32.55056181946378
 21
-282.0708672306667
 31
0.0
  0
LINE
  5
3071
330
2E54
100
AcDbEntity
  8
0
 62
     0
100
AcDbLine
 10
-33.13998567070718
 20
-282.7928736033826
 30
0.0
 11
-32.50638364068095
 21
-282.1592715733564
 31
0.0
  0
LINE
  5
3072
330
2E54
100
AcDbEntity
  8
0
 62
     0
100
AcDbLine
 10
-33.09580749192433
 20
-282.8812779460723
 30
0.0
 11
-32.46220546189811
 21
-282.247675916046
 31
0.0
  0
LINE
  5
3073
330
2E54
100
AcDbEntity
  8
0
 62
     0
100
AcDbLine
 10
-33.0516293131415
 20
-282.9696822887619
 30
0.0
 11
-32.41802728311526
 21
-282.3360802587357
 31
0.0
  0
LINE
  5
3074
330
2E54
100
AcDbEntity
  8
0
 62
     0
100
AcDbLine
 10
-33.00745113435866
 20
-283.0580866314516
 30
0.0
 11
-32.37384910433242
 21
-282.4244846014253
 31
0.0
  0
LINE
  5
3075
330
2E54
100
AcDbEntity
  8
0
 62
     0
100
AcDbLine
 10
-32.96327295557581
 20
-283.1464909741411
 30
0.0
 11
-32.32967092554959
 21
-282.5128889441149
 31
0.0
  0
LINE
  5
3076
330
2E54
100
AcDbEntity
  8
0
 62
     0
100
AcDbLine
 10
-32.91909477679296
 20
-283.2348953168308
 30
0.0
 11
-32.28549274676673
 21
-282.6012932868045
 31
0.0
  0
LINE
  5
3077
330
2E54
100
AcDbEntity
  8
0
 62
     0
100
AcDbLine
 10
-32.87491659801013
 20
-283.3232996595204
 30
0.0
 11
-32.24131456798389
 21
-282.6896976294942
 31
0.0
  0
LINE
  5
3078
330
2E54
100
AcDbEntity
  8
0
 62
     0
100
AcDbLine
 10
-32.83073841922728
 20
-283.4117040022101
 30
0.0
 11
-32.19713638920106
 21
-282.7781019721838
 31
0.0
  0
LINE
  5
3079
330
2E54
100
AcDbEntity
  8
0
 62
     0
100
AcDbLine
 10
-32.78656024044444
 20
-283.5001083448997
 30
0.0
 11
-32.1529582104182
 21
-282.8665063148735
 31
0.0
  0
LINE
  5
307A
330
2E54
100
AcDbEntity
  8
0
 62
     0
100
AcDbLine
 10
-32.7423820616616
 20
-283.5885126875893
 30
0.0
 11
-32.10878003163537
 21
-282.9549106575631
 31
0.0
  0
LINE
  5
307B
330
2E54
100
AcDbEntity
  8
0
 62
     0
100
AcDbLine
 10
-32.69820388287876
 20
-283.6769170302789
 30
0.0
 11
-32.06460185285254
 21
-283.0433150002527
 31
0.0
  0
LINE
  5
307C
330
2E54
100
AcDbEntity
  8
0
 62
     0
100
AcDbLine
 10
-32.65402570409591
 20
-283.7653213729686
 30
0.0
 11
-32.0204236740697
 21
-283.1317193429424
 31
0.0
  0
LINE
  5
307D
330
2E54
100
AcDbEntity
  8
0
 62
     0
100
AcDbLine
 10
-32.60984752531307
 20
-283.8537257156582
 30
0.0
 11
-31.97624549528684
 21
-283.220123685632
 31
0.0
  0
LINE
  5
307E
330
2E54
100
AcDbEntity
  8
0
 62
     0
100
AcDbLine
 10
-32.56566934653022
 20
-283.9421300583479
 30
0.0
 11
-31.93206731650401
 21
-283.3085280283216
 31
0.0
  0
LINE
  5
307F
330
2E54
100
AcDbEntity
  8
0
 62
     0
100
AcDbLine
 10
-32.52149116774738
 20
-284.0305344010375
 30
0.0
 11
-31.88788913772117
 21
-283.3969323710113
 31
0.0
  0
LINE
  5
3080
330
2E54
100
AcDbEntity
  8
0
 62
     0
100
AcDbLine
 10
-32.47731298896454
 20
-284.1189387437271
 30
0.0
 11
-31.84371095893832
 21
-283.4853367137009
 31
0.0
  0
LINE
  5
3081
330
2E54
100
AcDbEntity
  8
0
 62
     0
100
AcDbLine
 10
-32.43313481018169
 20
-284.2073430864168
 30
0.0
 11
-31.79953278015548
 21
-283.5737410563906
 31
0.0
  0
LINE
  5
3082
330
2E54
100
AcDbEntity
  8
0
 62
     0
100
AcDbLine
 10
-32.38895663139885
 20
-284.2957474291064
 30
0.0
 11
-31.75535460137264
 21
-283.6621453990801
 31
0.0
  0
LINE
  5
3083
330
2E54
100
AcDbEntity
  8
0
 62
     0
100
AcDbLine
 10
-32.34477845261601
 20
-284.384151771796
 30
0.0
 11
-31.71117642258979
 21
-283.7505497417698
 31
0.0
  0
LINE
  5
3084
330
2E54
100
AcDbEntity
  8
0
 62
     0
100
AcDbLine
 10
-32.30060027383317
 20
-284.4725561144857
 30
0.0
 11
-31.66699824380695
 21
-283.8389540844595
 31
0.0
  0
LINE
  5
3085
330
2E54
100
AcDbEntity
  8
0
 62
     0
100
AcDbLine
 10
-32.25642209505032
 20
-284.5609604571753
 30
0.0
 11
-31.62282006502412
 21
-283.9273584271491
 31
0.0
  0
LINE
  5
3086
330
2E54
100
AcDbEntity
  8
0
 62
     0
100
AcDbLine
 10
-32.21224391626749
 20
-284.649364799865
 30
0.0
 11
-31.57864188624126
 21
-284.0157627698387
 31
0.0
  0
LINE
  5
3087
330
2E54
100
AcDbEntity
  8
0
 62
     0
100
AcDbLine
 10
-32.16806573748464
 20
-284.7377691425545
 30
0.0
 11
-31.53446370745843
 21
-284.1041671125284
 31
0.0
  0
LINE
  5
3088
330
2E54
100
AcDbEntity
  8
0
 62
     0
100
AcDbLine
 10
-32.1238875587018
 20
-284.8261734852442
 30
0.0
 11
-31.49028552867559
 21
-284.192571455218
 31
0.0
  0
LINE
  5
3089
330
2E54
100
AcDbEntity
  8
0
 62
     0
100
AcDbLine
 10
-32.07970937991895
 20
-284.9145778279338
 30
0.0
 11
-31.44610734989275
 21
-284.2809757979077
 31
0.0
  0
LINE
  5
308A
330
2E54
100
AcDbEntity
  8
0
 62
     0
100
AcDbLine
 10
-32.03553120113612
 20
-285.0029821706235
 30
0.0
 11
-31.4019291711099
 21
-284.3693801405972
 31
0.0
  0
LINE
  5
308B
330
2E54
100
AcDbEntity
  8
0
 62
     0
100
AcDbLine
 10
-31.99135302235327
 20
-285.0913865133131
 30
0.0
 11
-31.35775099232706
 21
-284.4577844832869
 31
0.0
  0
LINE
  5
308C
330
2E54
100
AcDbEntity
  8
0
 62
     0
100
AcDbLine
 10
-31.94717484357042
 20
-285.1797908560028
 30
0.0
 11
-31.31357281354423
 21
-284.5461888259766
 31
0.0
  0
LINE
  5
308D
330
2E54
100
AcDbEntity
  8
0
 62
     0
100
AcDbLine
 10
-31.90299666478758
 20
-285.2681951986924
 30
0.0
 11
-31.26939463476138
 21
-284.6345931686662
 31
0.0
  0
LINE
  5
308E
330
2E54
100
AcDbEntity
  8
0
 62
     0
100
AcDbLine
 10
-31.85881848600474
 20
-285.356599541382
 30
0.0
 11
-31.22521645597854
 21
-284.7229975113558
 31
0.0
  0
LINE
  5
308F
330
2E54
100
AcDbEntity
  8
0
 62
     0
100
AcDbLine
 10
-31.8146403072219
 20
-285.4450038840717
 30
0.0
 11
-31.1810382771957
 21
-284.8114018540455
 31
0.0
  0
LINE
  5
3090
330
2E54
100
AcDbEntity
  8
0
 62
     0
100
AcDbLine
 10
-31.77046212843906
 20
-285.5334082267613
 30
0.0
 11
-31.13686009841285
 21
-284.8998061967351
 31
0.0
  0
LINE
  5
3091
330
2E54
100
AcDbEntity
  8
0
 62
     0
100
AcDbLine
 10
-31.72628394965622
 20
-285.6218125694509
 30
0.0
 11
-31.09268191963001
 21
-284.9882105394248
 31
0.0
  0
LINE
  5
3092
330
2E54
100
AcDbEntity
  8
0
 62
     0
100
AcDbLine
 10
-31.68210577087337
 20
-285.7102169121406
 30
0.0
 11
-31.04850374084718
 21
-285.0766148821143
 31
0.0
  0
LINE
  5
3093
330
2E54
100
AcDbEntity
  8
0
 62
     0
100
AcDbLine
 10
-31.63792759209052
 20
-285.7986212548302
 30
0.0
 11
-31.00432556206434
 21
-285.165019224804
 31
0.0
  0
LINE
  5
3094
330
2E54
100
AcDbEntity
  8
0
 62
     0
100
AcDbLine
 10
-31.59374941330769
 20
-285.8870255975199
 30
0.0
 11
-30.96014738328149
 21
-285.2534235674937
 31
0.0
  0
LINE
  5
3095
330
2E54
100
AcDbEntity
  8
0
 62
     0
100
AcDbLine
 10
-31.50332316272872
 20
-285.9291818684134
 30
0.0
 11
-30.91596920449865
 21
-285.3418279101833
 31
0.0
  0
LINE
  5
3096
330
2E54
100
AcDbEntity
  8
0
 62
     0
100
AcDbLine
 10
-31.37157195278595
 20
-285.9300131799431
 30
0.0
 11
-30.87179102571581
 21
-285.4302322528729
 31
0.0
  0
LINE
  5
3097
330
2E54
100
AcDbEntity
  8
0
 62
     0
100
AcDbLine
 10
-31.23982074284319
 20
-285.9308444914728
 30
0.0
 11
-30.82761284693296
 21
-285.5186365955626
 31
0.0
  0
LINE
  5
3098
330
2E54
100
AcDbEntity
  8
0
 62
     0
100
AcDbLine
 10
-31.25232952633624
 20
-286.0759357964383
 30
0.0
 11
-31.16460760049095
 21
-285.988213870593
 31
0.0
  0
LINE
  5
3099
330
2E54
100
AcDbEntity
  8
0
 62
     0
100
AcDbLine
 10
-31.10806953290039
 20
-285.9316758030024
 30
0.0
 11
-30.78343466815012
 21
-285.6070409382521
 31
0.0
  0
LINE
  5
309A
330
2E54
100
AcDbEntity
  8
0
 62
     0
100
AcDbLine
 10
-31.15811563536502
 20
-285.981721905467
 30
0.0
 11
-31.10806953290039
 21
-285.9316758030025
 31
0.0
  0
LINE
  5
309B
330
2E54
100
AcDbEntity
  8
0
 62
     0
100
AcDbLine
 10
-31.12177404626793
 20
-286.0779628378424
 30
0.0
 11
-31.0328563905482
 21
-285.9890451821227
 31
0.0
  0
LINE
  5
309C
330
2E54
100
AcDbEntity
  8
0
 62
     0
100
AcDbLine
 10
-30.97631832295762
 20
-285.9325071145322
 30
0.0
 11
-30.73925648936729
 21
-285.6954452809418
 31
0.0
  0
LINE
  5
309D
330
2E54
100
AcDbEntity
  8
0
 62
     0
100
AcDbLine
 10
-30.99002283632514
 20
-286.0787941493721
 30
0.0
 11
-30.93156545569635
 21
-286.0203367687433
 31
0.0
  0
LINE
  5
309E
330
2E54
100
AcDbEntity
  8
0
 62
     0
100
AcDbLine
 10
-30.84456711301486
 20
-285.9333384260619
 30
0.0
 11
-30.69507831058443
 21
-285.7838496236314
 31
0.0
  0
LINE
  5
309F
330
2E54
100
AcDbEntity
  8
0
 62
     0
100
AcDbLine
 10
-30.7128159030721
 20
-285.9341697375916
 30
0.0
 11
-30.6509001318016
 21
-285.8722539663211
 31
0.0
  0
ENDBLK
  5
30A0
330
2E54
100
AcDbEntity
  8
0
100
AcDbBlockEnd
  0
BLOCK
  5
33E6
330
33DB
100
AcDbEntity
  8
0
100
AcDbBlockBegin
  2
*D16
 70
     1
 10
0.0
 20
0.0
 30
0.0
  3
*D16
  1

  0
LINE
  5
33E8
330
33DB
100
AcDbEntity
  8
0
 62
     0
370
    -2
100
AcDbLine
 10
22.00258026186193
 20
49.3803377259988
 30
0.0
 11
19.11702682304838
 21
50.85060063895042
 31
0.0
  0
LINE
  5
33E9
330
33DB
100
AcDbEntity
  8
0
 62
     0
370
    -2
100
AcDbLine
 10
41.07018125092233
 20
86.80261174191052
 30
0.0
 11
38.18462781210879
 21
88.27287465486213
 31
0.0
  0
LINE
  5
33EA
330
33DB
100
AcDbEntity
  8
0
 62
     0
370
    -2
100
AcDbLine
 10
20.35383074556974
 20
51.76361614113851
 30
0.0
 11
26.81103490704364
 21
64.43659286463921
 31
0.0
  0
LINE
  5
33EB
330
33DB
100
AcDbEntity
  8
0
 62
     0
370
    -2
100
AcDbLine
 10
38.17295786034645
 20
86.73562221553218
 30
0.0
 11
31.71575369887253
 21
74.06264549203147
 31
0.0
  0
SOLID
  5
33EC
330
33DB
100
AcDbEntity
  8
0
 62
     0
100
AcDbTrace
 10
20.14964175044324
 20
51.86765563066216
 30
0.0
 11
20.55801974069625
 21
51.65957665161487
 31
0.0
 12
19.72959380842788
 22
50.53848217037949
 32
0.0
 13
19.72959380842788
 23
50.53848217037949
 33
0.0
  0
SOLID
  5
33ED
330
33DB
100
AcDbEntity
  8
0
 62
     0
100
AcDbTrace
 10
37.96876886521994
 20
86.83966170505582
 30
0.0
 11
38.37714685547295
 21
86.63158272600854
 31
0.0
 12
38.7971947974883
 22
87.96075618629121
 32
0.0
 13
38.7971947974883
 23
87.96075618629121
 33
0.0
  0
MTEXT
  5
33EE
330
33DB
100
AcDbEntity
  8
0
 62
     0
100
AcDbMText
 10
29.26339430295807
 20
69.24961917833536
 30
0.0
 40
1.98
 41
0.0
 46
0.0
 71
     5
 72
     1
  1
\A1;VARIES
  7
ROMANS
 11
0.453990499739534
 21
0.8910065241883744
 31
0.0
 73
     1
 44
1.0
  0
POINT
  5
33EF
330
33DB
100
AcDbEntity
  8
DEFPOINTS
 62
     0
100
AcDbPoint
 10
22.61514724724214
 20
49.06821925742756
 30
0.0
  0
POINT
  5
33F0
330
33DB
100
AcDbEntity
  8
DEFPOINTS
 62
     0
100
AcDbPoint
 10
41.68274823630308
 20
86.490493273339
 30
0.0
  0
POINT
  5
33F1
330
33DB
100
AcDbEntity
  8
DEFPOINTS
 62
     0
100
AcDbPoint
 10
38.79719479748957
 20
87.96075618629066
 30
0.0
  0
ENDBLK
  5
33E7
330
33DB
100
AcDbEntity
  8
0
100
AcDbBlockEnd
  0
ENDSEC
  0
SECTION
  2
ENTITIES
  0
TEXT
  5
CE9
330
1DE8
100
AcDbEntity
  8
0
 62
     5
100
AcDbText
 10
6.342055082588927
 20
171.8630110502847
 30
0.0
 40
4.134780000000001
  1
ALUMINUM SHIPS STAIR TO ROOF HATCH
  7
ROMANC
100
AcDbText
  0
TEXT
  5
CEA
330
1DE8
100
AcDbEntity
  8
0
 62
     5
100
AcDbText
 10
178.2955307816045
 20
10.09452015909829
 30
0.0
 40
2.6532
  1
FACTORY FINISH
  7
ROMANS
 72
     1
 11
194.277902210176
 21
10.09452015909829
 31
0.0
100
AcDbText
  0
TEXT
  5
CEB
330
1DE8
100
AcDbEntity
  8
0
 62
     5
100
AcDbText
 10
171.4287964958902
 20
5.798863016241142
 30
0.0
 40
2.6532
  1
%%OALUMINUM-MILL FINISH
  7
ROMANS
 72
     1
 11
194.277902210176
 21
5.798863016241142
 31
0.0
100
AcDbText
  0
LINE
  5
CED
330
1DE8
100
AcDbEntity
  8
0
 62
     7
100
AcDbLine
 10
11.75458192666843
 20
19.01160411472183
 30
0.0
 11
66.78333047206672
 21
127.0116041147218
 31
0.0
  0
LINE
  5
CEE
330
1DE8
100
AcDbEntity
  8
0
 62
     7
100
AcDbLine
 10
17.36621311484023
 20
19.01160411472183
 30
0.0
 11
72.39496166023855
 21
127.0116041147218
 31
0.0
  0
LINE
  5
CEF
330
1DE8
100
AcDbEntity
  8
0
 62
     7
100
AcDbLine
 10
11.96501809622486
 20
19.01160411472189
 30
0.0
 11
66.99376664162318
 21
127.0116041147218
 31
0.0
  0
LINE
  5
CF0
330
1DE8
100
AcDbEntity
  8
0
 62
     7
100
AcDbLine
 10
17.1557769452838
 20
19.01160411472178
 30
0.0
 11
72.18452549068209
 21
127.0116041147218
 31
0.0
  0
LINE
  5
CF1
330
1DE8
100
AcDbEntity
  8
0
 62
     7
100
AcDbLine
 10
66.78333047206672
 20
127.0116041147218
 30
0.0
 11
72.39496166023855
 21
127.0116041147218
 31
0.0
  0
LINE
  5
CF2
330
1DE8
100
AcDbEntity
  8
0
 62
     7
100
AcDbLine
 10
11.75458192666843
 20
19.01160411472183
 30
0.0
 11
17.36621311484023
 21
19.01160411472183
 31
0.0
  0
LINE
  5
CFA
330
1DE8
100
AcDbEntity
  8
0
 62
     7
100
AcDbLine
 10
140.4844381669137
 20
127.0116041147217
 30
0.0
 11
120.4844381669137
 21
127.0116041147218
 31
0.0
  0
LINE
  5
CFB
330
1DE8
100
AcDbEntity
  8
0
 62
     7
100
AcDbLine
 10
140.4844381669137
 20
125.8866041147217
 30
0.0
 11
120.4844381669137
 21
125.8866041147218
 31
0.0
  0
LINE
  5
D15
330
1DE8
100
AcDbEntity
  8
0
 62
     6
100
AcDbLine
 10
72.39496166023855
 20
127.0116041147218
 30
0.0
 11
72.39496166023854
 21
19.01160411472189
 31
0.0
  0
LINE
  5
D16
330
1DE8
100
AcDbEntity
  8
0
  6
CENTER
 62
     7
100
AcDbLine
 10
71.39496166023855
 20
124.5116041147218
 30
0.0
 11
73.39496166023855
 21
124.5116041147218
 31
0.0
  0
LINE
  5
D1C
330
1DE8
100
AcDbEntity
  8
0
 62
     6
100
AcDbLine
 10
17.36621311484023
 20
19.01160411472183
 30
0.0
 11
72.39496166023855
 21
19.01160411472189
 31
0.0
  0
LINE
  5
D1D
330
1DE8
100
AcDbEntity
  8
0
  6
CENTER
 62
     7
100
AcDbLine
 10
71.39496166023855
 20
122.0116041147218
 30
0.0
 11
73.39496166023855
 21
122.0116041147218
 31
0.0
  0
LINE
  5
D1E
330
1DE8
100
AcDbEntity
  8
0
 62
     7
100
AcDbLine
 10
13.82650494408003
 20
19.01160411472183
 30
0.0
 11
13.82650494408003
 21
22.01160411472184
 31
0.0
  0
LINE
  5
D1F
330
1DE8
100
AcDbEntity
  8
0
 62
     7
100
AcDbLine
 10
13.82650494408003
 20
22.01160411472184
 30
0.0
 11
16.82650494408003
 21
22.01160411472184
 31
0.0
  0
LINE
  5
D20
330
1DE8
100
AcDbEntity
  8
0
 62
     7
100
AcDbLine
 10
16.82650494408003
 20
22.01160411472184
 30
0.0
 11
16.82650494408003
 21
19.01160411472183
 31
0.0
  0
LINE
  5
D21
330
1DE8
100
AcDbEntity
  8
0
 62
     7
100
AcDbLine
 10
16.82650494408003
 20
19.26160411472183
 30
0.0
 11
13.82650494408003
 21
19.26160411472183
 31
0.0
  0
LINE
  5
D22
330
1DE8
100
AcDbEntity
  8
0
 62
     7
100
AcDbLine
 10
138.4844381669137
 20
120.7616041147217
 30
0.0
 11
140.4844381669137
 21
120.7616041147217
 31
0.0
  0
LINE
  5
D23
330
1DE8
100
AcDbEntity
  8
0
 62
     7
100
AcDbLine
 10
138.4844381669137
 20
125.7616041147217
 30
0.0
 11
140.4844381669137
 21
125.7616041147217
 31
0.0
  0
LINE
  5
D24
330
1DE8
100
AcDbEntity
  8
0
 62
     7
100
AcDbLine
 10
138.4844381669137
 20
120.7616041147217
 30
0.0
 11
138.4844381669137
 21
125.7616041147217
 31
0.0
  0
LINE
  5
D25
330
1DE8
100
AcDbEntity
  8
0
 62
     7
100
AcDbLine
 10
140.2344381669137
 20
120.7616041147217
 30
0.0
 11
140.2344381669137
 21
125.7616041147217
 31
0.0
  0
CIRCLE
  5
D26
330
1DE8
100
AcDbEntity
  8
0
 62
     7
100
AcDbCircle
 10
139.3594381669137
 20
124.5116041147217
 30
0.0
 40
0.1875
  0
CIRCLE
  5
D27
330
1DE8
100
AcDbEntity
  8
0
 62
     7
100
AcDbCircle
 10
139.3594381669137
 20
122.0116041147217
 30
0.0
 40
0.1875
  0
LINE
  5
D28
330
1DE8
100
AcDbEntity
  8
0
 62
     7
100
AcDbLine
 10
120.7344381669137
 20
120.7616041147218
 30
0.0
 11
120.7344381669137
 21
125.7616041147218
 31
0.0
  0
LINE
  5
D29
330
1DE8
100
AcDbEntity
  8
0
 62
     7
100
AcDbLine
 10
122.4844381669137
 20
120.7616041147218
 30
0.0
 11
122.4844381669137
 21
125.7616041147218
 31
0.0
  0
LINE
  5
D2A
330
1DE8
100
AcDbEntity
  8
0
 62
     7
100
AcDbLine
 10
122.4844381669137
 20
120.7616041147218
 30
0.0
 11
120.4844381669137
 21
120.7616041147218
 31
0.0
  0
LINE
  5
D2B
330
1DE8
100
AcDbEntity
  8
0
 62
     7
100
AcDbLine
 10
122.4844381669137
 20
125.7616041147218
 30
0.0
 11
120.4844381669137
 21
125.7616041147218
 31
0.0
  0
CIRCLE
  5
D2C
330
1DE8
100
AcDbEntity
  8
0
 62
     7
100
AcDbCircle
 10
121.6094381669137
 20
122.0116041147218
 30
0.0
 40
0.1875
  0
CIRCLE
  5
D2D
330
1DE8
100
AcDbEntity
  8
0
 62
     7
100
AcDbCircle
 10
121.6094381669137
 20
124.5116041147218
 30
0.0
 40
0.1875
  0
LINE
  5
D2E
330
1DE8
100
AcDbEntity
  8
0
 62
     7
100
AcDbLine
 10
200.1298851394985
 20
129.1737970923906
 30
0.0
 11
200.1298851394985
 21
147.1737970923907
 31
0.0
  0
LINE
  5
D2F
330
1DE8
100
AcDbEntity
  8
0
 62
     7
100
AcDbLine
 10
200.1298851394985
 20
147.1737970923907
 30
0.0
 11
185.3208507347846
 21
155.7237970923907
 31
0.0
  0
LINE
  5
D30
330
1DE8
100
AcDbEntity
  8
0
 62
     7
100
AcDbLine
 10
185.3208507347846
 20
155.7237970923907
 30
0.0
 11
179.0854678275367
 21
152.1237970923906
 31
0.0
  0
LINE
  5
D31
330
1DE8
100
AcDbEntity
  8
0
 62
     7
100
AcDbLine
 10
179.0854678275367
 20
134.1237970923907
 30
0.0
 11
179.0854678275367
 21
152.1237970923906
 31
0.0
  0
LINE
  5
D32
330
1DE8
100
AcDbEntity
  8
0
 62
     7
100
AcDbLine
 10
179.8648906909427
 20
133.6737970923906
 30
0.0
 11
179.8648906909427
 21
151.6737970923907
 31
0.0
  0
LINE
  5
D33
330
1DE8
100
AcDbEntity
  8
0
 62
     7
100
AcDbLine
 10
184.0218126291079
 20
154.0737970923906
 30
0.0
 11
179.8648906909427
 21
151.6737970923907
 31
0.0
  0
LINE
  5
D34
330
1DE8
100
AcDbEntity
  8
0
 62
     7
100
AcDbLine
 10
199.3504622760925
 20
146.7237970923906
 30
0.0
 11
186.6198888404612
 21
154.0737970923907
 31
0.0
  0
LINE
  5
D35
330
1DE8
100
AcDbEntity
  8
0
 62
     7
100
AcDbLine
 10
199.3504622760925
 20
128.7237970923907
 30
0.0
 11
199.3504622760925
 21
146.7237970923906
 31
0.0
  0
LINE
  5
D36
330
1DE8
100
AcDbEntity
  8
0
 62
     7
100
AcDbLine
 10
199.3504622760925
 20
128.7237970923907
 30
0.0
 11
186.6198888404615
 21
136.0737970923905
 31
0.0
  0
LINE
  5
D37
330
1DE8
100
AcDbEntity
  8
0
 62
     7
100
AcDbLine
 10
199.3504622760925
 20
128.7237970923907
 30
0.0
 11
200.1298851394985
 21
129.1737970923906
 31
0.0
  0
LINE
  5
D38
330
1DE8
100
AcDbEntity
  8
0
 62
     7
100
AcDbLine
 10
199.3504622760925
 20
146.7237970923906
 30
0.0
 11
200.1298851394985
 21
147.1737970923907
 31
0.0
  0
LINE
  5
D39
330
1DE8
100
AcDbEntity
  8
0
 62
     7
100
AcDbLine
 10
179.8648906909427
 20
151.6737970923907
 30
0.0
 11
179.0854678275367
 21
152.1237970923906
 31
0.0
  0
LINE
  5
D3A
330
1DE8
100
AcDbEntity
  8
0
 62
     7
100
AcDbLine
 10
179.0854678275367
 20
134.1237970923907
 30
0.0
 11
179.8648906909427
 21
133.6737970923906
 31
0.0
  0
LINE
  5
D3B
330
1DE8
100
AcDbEntity
  8
0
 62
     7
100
AcDbLine
 10
184.0218126291081
 20
136.0737970923907
 30
0.0
 11
179.8648906909427
 21
133.6737970923906
 31
0.0
  0
LINE
  5
D77
330
1DE8
100
AcDbEntity
  8
0
 62
     7
100
AcDbLine
 10
204.244023387883
 20
69.71802042703491
 30
0.0
 11
204.2440233878831
 21
61.84302042703492
 31
0.0
  0
LINE
  5
D78
330
1DE8
100
AcDbEntity
  8
0
 62
     7
100
AcDbLine
 10
179.0440233878829
 20
69.71802042703491
 30
0.0
 11
179.0440233878828
 21
61.84302042703492
 31
0.0
  0
LINE
  5
D79
330
1DE8
100
AcDbEntity
  8
0
 62
     7
100
AcDbLine
 10
179.0440233878828
 20
61.84302042703492
 30
0.0
 11
204.2440233878831
 21
61.84302042703492
 31
0.0
  0
CIRCLE
  5
D7A
330
1DE8
100
AcDbEntity
  8
0
 62
     7
100
AcDbCircle
 10
199.5190233878829
 20
64.9930204270349
 30
0.0
 40
1.18125
  0
CIRCLE
  5
D7B
330
1DE8
100
AcDbEntity
  8
0
 62
     7
100
AcDbCircle
 10
183.7690233878828
 20
64.9930204270349
 30
0.0
 40
1.18125
  0
LINE
  5
D97
330
1DE8
100
AcDbEntity
  8
0
 62
     7
100
AcDbLine
 10
0.0123654101747661
 20
16.72430181016855
 30
0.0
 11
3.476467025312558
 21
18.72430181016855
 31
0.0
  0
LINE
  5
D98
330
1DE8
100
AcDbEntity
  8
0
 62
     7
100
AcDbLine
 10
3.476467025312558
 20
18.72430181016855
 30
0.0
 11
3.476467025312558
 21
24.72430181016855
 31
0.0
  0
LINE
  5
D99
330
1DE8
100
AcDbEntity
  8
0
 62
     7
100
AcDbLine
 10
3.476467025312558
 20
24.72430181016855
 30
0.0
 11
-1.719685397394073
 21
27.72430181016855
 31
0.0
  0
LINE
  5
D9A
330
1DE8
100
AcDbEntity
  8
0
 62
     7
100
AcDbLine
 10
3.043454323420348
 20
18.97430181016854
 30
0.0
 11
3.043454323420348
 21
24.47430181016855
 31
0.0
  0
LINE
  5
D9B
330
1DE8
100
AcDbEntity
  8
0
 62
     7
100
AcDbLine
 10
0.0123654101747661
 20
17.22430181016855
 30
0.0
 11
3.043454323420348
 21
18.97430181016854
 31
0.0
  0
LINE
  5
D9C
330
1DE8
100
AcDbEntity
  8
0
 62
     7
100
AcDbLine
 10
3.043454323420348
 20
24.47430181016855
 30
0.0
 11
-2.152698099286283
 21
27.47430181016855
 31
0.0
  0
LINE
  5
DA1
330
1DE8
100
AcDbEntity
  8
0
 62
     7
100
AcDbLine
 10
3.043454323420348
 20
24.47430181016855
 30
0.0
 11
3.476467025312558
 21
24.72430181016855
 31
0.0
  0
LINE
  5
DA2
330
1DE8
100
AcDbEntity
  8
0
 62
     7
100
AcDbLine
 10
-2.152698099286283
 20
27.47430181016855
 30
0.0
 11
-1.719685397394073
 21
27.72430181016855
 31
0.0
  0
LINE
  5
DA3
330
1DE8
100
AcDbEntity
  8
0
 62
     7
100
AcDbLine
 10
-2.152698099286283
 20
21.97430181016855
 30
0.0
 11
-2.152698099286283
 21
27.47430181016855
 31
0.0
  0
LINE
  5
DA4
330
1DE8
100
AcDbEntity
  8
0
 62
     7
100
AcDbLine
 10
-5.183787012531865
 20
20.22430181016855
 30
0.0
 11
-2.152698099286283
 21
21.97430181016855
 31
0.0
  0
LINE
  5
DA5
330
1DE8
100
AcDbEntity
  8
0
 62
     7
100
AcDbLine
 10
3.043454323420348
 20
18.97430181016854
 30
0.0
 11
-2.152698099286283
 21
21.97430181016855
 31
0.0
  0
LINE
  5
DA6
330
1DE8
100
AcDbEntity
  8
0
 62
     7
100
AcDbLine
 10
0.0123654101747661
 20
17.22430181016855
 30
0.0
 11
-5.183787012531865
 21
20.22430181016855
 31
0.0
  0
LINE
  5
DA7
330
1DE8
100
AcDbEntity
  8
0
 62
     7
100
AcDbLine
 10
0.0123654101747661
 20
16.72430181016855
 30
0.0
 11
-5.183787012531865
 21
19.72430181016855
 31
0.0
  0
LINE
  5
DA8
330
1DE8
100
AcDbEntity
  8
0
 62
     7
100
AcDbLine
 10
0.0123654101747661
 20
16.72430181016855
 30
0.0
 11
0.0123654101747661
 21
17.22430181016855
 31
0.0
  0
LINE
  5
DA9
330
1DE8
100
AcDbEntity
  8
0
 62
     7
100
AcDbLine
 10
-5.183787012531865
 20
19.72430181016855
 30
0.0
 11
-5.183787012531865
 21
20.22430181016855
 31
0.0
  0
LWPOLYLINE
  5
DAA
330
1DE8
100
AcDbEntity
  8
0
 62
     7
100
AcDbPolyline
 90
       16
 70
     1
 43
0.0
 10
-1.07016634455573
 20
19.86446685311349
 42
0.0587518675353691
 10
-1.254579699088708
 20
19.84272253852659
 42
0.0723410840576782
 10
-1.39492587097493
 20
19.78680181016855
 42
0.1066170543910112
 10
-1.499653124546341
 20
19.69193603231957
 42
0.1568512196707664
 10
-1.529445671327607
 20
19.59930181016854
 42
0.1568512196707728
 10
-1.499653124546341
 20
19.5066675880175
 42
0.1066170543910009
 10
-1.39492587097493
 20
19.41180181016855
 42
0.072341084057652
 10
-1.254579699088708
 20
19.3558810818105
 42
0.0587518675353623
 10
-1.07016634455573
 20
19.33413676722357
 42
0.058751867535364
 10
-0.8857529900228087
 20
19.3558810818105
 42
0.0723410840576324
 10
-0.745406818136587
 20
19.41180181016855
 42
0.1066170543910291
 10
-0.6406795645651755
 20
19.50666758801753
 42
0.15685121967079
 10
-0.6108870177839095
 20
19.59930181016854
 42
0.1568512196707785
 10
-0.6406795645651755
 20
19.69193603231957
 42
0.1066170543910104
 10
-0.745406818136587
 20
19.78680181016855
 42
0.072341084057674
 10
-0.8857529900228087
 20
19.84272253852659
 42
0.0587518675353814
  0
LWPOLYLINE
  5
DBC
330
1DE8
100
AcDbEntity
  8
0
 62
     7
100
AcDbPolyline
 90
        2
 70
     0
 43
0.0
 10
-1.07016634455573
 20
19.36446685311349
 42
0.04901355407364
 10
-1.224497241552285
 20
19.34930181016855
 42
0.0723410840576782
  0
LWPOLYLINE
  5
DC0
330
1DE8
100
AcDbEntity
  8
0
 62
     7
100
AcDbPolyline
 90
        2
 70
     0
 43
0.0
 10
-0.9158354475592318
 20
19.34930181016855
 42
0.0490135540736445
 10
-1.07016634455573
 20
19.36446685311349
 42
0.0587518675353691
  0
DIMENSION
  5
DC8
330
1DE8
100
AcDbEntity
  8
0
 62
     7
100
AcDbDimension
  2
*D8
 10
118.4844381669137
 20
13.09800820521873
 30
0.0
 11
130.4844381669137
 21
13.09800820521873
 31
0.0
 70
    32
  1
24" STD
 71
     5
 42
24.0
 73
     0
 74
     0
 75
     0
  3
STANDARD$0
100
AcDbAlignedDimension
 13
142.4844381669137
 23
19.01160411472175
 33
0.0
 14
118.4844381669137
 24
19.01160411472183
 34
0.0
100
AcDbRotatedDimension
  0
CIRCLE
  5
DD6
330
1DE8
100
AcDbEntity
  8
0
  6
PHANTOM
 62
     7
100
AcDbCircle
 10
52.60431558713318
 20
94.18919167587421
 30
0.0
 40
3.699140214117444
  0
LINE
  5
DD7
330
1DE8
100
AcDbEntity
  8
0
 62
     7
100
AcDbLine
 10
56.30345580125063
 20
94.18919167587421
 30
0.0
 11
59.71249453410502
 21
94.18919167587421
 31
0.0
  0
TEXT
  5
DD8
330
1DE8
100
AcDbEntity
  8
0
 62
     7
100
AcDbText
 10
61.05694505913298
 20
92.7468185897089
 30
0.0
 40
2.948
  1
B
  7
ROMANS
 72
     1
 11
62.60113553532346
 21
92.7468185897089
 31
0.0
100
AcDbText
  0
CIRCLE
  5
DD9
330
1DE8
100
AcDbEntity
  8
0
 62
     7
100
AcDbCircle
 10
62.4012510706377
 20
94.18919167587421
 30
0.0
 40
2.688756536532666
  0
CIRCLE
  5
DDA
330
1DE8
100
AcDbEntity
  8
0
 62
     7
100
AcDbCircle
 10
111.6784718492324
 20
123.3723504737954
 30
0.0
 40
2.688756536532666
  0
LINE
  5
DDB
330
1DE8
100
AcDbEntity
  8
0
 62
     7
100
AcDbLine
 10
117.7762671186194
 20
123.3723504737954
 30
0.0
 11
114.367228385765
 21
123.3723504737954
 31
0.0
  0
TEXT
  5
DDC
330
1DE8
100
AcDbEntity
  8
0
 62
     7
100
AcDbText
 10
110.4819611961586
 20
122.1160057716594
 30
0.0
 40
2.948
  1
A
  7
ROMANS
 72
     1
 11
111.7453897675871
 21
122.1160057716594
 31
0.0
100
AcDbText
  0
CIRCLE
  5
DDD
330
1DE8
100
AcDbEntity
  8
0
  6
PHANTOM
 62
     7
100
AcDbCircle
 10
121.4754073327369
 20
123.3723504737954
 30
0.0
 40
3.699140214117444
  0
TEXT
  5
DDF
330
1DE8
100
AcDbEntity
  8
0
 62
     7
100
AcDbText
 10
78.77372699491695
 20
70.41517818709407
 30
0.0
 40
1.768799999999999
  1
NOTE:
  7
ROMANS
100
AcDbText
  0
TEXT
  5
DE0
330
1DE8
100
AcDbEntity
  8
0
 62
     7
100
AcDbText
 10
78.77372699491695
 20
67.55140675852264
 30
0.0
 40
1.768799999999999
  1
ALL BOLTS/FASTENERS
  7
ROMANS
100
AcDbText
  0
TEXT
  5
DE1
330
1DE8
100
AcDbEntity
  8
0
 62
     7
100
AcDbText
 10
78.77372699491695
 20
64.68763532995122
 30
0.0
 40
1.768799999999999
  1
NECESSARY TO ANCHOR
  7
ROMANS
100
AcDbText
  0
TEXT
  5
DE2
330
1DE8
100
AcDbEntity
  8
0
 62
     7
100
AcDbText
 10
78.77372699491695
 20
61.82386390137979
 30
0.0
 40
1.768799999999999
  1
LADDER ARE BY OTHERS.
  7
ROMANS
100
AcDbText
  0
TEXT
  5
DE3
330
1DE8
100
AcDbEntity
  8
0
 62
     7
100
AcDbText
 10
81.20232091593234
 20
109.9969346140707
 30
0.0
 40
1.768799999999999
  1
5" x 2" x 3/16"
  7
ROMANS
 72
     1
 11
93.1206637730752
 21
109.9969346140707
 31
0.0
100
AcDbText
  0
TEXT
  5
DE4
330
1DE8
100
AcDbEntity
  8
0
 62
     7
100
AcDbText
 10
79.68620663021804
 20
107.1331631854993
 30
0.0
 40
1.768799999999999
  1
ALUMINUM CHANNEL
  7
ROMANS
 72
     1
 11
93.1206637730752
 21
107.1331631854993
 31
0.0
100
AcDbText
  0
TEXT
  5
DE5
330
1DE8
100
AcDbEntity
  8
0
 62
     7
100
AcDbText
 10
86.88774948736091
 20
104.2693917569278
 30
0.0
 40
1.768799999999999
  1
STRINGER
  7
ROMANS
 72
     1
 11
93.1206637730752
 21
104.2693917569278
 31
0.0
100
AcDbText
  0
TEXT
  5
DE6
330
1DE8
100
AcDbEntity
  8
0
 62
     7
100
AcDbText
 10
85.96123520164661
 20
101.4056203283564
 30
0.0
 40
1.768799999999999
  1
(6005-T5)
  7
ROMANS
 72
     1
 11
93.1206637730752
 21
101.4056203283564
 31
0.0
100
AcDbText
  0
SOLID
  5
DE7
330
1DE8
100
AcDbEntity
  8
0
 62
     7
100
AcDbTrace
 10
68.32017723821252
 20
116.0228186283077
 30
0.0
 11
68.55317742935856
 21
116.4175088300741
 31
0.0
 12
67.25260672848648
 22
116.919164302629
 32
0.0
 13
67.25260672848648
 23
116.919164302629
 33
0.0
  0
LINE
  5
DE8
330
1DE8
100
AcDbEntity
  8
0
 62
     7
100
AcDbLine
 10
68.43667733378556
 20
116.2201637291909
 30
0.0
 11
77.02197407436912
 21
111.1519462445688
 31
0.0
  0
LINE
  5
DE9
330
1DE8
100
AcDbEntity
  8
0
 62
     7
100
AcDbLine
 10
77.02197407436912
 20
111.1519462445688
 30
0.0
 11
80.55706933068938
 21
111.1519462445688
 31
0.0
  0
TEXT
  5
DEA
330
1DE8
100
AcDbEntity
  8
0
 62
     7
100
AcDbText
 10
-7.996525909896488
 20
67.61637423358202
 30
0.0
 40
1.768799999999999
  1
INTERNAL
  7
ROMANS
 72
     1
 11
-1.847840195610775
 21
67.61637423358202
 31
0.0
100
AcDbText
  0
TEXT
  5
DEB
330
1DE8
100
AcDbEntity
  8
0
 62
     7
100
AcDbText
 10
-8.333440195610775
 20
64.75260280501058
 30
0.0
 40
1.768799999999999
  1
ALUMINUM
  7
ROMANS
 72
     1
 11
-1.847840195610775
 21
64.75260280501058
 31
0.0
100
AcDbText
  0
TEXT
  5
DEC
330
1DE8
100
AcDbEntity
  8
0
 62
     7
100
AcDbText
 10
-7.322697338467917
 20
61.88883137643912
 30
0.0
 40
1.768799999999999
  1
FITTINGS
  7
ROMANS
 72
     1
 11
-1.847840195610775
 21
61.88883137643912
 31
0.0
100
AcDbText
  0
TEXT
  5
DED
330
1DE8
100
AcDbEntity
  8
0
 62
     7
100
AcDbText
 10
0.2613894816736018
 20
100.3185375806904
 30
0.0
 40
1.768799999999999
  1
ALUMINUM PIPE
  7
ROMANS
 72
     1
 11
10.62150376738789
 21
100.3185375806904
 31
0.0
100
AcDbText
  0
TEXT
  5
DEE
330
1DE8
100
AcDbEntity
  8
0
 62
     7
100
AcDbText
 10
3.462075195959316
 20
94.59099472354763
 30
0.0
 40
1.768799999999999
  1
(6005-T5)
  7
ROMANS
 72
     1
 11
10.62150376738789
 21
94.59099472354763
 31
0.0
100
AcDbText
  0
TEXT
  5
DEF
330
1DE8
100
AcDbEntity
  8
0
 62
     7
100
AcDbText
 10
4.304360910245033
 20
97.45476615211902
 30
0.0
 40
1.768799999999999
  1
HANDRAIL
  7
ROMANS
 72
     1
 11
10.62150376738789
 21
97.45476615211902
 31
0.0
100
AcDbText
  0
TEXT
  5
DF0
330
1DE8
100
AcDbEntity
  8
0
 62
     7
100
AcDbText
 10
-0.7493533754692532
 20
103.1823090092619
 30
0.0
 40
1.768799999999999
  1
1-1/4" SCH 40
  7
ROMANS
 72
     1
 11
10.62150376738789
 21
103.1823090092619
 31
0.0
100
AcDbText
  0
SOLID
  5
DF1
330
1DE8
100
AcDbEntity
  8
0
 62
     7
100
AcDbTrace
 10
27.59091078140115
 20
88.6714324716233
 30
0.0
 11
27.31370997122819
 21
88.30642677949795
 31
0.0
 12
28.54732745269068
 22
87.65732719504175
 32
0.0
 13
28.54732745269068
 23
87.65732719504175
 33
0.0
  0
LINE
  5
DF2
330
1DE8
100
AcDbEntity
  8
0
 62
     7
100
AcDbLine
 10
27.45231037631466
 20
88.48892962556062
 30
0.0
 11
22.37691949589724
 21
92.3433968142889
 31
0.0
  0
LINE
  5
DF3
330
1DE8
100
AcDbEntity
  8
0
 62
     7
100
AcDbLine
 10
22.37691949589724
 20
92.3433968142889
 30
0.0
 11
19.6798961631291
 21
92.34339681428892
 31
0.0
  0
LINE
  5
DF4
330
1DE8
100
AcDbEntity
  8
0
 62
     7
100
AcDbLine
 10
12.20436578771743
 20
58.8750490939465
 30
0.0
 11
7.128974907300015
 21
62.72951628267477
 31
0.0
  0
SOLID
  5
DF5
330
1DE8
100
AcDbEntity
  8
0
 62
     7
100
AcDbTrace
 10
12.34296619280389
 20
59.05755194000917
 30
0.0
 11
12.06576538263097
 21
58.69254624788382
 31
0.0
 12
13.29938286409345
 22
58.04344666342763
 32
0.0
 13
13.29938286409345
 23
58.04344666342763
 33
0.0
  0
LINE
  5
DF6
330
1DE8
100
AcDbEntity
  8
0
 62
     7
100
AcDbLine
 10
7.128974907300015
 20
62.72951628267477
 30
0.0
 11
4.431951574531876
 21
62.72951628267481
 31
0.0
  0
CIRCLE
  5
DF7
330
1DE8
100
AcDbEntity
  8
0
 62
     5
100
AcDbCircle
 10
170.8892065748578
 20
171.5031529871793
 30
0.0
 40
2.4198808828794
  0
TEXT
  5
DF8
330
1DE8
100
AcDbEntity
  8
0
 62
     5
100
AcDbText
 10
169.8123469870914
 20
170.3724427552569
 30
0.0
 40
2.6532
  1
A
  7
ROMANS
 72
     1
 11
170.9494327013771
 21
170.3724427552569
 31
0.0
100
AcDbText
  0
TEXT
  5
DF9
330
1DE8
100
AcDbEntity
  8
0
 62
     5
100
AcDbText
 10
175.1735401663613
 20
170.3724427552569
 30
0.0
 40
2.6532
  1
MOUNTING BRACKET
  7
ROMANS
100
AcDbText
  0
TEXT
  5
DFA
330
1DE8
100
AcDbEntity
  8
0
 62
     7
100
AcDbText
 10
185.8960388763023
 20
166.5786388386335
 30
0.0
 40
1.59192
  1
(6005-T5)
  7
ROMANS
100
AcDbText
  0
DIMENSION
  5
DFB
330
1DE8
100
AcDbEntity
  8
0
 62
     7
100
AcDbDimension
  2
*D5
 10
208.2337019578584
 20
151.8525379139342
 30
0.0
 11
208.2337019578584
 21
142.8525379139342
 31
0.0
 70
    32
  1
5"
 71
     5
 42
18.00000000000003
 73
     0
 74
     0
 75
     0
  3
STANDARD
100
AcDbAlignedDimension
 13
200.1298851394985
 23
129.1737970923906
 33
0.0
 14
200.1298851394985
 24
147.1737970923907
 34
0.0
 50
90.0
100
AcDbRotatedDimension
  0
DIMENSION
  5
DFC
330
1DE8
100
AcDbEntity
  8
0
 62
     7
100
AcDbDimension
  2
*D4
 10
193.4246675531444
 20
160.4025379139341
 30
0.0
 11
200.8291847555013
 21
156.1275379139341
 31
0.0
 70
    33
  1
4-3/4"
 71
     5
 42
17.09999999999999
 73
     0
 74
     0
 75
     0
  3
STANDARD
100
AcDbAlignedDimension
 13
200.1298851394985
 23
147.1737970923907
 33
0.0
 14
185.3208507347846
 24
155.7237970923907
 34
0.0
  0
DIMENSION
  5
DFE
330
1DE8
100
AcDbEntity
  8
0
 62
     7
100
AcDbDimension
  2
*D3
 10
172.4718016390797
 20
142.9053951381547
 30
0.0
 11
172.4718016390797
 21
138.4053951381547
 31
0.0
 70
    33
  1
2-1/2"
 71
     5
 42
9.000000000000028
 73
     0
 74
     0
 75
     0
  3
STANDARD
100
AcDbAlignedDimension
 13
182.0083035653092
 23
139.4112970923906
 33
0.0
 14
182.0083035653092
 24
148.4112970923907
 34
0.0
  0
SOLID
  5
DFF
330
1DE8
100
AcDbEntity
  8
0
 62
     7
100
AcDbTrace
 10
183.2339383643281
 20
138.0989022138292
 30
0.0
 11
183.601076283088
 21
138.2869607116659
 31
0.0
 12
182.853331830198
 22
139.2943452190275
 32
0.0
 13
182.853331830198
 23
139.2943452190275
 33
0.0
  0
LINE
  5
E00
330
1DE8
100
AcDbEntity
  8
0
 62
     7
100
AcDbLine
 10
183.417507323708
 20
138.1929314627476
 30
0.0
 11
188.5492656508636
 21
128.1744367205042
 31
0.0
  0
LINE
  5
E01
330
1DE8
100
AcDbEntity
  8
0
 62
     7
100
AcDbLine
 10
188.5492656508636
 20
128.1744367205042
 30
0.0
 11
186.2378112613292
 21
128.1744367205042
 31
0.0
  0
TEXT
  5
E02
330
1DE8
100
AcDbEntity
  8
0
 62
     7
100
AcDbText
 10
178.8098267396533
 20
127.4319367205042
 30
0.0
 40
1.484999999999999
  1
%%C3/8"
  7
ROMANS
 72
     2
 11
185.3862553110819
 21
128.1744367205042
 31
0.0
100
AcDbText
 73
     2
  0
DIMENSION
  5
E03
330
1DE8
100
AcDbEntity
  8
0
 62
     7
100
AcDbDimension
  2
*D6
 10
200.1298851394984
 20
125.4993759108923
 30
0.0
 11
193.4675854212336
 21
123.9061863394442
 31
0.0
 70
   161
  1
1/4"
 71
     5
 42
0.8999999999999772
 73
     0
 74
     0
 75
     0
  3
STANDARD
100
AcDbAlignedDimension
 13
199.3504622760925
 23
128.7237970923907
 33
0.0
 14
200.1298851394985
 24
129.1737970923906
 34
0.0
  0
DIMENSION
  5
E04
330
1DE8
100
AcDbEntity
  8
0
 62
     7
100
AcDbDimension
  2
*D2
 10
178.1722715829707
 20
76.67914897278961
 30
0.0
 11
194.6401475363519
 21
76.67914897278961
 31
0.0
 70
    32
  1
5-3/16"
 71
     5
 42
32.93575190676236
 73
     0
 74
     0
 75
     0
  3
STANDARD
100
AcDbAlignedDimension
 13
211.1080234897331
 23
70.11177042703491
 33
0.0
 14
178.1722715829707
 24
70.29052918630736
 34
0.0
100
AcDbRotatedDimension
  0
DIMENSION
  5
E05
330
1DE8
100
AcDbEntity
  8
0
 62
     7
100
AcDbDimension
  2
*D1
 10
204.2440233878831
 20
56.96372831767194
 30
0.0
 11
191.6440233878829
 21
56.96372831767194
 31
0.0
 70
    32
  1
4"
 71
     5
 42
25.20000000000036
 73
     0
 74
     0
 75
     0
  3
STANDARD
100
AcDbAlignedDimension
 13
179.0440233878828
 23
61.84302042703492
 33
0.0
 14
204.2440233878831
 24
61.84302042703492
 34
0.0
100
AcDbRotatedDimension
  0
TEXT
  5
E06
330
1DE8
100
AcDbEntity
  8
0
 62
     5
100
AcDbText
 10
175.1735401663613
 20
87.53378794353171
 30
0.0
 40
2.6532
  1
ALUMINUM TREAD
  7
ROMANS
100
AcDbText
  0
CIRCLE
  5
E07
330
1DE8
100
AcDbEntity
  8
0
 62
     5
100
AcDbCircle
 10
170.8892065748578
 20
88.66449817545413
 30
0.0
 40
2.4198808828794
  0
TEXT
  5
E08
330
1DE8
100
AcDbEntity
  8
0
 62
     5
100
AcDbText
 10
169.6615669324402
 20
87.2690110630466
 30
0.0
 40
2.6532
  1
B
  7
ROMANS
 72
     1
 11
171.0513383610116
 21
87.2690110630466
 31
0.0
100
AcDbText
  0
TEXT
  5
E09
330
1DE8
100
AcDbEntity
  8
0
 62
     7
100
AcDbText
 10
185.9402222558483
 20
83.73194060632727
 30
0.0
 40
1.59192
  1
(6005-T5)
  7
ROMANS
100
AcDbText
  0
TEXT
  5
E0A
330
1DE8
100
AcDbEntity
  8
0
 62
     7
100
AcDbText
 10
179.2647204730049
 20
116.9314638267219
 30
0.0
 40
1.59192
  1
BRACKET WELDED TO
  7
ROMANS
100
AcDbText
  0
TEXT
  5
E0B
330
1DE8
100
AcDbEntity
  8
0
 62
     7
100
AcDbText
 10
179.2647204730049
 20
114.3540695410076
 30
0.0
 40
1.59192
  1
INSIDE OF STRINGER
  7
ROMANS
100
AcDbText
  0
TEXT
  5
E0D
330
1DE8
100
AcDbEntity
  8
0
 62
     7
100
AcDbText
 10
175.0584168933128
 20
51.52162891950499
 30
0.0
 40
1.59192
  1
1-1/4" x 1-1/4" x 1/4"
  7
ROMANS
100
AcDbText
  0
TEXT
  5
E0E
330
1DE8
100
AcDbEntity
  8
0
 62
     7
100
AcDbText
 10
175.0584168933128
 20
48.9442346337907
 30
0.0
 40
1.59192
  1
ANGLE WELDED TO TREAD
  7
ROMANS
100
AcDbText
  0
TEXT
  5
E0F
330
1DE8
100
AcDbEntity
  8
0
 62
     7
100
AcDbText
 10
175.0584168933128
 20
42.86910487802299
 30
0.0
 40
1.59192
  1
TREAD WELDED AND BOLTED
  7
ROMANS
100
AcDbText
  0
TEXT
  5
E10
330
1DE8
100
AcDbEntity
  8
0
 62
     7
100
AcDbText
 10
177.4951036637786
 20
40.2917105923087
 30
0.0
 40
1.59192
  1
TO STRINGER WITH 1/4"
  7
ROMANS
100
AcDbText
  0
TEXT
  5
E11
330
1DE8
100
AcDbEntity
  8
0
 62
     7
100
AcDbText
 10
179.7102737694326
 20
37.71431630659443
 30
0.0
 40
1.59192
  1
ROUND HEAD BOLTS
  7
ROMANS
100
AcDbText
  0
CIRCLE
  5
E12
330
1DE8
100
AcDbEntity
  8
0
  6
PHANTOM
 62
     7
100
AcDbCircle
 10
15.35411000140158
 20
20.69633799461543
 30
0.0
 40
3.699140214117444
  0
TEXT
  5
E13
330
1DE8
100
AcDbEntity
  8
0
 62
     7
100
AcDbText
 10
-12.99875031962067
 20
12.01481508016393
 30
0.0
 40
1.768799999999999
  1
1/4" x 2" x 3"
  7
ROMANS
 72
     1
 11
-1.796350319620671
 21
12.01481508016393
 31
0.0
100
AcDbText
  0
TEXT
  5
E14
330
1DE8
100
AcDbEntity
  8
0
 62
     7
100
AcDbText
 10
-12.78817889104924
 20
9.15104365159248
 30
0.0
 40
1.768799999999999
  1
FLOOR BRACKET
  7
ROMANS
 72
     1
 11
-1.796350319620671
 21
9.15104365159248
 31
0.0
100
AcDbText
  0
CIRCLE
  5
E16
330
1DE8
100
AcDbEntity
  8
0
 62
     7
100
AcDbCircle
 10
-0.3348543643938342
 20
21.91396875200497
 30
0.0
 40
6.677779230743183
  0
SOLID
  5
E17
330
1DE8
100
AcDbEntity
  8
0
 62
     7
100
AcDbTrace
 10
-2.157028358227591
 20
20.95399594999039
 30
0.0
 11
-2.494383079939893
 21
20.64373600062078
 31
0.0
 12
-1.39492587097493
 22
19.78680181016855
 32
0.0
 13
-1.39492587097493
 23
19.78680181016855
 33
0.0
  0
LINE
  5
E18
330
1DE8
100
AcDbEntity
  8
0
 62
     7
100
AcDbLine
 10
-2.325705719083714
 20
20.7988659753056
 30
0.0
 11
-7.931379019159464
 21
26.89407858653612
 31
0.0
  0
LINE
  5
E19
330
1DE8
100
AcDbEntity
  8
0
 62
     7
100
AcDbLine
 10
-7.931379019159464
 20
26.89407858653612
 30
0.0
 11
-9.207967553422008
 21
26.8940785865361
 31
0.0
  0
TEXT
  5
E1A
330
1DE8
100
AcDbEntity
  8
0
 62
     7
100
AcDbText
 10
-16.47775262474452
 20
26.0690785865361
 30
0.0
 40
1.649999999999999
  1
%%c3/8"
  7
ROMANS
 72
     2
 11
-9.170609767601661
 21
26.8940785865361
 31
0.0
100
AcDbText
 73
     2
  0
LINE
  5
E2B
330
1DE8
100
AcDbEntity
  8
0
 62
     7
100
AcDbLine
 10
-0.9378629774201243
 20
157.8450127304863
 30
0.0
 11
22.46213702257988
 21
157.8450127304863
 31
0.0
  0
LINE
  5
E2C
330
1DE8
100
AcDbEntity
  8
0
 62
     7
100
AcDbLine
 10
-0.9378629774201243
 20
157.3950127304863
 30
0.0
 11
22.46213702257988
 21
157.3950127304863
 31
0.0
  0
LINE
  5
E2D
330
1DE8
100
AcDbEntity
  8
0
 62
     7
100
AcDbLine
 10
-0.9378629774201243
 20
156.9450127304864
 30
0.0
 11
22.46213702257988
 21
156.9450127304864
 31
0.0
  0
LINE
  5
E2E
330
1DE8
100
AcDbEntity
  8
0
 62
     7
100
AcDbLine
 10
-0.9378629774201243
 20
156.4950127304864
 30
0.0
 11
22.46213702257988
 21
156.4950127304864
 31
0.0
  0
LINE
  5
E2F
330
1DE8
100
AcDbEntity
  8
0
 62
     7
100
AcDbLine
 10
-0.9378629774201243
 20
156.0450127304864
 30
0.0
 11
22.46213702257988
 21
156.0450127304864
 31
0.0
  0
LINE
  5
E30
330
1DE8
100
AcDbEntity
  8
0
 62
     7
100
AcDbLine
 10
-0.9378629774201243
 20
158.2950127304864
 30
0.0
 11
22.46213702257988
 21
158.2950127304864
 31
0.0
  0
LINE
  5
E31
330
1DE8
100
AcDbEntity
  8
0
 62
     7
100
AcDbLine
 10
-0.9378629774201243
 20
158.7450127304864
 30
0.0
 11
22.46213702257988
 21
158.7450127304864
 31
0.0
  0
LINE
  5
E32
330
1DE8
100
AcDbEntity
  8
0
 62
     7
100
AcDbLine
 10
-0.9378629774201243
 20
159.1950127304864
 30
0.0
 11
22.46213702257988
 21
159.1950127304864
 31
0.0
  0
LINE
  5
E33
330
1DE8
100
AcDbEntity
  8
0
 62
     7
100
AcDbLine
 10
-0.9378629774201243
 20
159.6450127304863
 30
0.0
 11
22.46213702257988
 21
159.6450127304863
 31
0.0
  0
LINE
  5
E34
330
1DE8
100
AcDbEntity
  8
0
 62
     7
100
AcDbLine
 10
-0.9378629774201243
 20
155.5273046906707
 30
0.0
 11
22.46213702257988
 21
155.5273046906707
 31
0.0
  0
LINE
  5
E35
330
1DE8
100
AcDbEntity
  8
0
 62
     7
100
AcDbLine
 10
-0.9378629774201243
 20
160.1277727600253
 30
0.0
 11
22.46213702257988
 21
160.1277727600253
 31
0.0
  0
DIMENSION
  5
E36
330
1DE8
100
AcDbEntity
  8
0
 62
     7
100
AcDbDimension
  2
*D7
 10
-0.9378629774201245
 20
151.3411276533762
 30
0.0
 11
10.76213702257987
 21
151.3411276533762
 31
0.0
 70
    32
  1
20"
 71
     5
 42
23.4
 73
     0
 74
     0
 75
     0
  3
STANDARD
100
AcDbAlignedDimension
 13
22.46213702257988
 23
155.3023046906707
 33
0.0
 14
-0.9378629774201243
 24
155.3023046906707
 34
0.0
100
AcDbRotatedDimension
  0
TEXT
  5
E37
330
1DE8
100
AcDbEntity
  8
0
 62
     5
100
AcDbText
 10
5.133040616641352
 20
144.3516355130987
 30
0.0
 40
2.6532
  1
PLAN
  7
ROMANS
100
AcDbText
  0
INSERT
  5
E5D
330
1DE8
100
AcDbEntity
  8
0
100
AcDbBlockReference
  2
LINETYPE
 10
0.0
 20
0.0
 30
0.0
  0
INSERT
  5
E5E
330
1DE8
100
AcDbEntity
  8
0
100
AcDbBlockReference
  2
LINETYPE
 10
118.9029004192125
 20
326.6806855151206
 30
0.0
  0
INSERT
  5
E5F
330
1DE8
100
AcDbEntity
  8
0
100
AcDbBlockReference
  2
LINETYPE
 10
485.3944940447622
 20
316.6055934590419
 30
0.0
  0
LINE
  5
1028
330
1DE8
100
AcDbEntity
  8
0
 62
     7
100
AcDbLine
 10
48.66909284395719
 20
124.1563771497006
 30
0.0
 11
45.61263652138119
 21
118.1577438613954
 31
0.0
  0
LINE
  5
1029
330
1DE8
100
AcDbEntity
  8
0
 62
     7
100
AcDbLine
 10
47.33258305767463
 20
124.83736289931
 30
0.0
 11
13.29938286409345
 21
58.04344666342761
 31
0.0
  0
LWPOLYLINE
  5
102A
330
1DE8
100
AcDbEntity
  8
0
 62
     7
100
AcDbPolyline
 90
        4
 70
     1
 43
0.0
 10
32.93483073198864
 20
90.94762142580794
 10
31.99292152919484
 20
91.42754813574434
 42
1.0
 10
31.31199987236196
 20
90.09116413861816
 10
32.25390907515571
 20
89.61123742868172
  0
LWPOLYLINE
  5
1030
330
1DE8
100
AcDbEntity
  8
0
 62
     7
100
AcDbPolyline
 90
        8
 70
     1
 43
0.0
 10
13.29938286409345
 20
58.04344666342763
 10
14.63576686121966
 20
57.36252500659472
 10
13.61028243827864
 20
55.34989850489862
 42
0.4142135623730951
 10
14.26969334688696
 20
53.32044040724099
 10
16.28231984858307
 20
52.29495598429995
 10
15.60139819175021
 20
50.95857198717374
 10
13.58877169005414
 20
51.98405641011479
 42
-0.4142135623730951
 10
12.27389844115243
 20
56.03082016173151
  0
LINE
  5
103A
330
1DE8
100
AcDbEntity
  8
0
 62
     7
100
AcDbLine
 10
26.1511807453773
 20
47.26652019986288
 30
0.0
 11
16.28231984858307
 21
52.29495598429995
 31
0.0
  0
LINE
  5
103B
330
1DE8
100
AcDbEntity
  8
0
 62
     7
100
AcDbLine
 10
25.47019499576799
 20
45.93001041358035
 30
0.0
 11
15.60133409897376
 21
50.9584461980174
 31
0.0
  0
LINE
  5
103C
330
1DE8
100
AcDbEntity
  8
0
 62
     7
100
AcDbLine
 10
45.21878173443826
 20
84.68879421577431
 30
0.0
 11
32.93489482476507
 21
90.94774721496428
 31
0.0
  0
LINE
  5
103D
330
1DE8
100
AcDbEntity
  8
0
 62
     7
100
AcDbLine
 10
44.53779598482893
 20
83.35228442949176
 30
0.0
 11
32.25390907515571
 21
89.61123742868172
 31
0.0
  0
LINE
  5
103E
330
1DE8
100
AcDbEntity
  8
0
 62
     7
100
AcDbLine
 10
31.31199987236191
 20
90.09116413861818
 30
0.0
 11
14.63589265037602
 21
57.36246091381829
 31
0.0
  0
LWPOLYLINE
  5
103F
330
1DE8
100
AcDbEntity
  8
0
 62
     7
100
AcDbPolyline
 90
        8
 70
     1
 43
0.0
 10
47.33258305767463
 20
124.83736289931
 10
48.66896705480086
 20
124.1564412424771
 10
49.69445147774199
 20
126.1690677441731
 42
-0.4142135623730951
 10
51.72390957539964
 20
126.8284786527814
 10
53.73653607709569
 20
125.8029942298403
 10
54.4174577339286
 20
127.1393782269665
 10
52.40483123223253
 20
128.1648626499076
 42
0.4142135623730951
 10
48.35806748061582
 20
126.849989401006
  0
LINE
  5
1049
330
1DE8
100
AcDbEntity
  8
0
 62
     7
100
AcDbLine
 10
64.28638272349921
 20
122.1110682316857
 30
0.0
 11
54.417521826705
 21
127.1395040161228
 31
0.0
  0
LINE
  5
104A
330
1DE8
100
AcDbEntity
  8
0
 62
     7
100
AcDbLine
 10
63.6053969738899
 20
120.7745584454032
 30
0.0
 11
53.73653607709569
 21
125.8029942298403
 31
0.0
  0
POINT
  5
1052
330
1DE8
100
AcDbEntity
  8
DEFPOINTS
  6
ByBlock
 62
     7
100
AcDbPoint
 10
17.36621311484023
 20
19.01160411472183
 30
0.0
  0
POINT
  5
1053
330
1DE8
100
AcDbEntity
  8
DEFPOINTS
  6
ByBlock
 62
     7
100
AcDbPoint
 10
17.36621311484023
 20
19.01160411472183
 30
0.0
  0
LINE
  5
105F
330
1DE8
100
AcDbEntity
  8
0
  6
ByBlock
 62
     7
100
AcDbLine
 10
26.23876351473433
 20
47.31146510454398
 30
0.0
 11
23.25843504626712
 21
41.61642036899485
 31
0.0
  0
POINT
  5
1065
330
1DE8
100
AcDbEntity
  8
DEFPOINTS
  6
ByBlock
 62
     7
100
AcDbPoint
 10
11.58887484662777
 20
54.68638565859871
 30
0.0
  0
POINT
  5
1066
330
1DE8
100
AcDbEntity
  8
DEFPOINTS
  6
ByBlock
 62
     7
100
AcDbPoint
 10
26.15118074537733
 20
47.26652019986294
 30
0.0
  0
POINT
  5
1067
330
1DE8
100
AcDbEntity
  8
DEFPOINTS
  6
ByBlock
 62
     7
100
AcDbPoint
 10
23.88267198340901
 20
42.84155433975385
 30
0.0
  0
LINE
  5
10D0
330
1DE8
100
AcDbEntity
  8
0
  6
ByBlock
 62
     7
100
AcDbLine
 10
74.76996166023855
 20
124.5116041147218
 30
0.0
 11
78.15126464102729
 21
124.5116041147218
 31
0.0
  0
LINE
  5
10D1
330
1DE8
100
AcDbEntity
  8
0
  6
ByBlock
 62
     7
100
AcDbLine
 10
73.76996166023855
 20
127.0116041147218
 30
0.0
 11
78.15126464102729
 21
127.0116041147218
 31
0.0
  0
LINE
  5
10D2
330
1DE8
100
AcDbEntity
  8
0
  6
ByBlock
 62
     7
100
AcDbLine
 10
76.77626464102729
 20
123.1366041147218
 30
0.0
 11
76.77626464102729
 21
121.7616041147218
 31
0.0
  0
LINE
  5
10D3
330
1DE8
100
AcDbEntity
  8
0
  6
ByBlock
 62
     7
100
AcDbLine
 10
76.77626464102729
 20
128.3866041147218
 30
0.0
 11
76.77626464102729
 21
129.7616041147218
 31
0.0
  0
LINE
  5
10D4
330
1DE8
100
AcDbEntity
  8
0
  6
ByBlock
 62
     7
100
AcDbLine
 10
76.77626464102729
 20
129.7616041147218
 30
0.0
 11
78.15126464102729
 21
129.7616041147218
 31
0.0
  0
SOLID
  5
10D5
330
1DE8
100
AcDbEntity
  8
0
  6
ByBlock
 62
     7
100
AcDbTrace
 10
76.54709797436061
 20
123.1366041147218
 30
0.0
 11
77.00543130769395
 21
123.1366041147218
 31
0.0
 12
76.77626464102729
 22
124.5116041147218
 32
0.0
 13
76.77626464102729
 23
124.5116041147218
 33
0.0
  0
SOLID
  5
10D6
330
1DE8
100
AcDbEntity
  8
0
  6
ByBlock
 62
     7
100
AcDbTrace
 10
76.54709797436061
 20
128.3866041147218
 30
0.0
 11
77.00543130769395
 21
128.3866041147218
 31
0.0
 12
76.77626464102729
 22
127.0116041147218
 32
0.0
 13
76.77626464102729
 23
127.0116041147218
 33
0.0
  0
TEXT
  5
10D7
330
1DE8
100
AcDbEntity
  8
0
  6
ByBlock
 62
     7
100
AcDbText
 10
79.10512178388443
 20
128.8772041147218
 30
0.0
 40
1.768799999999999
  1
2-1/2"
  7
ROMANS
 72
     1
 11
84.28517892674156
 21
129.7616041147218
 31
0.0
100
AcDbText
 73
     2
  0
POINT
  5
10D8
330
1DE8
100
AcDbEntity
  8
DEFPOINTS
  6
ByBlock
 62
     7
100
AcDbPoint
 10
73.39496166023855
 20
124.5116041147218
 30
0.0
  0
POINT
  5
10DA
330
1DE8
100
AcDbEntity
  8
DEFPOINTS
  6
ByBlock
 62
     7
100
AcDbPoint
 10
76.77626464102729
 20
127.0116041147218
 30
0.0
  0
POINT
  5
10EE
330
1DE8
100
AcDbEntity
  8
DEFPOINTS
  6
ByBlock
 62
     7
100
AcDbPoint
 10
139.3594381669137
 20
124.5116041147217
 30
0.0
  0
POINT
  5
10EF
330
1DE8
100
AcDbEntity
  8
DEFPOINTS
  6
ByBlock
 62
     7
100
AcDbPoint
 10
121.6094381669137
 20
124.5116041147218
 30
0.0
  0
ARC
  5
1163
330
1DE8
100
AcDbEntity
  8
0
 62
     7
100
AcDbCircle
 10
180.9908275133663
 20
140.6737371648735
 30
0.0
 40
1.427177222267142
100
AcDbArc
 50
318.7759030891647
 51
330.0000000000108
  0
ARC
  5
1164
330
1DE8
100
AcDbEntity
  8
0
 62
     7
100
AcDbCircle
 10
180.990827513366
 20
140.673737164874
 30
0.0
 40
1.42717722226769
100
AcDbArc
 50
329.9999999999974
 51
341.2240969108449
  0
ARC
  5
1165
330
1DE8
100
AcDbEntity
  8
0
 62
     7
100
AcDbCircle
 10
183.4154910489541
 20
139.273857019908
 30
0.0
 40
1.42717722226623
100
AcDbArc
 50
150.0000000000003
 51
163.4494755261371
  0
ARC
  5
1166
330
1DE8
100
AcDbEntity
  8
0
 62
     7
100
AcDbCircle
 10
182.9529991618882
 20
139.4112970923906
 30
0.0
 40
0.9446955965790635
100
AcDbArc
 50
163.4494755261205
 51
180.0
  0
ARC
  5
1167
330
1DE8
100
AcDbEntity
  8
0
 62
     7
100
AcDbCircle
 10
182.6114940959716
 20
139.4112970923906
 30
0.0
 40
0.6031905306623912
100
AcDbArc
 50
180.0
 51
204.342870175221
  0
ARC
  5
1168
330
1DE8
100
AcDbEntity
  8
0
 62
     7
100
AcDbCircle
 10
182.3225387377548
 20
139.2805683765916
 30
0.0
 40
0.286038837971535
100
AcDbArc
 50
204.3428701752832
 51
239.9999999999981
  0
ARC
  5
1169
330
1DE8
100
AcDbEntity
  8
0
 62
     7
100
AcDbCircle
 10
182.3225387377547
 20
139.2805683765915
 30
0.0
 40
0.2860388379714597
100
AcDbArc
 50
240.0000000000019
 51
275.6571298246595
  0
ARC
  5
116A
330
1DE8
100
AcDbEntity
  8
0
 62
     7
100
AcDbCircle
 10
182.2912754475325
 20
139.5961754152663
 30
0.0
 40
0.6031905306622002
100
AcDbArc
 50
275.6571298247419
 51
299.9999999999994
  0
ARC
  5
116B
330
1DE8
100
AcDbEntity
  8
0
 62
     7
100
AcDbCircle
 10
182.120522914574
 20
139.8919274778716
 30
0.0
 40
0.944695596579319
100
AcDbArc
 50
300.0000000000008
 51
316.550524473855
  0
ARC
  5
116C
330
1DE8
100
AcDbEntity
  8
0
 62
     7
100
AcDbCircle
 10
181.7702503767725
 20
140.2237371648737
 30
0.0
 40
1.427177222267127
100
AcDbArc
 50
316.5505244738607
 51
329.9999999999998
  0
ARC
  5
116D
330
1DE8
100
AcDbEntity
  8
0
 62
     7
100
AcDbCircle
 10
181.770250376772
 20
140.223737164874
 30
0.0
 40
1.427177222267665
100
AcDbArc
 50
329.9999999999992
 51
343.4494755261316
  0
ARC
  5
116E
330
1DE8
100
AcDbEntity
  8
0
 62
     7
100
AcDbCircle
 10
182.2327422638381
 20
140.0862970923907
 30
0.0
 40
0.9446955965800107
100
AcDbArc
 50
343.4494755261506
 51
0.0
  0
ARC
  5
116F
330
1DE8
100
AcDbEntity
  8
0
 62
     7
100
AcDbCircle
 10
182.5742473297564
 20
140.0862970923907
 30
0.0
 40
0.6031905306617006
100
AcDbArc
 50
0.0
 51
24.34287017528257
  0
ARC
  5
1170
330
1DE8
100
AcDbEntity
  8
0
 62
     7
100
AcDbCircle
 10
182.8632026879727
 20
140.21702580819
 30
0.0
 40
0.286038837971196
100
AcDbArc
 50
24.34287017531949
 51
60.00000000000099
  0
ARC
  5
1171
330
1DE8
100
AcDbEntity
  8
0
 62
     7
100
AcDbCircle
 10
182.8632026879728
 20
140.2170258081902
 30
0.0
 40
0.2860388379710251
100
AcDbArc
 50
59.99999999999893
 51
95.65712982475071
  0
ARC
  5
1172
330
1DE8
100
AcDbEntity
  8
0
 62
     7
100
AcDbCircle
 10
182.8944659781943
 20
139.9014187695158
 30
0.0
 40
0.603190530661284
100
AcDbArc
 50
95.65712982472613
 51
119.9999999999992
  0
ARC
  5
1173
330
1DE8
100
AcDbEntity
  8
0
 62
     7
100
AcDbCircle
 10
183.0652185111534
 20
139.6056667069095
 30
0.0
 40
0.9446955965795124
100
AcDbArc
 50
119.9999999999995
 51
136.5505244738678
  0
ARC
  5
1174
330
1DE8
100
AcDbEntity
  8
0
 62
     7
100
AcDbCircle
 10
183.4154910489551
 20
139.2738570199074
 30
0.0
 40
1.427177222267409
100
AcDbArc
 50
136.5505244738756
 51
150.0000000000004
  0
ARC
  5
1175
330
1DE8
100
AcDbEntity
  8
0
 62
     7
100
AcDbCircle
 10
183.4154910489541
 20
148.273857019908
 30
0.0
 40
1.42717722226623
100
AcDbArc
 50
150.0000000000003
 51
163.4494755261371
  0
ARC
  5
1176
330
1DE8
100
AcDbEntity
  8
0
 62
     7
100
AcDbCircle
 10
182.9529991618882
 20
148.4112970923907
 30
0.0
 40
0.9446955965790635
100
AcDbArc
 50
163.4494755261205
 51
180.0
  0
ARC
  5
1177
330
1DE8
100
AcDbEntity
  8
0
 62
     7
100
AcDbCircle
 10
182.6114940959716
 20
148.4112970923907
 30
0.0
 40
0.6031905306623912
100
AcDbArc
 50
180.0
 51
204.342870175221
  0
ARC
  5
1178
330
1DE8
100
AcDbEntity
  8
0
 62
     7
100
AcDbCircle
 10
182.3225387377548
 20
148.2805683765916
 30
0.0
 40
0.286038837971535
100
AcDbArc
 50
204.3428701752832
 51
239.9999999999981
  0
ARC
  5
1179
330
1DE8
100
AcDbEntity
  8
0
 62
     7
100
AcDbCircle
 10
182.3225387377547
 20
148.2805683765915
 30
0.0
 40
0.2860388379714597
100
AcDbArc
 50
240.0000000000019
 51
275.6571298246595
  0
ARC
  5
117A
330
1DE8
100
AcDbEntity
  8
0
 62
     7
100
AcDbCircle
 10
182.2912754475325
 20
148.5961754152663
 30
0.0
 40
0.6031905306622002
100
AcDbArc
 50
275.6571298247419
 51
299.9999999999994
  0
ARC
  5
117B
330
1DE8
100
AcDbEntity
  8
0
 62
     7
100
AcDbCircle
 10
182.120522914574
 20
148.8919274778716
 30
0.0
 40
0.944695596579319
100
AcDbArc
 50
300.0000000000008
 51
316.550524473855
  0
ARC
  5
117C
330
1DE8
100
AcDbEntity
  8
0
 62
     7
100
AcDbCircle
 10
181.7702503767725
 20
149.2237371648737
 30
0.0
 40
1.427177222267127
100
AcDbArc
 50
316.5505244738607
 51
329.9999999999998
  0
ARC
  5
117D
330
1DE8
100
AcDbEntity
  8
0
 62
     7
100
AcDbCircle
 10
181.770250376772
 20
149.223737164874
 30
0.0
 40
1.427177222267665
100
AcDbArc
 50
329.9999999999992
 51
343.4494755261316
  0
ARC
  5
117E
330
1DE8
100
AcDbEntity
  8
0
 62
     7
100
AcDbCircle
 10
182.2327422638381
 20
149.0862970923906
 30
0.0
 40
0.9446955965800107
100
AcDbArc
 50
343.4494755261506
 51
0.0
  0
ARC
  5
117F
330
1DE8
100
AcDbEntity
  8
0
 62
     7
100
AcDbCircle
 10
182.5742473297564
 20
149.0862970923906
 30
0.0
 40
0.6031905306617006
100
AcDbArc
 50
0.0
 51
24.34287017528257
  0
ARC
  5
1180
330
1DE8
100
AcDbEntity
  8
0
 62
     7
100
AcDbCircle
 10
182.8632026879727
 20
149.21702580819
 30
0.0
 40
0.286038837971196
100
AcDbArc
 50
24.34287017531949
 51
60.00000000000099
  0
ARC
  5
1181
330
1DE8
100
AcDbEntity
  8
0
 62
     7
100
AcDbCircle
 10
182.8632026879728
 20
149.2170258081902
 30
0.0
 40
0.2860388379710251
100
AcDbArc
 50
59.99999999999893
 51
95.65712982475071
  0
ARC
  5
1182
330
1DE8
100
AcDbEntity
  8
0
 62
     7
100
AcDbCircle
 10
182.8944659781943
 20
148.9014187695158
 30
0.0
 40
0.603190530661284
100
AcDbArc
 50
95.65712982472613
 51
119.9999999999992
  0
ARC
  5
1183
330
1DE8
100
AcDbEntity
  8
0
 62
     7
100
AcDbCircle
 10
183.0652185111534
 20
148.6056667069095
 30
0.0
 40
0.9446955965795124
100
AcDbArc
 50
119.9999999999995
 51
136.5505244738678
  0
ARC
  5
1184
330
1DE8
100
AcDbEntity
  8
0
 62
     7
100
AcDbCircle
 10
183.4154910489551
 20
148.2738570199074
 30
0.0
 40
1.427177222267409
100
AcDbArc
 50
136.5505244738756
 51
150.0000000000004
  0
ARC
  5
1185
330
1DE8
100
AcDbEntity
  8
0
 62
     7
100
AcDbCircle
 10
180.9908275133663
 20
149.6737371648735
 30
0.0
 40
1.427177222267142
100
AcDbArc
 50
318.7759030891647
 51
330.0000000000108
  0
ARC
  5
1186
330
1DE8
100
AcDbEntity
  8
0
 62
     7
100
AcDbCircle
 10
180.990827513366
 20
149.6737371648741
 30
0.0
 40
1.42717722226769
100
AcDbArc
 50
329.9999999999974
 51
341.2240969108449
  0
INSERT
  5
14C8
330
1DE8
100
AcDbEntity
  8
0
100
AcDbBlockReference
  2
LINETYPE
 10
452.8028463842497
 20
64.58322518376338
 30
0.0
  0
INSERT
  5
14C9
330
1DE8
100
AcDbEntity
  8
0
100
AcDbBlockReference
  2
LINETYPE
 10
571.7057468034623
 20
391.263910698884
 30
0.0
  0
INSERT
  5
14CA
330
1DE8
100
AcDbEntity
  8
0
100
AcDbBlockReference
  2
LINETYPE
 10
938.1973404290119
 20
381.1888186428053
 30
0.0
  0
INSERT
  5
1A41
330
1DE8
100
AcDbEntity
  8
0
100
AcDbBlockReference
  2
LINETYPE
 10
527.9862704535243
 20
6.860918471472587
 30
0.0
  0
INSERT
  5
1A42
330
1DE8
100
AcDbEntity
  8
0
100
AcDbBlockReference
  2
LINETYPE
 10
894.477864079074
 20
-3.21417358460609
 30
0.0
  0
INSERT
  5
1AB1
330
1DE8
100
AcDbEntity
  8
0
100
AcDbBlockReference
  2
LINETYPE
 10
1013.77022073317
 20
51.47376608830427
 30
0.0
  0
INSERT
  5
1AB6
330
1DE8
100
AcDbEntity
  8
0
100
AcDbBlockReference
  2
LINETYPE
 10
1380.261814358719
 20
41.39867403222559
 30
0.0
  0
LWPOLYLINE
  5
1EA1
330
1DE8
100
AcDbEntity
  8
0
 62
     7
100
AcDbPolyline
 90
        4
 70
     1
 43
0.0
 10
140.4844381669137
 20
19.01160411472175
 10
140.4844381669137
 20
127.0116041147217
 10
142.4844381669137
 20
127.0116041147217
 10
142.4844381669137
 20
19.01160411472175
  0
LWPOLYLINE
  5
1EA7
330
1DE8
100
AcDbEntity
  8
0
 62
     7
100
AcDbPolyline
 90
        4
 70
     1
 43
0.0
 10
118.4844381669137
 20
127.0116041147218
 10
118.4844381669137
 20
19.01160411472183
 10
120.4844381669137
 20
19.01160411472183
 10
120.4844381669137
 20
127.0116041147218
  0
LWPOLYLINE
  5
1EAD
330
1DE8
100
AcDbEntity
  8
0
 62
     7
100
AcDbPolyline
 90
        4
 70
     1
 43
0.0
 10
142.2344381669137
 20
45.0494684743156
 42
-1.000614279867655
 10
140.7344387325757
 20
45.05038961093863
 10
140.7344381669137
 20
125.7650642972801
 42
-1.0
 10
142.2344381669137
 20
125.7650642972801
  0
LWPOLYLINE
  5
1EB3
330
1DE8
100
AcDbEntity
  8
0
 62
     7
100
AcDbPolyline
 90
        4
 70
     1
 43
0.0
 10
118.7344381669137
 20
125.7650642972802
 10
118.7344381669136
 20
45.04946847431568
 42
1.000614279867655
 10
120.2344376012516
 20
45.05038961093872
 10
120.2344381669137
 20
125.7650642972802
 42
1.0
  0
LWPOLYLINE
  5
1EB9
330
1DE8
100
AcDbEntity
  8
0
 62
     7
100
AcDbPolyline
 90
       43
 70
     1
 43
0.0
 10
191.66931509154
 20
70.8992704270349
 10
191.4419834230466
 20
70.50552042703491
 10
188.7466467600334
 20
70.50552042703491
 10
188.51931509154
 20
70.8992704270349
 10
188.2919834230466
 20
70.50552042703483
 10
185.5966467600334
 20
70.50552042703491
 10
185.36931509154
 20
70.8992704270349
 10
185.1419834230466
 20
70.50552042703483
 10
182.4466467600334
 20
70.50552042703491
 10
182.21931509154
 20
70.8992704270349
 10
181.9919834230466
 20
70.50552042703491
 10
178.5231054018699
 20
70.50552042703491
 42
0.2820291683021519
 10
178.1722715829707
 20
70.29052918630736
 10
174.962261251156
 20
63.99052918630736
 42
0.5600269084740766
 10
175.3130950700552
 20
63.41802042703491
 10
177.8205534682482
 20
63.41802042703491
 10
177.8205534682482
 20
64.20552042703491
 10
175.9556366718622
 20
64.20552042703491
 10
178.7643957122003
 20
69.71802042703491
 10
210.0717318879259
 20
69.71802042703491
 10
207.262972847588
 20
64.205520427035
 10
204.5955534682482
 20
64.20552042703491
 10
204.5955534682482
 20
63.41802042703491
 10
207.5042631579182
 20
63.41802042703491
 42
0.2820291683021519
 10
207.8550969768174
 20
63.63301166776246
 10
211.0651073086323
 20
69.93301166776245
 42
0.5600269084740766
 10
210.7142734897331
 20
70.50552042703491
 10
207.6466467600334
 20
70.50552042703491
 10
207.41931509154
 20
70.8992704270349
 10
207.1919834230466
 20
70.50552042703491
 10
204.4966467600334
 20
70.50552042703491
 10
204.26931509154
 20
70.8992704270349
 10
204.0419834230466
 20
70.50552042703491
 10
201.3466467600334
 20
70.50552042703491
 10
201.11931509154
 20
70.8992704270349
 10
200.8919834230467
 20
70.50552042703491
 10
198.1966467600334
 20
70.50552042703491
 10
197.96931509154
 20
70.8992704270349
 10
197.7419834230466
 20
70.50552042703491
 10
195.0466467600334
 20
70.50552042703491
 10
194.81931509154
 20
70.8992704270349
 10
194.5919834230466
 20
70.50552042703491
 10
191.8966467600334
 20
70.50552042703491
  0
LWPOLYLINE
  5
1EF2
330
1DE8
100
AcDbEntity
  8
0
  6
HIDDEN
 62
     7
100
AcDbPolyline
 90
       12
 70
     1
 43
0.0
 10
61.20087041872693
 20
115.1991041147218
 10
61.20087041872693
 20
115.0741041147218
 10
60.70087041872693
 20
115.0741041147217
 10
61.27408654940819
 20
116.1991041147218
 10
66.5240865494082
 20
116.1991041147218
 10
65.95087041872696
 20
115.0741041147218
 10
65.45087041872696
 20
115.0741041147218
 10
65.45087041872696
 20
115.1991041147218
 10
65.87427032020949
 20
115.1991041147218
 10
66.3201050885171
 20
116.0741041147217
 10
61.35068664792569
 20
116.0741041147218
 10
60.90485187961807
 20
115.1991041147218
  0
LWPOLYLINE
  5
1F00
330
1DE8
100
AcDbEntity
  8
0
  6
HIDDEN
 62
     7
100
AcDbPolyline
 90
       12
 70
     1
 43
0.0
 10
66.71011434138546
 20
126.0116041147218
 10
66.71011434138546
 20
125.8866041147218
 10
66.21011434138546
 20
125.8866041147217
 10
66.78333047206672
 20
127.0116041147218
 10
72.03333047206673
 20
127.0116041147218
 10
71.46011434138549
 20
125.8866041147218
 10
70.96011434138549
 20
125.8866041147219
 10
70.96011434138549
 20
126.0116041147218
 10
71.38351424286799
 20
126.0116041147218
 10
71.82934901117562
 20
126.8866041147217
 10
66.8599305705842
 20
126.8866041147218
 10
66.41409580227656
 20
126.0116041147218
  0
LWPOLYLINE
  5
1F0E
330
1DE8
100
AcDbEntity
  8
0
  6
HIDDEN
 62
     7
100
AcDbPolyline
 90
        4
 70
     0
 43
0.0
 10
69.21042760089841
 20
120.7616041147218
 10
67.64496166023858
 20
120.7616041147219
 10
67.64496166023858
 20
125.7616041147218
 10
71.75805484837053
 20
125.7616041147218
  0
LWPOLYLINE
  5
1F14
330
1DE8
100
AcDbEntity
  8
0
 62
     7
100
AcDbPolyline
 90
        4
 70
     0
 43
0.0
 10
69.21042760089841
 20
120.7616041147218
 10
72.39496166023855
 20
120.7616041147218
 10
72.39496166023858
 20
125.7616041147218
 10
71.75805484837053
 20
125.7616041147218
  0
LWPOLYLINE
  5
1F24
330
1DE8
100
AcDbEntity
  8
0
 62
     7
100
AcDbPolyline
 90
        8
 70
     1
 43
0.0
 10
-1.106612977420127
 20
160.1633802074245
 10
-2.737862977420126
 20
160.1633802074245
 10
-2.737862977420126
 20
160.3527727600253
 10
-0.9378629774201243
 20
160.3527727600253
 10
-0.9378629774201243
 20
155.3023046906707
 10
-2.737862977420151
 20
155.3023046906707
 10
-2.737862977420126
 20
155.465038725348
 10
-1.106612977420127
 20
155.465038725348
  0
LWPOLYLINE
  5
1F2E
330
1DE8
100
AcDbEntity
  8
0
 62
     7
100
AcDbPolyline
 90
        8
 70
     1
 43
0.0
 10
22.63088702257987
 20
155.465038725348
 10
22.63088702257987
 20
160.1633802074245
 10
24.26213702257987
 20
160.1633802074245
 10
24.26213702257987
 20
160.3527727600253
 10
22.46213702257988
 20
160.3527727600253
 10
22.46213702257988
 20
155.3023046906707
 10
24.26213702257991
 20
155.3023046906707
 10
24.26213702257987
 20
155.465038725348
  0
INSERT
  5
2718
330
1DE8
100
AcDbEntity
  8
0
100
AcDbBlockReference
  2
LINETYPE
 10
-33.68115643855174
 20
-15.6587026813558
 30
0.0
  0
LINE
  5
29EB
330
1DE8
100
AcDbEntity
  8
0
  6
ByBlock
 62
     0
100
AcDbLine
 10
178.3979678275366
 20
152.5207254024585
 30
0.0
 11
173.2558101017168
 21
155.489551549676
 31
0.0
  0
LINE
  5
29EC
330
1DE8
100
AcDbEntity
  8
0
  6
ByBlock
 62
     0
100
AcDbLine
 10
184.6333507347846
 20
156.1207254024584
 30
0.0
 11
179.4911930089647
 21
159.0895515496761
 31
0.0
  0
LINE
  5
29ED
330
1DE8
100
AcDbEntity
  8
0
  6
ByBlock
 62
     0
100
AcDbLine
 10
172.7525251715132
 20
154.4051232396081
 30
0.0
 11
171.5893245274088
 21
153.733549034613
 31
0.0
  0
MTEXT
  5
29EE
330
1DE8
100
AcDbEntity
  8
0
  6
ByBlock
 62
     0
100
AcDbMText
 10
177.0515547443482
 20
156.8404199998479
 30
0.0
 40
1.98
 41
0.0
 46
0.0
 71
     5
 72
     5
  1
\A1;2"
  7
ROMANS
 73
     1
 44
1.0
  0
SOLID
  5
29EF
330
1DE8
100
AcDbEntity
  8
0
  6
ByBlock
 62
     0
100
AcDbTrace
 10
172.8671085048465
 20
154.2066590845742
 30
0.0
 11
172.6379418381799
 21
154.6035873946421
 31
0.0
 12
173.9433101017168
 22
155.0926232396081
 32
0.0
 13
173.9433101017168
 23
155.0926232396081
 33
0.0
  0
SOLID
  5
29F0
330
1DE8
100
AcDbEntity
  8
0
  6
ByBlock
 62
     0
100
AcDbTrace
 10
181.4840612725016
 20
159.1816590845742
 30
0.0
 11
181.254894605835
 21
159.5785873946421
 31
0.0
 12
180.1786930089647
 22
158.6926232396082
 32
0.0
 13
180.1786930089647
 23
158.6926232396082
 33
0.0
  0
POINT
  5
29F1
330
1DE8
100
AcDbEntity
  8
DEFPOINTS
  6
ByBlock
 62
     0
100
AcDbPoint
 10
179.0854678275366
 20
152.1237970923906
 30
0.0
  0
POINT
  5
29F2
330
1DE8
100
AcDbEntity
  8
DEFPOINTS
  6
ByBlock
 62
     0
100
AcDbPoint
 10
185.3208507347846
 20
155.7237970923906
 30
0.0
  0
POINT
  5
29F3
330
1DE8
100
AcDbEntity
  8
DEFPOINTS
  6
ByBlock
 62
     0
100
AcDbPoint
 10
180.1786930089647
 20
158.6926232396082
 30
0.0
  0
LINE
  5
29F6
330
1DE8
100
AcDbEntity
  8
0
  6
ByBlock
 62
     0
100
AcDbLine
 10
182.2935162109712
 20
159.9136169845751
 30
0.0
 11
181.3694779391683
 21
159.3801232396082
 31
0.0
  0
LINE
  5
29F7
330
1DE8
100
AcDbEntity
  8
0
  6
ByBlock
 62
     0
100
AcDbLine
 10
208.1917631579182
 20
63.41802042703491
 30
0.0
 11
217.5518906057199
 21
63.41802042703491
 31
0.0
  0
LINE
  5
29F8
330
1DE8
100
AcDbEntity
  8
0
  6
ByBlock
 62
     0
100
AcDbLine
 10
211.4017734897331
 20
70.50552042703491
 30
0.0
 11
217.5518906057199
 21
70.50552042703491
 31
0.0
  0
LINE
  5
29F9
330
1DE8
100
AcDbEntity
  8
0
  6
ByBlock
 62
     0
100
AcDbLine
 10
216.8643906057199
 20
62.04302042703491
 30
0.0
 11
216.8643906057199
 21
60.99068336313384
 31
0.0
  0
MTEXT
  5
29FA
330
1DE8
100
AcDbEntity
  8
0
  6
ByBlock
 62
     0
100
AcDbMText
 10
217.5686064122387
 20
66.96177042703491
 30
0.0
 40
1.98
 41
0.0
 46
0.0
 71
     5
 72
     5
  1
\A1;1-1/8"
  7
ROMANS
 73
     1
 44
1.0
  0
SOLID
  5
29FB
330
1DE8
100
AcDbEntity
  8
0
  6
ByBlock
 62
     0
100
AcDbTrace
 10
217.0935572723866
 20
62.04302042703491
 30
0.0
 11
216.6352239390533
 21
62.04302042703491
 31
0.0
 12
216.8643906057199
 22
63.41802042703491
 32
0.0
 13
216.8643906057199
 23
63.41802042703491
 33
0.0
  0
SOLID
  5
29FC
330
1DE8
100
AcDbEntity
  8
0
  6
ByBlock
 62
     0
100
AcDbTrace
 10
217.0935572723866
 20
71.88052042703491
 30
0.0
 11
216.6352239390533
 21
71.88052042703491
 31
0.0
 12
216.8643906057199
 22
70.50552042703491
 32
0.0
 13
216.8643906057199
 23
70.50552042703491
 33
0.0
  0
POINT
  5
29FD
330
1DE8
100
AcDbEntity
  8
DEFPOINTS
  6
ByBlock
 62
     0
100
AcDbPoint
 10
207.5042631579182
 20
63.41802042703491
 30
0.0
  0
POINT
  5
29FE
330
1DE8
100
AcDbEntity
  8
DEFPOINTS
  6
ByBlock
 62
     0
100
AcDbPoint
 10
210.7142734897331
 20
70.50552042703491
 30
0.0
  0
POINT
  5
29FF
330
1DE8
100
AcDbEntity
  8
DEFPOINTS
  6
ByBlock
 62
     0
100
AcDbPoint
 10
216.8643906057199
 20
70.50552042703491
 30
0.0
  0
LINE
  5
2A02
330
1DE8
100
AcDbEntity
  8
0
  6
ByBlock
 62
     0
100
AcDbLine
 10
216.8643906057199
 20
72.96576899151772
 30
0.0
 11
216.8643906057199
 21
71.88052042703491
 31
0.0
  0
LINE
  5
2A12
330
1DE8
100
AcDbEntity
  8
0
 62
     7
100
AcDbLine
 10
140.4844381669137
 20
116.1991041147217
 30
0.0
 11
120.4844381669137
 21
116.1991041147218
 31
0.0
  0
LINE
  5
2A13
330
1DE8
100
AcDbEntity
  8
0
 62
     7
100
AcDbLine
 10
140.4844381669137
 20
115.0741041147217
 30
0.0
 11
120.4844381669137
 21
115.0741041147218
 31
0.0
  0
LINE
  5
2A14
330
1DE8
100
AcDbEntity
  8
0
 62
     7
100
AcDbLine
 10
140.4844381669137
 20
105.3866041147217
 30
0.0
 11
120.4844381669137
 21
105.3866041147218
 31
0.0
  0
LINE
  5
2A15
330
1DE8
100
AcDbEntity
  8
0
 62
     7
100
AcDbLine
 10
140.4844381669137
 20
104.2616041147217
 30
0.0
 11
120.4844381669137
 21
104.2616041147218
 31
0.0
  0
LINE
  5
2A16
330
1DE8
100
AcDbEntity
  8
0
 62
     7
100
AcDbLine
 10
140.4844381669137
 20
94.57410411472173
 30
0.0
 11
120.4844381669137
 21
94.57410411472181
 31
0.0
  0
LINE
  5
2A17
330
1DE8
100
AcDbEntity
  8
0
 62
     7
100
AcDbLine
 10
140.4844381669137
 20
93.44910411472174
 30
0.0
 11
120.4844381669137
 21
93.44910411472183
 31
0.0
  0
LINE
  5
2A18
330
1DE8
100
AcDbEntity
  8
0
 62
     7
100
AcDbLine
 10
140.4844381669137
 20
83.76160411472174
 30
0.0
 11
120.4844381669137
 21
83.76160411472183
 31
0.0
  0
LINE
  5
2A19
330
1DE8
100
AcDbEntity
  8
0
 62
     7
100
AcDbLine
 10
140.4844381669137
 20
82.63660411472173
 30
0.0
 11
120.4844381669137
 21
82.63660411472182
 31
0.0
  0
LINE
  5
2A1A
330
1DE8
100
AcDbEntity
  8
0
 62
     7
100
AcDbLine
 10
140.4844381669137
 20
72.94910411472173
 30
0.0
 11
120.4844381669137
 21
72.94910411472182
 31
0.0
  0
LINE
  5
2A1B
330
1DE8
100
AcDbEntity
  8
0
 62
     7
100
AcDbLine
 10
140.4844381669137
 20
71.82410411472173
 30
0.0
 11
120.4844381669137
 21
71.82410411472182
 31
0.0
  0
LINE
  5
2A1C
330
1DE8
100
AcDbEntity
  8
0
 62
     7
100
AcDbLine
 10
140.4844381669137
 20
62.13660411472173
 30
0.0
 11
120.4844381669137
 21
62.13660411472182
 31
0.0
  0
LINE
  5
2A1D
330
1DE8
100
AcDbEntity
  8
0
 62
     7
100
AcDbLine
 10
140.4844381669137
 20
61.01160411472173
 30
0.0
 11
120.4844381669137
 21
61.01160411472182
 31
0.0
  0
LINE
  5
2A1E
330
1DE8
100
AcDbEntity
  8
0
 62
     7
100
AcDbLine
 10
140.4844381669137
 20
51.32410411472173
 30
0.0
 11
120.4844381669137
 21
51.32410411472182
 31
0.0
  0
LINE
  5
2A1F
330
1DE8
100
AcDbEntity
  8
0
 62
     7
100
AcDbLine
 10
140.4844381669137
 20
50.19910411472173
 30
0.0
 11
120.4844381669137
 21
50.19910411472181
 31
0.0
  0
LINE
  5
2A20
330
1DE8
100
AcDbEntity
  8
0
 62
     7
100
AcDbLine
 10
140.4844381669137
 20
40.51160411472173
 30
0.0
 11
120.4844381669137
 21
40.51160411472181
 31
0.0
  0
LINE
  5
2A21
330
1DE8
100
AcDbEntity
  8
0
 62
     7
100
AcDbLine
 10
140.4844381669137
 20
39.38660411472174
 30
0.0
 11
120.4844381669137
 21
39.38660411472182
 31
0.0
  0
LINE
  5
2A22
330
1DE8
100
AcDbEntity
  8
0
 62
     7
100
AcDbLine
 10
140.4844381669137
 20
29.69910411472174
 30
0.0
 11
120.4844381669137
 21
29.69910411472182
 31
0.0
  0
LINE
  5
2A23
330
1DE8
100
AcDbEntity
  8
0
 62
     7
100
AcDbLine
 10
140.4844381669137
 20
28.57410411472173
 30
0.0
 11
120.4844381669137
 21
28.57410411472182
 31
0.0
  0
LWPOLYLINE
  5
2A25
330
1DE8
100
AcDbEntity
  8
0
  6
HIDDEN
 62
     7
100
AcDbPolyline
 90
       12
 70
     1
 43
0.0
 10
55.69623560938492
 20
104.3956500089379
 10
55.69623560938492
 20
104.2706500089378
 10
55.19623560938493
 20
104.2706500089378
 10
55.76945174006619
 20
105.3956500089378
 10
61.01945174006619
 20
105.3956500089378
 10
60.44623560938496
 20
104.2706500089378
 10
59.94623560938496
 20
104.2706500089379
 10
59.94623560938496
 20
104.3956500089379
 10
60.36963551086748
 20
104.3956500089378
 10
60.81547027917508
 20
105.2706500089378
 10
55.84605183858366
 20
105.2706500089378
 10
55.40021707027602
 20
104.3956500089378
  0
LWPOLYLINE
  5
2A33
330
1DE8
100
AcDbEntity
  8
0
  6
HIDDEN
 62
     7
100
AcDbPolyline
 90
       12
 70
     1
 43
0.0
 10
50.19160080004292
 20
93.59219590315396
 10
50.19160080004292
 20
93.46719590315391
 10
49.69160080004289
 20
93.46719590315386
 10
50.26481693072418
 20
94.5921959031539
 10
55.51481693072418
 20
94.5921959031539
 10
54.94160080004292
 20
93.46719590315391
 10
54.44160080004292
 20
93.46719590315396
 10
54.44160080004292
 20
93.59219590315396
 10
54.86500070152544
 20
93.5921959031539
 10
55.31083546983308
 20
94.46719590315385
 10
50.34141702924165
 20
94.46719590315391
 10
49.89558226093402
 20
93.5921959031539
  0
LWPOLYLINE
  5
2A41
330
1DE8
100
AcDbEntity
  8
0
  6
HIDDEN
 62
     7
100
AcDbPolyline
 90
       12
 70
     1
 43
0.0
 10
44.68696599070091
 20
82.78874179737
 10
44.68696599070091
 20
82.66374179736995
 10
44.18696599070088
 20
82.6637417973699
 10
44.76018212138217
 20
83.78874179736994
 10
50.01018212138214
 20
83.78874179736994
 10
49.43696599070091
 20
82.66374179736995
 10
48.93696599070091
 20
82.66374179737001
 10
48.93696599070091
 20
82.78874179737
 10
49.36036589218343
 20
82.78874179736995
 10
49.80620066049104
 20
83.6637417973699
 10
44.83678221989964
 20
83.66374179736995
 10
44.39094745159201
 20
82.78874179736995
  0
LWPOLYLINE
  5
2A4F
330
1DE8
100
AcDbEntity
  8
0
  6
HIDDEN
 62
     7
100
AcDbPolyline
 90
       12
 70
     1
 43
0.0
 10
39.18233118135887
 20
71.98528769158605
 10
39.18233118135887
 20
71.860287691586
 10
38.68233118135888
 20
71.86028769158594
 10
39.25554731204014
 20
72.985287691586
 10
44.50554731204014
 20
72.985287691586
 10
43.9323311813589
 20
71.860287691586
 10
43.4323311813589
 20
71.86028769158605
 10
43.4323311813589
 20
71.98528769158605
 10
43.85573108284143
 20
71.98528769158599
 10
44.30156585114903
 20
72.86028769158594
 10
39.33214741055764
 20
72.86028769158599
 10
38.88631264225001
 20
71.98528769158599
  0
LWPOLYLINE
  5
2A5D
330
1DE8
100
AcDbEntity
  8
0
  6
HIDDEN
 62
     7
100
AcDbPolyline
 90
       12
 70
     1
 43
0.0
 10
33.67769637201687
 20
61.1818335858021
 10
33.67769637201687
 20
61.05683358580204
 10
33.17769637201684
 20
61.05683358580198
 10
33.75091250269813
 20
62.18183358580204
 10
39.00091250269813
 20
62.18183358580204
 10
38.4276963720169
 20
61.05683358580204
 10
37.9276963720169
 20
61.05683358580209
 10
37.9276963720169
 20
61.1818335858021
 10
38.35109627349942
 20
61.18183358580203
 10
38.79693104180703
 20
62.05683358580198
 10
33.82751260121563
 20
62.05683358580204
 10
33.381677832908
 20
61.18183358580203
  0
LWPOLYLINE
  5
2A6B
330
1DE8
100
AcDbEntity
  8
0
  6
HIDDEN
 62
     7
100
AcDbPolyline
 90
       12
 70
     1
 43
0.0
 10
28.17306156267486
 20
50.37837948001814
 10
28.17306156267486
 20
50.25337948001808
 10
27.67306156267483
 20
50.25337948001802
 10
28.24627769335612
 20
51.37837948001808
 10
33.49627769335609
 20
51.37837948001808
 10
32.92306156267489
 20
50.25337948001808
 10
32.42306156267489
 20
50.25337948001814
 10
32.42306156267489
 20
50.37837948001814
 10
32.84646146415742
 20
50.37837948001808
 10
33.29229623246499
 20
51.25337948001803
 10
28.32287779187359
 20
51.25337948001808
 10
27.87704302356596
 20
50.37837948001808
  0
LWPOLYLINE
  5
2A79
330
1DE8
100
AcDbEntity
  8
0
  6
HIDDEN
 62
     7
100
AcDbPolyline
 90
       12
 70
     1
 43
0.0
 10
22.66842675333283
 20
39.57492537423418
 10
22.66842675333283
 20
39.44992537423413
 10
22.16842675333282
 20
39.44992537423407
 10
22.74164288401408
 20
40.57492537423413
 10
27.99164288401409
 20
40.57492537423413
 10
27.41842675333285
 20
39.44992537423413
 10
26.91842675333286
 20
39.44992537423419
 10
26.91842675333286
 20
39.57492537423418
 10
27.34182665481538
 20
39.57492537423413
 10
27.78766142312298
 20
40.44992537423406
 10
22.81824298253159
 20
40.44992537423413
 10
22.37240821422395
 20
39.57492537423413
  0
LWPOLYLINE
  5
2A87
330
1DE8
100
AcDbEntity
  8
0
  6
HIDDEN
 62
     7
100
AcDbPolyline
 90
       12
 70
     1
 43
0.0
 10
17.16379194399081
 20
28.77147126845023
 10
17.16379194399081
 20
28.64647126845017
 10
16.66379194399081
 20
28.64647126845012
 10
17.23700807467207
 20
29.77147126845017
 10
22.48700807467208
 20
29.77147126845017
 10
21.91379194399084
 20
28.64647126845017
 10
21.41379194399084
 20
28.64647126845023
 10
21.41379194399084
 20
28.77147126845023
 10
21.83719184547337
 20
28.77147126845017
 10
22.28302661378098
 20
29.64647126845012
 10
17.31360817318958
 20
29.64647126845017
 10
16.86777340488194
 20
28.77147126845017
  0
LINE
  5
2AF4
330
1DE8
100
AcDbEntity
  8
0
100
AcDbLine
 10
6.322903755402478
 20
21.39725580187565
 30
0.0
 11
11.66606043494943
 21
20.98256992695889
 31
0.0
  0
INSERT
  5
2B1C
330
1DE8
100
AcDbEntity
  8
0
100
AcDbBlockReference
  2
BORDER
 10
-19.90826050828711
 20
1.263209963618686
 30
0.0
 41
0.9
 42
0.9
 43
0.9
 50
0.0000000000008142
  0
INSERT
  5
2B2E
330
1DE8
100
AcDbEntity
  8
0
100
AcDbBlockReference
 66
     1
  2
BORDER-T
 10
-19.26999849782717
 20
-12.97095145550838
 30
0.0
 41
0.9
 42
0.9
 43
0.9
 50
0.0000000000008142
  0
ATTRIB
  5
2B2F
330
2B2E
100
AcDbEntity
  8
0
 62
     5
100
AcDbText
 10
-18.12646027128324
 20
2.286713131158985
 30
0.0
 40
2.024999999999999
  1

 50
0.0000000000008142
  7
ROMANS
100
AcDbAttribute
  2
SCALE
 70
     0
280
     0
  0
ATTRIB
  5
2B30
330
2B2E
100
AcDbEntity
  8
0
100
AcDbText
 10
217.8774818567311
 20
2.302182887010106
 30
0.0
 40
1.57665234375
  1
SL-01
 50
0.0000000000008142
  7
ROMANS
 72
     4
 11
221.5187979839632
 21
3.090509058885158
 31
0.0
100
AcDbAttribute
  2
SAVEDAS
 70
     0
280
     0
  0
ATTRIB
  5
2B31
330
2B2E
100
AcDbEntity
  8
0
 62
     5
100
AcDbText
 10
39.92509216122448
 20
-0.828965417376035
 30
0.0
 40
1.123345588235294
  1

 50
90.00000000000081
  7
ROMANS
 72
     4
 11
39.92509216122448
 21
-0.828965417376035
 31
0.0
100
AcDbAttribute
  2
X
 70
     0
280
     0
  0
ATTRIB
  5
2B32
330
2B2E
100
AcDbEntity
  8
0
100
AcDbText
 10
89.42913919428042
 20
-2.919477930548012
 30
0.0
 40
1.592126742857142
  1

 50
0.0000000000008142
  7
ROMANS
 72
     1
 11
89.42913919428042
 21
-2.919477930548012
 31
0.0
100
AcDbAttribute
  2
ARCHORENG
 70
     0
280
     0
  0
ATTRIB
  5
2B33
330
2B2E
100
AcDbEntity
  8
0
100
AcDbText
 10
89.42913919428049
 20
-7.557558124624121
 30
0.0
 40
1.592126742857142
  1

 50
0.0000000000008142
  7
ROMANS
 72
     1
 11
89.42913919428049
 21
-7.557558124624121
 31
0.0
100
AcDbAttribute
  2
PURCHASEORDER
 70
     0
280
     0
  0
ATTRIB
  5
2B34
330
2B2E
100
AcDbEntity
  8
0
100
AcDbText
 10
87.23048797795403
 20
-12.19563831870035
 30
0.0
 40
1.592126742857142
  1
TMF
 50
0.0000000000008142
  7
ROMANS
 72
     1
 11
89.42913919428056
 21
-12.19563831870032
 31
0.0
100
AcDbAttribute
  2
DRAWNBY
 70
     0
280
     0
  0
ATTRIB
  5
2B35
330
2B2E
100
AcDbEntity
  8
0
100
AcDbText
 10
116.6576749085662
 20
-7.557558124623733
 30
0.0
 40
1.592126742857142
  1

 50
0.0000000000008142
  7
ROMANS
 72
     1
 11
116.6576749085662
 21
-7.557558124623733
 31
0.0
100
AcDbAttribute
  2
DATE
 70
     0
280
     0
  0
ATTRIB
  5
2B36
330
2B2E
100
AcDbEntity
  8
0
100
AcDbText
 10
111.3126779861173
 20
-12.19563831870001
 30
0.0
 40
1.592126742857142
  1
1/12/21
 50
0.0000000000008142
  7
ROMANS
 72
     1
 11
116.6576749085663
 21
-12.19563831869993
 31
0.0
100
AcDbAttribute
  2
DATE
 70
     0
280
     0
  0
ATTRIB
  5
2B37
330
2B2E
100
AcDbEntity
  8
0
100
AcDbText
 10
143.8862106228518
 20
-2.919477930547238
 30
0.0
 40
1.592126742857142
  1

 50
0.0000000000008142
  7
ROMANS
 72
     1
 11
143.8862106228518
 21
-2.919477930547238
 31
0.0
100
AcDbAttribute
  2
PROJECT
 70
     0
280
     0
  0
ATTRIB
  5
2B38
330
2B2E
100
AcDbEntity
  8
0
100
AcDbText
 10
151.3121749085661
 20
-7.557558124623239
 30
0.0
 40
1.592126742857142
  1

 50
0.0000000000008142
  7
ROMANS
 72
     1
 11
151.3121749085661
 21
-7.557558124623239
 31
0.0
100
AcDbAttribute
  2
PURCHASER
 70
     0
280
     0
  0
ATTRIB
  5
2B39
330
2B2E
100
AcDbEntity
  8
0
100
AcDbText
 10
144.0112497167295
 20
-12.19563831869945
 30
0.0
 40
1.592126742857142
  1
SL-
 50
0.0000000000008142
  7
ROMANS
 72
     1
 11
146.3615320514234
 21
-12.19563831869942
 31
0.0
100
AcDbAttribute
  2
MODEL
 70
     0
280
     0
  0
ATTRIB
  5
2B3A
330
2B2E
100
AcDbEntity
  8
0
100
AcDbText
 10
173.5900677657091
 20
-12.19563831869912
 30
0.0
 40
1.592126742857142
  1

 50
0.0000000000008142
  7
ROMANS
 72
     1
 11
173.5900677657091
 21
-12.19563831869912
 31
0.0
100
AcDbAttribute
  2
QTY
 70
     0
280
     0
  0
ATTRIB
  5
2B3B
330
2B2E
100
AcDbEntity
  8
0
100
AcDbText
 10
203.2939249085662
 20
-2.920080200406618
 30
0.0
 40
1.592126742857142
  1

 50
0.0000000000008142
  7
ROMANS
 72
     1
 11
203.2939249085662
 21
-2.920080200406618
 31
0.0
100
AcDbAttribute
  2
REP
 70
     0
280
     0
  0
ATTRIB
  5
2B3C
330
2B2E
100
AcDbEntity
  8
0
100
AcDbText
 10
203.3246772962527
 20
-10.13303663862065
 30
0.0
 40
3.109622544642857
  1

 50
0.0000000000008142
  7
ROMANS
 72
     1
 11
203.3246772962527
 21
-10.13303663862065
 31
0.0
100
AcDbAttribute
  2
L010000
 70
     0
280
     0
  0
SEQEND
  5
2B3D
330
2B2E
100
AcDbEntity
  8
0
  0
LINE
  5
2C65
330
1DE8
100
AcDbEntity
  8
0
100
AcDbLine
 10
39.65879192722683
 20
62.18183358580261
 30
0.0
 11
48.03605001938866
 21
62.18183358580272
 31
0.0
  0
LINE
  5
2C66
330
1DE8
100
AcDbEntity
  8
0
100
AcDbLine
 10
34.154157117885
 20
51.37837948001857
 30
0.0
 11
48.03605001938881
 21
51.37837948001877
 31
0.0
  0
LINE
  5
2C68
330
1DE8
100
AcDbEntity
  8
0
100
AcDbLine
 10
47.34855001938878
 20
52.75337948001876
 30
0.0
 11
47.34855001938865
 21
60.80683358580271
 31
0.0
  0
SOLID
  5
2C69
330
1DE8
100
AcDbEntity
  8
0
100
AcDbTrace
 10
47.11938335272201
 20
60.80683358580271
 30
0.0
 11
47.57771668605534
 21
60.80683358580272
 31
0.0
 12
47.34855001938865
 22
62.18183358580271
 32
0.0
 13
47.34855001938865
 23
62.18183358580271
 33
0.0
  0
SOLID
  5
2C6A
330
1DE8
100
AcDbEntity
  8
0
100
AcDbTrace
 10
47.11938335272212
 20
52.75337948001876
 30
0.0
 11
47.57771668605545
 21
52.75337948001876
 31
0.0
 12
47.34855001938881
 22
51.37837948001876
 32
0.0
 13
47.34855001938881
 23
51.37837948001876
 33
0.0
  0
MTEXT
  5
2C6B
330
1DE8
100
AcDbEntity
  8
0
100
AcDbMText
 10
57.76247835731302
 20
56.78010653291074
 30
0.0
 40
1.98
 41
0.0
 46
0.0
 71
     5
 72
     5
  1
\A1;6-1/2" MIN\P12" MAX
  7
ROMANS
 73
     1
 44
1.0
  0
ARC
  5
2C74
330
1DE8
100
AcDbEntity
  8
0
100
AcDbCircle
 10
17.36621311484023
 20
19.01160411472183
 30
0.0
 40
13.48405515432222
100
AcDbArc
 50
5.845116267554575
 51
23.45897731998563
  0
ARC
  5
2C75
330
1DE8
100
AcDbEntity
  8
0
100
AcDbCircle
 10
17.36621311484023
 20
19.01160411472183
 30
0.0
 40
13.48405515432222
100
AcDbArc
 50
40.30863851697967
 51
57.15488373244536
  0
SOLID
  5
2C76
330
1DE8
100
AcDbEntity
  8
0
100
AcDbTrace
 10
31.00903092237996
 20
20.39650006065222
 30
0.0
 11
30.55129371541781
 21
20.37313141056437
 31
0.0
 12
30.85026826916245
 22
19.01160411472183
 32
0.0
 13
30.85026826916245
 23
19.01160411472183
 33
0.0
  0
SOLID
  5
2C77
330
1DE8
100
AcDbEntity
  8
0
100
AcDbTrace
 10
24.56524414925891
 20
30.14147649433734
 30
0.0
 11
24.7938741122868
 21
30.53871418697276
 31
0.0
 12
23.4878460528666
 22
31.02598522973871
 32
0.0
 13
23.4878460528666
 23
31.02598522973871
 33
0.0
  0
MTEXT
  5
2C78
330
1DE8
100
AcDbEntity
  8
0
100
AcDbMText
 10
28.86326011778118
 20
26.05700357940588
 30
0.0
 40
1.98
 41
0.0
 46
0.0
 71
     5
 72
     1
  1
\A1;63° TYP
  7
ROMANS
 73
     1
 44
1.0
  0
LINE
  5
2C79
330
1DE8
100
AcDbEntity
  8
0
100
AcDbLine
 10
143.1719381669137
 20
127.0116041147217
 30
0.0
 11
155.2411174792388
 21
127.0116041147217
 31
0.0
  0
LINE
  5
2C7A
330
1DE8
100
AcDbEntity
  8
0
100
AcDbLine
 10
143.1719381669137
 20
19.01160411472175
 30
0.0
 11
155.2411174792388
 21
19.01160411472175
 31
0.0
  0
LINE
  5
2C7B
330
1DE8
100
AcDbEntity
  8
0
100
AcDbLine
 10
154.5536174792388
 20
125.6366041147217
 30
0.0
 11
154.5536174792388
 21
74.87767554329315
 31
0.0
  0
LINE
  5
2C7C
330
1DE8
100
AcDbEntity
  8
0
100
AcDbLine
 10
154.5536174792388
 20
20.38660411472175
 30
0.0
 11
154.5536174792388
 21
63.49029954329274
 31
0.0
  0
SOLID
  5
2C7D
330
1DE8
100
AcDbEntity
  8
0
100
AcDbTrace
 10
154.3244508125722
 20
125.6366041147217
 30
0.0
 11
154.7827841459055
 21
125.6366041147217
 31
0.0
 12
154.5536174792388
 22
127.0116041147217
 32
0.0
 13
154.5536174792388
 23
127.0116041147217
 33
0.0
  0
SOLID
  5
2C7E
330
1DE8
100
AcDbEntity
  8
0
100
AcDbTrace
 10
154.3244508125722
 20
20.38660411472175
 30
0.0
 11
154.7827841459055
 21
20.38660411472175
 31
0.0
 12
154.5536174792388
 22
19.01160411472175
 32
0.0
 13
154.5536174792388
 23
19.01160411472175
 33
0.0
  0
LINE
  5
2C80
330
1DE8
100
AcDbEntity
  8
0
100
AcDbLine
 10
60.33043859065973
 20
124.1267224441457
 30
0.0
 11
60.33043859065976
 21
124.1267224441457
 31
0.0
  0
INSERT
  5
2C92
330
1DE8
100
AcDbEntity
  8
0
100
AcDbBlockReference
  2
*U11
 10
154.5536174792388
 20
74.87767554329315
 30
0.0
 50
0.0000000000008142
  0
ELLIPSE
  5
2CAB
330
1DE8
100
AcDbEntity
  8
0
100
AcDbEllipse
 10
185.3208507347846
 20
153.3237970923906
 30
0.0
 11
-1.837117307087383
 21
-0.0000000000000492
 31
0.0
210
0.0
220
0.0
230
1.0
 40
0.5773502691896306
 41
3.926990816987225
 42
5.497787143782099
  0
ELLIPSE
  5
2CAD
330
1DE8
100
AcDbEntity
  8
0
100
AcDbEllipse
 10
185.3208507347848
 20
135.3237970923905
 30
0.0
 11
-1.837117307087383
 21
-0.0000000000000492
 31
0.0
210
0.0
220
0.0
230
1.0
 40
0.5773502691896306
 41
3.926990816987225
 42
5.497787143782099
  0
DIMENSION
  5
2CAE
330
1DE8
100
AcDbEntity
  8
0
100
AcDbDimension
  2
*D12
 10
11.75458192666843
 20
13.09800820521882
 30
0.0
 11
42.07477179345349
 21
13.09800820521882
 31
0.0
 70
    32
  1
AS REQ'D
 71
     5
 42
60.64037973357011
 73
     0
 74
     0
 75
     0
 51
359.9999999999992
  3
STANDARD$0
100
AcDbAlignedDimension
 13
72.39496166023855
 23
19.01160411472189
 33
0.0
 14
11.75458192666843
 24
19.01160411472183
 34
0.0
 50
0.0000000000008142
100
AcDbRotatedDimension
  0
MTEXT
  5
2CBE
330
1DE8
100
AcDbEntity
  8
0
100
AcDbMText
 10
56.42713383985044
 20
26.05700357940627
 30
0.0
 40
1.98
 41
0.0
 46
0.0
 71
     5
 72
     1
  1
\A1;(AVAILABLE RANGE\P60%%D TO 70%%D)
  7
ROMANS
 73
     1
 44
1.0
  0
TEXT
  5
2CCA
330
1DE8
100
AcDbEntity
  8
0
 62
     7
100
AcDbText
 10
2.577675195959365
 20
91.26397133488033
 30
0.0
 40
1.768799999999999
  1
BOTH SIDES
  7
ROMANS
 72
     1
 11
10.62150376738793
 21
91.26397133488033
 31
0.0
100
AcDbText
  0
TEXT
  5
2CCB
330
1DE8
100
AcDbEntity
  8
0
 62
     7
100
AcDbText
 10
1.398835686427513
 20
2.362648130841305
 30
0.0
 40
1.768799999999999
  1
OSHA 1910.25
  7
ROMANS
 72
     1
 11
11.21146425785608
 21
2.362648130841305
 31
0.0
100
AcDbText
  0
TEXT
  5
2DFB
330
1DE8
100
AcDbEntity
  8
0
 62
     7
100
AcDbText
 10
115.4651641338551
 20
3.568231099884492
 30
0.0
 40
1.59192
  1
(AVAILABLE UP TO 48" WIDE)
  7
ROMANS
100
AcDbText
  0
DIMENSION
  5
2DFC
330
1DE8
100
AcDbEntity
  8
0
100
AcDbDimension
  2
*D13
 10
20.51028471964259
 20
36.19563839929371
 30
0.0
 11
13.22913177026783
 21
39.90557112866157
 31
0.0
 70
    33
  1
VARIES
 71
     5
 42
16.3436579906242
 73
     0
 74
     0
 75
     0
 53
63.0
 51
359.9999999999992
  3
STANDARD$0
100
AcDbAlignedDimension
 13
12.78664065262294
 23
57.03713341257957
 33
0.0
 14
27.34894655137246
 24
49.61726795384385
 34
0.0
  0
DIMENSION
  5
2E1E
330
1DE8
100
AcDbEntity
  8
0
100
AcDbDimension
  2
*D14
 10
139.3594381669137
 20
130.7934823627471
 30
0.0
 11
130.4844381669137
 21
130.7934823627471
 31
0.0
 70
    32
 71
     5
 42
17.75
 73
     0
 74
     0
 75
     0
 51
359.9999999999992
  3
STANDARD$0
100
AcDbAlignedDimension
 13
121.6094381669137
 23
124.5116041147218
 33
0.0
 14
139.3594381669137
 24
124.5116041147217
 34
0.0
 50
0.0000000000008142
100
AcDbRotatedDimension
  0
LWPOLYLINE
  5
33AD
330
1DE8
100
AcDbEntity
  8
0
 62
     7
100
AcDbPolyline
 90
        4
 70
     1
 43
0.0
 10
46.5545457241751
 20
117.6778171514589
 10
45.6126365213813
 20
118.1577438613953
 42
1.0
 10
44.93171486454842
 20
116.8213598642691
 10
45.87362406734216
 20
116.3414331543327
  0
LINE
  5
33AE
330
1DE8
100
AcDbEntity
  8
0
 62
     7
100
AcDbLine
 10
58.83849672662472
 20
111.4189899414253
 30
0.0
 11
46.55460981695152
 21
117.6779429406152
 31
0.0
  0
LINE
  5
33AF
330
1DE8
100
AcDbEntity
  8
0
 62
     7
100
AcDbLine
 10
58.15751097701539
 20
110.0824801551427
 30
0.0
 11
45.87362406734216
 21
116.3414331543327
 31
0.0
  0
LINE
  5
33B0
330
1DE8
100
AcDbEntity
  8
0
 62
     7
100
AcDbLine
 10
44.93171486454833
 20
116.8213598642692
 30
0.0
 11
31.99292152919479
 21
91.42754813574438
 31
0.0
  0
LEADER
  5
33B1
330
1DE8
100
AcDbEntity
  8
0
100
AcDbLeader
  3
STANDARD
 73
     0
 40
5.643314285714287
 41
21.47828571428572
 76
     3
 10
44.60398369440177
 20
117.8300126912487
 30
0.0
 10
38.80505498987293
 20
121.6137346173771
 30
0.0
 10
35.96119591977697
 20
121.613734617377
 30
0.0
340
33B2
211
1.0
221
0.0000000000000142
231
0.0
213
0.0
223
0.99
233
0.0
1001
ACAD
1000
DSTYLE
1002
{
1070
   147
1040
0.0625
1070
    77
1070
     0
1002
}
  0
MTEXT
  5
33B2
102
{ACAD_REACTORS
330
33B1
102
}
330
1DE8
100
AcDbEntity
  8
0
 62
     7
100
AcDbMText
 10
35.27369591977697
 20
120.623734617377
 30
0.0
 40
1.768799999999999
 41
0.0
 46
0.0
 71
     9
 72
     1
  1
POST FOR ER-1\P(BOTH SIDES)
  7
ROMANS
 73
     1
 44
1.0
  0
DIMENSION
  5
33DA
330
1DE8
100
AcDbEntity
  8
0
100
AcDbDimension
  2
*D16
 10
38.79719479748957
 20
87.96075618629066
 30
0.0
 11
29.26339430295908
 21
69.24961917833494
 31
0.0
 70
    33
  1
VARIES
 71
     5
 42
41.99999999999998
 73
     0
 74
     0
 75
     0
 53
63.0
 51
359.9999999999992
  3
STANDARD$0
100
AcDbAlignedDimension
 13
22.61514724724213
 23
49.06821925742756
 33
0.0
 14
41.68274823630308
 24
86.490493273339
 34
0.0
  0
LEADER
  5
343D
330
1DE8
100
AcDbEntity
  8
0
100
AcDbLeader
  3
STANDARD
 73
     0
 40
5.18848
 41
28.72194285714286
 76
     3
 10
154.5536174792386
 20
127.0116041147229
 30
0.0
 10
152.5051724600807
 20
142.4653817513622
 30
0.0
 10
151.2064467357251
 20
142.4653817513622
 30
0.0
340
343E
211
1.0
221
0.0000000000000137
231
0.0
213
0.5463149283236978
223
0.9000000000000028
233
0.0
1001
ACAD
1000
DSTYLE
1002
{
1070
   147
1040
0.0625
1070
    77
1070
     0
1002
}
  0
MTEXT
  5
343E
102
{ACAD_REACTORS
330
343D
102
}
330
1DE8
100
AcDbEntity
  8
0
 62
     7
100
AcDbMText
 10
149.9726318074014
 20
141.5653817513622
 30
0.0
 40
1.94568
 41
0.0
 46
0.0
 71
     9
 72
     1
  1
BASE OF STANDARD\PHATCH
  7
ROMANS
 73
     1
 44
1.0
  0
LWPOLYLINE
  5
343F
330
1DE8
100
AcDbEntity
  8
0
100
AcDbPolyline
 90
        4
 70
     1
 43
0.0
 10
119.7431784232381
 20
148.0827121162691
 10
151.2064467357251
 20
148.0827121162695
 10
151.2064467357251
 20
140.0001228497473
 10
119.7431784232384
 20
140.0001228497468
  0
ENDSEC
  0
SECTION
  2
OBJECTS
  0
DICTIONARY
  5
1DDC
330
0
100
AcDbDictionary
281
     1
  3
ACAD_COLOR
350
2C5C
  3
ACAD_GROUP
350
1DDD
  3
ACAD_LAYOUT
350
2B42
  3
ACAD_MATERIAL
350
2C47
  3
ACAD_MLINESTYLE
350
1DDE
  3
ACAD_PLOTSETTINGS
350
2B43
  3
ACAD_PLOTSTYLENAME
350
2B40
  3
ACAD_TABLESTYLE
350
2C5D
  3
ACAD_VISUALSTYLE
350
2C4B
  3
AcDbVariableDictionary
350
2C93
  0
DICTIONARY
  5
2DA2
330
1DD8
100
AcDbDictionary
280
     1
281
     1
  0
DICTIONARY
  5
2BFA
330
1DE8
100
AcDbDictionary
280
     1
281
     1
  3
ACAD_LAYOUTSELFREF
360
2BFB
  3
ACAD_SORTENTS
360
2C6C
  0
DICTIONARY
  5
2BF8
330
1DE5
100
AcDbDictionary
280
     1
281
     1
  3
ACAD_LAYOUTSELFREF
360
2BF9
  0
DICTIONARY
  5
2C04
330
2B18
100
AcDbDictionary
280
     1
281
     1
  3
ACAD_SORTENTS
360
3105
  0
DICTIONARY
  5
2D28
330
2C87
100
AcDbDictionary
280
     1
281
     1
  3
ACAD_ENHANCEDBLOCK
360
2D2B
  3
ACAD_SORTENTS
360
2D29
  3
AcDbDynamicBlockRoundTripPurgePreventer
360
2D2F
  0
DICTIONARY
  5
2C5C
102
{ACAD_REACTORS
330
1DDC
102
}
330
1DDC
100
AcDbDictionary
281
     1
  0
DICTIONARY
  5
1DDD
102
{ACAD_REACTORS
330
1DDC
102
}
330
1DDC
100
AcDbDictionary
281
     1
  0
DICTIONARY
  5
2B42
102
{ACAD_REACTORS
330
1DDC
102
}
330
1DDC
100
AcDbDictionary
281
     1
  3
Layout1
350
2B45
  3
Model
350
2B44
  0
DICTIONARY
  5
2C47
102
{ACAD_REACTORS
330
1DDC
102
}
330
1DDC
100
AcDbDictionary
281
     1
  3
ByBlock
350
2C49
  3
ByLayer
350
2C48
  3
Global
350
2C4A
  0
DICTIONARY
  5
1DDE
102
{ACAD_REACTORS
330
1DDC
102
}
330
1DDC
100
AcDbDictionary
281
     1
  3
STANDARD
350
1DEB
  0
DICTIONARY
  5
2B43
102
{ACAD_REACTORS
330
1DDC
102
}
330
1DDC
100
AcDbDictionary
281
     1
  0
ACDBDICTIONARYWDFLT
  5
2B40
102
{ACAD_REACTORS
330
1DDC
102
}
330
1DDC
100
AcDbDictionary
281
     1
  3
Normal
350
2B41
100
AcDbDictionaryWithDefault
340
2B41
  0
DICTIONARY
  5
2C5D
102
{ACAD_REACTORS
330
1DDC
102
}
330
1DDC
100
AcDbDictionary
281
     1
  3
Standard
350
2C5E
  0
DICTIONARY
  5
2C4B
102
{ACAD_REACTORS
330
1DDC
102
}
330
1DDC
100
AcDbDictionary
281
     1
  3
2dWireframe
350
2C51
  3
3D Hidden
350
2C53
  3
3dWireframe
350
2C52
  3
Basic
350
2C50
  3
Brighten
350
2C57
  3
ColorChange
350
2C5B
  3
Conceptual
350
2C54
  3
Dim
350
2C56
  3
Facepattern
350
2C5A
  3
Flat
350
2C4C
  3
FlatWithEdges
350
2C4D
  3
Gouraud
350
2C4E
  3
GouraudWithEdges
350
2C4F
  3
Linepattern
350
2C59
  3
Realistic
350
2C55
  3
Thicken
350
2C58
  0
DICTIONARY
  5
2C93
102
{ACAD_REACTORS
330
1DDC
102
}
330
1DDC
100
AcDbDictionary
281
     1
  3
CTABLESTYLE
350
2C94
  3
DIMASSOC
350
2DB8
  3
INDEXCTL
350
2DB7
  3
SORTENTS
350
2DB6
  0
XRECORD
  5
2BFB
102
{ACAD_REACTORS
330
2BFA
102
}
330
2BFA
100
AcDbXrecord
280
     1
340
1DE8
  0
SORTENTSTABLE
  5
2C6C
102
{ACAD_REACTORS
330
2BFA
102
}
330
2BFA
100
AcDbSortentsTable
330
1DE8
331
D23
  5
D23
331
DA2
  5
DA2
331
D2B
  5
D2B
331
2E1E
  5
33AD
331
2A15
  5
2A79
331
2A1D
  5
2C67
331
2AF4
  5
2C86
331
2A25
  5
2C70
331
29EE
  5
2A16
331
2C6A
  5
2C84
331
DAA
  5
DAA
331
DF1
  5
DF1
331
E30
  5
E30
331
117E
  5
1180
331
1067
  5
10D1
331
DF9
  5
DF9
331
1186
  5
14C9
331
10D7
  5
10DA
331
1028
  5
1028
331
E01
  5
E01
331
1030
  5
103A
331
E09
  5
E09
331
10EF
  5
1164
331
D33
  5
D33
331
D3B
  5
D3B
331
D7B
  5
D7B
331
2B1C
  5
2C92
331
29F6
  5
2A1C
331
29FE
  5
2A25
331
2C7A
  5
29ED
331
2A5D
  5
2C74
331
2C92
  5
2CAD
331
E11
  5
E11
331
1AB6
  5
1EA7
331
1167
  5
1169
331
DDA
  5
DDA
331
E19
  5
E19
331
1F14
  5
1F2E
331
116F
  5
1171
331
DE2
  5
DE2
331
1F24
  5
2718
331
1EAD
  5
1EB9
331
1177
  5
1179
331
DEA
  5
DEA
331
D1C
  5
D1C
331
D9B
  5
D9B
331
DA3
  5
DA3
331
D24
  5
D24
331
D2C
  5
D2C
331
2A16
  5
2A87
331
2A1E
  5
2C69
331
2CCA
  5
2DFB
331
2C6B
  5
2C85
331
29EF
  5
2A17
331
DF2
  5
DF2
331
E31
  5
E31
331
117F
  5
1181
331
10D0
  5
10D2
331
DFA
  5
DFA
331
10D8
  5
10EE
331
1029
  5
102A
331
E02
  5
E02
331
E0A
  5
E0A
331
D34
  5
D34
331
CED
  5
CED
331
29F7
  5
2A1D
331
29FF
  5
2A33
331
2C7B
  5
29EE
331
E12
  5
E12
331
1168
  5
116A
331
1049
  5
1052
331
DDB
  5
DDB
331
E1A
  5
E1A
331
1170
  5
1172
331
DE3
  5
DE3
331
DEB
  5
DEB
331
D15
  5
D15
331
D1D
  5
D1D
331
D9C
  5
D9C
331
D25
  5
D25
331
DA4
  5
DA4
331
D2D
  5
D2D
331
2CAB
  5
2CAE
331
2A17
  5
2AB0
331
2A1F
  5
2C6A
331
2CCB
  5
2DFC
331
1178
  5
117A
331
DF3
  5
DF3
331
E32
  5
E32
331
1180
  5
1182
331
10D1
  5
10D3
331
DBC
  5
DBC
331
DFB
  5
DFB
331
14C8
  5
14CA
331
102A
  5
1030
331
E03
  5
E03
331
E0B
  5
E0B
331
D35
  5
D35
331
CEE
  5
CEE
331
29F0
  5
2A18
331
29F8
  5
2A1E
331
2C74
  5
29FD
331
2A4F
  5
2C73
331
2C7C
  5
29EF
331
2B2E
  5
2CAB
331
103A
  5
103B
331
E13
  5
E13
331
1F0E
  5
1F24
331
1169
  5
116B
331
104A
  5
1053
331
DDC
  5
DDC
331
1EA7
  5
1EB3
331
1171
  5
1173
331
1052
  5
105F
331
DE4
  5
DE4
331
E2B
  5
E2B
331
DEC
  5
DEC
331
1F2E
  5
2867
331
D16
  5
D16
331
D1E
  5
D1E
331
DA5
  5
DA5
331
D26
  5
D26
331
D2E
  5
D2E
331
2A18
  5
2AF4
331
2C65
  5
2C79
331
2A87
  5
2C77
331
2A20
  5
2C6B
331
1179
  5
117B
331
DF4
  5
DF4
331
E33
  5
E33
331
1181
  5
1183
331
10D2
  5
10D4
331
DFC
  5
DFC
331
14C9
  5
1A41
331
10DA
  5
10EF
331
E04
  5
E04
331
1A41
  5
1AB1
331
D36
  5
D36
331
33AD
  5
33AE
331
CEF
  5
CEF
331
29F1
  5
2A19
331
29F9
  5
2A1F
331
2C75
  5
29FE
331
2C7D
  5
29F2
331
1AB1
  5
1EA1
331
103B
  5
103C
331
E14
  5
E14
331
116A
  5
116C
331
DDD
  5
DDD
331
1172
  5
1174
331
1053
  5
1065
331
DE5
  5
DE5
331
E2C
  5
E2C
331
DED
  5
DED
331
D1F
  5
D1F
331
D27
  5
D27
331
DA6
  5
DA6
331
D2F
  5
D2F
331
2CAD
  5
2CBE
331
2A19
  5
2B1C
331
2C66
  5
2C7A
331
2A21
  5
2C6D
331
117A
  5
117C
331
DF5
  5
DF5
331
E34
  5
E34
331
1182
  5
1184
331
10D3
  5
10D5
331
14CA
  5
1A42
331
E05
  5
E05
331
1F00
  5
1F14
331
1A42
  5
1AB6
331
E0D
  5
E0D
331
D37
  5
D37
331
33AE
  5
33AF
331
CF0
  5
CF0
331
D77
  5
D77
331
2A41
  5
2C72
331
29F2
  5
2A1A
331
2DFB
  5
2E1E
331
29FA
  5
2A20
331
2C76
  5
29FF
331
2A02
  5
2A41
331
2C7E
  5
29FB
331
1163
  5
1165
331
103C
  5
103D
331
DD6
  5
DD6
331
1EA1
  5
1EAD
331
116B
  5
116D
331
1173
  5
1175
331
E2D
  5
E2D
331
DE6
  5
DE6
331
DEE
  5
DEE
331
D97
  5
D97
331
D20
  5
D20
331
DA7
  5
DA7
331
D28
  5
D28
331
2A79
  5
2C76
331
2A12
  5
2A4F
331
2CAE
  5
2CCA
331
2A1A
  5
2B2E
331
2CBE
  5
2CCB
331
2A22
  5
2C6E
331
29EB
  5
2A13
331
2718
  5
29EB
331
117B
  5
117D
331
DF6
  5
DF6
331
E35
  5
E35
331
1EB9
  5
1F00
331
1183
  5
1185
331
10D4
  5
10D6
331
DFE
  5
DFE
331
E5D
  5
E5D
331
E06
  5
E06
331
E0E
  5
E0E
331
D30
  5
D30
331
CE9
  5
CE9
331
D38
  5
D38
331
33AF
  5
33B0
331
CF1
  5
CF1
331
D78
  5
D78
331
2DFC
  5
33AC
331
29F3
  5
2A1B
331
29FB
  5
2A21
331
2C77
  5
2A02
331
1164
  5
1166
331
103D
  5
103E
331
DD7
  5
DD7
331
E16
  5
E16
331
116C
  5
116E
331
DDF
  5
DDF
331
1174
  5
1176
331
DE7
  5
DE7
331
E2E
  5
E2E
331
DEF
  5
DEF
331
D98
  5
D98
331
D21
  5
D21
331
D29
  5
D29
331
2A13
  5
2A5D
331
2A1B
  5
2C65
331
2C68
  5
2C7B
331
2A23
  5
2C6F
331
29EC
  5
2A14
331
2A33
  5
2C71
331
DA8
  5
DA8
331
117C
  5
117E
331
1065
  5
1067
331
E36
  5
E36
331
DF7
  5
DF7
331
1184
  5
1186
331
10D5
  5
10D7
331
E5E
  5
E5E
331
DC0
  5
DC0
331
DFF
  5
DFF
331
1EF2
  5
1F0E
331
E07
  5
E07
331
DC8
  5
DC8
331
E0F
  5
E0F
331
D31
  5
D31
331
CEA
  5
CEA
331
D39
  5
D39
331
33B0
  5
1029
331
CF2
  5
CF2
331
CFA
  5
CFA
331
D79
  5
D79
331
29FC
  5
2A22
331
2C78
  5
2A12
331
2C80
  5
29FC
331
2A6B
  5
2C75
331
1165
  5
1167
331
103E
  5
103F
331
DD8
  5
DD8
331
E17
  5
E17
331
116D
  5
116F
331
DE0
  5
DE0
331
1175
  5
1177
331
E2F
  5
E2F
331
DE8
  5
DE8
331
D99
  5
D99
331
DA1
  5
DA1
331
D22
  5
D22
331
D2A
  5
D2A
331
2A14
  5
2A6B
331
2A1C
  5
2C66
331
2C69
  5
2C7C
331
29ED
  5
2A15
331
DA9
  5
DA9
331
DF0
  5
DF0
331
1EB3
  5
1EF2
331
117D
  5
117F
331
1066
  5
10D0
331
DF8
  5
DF8
331
E37
  5
E37
331
1185
  5
14C8
331
10D6
  5
10D8
331
E00
  5
E00
331
E5F
  5
E5F
331
E08
  5
E08
331
10EE
  5
1163
331
D32
  5
D32
331
CEB
  5
CEB
331
D3A
  5
D3A
331
CFB
  5
CFB
331
D7A
  5
D7A
331
29FD
  5
2A23
331
2C79
  5
29EC
331
E10
  5
E10
331
1166
  5
1168
331
103F
  5
1049
331
DD9
  5
DD9
331
E18
  5
E18
331
116E
  5
1170
331
DE1
  5
DE1
331
1176
  5
1178
331
DE9
  5
DE9
331
105F
  5
1066
331
D9A
  5
D9A
  0
XRECORD
  5
2BF9
102
{ACAD_REACTORS
330
2BF8
102
}
330
2BF8
100
AcDbXrecord
280
     1
340
1DE5
  0
SORTENTSTABLE
  5
3105
102
{ACAD_REACTORS
330
2C04
102
}
330
2C04
100
AcDbSortentsTable
330
2B18
331
30AA
  5
30AB
331
30E6
  5
30E7
331
3104
  5
2E47
331
30DC
  5
30DD
331
30B5
  5
30B6
331
30F1
  5
30F2
331
30FA
  5
30FB
331
30AB
  5
30AC
331
30E7
  5
30E8
331
30DD
  5
30DE
331
30A1
  5
30A2
331
30B6
  5
30B7
331
30F2
  5
30F3
331
30FB
  5
30FC
331
30AC
  5
30AD
331
30E8
  5
30E9
331
30A2
  5
30A3
331
30B7
  5
30B8
331
30F3
  5
30F4
331
30DE
  5
30DF
331
30FC
  5
30FD
331
30AD
  5
30B3
331
30E9
  5
30EA
331
30A3
  5
30A4
331
30C1
  5
30C2
331
30DF
  5
30E0
331
30FD
  5
30FE
331
30F4
  5
30F5
331
2E50
  5
2E52
331
30EA
  5
30EB
331
30A4
  5
30A5
331
30D7
  5
30D8
331
30F5
  5
30F6
331
30C2
  5
30C3
331
30E0
  5
30E1
331
30FE
  5
30FF
331
30B8
  5
30B9
331
30CD
  5
30CE
331
30EB
  5
30EC
331
2E47
  5
2E48
331
30A5
  5
30A6
331
30C3
  5
30C4
331
30E1
  5
30E2
331
30FF
  5
3100
331
30F6
  5
30F7
331
2E52
  5
2E53
331
30B9
  5
30BA
331
30CE
  5
30CF
331
30EC
  5
30ED
331
2E48
  5
2E49
331
30A6
  5
30A7
331
30C4
  5
30C5
331
30E2
  5
30E3
331
3100
  5
3101
331
30F7
  5
30F8
331
2E53
  5
30A1
331
30BA
  5
30BB
331
30D8
  5
30D9
331
30CF
  5
30D7
331
30ED
  5
30EE
331
2E49
  5
2E50
331
3101
  5
3102
331
30A7
  5
30A8
331
30C5
  5
30CD
331
30E3
  5
30E4
331
30BB
  5
30BC
331
30EE
  5
30EF
331
30D9
  5
30DA
331
3102
  5
3103
331
30A8
  5
30A9
331
30E4
  5
30E5
331
30F8
  5
30F9
331
30BC
  5
30BD
331
30B3
  5
30B4
331
30EF
  5
30F0
331
30DA
  5
30DB
331
3103
  5
3104
331
30A9
  5
30AA
331
30E5
  5
30E6
331
30BD
  5
30C1
331
30B4
  5
30B5
331
30F0
  5
30F1
331
30DB
  5
30DC
331
30F9
  5
30FA
  0
ACAD_EVALUATION_GRAPH
  5
2D2B
102
{ACAD_REACTORS
330
2D28
102
}
330
2D28
100
AcDbEvalGraph
 96
        0
 97
        0
  0
SORTENTSTABLE
  5
2D29
102
{ACAD_REACTORS
330
2D28
102
}
330
2D28
100
AcDbSortentsTable
330
2C87
  0
ACDB_DYNAMICBLOCKPURGEPREVENTER_VERSION
  5
2D2F
102
{ACAD_REACTORS
330
2D28
102
}
330
2D28
100
AcDbDynamicBlockPurgePreventer
 70
     1
  0
LAYOUT
  5
2B45
102
{ACAD_REACTORS
330
2B42
102
}
330
2B42
100
AcDbPlotSettings
  1

  2
HP LaserJet 2100 Series PCL 6
  4

  6

 40
0.0
 41
0.0
 42
0.0
 43
0.0
 44
0.0
 45
0.0
 46
0.0
 47
0.0
 48
0.0
 49
0.0
140
0.0
141
0.0
142
1.0
143
1.0
 70
   688
 72
     0
 73
     0
 74
     5
  7
Erik.ctb
 75
    16
147
1.0
 76
     0
 77
     2
 78
   300
148
0.0
149
0.0
100
AcDbLayout
  1
Layout1
 70
     1
 71
     1
 10
0.0
 20
0.0
 11
12.0
 21
9.0
 12
0.0
 22
0.0
 32
0.0
 14
1.000000000000000E+20
 24
1.000000000000000E+20
 34
1.000000000000000E+20
 15
-1.000000000000000E+20
 25
-1.000000000000000E+20
 35
-1.000000000000000E+20
146
0.0
 13
0.0
 23
0.0
 33
0.0
 16
1.0
 26
0.0
 36
0.0
 17
0.0
 27
1.0
 37
0.0
 76
     0
330
1DE5
  0
LAYOUT
  5
2B44
102
{ACAD_REACTORS
330
2B42
102
}
330
2B42
100
AcDbPlotSettings
  1

  2
ImagePrinter Pro
  4
Letter
  6

 40
3.174999952316284
 41
3.174999952316284
 42
3.175003051757812
 43
3.17498779296875
 44
215.8999938964844
 45
279.3999938964844
 46
0.0
 47
0.9338324981583577
 48
0.0
 49
0.0
140
0.0
141
0.0
142
1.0
143
23.18323409531898
 70
  3764
 72
     0
 73
     3
 74
     1
  7
acad.ctb
 75
     0
147
0.0431346202988096
 76
     0
 77
     2
 78
   300
148
489.6497959630869
149
329.6104024248909
100
AcDbLayout
  1
Model
 70
     1
 71
     0
 10
0.0
 20
0.0
 11
12.0
 21
9.0
 12
0.0
 22
0.0
 32
0.0
 14
0.0
 24
0.0
 34
0.0
 15
0.0
 25
0.0
 35
0.0
146
0.0
 13
0.0
 23
0.0
 33
0.0
 16
1.0
 26
0.0
 36
0.0
 17
0.0
 27
1.0
 37
0.0
 76
     0
330
1DE8
331
2C45
1001
ACAD_PSEXT
1000
ImagePrinter Pro
1000
ImagePrinter Pro 6.3.0.0
1000
ImagePort:
1000
ImagePrinter Pro
1070
     0
  0
MATERIAL
  5
2C49
102
{ACAD_REACTORS
330
2C47
102
}
330
2C47
100
AcDbMaterial
  1
ByBlock
  0
MATERIAL
  5
2C48
102
{ACAD_REACTORS
330
2C47
102
}
330
2C47
100
AcDbMaterial
  1
ByLayer
  0
MATERIAL
  5
2C4A
102
{ACAD_REACTORS
330
2C47
102
}
330
2C47
100
AcDbMaterial
  1
Global
  0
MLINESTYLE
  5
1DEB
102
{ACAD_REACTORS
330
1DDE
102
}
330
1DDE
100
AcDbMlineStyle
  2
STANDARD
 70
     0
  3

 62
     0
 51
90.0
 52
90.0
 71
     2
 49
0.5
 62
   256
  6
BYLAYER
 49
-0.5
 62
   256
  6
BYLAYER
  0
ACDBPLACEHOLDER
  5
2B41
102
{ACAD_REACTORS
330
2B40
102
}
330
2B40
  0
TABLESTYLE
  5
2C5E
102
{ACAD_REACTORS
330
2C5D
102
}
330
2C5D
100
AcDbTableStyle
  3
Standard
 70
     0
 71
     0
 40
0.06
 41
0.06
280
     0
281
     0
  7
STANDARD
140
0.18
170
     2
 62
     0
 63
     7
283
     0
 90
      512
 91
        0
  1

274
    -2
284
     1
 64
     0
275
    -2
285
     1
 65
     0
276
    -2
286
     1
 66
     0
277
    -2
287
     1
 67
     0
278
    -2
288
     1
 68
     0
279
    -2
289
     1
 69
     0
  7
STANDARD
140
0.25
170
     5
 62
     0
 63
     7
283
     0
 90
      512
 91
        0
  1

274
    -2
284
     1
 64
     0
275
    -2
285
     1
 65
     0
276
    -2
286
     1
 66
     0
277
    -2
287
     1
 67
     0
278
    -2
288
     1
 68
     0
279
    -2
289
     1
 69
     0
  7
STANDARD
140
0.18
170
     5
 62
     0
 63
     7
283
     0
 90
      512
 91
        0
  1

274
    -2
284
     1
 64
     0
275
    -2
285
     1
 65
     0
276
    -2
286
     1
 66
     0
277
    -2
287
     1
 67
     0
278
    -2
288
     1
 68
     0
279
    -2
289
     1
 69
     0
  0
VISUALSTYLE
  5
2C51
102
{ACAD_REACTORS
330
2C4B
102
}
330
2C4B
100
AcDbVisualStyle
  2
2dWireframe
 70
     4
 71
     0
 72
     2
 73
     0
 90
        0
 40
-0.6
 41
-30.0
 62
     5
 63
     7
 74
     1
 91
        4
 64
     7
 65
   257
 75
     1
175
     1
 42
1.0
 92
        0
 66
   257
 43
1.0
 76
     1
 77
     6
 78
     2
 67
     7
 79
     5
170
     0
171
     0
290
     0
174
     0
 93
        1
 44
0.0
173
     0
291
     0
 45
0.0
  0
VISUALSTYLE
  5
2C53
102
{ACAD_REACTORS
330
2C4B
102
}
330
2C4B
100
AcDbVisualStyle
  2
3D Hidden
 70
     6
 71
     1
 72
     2
 73
     2
 90
        0
 40
-0.6
 41
-30.0
 62
     5
 63
     7
 74
     2
 91
        2
 64
     7
 65
   257
 75
     2
175
     1
 42
40.0
 92
        0
 66
   257
 43
1.0
 76
     1
 77
     6
 78
     2
 67
     7
 79
     3
170
     0
171
     0
290
     0
174
     0
 93
        1
 44
0.0
173
     0
291
     0
 45
0.0
  0
VISUALSTYLE
  5
2C52
102
{ACAD_REACTORS
330
2C4B
102
}
330
2C4B
100
AcDbVisualStyle
  2
3dWireframe
 70
     5
 71
     0
 72
     2
 73
     0
 90
        0
 40
-0.6
 41
-30.0
 62
     5
 63
     7
 74
     1
 91
        4
 64
     7
 65
   257
 75
     1
175
     1
 42
1.0
 92
        0
 66
   257
 43
1.0
 76
     1
 77
     6
 78
     2
 67
     7
 79
     5
170
     0
171
     0
290
     0
174
     0
 93
        1
 44
0.0
173
     0
291
     0
 45
0.0
  0
VISUALSTYLE
  5
2C50
102
{ACAD_REACTORS
330
2C4B
102
}
330
2C4B
100
AcDbVisualStyle
  2
Basic
 70
     7
 71
     1
 72
     0
 73
     1
 90
        0
 40
-0.6
 41
-30.0
 62
     5
 63
     7
 74
     0
 91
        4
 64
     7
 65
   257
 75
     1
175
     1
 42
1.0
 92
        8
 66
     7
 43
1.0
 76
     1
 77
     6
 78
     2
 67
     7
 79
     5
170
     0
171
     0
290
     0
174
     0
 93
        1
 44
0.0
173
     0
291
     1
 45
0.0
  0
VISUALSTYLE
  5
2C57
102
{ACAD_REACTORS
330
2C4B
102
}
330
2C4B
100
AcDbVisualStyle
  2
Brighten
 70
    12
 71
     2
 72
     2
 73
     0
 90
        0
 40
-0.6
 41
-30.0
 62
     5
 63
     7
 74
     1
 91
        4
 64
     7
 65
   257
 75
     1
175
     1
 42
1.0
 92
        8
 66
     7
 43
1.0
 76
     1
 77
     6
 78
     2
 67
     7
 79
     5
170
     0
171
     0
290
     0
174
     0
 93
        1
 44
50.0
173
     0
291
     1
 45
0.0
  0
VISUALSTYLE
  5
2C5B
102
{ACAD_REACTORS
330
2C4B
102
}
330
2C4B
100
AcDbVisualStyle
  2
ColorChange
 70
    16
 71
     2
 72
     2
 73
     3
 90
        0
 40
-0.6
 41
-30.0
 62
     5
 63
     8
 74
     1
 91
        4
 64
     7
 65
   257
 75
     1
175
     1
 42
1.0
 92
        8
 66
     8
 43
1.0
 76
     1
 77
     6
 78
     2
 67
     7
 79
     5
170
     0
171
     0
290
     0
174
     0
 93
        1
 44
0.0
173
     0
291
     1
 45
0.0
  0
VISUALSTYLE
  5
2C54
102
{ACAD_REACTORS
330
2C4B
102
}
330
2C4B
100
AcDbVisualStyle
  2
Conceptual
 70
     9
 71
     3
 72
     2
 73
     0
 90
        0
 40
-0.6
 41
-30.0
 62
     5
 63
     7
 74
     2
 91
        2
 64
     7
 65
   257
 75
     1
175
     1
 42
40.0
 92
        8
 66
     7
 43
1.0
 76
     1
 77
     6
 78
     2
 67
     7
 79
     3
170
     0
171
     0
290
     0
174
     0
 93
        1
 44
0.0
173
     0
291
     0
 45
0.0
  0
VISUALSTYLE
  5
2C56
102
{ACAD_REACTORS
330
2C4B
102
}
330
2C4B
100
AcDbVisualStyle
  2
Dim
 70
    11
 71
     2
 72
     2
 73
     0
 90
        0
 40
-0.6
 41
-30.0
 62
     5
 63
     7
 74
     1
 91
        4
 64
     7
 65
   257
 75
     1
175
     1
 42
1.0
 92
        8
 66
     7
 43
1.0
 76
     1
 77
     6
 78
     2
 67
     7
 79
     5
170
     0
171
     0
290
     0
174
     0
 93
        1
 44
-50.0
173
     0
291
     1
 45
0.0
  0
VISUALSTYLE
  5
2C5A
102
{ACAD_REACTORS
330
2C4B
102
}
330
2C4B
100
AcDbVisualStyle
  2
Facepattern
 70
    15
 71
     2
 72
     2
 73
     0
 90
        0
 40
-0.6
 41
-30.0
 62
     5
 63
     7
 74
     1
 91
        4
 64
     7
 65
   257
 75
     1
175
     1
 42
1.0
 92
        8
 66
     7
 43
1.0
 76
     1
 77
     6
 78
     2
 67
     7
 79
     5
170
     0
171
     0
290
     0
174
     0
 93
        1
 44
0.0
173
     0
291
     1
 45
0.0
  0
VISUALSTYLE
  5
2C4C
102
{ACAD_REACTORS
330
2C4B
102
}
330
2C4B
100
AcDbVisualStyle
  2
Flat
 70
     0
 71
     2
 72
     1
 73
     1
 90
        2
 40
-0.6
 41
30.0
 62
     5
 63
     7
 74
     0
 91
        4
 64
     7
 65
   257
 75
     1
175
     1
 42
1.0
 92
        8
 66
     7
 43
1.0
 76
     1
 77
     6
 78
     2
 67
     7
 79
     5
170
     0
171
     0
290
     0
174
     0
 93
       13
 44
0.0
173
     0
291
     1
 45
0.0
  0
VISUALSTYLE
  5
2C4D
102
{ACAD_REACTORS
330
2C4B
102
}
330
2C4B
100
AcDbVisualStyle
  2
FlatWithEdges
 70
     1
 71
     2
 72
     1
 73
     1
 90
        2
 40
-0.6
 41
30.0
 62
     5
 63
     7
 74
     1
 91
        4
 64
     7
 65
   257
 75
     1
175
     1
 42
1.0
 92
        0
 66
   257
 43
1.0
 76
     1
 77
     6
 78
     2
 67
     7
 79
     5
170
     0
171
     0
290
     0
174
     0
 93
       13
 44
0.0
173
     0
291
     1
 45
0.0
  0
VISUALSTYLE
  5
2C4E
102
{ACAD_REACTORS
330
2C4B
102
}
330
2C4B
100
AcDbVisualStyle
  2
Gouraud
 70
     2
 71
     2
 72
     2
 73
     1
 90
        2
 40
-0.6
 41
30.0
 62
     5
 63
     7
 74
     0
 91
        4
 64
     7
 65
   257
 75
     1
175
     1
 42
1.0
 92
        0
 66
     7
 43
1.0
 76
     1
 77
     6
 78
     2
 67
     7
 79
     5
170
     0
171
     0
290
     0
174
     0
 93
       13
 44
0.0
173
     0
291
     1
 45
0.0
  0
VISUALSTYLE
  5
2C4F
102
{ACAD_REACTORS
330
2C4B
102
}
330
2C4B
100
AcDbVisualStyle
  2
GouraudWithEdges
 70
     3
 71
     2
 72
     2
 73
     1
 90
        2
 40
-0.6
 41
30.0
 62
     5
 63
     7
 74
     1
 91
        4
 64
     7
 65
   257
 75
     1
175
     1
 42
1.0
 92
        0
 66
   257
 43
1.0
 76
     1
 77
     6
 78
     2
 67
     7
 79
     5
170
     0
171
     0
290
     0
174
     0
 93
       13
 44
0.0
173
     0
291
     1
 45
0.0
  0
VISUALSTYLE
  5
2C59
102
{ACAD_REACTORS
330
2C4B
102
}
330
2C4B
100
AcDbVisualStyle
  2
Linepattern
 70
    14
 71
     2
 72
     2
 73
     0
 90
        0
 40
-0.6
 41
-30.0
 62
     5
 63
     7
 74
     1
 91
        4
 64
     7
 65
   257
 75
     7
175
     7
 42
1.0
 92
        8
 66
     7
 43
1.0
 76
     1
 77
     6
 78
     2
 67
     7
 79
     5
170
     0
171
     0
290
     0
174
     0
 93
        1
 44
0.0
173
     0
291
     1
 45
0.0
  0
VISUALSTYLE
  5
2C55
102
{ACAD_REACTORS
330
2C4B
102
}
330
2C4B
100
AcDbVisualStyle
  2
Realistic
 70
     8
 71
     2
 72
     2
 73
     0
 90
        0
 40
-0.6
 41
-30.0
 62
     5
 63
     7
 74
     1
 91
        0
 64
     7
 65
   257
 75
     1
175
     1
 42
1.0
 92
        8
 66
     8
 43
1.0
 76
     1
 77
     6
 78
     2
 67
     7
 79
     5
170
     0
171
     0
290
     0
174
     0
 93
       13
 44
0.0
173
     0
291
     0
 45
0.0
  0
VISUALSTYLE
  5
2C58
102
{ACAD_REACTORS
330
2C4B
102
}
330
2C4B
100
AcDbVisualStyle
  2
Thicken
 70
    13
 71
     2
 72
     2
 73
     0
 90
        0
 40
-0.6
 41
-30.0
 62
     5
 63
     7
 74
     1
 91
        4
 64
     7
 65
   257
 75
     1
175
     1
 42
1.0
 92
       12
 66
     7
 43
1.0
 76
     1
 77
     6
 78
     2
 67
     7
 79
     5
170
     0
171
     0
290
     0
174
     0
 93
        1
 44
0.0
173
     0
291
     1
 45
0.0
  0
DICTIONARYVAR
  5
2C94
102
{ACAD_REACTORS
330
2C93
102
}
330
2C93
100
DictionaryVariables
280
     0
  1
STANDARD
  0
DICTIONARYVAR
  5
2DB8
102
{ACAD_REACTORS
330
2C93
102
}
330
2C93
100
DictionaryVariables
280
     0
  1
1
  0
DICTIONARYVAR
  5
2DB7
102
{ACAD_REACTORS
330
2C93
102
}
330
2C93
100
DictionaryVariables
280
     0
  1
0
  0
DICTIONARYVAR
  5
2DB6
102
{ACAD_REACTORS
330
2C93
102
}
330
2C93
100
DictionaryVariables
280
     0
  1
127
  0
ENDSEC
  0
EOF
