  0
SECTION
  2
HEADER
  9
$ACADVER
  1
AC1021
  9
$ACADMAINTVER
 70
     1
  9
$DWGCODEPAGE
  3
ANSI_1252
  9
$LASTSAVEDBY
  1
dusti
  9
$INSBASE
 10
0.0
 20
0.0
 30
0.0
  9
$EXTMIN
 10
690.226707695872
 20
1197.519755403976
 30
0.0
  9
$EXTMAX
 10
992.7267076959251
 20
1431.269755404045
 30
0.0
  9
$LIMMIN
 10
0.0
 20
0.0
  9
$LIMMAX
 10
12.0
 20
9.0
  9
$ORTHOMODE
 70
     1
  9
$REGENMODE
 70
     1
  9
$FILLMODE
 70
     1
  9
$QTEXTMODE
 70
     0
  9
$MIRRTEXT
 70
     1
  9
$LTSCALE
 40
5.0
  9
$ATTMODE
 70
     1
  9
$TEXTSIZE
 40
3.0
  9
$TRACEWID
 40
0.05
  9
$TEXTSTYLE
  7
ROMANS
  9
$CLAYER
  8
0
  9
$CELTYPE
  6
BYLAYER
  9
$CECOLOR
 62
     7
  9
$CELTSCALE
 40
1.0
  9
$DISPSILH
 70
     0
  9
$DIMSCALE
 40
11.0
  9
$DIMASZ
 40
0.1875
  9
$DIMEXO
 40
0.0625
  9
$DIMDLI
 40
0.375
  9
$DIMRND
 40
0.0
  9
$DIMDLE
 40
0.0
  9
$DIMEXE
 40
0.1875
  9
$DIMTP
 40
0.0
  9
$DIMTM
 40
0.0
  9
$DIMTXT
 40
0.1875
  9
$DIMCEN
 40
0.0625
  9
$DIMTSZ
 40
0.0
  9
$DIMTOL
 70
     0
  9
$DIMLIM
 70
     0
  9
$DIMTIH
 70
     1
  9
$DIMTOH
 70
     1
  9
$DIMSE1
 70
     0
  9
$DIMSE2
 70
     0
  9
$DIMTAD
 70
     0
  9
$DIMZIN
 70
     3
  9
$DIMBLK
  1

  9
$DIMASO
 70
     1
  9
$DIMSHO
 70
     1
  9
$DIMPOST
  1

  9
$DIMAPOST
  1

  9
$DIMALT
 70
     0
  9
$DIMALTD
 70
     2
  9
$DIMALTF
 40
25.4
  9
$DIMLFAC
 40
1.0
  9
$DIMTOFL
 70
     0
  9
$DIMTVP
 40
0.0
  9
$DIMTIX
 70
     0
  9
$DIMSOXD
 70
     0
  9
$DIMSAH
 70
     0
  9
$DIMBLK1
  1

  9
$DIMBLK2
  1

  9
$DIMSTYLE
  2
STANDARD
  9
$DIMCLRD
 70
     0
  9
$DIMCLRE
 70
     0
  9
$DIMCLRT
 70
     0
  9
$DIMTFAC
 40
1.0
  9
$DIMGAP
 40
0.0625
  9
$DIMJUST
 70
     0
  9
$DIMSD1
 70
     0
  9
$DIMSD2
 70
     0
  9
$DIMTOLJ
 70
     1
  9
$DIMTZIN
 70
     0
  9
$DIMALTZ
 70
     0
  9
$DIMALTTZ
 70
     0
  9
$DIMUPT
 70
     0
  9
$DIMDEC
 70
     4
  9
$DIMTDEC
 70
     4
  9
$DIMALTU
 70
     2
  9
$DIMALTTD
 70
     2
  9
$DIMTXSTY
  7
ROMANS
  9
$DIMAUNIT
 70
     0
  9
$DIMADEC
 70
     0
  9
$DIMALTRND
 40
0.0
  9
$DIMAZIN
 70
     0
  9
$DIMDSEP
 70
    46
  9
$DIMATFIT
 70
     3
  9
$DIMFRAC
 70
     2
  9
$DIMLDRBLK
  1

  9
$DIMLUNIT
 70
     4
  9
$DIMLWD
 70
    -2
  9
$DIMLWE
 70
    -2
  9
$DIMTMOVE
 70
     0
  9
$DIMFXL
 40
1.0
  9
$DIMFXLON
 70
     0
  9
$DIMJOGANG
 40
0.7853981633974483
  9
$DIMTFILL
 70
     0
  9
$DIMTFILLCLR
 70
     0
  9
$DIMARCSYM
 70
     0
  9
$DIMLTYPE
  6

  9
$DIMLTEX1
  6

  9
$DIMLTEX2
  6

  9
$LUNITS
 70
     4
  9
$LUPREC
 70
     4
  9
$SKETCHINC
 40
0.1
  9
$FILLETRAD
 40
0.0
  9
$AUNITS
 70
     0
  9
$AUPREC
 70
     0
  9
$MENU
  1
acad
  9
$ELEVATION
 40
0.0
  9
$PELEVATION
 40
0.0
  9
$THICKNESS
 40
0.0
  9
$LIMCHECK
 70
     0
  9
$CHAMFERA
 40
0.0
  9
$CHAMFERB
 40
0.0
  9
$CHAMFERC
 40
0.0
  9
$CHAMFERD
 40
0.0
  9
$SKPOLY
 70
     0
  9
$TDCREATE
 40
2451513.381977314
  9
$TDUCREATE
 40
2451513.590310648
  9
$TDUPDATE
 40
2459620.564793751
  9
$TDUUPDATE
 40
2459620.773127083
  9
$TDINDWG
 40
1.0134299884
  9
$TDUSRTIMER
 40
1.0134299884
  9
$USRTIMER
 70
     1
  9
$ANGBASE
 50
0.0
  9
$ANGDIR
 70
     0
  9
$PDMODE
 70
    33
  9
$PDSIZE
 40
0.0
  9
$PLINEWID
 40
0.0
  9
$SPLFRAME
 70
     0
  9
$SPLINETYPE
 70
     6
  9
$SPLINESEGS
 70
     8
  9
$HANDSEED
  5
514B
  9
$SURFTAB1
 70
     6
  9
$SURFTAB2
 70
     6
  9
$SURFTYPE
 70
     6
  9
$SURFU
 70
     6
  9
$SURFV
 70
     6
  9
$UCSBASE
  2

  9
$UCSNAME
  2

  9
$UCSORG
 10
0.0000000000000568
 20
0.0000000000002274
 30
0.0
  9
$UCSXDIR
 10
1.0
 20
-0.0000000000002274
 30
0.0
  9
$UCSYDIR
 10
0.0000000000002274
 20
1.0
 30
0.0
  9
$UCSORTHOREF
  2

  9
$UCSORTHOVIEW
 70
     0
  9
$UCSORGTOP
 10
0.0
 20
0.0
 30
0.0
  9
$UCSORGBOTTOM
 10
0.0
 20
0.0
 30
0.0
  9
$UCSORGLEFT
 10
0.0
 20
0.0
 30
0.0
  9
$UCSORGRIGHT
 10
0.0
 20
0.0
 30
0.0
  9
$UCSORGFRONT
 10
0.0
 20
0.0
 30
0.0
  9
$UCSORGBACK
 10
0.0
 20
0.0
 30
0.0
  9
$PUCSBASE
  2

  9
$PUCSNAME
  2

  9
$PUCSORG
 10
0.0
 20
0.0
 30
0.0
  9
$PUCSXDIR
 10
1.0
 20
0.0
 30
0.0
  9
$PUCSYDIR
 10
0.0
 20
1.0
 30
0.0
  9
$PUCSORTHOREF
  2

  9
$PUCSORTHOVIEW
 70
     0
  9
$PUCSORGTOP
 10
0.0
 20
0.0
 30
0.0
  9
$PUCSORGBOTTOM
 10
0.0
 20
0.0
 30
0.0
  9
$PUCSORGLEFT
 10
0.0
 20
0.0
 30
0.0
  9
$PUCSORGRIGHT
 10
0.0
 20
0.0
 30
0.0
  9
$PUCSORGFRONT
 10
0.0
 20
0.0
 30
0.0
  9
$PUCSORGBACK
 10
0.0
 20
0.0
 30
0.0
  9
$USERI1
 70
     0
  9
$USERI2
 70
     0
  9
$USERI3
 70
     0
  9
$USERI4
 70
     0
  9
$USERI5
 70
     0
  9
$USERR1
 40
0.0
  9
$USERR2
 40
0.0
  9
$USERR3
 40
0.0
  9
$USERR4
 40
0.0
  9
$USERR5
 40
0.0
  9
$WORLDVIEW
 70
     1
  9
$SHADEDGE
 70
     3
  9
$SHADEDIF
 70
    70
  9
$TILEMODE
 70
     1
  9
$MAXACTVP
 70
    16
  9
$PINSBASE
 10
0.0
 20
0.0
 30
0.0
  9
$PLIMCHECK
 70
     0
  9
$PEXTMIN
 10
1.000000000000000E+20
 20
1.000000000000000E+20
 30
1.000000000000000E+20
  9
$PEXTMAX
 10
-1.000000000000000E+20
 20
-1.000000000000000E+20
 30
-1.000000000000000E+20
  9
$PLIMMIN
 10
0.0
 20
0.0
  9
$PLIMMAX
 10
12.0
 20
9.0
  9
$UNITMODE
 70
     0
  9
$VISRETAIN
 70
     0
  9
$PLINEGEN
 70
     0
  9
$PSLTSCALE
 70
     1
  9
$TREEDEPTH
 70
  3020
  9
$CMLSTYLE
  2
STANDARD
  9
$CMLJUST
 70
     0
  9
$CMLSCALE
 40
1.0
  9
$PROXYGRAPHICS
 70
     1
  9
$MEASUREMENT
 70
     0
  9
$CELWEIGHT
370
    -1
  9
$ENDCAPS
280
     0
  9
$JOINSTYLE
280
     0
  9
$LWDISPLAY
290
     0
  9
$INSUNITS
 70
     0
  9
$HYPERLINKBASE
  1

  9
$STYLESHEET
  1
acad.ctb
  9
$XEDIT
290
     1
  9
$CEPSNTYPE
380
     0
  9
$PSTYLEMODE
290
     1
  9
$FINGERPRINTGUID
  2
{E56FE81E-72E2-11D6-8737-0010B50CF566}
  9
$VERSIONGUID
  2
{9A86C725-F36E-40C7-9F11-0DD9343F3468}
  9
$EXTNAMES
290
     1
  9
$PSVPSCALE
 40
0.0
  9
$OLESTARTUP
290
     0
  9
$SORTENTS
280
   127
  9
$INDEXCTL
280
     0
  9
$HIDETEXT
280
     0
  9
$XCLIPFRAME
290
     0
  9
$HALOGAP
280
     0
  9
$OBSCOLOR
 70
   257
  9
$OBSLTYPE
280
     0
  9
$INTERSECTIONDISPLAY
280
     0
  9
$INTERSECTIONCOLOR
 70
   257
  9
$DIMASSOC
280
     1
  9
$PROJECTNAME
  1

  9
$CAMERADISPLAY
290
     0
  9
$LENSLENGTH
 40
50.0
  9
$CAMERAHEIGHT
 40
0.0
  9
$STEPSPERSEC
 40
2.0
  9
$STEPSIZE
 40
6.0
  9
$3DDWFPREC
 40
2.0
  9
$PSOLWIDTH
 40
0.25
  9
$PSOLHEIGHT
 40
4.0
  9
$LOFTANG1
 40
1.570796326794896
  9
$LOFTANG2
 40
1.570796326794896
  9
$LOFTMAG1
 40
0.0
  9
$LOFTMAG2
 40
0.0
  9
$LOFTPARAM
 70
     7
  9
$LOFTNORMALS
280
     1
  9
$LATITUDE
 40
37.795
  9
$LONGITUDE
 40
-122.394
  9
$NORTHDIRECTION
 40
0.0
  9
$TIMEZONE
 70
 -8000
  9
$LIGHTGLYPHDISPLAY
280
     1
  9
$TILEMODELIGHTSYNCH
280
     1
  9
$CMATERIAL
347
3E32
  9
$SOLIDHIST
280
     1
  9
$SHOWHIST
280
     1
  9
$DWFFRAME
280
     2
  9
$DGNFRAME
280
     0
  9
$REALWORLDSCALE
290
     1
  9
$INTERFERECOLOR
 62
     1
  9
$INTERFEREOBJVS
345
3E3F
  9
$INTERFEREVPVS
346
3E3C
  9
$CSHADOW
280
     0
  9
$SHADOWPLANELOCATION
 40
0.0
  0
ENDSEC
  0
SECTION
  2
CLASSES
  0
CLASS
  1
ACDBDICTIONARYWDFLT
  2
AcDbDictionaryWithDefault
  3
ObjectDBX Classes
 90
        0
 91
        1
280
     0
281
     0
  0
CLASS
  1
MATERIAL
  2
AcDbMaterial
  3
ObjectDBX Classes
 90
     1024
 91
        3
280
     0
281
     0
  0
CLASS
  1
VISUALSTYLE
  2
AcDbVisualStyle
  3
ObjectDBX Classes
 90
     4095
 91
       16
280
     0
281
     0
  0
CLASS
  1
TABLESTYLE
  2
AcDbTableStyle
  3
ObjectDBX Classes
 90
     4095
 91
        1
280
     0
281
     0
  0
CLASS
  1
DICTIONARYVAR
  2
AcDbDictionaryVar
  3
ObjectDBX Classes
 90
        0
 91
        4
280
     0
281
     0
  0
CLASS
  1
SORTENTSTABLE
  2
AcDbSortentsTable
  3
ObjectDBX Classes
 90
        0
 91
        1
280
     0
281
     0
  0
CLASS
  1
EXACXREFPANELOBJECT
  2
ExAcXREFPanelObject
  3
EXAC_ESW
 90
     1025
 91
        1
280
     0
281
     0
  0
CLASS
  1
NPOCOLLECTION
  2
AcDbImpNonPersistentObjectsCollection
  3
ObjectDBX Classes
 90
     1153
 91
        1
280
     0
281
     0
  0
ENDSEC
  0
SECTION
  2
TABLES
  0
TABLE
  2
VPORT
  5
8
102
{ACAD_XDICTIONARY
360
4647
102
}
330
0
100
AcDbSymbolTable
 70
     1
  0
VPORT
  5
3E2F
330
8
100
AcDbSymbolTableRecord
100
AcDbViewportTableRecord
  2
*Active
 70
     0
 10
0.0
 20
0.0
 11
1.0
 21
1.0
 12
795.7887820025976
 22
1334.684016891741
 13
0.0
 23
0.0
 14
1.0
 24
1.0
 15
0.0
 25
0.0
 16
0.0
 26
0.0
 36
1.0
 17
0.0
 27
0.0
 37
0.0
 40
309.2598514113567
 41
2.016703786191536
 42
50.0
 43
0.0
 44
0.0
 50
0.0
 51
0.0
 71
     0
 72
   100
 73
     1
 74
     0
 75
     0
 76
     0
 77
     0
 78
     0
281
     0
 65
     1
110
0.0000000000000568
120
0.0000000000002274
130
0.0
111
1.0
121
-0.0000000000002274
131
0.0
112
0.0000000000002274
122
1.0
132
0.0
 79
     0
146
0.0
348
3E3B
 60
     3
 61
     5
292
     1
282
     1
141
0.0
142
0.0
 63
   250
421
  3355443
  0
ENDTAB
  0
TABLE
  2
LTYPE
  5
5
330
0
100
AcDbSymbolTable
 70
     3
  0
LTYPE
  5
12
330
5
100
AcDbSymbolTableRecord
100
AcDbLinetypeTableRecord
  2
BYBLOCK
 70
     0
  3

 72
    65
 73
     0
 40
0.0
  0
LTYPE
  5
13
330
5
100
AcDbSymbolTableRecord
100
AcDbLinetypeTableRecord
  2
BYLAYER
 70
     0
  3

 72
    65
 73
     0
 40
0.0
  0
LTYPE
  5
14
330
5
100
AcDbSymbolTableRecord
100
AcDbLinetypeTableRecord
  2
CONTINUOUS
 70
     0
  3
Solid line
 72
    65
 73
     0
 40
0.0
  0
LTYPE
  5
73
330
5
100
AcDbSymbolTableRecord
100
AcDbLinetypeTableRecord
  2
HIDDEN
 70
     0
  3
__ __ __ __ __ __ __ __ __ __ __ __ __ __ __ __
 72
    65
 73
     2
 40
0.375
 49
0.25
 74
     0
 49
-0.125
 74
     0
  0
LTYPE
  5
75
330
5
100
AcDbSymbolTableRecord
100
AcDbLinetypeTableRecord
  2
PHANTOM
 70
     0
  3
______  __  __  ______  __  __  ______  __  __ 
 72
    65
 73
     6
 40
2.5
 49
1.25
 74
     0
 49
-0.25
 74
     0
 49
0.25
 74
     0
 49
-0.25
 74
     0
 49
0.25
 74
     0
 49
-0.25
 74
     0
  0
ENDTAB
  0
TABLE
  2
LAYER
  5
2
330
0
100
AcDbSymbolTable
 70
     2
  0
LAYER
  5
F
330
2
100
AcDbSymbolTableRecord
100
AcDbLayerTableRecord
  2
0
 70
     0
 62
     7
  6
CONTINUOUS
370
    -3
390
3DFE
347
3E34
  0
LAYER
  5
79
330
2
100
AcDbSymbolTableRecord
100
AcDbLayerTableRecord
  2
DEFPOINTS
 70
     0
 62
     7
  6
CONTINUOUS
290
     0
370
    -3
390
3DFE
347
3E34
  0
ENDTAB
  0
TABLE
  2
STYLE
  5
3
330
0
100
AcDbSymbolTable
 70
     4
  0
STYLE
  5
10
330
3
100
AcDbSymbolTableRecord
100
AcDbTextStyleTableRecord
  2
STANDARD
 70
     0
 40
0.0
 41
1.0
 50
0.0
 71
     0
 42
0.2
  3
txt
  4

  0
STYLE
  5
6F
330
3
100
AcDbSymbolTableRecord
100
AcDbTextStyleTableRecord
  2
ROMANS
 70
     0
 40
0.0
 41
1.0
 50
0.0
 71
     0
 42
3.0
  3
romans
  4

  0
STYLE
  5
28F4
330
3
100
AcDbSymbolTableRecord
100
AcDbTextStyleTableRecord
  2
ROMANC
 70
     0
 40
1.5314
 41
1.0
 50
0.0
 71
     0
 42
1.768799999999999
  3
romanc
  4

  0
STYLE
  5
38F5
330
3
100
AcDbSymbolTableRecord
100
AcDbTextStyleTableRecord
  2
STYLE1
 70
     0
 40
0.0
 41
1.0
 50
0.0
 71
     0
 42
3.0954
  3
C:\Program Files\AutoCAD LT\romanc.shx
  4

  0
ENDTAB
  0
TABLE
  2
VIEW
  5
6
330
0
100
AcDbSymbolTable
 70
     0
  0
ENDTAB
  0
TABLE
  2
UCS
  5
7
330
0
100
AcDbSymbolTable
 70
     0
  0
ENDTAB
  0
TABLE
  2
APPID
  5
9
330
0
100
AcDbSymbolTable
 70
     3
  0
APPID
  5
11
330
9
100
AcDbSymbolTableRecord
100
AcDbRegAppTableRecord
  2
ACAD
 70
     0
  0
APPID
  5
3EA5
330
9
100
AcDbSymbolTableRecord
100
AcDbRegAppTableRecord
  2
ACAD_PSEXT
 70
     0
  0
APPID
  5
4562
330
9
100
AcDbSymbolTableRecord
100
AcDbRegAppTableRecord
  2
ACAD_EXEMPT_FROM_CAD_STANDARDS
 70
     0
  0
ENDTAB
  0
TABLE
  2
DIMSTYLE
  5
A
330
0
100
AcDbSymbolTable
 70
     2
100
AcDbDimStyleTable
 71
     1
340
AB7
  0
DIMSTYLE
105
AB7
330
A
100
AcDbSymbolTableRecord
100
AcDbDimStyleTableRecord
  2
STANDARD
 70
     0
 40
11.0
 41
0.1875
 43
0.375
 44
0.1875
 78
     3
140
0.1875
141
0.0625
147
0.0625
276
     2
277
     4
340
6F
  0
DIMSTYLE
105
B04
102
{ACAD_REACTORS
330
1C48
330
1C56
330
331C
330
45DC
330
4708
330
4709
330
4AFF
330
4C99
330
4EA6
330
4EFA
330
4F4B
330
5010
330
50FE
330
510C
330
511A
102
}
330
A
100
AcDbSymbolTableRecord
100
AcDbDimStyleTableRecord
  2
STANDARD$0
 70
     0
 40
11.0
 41
0.1875
 43
0.375
 44
0.1875
 78
     3
140
0.1875
141
0.0625
147
0.0625
276
     2
277
     4
340
6F
  0
ENDTAB
  0
TABLE
  2
BLOCK_RECORD
  5
1
330
0
100
AcDbSymbolTable
 70
    21
  0
BLOCK_RECORD
  5
18
102
{ACAD_XDICTIONARY
360
3ED1
102
}
330
1
100
AcDbSymbolTableRecord
100
AcDbBlockTableRecord
  2
*MODEL_SPACE
340
3E01
 70
     0
280
     1
281
     0
  0
BLOCK_RECORD
  5
15
330
1
100
AcDbSymbolTableRecord
100
AcDbBlockTableRecord
  2
*PAPER_SPACE
340
3E02
 70
     0
280
     1
281
     0
  0
BLOCK_RECORD
  5
1F
330
1
100
AcDbSymbolTableRecord
100
AcDbBlockTableRecord
  2
LINETYPE
340
0
102
{BLKREFS
331
731
331
739
331
87C
331
87D
331
8CE
331
8CF
331
9AA
331
9AB
331
A3D
331
A3E
331
A57
331
A58
331
1052
331
1053
331
108A
331
108B
331
162A
331
163B
331
17F5
331
17FB
331
1AD1
331
1AD2
331
1AD3
331
1AD4
331
1B1A
331
1B1B
331
1B1C
331
210A
331
210B
331
2142
331
2143
331
29BB
331
29D4
331
29D5
331
29D6
331
29D7
331
2A69
331
2A6A
331
2A6D
331
2A6E
331
2ADD
331
3918
331
396D
331
3D14
102
}
 70
     0
280
     1
281
     0
  0
BLOCK_RECORD
  5
1C3B
330
1
100
AcDbSymbolTableRecord
100
AcDbBlockTableRecord
  2
*D1
340
0
 70
     0
280
     1
281
     0
  0
BLOCK_RECORD
  5
1C49
330
1
100
AcDbSymbolTableRecord
100
AcDbBlockTableRecord
  2
*D2
340
0
 70
     0
280
     1
281
     0
  0
BLOCK_RECORD
  5
330F
330
1
100
AcDbSymbolTableRecord
100
AcDbBlockTableRecord
  2
*D3
340
0
 70
     0
280
     1
281
     0
  0
BLOCK_RECORD
  5
3E0E
330
1
100
AcDbSymbolTableRecord
100
AcDbBlockTableRecord
  2
border-T
340
0
102
{BLKREFS
331
3E1F
102
}
 70
     0
280
     1
281
     0
  0
BLOCK_RECORD
  5
421C
330
1
100
AcDbSymbolTableRecord
100
AcDbBlockTableRecord
  2
*X5
340
0
102
{BLKREFS
331
44F3
102
}
 70
     0
280
     1
281
     0
  0
BLOCK_RECORD
  5
45DD
330
1
100
AcDbSymbolTableRecord
100
AcDbBlockTableRecord
  2
*D6
340
0
 70
     0
280
     1
281
     0
  0
BLOCK_RECORD
  5
471C
330
1
100
AcDbSymbolTableRecord
100
AcDbBlockTableRecord
  2
*D7
340
0
 70
     0
280
     1
281
     0
  0
BLOCK_RECORD
  5
4729
330
1
100
AcDbSymbolTableRecord
100
AcDbBlockTableRecord
  2
*D8
340
0
 70
     0
280
     1
281
     0
  0
BLOCK_RECORD
  5
4B39
330
1
100
AcDbSymbolTableRecord
100
AcDbBlockTableRecord
  2
*D9
340
0
 70
     0
280
     1
281
     0
  0
BLOCK_RECORD
  5
4C9A
330
1
100
AcDbSymbolTableRecord
100
AcDbBlockTableRecord
  2
*D10
340
0
 70
     0
280
     1
281
     0
  0
BLOCK_RECORD
  5
4EA7
330
1
100
AcDbSymbolTableRecord
100
AcDbBlockTableRecord
  2
*D11
340
0
 70
     0
280
     1
281
     0
  0
BLOCK_RECORD
  5
4EFB
330
1
100
AcDbSymbolTableRecord
100
AcDbBlockTableRecord
  2
*D12
340
0
 70
     0
280
     1
281
     0
  0
BLOCK_RECORD
  5
4F4C
330
1
100
AcDbSymbolTableRecord
100
AcDbBlockTableRecord
  2
*D16
340
0
 70
     0
280
     1
281
     0
  0
BLOCK_RECORD
  5
5011
330
1
100
AcDbSymbolTableRecord
100
AcDbBlockTableRecord
  2
*D17
340
0
 70
     0
280
     1
281
     0
  0
BLOCK_RECORD
  5
50FF
330
1
100
AcDbSymbolTableRecord
100
AcDbBlockTableRecord
  2
*D18
340
0
 70
     0
280
     1
281
     0
  0
BLOCK_RECORD
  5
510D
330
1
100
AcDbSymbolTableRecord
100
AcDbBlockTableRecord
  2
*D19
340
0
 70
     0
280
     1
281
     0
  0
BLOCK_RECORD
  5
511B
330
1
100
AcDbSymbolTableRecord
100
AcDbBlockTableRecord
  2
*D20
340
0
 70
     0
280
     1
281
     0
  0
ENDTAB
  0
ENDSEC
  0
SECTION
  2
BLOCKS
  0
BLOCK
  5
7C
330
18
100
AcDbEntity
  8
0
 62
     5
100
AcDbBlockBegin
  2
*MODEL_SPACE
 70
     0
 10
0.0
 20
0.0
 30
0.0
  3
*MODEL_SPACE
  1

  0
ENDBLK
  5
7D
330
18
100
AcDbEntity
  8
0
 62
     5
100
AcDbBlockEnd
  0
BLOCK
  5
7A
330
15
100
AcDbEntity
 67
     1
  8
0
 62
     5
100
AcDbBlockBegin
  2
*PAPER_SPACE
 70
     0
 10
0.0
 20
0.0
 30
0.0
  3
*PAPER_SPACE
  1

  0
ENDBLK
  5
7B
330
15
100
AcDbEntity
 67
     1
  8
0
 62
     5
100
AcDbBlockEnd
  0
BLOCK
  5
13D
330
1F
100
AcDbEntity
  8
0
100
AcDbBlockBegin
  2
LINETYPE
 70
     0
 10
0.0
 20
0.0
 30
0.0
  3
LINETYPE
  1

  0
ENDBLK
  5
13E
330
1F
100
AcDbEntity
  8
0
100
AcDbBlockEnd
  0
BLOCK
  5
3616
330
1C3B
100
AcDbEntity
  8
0
100
AcDbBlockBegin
  2
*D1
 70
     1
 10
0.0
 20
0.0
 30
0.0
  3
*D1
  1

  0
LINE
  5
50C6
330
1C3B
100
AcDbEntity
  8
0
 62
     0
370
    -2
100
AcDbLine
 10
965.5960063548976
 20
1246.513736884243
 30
0.0
 11
965.5960063548976
 21
1228.040230881832
 31
0.0
  0
LINE
  5
50C7
330
1C3B
100
AcDbEntity
  8
0
 62
     0
370
    -2
100
AcDbLine
 10
929.5960063548974
 20
1246.513736884242
 30
0.0
 11
929.5960063548974
 21
1228.040230881832
 31
0.0
  0
LINE
  5
50C8
330
1C3B
100
AcDbEntity
  8
0
 62
     0
370
    -2
100
AcDbLine
 10
963.5335063548975
 20
1230.102730881832
 30
0.0
 11
958.399577783469
 21
1230.102730881832
 31
0.0
  0
LINE
  5
50C9
330
1C3B
100
AcDbEntity
  8
0
 62
     0
370
    -2
100
AcDbLine
 10
931.6585063548973
 20
1230.102730881832
 30
0.0
 11
936.792434926326
 21
1230.102730881832
 31
0.0
  0
SOLID
  5
50CA
330
1C3B
100
AcDbEntity
  8
0
 62
     0
100
AcDbTrace
 10
963.5335063548975
 20
1230.446480881832
 30
0.0
 11
963.5335063548975
 21
1229.758980881832
 31
0.0
 12
965.5960063548976
 22
1230.102730881832
 32
0.0
 13
965.5960063548976
 23
1230.102730881832
 33
0.0
  0
SOLID
  5
50CB
330
1C3B
100
AcDbEntity
  8
0
 62
     0
100
AcDbTrace
 10
931.6585063548973
 20
1230.446480881832
 30
0.0
 11
931.6585063548973
 21
1229.758980881832
 31
0.0
 12
929.5960063548974
 22
1230.102730881832
 32
0.0
 13
929.5960063548974
 23
1230.102730881832
 33
0.0
  0
MTEXT
  5
50CC
330
1C3B
100
AcDbEntity
  8
0
 62
     0
100
AcDbMText
 10
947.5960063548976
 20
1230.102730881832
 30
0.0
 40
2.0625
 41
0.0
 46
0.0
 71
     5
 72
     1
  1
\A1;CLEAR TREAD\P+ 4-1/2"
  7
ROMANS
 73
     1
 44
1.0
  0
POINT
  5
50CD
330
1C3B
100
AcDbEntity
  8
DEFPOINTS
 62
     0
100
AcDbPoint
 10
965.5960063548976
 20
1247.201236884243
 30
0.0
  0
POINT
  5
50CE
330
1C3B
100
AcDbEntity
  8
DEFPOINTS
 62
     0
100
AcDbPoint
 10
929.5960063548974
 20
1247.201236884242
 30
0.0
  0
POINT
  5
50CF
330
1C3B
100
AcDbEntity
  8
DEFPOINTS
 62
     0
100
AcDbPoint
 10
929.5960063548974
 20
1230.102730881832
 30
0.0
  0
ENDBLK
  5
3621
330
1C3B
100
AcDbEntity
  8
0
100
AcDbBlockEnd
  0
BLOCK
  5
346B
330
1C49
100
AcDbEntity
  8
0
100
AcDbBlockBegin
  2
*D2
 70
     1
 10
0.0
 20
0.0
 30
0.0
  3
*D2
  1

  0
LINE
  5
50A8
330
1C49
100
AcDbEntity
  8
0
 62
     0
370
    -2
100
AcDbLine
 10
963.3460063548975
 20
1246.513736884243
 30
0.0
 11
963.3460063548975
 21
1240.45098681594
 31
0.0
  0
LINE
  5
50A9
330
1C49
100
AcDbEntity
  8
0
 62
     0
370
    -2
100
AcDbLine
 10
931.8460063548974
 20
1246.513736884242
 30
0.0
 11
931.8460063548974
 21
1240.45098681594
 31
0.0
  0
LINE
  5
50AA
330
1C49
100
AcDbEntity
  8
0
 62
     0
370
    -2
100
AcDbLine
 10
961.2835063548976
 20
1242.51348681594
 30
0.0
 11
958.399577783469
 21
1242.51348681594
 31
0.0
  0
LINE
  5
50AB
330
1C49
100
AcDbEntity
  8
0
 62
     0
370
    -2
100
AcDbLine
 10
933.9085063548974
 20
1242.51348681594
 30
0.0
 11
936.792434926326
 21
1242.51348681594
 31
0.0
  0
SOLID
  5
50AC
330
1C49
100
AcDbEntity
  8
0
 62
     0
100
AcDbTrace
 10
961.2835063548976
 20
1242.85723681594
 30
0.0
 11
961.2835063548976
 21
1242.16973681594
 31
0.0
 12
963.3460063548975
 22
1242.51348681594
 32
0.0
 13
963.3460063548975
 23
1242.51348681594
 33
0.0
  0
SOLID
  5
50AD
330
1C49
100
AcDbEntity
  8
0
 62
     0
100
AcDbTrace
 10
933.9085063548974
 20
1242.85723681594
 30
0.0
 11
933.9085063548974
 21
1242.16973681594
 31
0.0
 12
931.8460063548974
 22
1242.51348681594
 32
0.0
 13
931.8460063548974
 23
1242.51348681594
 33
0.0
  0
MTEXT
  5
50AE
330
1C49
100
AcDbEntity
  8
0
 62
     0
100
AcDbMText
 10
947.5960063548976
 20
1242.51348681594
 30
0.0
 40
2.0625
 41
0.0
 46
0.0
 71
     5
 72
     1
  1
\A1;CLEAR TREAD\P31-1/2"MIN\P55-1/2"MAX
  7
ROMANS
 73
     1
 44
1.0
  0
POINT
  5
50AF
330
1C49
100
AcDbEntity
  8
DEFPOINTS
 62
     0
100
AcDbPoint
 10
963.3460063548975
 20
1247.201236884243
 30
0.0
  0
POINT
  5
50B0
330
1C49
100
AcDbEntity
  8
DEFPOINTS
 62
     0
100
AcDbPoint
 10
931.8460063548974
 20
1247.201236884242
 30
0.0
  0
POINT
  5
50B1
330
1C49
100
AcDbEntity
  8
DEFPOINTS
 62
     0
100
AcDbPoint
 10
931.8460063548974
 20
1242.51348681594
 30
0.0
  0
ENDBLK
  5
3476
330
1C49
100
AcDbEntity
  8
0
100
AcDbBlockEnd
  0
BLOCK
  5
360A
330
330F
100
AcDbEntity
  8
0
100
AcDbBlockBegin
  2
*D3
 70
     1
 10
0.0
 20
0.0
 30
0.0
  3
*D3
  1

  0
LINE
  5
50D0
330
330F
100
AcDbEntity
  8
0
 62
     0
370
    -2
100
AcDbLine
 10
733.2966992243704
 20
1246.513736884244
 30
0.0
 11
733.2966992243704
 21
1228.040230881832
 31
0.0
  0
LINE
  5
50D1
330
330F
100
AcDbEntity
  8
0
 62
     0
370
    -2
100
AcDbLine
 10
889.6398449749012
 20
1246.513736884238
 30
0.0
 11
889.6398449749012
 21
1228.040230881832
 31
0.0
  0
LINE
  5
50D2
330
330F
100
AcDbEntity
  8
0
 62
     0
370
    -2
100
AcDbLine
 10
735.3591992243705
 20
1230.102730881832
 30
0.0
 11
803.5129149567788
 21
1230.102730881832
 31
0.0
  0
LINE
  5
50D3
330
330F
100
AcDbEntity
  8
0
 62
     0
370
    -2
100
AcDbLine
 10
887.5773449749013
 20
1230.102730881832
 30
0.0
 11
819.423629242493
 21
1230.102730881832
 31
0.0
  0
SOLID
  5
50D4
330
330F
100
AcDbEntity
  8
0
 62
     0
100
AcDbTrace
 10
735.3591992243705
 20
1230.446480881832
 30
0.0
 11
735.3591992243705
 21
1229.758980881832
 31
0.0
 12
733.2966992243704
 22
1230.102730881832
 32
0.0
 13
733.2966992243704
 23
1230.102730881832
 33
0.0
  0
SOLID
  5
50D5
330
330F
100
AcDbEntity
  8
0
 62
     0
100
AcDbTrace
 10
887.5773449749013
 20
1230.446480881832
 30
0.0
 11
887.5773449749013
 21
1229.758980881832
 31
0.0
 12
889.6398449749012
 22
1230.102730881832
 32
0.0
 13
889.6398449749012
 23
1230.102730881832
 33
0.0
  0
MTEXT
  5
50D6
330
330F
100
AcDbEntity
  8
0
 62
     0
100
AcDbMText
 10
811.4682720996359
 20
1230.102730881832
 30
0.0
 40
2.0625
 41
0.0
 46
0.0
 71
     5
 72
     1
  1
\A1;AS REQ'D
  7
ROMANS
 73
     1
 44
1.0
  0
POINT
  5
50D7
330
330F
100
AcDbEntity
  8
DEFPOINTS
 62
     0
100
AcDbPoint
 10
733.2966992243704
 20
1247.201236884244
 30
0.0
  0
POINT
  5
50D8
330
330F
100
AcDbEntity
  8
DEFPOINTS
 62
     0
100
AcDbPoint
 10
889.6398449749012
 20
1247.201236884238
 30
0.0
  0
POINT
  5
50D9
330
330F
100
AcDbEntity
  8
DEFPOINTS
 62
     0
100
AcDbPoint
 10
889.6398449749012
 20
1230.102730881832
 30
0.0
  0
ENDBLK
  5
3615
330
330F
100
AcDbEntity
  8
0
100
AcDbBlockEnd
  0
BLOCK
  5
3E1D
330
3E0E
100
AcDbEntity
  8
0
 62
     7
100
AcDbBlockBegin
  2
border-T
 70
     2
 10
0.0
 20
0.0
 30
0.0
  3
border-T
  1

  0
ATTDEF
  5
3E0F
330
3E0E
100
AcDbEntity
  8
0
 62
     5
100
AcDbText
 10
1.270598029493498
 20
16.95296065185261
 30
0.0
 40
2.25
  1

  7
ROMANS
100
AcDbAttributeDefinition
  3
SCALE
  2
SCALE
 70
     0
280
     0
  0
ATTDEF
  5
3E10
330
3E0E
100
AcDbEntity
  8
0
100
AcDbText
 10
267.5431072019895
 20
17.84606723821125
 30
0.0
 40
1.7518359375
  1

  7
ROMANS
 72
     4
 11
267.5431072019895
 21
17.84606723821125
 31
0.0
100
AcDbAttributeDefinition
  3
SAVED AS
  2
SAVEDAS
 70
     0
280
     0
  0
ATTDEF
  5
3E11
330
3E0E
100
AcDbEntity
  8
0
 62
     5
100
AcDbText
 10
65.77232295450201
 20
13.4910955979239
 30
0.0
 40
1.248161764705882
  1

 50
90.0
  7
ROMANS
 72
     4
 11
65.77232295450201
 21
13.4910955979239
 31
0.0
100
AcDbAttributeDefinition
  3
WORK ORDER (X)
  2
X
 70
     0
280
     0
  0
ATTDEF
  5
3E12
330
3E0E
100
AcDbEntity
  8
0
100
AcDbText
 10
120.7768196578975
 20
11.16830391662092
 30
0.0
 40
1.769029714285714
  1

  7
ROMANS
 72
     1
 11
120.7768196578975
 21
11.16830391662092
 31
0.0
100
AcDbAttributeDefinition
  3
ARCHITECT OR ENGINEER
  2
ARCHORENG
 70
     0
280
     0
  0
ATTDEF
  5
3E13
330
3E0E
100
AcDbEntity
  8
0
100
AcDbText
 10
120.7768196578975
 20
6.014881478758579
 30
0.0
 40
1.769029714285714
  1

  7
ROMANS
 72
     1
 11
120.7768196578975
 21
6.014881478758579
 31
0.0
100
AcDbAttributeDefinition
  3
PURCHASE ORDER
  2
PURCHASEORDER
 70
     0
280
     0
  0
ATTDEF
  5
3E14
330
3E0E
100
AcDbEntity
  8
0
100
AcDbText
 10
118.4602331272852
 20
0.8614590408961362
 30
0.0
 40
1.769029714285714
  1
JEB
  7
ROMANS
 72
     1
 11
120.7768196578975
 21
0.8614590408961362
 31
0.0
100
AcDbAttributeDefinition
  3
WHO ARE YOU?
  2
DRAWNBY
 70
     0
280
     0
  0
ATTDEF
  5
3E15
330
3E0E
100
AcDbEntity
  8
0
100
AcDbText
 10
151.0307482293261
 20
6.014881478758579
 30
0.0
 40
1.769029714285714
  1

  7
ROMANS
 72
     1
 11
151.0307482293261
 21
6.014881478758579
 31
0.0
100
AcDbAttributeDefinition
  3
WORK ORDER DATE?
  2
DATE
 70
     0
280
     0
  0
ATTDEF
  5
3E16
330
3E0E
100
AcDbEntity
  8
0
100
AcDbText
 10
151.0307482293261
 20
0.8614590408961362
 30
0.0
 40
1.769029714285714
  1

  7
ROMANS
 72
     1
 11
151.0307482293261
 21
0.8614590408961362
 31
0.0
100
AcDbAttributeDefinition
  3
WHAT IS TODAY'S DATE?
  2
DATE
 70
     0
280
     0
  0
ATTDEF
  5
3E17
330
3E0E
100
AcDbEntity
  8
0
100
AcDbText
 10
181.2846768007546
 20
11.16830391662092
 30
0.0
 40
1.769029714285714
  1

  7
ROMANS
 72
     1
 11
181.2846768007546
 21
11.16830391662092
 31
0.0
100
AcDbAttributeDefinition
  3
PROJECT
  2
PROJECT
 70
     0
280
     0
  0
ATTDEF
  5
3E18
330
3E0E
100
AcDbEntity
  8
0
100
AcDbText
 10
189.535748229326
 20
6.014881478758579
 30
0.0
 40
1.769029714285714
  1

  7
ROMANS
 72
     1
 11
189.535748229326
 21
6.014881478758579
 31
0.0
100
AcDbAttributeDefinition
  3
PURCHASER
  2
PURCHASER
 70
     0
280
     0
  0
ATTDEF
  5
3E19
330
3E0E
100
AcDbEntity
  8
0
100
AcDbText
 10
184.0350339436118
 20
0.8614590408962374
 30
0.0
 40
1.769029714285714
  1

  7
ROMANS
 72
     1
 11
184.0350339436118
 21
0.8614590408962374
 31
0.0
100
AcDbAttributeDefinition
  3
MODEL #
  2
MODEL
 70
     0
280
     0
  0
ATTDEF
  5
3E1A
330
3E0E
100
AcDbEntity
  8
0
100
AcDbText
 10
213.5729266783056
 20
0.8614590408961362
 30
0.0
 40
1.769029714285714
  1
1
  7
ROMANS
 72
     1
 11
214.2889625150403
 21
0.8614590408961362
 31
0.0
100
AcDbAttributeDefinition
  3
QUANTITY
  2
QTY
 70
     0
280
     0
  0
ATTDEF
  5
3E1B
330
3E0E
100
AcDbEntity
  8
0
100
AcDbText
 10
247.2932482293261
 20
11.16763472788734
 30
0.0
 40
1.769029714285714
  1

  7
ROMANS
 72
     1
 11
247.2932482293261
 21
11.16763472788734
 31
0.0
100
AcDbAttributeDefinition
  3
PRECISION REP
  2
REP
 70
     0
280
     0
  0
ATTDEF
  5
3E1C
330
3E0E
100
AcDbEntity
  8
0
100
AcDbText
 10
247.3274175489777
 20
3.153238685427304
 30
0.0
 40
3.455136160714285
  1

  7
ROMANS
 72
     1
 11
247.3274175489777
 21
3.153238685427304
 31
0.0
100
AcDbAttributeDefinition
  3
SERIAL #
  2
L010000
 70
     0
280
     0
  0
ENDBLK
  5
3E1E
330
3E0E
100
AcDbEntity
  8
0
 62
     7
100
AcDbBlockEnd
  0
BLOCK
  5
421D
330
421C
100
AcDbEntity
  8
0
100
AcDbBlockBegin
  2
*X5
 70
     1
 10
0.0
 20
0.0
 30
0.0
  3
*X5
  1

  0
LINE
  5
421E
330
421C
100
AcDbEntity
  8
0
 62
     0
100
AcDbLine
 10
-39.38783740946116
 20
-279.4947837961181
 30
0.0
 11
-38.65407559127778
 21
-278.7610219779348
 31
0.0
  0
LINE
  5
421F
330
421C
100
AcDbEntity
  8
0
 62
     0
100
AcDbLine
 10
-39.50054631068232
 20
-279.4749101758668
 30
0.0
 11
-38.76678449249896
 21
-278.7411483576835
 31
0.0
  0
LINE
  5
4220
330
421C
100
AcDbEntity
  8
0
 62
     0
100
AcDbLine
 10
-39.61325521190351
 20
-279.4550365556156
 30
0.0
 11
-38.87949339372014
 21
-278.7212747374322
 31
0.0
  0
LINE
  5
4221
330
421C
100
AcDbEntity
  8
0
 62
     0
100
AcDbLine
 10
-39.7259641131247
 20
-279.4351629353642
 30
0.0
 11
-38.99220229494132
 21
-278.7014011171809
 31
0.0
  0
LINE
  5
4222
330
421C
100
AcDbEntity
  8
0
 62
     0
100
AcDbLine
 10
-39.83867301434587
 20
-279.415289315113
 30
0.0
 11
-39.1049111961625
 21
-278.6815274969296
 31
0.0
  0
LINE
  5
4223
330
421C
100
AcDbEntity
  8
0
 62
     0
100
AcDbLine
 10
-39.95138191556705
 20
-279.3954156948617
 30
0.0
 11
-39.21762009738368
 21
-278.6616538766783
 31
0.0
  0
LINE
  5
4224
330
421C
100
AcDbEntity
  8
0
 62
     0
100
AcDbLine
 10
-40.06409081678821
 20
-279.3755420746104
 30
0.0
 11
-39.33032899860484
 21
-278.641780256427
 31
0.0
  0
LINE
  5
4225
330
421C
100
AcDbEntity
  8
0
 62
     0
100
AcDbLine
 10
-40.1767997180094
 20
-279.3556684543591
 30
0.0
 11
-40.06372011526283
 21
-279.2425888516125
 31
0.0
  0
LINE
  5
4226
330
421C
100
AcDbEntity
  8
0
 62
     0
100
AcDbLine
 10
-39.89688315430998
 20
-279.0757518906596
 30
0.0
 11
-39.44303789982602
 21
-278.6219066361756
 31
0.0
  0
LINE
  5
4227
330
421C
100
AcDbEntity
  8
0
 62
     0
100
AcDbLine
 10
-40.06372011526283
 20
-279.2425888516125
 30
0.0
 11
-39.89688315430998
 21
-279.0757518906597
 31
0.0
  0
LINE
  5
4228
330
421C
100
AcDbEntity
  8
0
 62
     0
100
AcDbLine
 10
-40.28950861923056
 20
-279.3357948341077
 30
0.0
 11
-40.10500766087813
 21
-279.1512938757553
 31
0.0
  0
LINE
  5
4229
330
421C
100
AcDbEntity
  8
0
 62
     0
100
AcDbLine
 10
-39.94078059974761
 20
-278.9870668146248
 30
0.0
 11
-39.5557468010472
 21
-278.6020330159244
 31
0.0
  0
LINE
  5
422A
330
421C
100
AcDbEntity
  8
0
 62
     0
100
AcDbLine
 10
-40.10500766087811
 20
-279.1512938757553
 30
0.0
 11
-39.9407805997476
 21
-278.9870668146248
 31
0.0
  0
LINE
  5
422B
330
421C
100
AcDbEntity
  8
0
 62
     0
100
AcDbLine
 10
-40.36990717715883
 20
-279.2836108705636
 30
0.0
 11
-40.1462952064934
 21
-279.0599988998982
 31
0.0
  0
LINE
  5
422C
330
421C
100
AcDbEntity
  8
0
 62
     0
100
AcDbLine
 10
-39.98467804518519
 20
-278.8983817385899
 30
0.0
 11
-39.66845570226838
 21
-278.5821593956731
 31
0.0
  0
LINE
  5
422D
330
421C
100
AcDbEntity
  8
0
 62
     0
100
AcDbLine
 10
-40.14629520649338
 20
-279.0599988998981
 30
0.0
 11
-39.98467804518524
 21
-278.89838173859
 31
0.0
  0
LINE
  5
422E
330
421C
100
AcDbEntity
  8
0
 62
     0
100
AcDbLine
 10
-40.32903303677044
 20
-279.1101542087027
 30
0.0
 11
-40.18758275210868
 21
-278.968703924041
 31
0.0
  0
LINE
  5
422F
330
421C
100
AcDbEntity
  8
0
 62
     0
100
AcDbLine
 10
-40.02857549062279
 20
-278.8096966625551
 30
0.0
 11
-39.78116460348956
 21
-278.5622857754218
 31
0.0
  0
LINE
  5
4230
330
421C
100
AcDbEntity
  8
0
 62
     0
100
AcDbLine
 10
-40.18758275210866
 20
-278.9687039240409
 30
0.0
 11
-40.02857549062286
 21
-278.8096966625551
 31
0.0
  0
LINE
  5
4231
330
421C
100
AcDbEntity
  8
0
 62
     0
100
AcDbLine
 10
-40.28815889638206
 20
-278.9366975468419
 30
0.0
 11
-40.22887029772395
 21
-278.8774089481838
 31
0.0
  0
LINE
  5
4232
330
421C
100
AcDbEntity
  8
0
 62
     0
100
AcDbLine
 10
-40.07247293606041
 20
-278.7210115865202
 30
0.0
 11
-39.89387350471074
 21
-278.5424121551705
 31
0.0
  0
LINE
  5
4233
330
421C
100
AcDbEntity
  8
0
 62
     0
100
AcDbLine
 10
-40.22887029772394
 20
-278.8774089481837
 30
0.0
 11
-40.07247293606049
 21
-278.7210115865203
 31
0.0
  0
LINE
  5
4234
330
421C
100
AcDbEntity
  8
0
 62
     0
100
AcDbLine
 10
-40.27015784333923
 20
-278.7861139723266
 30
0.0
 11
-40.11637038149812
 21
-278.6323265104854
 31
0.0
  0
LINE
  5
4235
330
421C
100
AcDbEntity
  8
0
 62
     0
100
AcDbLine
 10
-40.116370381498
 20
-278.6323265104853
 30
0.0
 11
-40.00658240593192
 21
-278.5225385349192
 31
0.0
  0
LINE
  5
4236
330
421C
100
AcDbEntity
  8
0
 62
     0
100
AcDbLine
 10
-40.31144538895452
 20
-278.6948189964694
 30
0.0
 11
-40.30692854477254
 21
-278.6903021522874
 31
0.0
  0
LINE
  5
4237
330
421C
100
AcDbEntity
  8
0
 62
     0
100
AcDbLine
 10
-39.69215944246978
 20
-278.0755330499846
 30
0.0
 11
-39.59237083622737
 21
-277.9757444437422
 31
0.0
  0
LINE
  5
4238
330
421C
100
AcDbEntity
  8
0
 62
     0
100
AcDbLine
 10
-40.30692854477248
 20
-278.6903021522873
 30
0.0
 11
-40.20641061560525
 21
-278.5897842231201
 31
0.0
  0
LINE
  5
4239
330
421C
100
AcDbEntity
  8
0
 62
     0
100
AcDbLine
 10
-40.16017812122486
 20
-278.5435517287397
 30
0.0
 11
-40.11929130715309
 21
-278.5026649146679
 31
0.0
  0
LINE
  5
423A
330
421C
100
AcDbEntity
  8
0
 62
     0
100
AcDbLine
 10
-40.20466276288202
 20
-278.5880363703969
 30
0.0
 11
-40.16017812122502
 21
-278.5435517287398
 31
0.0
  0
LINE
  5
423B
330
421C
100
AcDbEntity
  8
0
 62
     0
100
AcDbLine
 10
-40.41225758634928
 20
-278.6630486723916
 30
0.0
 11
-40.23018407840633
 21
-278.4809751644487
 31
0.0
  0
LINE
  5
423C
330
421C
100
AcDbEntity
  8
0
 62
     0
100
AcDbLine
 10
-39.73691136690469
 20
-277.987702452947
 30
0.0
 11
-39.6371227606623
 21
-277.8879138467047
 31
0.0
  0
LINE
  5
423D
330
421C
100
AcDbEntity
  8
0
 62
     0
100
AcDbLine
 10
-40.23018407840633
 20
-278.4809751644486
 30
0.0
 11
-40.20259152936932
 21
-278.4533826154117
 31
0.0
  0
LINE
  5
423E
330
421C
100
AcDbEntity
  8
0
 62
     0
100
AcDbLine
 10
-40.57051962558798
 20
-278.6887281901577
 30
0.0
 11
-40.51758662792604
 21
-278.6357951924959
 31
0.0
  0
LINE
  5
423F
330
421C
100
AcDbEntity
  8
0
 62
     0
100
AcDbLine
 10
-39.78166329133961
 20
-277.8998718559094
 30
0.0
 11
-39.68187468509722
 21
-277.8000832496671
 31
0.0
  0
LINE
  5
4240
330
421C
100
AcDbEntity
  8
0
 62
     0
100
AcDbLine
 10
-40.51758662792603
 20
-278.6357951924959
 30
0.0
 11
-40.33869630383812
 21
-278.456904868408
 31
0.0
  0
LINE
  5
4241
330
421C
100
AcDbEntity
  8
0
 62
     0
100
AcDbLine
 10
-40.33869630383812
 20
-278.456904868408
 30
0.0
 11
-40.24734345380425
 21
-278.3655520183742
 31
0.0
  0
LINE
  5
4242
330
421C
100
AcDbEntity
  8
0
 62
     0
100
AcDbLine
 10
-40.84083440815077
 20
-278.8264604512481
 30
0.0
 11
-40.62291566950281
 21
-278.6085417126002
 31
0.0
  0
LINE
  5
4243
330
421C
100
AcDbEntity
  8
0
 62
     0
100
AcDbLine
 10
-39.82641521577454
 20
-277.812041258872
 30
0.0
 11
-39.72662660953214
 21
-277.7122526526295
 31
0.0
  0
LINE
  5
4244
330
421C
100
AcDbEntity
  8
0
 62
     0
100
AcDbLine
 10
-40.62291566950278
 20
-278.6085417126002
 30
0.0
 11
-40.44720852926992
 21
-278.4328345723673
 31
0.0
  0
LINE
  5
4245
330
421C
100
AcDbEntity
  8
0
 62
     0
100
AcDbLine
 10
-40.44720852926991
 20
-278.4328345723673
 30
0.0
 11
-40.29209537823916
 21
-278.2777214213366
 31
0.0
  0
LINE
  5
4246
330
421C
100
AcDbEntity
  8
0
 62
     0
100
AcDbLine
 10
-41.07098574326527
 20
-278.9240292648902
 30
0.0
 11
-40.96884180887604
 21
-278.821885330501
 31
0.0
  0
LINE
  5
4247
330
421C
100
AcDbEntity
  8
0
 62
     0
100
AcDbLine
 10
-39.87116714020946
 20
-277.7242106618344
 30
0.0
 11
-39.77137853396706
 21
-277.624422055592
 31
0.0
  0
LINE
  5
4248
330
421C
100
AcDbEntity
  8
0
 62
     0
100
AcDbLine
 10
-40.96884180887601
 20
-278.8218853305009
 30
0.0
 11
-40.72824471107957
 21
-278.5812882327045
 31
0.0
  0
LINE
  5
4249
330
421C
100
AcDbEntity
  8
0
 62
     0
100
AcDbLine
 10
-40.55572075470169
 20
-278.4087642763266
 30
0.0
 11
-40.33684730267409
 21
-278.189890824299
 31
0.0
  0
LINE
  5
424A
330
421C
100
AcDbEntity
  8
0
 62
     0
100
AcDbLine
 10
-40.72824471107958
 20
-278.5812882327045
 30
0.0
 11
-40.55572075470172
 21
-278.4087642763266
 31
0.0
  0
LINE
  5
424B
330
421C
100
AcDbEntity
  8
0
 62
     0
100
AcDbLine
 10
-41.11573766770019
 20
-278.8361986678526
 30
0.0
 11
-41.01359373331094
 21
-278.7340547334634
 31
0.0
  0
LINE
  5
424C
330
421C
100
AcDbEntity
  8
0
 62
     0
100
AcDbLine
 10
-39.91591906464438
 20
-277.6363800647968
 30
0.0
 11
-39.81613045840198
 21
-277.5365914585544
 31
0.0
  0
LINE
  5
424D
330
421C
100
AcDbEntity
  8
0
 62
     0
100
AcDbLine
 10
-41.01359373331097
 20
-278.7340547334634
 30
0.0
 11
-40.83357375265634
 21
-278.5540347528088
 31
0.0
  0
LINE
  5
424E
330
421C
100
AcDbEntity
  8
0
 62
     0
100
AcDbLine
 10
-40.66423298013347
 20
-278.3846939802859
 30
0.0
 11
-40.38159922710902
 21
-278.1020602272615
 31
0.0
  0
LINE
  5
424F
330
421C
100
AcDbEntity
  8
0
 62
     0
100
AcDbLine
 10
-40.83357375265634
 20
-278.5540347528088
 30
0.0
 11
-40.66423298013349
 21
-278.384693980286
 31
0.0
  0
LINE
  5
4250
330
421C
100
AcDbEntity
  8
0
 62
     0
100
AcDbLine
 10
-41.16048959213512
 20
-278.7483680708151
 30
0.0
 11
-41.05834565774588
 21
-278.6462241364259
 31
0.0
  0
LINE
  5
4251
330
421C
100
AcDbEntity
  8
0
 62
     0
100
AcDbLine
 10
-39.96067098907931
 20
-277.5485494677593
 30
0.0
 11
-39.86088238283691
 21
-277.4487608615169
 31
0.0
  0
LINE
  5
4252
330
421C
100
AcDbEntity
  8
0
 62
     0
100
AcDbLine
 10
-41.05834565774586
 20
-278.6462241364258
 30
0.0
 11
-40.93646758632097
 21
-278.524346065001
 31
0.0
  0
LINE
  5
4253
330
421C
100
AcDbEntity
  8
0
 62
     0
100
AcDbLine
 10
-40.77274520556526
 20
-278.3606236842452
 30
0.0
 11
-40.42635115154395
 21
-278.0142296302239
 31
0.0
  0
LINE
  5
4254
330
421C
100
AcDbEntity
  8
0
 62
     0
100
AcDbLine
 10
-40.93646758632099
 20
-278.524346065001
 30
0.0
 11
-40.77274520556528
 21
-278.3606236842453
 31
0.0
  0
LINE
  5
4255
330
421C
100
AcDbEntity
  8
0
 62
     0
100
AcDbLine
 10
-41.20524151657004
 20
-278.6605374737775
 30
0.0
 11
-41.10309758218079
 21
-278.5583935393883
 31
0.0
  0
LINE
  5
4256
330
421C
100
AcDbEntity
  8
0
 62
     0
100
AcDbLine
 10
-40.00542291351423
 20
-277.4607188707217
 30
0.0
 11
-39.90563430727183
 21
-277.3609302644794
 31
0.0
  0
LINE
  5
4257
330
421C
100
AcDbEntity
  8
0
 62
     0
100
AcDbLine
 10
-41.10309758218081
 20
-278.5583935393883
 30
0.0
 11
-40.90160135388338
 21
-278.3568973110909
 31
0.0
  0
LINE
  5
4258
330
421C
100
AcDbEntity
  8
0
 62
     0
100
AcDbLine
 10
-40.87969543086212
 20
-278.3349913880696
 30
0.0
 11
-40.47110307597886
 21
-277.9263990331864
 31
0.0
  0
LINE
  5
4259
330
421C
100
AcDbEntity
  8
0
 62
     0
100
AcDbLine
 10
-40.9016013538834
 20
-278.3568973110909
 30
0.0
 11
-40.87969543086214
 21
-278.3349913880696
 31
0.0
  0
LINE
  5
425A
330
421C
100
AcDbEntity
  8
0
 62
     0
100
AcDbLine
 10
-41.24999344100497
 20
-278.57270687674
 30
0.0
 11
-41.14784950661573
 21
-278.4705629423507
 31
0.0
  0
LINE
  5
425B
330
421C
100
AcDbEntity
  8
0
 62
     0
100
AcDbLine
 10
-40.05017483794916
 20
-277.3728882736842
 30
0.0
 11
-39.95038623170675
 21
-277.2730996674417
 31
0.0
  0
LINE
  5
425C
330
421C
100
AcDbEntity
  8
0
 62
     0
100
AcDbLine
 10
-41.14784950661571
 20
-278.4705629423507
 30
0.0
 11
-40.51585500041379
 21
-277.8385684361488
 31
0.0
  0
LINE
  5
425D
330
421C
100
AcDbEntity
  8
0
 62
     0
100
AcDbLine
 10
-40.13520989857035
 20
-277.4579233343053
 30
0.0
 11
-40.05017483794913
 21
-277.3728882736842
 31
0.0
  0
LINE
  5
425E
330
421C
100
AcDbEntity
  8
0
 62
     0
100
AcDbLine
 10
-41.29474536543989
 20
-278.4848762797024
 30
0.0
 11
-41.19260143105066
 21
-278.3827323453132
 31
0.0
  0
LINE
  5
425F
330
421C
100
AcDbEntity
  8
0
 62
     0
100
AcDbLine
 10
-40.09492676238408
 20
-277.2850576766466
 30
0.0
 11
-39.99513815614167
 21
-277.1852690704042
 31
0.0
  0
LINE
  5
4260
330
421C
100
AcDbEntity
  8
0
 62
     0
100
AcDbLine
 10
-41.19260143105065
 20
-278.3827323453131
 30
0.0
 11
-40.56060692484869
 21
-277.7507378391113
 31
0.0
  0
LINE
  5
4261
330
421C
100
AcDbEntity
  8
0
 62
     0
100
AcDbLine
 10
-40.39402495983168
 20
-277.5841558740942
 30
0.0
 11
-40.09492676238404
 21
-277.2850576766466
 31
0.0
  0
LINE
  5
4262
330
421C
100
AcDbEntity
  8
0
 62
     0
100
AcDbLine
 10
-41.3394972898748
 20
-278.3970456826649
 30
0.0
 11
-41.23735335548558
 21
-278.2949017482756
 31
0.0
  0
LINE
  5
4263
330
421C
100
AcDbEntity
  8
0
 62
     0
100
AcDbLine
 10
-40.13967868681899
 20
-277.197227079609
 30
0.0
 11
-40.0398900805766
 21
-277.0974384733666
 31
0.0
  0
LINE
  5
4264
330
421C
100
AcDbEntity
  8
0
 62
     0
100
AcDbLine
 10
-41.23735335548557
 20
-278.2949017482756
 30
0.0
 11
-40.65284002109301
 21
-277.7103884138831
 31
0.0
  0
LINE
  5
4265
330
421C
100
AcDbEntity
  8
0
 62
     0
100
AcDbLine
 10
-40.65284002109302
 20
-277.710388413883
 30
0.0
 11
-40.33209807941335
 21
-277.3896464722034
 31
0.0
  0
LINE
  5
4266
330
421C
100
AcDbEntity
  8
0
 62
     0
100
AcDbLine
 10
-41.38424921430973
 20
-278.3092150856273
 30
0.0
 11
-41.28210527992051
 21
-278.2070711512381
 31
0.0
  0
LINE
  5
4267
330
421C
100
AcDbEntity
  8
0
 62
     0
100
AcDbLine
 10
-40.18443061125393
 20
-277.1093964825715
 30
0.0
 11
-40.08464200501151
 21
-277.0096078763291
 31
0.0
  0
LINE
  5
4268
330
421C
100
AcDbEntity
  8
0
 62
     0
100
AcDbLine
 10
-41.2821052799205
 20
-278.2070711512381
 30
0.0
 11
-40.91165508235433
 21
-277.8366209536719
 31
0.0
  0
LINE
  5
4269
330
421C
100
AcDbEntity
  8
0
 62
     0
100
AcDbLine
 10
-40.91165508235427
 20
-277.8366209536719
 30
0.0
 11
-40.60241286197611
 21
-277.5273787332937
 31
0.0
  0
LINE
  5
426A
330
421C
100
AcDbEntity
  8
0
 62
     0
100
AcDbLine
 10
-41.42900113874467
 20
-278.2213844885897
 30
0.0
 11
-41.32685720435543
 21
-278.1192405542005
 31
0.0
  0
LINE
  5
426B
330
421C
100
AcDbEntity
  8
0
 62
     0
100
AcDbLine
 10
-40.22918253568884
 20
-277.0215658855339
 30
0.0
 11
-40.12939392944644
 21
-276.9217772792915
 31
0.0
  0
LINE
  5
426C
330
421C
100
AcDbEntity
  8
0
 62
     0
100
AcDbLine
 10
-41.32685720435541
 20
-278.1192405542005
 30
0.0
 11
-40.99595323982196
 21
-277.788336589667
 31
0.0
  0
LINE
  5
426D
330
421C
100
AcDbEntity
  8
0
 62
     0
100
AcDbLine
 10
-40.87272764453877
 20
-277.6651109943838
 30
0.0
 11
-40.69486269815346
 21
-277.4872460479985
 31
0.0
  0
LINE
  5
426E
330
421C
100
AcDbEntity
  8
0
 62
     0
100
AcDbLine
 10
-40.99595323982194
 20
-277.788336589667
 30
0.0
 11
-40.87272764453897
 21
-277.665110994384
 31
0.0
  0
LINE
  5
426F
330
421C
100
AcDbEntity
  8
0
 62
     0
100
AcDbLine
 10
-41.47375306317957
 20
-278.1335538915521
 30
0.0
 11
-41.37160912879036
 21
-278.031409957163
 31
0.0
  0
LINE
  5
4270
330
421C
100
AcDbEntity
  8
0
 62
     0
100
AcDbLine
 10
-40.27393446012377
 20
-276.9337352884964
 30
0.0
 11
-40.17414585388136
 21
-276.833946682254
 31
0.0
  0
LINE
  5
4271
330
421C
100
AcDbEntity
  8
0
 62
     0
100
AcDbLine
 10
-41.37160912879035
 20
-278.0314099571629
 30
0.0
 11
-40.73961462258838
 21
-277.399415450961
 31
0.0
  0
LINE
  5
4272
330
421C
100
AcDbEntity
  8
0
 62
     0
100
AcDbLine
 10
-41.51850498761451
 20
-278.0457232945146
 30
0.0
 11
-41.41636105322528
 21
-277.9435793601255
 31
0.0
  0
LINE
  5
4273
330
421C
100
AcDbEntity
  8
0
 62
     0
100
AcDbLine
 10
-40.3186863845587
 20
-276.8459046914588
 30
0.0
 11
-40.21889777831629
 21
-276.7461160852164
 31
0.0
  0
LINE
  5
4274
330
421C
100
AcDbEntity
  8
0
 62
     0
100
AcDbLine
 10
-41.41636105322527
 20
-277.9435793601254
 30
0.0
 11
-40.78436654702331
 21
-277.3115848539234
 31
0.0
  0
LINE
  5
4275
330
421C
100
AcDbEntity
  8
0
 62
     0
100
AcDbLine
 10
-41.56325691204942
 20
-277.9578926974771
 30
0.0
 11
-41.46111297766021
 21
-277.8557487630879
 31
0.0
  0
LINE
  5
4276
330
421C
100
AcDbEntity
  8
0
 62
     0
100
AcDbLine
 10
-40.36343830899361
 20
-276.7580740944213
 30
0.0
 11
-40.2636497027512
 21
-276.6582854881789
 31
0.0
  0
LINE
  5
4277
330
421C
100
AcDbEntity
  8
0
 62
     0
100
AcDbLine
 10
-41.4611129776602
 20
-277.8557487630878
 30
0.0
 11
-40.82911847145823
 21
-277.2237542568859
 31
0.0
  0
LINE
  5
4278
330
421C
100
AcDbEntity
  8
0
 62
     0
100
AcDbLine
 10
-41.60800883648435
 20
-277.8700621004395
 30
0.0
 11
-41.50586490209513
 21
-277.7679181660503
 31
0.0
  0
LINE
  5
4279
330
421C
100
AcDbEntity
  8
0
 62
     0
100
AcDbLine
 10
-40.40819023342854
 20
-276.6702434973837
 30
0.0
 11
-40.30840162718615
 21
-276.5704548911414
 31
0.0
  0
LINE
  5
427A
330
421C
100
AcDbEntity
  8
0
 62
     0
100
AcDbLine
 10
-41.50586490209512
 20
-277.7679181660503
 30
0.0
 11
-40.87387039589315
 21
-277.1359236598483
 31
0.0
  0
LINE
  5
427B
330
421C
100
AcDbEntity
  8
0
 62
     0
100
AcDbLine
 10
-41.65276076091928
 20
-277.782231503402
 30
0.0
 11
-41.55061682653006
 21
-277.6800875690128
 31
0.0
  0
LINE
  5
427C
330
421C
100
AcDbEntity
  8
0
 62
     0
100
AcDbLine
 10
-40.45294215786347
 20
-276.5824129003462
 30
0.0
 11
-40.35315355162107
 21
-276.4826242941037
 31
0.0
  0
LINE
  5
427D
330
421C
100
AcDbEntity
  8
0
 62
     0
100
AcDbLine
 10
-41.55061682653004
 20
-277.6800875690128
 30
0.0
 11
-40.91862232032808
 21
-277.0480930628108
 31
0.0
  0
LINE
  5
427E
330
421C
100
AcDbEntity
  8
0
 62
     0
100
AcDbLine
 10
-41.6975126853542
 20
-277.6944009063644
 30
0.0
 11
-41.59536875096497
 21
-277.5922569719752
 31
0.0
  0
LINE
  5
427F
330
421C
100
AcDbEntity
  8
0
 62
     0
100
AcDbLine
 10
-40.49769408229838
 20
-276.4945823033086
 30
0.0
 11
-40.39790547605599
 21
-276.3947936970662
 31
0.0
  0
LINE
  5
4280
330
421C
100
AcDbEntity
  8
0
 62
     0
100
AcDbLine
 10
-41.59536875096496
 20
-277.5922569719751
 30
0.0
 11
-40.963374244763
 21
-276.9602624657732
 31
0.0
  0
LINE
  5
4281
330
421C
100
AcDbEntity
  8
0
 62
     0
100
AcDbLine
 10
-41.74226460978912
 20
-277.6065703093268
 30
0.0
 11
-41.6401206753999
 21
-277.5044263749377
 31
0.0
  0
LINE
  5
4282
330
421C
100
AcDbEntity
  8
0
 62
     0
100
AcDbLine
 10
-40.54244600673332
 20
-276.4067517062711
 30
0.0
 11
-40.44265740049091
 21
-276.3069631000287
 31
0.0
  0
LINE
  5
4283
330
421C
100
AcDbEntity
  8
0
 62
     0
100
AcDbLine
 10
-41.64012067539989
 20
-277.5044263749376
 30
0.0
 11
-41.00812616919793
 21
-276.8724318687357
 31
0.0
  0
LINE
  5
4284
330
421C
100
AcDbEntity
  8
0
 62
     0
100
AcDbLine
 10
-41.78701653422404
 20
-277.5187397122893
 30
0.0
 11
-41.68487259983481
 21
-277.4165957779001
 31
0.0
  0
LINE
  5
4285
330
421C
100
AcDbEntity
  8
0
 62
     0
100
AcDbLine
 10
-40.58719793116824
 20
-276.3189211092335
 30
0.0
 11
-40.48740932492584
 21
-276.2191325029911
 31
0.0
  0
LINE
  5
4286
330
421C
100
AcDbEntity
  8
0
 62
     0
100
AcDbLine
 10
-41.68487259983482
 20
-277.4165957779001
 30
0.0
 11
-41.05287809363285
 21
-276.7846012716981
 31
0.0
  0
LINE
  5
4287
330
421C
100
AcDbEntity
  8
0
 62
     0
100
AcDbLine
 10
-41.83176845865896
 20
-277.4309091152518
 30
0.0
 11
-41.72962452426975
 21
-277.3287651808626
 31
0.0
  0
LINE
  5
4288
330
421C
100
AcDbEntity
  8
0
 62
     0
100
AcDbLine
 10
-40.63194985560315
 20
-276.2310905121959
 30
0.0
 11
-40.53216124936076
 21
-276.1313019059535
 31
0.0
  0
LINE
  5
4289
330
421C
100
AcDbEntity
  8
0
 62
     0
100
AcDbLine
 10
-41.72962452426975
 20
-277.3287651808625
 30
0.0
 11
-41.09763001806778
 21
-276.6967706746606
 31
0.0
  0
LINE
  5
428A
330
421C
100
AcDbEntity
  8
0
 62
     0
100
AcDbLine
 10
-41.8765203830939
 20
-277.3430785182142
 30
0.0
 11
-41.77437644870467
 21
-277.240934583825
 31
0.0
  0
LINE
  5
428B
330
421C
100
AcDbEntity
  8
0
 62
     0
100
AcDbLine
 10
-40.67670178003808
 20
-276.1432599151584
 30
0.0
 11
-40.57691317379568
 21
-276.043471308916
 31
0.0
  0
LINE
  5
428C
330
421C
100
AcDbEntity
  8
0
 62
     0
100
AcDbLine
 10
-41.77437644870467
 20
-277.240934583825
 30
0.0
 11
-41.1423819425027
 21
-276.608940077623
 31
0.0
  0
LINE
  5
428D
330
421C
100
AcDbEntity
  8
0
 62
     0
100
AcDbLine
 10
-41.92127230752881
 20
-277.2552479211766
 30
0.0
 11
-41.8191283731396
 21
-277.1531039867875
 31
0.0
  0
LINE
  5
428E
330
421C
100
AcDbEntity
  8
0
 62
     0
100
AcDbLine
 10
-40.72145370447301
 20
-276.0554293181209
 30
0.0
 11
-40.6216650982306
 21
-275.9556407118785
 31
0.0
  0
LINE
  5
428F
330
421C
100
AcDbEntity
  8
0
 62
     0
100
AcDbLine
 10
-41.81912837313959
 20
-277.1531039867874
 30
0.0
 11
-41.18713386693762
 21
-276.5211094805855
 31
0.0
  0
LINE
  5
4290
330
421C
100
AcDbEntity
  8
0
 62
     0
100
AcDbLine
 10
-41.96602423196374
 20
-277.1674173241391
 30
0.0
 11
-41.86388029757452
 21
-277.0652733897499
 31
0.0
  0
LINE
  5
4291
330
421C
100
AcDbEntity
  8
0
 62
     0
100
AcDbLine
 10
-35.8061910555824
 20
-271.0075841477578
 30
0.0
 11
-35.70443277119299
 21
-270.9058258633683
 31
0.0
  0
LINE
  5
4292
330
421C
100
AcDbEntity
  8
0
 62
     0
100
AcDbLine
 10
-41.86388029757451
 20
-277.0652733897498
 30
0.0
 11
-41.23188579137255
 21
-276.4332788835479
 31
0.0
  0
LINE
  5
4293
330
421C
100
AcDbEntity
  8
0
 62
     0
100
AcDbLine
 10
-40.76620562890794
 20
-275.9675987210833
 30
0.0
 11
-40.66641702266553
 21
-275.8678101148409
 31
0.0
  0
LINE
  5
4294
330
421C
100
AcDbEntity
  8
0
 62
     0
100
AcDbLine
 10
-42.01077615639866
 20
-277.0795867271015
 30
0.0
 11
-41.90863222200944
 21
-276.9774427927123
 31
0.0
  0
LINE
  5
4295
330
421C
100
AcDbEntity
  8
0
 62
     0
100
AcDbLine
 10
-35.93877357705487
 20
-271.0075841477578
 30
0.0
 11
-35.70443277119299
 21
-270.7732433418959
 31
0.0
  0
LINE
  5
4296
330
421C
100
AcDbEntity
  8
0
 62
     0
100
AcDbLine
 10
-41.90863222200944
 20
-276.9774427927123
 30
0.0
 11
-41.27663771580747
 21
-276.3454482865104
 31
0.0
  0
LINE
  5
4297
330
421C
100
AcDbEntity
  8
0
 62
     0
100
AcDbLine
 10
-40.81095755334286
 20
-275.8797681240458
 30
0.0
 11
-40.71116894710044
 21
-275.7799795178034
 31
0.0
  0
LINE
  5
4298
330
421C
100
AcDbEntity
  8
0
 62
     0
100
AcDbLine
 10
-42.05552808083359
 20
-276.991756130064
 30
0.0
 11
-41.95338414644437
 21
-276.8896121956748
 31
0.0
  0
LINE
  5
4299
330
421C
100
AcDbEntity
  8
0
 62
     0
100
AcDbLine
 10
-36.07135609852736
 20
-271.0075841477578
 30
0.0
 11
-35.70443277119299
 21
-270.6406608204234
 31
0.0
  0
LINE
  5
429A
330
421C
100
AcDbEntity
  8
0
 62
     0
100
AcDbLine
 10
-41.95338414644437
 20
-276.8896121956748
 30
0.0
 11
-41.32138964024239
 21
-276.2576176894728
 31
0.0
  0
LINE
  5
429B
330
421C
100
AcDbEntity
  8
0
 62
     0
100
AcDbLine
 10
-40.85570947777777
 20
-275.7919375270082
 30
0.0
 11
-40.75592087153537
 21
-275.6921489207658
 31
0.0
  0
LINE
  5
429C
330
421C
100
AcDbEntity
  8
0
 62
     0
100
AcDbLine
 10
-42.10028000526851
 20
-276.9039255330264
 30
0.0
 11
-41.99813607087929
 21
-276.8017815986373
 31
0.0
  0
LINE
  5
429D
330
421C
100
AcDbEntity
  8
0
 62
     0
100
AcDbLine
 10
-36.20393861999985
 20
-271.0075841477578
 30
0.0
 11
-35.70443277119299
 21
-270.5080782989509
 31
0.0
  0
LINE
  5
429E
330
421C
100
AcDbEntity
  8
0
 62
     0
100
AcDbLine
 10
-41.99813607087929
 20
-276.8017815986372
 30
0.0
 11
-41.36614156467731
 21
-276.1697870924352
 31
0.0
  0
LINE
  5
429F
330
421C
100
AcDbEntity
  8
0
 62
     0
100
AcDbLine
 10
-40.90046140221271
 20
-275.7041069299706
 30
0.0
 11
-40.80067279597029
 21
-275.6043183237283
 31
0.0
  0
LINE
  5
42A0
330
421C
100
AcDbEntity
  8
0
 62
     0
100
AcDbLine
 10
-42.14503192970343
 20
-276.8160949359889
 30
0.0
 11
-42.04288799531422
 21
-276.7139510015997
 31
0.0
  0
LINE
  5
42A1
330
421C
100
AcDbEntity
  8
0
 62
     0
100
AcDbLine
 10
-36.33652114147233
 20
-271.0075841477578
 30
0.0
 11
-35.70443277119299
 21
-270.3754957774785
 31
0.0
  0
LINE
  5
42A2
330
421C
100
AcDbEntity
  8
0
 62
     0
100
AcDbLine
 10
-42.04288799531422
 20
-276.7139510015996
 30
0.0
 11
-41.41089348911224
 21
-276.0819564953977
 31
0.0
  0
LINE
  5
42A3
330
421C
100
AcDbEntity
  8
0
 62
     0
100
AcDbLine
 10
-40.94521332664762
 20
-275.6162763329331
 30
0.0
 11
-40.84542472040522
 21
-275.5164877266907
 31
0.0
  0
LINE
  5
42A4
330
421C
100
AcDbEntity
  8
0
 62
     0
100
AcDbLine
 10
-42.18978385413836
 20
-276.7282643389513
 30
0.0
 11
-42.08763991974914
 21
-276.6261204045621
 31
0.0
  0
LINE
  5
42A5
330
421C
100
AcDbEntity
  8
0
 62
     0
100
AcDbLine
 10
-36.46910366294478
 20
-271.0075841477578
 30
0.0
 11
-35.70443277119299
 21
-270.242913256006
 31
0.0
  0
LINE
  5
42A6
330
421C
100
AcDbEntity
  8
0
 62
     0
100
AcDbLine
 10
-42.08763991974914
 20
-276.6261204045621
 30
0.0
 11
-41.45564541354717
 21
-275.9941258983601
 31
0.0
  0
LINE
  5
42A7
330
421C
100
AcDbEntity
  8
0
 62
     0
100
AcDbLine
 10
-40.98996525108254
 20
-275.5284457358955
 30
0.0
 11
-40.89017664484013
 21
-275.4286571296531
 31
0.0
  0
LINE
  5
42A8
330
421C
100
AcDbEntity
  8
0
 62
     0
100
AcDbLine
 10
-42.23453577857329
 20
-276.6404337419138
 30
0.0
 11
-42.13239184418406
 21
-276.5382898075245
 31
0.0
  0
LINE
  5
42A9
330
421C
100
AcDbEntity
  8
0
 62
     0
100
AcDbLine
 10
-36.60168618441726
 20
-271.0075841477578
 30
0.0
 11
-35.7069169949642
 21
-270.1128149583047
 31
0.0
  0
LINE
  5
42AA
330
421C
100
AcDbEntity
  8
0
 62
     0
100
AcDbLine
 10
-42.13239184418408
 20
-276.5382898075245
 30
0.0
 11
-41.50039733798208
 21
-275.9062953013226
 31
0.0
  0
LINE
  5
42AB
330
421C
100
AcDbEntity
  8
0
 62
     0
100
AcDbLine
 10
-41.03471717551747
 20
-275.4406151388579
 30
0.0
 11
-40.93492856927506
 21
-275.3408265326156
 31
0.0
  0
LINE
  5
42AC
330
421C
100
AcDbEntity
  8
0
 62
     0
100
AcDbLine
 10
-42.2792877030082
 20
-276.5526031448762
 30
0.0
 11
-42.17714376861898
 21
-276.450459210487
 31
0.0
  0
LINE
  5
42AD
330
421C
100
AcDbEntity
  8
0
 62
     0
100
AcDbLine
 10
-36.73426870588975
 20
-271.0075841477578
 30
0.0
 11
-35.83949951643669
 21
-270.1128149583047
 31
0.0
  0
LINE
  5
42AE
330
421C
100
AcDbEntity
  8
0
 62
     0
100
AcDbLine
 10
-42.17714376861898
 20
-276.450459210487
 30
0.0
 11
-41.54514926241701
 21
-275.818464704285
 31
0.0
  0
LINE
  5
42AF
330
421C
100
AcDbEntity
  8
0
 62
     0
100
AcDbLine
 10
-41.0794690999524
 20
-275.3527845418204
 30
0.0
 11
-40.97968049370998
 21
-275.2529959355781
 31
0.0
  0
LINE
  5
42B0
330
421C
100
AcDbEntity
  8
0
 62
     0
100
AcDbLine
 10
-42.32403962744313
 20
-276.4647725478386
 30
0.0
 11
-42.22189569305391
 21
-276.3626286134495
 31
0.0
  0
LINE
  5
42B1
330
421C
100
AcDbEntity
  8
0
 62
     0
100
AcDbLine
 10
-36.86685122736224
 20
-271.0075841477578
 30
0.0
 11
-35.97208203790917
 21
-270.1128149583047
 31
0.0
  0
LINE
  5
42B2
330
421C
100
AcDbEntity
  8
0
 62
     0
100
AcDbLine
 10
-42.22189569305391
 20
-276.3626286134494
 30
0.0
 11
-41.58990118685194
 21
-275.7306341072474
 31
0.0
  0
LINE
  5
42B3
330
421C
100
AcDbEntity
  8
0
 62
     0
100
AcDbLine
 10
-41.12422102438733
 20
-275.2649539447828
 30
0.0
 11
-41.02443241814492
 21
-275.1651653385405
 31
0.0
  0
LINE
  5
42B4
330
421C
100
AcDbEntity
  8
0
 62
     0
100
AcDbLine
 10
-42.36879155187804
 20
-276.3769419508011
 30
0.0
 11
-42.2684645752521
 21
-276.2766149741751
 31
0.0
  0
LINE
  5
42B5
330
421C
100
AcDbEntity
  8
0
 62
     0
100
AcDbLine
 10
-36.99943374883472
 20
-271.0075841477578
 30
0.0
 11
-36.10466455938166
 21
-270.1128149583047
 31
0.0
  0
LINE
  5
42B6
330
421C
100
AcDbEntity
  8
0
 62
     0
100
AcDbLine
 10
-42.26664761748884
 20
-276.2747980164119
 30
0.0
 11
-42.19792528481469
 21
-276.2060756837377
 31
0.0
  0
LINE
  5
42B7
330
421C
100
AcDbEntity
  8
0
 62
     0
100
AcDbLine
 10
-41.16897294882225
 20
-275.1771233477454
 30
0.0
 11
-41.06918434257984
 21
-275.0773347415029
 31
0.0
  0
LINE
  5
42B8
330
421C
100
AcDbEntity
  8
0
 62
     0
100
AcDbLine
 10
-42.1979252848146
 20
-276.2060756837377
 30
0.0
 11
-42.10043854447298
 21
-276.108588943396
 31
0.0
  0
LINE
  5
42B9
330
421C
100
AcDbEntity
  8
0
 62
     0
100
AcDbLine
 10
-41.99598251496389
 20
-276.004132913887
 30
0.0
 11
-41.63465311128686
 21
-275.6428035102099
 31
0.0
  0
LINE
  5
42BA
330
421C
100
AcDbEntity
  8
0
 62
     0
100
AcDbLine
 10
-42.10043854447292
 20
-276.1085889433959
 30
0.0
 11
-42.09566753742882
 21
-276.1038179363519
 31
0.0
  0
LINE
  5
42BB
330
421C
100
AcDbEntity
  8
0
 62
     0
100
AcDbLine
 10
-42.09566753742871
 20
-276.1038179363518
 30
0.0
 11
-41.99598251496389
 21
-276.004132913887
 31
0.0
  0
LINE
  5
42BC
330
421C
100
AcDbEntity
  8
0
 62
     0
100
AcDbLine
 10
-42.41354347631298
 20
-276.2891113537635
 30
0.0
 11
-42.31321649968703
 21
-276.1887843771376
 31
0.0
  0
LINE
  5
42BD
330
421C
100
AcDbEntity
  8
0
 62
     0
100
AcDbLine
 10
-37.13201627030717
 20
-271.0075841477578
 30
0.0
 11
-36.23724708085414
 21
-270.1128149583047
 31
0.0
  0
LINE
  5
42BE
330
421C
100
AcDbEntity
  8
0
 62
     0
100
AcDbLine
 10
-42.31139954192374
 20
-276.1869674193743
 30
0.0
 11
-42.1892754338011
 21
-276.0648433112517
 31
0.0
  0
LINE
  5
42BF
330
421C
100
AcDbEntity
  8
0
 62
     0
100
AcDbLine
 10
-41.21372487325716
 20
-275.0892927507078
 30
0.0
 11
-41.11393626701477
 21
-274.9895041444653
 31
0.0
  0
LINE
  5
42C0
330
421C
100
AcDbEntity
  8
0
 62
     0
100
AcDbLine
 10
-42.18927543380108
 20
-276.0648433112517
 30
0.0
 11
-42.14458912338753
 21
-276.0201570008381
 31
0.0
  0
LINE
  5
42C1
330
421C
100
AcDbEntity
  8
0
 62
     0
100
AcDbLine
 10
-41.96714156490001
 20
-275.8427094423506
 30
0.0
 11
-41.67940503572178
 21
-275.5549729131724
 31
0.0
  0
LINE
  5
42C2
330
421C
100
AcDbEntity
  8
0
 62
     0
100
AcDbLine
 10
-42.11450619999326
 20
-275.9900740774438
 30
0.0
 11
-41.96714156489998
 21
-275.8427094423506
 31
0.0
  0
LINE
  5
42C3
330
421C
100
AcDbEntity
  8
0
 62
     0
100
AcDbLine
 10
-42.4582954007479
 20
-276.201280756726
 30
0.0
 11
-42.35796842412195
 21
-276.1009537801001
 31
0.0
  0
LINE
  5
42C4
330
421C
100
AcDbEntity
  8
0
 62
     0
100
AcDbLine
 10
-37.26459879177965
 20
-271.0075841477578
 30
0.0
 11
-36.36982960232659
 21
-270.1128149583047
 31
0.0
  0
LINE
  5
42C5
330
421C
100
AcDbEntity
  8
0
 62
     0
100
AcDbLine
 10
-42.35615146635868
 20
-276.0991368223368
 30
0.0
 11
-42.27628628029851
 21
-276.0192716362766
 31
0.0
  0
LINE
  5
42C6
330
421C
100
AcDbEntity
  8
0
 62
     0
100
AcDbLine
 10
-41.2584767976921
 20
-275.0014621536702
 30
0.0
 11
-41.15868819144969
 21
-274.9016735474278
 31
0.0
  0
LINE
  5
42C7
330
421C
100
AcDbEntity
  8
0
 62
     0
100
AcDbLine
 10
-42.27628628029848
 20
-276.0192716362765
 30
0.0
 11
-41.83861559237119
 21
-275.5816009483493
 31
0.0
  0
LINE
  5
42C8
330
421C
100
AcDbEntity
  8
0
 62
     0
100
AcDbLine
 10
-41.83861559237118
 20
-275.5816009483492
 30
0.0
 11
-41.72415696015671
 21
-275.4671423161348
 31
0.0
  0
LINE
  5
42C9
330
421C
100
AcDbEntity
  8
0
 62
     0
100
AcDbLine
 10
-42.50304732518282
 20
-276.1134501596885
 30
0.0
 11
-42.40272034855689
 21
-276.0131231830625
 31
0.0
  0
LINE
  5
42CA
330
421C
100
AcDbEntity
  8
0
 62
     0
100
AcDbLine
 10
-37.39718131325214
 20
-271.0075841477578
 30
0.0
 11
-36.50241212379908
 21
-270.1128149583047
 31
0.0
  0
LINE
  5
42CB
330
421C
100
AcDbEntity
  8
0
 62
     0
100
AcDbLine
 10
-42.4009033907936
 20
-276.0113062252992
 30
0.0
 11
-42.19714334742477
 21
-275.8075461819304
 31
0.0
  0
LINE
  5
42CC
330
421C
100
AcDbEntity
  8
0
 62
     0
100
AcDbLine
 10
-41.30322872212701
 20
-274.9136315566326
 30
0.0
 11
-41.20344011588461
 21
-274.8138429503903
 31
0.0
  0
LINE
  5
42CD
330
421C
100
AcDbEntity
  8
0
 62
     0
100
AcDbLine
 10
-42.19714334742469
 20
-275.8075461819303
 30
0.0
 11
-42.14776030776967
 21
-275.7581631422754
 31
0.0
  0
LINE
  5
42CE
330
421C
100
AcDbEntity
  8
0
 62
     0
100
AcDbLine
 10
-42.14776030776969
 20
-275.7581631422754
 30
0.0
 11
-41.71008961984234
 21
-275.320492454348
 31
0.0
  0
LINE
  5
42CF
330
421C
100
AcDbEntity
  8
0
 62
     0
100
AcDbLine
 10
-42.54779924961775
 20
-276.0256195626509
 30
0.0
 11
-42.44747227299181
 21
-275.925292586025
 31
0.0
  0
LINE
  5
42D0
330
421C
100
AcDbEntity
  8
0
 62
     0
100
AcDbLine
 10
-37.52976383472462
 20
-271.0075841477578
 30
0.0
 11
-36.63499464527156
 21
-270.1128149583047
 31
0.0
  0
LINE
  5
42D1
330
421C
100
AcDbEntity
  8
0
 62
     0
100
AcDbLine
 10
-42.44565531522854
 20
-275.9234756282617
 30
0.0
 11
-42.01923433524084
 21
-275.497054648274
 31
0.0
  0
LINE
  5
42D2
330
421C
100
AcDbEntity
  8
0
 62
     0
100
AcDbLine
 10
-41.34798064656194
 20
-274.8258009595951
 30
0.0
 11
-41.24819204031953
 21
-274.7260123533527
 31
0.0
  0
LINE
  5
42D3
330
421C
100
AcDbEntity
  8
0
 62
     0
100
AcDbLine
 10
-42.01923433524087
 20
-275.497054648274
 30
0.0
 11
-41.58156364731355
 21
-275.0593839603467
 31
0.0
  0
LINE
  5
42D4
330
421C
100
AcDbEntity
  8
0
 62
     0
100
AcDbLine
 10
-42.59255117405266
 20
-275.9377889656133
 30
0.0
 11
-42.49040723966347
 21
-275.8356450312241
 31
0.0
  0
LINE
  5
42D5
330
421C
100
AcDbEntity
  8
0
 62
     0
100
AcDbLine
 10
-37.6623463561971
 20
-271.0075841477578
 30
0.0
 11
-36.76757716674404
 21
-270.1128149583047
 31
0.0
  0
LINE
  5
42D6
330
421C
100
AcDbEntity
  8
0
 62
     0
100
AcDbLine
 10
-42.49040723966347
 20
-275.8356450312241
 30
0.0
 11
-41.89070836271205
 21
-275.2359461542728
 31
0.0
  0
LINE
  5
42D7
330
421C
100
AcDbEntity
  8
0
 62
     0
100
AcDbLine
 10
-41.39273257099687
 20
-274.7379703625575
 30
0.0
 11
-41.29294396475446
 21
-274.6381817563151
 31
0.0
  0
LINE
  5
42D8
330
421C
100
AcDbEntity
  8
0
 62
     0
100
AcDbLine
 10
-41.89070836271203
 20
-275.2359461542727
 30
0.0
 11
-41.45303767478471
 21
-274.7982754663454
 31
0.0
  0
LINE
  5
42D9
330
421C
100
AcDbEntity
  8
0
 62
     0
100
AcDbLine
 10
-42.63730309848759
 20
-275.8499583685758
 30
0.0
 11
-42.53515916409838
 21
-275.7478144341866
 31
0.0
  0
LINE
  5
42DA
330
421C
100
AcDbEntity
  8
0
 62
     0
100
AcDbLine
 10
-37.79492887766956
 20
-271.0075841477578
 30
0.0
 11
-36.90015968821653
 21
-270.1128149583047
 31
0.0
  0
LINE
  5
42DB
330
421C
100
AcDbEntity
  8
0
 62
     0
100
AcDbLine
 10
-42.53515916409839
 20
-275.7478144341866
 30
0.0
 11
-41.90316465789641
 21
-275.1158199279846
 31
0.0
  0
LINE
  5
42DC
330
421C
100
AcDbEntity
  8
0
 62
     0
100
AcDbLine
 10
-41.76218239018321
 20
-274.9748376602715
 30
0.0
 11
-41.32451170225591
 21
-274.5371669723441
 31
0.0
  0
LINE
  5
42DD
330
421C
100
AcDbEntity
  8
0
 62
     0
100
AcDbLine
 10
-42.68205502292253
 20
-275.7621277715383
 30
0.0
 11
-42.57991108853331
 21
-275.6599838371491
 31
0.0
  0
LINE
  5
42DE
330
421C
100
AcDbEntity
  8
0
 62
     0
100
AcDbLine
 10
-37.92751139914204
 20
-271.0075841477578
 30
0.0
 11
-37.03274220968898
 21
-270.1128149583047
 31
0.0
  0
LINE
  5
42DF
330
421C
100
AcDbEntity
  8
0
 62
     0
100
AcDbLine
 10
-42.57991108853332
 20
-275.659983837149
 30
0.0
 11
-41.94791658233133
 21
-275.027989330947
 31
0.0
  0
LINE
  5
42E0
330
421C
100
AcDbEntity
  8
0
 62
     0
100
AcDbLine
 10
-41.63365641765442
 20
-274.7137291662701
 30
0.0
 11
-41.19598572972707
 21
-274.2760584783428
 31
0.0
  0
LINE
  5
42E1
330
421C
100
AcDbEntity
  8
0
 62
     0
100
AcDbLine
 10
-42.72680694735743
 20
-275.6742971745007
 30
0.0
 11
-42.62466301296824
 21
-275.5721532401115
 31
0.0
  0
LINE
  5
42E2
330
421C
100
AcDbEntity
  8
0
 62
     0
100
AcDbLine
 10
-38.06009392061452
 20
-271.0075841477578
 30
0.0
 11
-37.16532473116146
 21
-270.1128149583047
 31
0.0
  0
LINE
  5
42E3
330
421C
100
AcDbEntity
  8
0
 62
     0
100
AcDbLine
 10
-42.62466301296824
 20
-275.5721532401115
 30
0.0
 11
-41.99266850676624
 21
-274.9401587339095
 31
0.0
  0
LINE
  5
42E4
330
421C
100
AcDbEntity
  8
0
 62
     0
100
AcDbLine
 10
-41.24320808781802
 20
-274.1906983149613
 30
0.0
 11
-41.16028905131896
 21
-274.1077792784622
 31
0.0
  0
LINE
  5
42E5
330
421C
100
AcDbEntity
  8
0
 62
     0
100
AcDbLine
 10
-41.52698834430164
 20
-274.4744785714449
 30
0.0
 11
-41.50513044512558
 21
-274.4526206722688
 31
0.0
  0
LINE
  5
42E6
330
421C
100
AcDbEntity
  8
0
 62
     0
100
AcDbLine
 10
-41.2918472873847
 20
-274.2393375145279
 30
0.0
 11
-41.26594175883485
 21
-274.2134319859781
 31
0.0
  0
LINE
  5
42E7
330
421C
100
AcDbEntity
  8
0
 62
     0
100
AcDbLine
 10
-41.50513044512556
 20
-274.4526206722688
 30
0.0
 11
-41.29184728738475
 21
-274.239337514528
 31
0.0
  0
LINE
  5
42E8
330
421C
100
AcDbEntity
  8
0
 62
     0
100
AcDbLine
 10
-42.77155887179236
 20
-275.5864665774631
 30
0.0
 11
-42.66941493740316
 21
-275.484322643074
 31
0.0
  0
LINE
  5
42E9
330
421C
100
AcDbEntity
  8
0
 62
     0
100
AcDbLine
 10
-38.192676442087
 20
-271.0075841477578
 30
0.0
 11
-37.29790725263395
 21
-270.1128149583047
 31
0.0
  0
LINE
  5
42EA
330
421C
100
AcDbEntity
  8
0
 62
     0
100
AcDbLine
 10
-42.66941493740316
 20
-275.484322643074
 30
0.0
 11
-42.03742043120118
 21
-274.8523281368719
 31
0.0
  0
LINE
  5
42EB
330
421C
100
AcDbEntity
  8
0
 62
     0
100
AcDbLine
 10
-41.39132135807054
 20
-274.2062290637413
 30
0.0
 11
-41.15044255176923
 21
-273.96535025744
 31
0.0
  0
LINE
  5
42EC
330
421C
100
AcDbEntity
  8
0
 62
     0
100
AcDbLine
 10
-41.57174026873658
 20
-274.3866479744074
 30
0.0
 11
-41.47195166249413
 21
-274.2868593681649
 31
0.0
  0
LINE
  5
42ED
330
421C
100
AcDbEntity
  8
0
 62
     0
100
AcDbLine
 10
-42.81631079622728
 20
-275.4986359804255
 30
0.0
 11
-42.71416686183809
 21
-275.3964920460364
 31
0.0
  0
LINE
  5
42EE
330
421C
100
AcDbEntity
  8
0
 62
     0
100
AcDbLine
 10
-38.32525896355949
 20
-271.0075841477578
 30
0.0
 11
-37.43048977410643
 21
-270.1128149583047
 31
0.0
  0
LINE
  5
42EF
330
421C
100
AcDbEntity
  8
0
 62
     0
100
AcDbLine
 10
-42.71416686183809
 20
-275.3964920460364
 30
0.0
 11
-42.0821723556361
 21
-274.7644975398344
 31
0.0
  0
LINE
  5
42F0
330
421C
100
AcDbEntity
  8
0
 62
     0
100
AcDbLine
 10
-41.3814748585208
 20
-274.0638000427191
 30
0.0
 11
-41.1405960522195
 21
-273.8229212364178
 31
0.0
  0
LINE
  5
42F1
330
421C
100
AcDbEntity
  8
0
 62
     0
100
AcDbLine
 10
-41.6164921931715
 20
-274.2988173773698
 30
0.0
 11
-41.51670358692905
 21
-274.1990287711273
 31
0.0
  0
LINE
  5
42F2
330
421C
100
AcDbEntity
  8
0
 62
     0
100
AcDbLine
 10
-42.86106272066221
 20
-275.410805383388
 30
0.0
 11
-42.75891878627302
 21
-275.3086614489988
 31
0.0
  0
LINE
  5
42F3
330
421C
100
AcDbEntity
  8
0
 62
     0
100
AcDbLine
 10
-38.45784148503194
 20
-271.0075841477578
 30
0.0
 11
-37.56307229557891
 21
-270.1128149583047
 31
0.0
  0
LINE
  5
42F4
330
421C
100
AcDbEntity
  8
0
 62
     0
100
AcDbLine
 10
-42.75891878627301
 20
-275.3086614489988
 30
0.0
 11
-42.12692428007102
 21
-274.6766669427968
 31
0.0
  0
LINE
  5
42F5
330
421C
100
AcDbEntity
  8
0
 62
     0
100
AcDbLine
 10
-41.37162835897107
 20
-273.9213710216969
 30
0.0
 11
-41.13074955266977
 21
-273.6804922153956
 31
0.0
  0
LINE
  5
42F6
330
421C
100
AcDbEntity
  8
0
 62
     0
100
AcDbLine
 10
-41.66124411760642
 20
-274.2109867803322
 30
0.0
 11
-41.56145551136398
 21
-274.1111981740898
 31
0.0
  0
LINE
  5
42F7
330
421C
100
AcDbEntity
  8
0
 62
     0
100
AcDbLine
 10
-42.90581464509713
 20
-275.3229747863504
 30
0.0
 11
-42.80367071070794
 21
-275.2208308519613
 31
0.0
  0
LINE
  5
42F8
330
421C
100
AcDbEntity
  8
0
 62
     0
100
AcDbLine
 10
-38.59042400650442
 20
-271.0075841477578
 30
0.0
 11
-37.69565481705136
 21
-270.1128149583047
 31
0.0
  0
LINE
  5
42F9
330
421C
100
AcDbEntity
  8
0
 62
     0
100
AcDbLine
 10
-42.80367071070794
 20
-275.2208308519613
 30
0.0
 11
-42.17167620450595
 21
-274.5888363457593
 31
0.0
  0
LINE
  5
42FA
330
421C
100
AcDbEntity
  8
0
 62
     0
100
AcDbLine
 10
-41.36178185942134
 20
-273.7789420006746
 30
0.0
 11
-41.12090305312004
 21
-273.5380631943733
 31
0.0
  0
LINE
  5
42FB
330
421C
100
AcDbEntity
  8
0
 62
     0
100
AcDbLine
 10
-41.70599604204134
 20
-274.1231561832947
 30
0.0
 11
-41.60620743579889
 21
-274.0233675770522
 31
0.0
  0
LINE
  5
42FC
330
421C
100
AcDbEntity
  8
0
 62
     0
100
AcDbLine
 10
-42.95056656953206
 20
-275.2351441893129
 30
0.0
 11
-42.84842263514287
 21
-275.1330002549237
 31
0.0
  0
LINE
  5
42FD
330
421C
100
AcDbEntity
  8
0
 62
     0
100
AcDbLine
 10
-38.72300652797691
 20
-271.0075841477578
 30
0.0
 11
-37.82823733852385
 21
-270.1128149583047
 31
0.0
  0
LINE
  5
42FE
330
421C
100
AcDbEntity
  8
0
 62
     0
100
AcDbLine
 10
-42.84842263514287
 20
-275.1330002549237
 30
0.0
 11
-42.21642812894087
 21
-274.5010057487217
 31
0.0
  0
LINE
  5
42FF
330
421C
100
AcDbEntity
  8
0
 62
     0
100
AcDbLine
 10
-41.35193535987162
 20
-273.6365129796524
 30
0.0
 11
-41.11105655357031
 21
-273.3956341733511
 31
0.0
  0
LINE
  5
4300
330
421C
100
AcDbEntity
  8
0
 62
     0
100
AcDbLine
 10
-41.75074796647627
 20
-274.0353255862571
 30
0.0
 11
-41.65095936023383
 21
-273.9355369800147
 31
0.0
  0
LINE
  5
4301
330
421C
100
AcDbEntity
  8
0
 62
     0
100
AcDbLine
 10
-42.99531849396698
 20
-275.1473135922753
 30
0.0
 11
-42.89317455957778
 21
-275.0451696578862
 31
0.0
  0
LINE
  5
4302
330
421C
100
AcDbEntity
  8
0
 62
     0
100
AcDbLine
 10
-38.85558904944939
 20
-271.0075841477578
 30
0.0
 11
-37.96081985999633
 21
-270.1128149583047
 31
0.0
  0
LINE
  5
4303
330
421C
100
AcDbEntity
  8
0
 62
     0
100
AcDbLine
 10
-42.89317455957778
 20
-275.0451696578862
 30
0.0
 11
-42.2611800533758
 21
-274.4131751516842
 31
0.0
  0
LINE
  5
4304
330
421C
100
AcDbEntity
  8
0
 62
     0
100
AcDbLine
 10
-41.34208886032189
 20
-273.4940839586302
 30
0.0
 11
-41.10121005402058
 21
-273.2532051523289
 31
0.0
  0
LINE
  5
4305
330
421C
100
AcDbEntity
  8
0
 62
     0
100
AcDbLine
 10
-41.79549989091119
 20
-273.9474949892195
 30
0.0
 11
-41.69571128466874
 21
-273.8477063829771
 31
0.0
  0
LINE
  5
4306
330
421C
100
AcDbEntity
  8
0
 62
     0
100
AcDbLine
 10
-43.0400704184019
 20
-275.0594829952378
 30
0.0
 11
-42.93792648401271
 21
-274.9573390608487
 31
0.0
  0
LINE
  5
4307
330
421C
100
AcDbEntity
  8
0
 62
     0
100
AcDbLine
 10
-38.98817157092188
 20
-271.0075841477578
 30
0.0
 11
-38.09340238146882
 21
-270.1128149583047
 31
0.0
  0
LINE
  5
4308
330
421C
100
AcDbEntity
  8
0
 62
     0
100
AcDbLine
 10
-42.93792648401271
 20
-274.9573390608486
 30
0.0
 11
-42.30593197781072
 21
-274.3253445546466
 31
0.0
  0
LINE
  5
4309
330
421C
100
AcDbEntity
  8
0
 62
     0
100
AcDbLine
 10
-41.33224236077215
 20
-273.351654937608
 30
0.0
 11
-41.09136355447085
 21
-273.1107761313067
 31
0.0
  0
LINE
  5
430A
330
421C
100
AcDbEntity
  8
0
 62
     0
100
AcDbLine
 10
-41.84025181534611
 20
-273.859664392182
 30
0.0
 11
-41.74046320910367
 21
-273.7598757859395
 31
0.0
  0
LINE
  5
430B
330
421C
100
AcDbEntity
  8
0
 62
     0
100
AcDbLine
 10
-43.08482234283682
 20
-274.9716523982002
 30
0.0
 11
-42.98267840844763
 21
-274.8695084638111
 31
0.0
  0
LINE
  5
430C
330
421C
100
AcDbEntity
  8
0
 62
     0
100
AcDbLine
 10
-39.12075409239436
 20
-271.0075841477578
 30
0.0
 11
-38.2259849029413
 21
-270.1128149583047
 31
0.0
  0
LINE
  5
430D
330
421C
100
AcDbEntity
  8
0
 62
     0
100
AcDbLine
 10
-42.98267840844764
 20
-274.8695084638111
 30
0.0
 11
-42.35068390224564
 21
-274.2375139576091
 31
0.0
  0
LINE
  5
430E
330
421C
100
AcDbEntity
  8
0
 62
     0
100
AcDbLine
 10
-41.08151705492112
 20
-272.9683471102845
 30
0.0
 11
-40.96181643366968
 21
-272.848646489033
 31
0.0
  0
LINE
  5
430F
330
421C
100
AcDbEntity
  8
0
 62
     0
100
AcDbLine
 10
-41.88500373978103
 20
-273.7718337951445
 30
0.0
 11
-41.78521513353859
 21
-273.672045188902
 31
0.0
  0
LINE
  5
4310
330
421C
100
AcDbEntity
  8
0
 62
     0
100
AcDbLine
 10
-41.32239586122242
 20
-273.2092259165858
 30
0.0
 11
-41.08151705492112
 21
-272.9683471102845
 31
0.0
  0
LINE
  5
4311
330
421C
100
AcDbEntity
  8
0
 62
     0
100
AcDbLine
 10
-43.12957426727176
 20
-274.8838218011627
 30
0.0
 11
-43.02743033288257
 21
-274.7816778667736
 31
0.0
  0
LINE
  5
4312
330
421C
100
AcDbEntity
  8
0
 62
     0
100
AcDbLine
 10
-39.25333661386681
 20
-271.0075841477578
 30
0.0
 11
-38.35856742441375
 21
-270.1128149583047
 31
0.0
  0
LINE
  5
4313
330
421C
100
AcDbEntity
  8
0
 62
     0
100
AcDbLine
 10
-43.02743033288256
 20
-274.7816778667735
 30
0.0
 11
-42.39543582668058
 21
-274.1496833605715
 31
0.0
  0
LINE
  5
4314
330
421C
100
AcDbEntity
  8
0
 62
     0
100
AcDbLine
 10
-41.07167055537138
 20
-272.8259180892623
 30
0.0
 11
-40.79761027123158
 21
-272.5518578051226
 31
0.0
  0
LINE
  5
4315
330
421C
100
AcDbEntity
  8
0
 62
     0
100
AcDbLine
 10
-41.92975566421597
 20
-273.6840031981069
 30
0.0
 11
-41.82996705797352
 21
-273.5842145918645
 31
0.0
  0
LINE
  5
4316
330
421C
100
AcDbEntity
  8
0
 62
     0
100
AcDbLine
 10
-41.3125493616727
 20
-273.0667968955636
 30
0.0
 11
-41.07167055537138
 21
-272.8259180892623
 31
0.0
  0
LINE
  5
4317
330
421C
100
AcDbEntity
  8
0
 62
     0
100
AcDbLine
 10
-43.17432619170667
 20
-274.7959912041251
 30
0.0
 11
-43.07218225731747
 21
-274.693847269736
 31
0.0
  0
LINE
  5
4318
330
421C
100
AcDbEntity
  8
0
 62
     0
100
AcDbLine
 10
-39.3859191353393
 20
-271.0075841477578
 30
0.0
 11
-38.49114994588624
 21
-270.1128149583047
 31
0.0
  0
LINE
  5
4319
330
421C
100
AcDbEntity
  8
0
 62
     0
100
AcDbLine
 10
-43.07218225731748
 20
-274.693847269736
 30
0.0
 11
-42.44018775111549
 21
-274.0618527635339
 31
0.0
  0
LINE
  5
431A
330
421C
100
AcDbEntity
  8
0
 62
     0
100
AcDbLine
 10
-41.06182405582166
 20
-272.6834890682401
 30
0.0
 11
-40.63340410879347
 21
-272.2550691212119
 31
0.0
  0
LINE
  5
431B
330
421C
100
AcDbEntity
  8
0
 62
     0
100
AcDbLine
 10
-41.97450758865088
 20
-273.5961726010693
 30
0.0
 11
-41.87471898240843
 21
-273.4963839948269
 31
0.0
  0
LINE
  5
431C
330
421C
100
AcDbEntity
  8
0
 62
     0
100
AcDbLine
 10
-41.30270286212296
 20
-272.9243678745414
 30
0.0
 11
-41.06182405582166
 21
-272.6834890682401
 31
0.0
  0
LINE
  5
431D
330
421C
100
AcDbEntity
  8
0
 62
     0
100
AcDbLine
 10
-43.2190781161416
 20
-274.7081606070876
 30
0.0
 11
-43.11693418175241
 21
-274.6060166726984
 31
0.0
  0
LINE
  5
431E
330
421C
100
AcDbEntity
  8
0
 62
     0
100
AcDbLine
 10
-39.51850165681178
 20
-271.0075841477578
 30
0.0
 11
-38.62373246735872
 21
-270.1128149583047
 31
0.0
  0
LINE
  5
431F
330
421C
100
AcDbEntity
  8
0
 62
     0
100
AcDbLine
 10
-43.11693418175241
 20
-274.6060166726984
 30
0.0
 11
-42.48493967555043
 21
-273.9740221664964
 31
0.0
  0
LINE
  5
4320
330
421C
100
AcDbEntity
  8
0
 62
     0
100
AcDbLine
 10
-41.04147028864789
 20
-272.5305527795939
 30
0.0
 11
-40.46919794635537
 21
-271.9582804373014
 31
0.0
  0
LINE
  5
4321
330
421C
100
AcDbEntity
  8
0
 62
     0
100
AcDbLine
 10
-42.0192595130858
 20
-273.5083420040318
 30
0.0
 11
-41.91947090684336
 21
-273.4085533977893
 31
0.0
  0
LINE
  5
4322
330
421C
100
AcDbEntity
  8
0
 62
     0
100
AcDbLine
 10
-41.29285636257323
 20
-272.7819388535192
 30
0.0
 11
-41.05197755627193
 21
-272.5410600472179
 31
0.0
  0
LINE
  5
4323
330
421C
100
AcDbEntity
  8
0
 62
     0
100
AcDbLine
 10
-43.26383004057651
 20
-274.62033001005
 30
0.0
 11
-43.16168610618734
 21
-274.5181860756609
 31
0.0
  0
LINE
  5
4324
330
421C
100
AcDbEntity
  8
0
 62
     0
100
AcDbLine
 10
-39.65108417828427
 20
-271.0075841477578
 30
0.0
 11
-38.7563149888312
 21
-270.1128149583047
 31
0.0
  0
LINE
  5
4325
330
421C
100
AcDbEntity
  8
0
 62
     0
100
AcDbLine
 10
-43.16168610618732
 20
-274.5181860756608
 30
0.0
 11
-42.52969159998534
 21
-273.8861915694589
 31
0.0
  0
LINE
  5
4326
330
421C
100
AcDbEntity
  8
0
 62
     0
100
AcDbLine
 10
-40.87726412620977
 20
-272.2337640956832
 30
0.0
 11
-40.30499178391731
 21
-271.6614917533908
 31
0.0
  0
LINE
  5
4327
330
421C
100
AcDbEntity
  8
0
 62
     0
100
AcDbLine
 10
-42.06401143752072
 20
-273.4205114069942
 30
0.0
 11
-41.96422283127828
 21
-273.3207228007517
 31
0.0
  0
LINE
  5
4328
330
421C
100
AcDbEntity
  8
0
 62
     0
100
AcDbLine
 10
-41.2830098630235
 20
-272.639509832497
 30
0.0
 11
-41.04213105672219
 21
-272.3986310261957
 31
0.0
  0
LINE
  5
4329
330
421C
100
AcDbEntity
  8
0
 62
     0
100
AcDbLine
 10
-43.30858196501145
 20
-274.5324994130124
 30
0.0
 11
-43.20643803062226
 21
-274.4303554786233
 31
0.0
  0
LINE
  5
432A
330
421C
100
AcDbEntity
  8
0
 62
     0
100
AcDbLine
 10
-39.78366669975674
 20
-271.0075841477578
 30
0.0
 11
-38.88889751030369
 21
-270.1128149583047
 31
0.0
  0
LINE
  5
432B
330
421C
100
AcDbEntity
  8
0
 62
     0
100
AcDbLine
 10
-43.20643803062226
 20
-274.4303554786232
 30
0.0
 11
-42.57444352442026
 21
-273.7983609724213
 31
0.0
  0
LINE
  5
432C
330
421C
100
AcDbEntity
  8
0
 62
     0
100
AcDbLine
 10
-40.71305796377171
 20
-271.9369754117727
 30
0.0
 11
-40.14078562147921
 21
-271.3647030694802
 31
0.0
  0
LINE
  5
432D
330
421C
100
AcDbEntity
  8
0
 62
     0
100
AcDbLine
 10
-42.10876336195565
 20
-273.3326808099567
 30
0.0
 11
-42.00897475571321
 21
-273.2328922037142
 31
0.0
  0
LINE
  5
432E
330
421C
100
AcDbEntity
  8
0
 62
     0
100
AcDbLine
 10
-41.27316336347377
 20
-272.4970808114748
 30
0.0
 11
-41.03228455717245
 21
-272.2562020051735
 31
0.0
  0
LINE
  5
432F
330
421C
100
AcDbEntity
  8
0
 62
     0
100
AcDbLine
 10
-43.35333388944637
 20
-274.4446688159749
 30
0.0
 11
-43.25118995505717
 21
-274.3425248815857
 31
0.0
  0
LINE
  5
4330
330
421C
100
AcDbEntity
  8
0
 62
     0
100
AcDbLine
 10
-39.9162492212292
 20
-271.0075841477578
 30
0.0
 11
-39.02148003177617
 21
-270.1128149583047
 31
0.0
  0
LINE
  5
4331
330
421C
100
AcDbEntity
  8
0
 62
     0
100
AcDbLine
 10
-43.25118995505718
 20
-274.3425248815857
 30
0.0
 11
-42.61919544885519
 21
-273.7105303753837
 31
0.0
  0
LINE
  5
4332
330
421C
100
AcDbEntity
  8
0
 62
     0
100
AcDbLine
 10
-40.5488518013336
 20
-271.6401867278622
 30
0.0
 11
-39.97657945904111
 21
-271.0679143855696
 31
0.0
  0
LINE
  5
4333
330
421C
100
AcDbEntity
  8
0
 62
     0
100
AcDbLine
 10
-42.15351528639057
 20
-273.2448502129191
 30
0.0
 11
-42.05372668014815
 21
-273.1450616066767
 31
0.0
  0
LINE
  5
4334
330
421C
100
AcDbEntity
  8
0
 62
     0
100
AcDbLine
 10
-41.26331686392403
 20
-272.3546517904526
 30
0.0
 11
-41.02243805762273
 21
-272.1137729841512
 31
0.0
  0
LINE
  5
4335
330
421C
100
AcDbEntity
  8
0
 62
     0
100
AcDbLine
 10
-43.39808581388129
 20
-274.3568382189374
 30
0.0
 11
-43.29594187949211
 21
-274.2546942845482
 31
0.0
  0
LINE
  5
4336
330
421C
100
AcDbEntity
  8
0
 62
     0
100
AcDbLine
 10
-40.04883174270166
 20
-271.0075841477577
 30
0.0
 11
-39.15406255324862
 21
-270.1128149583047
 31
0.0
  0
LINE
  5
4337
330
421C
100
AcDbEntity
  8
0
 62
     0
100
AcDbLine
 10
-43.29594187949211
 20
-274.2546942845482
 30
0.0
 11
-42.66394737329011
 21
-273.6226997783461
 31
0.0
  0
LINE
  5
4338
330
421C
100
AcDbEntity
  8
0
 62
     0
100
AcDbLine
 10
-40.38464563889553
 20
-271.3433980439516
 30
0.0
 11
-40.04883174270168
 21
-271.0075841477578
 31
0.0
  0
LINE
  5
4339
330
421C
100
AcDbEntity
  8
0
 62
     0
100
AcDbLine
 10
-42.19826721082549
 20
-273.1570196158815
 30
0.0
 11
-42.09847860458307
 21
-273.0572310096391
 31
0.0
  0
LINE
  5
433A
330
421C
100
AcDbEntity
  8
0
 62
     0
100
AcDbLine
 10
-41.25347036437431
 20
-272.2122227694304
 30
0.0
 11
-41.01259155807299
 21
-271.971343963129
 31
0.0
  0
LINE
  5
433B
330
421C
100
AcDbEntity
  8
0
 62
     0
100
AcDbLine
 10
-43.44283773831622
 20
-274.2690076218998
 30
0.0
 11
-43.34069380392703
 21
-274.1668636875106
 31
0.0
  0
LINE
  5
433C
330
421C
100
AcDbEntity
  8
0
 62
     0
100
AcDbLine
 10
-40.18141426417416
 20
-271.0075841477577
 30
0.0
 11
-39.28664507472111
 21
-270.1128149583047
 31
0.0
  0
LINE
  5
433D
330
421C
100
AcDbEntity
  8
0
 62
     0
100
AcDbLine
 10
-43.34069380392703
 20
-274.1668636875106
 30
0.0
 11
-42.70869929772504
 21
-273.5348691813086
 31
0.0
  0
LINE
  5
433E
330
421C
100
AcDbEntity
  8
0
 62
     0
100
AcDbLine
 10
-40.22043947645742
 20
-271.046609360041
 30
0.0
 11
-40.18141426417416
 21
-271.0075841477578
 31
0.0
  0
LINE
  5
433F
330
421C
100
AcDbEntity
  8
0
 62
     0
100
AcDbLine
 10
-42.24301913526041
 20
-273.069189018844
 30
0.0
 11
-42.14323052901799
 21
-272.9694004126015
 31
0.0
  0
LINE
  5
4340
330
421C
100
AcDbEntity
  8
0
 62
     0
100
AcDbLine
 10
-41.24362386482458
 20
-272.0697937484081
 30
0.0
 11
-41.00274505852326
 21
-271.8289149421068
 31
0.0
  0
LINE
  5
4341
330
421C
100
AcDbEntity
  8
0
 62
     0
100
AcDbLine
 10
-43.48758966275113
 20
-274.1811770248623
 30
0.0
 11
-43.38544572836195
 21
-274.0790330904731
 31
0.0
  0
LINE
  5
4342
330
421C
100
AcDbEntity
  8
0
 62
     0
100
AcDbLine
 10
-40.31399678564665
 20
-271.0075841477578
 30
0.0
 11
-39.41922759619359
 21
-270.1128149583047
 31
0.0
  0
LINE
  5
4343
330
421C
100
AcDbEntity
  8
0
 62
     0
100
AcDbLine
 10
-43.38544572836195
 20
-274.0790330904731
 30
0.0
 11
-42.75345122215997
 21
-273.447038584271
 31
0.0
  0
LINE
  5
4344
330
421C
100
AcDbEntity
  8
0
 62
     0
100
AcDbLine
 10
-41.23377736527484
 20
-271.9273647273859
 30
0.0
 11
-40.99289855897352
 21
-271.6864859210846
 31
0.0
  0
LINE
  5
4345
330
421C
100
AcDbEntity
  8
0
 62
     0
100
AcDbLine
 10
-42.28777105969533
 20
-272.9813584218064
 30
0.0
 11
-42.18798245345292
 21
-272.881569815564
 31
0.0
  0
LINE
  5
4346
330
421C
100
AcDbEntity
  8
0
 62
     0
100
AcDbLine
 10
-43.53234158718605
 20
-274.0933464278247
 30
0.0
 11
-43.43019765279687
 21
-273.9912024934355
 31
0.0
  0
LINE
  5
4347
330
421C
100
AcDbEntity
  8
0
 62
     0
100
AcDbLine
 10
-40.44657930711912
 20
-271.0075841477578
 30
0.0
 11
-39.55181011766607
 21
-270.1128149583047
 31
0.0
  0
LINE
  5
4348
330
421C
100
AcDbEntity
  8
0
 62
     0
100
AcDbLine
 10
-43.43019765279688
 20
-273.9912024934355
 30
0.0
 11
-42.79820314659487
 21
-273.3592079872335
 31
0.0
  0
LINE
  5
4349
330
421C
100
AcDbEntity
  8
0
 62
     0
100
AcDbLine
 10
-41.22393086572511
 20
-271.7849357063637
 30
0.0
 11
-40.9830520594238
 21
-271.5440569000624
 31
0.0
  0
LINE
  5
434A
330
421C
100
AcDbEntity
  8
0
 62
     0
100
AcDbLine
 10
-42.33252298413026
 20
-272.8935278247689
 30
0.0
 11
-42.23273437788784
 21
-272.7937392185264
 31
0.0
  0
LINE
  5
434B
330
421C
100
AcDbEntity
  8
0
 62
     0
100
AcDbLine
 10
-43.57709351162099
 20
-274.0055158307872
 30
0.0
 11
-43.4749495772318
 21
-273.903371896398
 31
0.0
  0
LINE
  5
434C
330
421C
100
AcDbEntity
  8
0
 62
     0
100
AcDbLine
 10
-40.57916182859158
 20
-271.0075841477578
 30
0.0
 11
-39.68439263913856
 21
-270.1128149583047
 31
0.0
  0
LINE
  5
434D
330
421C
100
AcDbEntity
  8
0
 62
     0
100
AcDbLine
 10
-43.4749495772318
 20
-273.903371896398
 30
0.0
 11
-42.84295507102982
 21
-273.2713773901959
 31
0.0
  0
LINE
  5
434E
330
421C
100
AcDbEntity
  8
0
 62
     0
100
AcDbLine
 10
-41.21408436617539
 20
-271.6425066853415
 30
0.0
 11
-40.97320555987406
 21
-271.4016278790402
 31
0.0
  0
LINE
  5
434F
330
421C
100
AcDbEntity
  8
0
 62
     0
100
AcDbLine
 10
-42.37727490856518
 20
-272.8056972277314
 30
0.0
 11
-42.27748630232276
 21
-272.705908621489
 31
0.0
  0
LINE
  5
4350
330
421C
100
AcDbEntity
  8
0
 62
     0
100
AcDbLine
 10
-43.6218454360559
 20
-273.9176852337496
 30
0.0
 11
-43.51970150166672
 21
-273.8155412993604
 31
0.0
  0
LINE
  5
4351
330
421C
100
AcDbEntity
  8
0
 62
     0
100
AcDbLine
 10
-40.71174435006406
 20
-271.0075841477578
 30
0.0
 11
-39.81697516061101
 21
-270.1128149583047
 31
0.0
  0
LINE
  5
4352
330
421C
100
AcDbEntity
  8
0
 62
     0
100
AcDbLine
 10
-43.51970150166672
 20
-273.8155412993604
 30
0.0
 11
-42.88770699546473
 21
-273.1835467931584
 31
0.0
  0
LINE
  5
4353
330
421C
100
AcDbEntity
  8
0
 62
     0
100
AcDbLine
 10
-41.20423786662565
 20
-271.5000776643193
 30
0.0
 11
-40.96335906032432
 21
-271.259198858018
 31
0.0
  0
LINE
  5
4354
330
421C
100
AcDbEntity
  8
0
 62
     0
100
AcDbLine
 10
-42.4220268330001
 20
-272.7178666306938
 30
0.0
 11
-42.32223822675769
 21
-272.6180780244514
 31
0.0
  0
LINE
  5
4355
330
421C
100
AcDbEntity
  8
0
 62
     0
100
AcDbLine
 10
-43.66659736049083
 20
-273.829854636712
 30
0.0
 11
-43.56445342610165
 21
-273.7277107023229
 31
0.0
  0
LINE
  5
4356
330
421C
100
AcDbEntity
  8
0
 62
     0
100
AcDbLine
 10
-40.84432687153655
 20
-271.0075841477578
 30
0.0
 11
-39.94955768208349
 21
-270.1128149583047
 31
0.0
  0
LINE
  5
4357
330
421C
100
AcDbEntity
  8
0
 62
     0
100
AcDbLine
 10
-43.56445342610164
 20
-273.7277107023228
 30
0.0
 11
-42.93245891989965
 21
-273.0957161961208
 31
0.0
  0
LINE
  5
4358
330
421C
100
AcDbEntity
  8
0
 62
     0
100
AcDbLine
 10
-41.19439136707593
 20
-271.3576486432971
 30
0.0
 11
-40.95351256077459
 21
-271.1167698369958
 31
0.0
  0
LINE
  5
4359
330
421C
100
AcDbEntity
  8
0
 62
     0
100
AcDbLine
 10
-42.46677875743502
 20
-272.6300360336562
 30
0.0
 11
-42.36699015119261
 21
-272.5302474274138
 31
0.0
  0
LINE
  5
435A
330
421C
100
AcDbEntity
  8
0
 62
     0
100
AcDbLine
 10
-43.71134928492576
 20
-273.7420240396744
 30
0.0
 11
-43.60920535053657
 21
-273.6398801052853
 31
0.0
  0
LINE
  5
435B
330
421C
100
AcDbEntity
  8
0
 62
     0
100
AcDbLine
 10
-40.97690939300903
 20
-271.0075841477578
 30
0.0
 11
-40.08214020355597
 21
-270.1128149583047
 31
0.0
  0
LINE
  5
435C
330
421C
100
AcDbEntity
  8
0
 62
     0
100
AcDbLine
 10
-43.60920535053657
 20
-273.6398801052853
 30
0.0
 11
-42.97721084433458
 21
-273.0078855990833
 31
0.0
  0
LINE
  5
435D
330
421C
100
AcDbEntity
  8
0
 62
     0
100
AcDbLine
 10
-41.1845448675262
 20
-271.2152196222749
 30
0.0
 11
-40.97690939300904
 21
-271.0075841477578
 31
0.0
  0
LINE
  5
435E
330
421C
100
AcDbEntity
  8
0
 62
     0
100
AcDbLine
 10
-42.51153068186996
 20
-272.5422054366187
 30
0.0
 11
-42.41174207562753
 21
-272.4424168303762
 31
0.0
  0
LINE
  5
435F
330
421C
100
AcDbEntity
  8
0
 62
     0
100
AcDbLine
 10
-43.75610120936068
 20
-273.6541934426369
 30
0.0
 11
-43.65395727497149
 21
-273.5520495082478
 31
0.0
  0
LINE
  5
4360
330
421C
100
AcDbEntity
  8
0
 62
     0
100
AcDbLine
 10
-41.10949191448152
 20
-271.0075841477578
 30
0.0
 11
-40.21472272502846
 21
-270.1128149583047
 31
0.0
  0
LINE
  5
4361
330
421C
100
AcDbEntity
  8
0
 62
     0
100
AcDbLine
 10
-43.65395727497149
 20
-273.5520495082478
 30
0.0
 11
-43.02196276876951
 21
-272.9200550020458
 31
0.0
  0
LINE
  5
4362
330
421C
100
AcDbEntity
  8
0
 62
     0
100
AcDbLine
 10
-41.17469836797646
 20
-271.0727906012527
 30
0.0
 11
-41.10949191448153
 21
-271.0075841477578
 31
0.0
  0
LINE
  5
4363
330
421C
100
AcDbEntity
  8
0
 62
     0
100
AcDbLine
 10
-42.55628260630487
 20
-272.4543748395811
 30
0.0
 11
-42.45649400006246
 21
-272.3545862333387
 31
0.0
  0
LINE
  5
4364
330
421C
100
AcDbEntity
  8
0
 62
     0
100
AcDbLine
 10
-43.8008531337956
 20
-273.5663628455994
 30
0.0
 11
-43.69870919940642
 21
-273.4642189112102
 31
0.0
  0
LINE
  5
4365
330
421C
100
AcDbEntity
  8
0
 62
     0
100
AcDbLine
 10
-41.242074435954
 20
-271.0075841477578
 30
0.0
 11
-40.34730524650094
 21
-270.1128149583047
 31
0.0
  0
LINE
  5
4366
330
421C
100
AcDbEntity
  8
0
 62
     0
100
AcDbLine
 10
-43.69870919940643
 20
-273.4642189112102
 30
0.0
 11
-43.06671469320444
 21
-272.8322244050082
 31
0.0
  0
LINE
  5
4367
330
421C
100
AcDbEntity
  8
0
 62
     0
100
AcDbLine
 10
-42.6010345307398
 20
-272.3665442425436
 30
0.0
 11
-42.50124592449738
 21
-272.2667556363012
 31
0.0
  0
LINE
  5
4368
330
421C
100
AcDbEntity
  8
0
 62
     0
100
AcDbLine
 10
-43.84560505823052
 20
-273.4785322485618
 30
0.0
 11
-43.74346112384134
 21
-273.3763883141727
 31
0.0
  0
LINE
  5
4369
330
421C
100
AcDbEntity
  8
0
 62
     0
100
AcDbLine
 10
-41.37465695742645
 20
-271.0075841477578
 30
0.0
 11
-40.47988776797339
 21
-270.1128149583047
 31
0.0
  0
LINE
  5
436A
330
421C
100
AcDbEntity
  8
0
 62
     0
100
AcDbLine
 10
-43.74346112384134
 20
-273.3763883141726
 30
0.0
 11
-43.11146661763936
 21
-272.7443938079706
 31
0.0
  0
LINE
  5
436B
330
421C
100
AcDbEntity
  8
0
 62
     0
100
AcDbLine
 10
-42.64578645517471
 20
-272.278713645506
 30
0.0
 11
-42.5459978489323
 21
-272.1789250392636
 31
0.0
  0
LINE
  5
436C
330
421C
100
AcDbEntity
  8
0
 62
     0
100
AcDbLine
 10
-43.89035698266545
 20
-273.3907016515242
 30
0.0
 11
-43.78821304827627
 21
-273.2885577171351
 31
0.0
  0
LINE
  5
436D
330
421C
100
AcDbEntity
  8
0
 62
     0
100
AcDbLine
 10
-41.50723947889893
 20
-271.0075841477578
 30
0.0
 11
-40.61247028944587
 21
-270.1128149583047
 31
0.0
  0
LINE
  5
436E
330
421C
100
AcDbEntity
  8
0
 62
     0
100
AcDbLine
 10
-43.78821304827627
 20
-273.2885577171351
 30
0.0
 11
-43.15621854207427
 21
-272.6565632109331
 31
0.0
  0
LINE
  5
436F
330
421C
100
AcDbEntity
  8
0
 62
     0
100
AcDbLine
 10
-42.69053837960965
 20
-272.1908830484685
 30
0.0
 11
-42.59074977336722
 21
-272.0910944422261
 31
0.0
  0
LINE
  5
4370
330
421C
100
AcDbEntity
  8
0
 62
     0
100
AcDbLine
 10
-43.93510890710039
 20
-273.3028710544867
 30
0.0
 11
-43.83296497271119
 21
-273.2007271200976
 31
0.0
  0
LINE
  5
4371
330
421C
100
AcDbEntity
  8
0
 62
     0
100
AcDbLine
 10
-41.63982200037142
 20
-271.0075841477578
 30
0.0
 11
-40.74505281091837
 21
-270.1128149583047
 31
0.0
  0
LINE
  5
4372
330
421C
100
AcDbEntity
  8
0
 62
     0
100
AcDbLine
 10
-43.83296497271119
 20
-273.2007271200975
 30
0.0
 11
-43.2009704665092
 21
-272.5687326138955
 31
0.0
  0
LINE
  5
4373
330
421C
100
AcDbEntity
  8
0
 62
     0
100
AcDbLine
 10
-42.73529030404456
 20
-272.1030524514309
 30
0.0
 11
-42.63550169780215
 21
-272.0032638451885
 31
0.0
  0
LINE
  5
4374
330
421C
100
AcDbEntity
  8
0
 62
     0
100
AcDbLine
 10
-43.97986083153529
 20
-273.2150404574491
 30
0.0
 11
-43.87771689714611
 21
-273.11289652306
 31
0.0
  0
LINE
  5
4375
330
421C
100
AcDbEntity
  8
0
 62
     0
100
AcDbLine
 10
-41.7724045218439
 20
-271.0075841477578
 30
0.0
 11
-40.87763533239084
 21
-270.1128149583047
 31
0.0
  0
LINE
  5
4376
330
421C
100
AcDbEntity
  8
0
 62
     0
100
AcDbLine
 10
-43.87771689714612
 20
-273.11289652306
 30
0.0
 11
-43.24572239094412
 21
-272.480902016858
 31
0.0
  0
LINE
  5
4377
330
421C
100
AcDbEntity
  8
0
 62
     0
100
AcDbLine
 10
-42.78004222847949
 20
-272.0152218543934
 30
0.0
 11
-42.68025362223707
 21
-271.9154332481509
 31
0.0
  0
LINE
  5
4378
330
421C
100
AcDbEntity
  8
0
 62
     0
100
AcDbLine
 10
-44.02461275597022
 20
-273.1272098604116
 30
0.0
 11
-43.92246882158103
 21
-273.0250659260224
 31
0.0
  0
LINE
  5
4379
330
421C
100
AcDbEntity
  8
0
 62
     0
100
AcDbLine
 10
-41.90498704331639
 20
-271.0075841477578
 30
0.0
 11
-41.01021785386333
 21
-270.1128149583047
 31
0.0
  0
LINE
  5
437A
330
421C
100
AcDbEntity
  8
0
 62
     0
100
AcDbLine
 10
-43.92246882158103
 20
-273.0250659260224
 30
0.0
 11
-43.29047431537905
 21
-272.3930714198204
 31
0.0
  0
LINE
  5
437B
330
421C
100
AcDbEntity
  8
0
 62
     0
100
AcDbLine
 10
-42.8247941529144
 20
-271.9273912573558
 30
0.0
 11
-42.72500554667199
 21
-271.8276026511134
 31
0.0
  0
LINE
  5
437C
330
421C
100
AcDbEntity
  8
0
 62
     0
100
AcDbLine
 10
-44.06936468040514
 20
-273.0393792633741
 30
0.0
 11
-43.96722074601596
 21
-272.9372353289849
 31
0.0
  0
LINE
  5
437D
330
421C
100
AcDbEntity
  8
0
 62
     0
100
AcDbLine
 10
-42.03756956478883
 20
-271.0075841477578
 30
0.0
 11
-41.14280037533577
 21
-270.1128149583047
 31
0.0
  0
LINE
  5
437E
330
421C
100
AcDbEntity
  8
0
 62
     0
100
AcDbLine
 10
-43.96722074601596
 20
-272.9372353289849
 30
0.0
 11
-43.33522623981397
 21
-272.3052408227829
 31
0.0
  0
LINE
  5
437F
330
421C
100
AcDbEntity
  8
0
 62
     0
100
AcDbLine
 10
-42.86954607734934
 20
-271.8395606603182
 30
0.0
 11
-42.76975747110692
 21
-271.7397720540759
 31
0.0
  0
LINE
  5
4380
330
421C
100
AcDbEntity
  8
0
 62
     0
100
AcDbLine
 10
-44.11411660484007
 20
-272.9515486663365
 30
0.0
 11
-44.01197267045088
 21
-272.8494047319474
 31
0.0
  0
LINE
  5
4381
330
421C
100
AcDbEntity
  8
0
 62
     0
100
AcDbLine
 10
-42.17015208626132
 20
-271.0075841477578
 30
0.0
 11
-41.27538289680827
 21
-270.1128149583047
 31
0.0
  0
LINE
  5
4382
330
421C
100
AcDbEntity
  8
0
 62
     0
100
AcDbLine
 10
-44.01197267045089
 20
-272.8494047319474
 30
0.0
 11
-43.3799781642489
 21
-272.2174102257453
 31
0.0
  0
LINE
  5
4383
330
421C
100
AcDbEntity
  8
0
 62
     0
100
AcDbLine
 10
-42.91429800178426
 20
-271.7517300632807
 30
0.0
 11
-42.81450939554184
 21
-271.6519414570383
 31
0.0
  0
LINE
  5
4384
330
421C
100
AcDbEntity
  8
0
 62
     0
100
AcDbLine
 10
-43.03552049306387
 20
-271.8729525545603
 30
0.0
 11
-42.91429800178426
 21
-271.7517300632807
 31
0.0
  0
LINE
  5
4385
330
421C
100
AcDbEntity
  8
0
 62
     0
100
AcDbLine
 10
-44.15886852927499
 20
-272.8637180692989
 30
0.0
 11
-44.0567245948858
 21
-272.7615741349098
 31
0.0
  0
LINE
  5
4386
330
421C
100
AcDbEntity
  8
0
 62
     0
100
AcDbLine
 10
-42.30273460773381
 20
-271.0075841477578
 30
0.0
 11
-41.40796541828075
 21
-270.1128149583047
 31
0.0
  0
LINE
  5
4387
330
421C
100
AcDbEntity
  8
0
 62
     0
100
AcDbLine
 10
-44.05672459488581
 20
-272.7615741349098
 30
0.0
 11
-43.42473008868381
 21
-272.1295796287078
 31
0.0
  0
LINE
  5
4388
330
421C
100
AcDbEntity
  8
0
 62
     0
100
AcDbLine
 10
-42.95904992621917
 20
-271.6638994662432
 30
0.0
 11
-42.85926131997678
 21
-271.5641108600007
 31
0.0
  0
LINE
  5
4389
330
421C
100
AcDbEntity
  8
0
 62
     0
100
AcDbLine
 10
-43.30583527562661
 20
-272.0106848156506
 30
0.0
 11
-43.03567928394395
 21
-271.7405288239679
 31
0.0
  0
LINE
  5
438A
330
421C
100
AcDbEntity
  8
0
 62
     0
100
AcDbLine
 10
-44.20362045370992
 20
-272.7758874722614
 30
0.0
 11
-44.10147651932073
 21
-272.6737435378722
 31
0.0
  0
LINE
  5
438B
330
421C
100
AcDbEntity
  8
0
 62
     0
100
AcDbLine
 10
-42.43531712920629
 20
-271.0075841477578
 30
0.0
 11
-41.54054793975324
 21
-270.1128149583047
 31
0.0
  0
LINE
  5
438C
330
421C
100
AcDbEntity
  8
0
 62
     0
100
AcDbLine
 10
-44.10147651932073
 20
-272.6737435378722
 30
0.0
 11
-43.57615005818931
 21
-272.1484170767408
 31
0.0
  0
LINE
  5
438D
330
421C
100
AcDbEntity
  8
0
 62
     0
100
AcDbLine
 10
-43.00380185065409
 20
-271.5760688692056
 30
0.0
 11
-42.9040132444117
 21
-271.4762802629631
 31
0.0
  0
LINE
  5
438E
330
421C
100
AcDbEntity
  8
0
 62
     0
100
AcDbLine
 10
-43.57615005818945
 20
-272.1484170767408
 30
0.0
 11
-43.29449434520518
 21
-271.8667613637567
 31
0.0
  0
LINE
  5
438F
330
421C
100
AcDbEntity
  8
0
 62
     0
100
AcDbLine
 10
-44.24837237814484
 20
-272.6880568752238
 30
0.0
 11
-44.14622844375565
 21
-272.5859129408347
 31
0.0
  0
LINE
  5
4390
330
421C
100
AcDbEntity
  8
0
 62
     0
100
AcDbLine
 10
-42.56789965067877
 20
-271.0075841477578
 30
0.0
 11
-41.67313046122571
 21
-270.1128149583047
 31
0.0
  0
LINE
  5
4391
330
421C
100
AcDbEntity
  8
0
 62
     0
100
AcDbLine
 10
-44.14622844375567
 20
-272.5859129408347
 30
0.0
 11
-43.81389900091518
 21
-272.2535834979942
 31
0.0
  0
LINE
  5
4392
330
421C
100
AcDbEntity
  8
0
 62
     0
100
AcDbLine
 10
-43.04855377508903
 20
-271.488238272168
 30
0.0
 11
-42.94876516884662
 21
-271.3884496659257
 31
0.0
  0
LINE
  5
4393
330
421C
100
AcDbEntity
  8
0
 62
     0
100
AcDbLine
 10
-43.81389900091516
 20
-272.2535834979942
 30
0.0
 11
-43.5533094064665
 21
-271.9929939035455
 31
0.0
  0
LINE
  5
4394
330
421C
100
AcDbEntity
  8
0
 62
     0
100
AcDbLine
 10
-43.55330940646641
 20
-271.9929939035454
 30
0.0
 11
-43.51423393755367
 21
-271.9539184346327
 31
0.0
  0
LINE
  5
4395
330
421C
100
AcDbEntity
  8
0
 62
     0
100
AcDbLine
 10
-44.29312430257975
 20
-272.6002262781863
 30
0.0
 11
-44.19098036819057
 21
-272.4980823437971
 31
0.0
  0
LINE
  5
4396
330
421C
100
AcDbEntity
  8
0
 62
     0
100
AcDbLine
 10
-42.70048217215122
 20
-271.0075841477578
 30
0.0
 11
-41.80571298269817
 21
-270.1128149583047
 31
0.0
  0
LINE
  5
4397
330
421C
100
AcDbEntity
  8
0
 62
     0
100
AcDbLine
 10
-44.19098036819058
 20
-272.4980823437971
 30
0.0
 11
-43.85736435006013
 21
-272.1644663256667
 31
0.0
  0
LINE
  5
4398
330
421C
100
AcDbEntity
  8
0
 62
     0
100
AcDbLine
 10
-43.09330569952394
 20
-271.4004076751304
 30
0.0
 11
-42.99351709328155
 21
-271.3006190688881
 31
0.0
  0
LINE
  5
4399
330
421C
100
AcDbEntity
  8
0
 62
     0
100
AcDbLine
 10
-43.85736435006017
 20
-272.1644663256666
 30
0.0
 11
-43.81212446772781
 21
-272.1192264433343
 31
0.0
  0
LINE
  5
439A
330
421C
100
AcDbEntity
  8
0
 62
     0
100
AcDbLine
 10
-43.81212446772774
 20
-272.1192264433343
 30
0.0
 11
-43.5589858619886
 21
-271.8660878375951
 31
0.0
  0
LINE
  5
439B
330
421C
100
AcDbEntity
  8
0
 62
     0
100
AcDbLine
 10
-44.33787622701468
 20
-272.5123956811487
 30
0.0
 11
-44.23573229262551
 21
-272.4102517467596
 31
0.0
  0
LINE
  5
439C
330
421C
100
AcDbEntity
  8
0
 62
     0
100
AcDbLine
 10
-42.83306469362371
 20
-271.0075841477578
 30
0.0
 11
-41.93829550417065
 21
-270.1128149583047
 31
0.0
  0
LINE
  5
439D
330
421C
100
AcDbEntity
  8
0
 62
     0
100
AcDbLine
 10
-44.23573229262551
 20
-272.4102517467596
 30
0.0
 11
-43.60373778642352
 21
-271.7782572405575
 31
0.0
  0
LINE
  5
439E
330
421C
100
AcDbEntity
  8
0
 62
     0
100
AcDbLine
 10
-43.13805762395886
 20
-271.3125770780929
 30
0.0
 11
-43.03826901771647
 21
-271.2127884718505
 31
0.0
  0
LINE
  5
439F
330
421C
100
AcDbEntity
  8
0
 62
     0
100
AcDbLine
 10
-44.38262815144962
 20
-272.4245650841112
 30
0.0
 11
-44.28048421706043
 21
-272.3224211497221
 31
0.0
  0
LINE
  5
43A0
330
421C
100
AcDbEntity
  8
0
 62
     0
100
AcDbLine
 10
-42.9656472150962
 20
-271.0075841477578
 30
0.0
 11
-42.07087802564314
 21
-270.1128149583047
 31
0.0
  0
LINE
  5
43A1
330
421C
100
AcDbEntity
  8
0
 62
     0
100
AcDbLine
 10
-44.28048421706043
 20
-272.322421149722
 30
0.0
 11
-43.64848971085844
 21
-271.69042664352
 31
0.0
  0
LINE
  5
43A2
330
421C
100
AcDbEntity
  8
0
 62
     0
100
AcDbLine
 10
-43.18280954839378
 20
-271.2247464810554
 30
0.0
 11
-43.08302094215139
 21
-271.1249578748129
 31
0.0
  0
LINE
  5
43A3
330
421C
100
AcDbEntity
  8
0
 62
     0
100
AcDbLine
 10
-44.42738007588452
 20
-272.3367344870736
 30
0.0
 11
-44.32523614149536
 21
-272.2345905526844
 31
0.0
  0
LINE
  5
43A4
330
421C
100
AcDbEntity
  8
0
 62
     0
100
AcDbLine
 10
-43.09822973656867
 20
-271.0075841477578
 30
0.0
 11
-42.20346054711562
 21
-270.1128149583047
 31
0.0
  0
LINE
  5
43A5
330
421C
100
AcDbEntity
  8
0
 62
     0
100
AcDbLine
 10
-44.32523614149537
 20
-272.2345905526844
 30
0.0
 11
-43.69324163529338
 21
-271.6025960464825
 31
0.0
  0
LINE
  5
43A6
330
421C
100
AcDbEntity
  8
0
 62
     0
100
AcDbLine
 10
-43.22756147282872
 20
-271.1369158840178
 30
0.0
 11
-43.12777286658632
 21
-271.0371272777754
 31
0.0
  0
LINE
  5
43A7
330
421C
100
AcDbEntity
  8
0
 62
     0
100
AcDbLine
 10
-44.47213200031946
 20
-272.2489038900361
 30
0.0
 11
-44.36998806593027
 21
-272.1467599556469
 31
0.0
  0
LINE
  5
43A8
330
421C
100
AcDbEntity
  8
0
 62
     0
100
AcDbLine
 10
-43.23081225804116
 20
-271.0075841477578
 30
0.0
 11
-42.3360430685881
 21
-270.1128149583047
 31
0.0
  0
LINE
  5
43A9
330
421C
100
AcDbEntity
  8
0
 62
     0
100
AcDbLine
 10
-44.36998806593028
 20
-272.1467599556469
 30
0.0
 11
-43.7379935597283
 21
-271.5147654494449
 31
0.0
  0
LINE
  5
43AA
330
421C
100
AcDbEntity
  8
0
 62
     0
100
AcDbLine
 10
-43.27231339726363
 20
-271.0490852869802
 30
0.0
 11
-43.23081225804115
 21
-271.0075841477578
 31
0.0
  0
LINE
  5
43AB
330
421C
100
AcDbEntity
  8
0
 62
     0
100
AcDbLine
 10
-44.51688392475437
 20
-272.1610732929985
 30
0.0
 11
-44.41473999036521
 21
-272.0589293586094
 31
0.0
  0
LINE
  5
43AC
330
421C
100
AcDbEntity
  8
0
 62
     0
100
AcDbLine
 10
-43.36339477951361
 20
-271.0075841477578
 30
0.0
 11
-42.46862559006059
 21
-270.1128149583047
 31
0.0
  0
LINE
  5
43AD
330
421C
100
AcDbEntity
  8
0
 62
     0
100
AcDbLine
 10
-44.4147399903652
 20
-272.0589293586093
 30
0.0
 11
-43.78274548416323
 21
-271.4269348524073
 31
0.0
  0
LINE
  5
43AE
330
421C
100
AcDbEntity
  8
0
 62
     0
100
AcDbLine
 10
-44.5616358491893
 20
-272.0732426959609
 30
0.0
 11
-44.45949191480012
 21
-271.9710987615718
 31
0.0
  0
LINE
  5
43AF
330
421C
100
AcDbEntity
  8
0
 62
     0
100
AcDbLine
 10
-43.4959773009861
 20
-271.0075841477578
 30
0.0
 11
-42.60120811153304
 21
-270.1128149583047
 31
0.0
  0
LINE
  5
43B0
330
421C
100
AcDbEntity
  8
0
 62
     0
100
AcDbLine
 10
-44.45949191480013
 20
-271.9710987615718
 30
0.0
 11
-43.82749740859814
 21
-271.3391042553698
 31
0.0
  0
LINE
  5
43B1
330
421C
100
AcDbEntity
  8
0
 62
     0
100
AcDbLine
 10
-44.60638777362423
 20
-271.9854120989233
 30
0.0
 11
-44.50424383923505
 21
-271.8832681645342
 31
0.0
  0
LINE
  5
43B2
330
421C
100
AcDbEntity
  8
0
 62
     0
100
AcDbLine
 10
-43.62855982245858
 20
-271.0075841477578
 30
0.0
 11
-42.73379063300552
 21
-270.1128149583047
 31
0.0
  0
LINE
  5
43B3
330
421C
100
AcDbEntity
  8
0
 62
     0
100
AcDbLine
 10
-44.50424383923506
 20
-271.8832681645342
 30
0.0
 11
-43.87224933303307
 21
-271.2512736583323
 31
0.0
  0
LINE
  5
43B4
330
421C
100
AcDbEntity
  8
0
 62
     0
100
AcDbLine
 10
-44.65113969805915
 20
-271.8975815018858
 30
0.0
 11
-44.54899576366996
 21
-271.7954375674967
 31
0.0
  0
LINE
  5
43B5
330
421C
100
AcDbEntity
  8
0
 62
     0
100
AcDbLine
 10
-43.76114234393106
 20
-271.0075841477578
 30
0.0
 11
-42.86637315447801
 21
-270.1128149583047
 31
0.0
  0
LINE
  5
43B6
330
421C
100
AcDbEntity
  8
0
 62
     0
100
AcDbLine
 10
-44.54899576366997
 20
-271.7954375674967
 30
0.0
 11
-43.91700125746799
 21
-271.1634430612947
 31
0.0
  0
LINE
  5
43B7
330
421C
100
AcDbEntity
  8
0
 62
     0
100
AcDbLine
 10
-44.69589162249408
 20
-271.8097509048483
 30
0.0
 11
-44.5937476881049
 21
-271.7076069704591
 31
0.0
  0
LINE
  5
43B8
330
421C
100
AcDbEntity
  8
0
 62
     0
100
AcDbLine
 10
-43.89372486540355
 20
-271.0075841477578
 30
0.0
 11
-42.99895567595049
 21
-270.1128149583047
 31
0.0
  0
LINE
  5
43B9
330
421C
100
AcDbEntity
  8
0
 62
     0
100
AcDbLine
 10
-44.59374768810491
 20
-271.7076069704591
 30
0.0
 11
-43.96175318190293
 21
-271.0756124642572
 31
0.0
  0
LINE
  5
43BA
330
421C
100
AcDbEntity
  8
0
 62
     0
100
AcDbLine
 10
-44.74064354692899
 20
-271.7219203078107
 30
0.0
 11
-44.63849961253981
 21
-271.6197763734216
 31
0.0
  0
LINE
  5
43BB
330
421C
100
AcDbEntity
  8
0
 62
     0
100
AcDbLine
 10
-44.02630738687596
 20
-271.0075841477577
 30
0.0
 11
-43.13153819742297
 21
-270.1128149583047
 31
0.0
  0
LINE
  5
43BC
330
421C
100
AcDbEntity
  8
0
 62
     0
100
AcDbLine
 10
-44.63849961253983
 20
-271.6197763734216
 30
0.0
 11
-44.02630738687603
 21
-271.0075841477578
 31
0.0
  0
LINE
  5
43BD
330
421C
100
AcDbEntity
  8
0
 62
     0
100
AcDbLine
 10
-44.78539547136391
 20
-271.6340897107732
 30
0.0
 11
-44.68325153697474
 21
-271.5319457763841
 31
0.0
  0
LINE
  5
43BE
330
421C
100
AcDbEntity
  8
0
 62
     0
100
AcDbLine
 10
-44.15888990834845
 20
-271.0075841477577
 30
0.0
 11
-43.26412071889542
 21
-270.1128149583047
 31
0.0
  0
LINE
  5
43BF
330
421C
100
AcDbEntity
  8
0
 62
     0
100
AcDbLine
 10
-44.68325153697477
 20
-271.531945776384
 30
0.0
 11
-44.15888990834848
 21
-271.0075841477578
 31
0.0
  0
LINE
  5
43C0
330
421C
100
AcDbEntity
  8
0
 62
     0
100
AcDbLine
 10
-44.83014739579885
 20
-271.5462591137356
 30
0.0
 11
-44.72800346140967
 21
-271.4441151793465
 31
0.0
  0
LINE
  5
43C1
330
421C
100
AcDbEntity
  8
0
 62
     0
100
AcDbLine
 10
-44.29147242982091
 20
-271.0075841477577
 30
0.0
 11
-43.39670324036791
 21
-270.1128149583047
 31
0.0
  0
LINE
  5
43C2
330
421C
100
AcDbEntity
  8
0
 62
     0
100
AcDbLine
 10
-44.72800346140968
 20
-271.4441151793465
 30
0.0
 11
-44.29147242982097
 21
-271.0075841477578
 31
0.0
  0
LINE
  5
43C3
330
421C
100
AcDbEntity
  8
0
 62
     0
100
AcDbLine
 10
-44.87489932023376
 20
-271.4584285166981
 30
0.0
 11
-44.7727553858446
 21
-271.3562845823089
 31
0.0
  0
LINE
  5
43C4
330
421C
100
AcDbEntity
  8
0
 62
     0
100
AcDbLine
 10
-44.42405495129341
 20
-271.0075841477577
 30
0.0
 11
-43.5292857618404
 21
-270.1128149583047
 31
0.0
  0
LINE
  5
43C5
330
421C
100
AcDbEntity
  8
0
 62
     0
100
AcDbLine
 10
-44.77275538584461
 20
-271.3562845823089
 30
0.0
 11
-44.42405495129345
 21
-271.0075841477578
 31
0.0
  0
LINE
  5
43C6
330
421C
100
AcDbEntity
  8
0
 62
     0
100
AcDbLine
 10
-44.91965124466869
 20
-271.3705979196606
 30
0.0
 11
-44.81750731027952
 21
-271.2684539852714
 31
0.0
  0
LINE
  5
43C7
330
421C
100
AcDbEntity
  8
0
 62
     0
100
AcDbLine
 10
-44.55663747276587
 20
-271.0075841477577
 30
0.0
 11
-43.66186828331287
 21
-270.1128149583047
 31
0.0
  0
LINE
  5
43C8
330
421C
100
AcDbEntity
  8
0
 62
     0
100
AcDbLine
 10
-44.81750731027953
 20
-271.2684539852714
 30
0.0
 11
-44.55663747276593
 21
-271.0075841477578
 31
0.0
  0
LINE
  5
43C9
330
421C
100
AcDbEntity
  8
0
 62
     0
100
AcDbLine
 10
-44.96440316910361
 20
-271.282767322623
 30
0.0
 11
-44.86225923471444
 21
-271.1806233882338
 31
0.0
  0
LINE
  5
43CA
330
421C
100
AcDbEntity
  8
0
 62
     0
100
AcDbLine
 10
-44.68921999423836
 20
-271.0075841477577
 30
0.0
 11
-43.79445080478536
 21
-270.1128149583047
 31
0.0
  0
LINE
  5
43CB
330
421C
100
AcDbEntity
  8
0
 62
     0
100
AcDbLine
 10
-44.86225923471446
 20
-271.1806233882338
 30
0.0
 11
-44.68921999423842
 21
-271.0075841477578
 31
0.0
  0
LINE
  5
43CC
330
421C
100
AcDbEntity
  8
0
 62
     0
100
AcDbLine
 10
-45.00915509353854
 20
-271.1949367255854
 30
0.0
 11
-44.93619626528839
 21
-271.1219778973352
 31
0.0
  0
LINE
  5
43CD
330
421C
100
AcDbEntity
  8
0
 62
     0
100
AcDbLine
 10
-44.82180251571087
 20
-271.0075841477578
 30
0.0
 11
-43.92703332625781
 21
-270.1128149583047
 31
0.0
  0
LINE
  5
43CE
330
421C
100
AcDbEntity
  8
0
 62
     0
100
AcDbLine
 10
-44.95438503718335
 20
-271.0075841477578
 30
0.0
 11
-44.0596158477303
 21
-270.1128149583047
 31
0.0
  0
LINE
  5
43CF
330
421C
100
AcDbEntity
  8
0
 62
     0
100
AcDbLine
 10
-45.08696755865584
 20
-271.0075841477578
 30
0.0
 11
-44.19219836920278
 21
-270.1128149583047
 31
0.0
  0
LINE
  5
43D0
330
421C
100
AcDbEntity
  8
0
 62
     0
100
AcDbLine
 10
-45.21955008012832
 20
-271.0075841477578
 30
0.0
 11
-44.32478089067527
 21
-270.1128149583047
 31
0.0
  0
LINE
  5
43D1
330
421C
100
AcDbEntity
  8
0
 62
     0
100
AcDbLine
 10
-45.23372463886881
 20
-270.8891761850257
 30
0.0
 11
-44.45736341214774
 21
-270.1128149583047
 31
0.0
  0
LINE
  5
43D2
330
421C
100
AcDbEntity
  8
0
 62
     0
100
AcDbLine
 10
-45.23372463886881
 20
-270.7565936635533
 30
0.0
 11
-44.5899459336202
 21
-270.1128149583047
 31
0.0
  0
LINE
  5
43D3
330
421C
100
AcDbEntity
  8
0
 62
     0
100
AcDbLine
 10
-45.23372463886881
 20
-270.6240111420808
 30
0.0
 11
-44.72252845509268
 21
-270.1128149583047
 31
0.0
  0
LINE
  5
43D4
330
421C
100
AcDbEntity
  8
0
 62
     0
100
AcDbLine
 10
-45.23372463886881
 20
-270.4914286206083
 30
0.0
 11
-44.85511097656517
 21
-270.1128149583047
 31
0.0
  0
LINE
  5
43D5
330
421C
100
AcDbEntity
  8
0
 62
     0
100
AcDbLine
 10
-45.2337246388688
 20
-270.3588460991359
 30
0.0
 11
-44.98769349803765
 21
-270.1128149583047
 31
0.0
  0
LINE
  5
43D6
330
421C
100
AcDbEntity
  8
0
 62
     0
100
AcDbLine
 10
-45.2337246388688
 20
-270.2262635776634
 30
0.0
 11
-45.12027601951014
 21
-270.1128149583047
 31
0.0
  0
LINE
  5
43D7
330
421C
100
AcDbEntity
  8
0
 62
     0
100
AcDbLine
 10
-39.27512850824
 20
-279.5146574163695
 30
0.0
 11
-38.5413666900566
 21
-278.7808955981861
 31
0.0
  0
LINE
  5
43D8
330
421C
100
AcDbEntity
  8
0
 62
     0
100
AcDbLine
 10
-39.16241960701883
 20
-279.5345310366208
 30
0.0
 11
-38.42865778883542
 21
-278.8007692184374
 31
0.0
  0
LINE
  5
43D9
330
421C
100
AcDbEntity
  8
0
 62
     0
100
AcDbLine
 10
-39.04971070579762
 20
-279.5544046568721
 30
0.0
 11
-38.31594888761424
 21
-278.8206428386887
 31
0.0
  0
LINE
  5
43DA
330
421C
100
AcDbEntity
  8
0
 62
     0
100
AcDbLine
 10
-38.93700180457646
 20
-279.5742782771234
 30
0.0
 11
-38.20323998639308
 21
-278.84051645894
 31
0.0
  0
LINE
  5
43DB
330
421C
100
AcDbEntity
  8
0
 62
     0
100
AcDbLine
 10
-38.82429290335529
 20
-279.5941518973747
 30
0.0
 11
-38.0905310851719
 21
-278.8603900791913
 31
0.0
  0
LINE
  5
43DC
330
421C
100
AcDbEntity
  8
0
 62
     0
100
AcDbLine
 10
-38.71158400213412
 20
-279.614025517626
 30
0.0
 11
-37.97782218395072
 21
-278.8802636994426
 31
0.0
  0
LINE
  5
43DD
330
421C
100
AcDbEntity
  8
0
 62
     0
100
AcDbLine
 10
-38.59887510091292
 20
-279.6338991378773
 30
0.0
 11
-37.86511328272954
 21
-278.9001373196939
 31
0.0
  0
LINE
  5
43DE
330
421C
100
AcDbEntity
  8
0
 62
     0
100
AcDbLine
 10
-38.48616619969174
 20
-279.6537727581286
 30
0.0
 11
-37.75240438150836
 21
-278.9200109399452
 31
0.0
  0
LINE
  5
43DF
330
421C
100
AcDbEntity
  8
0
 62
     0
100
AcDbLine
 10
-38.37345729847058
 20
-279.6736463783799
 30
0.0
 11
-37.63969548028717
 21
-278.9398845601965
 31
0.0
  0
LINE
  5
43E0
330
421C
100
AcDbEntity
  8
0
 62
     0
100
AcDbLine
 10
-38.26074839724942
 20
-279.6935199986312
 30
0.0
 11
-37.526986579066
 21
-278.9597581804478
 31
0.0
  0
LINE
  5
43E1
330
421C
100
AcDbEntity
  8
0
 62
     0
100
AcDbLine
 10
-38.14803949602821
 20
-279.7133936188825
 30
0.0
 11
-37.41427767784482
 21
-278.9796318006991
 31
0.0
  0
LINE
  5
43E2
330
421C
100
AcDbEntity
  8
0
 62
     0
100
AcDbLine
 10
-38.03533059480704
 20
-279.7332672391338
 30
0.0
 11
-37.30156877662363
 21
-278.9995054209504
 31
0.0
  0
LINE
  5
43E3
330
421C
100
AcDbEntity
  8
0
 62
     0
100
AcDbLine
 10
-37.92262169358588
 20
-279.7531408593851
 30
0.0
 11
-37.18885987540245
 21
-279.0193790412017
 31
0.0
  0
LINE
  5
43E4
330
421C
100
AcDbEntity
  8
0
 62
     0
100
AcDbLine
 10
-37.80991279236471
 20
-279.7730144796364
 30
0.0
 11
-37.07615097418127
 21
-279.039252661453
 31
0.0
  0
LINE
  5
43E5
330
421C
100
AcDbEntity
  8
0
 62
     0
100
AcDbLine
 10
-37.6972038911435
 20
-279.7928880998877
 30
0.0
 11
-36.96344207296009
 21
-279.0591262817043
 31
0.0
  0
LINE
  5
43E6
330
421C
100
AcDbEntity
  8
0
 62
     0
100
AcDbLine
 10
-37.58449498992233
 20
-279.812761720139
 30
0.0
 11
-36.85073317173891
 21
-279.0789999019556
 31
0.0
  0
LINE
  5
43E7
330
421C
100
AcDbEntity
  8
0
 62
     0
100
AcDbLine
 10
-37.47178608870117
 20
-279.8326353403903
 30
0.0
 11
-36.73802427051778
 21
-279.0988735222069
 31
0.0
  0
LINE
  5
43E8
330
421C
100
AcDbEntity
  8
0
 62
     0
100
AcDbLine
 10
-37.35907718748001
 20
-279.8525089606416
 30
0.0
 11
-36.62531536929659
 21
-279.1187471424582
 31
0.0
  0
LINE
  5
43E9
330
421C
100
AcDbEntity
  8
0
 62
     0
100
AcDbLine
 10
-37.24636828625879
 20
-279.8723825808929
 30
0.0
 11
-36.51260646807542
 21
-279.1386207627095
 31
0.0
  0
LINE
  5
43EA
330
421C
100
AcDbEntity
  8
0
 62
     0
100
AcDbLine
 10
-37.13365938503763
 20
-279.8922562011442
 30
0.0
 11
-36.39989756685424
 21
-279.1584943829608
 31
0.0
  0
LINE
  5
43EB
330
421C
100
AcDbEntity
  8
0
 62
     0
100
AcDbLine
 10
-37.02095048381647
 20
-279.9121298213955
 30
0.0
 11
-36.28718866563306
 21
-279.1783680032121
 31
0.0
  0
LINE
  5
43EC
330
421C
100
AcDbEntity
  8
0
 62
     0
100
AcDbLine
 10
-36.9082415825953
 20
-279.9320034416468
 30
0.0
 11
-36.17447976441188
 21
-279.1982416234634
 31
0.0
  0
LINE
  5
43ED
330
421C
100
AcDbEntity
  8
0
 62
     0
100
AcDbLine
 10
-36.79553268137409
 20
-279.9518770618981
 30
0.0
 11
-36.0617708631907
 21
-279.2181152437147
 31
0.0
  0
LINE
  5
43EE
330
421C
100
AcDbEntity
  8
0
 62
     0
100
AcDbLine
 10
-36.68282378015292
 20
-279.9717506821494
 30
0.0
 11
-35.94906196196951
 21
-279.237988863966
 31
0.0
  0
LINE
  5
43EF
330
421C
100
AcDbEntity
  8
0
 62
     0
100
AcDbLine
 10
-36.57011487893175
 20
-279.9916243024007
 30
0.0
 11
-35.83635306074833
 21
-279.2578624842173
 31
0.0
  0
LINE
  5
43F0
330
421C
100
AcDbEntity
  8
0
 62
     0
100
AcDbLine
 10
-36.45740597771059
 20
-280.011497922652
 30
0.0
 11
-35.72364415952716
 21
-279.2777361044686
 31
0.0
  0
LINE
  5
43F1
330
421C
100
AcDbEntity
  8
0
 62
     0
100
AcDbLine
 10
-36.34469707648938
 20
-280.0313715429033
 30
0.0
 11
-35.61093525830597
 21
-279.2976097247199
 31
0.0
  0
LINE
  5
43F2
330
421C
100
AcDbEntity
  8
0
 62
     0
100
AcDbLine
 10
-36.23198817526822
 20
-280.0512451631546
 30
0.0
 11
-35.49822635708479
 21
-279.3174833449712
 31
0.0
  0
LINE
  5
43F3
330
421C
100
AcDbEntity
  8
0
 62
     0
100
AcDbLine
 10
-36.11927927404706
 20
-280.0711187834059
 30
0.0
 11
-35.38551745586361
 21
-279.3373569652225
 31
0.0
  0
LINE
  5
43F4
330
421C
100
AcDbEntity
  8
0
 62
     0
100
AcDbLine
 10
-36.00657037282589
 20
-280.0909924036572
 30
0.0
 11
-35.27280855464243
 21
-279.3572305854738
 31
0.0
  0
LINE
  5
43F5
330
421C
100
AcDbEntity
  8
0
 62
     0
100
AcDbLine
 10
-35.89386147160467
 20
-280.1108660239085
 30
0.0
 11
-35.16009965342125
 21
-279.3771042057251
 31
0.0
  0
LINE
  5
43F6
330
421C
100
AcDbEntity
  8
0
 62
     0
100
AcDbLine
 10
-35.78115257038351
 20
-280.1307396441598
 30
0.0
 11
-35.04739075220007
 21
-279.3969778259764
 31
0.0
  0
LINE
  5
43F7
330
421C
100
AcDbEntity
  8
0
 62
     0
100
AcDbLine
 10
-35.66844366916234
 20
-280.1506132644111
 30
0.0
 11
-34.93468185097889
 21
-279.4168514462277
 31
0.0
  0
LINE
  5
43F8
330
421C
100
AcDbEntity
  8
0
 62
     0
100
AcDbLine
 10
-35.55573476794118
 20
-280.1704868846624
 30
0.0
 11
-34.82197294975771
 21
-279.436725066479
 31
0.0
  0
LINE
  5
43F9
330
421C
100
AcDbEntity
  8
0
 62
     0
100
AcDbLine
 10
-35.44302586671997
 20
-280.1903605049137
 30
0.0
 11
-34.70926404853658
 21
-279.4565986867303
 31
0.0
  0
LINE
  5
43FA
330
421C
100
AcDbEntity
  8
0
 62
     0
100
AcDbLine
 10
-35.3303169654988
 20
-280.210234125165
 30
0.0
 11
-34.59655514731539
 21
-279.4764723069816
 31
0.0
  0
LINE
  5
43FB
330
421C
100
AcDbEntity
  8
0
 62
     0
100
AcDbLine
 10
-35.21760806427764
 20
-280.2301077454163
 30
0.0
 11
-34.48384624609421
 21
-279.496345927233
 31
0.0
  0
LINE
  5
43FC
330
421C
100
AcDbEntity
  8
0
 62
     0
100
AcDbLine
 10
-35.10489916305647
 20
-280.2499813656676
 30
0.0
 11
-34.65961316436878
 21
-279.80469536698
 31
0.0
  0
LINE
  5
43FD
330
421C
100
AcDbEntity
  8
0
 62
     0
100
AcDbLine
 10
-34.49507239555112
 20
-279.6401545981623
 30
0.0
 11
-34.37113734487303
 21
-279.5162195474842
 31
0.0
  0
LINE
  5
43FE
330
421C
100
AcDbEntity
  8
0
 62
     0
100
AcDbLine
 10
-34.65961316436874
 20
-279.8046953669799
 30
0.0
 11
-34.49507239555113
 21
-279.6401545981623
 31
0.0
  0
LINE
  5
43FF
330
421C
100
AcDbEntity
  8
0
 62
     0
100
AcDbLine
 10
-34.99219026183526
 20
-280.2698549859189
 30
0.0
 11
-34.61254978408334
 21
-279.890214508167
 31
0.0
  0
LINE
  5
4400
330
421C
100
AcDbEntity
  8
0
 62
     0
100
AcDbLine
 10
-34.4505443932725
 20
-279.7282091173562
 30
0.0
 11
-34.25842844365185
 21
-279.5360931677355
 31
0.0
  0
LINE
  5
4401
330
421C
100
AcDbEntity
  8
0
 62
     0
100
AcDbLine
 10
-34.61254978408327
 20
-279.8902145081669
 30
0.0
 11
-34.45054439327251
 21
-279.7282091173562
 31
0.0
  0
LINE
  5
4402
330
421C
100
AcDbEntity
  8
0
 62
     0
100
AcDbLine
 10
-34.8794813606141
 20
-280.2897286061702
 30
0.0
 11
-34.56548640379791
 21
-279.975733649354
 31
0.0
  0
LINE
  5
4403
330
421C
100
AcDbEntity
  8
0
 62
     0
100
AcDbLine
 10
-34.40601639099387
 20
-279.81626363655
 30
0.0
 11
-34.18212969867614
 21
-279.5923769442322
 31
0.0
  0
LINE
  5
4404
330
421C
100
AcDbEntity
  8
0
 62
     0
100
AcDbLine
 10
-34.5654864037978
 20
-279.975733649354
 30
0.0
 11
-34.4060163909939
 21
-279.81626363655
 31
0.0
  0
LINE
  5
4405
330
421C
100
AcDbEntity
  8
0
 62
     0
100
AcDbLine
 10
-34.76677245939293
 20
-280.3096022264215
 30
0.0
 11
-34.51842302351247
 21
-280.0612527905411
 31
0.0
  0
LINE
  5
4406
330
421C
100
AcDbEntity
  8
0
 62
     0
100
AcDbLine
 10
-34.36148838871525
 20
-279.9043181557439
 30
0.0
 11
-34.21610863625688
 21
-279.7589384032855
 31
0.0
  0
LINE
  5
4407
330
421C
100
AcDbEntity
  8
0
 62
     0
100
AcDbLine
 10
-34.51842302351233
 20
-280.0612527905409
 30
0.0
 11
-34.36148838871528
 21
-279.9043181557439
 31
0.0
  0
LINE
  5
4408
330
421C
100
AcDbEntity
  8
0
 62
     0
100
AcDbLine
 10
-34.65406355817177
 20
-280.3294758466728
 30
0.0
 11
-34.47135964322703
 21
-280.1467719317281
 31
0.0
  0
LINE
  5
4409
330
421C
100
AcDbEntity
  8
0
 62
     0
100
AcDbLine
 10
-34.31696038643663
 20
-279.9923726749377
 30
0.0
 11
-34.25008757383762
 21
-279.9254998623387
 31
0.0
  0
LINE
  5
440A
330
421C
100
AcDbEntity
  8
0
 62
     0
100
AcDbLine
 10
-34.47135964322686
 20
-280.1467719317279
 30
0.0
 11
-34.31696038643667
 21
-279.9923726749378
 31
0.0
  0
LINE
  5
440B
330
421C
100
AcDbEntity
  8
0
 62
     0
100
AcDbLine
 10
-34.54135465695056
 20
-280.3493494669242
 30
0.0
 11
-34.4242962629416
 21
-280.2322910729151
 31
0.0
  0
LINE
  5
440C
330
421C
100
AcDbEntity
  8
0
 62
     0
100
AcDbLine
 10
-34.42429626294139
 20
-280.232291072915
 30
0.0
 11
-34.27243238415805
 21
-280.0804271941316
 31
0.0
  0
LINE
  5
440D
330
421C
100
AcDbEntity
  8
0
 62
     0
100
AcDbLine
 10
-34.42864575572939
 20
-280.3692230871754
 30
0.0
 11
-34.37723288265617
 21
-280.3178102141022
 31
0.0
  0
LINE
  5
440E
330
421C
100
AcDbEntity
  8
0
 62
     0
100
AcDbLine
 10
-34.23763487951733
 20
-280.1782122109634
 30
0.0
 11
-34.22790438187941
 21
-280.1684817133254
 31
0.0
  0
LINE
  5
440F
330
421C
100
AcDbEntity
  8
0
 62
     0
100
AcDbLine
 10
-34.37723288265592
 20
-280.317810214102
 30
0.0
 11
-34.32222178119469
 21
-280.2627991126407
 31
0.0
  0
LINE
  5
4410
330
421C
100
AcDbEntity
  8
0
 62
     0
100
AcDbLine
 10
-34.3180454489991
 20
-280.2586227804452
 30
0.0
 11
-34.23763487951734
 21
-280.1782122109634
 31
0.0
  0
LINE
  5
4411
330
421C
100
AcDbEntity
  8
0
 62
     0
100
AcDbLine
 10
-34.33279649784393
 20
-280.4059563507625
 30
0.0
 11
-34.31594377963411
 21
-280.3891036325526
 31
0.0
  0
LINE
  5
4412
330
421C
100
AcDbEntity
  8
0
 62
     0
100
AcDbLine
 10
-34.31594377963405
 20
-280.3891036325526
 30
0.0
 11
-34.12832042519916
 21
-280.2014802781177
 31
0.0
  0
LINE
  5
4413
330
421C
100
AcDbEntity
  8
0
 62
     0
100
AcDbLine
 10
-34.2886183190611
 20
-280.4943606934521
 30
0.0
 11
-34.20326302751831
 21
-280.4090054019093
 31
0.0
  0
LINE
  5
4414
330
421C
100
AcDbEntity
  8
0
 62
     0
100
AcDbLine
 10
-34.01900597088106
 20
-280.224748345272
 30
0.0
 11
-34.00684354492805
 21
-280.2125859193191
 31
0.0
  0
LINE
  5
4415
330
421C
100
AcDbEntity
  8
0
 62
     0
100
AcDbLine
 10
-34.20326302751827
 20
-280.4090054019093
 30
0.0
 11
-34.01900597088101
 21
-280.224748345272
 31
0.0
  0
LINE
  5
4416
330
421C
100
AcDbEntity
  8
0
 62
     0
100
AcDbLine
 10
-34.24444014027825
 20
-280.5827650361417
 30
0.0
 11
-34.09058227540249
 21
-280.4289071712659
 31
0.0
  0
LINE
  5
4417
330
421C
100
AcDbEntity
  8
0
 62
     0
100
AcDbLine
 10
-33.90969151656292
 20
-280.2480164124263
 30
0.0
 11
-33.73652476279732
 21
-280.0748496586608
 31
0.0
  0
LINE
  5
4418
330
421C
100
AcDbEntity
  8
0
 62
     0
100
AcDbLine
 10
-34.09058227540246
 20
-280.4289071712659
 30
0.0
 11
-33.90969151656286
 21
-280.2480164124263
 31
0.0
  0
LINE
  5
4419
330
421C
100
AcDbEntity
  8
0
 62
     0
100
AcDbLine
 10
-34.20026196149541
 20
-280.6711693788314
 30
0.0
 11
-33.9779015232867
 21
-280.4488089406227
 31
0.0
  0
LINE
  5
441A
330
421C
100
AcDbEntity
  8
0
 62
     0
100
AcDbLine
 10
-33.80037706224471
 20
-280.2712844795807
 30
0.0
 11
-33.56665993146914
 21
-280.0375673488051
 31
0.0
  0
LINE
  5
441B
330
421C
100
AcDbEntity
  8
0
 62
     0
100
AcDbLine
 10
-33.97790152328667
 20
-280.4488089406226
 30
0.0
 11
-33.80037706224476
 21
-280.2712844795808
 31
0.0
  0
LINE
  5
441C
330
421C
100
AcDbEntity
  8
0
 62
     0
100
AcDbLine
 10
-34.15608378271257
 20
-280.759573721521
 30
0.0
 11
-33.86522077117088
 21
-280.4687107099793
 31
0.0
  0
LINE
  5
441D
330
421C
100
AcDbEntity
  8
0
 62
     0
100
AcDbLine
 10
-33.69106260792654
 20
-280.294552546735
 30
0.0
 11
-33.52248175268631
 21
-280.1259716914947
 31
0.0
  0
LINE
  5
441E
330
421C
100
AcDbEntity
  8
0
 62
     0
100
AcDbLine
 10
-33.86522077117085
 20
-280.4687107099793
 30
0.0
 11
-33.69106260792662
 21
-280.2945525467351
 31
0.0
  0
LINE
  5
441F
330
421C
100
AcDbEntity
  8
0
 62
     0
100
AcDbLine
 10
-34.11190560392971
 20
-280.8479780642106
 30
0.0
 11
-33.75254001905505
 21
-280.488612479336
 31
0.0
  0
LINE
  5
4420
330
421C
100
AcDbEntity
  8
0
 62
     0
100
AcDbLine
 10
-33.59453372366715
 20
-280.330606183948
 30
0.0
 11
-33.47830357390347
 21
-280.2143760341844
 31
0.0
  0
LINE
  5
4421
330
421C
100
AcDbEntity
  8
0
 62
     0
100
AcDbLine
 10
-33.75254001905507
 20
-280.4886124793359
 30
0.0
 11
-33.59453372366719
 21
-280.3306061839481
 31
0.0
  0
LINE
  5
4422
330
421C
100
AcDbEntity
  8
0
 62
     0
100
AcDbLine
 10
-34.06772742514688
 20
-280.9363824069003
 30
0.0
 11
-33.64145204273529
 21
-280.5101070244887
 31
0.0
  0
LINE
  5
4423
330
421C
100
AcDbEntity
  8
0
 62
     0
100
AcDbLine
 10
-33.62039977625162
 20
-280.489054758005
 30
0.0
 11
-33.43412539512061
 21
-280.302780376874
 31
0.0
  0
LINE
  5
4424
330
421C
100
AcDbEntity
  8
0
 62
     0
100
AcDbLine
 10
-33.64145204273528
 20
-280.5101070244887
 30
0.0
 11
-33.62039977625164
 21
-280.489054758005
 31
0.0
  0
LINE
  5
4425
330
421C
100
AcDbEntity
  8
0
 62
     0
100
AcDbLine
 10
-34.02354924636404
 20
-281.0247867495899
 30
0.0
 11
-33.38994721633778
 21
-280.3911847195636
 31
0.0
  0
LINE
  5
4426
330
421C
100
AcDbEntity
  8
0
 62
     0
100
AcDbLine
 10
-33.97937106758119
 20
-281.1131910922795
 30
0.0
 11
-33.34576903755494
 21
-280.4795890622533
 31
0.0
  0
LINE
  5
4427
330
421C
100
AcDbEntity
  8
0
 62
     0
100
AcDbLine
 10
-33.93519288879836
 20
-281.2015954349691
 30
0.0
 11
-33.30159085877209
 21
-280.567993404943
 31
0.0
  0
LINE
  5
4428
330
421C
100
AcDbEntity
  8
0
 62
     0
100
AcDbLine
 10
-33.89101471001551
 20
-281.2899997776588
 30
0.0
 11
-33.25741267998925
 21
-280.6563977476325
 31
0.0
  0
LINE
  5
4429
330
421C
100
AcDbEntity
  8
0
 62
     0
100
AcDbLine
 10
-33.84683653123266
 20
-281.3784041203485
 30
0.0
 11
-33.21323450120642
 21
-280.7448020903222
 31
0.0
  0
LINE
  5
442A
330
421C
100
AcDbEntity
  8
0
 62
     0
100
AcDbLine
 10
-33.80265835244982
 20
-281.4668084630381
 30
0.0
 11
-33.16905632242356
 21
-280.8332064330118
 31
0.0
  0
LINE
  5
442B
330
421C
100
AcDbEntity
  8
0
 62
     0
100
AcDbLine
 10
-33.75848017366698
 20
-281.5552128057277
 30
0.0
 11
-33.12487814364072
 21
-280.9216107757015
 31
0.0
  0
LINE
  5
442C
330
421C
100
AcDbEntity
  8
0
 62
     0
100
AcDbLine
 10
-33.71430199488414
 20
-281.6436171484174
 30
0.0
 11
-33.08069996485789
 21
-281.010015118391
 31
0.0
  0
LINE
  5
442D
330
421C
100
AcDbEntity
  8
0
 62
     0
100
AcDbLine
 10
-33.6701238161013
 20
-281.732021491107
 30
0.0
 11
-33.03652178607503
 21
-281.0984194610807
 31
0.0
  0
LINE
  5
442E
330
421C
100
AcDbEntity
  8
0
 62
     0
100
AcDbLine
 10
-33.62594563731845
 20
-281.8204258337966
 30
0.0
 11
-32.9923436072922
 21
-281.1868238037704
 31
0.0
  0
LINE
  5
442F
330
421C
100
AcDbEntity
  8
0
 62
     0
100
AcDbLine
 10
-33.58176745853561
 20
-281.9088301764862
 30
0.0
 11
-32.94816542850937
 21
-281.2752281464601
 31
0.0
  0
LINE
  5
4430
330
421C
100
AcDbEntity
  8
0
 62
     0
100
AcDbLine
 10
-33.53758927975277
 20
-281.9972345191759
 30
0.0
 11
-32.90398724972653
 21
-281.3636324891497
 31
0.0
  0
LINE
  5
4431
330
421C
100
AcDbEntity
  8
0
 62
     0
100
AcDbLine
 10
-33.49341110096992
 20
-282.0856388618656
 30
0.0
 11
-32.85980907094367
 21
-281.4520368318393
 31
0.0
  0
LINE
  5
4432
330
421C
100
AcDbEntity
  8
0
 62
     0
100
AcDbLine
 10
-33.44923292218708
 20
-282.1740432045552
 30
0.0
 11
-32.81563089216084
 21
-281.5404411745289
 31
0.0
  0
LINE
  5
4433
330
421C
100
AcDbEntity
  8
0
 62
     0
100
AcDbLine
 10
-33.40505474340423
 20
-282.2624475472448
 30
0.0
 11
-32.771452713378
 21
-281.6288455172186
 31
0.0
  0
LINE
  5
4434
330
421C
100
AcDbEntity
  8
0
 62
     0
100
AcDbLine
 10
-33.36087656462139
 20
-282.3508518899345
 30
0.0
 11
-32.72727453459515
 21
-281.7172498599082
 31
0.0
  0
LINE
  5
4435
330
421C
100
AcDbEntity
  8
0
 62
     0
100
AcDbLine
 10
-33.31669838583855
 20
-282.4392562326241
 30
0.0
 11
-32.68309635581231
 21
-281.8056542025978
 31
0.0
  0
LINE
  5
4436
330
421C
100
AcDbEntity
  8
0
 62
     0
100
AcDbLine
 10
-33.27252020705571
 20
-282.5276605753137
 30
0.0
 11
-32.63891817702948
 21
-281.8940585452875
 31
0.0
  0
LINE
  5
4437
330
421C
100
AcDbEntity
  8
0
 62
     0
100
AcDbLine
 10
-33.22834202827287
 20
-282.6160649180033
 30
0.0
 11
-32.59473999824662
 21
-281.9824628879771
 31
0.0
  0
LINE
  5
4438
330
421C
100
AcDbEntity
  8
0
 62
     0
100
AcDbLine
 10
-33.18416384949003
 20
-282.704469260693
 30
0.0
 11
-32.55056181946378
 21
-282.0708672306667
 31
0.0
  0
LINE
  5
4439
330
421C
100
AcDbEntity
  8
0
 62
     0
100
AcDbLine
 10
-33.13998567070718
 20
-282.7928736033826
 30
0.0
 11
-32.50638364068095
 21
-282.1592715733564
 31
0.0
  0
LINE
  5
443A
330
421C
100
AcDbEntity
  8
0
 62
     0
100
AcDbLine
 10
-33.09580749192433
 20
-282.8812779460723
 30
0.0
 11
-32.46220546189811
 21
-282.247675916046
 31
0.0
  0
LINE
  5
443B
330
421C
100
AcDbEntity
  8
0
 62
     0
100
AcDbLine
 10
-33.0516293131415
 20
-282.9696822887619
 30
0.0
 11
-32.41802728311526
 21
-282.3360802587357
 31
0.0
  0
LINE
  5
443C
330
421C
100
AcDbEntity
  8
0
 62
     0
100
AcDbLine
 10
-33.00745113435866
 20
-283.0580866314516
 30
0.0
 11
-32.37384910433242
 21
-282.4244846014253
 31
0.0
  0
LINE
  5
443D
330
421C
100
AcDbEntity
  8
0
 62
     0
100
AcDbLine
 10
-32.96327295557581
 20
-283.1464909741411
 30
0.0
 11
-32.32967092554959
 21
-282.5128889441149
 31
0.0
  0
LINE
  5
443E
330
421C
100
AcDbEntity
  8
0
 62
     0
100
AcDbLine
 10
-32.91909477679296
 20
-283.2348953168308
 30
0.0
 11
-32.28549274676673
 21
-282.6012932868045
 31
0.0
  0
LINE
  5
443F
330
421C
100
AcDbEntity
  8
0
 62
     0
100
AcDbLine
 10
-32.87491659801013
 20
-283.3232996595204
 30
0.0
 11
-32.24131456798389
 21
-282.6896976294942
 31
0.0
  0
LINE
  5
4440
330
421C
100
AcDbEntity
  8
0
 62
     0
100
AcDbLine
 10
-32.83073841922728
 20
-283.4117040022101
 30
0.0
 11
-32.19713638920106
 21
-282.7781019721838
 31
0.0
  0
LINE
  5
4441
330
421C
100
AcDbEntity
  8
0
 62
     0
100
AcDbLine
 10
-32.78656024044444
 20
-283.5001083448997
 30
0.0
 11
-32.1529582104182
 21
-282.8665063148735
 31
0.0
  0
LINE
  5
4442
330
421C
100
AcDbEntity
  8
0
 62
     0
100
AcDbLine
 10
-32.7423820616616
 20
-283.5885126875893
 30
0.0
 11
-32.10878003163537
 21
-282.9549106575631
 31
0.0
  0
LINE
  5
4443
330
421C
100
AcDbEntity
  8
0
 62
     0
100
AcDbLine
 10
-32.69820388287876
 20
-283.6769170302789
 30
0.0
 11
-32.06460185285254
 21
-283.0433150002527
 31
0.0
  0
LINE
  5
4444
330
421C
100
AcDbEntity
  8
0
 62
     0
100
AcDbLine
 10
-32.65402570409591
 20
-283.7653213729686
 30
0.0
 11
-32.0204236740697
 21
-283.1317193429424
 31
0.0
  0
LINE
  5
4445
330
421C
100
AcDbEntity
  8
0
 62
     0
100
AcDbLine
 10
-32.60984752531307
 20
-283.8537257156582
 30
0.0
 11
-31.97624549528684
 21
-283.220123685632
 31
0.0
  0
LINE
  5
4446
330
421C
100
AcDbEntity
  8
0
 62
     0
100
AcDbLine
 10
-32.56566934653022
 20
-283.9421300583479
 30
0.0
 11
-31.93206731650401
 21
-283.3085280283216
 31
0.0
  0
LINE
  5
4447
330
421C
100
AcDbEntity
  8
0
 62
     0
100
AcDbLine
 10
-32.52149116774738
 20
-284.0305344010375
 30
0.0
 11
-31.88788913772117
 21
-283.3969323710113
 31
0.0
  0
LINE
  5
4448
330
421C
100
AcDbEntity
  8
0
 62
     0
100
AcDbLine
 10
-32.47731298896454
 20
-284.1189387437271
 30
0.0
 11
-31.84371095893832
 21
-283.4853367137009
 31
0.0
  0
LINE
  5
4449
330
421C
100
AcDbEntity
  8
0
 62
     0
100
AcDbLine
 10
-32.43313481018169
 20
-284.2073430864168
 30
0.0
 11
-31.79953278015548
 21
-283.5737410563906
 31
0.0
  0
LINE
  5
444A
330
421C
100
AcDbEntity
  8
0
 62
     0
100
AcDbLine
 10
-32.38895663139885
 20
-284.2957474291064
 30
0.0
 11
-31.75535460137264
 21
-283.6621453990801
 31
0.0
  0
LINE
  5
444B
330
421C
100
AcDbEntity
  8
0
 62
     0
100
AcDbLine
 10
-32.34477845261601
 20
-284.384151771796
 30
0.0
 11
-31.71117642258979
 21
-283.7505497417698
 31
0.0
  0
LINE
  5
444C
330
421C
100
AcDbEntity
  8
0
 62
     0
100
AcDbLine
 10
-32.30060027383317
 20
-284.4725561144857
 30
0.0
 11
-31.66699824380695
 21
-283.8389540844595
 31
0.0
  0
LINE
  5
444D
330
421C
100
AcDbEntity
  8
0
 62
     0
100
AcDbLine
 10
-32.25642209505032
 20
-284.5609604571753
 30
0.0
 11
-31.62282006502412
 21
-283.9273584271491
 31
0.0
  0
LINE
  5
444E
330
421C
100
AcDbEntity
  8
0
 62
     0
100
AcDbLine
 10
-32.21224391626749
 20
-284.649364799865
 30
0.0
 11
-31.57864188624126
 21
-284.0157627698387
 31
0.0
  0
LINE
  5
444F
330
421C
100
AcDbEntity
  8
0
 62
     0
100
AcDbLine
 10
-32.16806573748464
 20
-284.7377691425545
 30
0.0
 11
-31.53446370745843
 21
-284.1041671125284
 31
0.0
  0
LINE
  5
4450
330
421C
100
AcDbEntity
  8
0
 62
     0
100
AcDbLine
 10
-32.1238875587018
 20
-284.8261734852442
 30
0.0
 11
-31.49028552867559
 21
-284.192571455218
 31
0.0
  0
LINE
  5
4451
330
421C
100
AcDbEntity
  8
0
 62
     0
100
AcDbLine
 10
-32.07970937991895
 20
-284.9145778279338
 30
0.0
 11
-31.44610734989275
 21
-284.2809757979077
 31
0.0
  0
LINE
  5
4452
330
421C
100
AcDbEntity
  8
0
 62
     0
100
AcDbLine
 10
-32.03553120113612
 20
-285.0029821706235
 30
0.0
 11
-31.4019291711099
 21
-284.3693801405972
 31
0.0
  0
LINE
  5
4453
330
421C
100
AcDbEntity
  8
0
 62
     0
100
AcDbLine
 10
-31.99135302235327
 20
-285.0913865133131
 30
0.0
 11
-31.35775099232706
 21
-284.4577844832869
 31
0.0
  0
LINE
  5
4454
330
421C
100
AcDbEntity
  8
0
 62
     0
100
AcDbLine
 10
-31.94717484357042
 20
-285.1797908560028
 30
0.0
 11
-31.31357281354423
 21
-284.5461888259766
 31
0.0
  0
LINE
  5
4455
330
421C
100
AcDbEntity
  8
0
 62
     0
100
AcDbLine
 10
-31.90299666478758
 20
-285.2681951986924
 30
0.0
 11
-31.26939463476138
 21
-284.6345931686662
 31
0.0
  0
LINE
  5
4456
330
421C
100
AcDbEntity
  8
0
 62
     0
100
AcDbLine
 10
-31.85881848600474
 20
-285.356599541382
 30
0.0
 11
-31.22521645597854
 21
-284.7229975113558
 31
0.0
  0
LINE
  5
4457
330
421C
100
AcDbEntity
  8
0
 62
     0
100
AcDbLine
 10
-31.8146403072219
 20
-285.4450038840717
 30
0.0
 11
-31.1810382771957
 21
-284.8114018540455
 31
0.0
  0
LINE
  5
4458
330
421C
100
AcDbEntity
  8
0
 62
     0
100
AcDbLine
 10
-31.77046212843906
 20
-285.5334082267613
 30
0.0
 11
-31.13686009841285
 21
-284.8998061967351
 31
0.0
  0
LINE
  5
4459
330
421C
100
AcDbEntity
  8
0
 62
     0
100
AcDbLine
 10
-31.72628394965622
 20
-285.6218125694509
 30
0.0
 11
-31.09268191963001
 21
-284.9882105394248
 31
0.0
  0
LINE
  5
445A
330
421C
100
AcDbEntity
  8
0
 62
     0
100
AcDbLine
 10
-31.68210577087337
 20
-285.7102169121406
 30
0.0
 11
-31.04850374084718
 21
-285.0766148821143
 31
0.0
  0
LINE
  5
445B
330
421C
100
AcDbEntity
  8
0
 62
     0
100
AcDbLine
 10
-31.63792759209052
 20
-285.7986212548302
 30
0.0
 11
-31.00432556206434
 21
-285.165019224804
 31
0.0
  0
LINE
  5
445C
330
421C
100
AcDbEntity
  8
0
 62
     0
100
AcDbLine
 10
-31.59374941330769
 20
-285.8870255975199
 30
0.0
 11
-30.96014738328149
 21
-285.2534235674937
 31
0.0
  0
LINE
  5
445D
330
421C
100
AcDbEntity
  8
0
 62
     0
100
AcDbLine
 10
-31.50332316272872
 20
-285.9291818684134
 30
0.0
 11
-30.91596920449865
 21
-285.3418279101833
 31
0.0
  0
LINE
  5
445E
330
421C
100
AcDbEntity
  8
0
 62
     0
100
AcDbLine
 10
-31.37157195278595
 20
-285.9300131799431
 30
0.0
 11
-30.87179102571581
 21
-285.4302322528729
 31
0.0
  0
LINE
  5
445F
330
421C
100
AcDbEntity
  8
0
 62
     0
100
AcDbLine
 10
-31.23982074284319
 20
-285.9308444914728
 30
0.0
 11
-30.82761284693296
 21
-285.5186365955626
 31
0.0
  0
LINE
  5
4460
330
421C
100
AcDbEntity
  8
0
 62
     0
100
AcDbLine
 10
-31.25232952633624
 20
-286.0759357964383
 30
0.0
 11
-31.16460760049095
 21
-285.988213870593
 31
0.0
  0
LINE
  5
4461
330
421C
100
AcDbEntity
  8
0
 62
     0
100
AcDbLine
 10
-31.10806953290039
 20
-285.9316758030024
 30
0.0
 11
-30.78343466815012
 21
-285.6070409382521
 31
0.0
  0
LINE
  5
4462
330
421C
100
AcDbEntity
  8
0
 62
     0
100
AcDbLine
 10
-31.15811563536502
 20
-285.981721905467
 30
0.0
 11
-31.10806953290039
 21
-285.9316758030025
 31
0.0
  0
LINE
  5
4463
330
421C
100
AcDbEntity
  8
0
 62
     0
100
AcDbLine
 10
-31.12177404626793
 20
-286.0779628378424
 30
0.0
 11
-31.0328563905482
 21
-285.9890451821227
 31
0.0
  0
LINE
  5
4464
330
421C
100
AcDbEntity
  8
0
 62
     0
100
AcDbLine
 10
-30.97631832295762
 20
-285.9325071145322
 30
0.0
 11
-30.73925648936729
 21
-285.6954452809418
 31
0.0
  0
LINE
  5
4465
330
421C
100
AcDbEntity
  8
0
 62
     0
100
AcDbLine
 10
-30.99002283632514
 20
-286.0787941493721
 30
0.0
 11
-30.93156545569635
 21
-286.0203367687433
 31
0.0
  0
LINE
  5
4466
330
421C
100
AcDbEntity
  8
0
 62
     0
100
AcDbLine
 10
-30.84456711301486
 20
-285.9333384260619
 30
0.0
 11
-30.69507831058443
 21
-285.7838496236314
 31
0.0
  0
LINE
  5
4467
330
421C
100
AcDbEntity
  8
0
 62
     0
100
AcDbLine
 10
-30.7128159030721
 20
-285.9341697375916
 30
0.0
 11
-30.6509001318016
 21
-285.8722539663211
 31
0.0
  0
ENDBLK
  5
4468
330
421C
100
AcDbEntity
  8
0
100
AcDbBlockEnd
  0
BLOCK
  5
45E9
330
45DD
100
AcDbEntity
  8
0
 62
     7
100
AcDbBlockBegin
  2
*D6
 70
     1
 10
0.0
 20
0.0
 30
0.0
  3
*D6
  1

  0
LINE
  5
4F77
330
45DD
100
AcDbEntity
  8
0
 62
     0
370
    -2
100
AcDbLine
 10
793.5773449751729
 20
1302.451236884063
 30
0.0
 11
805.9469685983543
 21
1302.45123688406
 31
0.0
  0
LINE
  5
4F78
330
45DD
100
AcDbEntity
  8
0
 62
     0
370
    -2
100
AcDbLine
 10
784.327344975171
 20
1293.201236884065
 30
0.0
 11
805.9469685983524
 21
1293.20123688406
 31
0.0
  0
LINE
  5
4F79
330
45DD
100
AcDbEntity
  8
0
 62
     0
370
    -2
100
AcDbLine
 10
803.8844685983548
 20
1304.513736884061
 30
0.0
 11
803.8844685983553
 21
1306.576236884061
 31
0.0
  0
LINE
  5
4F7A
330
45DD
100
AcDbEntity
  8
0
 62
     0
370
    -2
100
AcDbLine
 10
803.8844685983518
 20
1291.138736884061
 30
0.0
 11
803.8844685983512
 21
1289.076236884061
 31
0.0
  0
SOLID
  5
4F7B
330
45DD
100
AcDbEntity
  8
0
 62
     0
100
AcDbTrace
 10
803.5407185983547
 20
1304.513736884061
 30
0.0
 11
804.2282185983548
 21
1304.513736884061
 31
0.0
 12
803.8844685983544
 22
1302.451236884061
 32
0.0
 13
803.8844685983544
 23
1302.451236884061
 33
0.0
  0
SOLID
  5
4F7C
330
45DD
100
AcDbEntity
  8
0
 62
     0
100
AcDbTrace
 10
803.5407185983519
 20
1291.138736884061
 30
0.0
 11
804.2282185983518
 21
1291.138736884061
 31
0.0
 12
803.8844685983523
 22
1293.201236884061
 32
0.0
 13
803.8844685983523
 23
1293.201236884061
 33
0.0
  0
MTEXT
  5
4F7D
330
45DD
100
AcDbEntity
  8
0
 62
     0
100
AcDbMText
 10
803.8844685983534
 20
1297.826236884061
 30
0.0
 40
2.0625
 41
0.0
 46
0.0
 71
     5
 72
     1
  1
\A1;6-1/2" MIN.\P9-1/2" MAX.
  7
ROMANS
 73
     1
 44
1.0
  0
POINT
  5
4F7E
330
45DD
100
AcDbEntity
  8
DEFPOINTS
 62
     0
100
AcDbPoint
 10
792.889844974877
 20
1302.451236884244
 30
0.0
  0
POINT
  5
4F7F
330
45DD
100
AcDbEntity
  8
DEFPOINTS
 62
     0
100
AcDbPoint
 10
783.6398449748771
 20
1293.201236884243
 30
0.0
  0
POINT
  5
4F80
330
45DD
100
AcDbEntity
  8
DEFPOINTS
 62
     0
100
AcDbPoint
 10
803.8844685980585
 20
1293.201236884243
 30
0.0
  0
ENDBLK
  5
45EA
330
45DD
100
AcDbEntity
  8
0
 62
     7
100
AcDbBlockEnd
  0
BLOCK
  5
4727
330
471C
100
AcDbEntity
  8
0
 62
     7
100
AcDbBlockBegin
  2
*D7
 70
     1
 10
0.0
 20
0.0
 30
0.0
  3
*D7
  1

  0
LINE
  5
489E
330
471C
100
AcDbEntity
  8
0
 62
     0
370
    -2
100
AcDbLine
 10
701.5903123841187
 20
1402.676304809915
 30
0.0
 11
701.5903123841187
 21
1407.94520694993
 31
0.0
  0
LINE
  5
489F
330
471C
100
AcDbEntity
  8
0
 62
     0
370
    -2
100
AcDbLine
 10
743.6884842629963
 20
1402.676304809905
 30
0.0
 11
743.6884842629963
 21
1407.94520694993
 31
0.0
  0
LINE
  5
48A0
330
471C
100
AcDbEntity
  8
0
 62
     0
370
    -2
100
AcDbLine
 10
703.6528123841187
 20
1405.882706949929
 30
0.0
 11
714.6840411807004
 21
1405.882706949929
 31
0.0
  0
LINE
  5
48A1
330
471C
100
AcDbEntity
  8
0
 62
     0
370
    -2
100
AcDbLine
 10
741.6259842629963
 20
1405.882706949929
 30
0.0
 11
730.5947554664146
 21
1405.882706949929
 31
0.0
  0
SOLID
  5
48A2
330
471C
100
AcDbEntity
  8
0
 62
     0
100
AcDbTrace
 10
703.6528123841187
 20
1406.22645694993
 30
0.0
 11
703.6528123841187
 21
1405.53895694993
 31
0.0
 12
701.5903123841187
 22
1405.882706949929
 32
0.0
 13
701.5903123841187
 23
1405.882706949929
 33
0.0
  0
SOLID
  5
48A3
330
471C
100
AcDbEntity
  8
0
 62
     0
100
AcDbTrace
 10
741.6259842629963
 20
1406.22645694993
 30
0.0
 11
741.6259842629963
 21
1405.53895694993
 31
0.0
 12
743.6884842629963
 22
1405.882706949929
 32
0.0
 13
743.6884842629963
 23
1405.882706949929
 33
0.0
  0
MTEXT
  5
48A4
330
471C
100
AcDbEntity
  8
0
 62
     0
100
AcDbMText
 10
722.6393983235575
 20
1405.882706949929
 30
0.0
 40
2.0625
 41
0.0
 46
0.0
 71
     5
 72
     1
  1
\A1;AS REQ'D
  7
ROMANS
 73
     1
 44
1.0
  0
POINT
  5
48A5
330
471C
100
AcDbEntity
  8
DEFPOINTS
 62
     0
100
AcDbPoint
 10
701.5903123841187
 20
1401.988804809915
 30
0.0
  0
POINT
  5
48A6
330
471C
100
AcDbEntity
  8
DEFPOINTS
 62
     0
100
AcDbPoint
 10
743.6884842629963
 20
1401.988804809906
 30
0.0
  0
POINT
  5
48A7
330
471C
100
AcDbEntity
  8
DEFPOINTS
 62
     0
100
AcDbPoint
 10
743.6884842629963
 20
1405.882706949929
 30
0.0
  0
ENDBLK
  5
4728
330
471C
100
AcDbEntity
  8
0
 62
     7
100
AcDbBlockEnd
  0
BLOCK
  5
4734
330
4729
100
AcDbEntity
  8
0
 62
     7
100
AcDbBlockBegin
  2
*D8
 70
     1
 10
0.0
 20
0.0
 30
0.0
  3
*D8
  1

  0
LINE
  5
48F8
330
4729
100
AcDbEntity
  8
0
 62
     0
370
    -2
100
AcDbLine
 10
744.3759842629963
 20
1401.988804809906
 30
0.0
 11
752.5414899624088
 21
1401.988804809906
 31
0.0
  0
LINE
  5
48F9
330
4729
100
AcDbEntity
  8
0
 62
     0
370
    -2
100
AcDbLine
 10
744.3759842629954
 20
1396.699803890705
 30
0.0
 11
752.5414899624088
 21
1396.699803890705
 31
0.0
  0
LINE
  5
48FA
330
4729
100
AcDbEntity
  8
0
 62
     0
370
    -2
100
AcDbLine
 10
750.4789899624088
 20
1404.051304809906
 30
0.0
 11
750.4789899624088
 21
1406.113804809906
 31
0.0
  0
LINE
  5
48FB
330
4729
100
AcDbEntity
  8
0
 62
     0
370
    -2
100
AcDbLine
 10
750.4789899624088
 20
1394.637303890705
 30
0.0
 11
750.4789899624088
 21
1392.574803890705
 31
0.0
  0
SOLID
  5
48FC
330
4729
100
AcDbEntity
  8
0
 62
     0
100
AcDbTrace
 10
750.1352399624088
 20
1404.051304809906
 30
0.0
 11
750.8227399624088
 21
1404.051304809906
 31
0.0
 12
750.4789899624088
 22
1401.988804809906
 32
0.0
 13
750.4789899624088
 23
1401.988804809906
 33
0.0
  0
SOLID
  5
48FD
330
4729
100
AcDbEntity
  8
0
 62
     0
100
AcDbTrace
 10
750.1352399624088
 20
1394.637303890705
 30
0.0
 11
750.8227399624088
 21
1394.637303890705
 31
0.0
 12
750.4789899624088
 22
1396.699803890705
 32
0.0
 13
750.4789899624088
 23
1396.699803890705
 33
0.0
  0
MTEXT
  5
48FE
330
4729
100
AcDbEntity
  8
0
 62
     0
100
AcDbMText
 10
750.4789899624086
 20
1399.344304350306
 30
0.0
 40
2.0625
 41
0.0
 46
0.0
 71
     5
 72
     1
  1
\A1;VARIES
  7
ROMANS
 73
     1
 44
1.0
  0
POINT
  5
48FF
330
4729
100
AcDbEntity
  8
DEFPOINTS
 62
     0
100
AcDbPoint
 10
743.6884842629963
 20
1401.988804809906
 30
0.0
  0
POINT
  5
4900
330
4729
100
AcDbEntity
  8
DEFPOINTS
 62
     0
100
AcDbPoint
 10
743.6884842629954
 20
1396.699803890705
 30
0.0
  0
POINT
  5
4901
330
4729
100
AcDbEntity
  8
DEFPOINTS
 62
     0
100
AcDbPoint
 10
750.4789899624088
 20
1396.699803890705
 30
0.0
  0
ENDBLK
  5
4735
330
4729
100
AcDbEntity
  8
0
 62
     7
100
AcDbBlockEnd
  0
BLOCK
  5
4B44
330
4B39
100
AcDbEntity
  8
0
 62
     7
100
AcDbBlockBegin
  2
*D9
 70
     1
 10
0.0
 20
0.0
 30
0.0
  3
*D9
  1

  0
LINE
  5
4FE7
330
4B39
100
AcDbEntity
  8
0
 62
     0
370
    -2
100
AcDbLine
 10
933.8147563549041
 20
1401.044986884227
 30
0.0
 11
933.8147563549041
 21
1416.828610083928
 31
0.0
  0
LINE
  5
4FE8
330
4B39
100
AcDbEntity
  8
0
 62
     0
370
    -2
100
AcDbLine
 10
931.5647563549063
 20
1409.086826822921
 30
0.0
 11
931.5647563549063
 21
1416.828610083928
 31
0.0
  0
LINE
  5
4FE9
330
4B39
100
AcDbEntity
  8
0
 62
     0
370
    -2
100
AcDbLine
 10
935.877256354904
 20
1414.766110083928
 30
0.0
 11
937.9397563549041
 21
1414.766110083928
 31
0.0
  0
LINE
  5
4FEA
330
4B39
100
AcDbEntity
  8
0
 62
     0
370
    -2
100
AcDbLine
 10
929.5022563549062
 20
1414.766110083928
 30
0.0
 11
927.4397563549063
 21
1414.766110083928
 31
0.0
  0
SOLID
  5
4FEB
330
4B39
100
AcDbEntity
  8
0
 62
     0
100
AcDbTrace
 10
935.877256354904
 20
1415.109860083927
 30
0.0
 11
935.877256354904
 21
1414.422360083928
 31
0.0
 12
933.8147563549041
 22
1414.766110083928
 32
0.0
 13
933.8147563549041
 23
1414.766110083928
 33
0.0
  0
SOLID
  5
4FEC
330
4B39
100
AcDbEntity
  8
0
 62
     0
100
AcDbTrace
 10
929.5022563549062
 20
1415.109860083927
 30
0.0
 11
929.5022563549062
 21
1414.422360083928
 31
0.0
 12
931.5647563549063
 22
1414.766110083928
 32
0.0
 13
931.5647563549063
 23
1414.766110083928
 33
0.0
  0
MTEXT
  5
4FED
330
4B39
100
AcDbEntity
  8
0
 62
     0
100
AcDbMText
 10
921.2522563549063
 20
1414.766110083928
 30
0.0
 40
2.0625
 41
0.0
 46
0.0
 71
     5
 72
     1
  1
\A1;2 1/4"
  7
ROMANS
 73
     1
 44
1.0
  0
POINT
  5
4FEE
330
4B39
100
AcDbEntity
  8
DEFPOINTS
 62
     0
100
AcDbPoint
 10
933.8147563549041
 20
1400.357486884227
 30
0.0
  0
POINT
  5
4FEF
330
4B39
100
AcDbEntity
  8
DEFPOINTS
 62
     0
100
AcDbPoint
 10
931.5647563549063
 20
1408.399326822921
 30
0.0
  0
POINT
  5
4FF0
330
4B39
100
AcDbEntity
  8
DEFPOINTS
 62
     0
100
AcDbPoint
 10
931.5647563549063
 20
1414.766110083928
 30
0.0
  0
ENDBLK
  5
4B45
330
4B39
100
AcDbEntity
  8
0
 62
     7
100
AcDbBlockEnd
  0
BLOCK
  5
4CA5
330
4C9A
100
AcDbEntity
  8
0
 62
     7
100
AcDbBlockBegin
  2
*D10
 70
     1
 10
0.0
 20
0.0
 30
0.0
  3
*D10
  1

  0
LINE
  5
508A
330
4C9A
100
AcDbEntity
  8
0
 62
     0
370
    -2
100
AcDbLine
 10
965.1585063552786
 20
1409.201236883995
 30
0.0
 11
979.180064724046
 21
1409.201236883992
 31
0.0
  0
LINE
  5
508B
330
4C9A
100
AcDbEntity
  8
0
 62
     0
370
    -2
100
AcDbLine
 10
966.283506355208
 20
1367.201236884023
 30
0.0
 11
979.1800647240364
 21
1367.20123688402
 31
0.0
  0
LINE
  5
508C
330
4C9A
100
AcDbEntity
  8
0
 62
     0
370
    -2
100
AcDbLine
 10
977.1175647240456
 20
1407.138736883992
 30
0.0
 11
977.1175647240417
 21
1390.116415455435
 31
0.0
  0
LINE
  5
508D
330
4C9A
100
AcDbEntity
  8
0
 62
     0
370
    -2
100
AcDbLine
 10
977.1175647240369
 20
1369.263736884021
 30
0.0
 11
977.1175647240408
 21
1386.286058312578
 31
0.0
  0
SOLID
  5
508E
330
4C9A
100
AcDbEntity
  8
0
 62
     0
100
AcDbTrace
 10
976.7738147240455
 20
1407.138736883993
 30
0.0
 11
977.4613147240456
 21
1407.138736883992
 31
0.0
 12
977.1175647240459
 22
1409.201236883992
 32
0.0
 13
977.1175647240459
 23
1409.201236883992
 33
0.0
  0
SOLID
  5
508F
330
4C9A
100
AcDbEntity
  8
0
 62
     0
100
AcDbTrace
 10
976.7738147240368
 20
1369.263736884021
 30
0.0
 11
977.4613147240369
 21
1369.263736884021
 31
0.0
 12
977.1175647240365
 22
1367.201236884021
 32
0.0
 13
977.1175647240365
 23
1367.201236884021
 33
0.0
  0
MTEXT
  5
5090
330
4C9A
100
AcDbEntity
  8
0
 62
     0
100
AcDbMText
 10
977.1175647240411
 20
1388.201236884007
 30
0.0
 40
2.0625
 41
0.0
 46
0.0
 71
     5
 72
     1
  1
\A1;3'-6"
  7
ROMANS
 73
     1
 44
1.0
  0
POINT
  5
5091
330
4C9A
100
AcDbEntity
  8
DEFPOINTS
 62
     0
100
AcDbPoint
 10
964.4710063549585
 20
1409.201236884215
 30
0.0
  0
POINT
  5
5092
330
4C9A
100
AcDbEntity
  8
DEFPOINTS
 62
     0
100
AcDbPoint
 10
965.5960063548972
 20
1367.201236884243
 30
0.0
  0
POINT
  5
5093
330
4C9A
100
AcDbEntity
  8
DEFPOINTS
 62
     0
100
AcDbPoint
 10
977.1175647237257
 20
1367.201236884243
 30
0.0
  0
ENDBLK
  5
4CA6
330
4C9A
100
AcDbEntity
  8
0
 62
     7
100
AcDbBlockEnd
  0
BLOCK
  5
4EB2
330
4EA7
100
AcDbEntity
  8
0
 62
     7
100
AcDbBlockBegin
  2
*D11
 70
     1
 10
0.0
 20
0.0
 30
0.0
  3
*D11
  1

  0
LINE
  5
4F95
330
4EA7
100
AcDbEntity
  8
0
 62
     0
370
    -2
100
AcDbLine
 10
755.139844975209
 20
1275.388736884114
 30
0.0
 11
755.1398449752102
 21
1280.600307914724
 31
0.0
  0
LINE
  5
4F96
330
4EA7
100
AcDbEntity
  8
0
 62
     0
370
    -2
100
AcDbLine
 10
764.3898449754995
 20
1281.01373688411
 30
0.0
 11
764.3898449754985
 21
1276.475307914722
 31
0.0
  0
LINE
  5
4F97
330
4EA7
100
AcDbEntity
  8
0
 62
     0
370
    -2
100
AcDbLine
 10
757.2023449752097
 20
1278.537807914723
 30
0.0
 11
762.3273449754989
 21
1278.537807914722
 31
0.0
  0
LINE
  5
4F98
330
4EA7
100
AcDbEntity
  8
0
 62
     0
370
    -2
100
AcDbLine
 10
764.3898449754989
 20
1278.537807914722
 30
0.0
 11
773.6310287182286
 21
1278.53780791472
 31
0.0
  0
SOLID
  5
4F99
330
4EA7
100
AcDbEntity
  8
0
 62
     0
100
AcDbTrace
 10
757.2023449752098
 20
1278.881557914723
 30
0.0
 11
757.2023449752095
 21
1278.194057914723
 31
0.0
 12
755.1398449752097
 22
1278.537807914724
 32
0.0
 13
755.1398449752097
 23
1278.537807914724
 33
0.0
  0
SOLID
  5
4F9A
330
4EA7
100
AcDbEntity
  8
0
 62
     0
100
AcDbTrace
 10
762.327344975499
 20
1278.881557914722
 30
0.0
 11
762.3273449754988
 21
1278.194057914722
 31
0.0
 12
764.3898449754989
 22
1278.537807914722
 32
0.0
 13
764.3898449754989
 23
1278.537807914722
 33
0.0
  0
MTEXT
  5
4F9B
330
4EA7
100
AcDbEntity
  8
0
 62
     0
100
AcDbMText
 10
784.1399572896571
 20
1278.537807914717
 30
0.0
 40
2.0625
 41
0.0
 46
0.0
 71
     5
 72
     1
  1
\A1;9-1/2" MIN.
  7
ROMANS
 73
     1
 44
1.0
  0
POINT
  5
4F9C
330
4EA7
100
AcDbEntity
  8
DEFPOINTS
 62
     0
100
AcDbPoint
 10
755.139844974919
 20
1274.701236884286
 30
0.0
  0
POINT
  5
4F9D
330
4EA7
100
AcDbEntity
  8
DEFPOINTS
 62
     0
100
AcDbPoint
 10
764.3898449752082
 20
1281.701236884283
 30
0.0
  0
POINT
  5
4F9E
330
4EA7
100
AcDbEntity
  8
DEFPOINTS
 62
     0
100
AcDbPoint
 10
764.3898449752082
 20
1278.537807914896
 30
0.0
  0
ENDBLK
  5
4EB3
330
4EA7
100
AcDbEntity
  8
0
 62
     7
100
AcDbBlockEnd
  0
BLOCK
  5
4F06
330
4EFB
100
AcDbEntity
  8
0
 62
     7
100
AcDbBlockBegin
  2
*D12
 70
     1
 10
0.0
 20
0.0
 30
0.0
  3
*D12
  1

  0
LINE
  5
4F9F
330
4EFB
100
AcDbEntity
  8
0
 62
     0
370
    -2
100
AcDbLine
 10
889.4523449752339
 20
1408.201236884034
 30
0.0
 11
889.4523449752357
 21
1416.2142679867
 31
0.0
  0
LINE
  5
4FA0
330
4EFB
100
AcDbEntity
  8
0
 62
     0
370
    -2
100
AcDbLine
 10
848.4523449752316
 20
1408.201236884053
 30
0.0
 11
848.4523449752334
 21
1416.214267986709
 31
0.0
  0
LINE
  5
4FA1
330
4EFB
100
AcDbEntity
  8
0
 62
     0
370
    -2
100
AcDbLine
 10
887.3898449752353
 20
1414.151767986701
 30
0.0
 11
876.1219878323769
 21
1414.151767986703
 31
0.0
  0
LINE
  5
4FA2
330
4EFB
100
AcDbEntity
  8
0
 62
     0
370
    -2
100
AcDbLine
 10
850.5148449752329
 20
1414.151767986709
 30
0.0
 11
861.7827021180913
 21
1414.151767986706
 31
0.0
  0
SOLID
  5
4FA3
330
4EFB
100
AcDbEntity
  8
0
 62
     0
100
AcDbTrace
 10
887.3898449752354
 20
1414.4955179867
 30
0.0
 11
887.3898449752353
 21
1413.8080179867
 31
0.0
 12
889.4523449752353
 22
1414.1517679867
 32
0.0
 13
889.4523449752353
 23
1414.1517679867
 33
0.0
  0
SOLID
  5
4FA4
330
4EFB
100
AcDbEntity
  8
0
 62
     0
100
AcDbTrace
 10
850.5148449752331
 20
1414.495517986709
 30
0.0
 11
850.5148449752329
 21
1413.808017986709
 31
0.0
 12
848.452344975233
 22
1414.151767986709
 32
0.0
 13
848.452344975233
 23
1414.151767986709
 33
0.0
  0
MTEXT
  5
4FA5
330
4EFB
100
AcDbEntity
  8
0
 62
     0
100
AcDbMText
 10
868.9523449752341
 20
1414.151767986705
 30
0.0
 40
2.0625
 41
0.0
 46
0.0
 71
     5
 72
     1
  1
\A1;30" MIN.
  7
ROMANS
 73
     1
 44
1.0
  0
POINT
  5
4FA6
330
4EFB
100
AcDbEntity
  8
DEFPOINTS
 62
     0
100
AcDbPoint
 10
889.4523449749138
 20
1407.513736884236
 30
0.0
  0
POINT
  5
4FA7
330
4EFB
100
AcDbEntity
  8
DEFPOINTS
 62
     0
100
AcDbPoint
 10
848.4523449749115
 20
1407.513736884246
 30
0.0
  0
POINT
  5
4FA8
330
4EFB
100
AcDbEntity
  8
DEFPOINTS
 62
     0
100
AcDbPoint
 10
848.4523449749115
 20
1414.151767986902
 30
0.0
  0
ENDBLK
  5
4F07
330
4EFB
100
AcDbEntity
  8
0
 62
     7
100
AcDbBlockEnd
  0
BLOCK
  5
4F57
330
4F4C
100
AcDbEntity
  8
0
 62
     7
100
AcDbBlockBegin
  2
*D16
 70
     1
 10
0.0
 20
0.0
 30
0.0
  3
*D16
  1

  0
LINE
  5
5132
330
4F4C
100
AcDbEntity
  8
0
 62
     0
370
    -2
100
AcDbLine
 10
735.9523449752023
 20
1256.201236884134
 30
0.0
 11
696.8637760992431
 21
1256.201236884143
 31
0.0
  0
LINE
  5
5133
330
4F4C
100
AcDbEntity
  8
0
 62
     0
370
    -2
100
AcDbLine
 10
735.952344975227
 20
1298.201236884132
 30
0.0
 11
696.8637760992527
 21
1298.201236884141
 31
0.0
  0
LINE
  5
5134
330
4F4C
100
AcDbEntity
  8
0
 62
     0
370
    -2
100
AcDbLine
 10
698.9262760992436
 20
1258.263736884143
 30
0.0
 11
698.9262760992475
 21
1275.286058312713
 31
0.0
  0
LINE
  5
5135
330
4F4C
100
AcDbEntity
  8
0
 62
     0
370
    -2
100
AcDbLine
 10
698.9262760992523
 20
1296.13873688414
 30
0.0
 11
698.9262760992483
 21
1279.11641545557
 31
0.0
  0
SOLID
  5
5136
330
4F4C
100
AcDbEntity
  8
0
 62
     0
100
AcDbTrace
 10
698.5825260992436
 20
1258.263736884143
 30
0.0
 11
699.2700260992436
 21
1258.263736884142
 31
0.0
 12
698.9262760992431
 22
1256.201236884143
 32
0.0
 13
698.9262760992431
 23
1256.201236884143
 33
0.0
  0
SOLID
  5
5137
330
4F4C
100
AcDbEntity
  8
0
 62
     0
100
AcDbTrace
 10
698.5825260992522
 20
1296.13873688414
 30
0.0
 11
699.2700260992522
 21
1296.13873688414
 31
0.0
 12
698.9262760992527
 22
1298.20123688414
 32
0.0
 13
698.9262760992527
 23
1298.20123688414
 33
0.0
  0
MTEXT
  5
5138
330
4F4C
100
AcDbEntity
  8
0
 62
     0
100
AcDbMText
 10
698.9262760992478
 20
1277.201236884142
 30
0.0
 40
2.0625
 41
0.0
 46
0.0
 71
     5
 72
     1
  1
\A1;3'-6"
  7
ROMANS
 73
     1
 44
1.0
  0
POINT
  5
5139
330
4F4C
100
AcDbEntity
  8
DEFPOINTS
 62
     0
100
AcDbPoint
 10
736.6398449749167
 20
1256.201236884301
 30
0.0
  0
POINT
  5
513A
330
4F4C
100
AcDbEntity
  8
DEFPOINTS
 62
     0
100
AcDbPoint
 10
736.6398449749319
 20
1298.201236884299
 30
0.0
  0
POINT
  5
513B
330
4F4C
100
AcDbEntity
  8
DEFPOINTS
 62
     0
100
AcDbPoint
 10
698.9262760989577
 20
1298.201236884299
 30
0.0
  0
ENDBLK
  5
4F58
330
4F4C
100
AcDbEntity
  8
0
 62
     7
100
AcDbBlockEnd
  0
BLOCK
  5
501C
330
5011
100
AcDbEntity
  8
0
 62
     7
100
AcDbBlockBegin
  2
*D17
 70
     1
 10
0.0
 20
0.0
 30
0.0
  3
*D17
  1

  0
LINE
  5
5080
330
5011
100
AcDbEntity
  8
0
 62
     0
370
    -2
100
AcDbLine
 10
935.502256355215
 20
1382.911889224444
 30
0.0
 11
935.5022563552154
 21
1384.975512103183
 31
0.0
  0
LINE
  5
5081
330
5011
100
AcDbEntity
  8
0
 62
     0
370
    -2
100
AcDbLine
 10
959.6897563552671
 20
1382.911889224434
 30
0.0
 11
959.6897563552674
 21
1384.975512103177
 31
0.0
  0
LINE
  5
5082
330
5011
100
AcDbEntity
  8
0
 62
     0
370
    -2
100
AcDbLine
 10
937.5647563552149
 20
1382.913012103182
 30
0.0
 11
940.4263634980981
 21
1382.913012103182
 31
0.0
  0
LINE
  5
5083
330
5011
100
AcDbEntity
  8
0
 62
     0
370
    -2
100
AcDbLine
 10
957.627256355267
 20
1382.913012103177
 30
0.0
 11
954.7656492123838
 21
1382.913012103178
 31
0.0
  0
SOLID
  5
5084
330
5011
100
AcDbEntity
  8
0
 62
     0
100
AcDbTrace
 10
937.5647563552151
 20
1383.256762103182
 30
0.0
 11
937.5647563552147
 21
1382.569262103182
 31
0.0
 12
935.502256355215
 22
1382.913012103182
 32
0.0
 13
935.502256355215
 23
1382.913012103182
 33
0.0
  0
SOLID
  5
5085
330
5011
100
AcDbEntity
  8
0
 62
     0
100
AcDbTrace
 10
957.6272563552672
 20
1383.256762103177
 30
0.0
 11
957.6272563552668
 21
1382.569262103177
 31
0.0
 12
959.6897563552671
 22
1382.913012103177
 32
0.0
 13
959.6897563552671
 23
1382.913012103177
 33
0.0
  0
MTEXT
  5
5086
330
5011
100
AcDbEntity
  8
0
 62
     0
100
AcDbMText
 10
947.596006355241
 20
1382.91301210318
 30
0.0
 40
2.0625
 41
0.0
 46
0.0
 71
     5
 72
     1
  1
\A1;24" MIN.
  7
ROMANS
 73
     1
 44
1.0
  0
POINT
  5
5087
330
5011
100
AcDbEntity
  8
DEFPOINTS
 62
     0
100
AcDbPoint
 10
935.5022563549004
 20
1382.224389224657
 30
0.0
  0
POINT
  5
5088
330
5011
100
AcDbEntity
  8
DEFPOINTS
 62
     0
100
AcDbPoint
 10
959.6897563549525
 20
1382.224389224652
 30
0.0
  0
POINT
  5
5089
330
5011
100
AcDbEntity
  8
DEFPOINTS
 62
     0
100
AcDbPoint
 10
959.6897563549525
 20
1382.913012103395
 30
0.0
  0
ENDBLK
  5
501D
330
5011
100
AcDbEntity
  8
0
 62
     7
100
AcDbBlockEnd
  0
BLOCK
  5
510A
330
50FF
100
AcDbEntity
  8
0
 62
     7
100
AcDbBlockBegin
  2
*D18
 70
     1
 10
0.0
 20
0.0
 30
0.0
  3
*D18
  1

  0
LINE
  5
5100
330
50FF
100
AcDbEntity
  8
0
 62
     0
370
    -2
100
AcDbLine
 10
726.4523449752174
 20
1268.701236884126
 30
0.0
 11
719.4466671018155
 21
1268.701236884128
 31
0.0
  0
LINE
  5
5101
330
50FF
100
AcDbEntity
  8
0
 62
     0
370
    -2
100
AcDbLine
 10
726.4523449752227
 20
1280.701236884126
 30
0.0
 11
719.4466671018182
 21
1280.701236884128
 31
0.0
  0
LINE
  5
5102
330
50FF
100
AcDbEntity
  8
0
 62
     0
370
    -2
100
AcDbLine
 10
721.5091671018159
 20
1270.763736884127
 30
0.0
 11
721.5091671018163
 21
1272.786058312699
 31
0.0
  0
LINE
  5
5103
330
50FF
100
AcDbEntity
  8
0
 62
     0
370
    -2
100
AcDbLine
 10
721.5091671018178
 20
1278.638736884127
 30
0.0
 11
721.5091671018171
 21
1276.616415455556
 31
0.0
  0
SOLID
  5
5104
330
50FF
100
AcDbEntity
  8
0
 62
     0
100
AcDbTrace
 10
721.1654171018159
 20
1270.763736884127
 30
0.0
 11
721.8529171018159
 21
1270.763736884127
 31
0.0
 12
721.5091671018154
 22
1268.701236884127
 32
0.0
 13
721.5091671018154
 23
1268.701236884127
 33
0.0
  0
SOLID
  5
5105
330
50FF
100
AcDbEntity
  8
0
 62
     0
100
AcDbTrace
 10
721.1654171018177
 20
1278.638736884127
 30
0.0
 11
721.8529171018177
 21
1278.638736884127
 31
0.0
 12
721.5091671018182
 22
1280.701236884127
 32
0.0
 13
721.5091671018182
 23
1280.701236884127
 33
0.0
  0
MTEXT
  5
5106
330
50FF
100
AcDbEntity
  8
0
 62
     0
100
AcDbMText
 10
721.5091671018167
 20
1274.701236884127
 30
0.0
 40
2.0625
 41
0.0
 46
0.0
 71
     5
 72
     1
  1
\A1;1'-0"
  7
ROMANS
 73
     1
 44
1.0
  0
POINT
  5
5107
330
50FF
100
AcDbEntity
  8
DEFPOINTS
 62
     0
100
AcDbPoint
 10
727.139844974929
 20
1268.701236884291
 30
0.0
  0
POINT
  5
5108
330
50FF
100
AcDbEntity
  8
DEFPOINTS
 62
     0
100
AcDbPoint
 10
727.1398449749317
 20
1280.701236884291
 30
0.0
  0
POINT
  5
5109
330
50FF
100
AcDbEntity
  8
DEFPOINTS
 62
     0
100
AcDbPoint
 10
721.5091671015271
 20
1280.701236884291
 30
0.0
  0
ENDBLK
  5
510B
330
50FF
100
AcDbEntity
  8
0
 62
     7
100
AcDbBlockEnd
  0
BLOCK
  5
5118
330
510D
100
AcDbEntity
  8
0
 62
     7
100
AcDbBlockBegin
  2
*D19
 70
     1
 10
0.0
 20
0.0
 30
0.0
  3
*D19
  1

  0
LINE
  5
510E
330
510D
100
AcDbEntity
  8
0
 62
     0
370
    -2
100
AcDbLine
 10
735.9523449752283
 20
1290.201236884128
 30
0.0
 11
706.468838024017
 21
1290.201236884134
 31
0.0
  0
LINE
  5
510F
330
510D
100
AcDbEntity
  8
0
 62
     0
370
    -2
100
AcDbLine
 10
735.9523449752084
 20
1256.201236884131
 30
0.0
 11
706.4688380240093
 21
1256.201236884138
 31
0.0
  0
LINE
  5
5110
330
510D
100
AcDbEntity
  8
0
 62
     0
370
    -2
100
AcDbLine
 10
708.5313380240165
 20
1288.138736884134
 30
0.0
 11
708.5313380240135
 21
1275.116415455564
 31
0.0
  0
LINE
  5
5111
330
510D
100
AcDbEntity
  8
0
 62
     0
370
    -2
100
AcDbLine
 10
708.5313380240097
 20
1258.263736884138
 30
0.0
 11
708.5313380240127
 21
1271.286058312707
 31
0.0
  0
SOLID
  5
5112
330
510D
100
AcDbEntity
  8
0
 62
     0
100
AcDbTrace
 10
708.1875880240166
 20
1288.138736884134
 30
0.0
 11
708.8750880240166
 21
1288.138736884134
 31
0.0
 12
708.531338024017
 22
1290.201236884134
 32
0.0
 13
708.531338024017
 23
1290.201236884134
 33
0.0
  0
SOLID
  5
5113
330
510D
100
AcDbEntity
  8
0
 62
     0
100
AcDbTrace
 10
708.1875880240097
 20
1258.263736884138
 30
0.0
 11
708.8750880240097
 21
1258.263736884138
 31
0.0
 12
708.5313380240092
 22
1256.201236884138
 32
0.0
 13
708.5313380240092
 23
1256.201236884138
 33
0.0
  0
MTEXT
  5
5114
330
510D
100
AcDbEntity
  8
0
 62
     0
100
AcDbMText
 10
708.531338024013
 20
1273.201236884136
 30
0.0
 40
2.0625
 41
0.0
 46
0.0
 71
     5
 72
     1
  1
\A1;2'-10"
  7
ROMANS
 73
     1
 44
1.0
  0
POINT
  5
5115
330
510D
100
AcDbEntity
  8
DEFPOINTS
 62
     0
100
AcDbPoint
 10
736.6398449749351
 20
1290.201236884295
 30
0.0
  0
POINT
  5
5116
330
510D
100
AcDbEntity
  8
DEFPOINTS
 62
     0
100
AcDbPoint
 10
736.6398449749229
 20
1256.201236884299
 30
0.0
  0
POINT
  5
5117
330
510D
100
AcDbEntity
  8
DEFPOINTS
 62
     0
100
AcDbPoint
 10
708.5313380237237
 20
1256.201236884299
 30
0.0
  0
ENDBLK
  5
5119
330
510D
100
AcDbEntity
  8
0
 62
     7
100
AcDbBlockEnd
  0
BLOCK
  5
5126
330
511B
100
AcDbEntity
  8
0
 62
     7
100
AcDbBlockBegin
  2
*D20
 70
     1
 10
0.0
 20
0.0
 30
0.0
  3
*D20
  1

  0
LINE
  5
5128
330
511B
100
AcDbEntity
  8
0
 62
     0
370
    -2
100
AcDbLine
 10
736.6398449752076
 20
1253.263736884122
 30
0.0
 11
736.6398449752063
 21
1247.625883651394
 31
0.0
  0
LINE
  5
5129
330
511B
100
AcDbEntity
  8
0
 62
     0
370
    -2
100
AcDbLine
 10
727.1398449752173
 20
1268.013736884126
 30
0.0
 11
727.1398449752126
 21
1247.625883651396
 31
0.0
  0
LINE
  5
512A
330
511B
100
AcDbEntity
  8
0
 62
     0
370
    -2
100
AcDbLine
 10
734.5773449752067
 20
1249.688383651395
 30
0.0
 11
729.2023449752131
 21
1249.688383651396
 31
0.0
  0
LINE
  5
512B
330
511B
100
AcDbEntity
  8
0
 62
     0
370
    -2
100
AcDbLine
 10
727.1398449752131
 20
1249.688383651396
 30
0.0
 11
725.0773449752131
 21
1249.688383651397
 31
0.0
  0
SOLID
  5
512C
330
511B
100
AcDbEntity
  8
0
 62
     0
100
AcDbTrace
 10
734.5773449752068
 20
1250.032133651395
 30
0.0
 11
734.5773449752067
 21
1249.344633651394
 31
0.0
 12
736.6398449752067
 22
1249.688383651394
 32
0.0
 13
736.6398449752067
 23
1249.688383651394
 33
0.0
  0
SOLID
  5
512D
330
511B
100
AcDbEntity
  8
0
 62
     0
100
AcDbTrace
 10
729.2023449752132
 20
1250.032133651396
 30
0.0
 11
729.2023449752131
 21
1249.344633651396
 31
0.0
 12
727.1398449752131
 22
1249.688383651396
 32
0.0
 13
727.1398449752131
 23
1249.688383651396
 33
0.0
  0
MTEXT
  5
512E
330
511B
100
AcDbEntity
  8
0
 62
     0
100
AcDbMText
 10
714.0773449752131
 20
1249.688383651399
 30
0.0
 40
2.0625
 41
0.0
 46
0.0
 71
     5
 72
     1
  1
\A1;TREAD DEPTH
  7
ROMANS
 73
     1
 44
1.0
  0
POINT
  5
512F
330
511B
100
AcDbEntity
  8
DEFPOINTS
 62
     0
100
AcDbPoint
 10
736.6398449749226
 20
1253.951236884289
 30
0.0
  0
POINT
  5
5130
330
511B
100
AcDbEntity
  8
DEFPOINTS
 62
     0
100
AcDbPoint
 10
727.139844974929
 20
1268.701236884291
 30
0.0
  0
POINT
  5
5131
330
511B
100
AcDbEntity
  8
DEFPOINTS
 62
     0
100
AcDbPoint
 10
727.139844974929
 20
1249.688383651562
 30
0.0
  0
ENDBLK
  5
5127
330
511B
100
AcDbEntity
  8
0
 62
     7
100
AcDbBlockEnd
  0
ENDSEC
  0
SECTION
  2
ENTITIES
  0
INSERT
  5
731
330
18
100
AcDbEntity
  8
0
100
AcDbBlockReference
  2
LINETYPE
 10
1755.465720098802
 20
319.6312055368388
 30
0.0
  0
INSERT
  5
739
330
18
100
AcDbEntity
  8
0
100
AcDbBlockReference
  2
LINETYPE
 10
1580.831671270289
 20
258.5738563159389
 30
0.0
  0
LINE
  5
7F9
330
18
100
AcDbEntity
  8
0
100
AcDbLine
 10
847.6398449748762
 20
1367.201236884243
 30
0.0
 11
733.2966992243704
 21
1252.858091133737
 31
0.0
  0
INSERT
  5
87C
330
18
100
AcDbEntity
  8
0
100
AcDbBlockReference
  2
LINETYPE
 10
3335.985291857908
 20
1226.649039023404
 30
0.0
  0
INSERT
  5
87D
330
18
100
AcDbEntity
  8
0
100
AcDbBlockReference
  2
LINETYPE
 10
3161.351243029394
 20
1165.591689802504
 30
0.0
  0
INSERT
  5
8CE
330
18
100
AcDbEntity
  8
0
100
AcDbBlockReference
  2
LINETYPE
 10
3030.127795686781
 20
1132.026704061406
 30
0.0
  0
INSERT
  5
8CF
330
18
100
AcDbEntity
  8
0
100
AcDbBlockReference
  2
LINETYPE
 10
2855.493746858268
 20
1070.969354840506
 30
0.0
  0
INSERT
  5
9AA
330
18
100
AcDbEntity
  8
0
100
AcDbBlockReference
  2
LINETYPE
 10
3452.502434436856
 20
1190.255832572662
 30
0.0
  0
INSERT
  5
9AB
330
18
100
AcDbEntity
  8
0
100
AcDbBlockReference
  2
LINETYPE
 10
3277.868385608343
 20
1129.198483351762
 30
0.0
  0
INSERT
  5
A3D
330
18
100
AcDbEntity
  8
0
100
AcDbBlockReference
  2
LINETYPE
 10
3270.44439946711
 20
1204.813115152959
 30
0.0
  0
INSERT
  5
A3E
330
18
100
AcDbEntity
  8
0
100
AcDbBlockReference
  2
LINETYPE
 10
3095.810350638597
 20
1143.755765932059
 30
0.0
  0
INSERT
  5
A57
330
18
100
AcDbEntity
  8
0
100
AcDbBlockReference
  2
LINETYPE
 10
3328.702970756584
 20
1117.469421481109
 30
0.0
  0
INSERT
  5
A58
330
18
100
AcDbEntity
  8
0
100
AcDbBlockReference
  2
LINETYPE
 10
3154.068921928071
 20
1056.412072260209
 30
0.0
  0
LINE
  5
AC9
330
18
100
AcDbEntity
  8
0
100
AcDbLine
 10
848.2023449748997
 20
1356.450028385282
 30
0.0
 11
738.9535534738638
 21
1247.201236884244
 31
0.0
  0
LINE
  5
C69
330
18
100
AcDbEntity
  8
0
100
AcDbLine
 10
929.5960063548973
 20
1367.201236884242
 30
0.0
 11
929.877256354897
 21
1367.201236884241
 31
0.0
  0
LINE
  5
C6A
330
18
100
AcDbEntity
  8
0
100
AcDbLine
 10
929.5960063548974
 20
1247.201236884242
 30
0.0
 11
931.8460063548974
 21
1247.201236884242
 31
0.0
  0
LINE
  5
C6C
330
18
100
AcDbEntity
  8
0
100
AcDbLine
 10
965.5960063548972
 20
1367.201236884243
 30
0.0
 11
965.5960063548976
 21
1247.201236884243
 31
0.0
  0
LINE
  5
C6D
330
18
100
AcDbEntity
  8
0
100
AcDbLine
 10
963.3460063548973
 20
1367.201236884243
 30
0.0
 11
963.3460063548961
 21
1270.701236884197
 31
0.0
  0
LINE
  5
C6E
330
18
100
AcDbEntity
  8
0
100
AcDbLine
 10
931.8460063548972
 20
1367.201236884242
 30
0.0
 11
931.8460063548961
 21
1270.701236884204
 31
0.0
  0
LINE
  5
C76
330
18
100
AcDbEntity
  8
0
100
AcDbLine
 10
963.3460063548975
 20
1247.201236884244
 30
0.0
 11
965.5960063548976
 21
1247.201236884244
 31
0.0
  0
LINE
  5
C7A
330
18
100
AcDbEntity
  8
0
100
AcDbLine
 10
931.8460063548974
 20
1367.201236884242
 30
0.0
 11
933.8147563548968
 21
1367.201236884242
 31
0.0
  0
LINE
  5
C82
330
18
100
AcDbEntity
  8
0
100
AcDbLine
 10
963.3460063548971
 20
1367.201236884243
 30
0.0
 11
963.6272563549491
 21
1367.201236884243
 31
0.0
  0
TEXT
  5
FD5
330
18
100
AcDbEntity
  8
0
100
AcDbText
 10
770.9570129899055
 20
1377.601605794374
 30
0.0
 40
2.18889
  1
ALUMINUM PIPE
  7
ROMANS
 72
     1
 11
783.7776544184769
 21
1377.601605794374
 31
0.0
100
AcDbText
  0
TEXT
  5
FD6
330
18
100
AcDbEntity
  8
0
100
AcDbText
 10
769.7062187041912
 20
1381.145522937231
 30
0.0
 40
2.18889
  1
1-1/4" SCH 40
  7
ROMANS
 72
     1
 11
783.7776544184769
 21
1381.145522937231
 31
0.0
100
AcDbText
  0
TEXT
  5
FD7
330
18
100
AcDbEntity
  8
0
100
AcDbText
 10
774.917861561334
 20
1370.51377150866
 30
0.0
 40
2.18889
  1
(6005-T5)
  7
ROMANS
 72
     1
 11
783.7776544184769
 21
1370.51377150866
 31
0.0
100
AcDbText
  0
TEXT
  5
FD8
330
18
100
AcDbEntity
  8
0
100
AcDbText
 10
766.1101851327625
 20
1374.057688651517
 30
0.0
 40
2.18889
  1
HANDRAIL/GUARDRAIL
  7
ROMANS
 72
     1
 11
783.7776544184769
 21
1374.057688651517
 31
0.0
100
AcDbText
  0
LINE
  5
FD9
330
18
100
AcDbEntity
  8
0
100
AcDbLine
 10
802.6557088162867
 20
1366.983835215024
 30
0.0
 11
796.6698343859402
 21
1371.355095491961
 31
0.0
  0
SOLID
  5
FDA
330
18
100
AcDbEntity
  8
0
100
AcDbTrace
 10
802.8843994846795
 20
1367.284964911027
 30
0.0
 11
802.4270181478941
 21
1366.68270551902
 31
0.0
 12
804.4624869923072
 22
1365.611691204668
 32
0.0
 13
804.4624869923072
 23
1365.611691204668
 33
0.0
  0
LINE
  5
FDB
330
18
100
AcDbEntity
  8
0
100
AcDbLine
 10
796.6698343859402
 20
1371.355095491961
 30
0.0
 11
794.7538472405701
 21
1371.355095491961
 31
0.0
  0
INSERT
  5
1052
330
18
100
AcDbEntity
  8
0
100
AcDbBlockReference
  2
LINETYPE
 10
707.4207238873416
 20
1171.184298484356
 30
0.0
  0
INSERT
  5
1053
330
18
100
AcDbEntity
  8
0
100
AcDbBlockReference
  2
LINETYPE
 10
1073.912317512891
 20
1161.109206428277
 30
0.0
  0
INSERT
  5
108A
330
18
100
AcDbEntity
  8
0
100
AcDbBlockReference
  2
LINETYPE
 10
1193.204674166987
 20
1215.797146101187
 30
0.0
  0
INSERT
  5
108B
330
18
100
AcDbEntity
  8
0
100
AcDbBlockReference
  2
LINETYPE
 10
1559.696267792537
 20
1205.722054045109
 30
0.0
  0
INSERT
  5
162A
330
18
100
AcDbEntity
  8
0
100
AcDbBlockReference
  2
LINETYPE
 10
757.2613386694179
 20
1372.951021811622
 30
0.0
  0
INSERT
  5
163B
330
18
100
AcDbEntity
  8
0
100
AcDbBlockReference
  2
LINETYPE
 10
1123.752932294967
 20
1362.875929755544
 30
0.0
  0
INSERT
  5
17F5
330
18
100
AcDbEntity
  8
0
100
AcDbBlockReference
  2
LINETYPE
 10
1243.045288949063
 20
1417.563869428454
 30
0.0
  0
INSERT
  5
17FB
330
18
100
AcDbEntity
  8
0
100
AcDbBlockReference
  2
LINETYPE
 10
1609.536882574612
 20
1407.488777372375
 30
0.0
  0
INSERT
  5
1AD1
330
18
100
AcDbEntity
  8
0
100
AcDbBlockReference
  2
LINETYPE
 10
726.9409203705532
 20
1310.206906098342
 30
0.0
  0
INSERT
  5
1AD2
330
18
100
AcDbEntity
  8
0
100
AcDbBlockReference
  2
LINETYPE
 10
1093.432513996103
 20
1300.131814042263
 30
0.0
  0
INSERT
  5
1AD3
330
18
100
AcDbEntity
  8
0
100
AcDbBlockReference
  2
LINETYPE
 10
1212.724870650198
 20
1354.819753715174
 30
0.0
  0
INSERT
  5
1AD4
330
18
100
AcDbEntity
  8
0
100
AcDbBlockReference
  2
LINETYPE
 10
1579.216464275748
 20
1344.744661659095
 30
0.0
  0
INSERT
  5
1B1A
330
18
100
AcDbEntity
  8
0
100
AcDbBlockReference
  2
LINETYPE
 10
1096.103694165373
 20
1287.484861659437
 30
0.0
  0
INSERT
  5
1B1B
330
18
100
AcDbEntity
  8
0
100
AcDbBlockReference
  2
LINETYPE
 10
1215.006594584586
 20
1614.165547174558
 30
0.0
  0
INSERT
  5
1B1C
330
18
100
AcDbEntity
  8
0
100
AcDbBlockReference
  2
LINETYPE
 10
1581.498188210135
 20
1604.090455118479
 30
0.0
  0
TEXT
  5
1BC0
330
18
100
AcDbEntity
  8
0
100
AcDbText
 10
854.0392671154837
 20
1340.952833100164
 30
0.0
 40
2.16513
  1
ALUMINUM CHANNEL
  7
ROMANS
100
AcDbText
  0
TEXT
  5
1BC1
330
18
100
AcDbEntity
  8
0
100
AcDbText
 10
852.6819614724388
 20
1344.458281671593
 30
0.0
 40
2.16513
  1
8" x 2-1/4" x 1/4"
  7
ROMANS
100
AcDbText
  0
DIMENSION
  5
1C48
330
18
100
AcDbEntity
  8
0
100
AcDbDimension
  2
*D1
 10
929.5960063548974
 20
1230.102730881832
 30
0.0
 11
947.5960063548976
 21
1230.102730881832
 31
0.0
 70
    32
  1
CLEAR TREAD\P+ 4-1/2"
 71
     5
 42
36.00000000000012
 73
     0
 74
     0
 75
     0
  3
STANDARD$0
100
AcDbAlignedDimension
 13
965.5960063548976
 23
1247.201236884243
 33
0.0
 14
929.5960063548974
 24
1247.201236884242
 34
0.0
100
AcDbRotatedDimension
  0
DIMENSION
  5
1C56
330
18
100
AcDbEntity
  8
0
100
AcDbDimension
  2
*D2
 10
931.8460063548974
 20
1242.51348681594
 30
0.0
 11
947.5960063548976
 21
1242.51348681594
 31
0.0
 70
    32
  1
CLEAR TREAD\P31-1/2"MIN\P55-1/2"MAX
 71
     5
 42
31.50000000000011
 73
     0
 74
     0
 75
     0
  3
STANDARD$0
100
AcDbAlignedDimension
 13
963.3460063548975
 23
1247.201236884243
 33
0.0
 14
931.8460063548974
 24
1247.201236884242
 34
0.0
100
AcDbRotatedDimension
  0
LINE
  5
1C67
330
18
100
AcDbEntity
  8
0
100
AcDbLine
 10
738.9535534738641
 20
1247.201236884244
 30
0.0
 11
889.6398449749014
 21
1247.201236884238
 31
0.0
  0
LINE
  5
1CEA
330
18
100
AcDbEntity
  8
0
100
AcDbLine
 10
733.2966992243704
 20
1252.858091133737
 30
0.0
 11
733.2966992243704
 21
1247.201236884244
 31
0.0
  0
LINE
  5
1CEB
330
18
100
AcDbEntity
  8
0
100
AcDbLine
 10
733.5466992243707
 20
1252.754537743144
 30
0.0
 11
733.5466992243705
 21
1247.201236884244
 31
0.0
  0
LINE
  5
1D1B
330
18
100
AcDbEntity
  8
0
100
AcDbLine
 10
929.5960063548974
 20
1252.90882631385
 30
0.0
 11
931.8460063548974
 21
1252.90882631385
 31
0.0
  0
LINE
  5
1D1C
330
18
100
AcDbEntity
  8
0
100
AcDbLine
 10
963.3460063548975
 20
1252.908826313851
 30
0.0
 11
965.5960063548976
 21
1252.908826313851
 31
0.0
  0
LINE
  5
1D1D
330
18
100
AcDbEntity
  8
0
100
AcDbLine
 10
929.5960063548973
 20
1367.201236884242
 30
0.0
 11
929.5960063548974
 21
1247.201236884242
 31
0.0
  0
LINE
  5
1D1E
330
18
100
AcDbEntity
  8
0
100
AcDbLine
 10
963.5960063548974
 20
1252.65882631385
 30
0.0
 11
963.5960063548976
 21
1247.451236884243
 31
0.0
  0
LINE
  5
1D1F
330
18
100
AcDbEntity
  8
0
100
AcDbLine
 10
963.5960063548974
 20
1252.65882631385
 30
0.0
 11
965.5960063548976
 21
1252.65882631385
 31
0.0
  0
LINE
  5
1D20
330
18
100
AcDbEntity
  8
0
100
AcDbLine
 10
963.5960063548976
 20
1247.451236884243
 30
0.0
 11
965.5960063548976
 21
1247.451236884243
 31
0.0
  0
LINE
  5
1D21
330
18
100
AcDbEntity
  8
0
100
AcDbLine
 10
929.5960063548974
 20
1252.658826313849
 30
0.0
 11
931.5960063548972
 21
1252.658826313849
 31
0.0
  0
LINE
  5
1D22
330
18
100
AcDbEntity
  8
0
100
AcDbLine
 10
931.5960063548976
 20
1252.658826313849
 30
0.0
 11
931.5960063548974
 21
1247.451236884242
 31
0.0
  0
LINE
  5
1D23
330
18
100
AcDbEntity
  8
0
100
AcDbLine
 10
929.5960063548974
 20
1247.451236884242
 30
0.0
 11
931.5960063548974
 21
1247.451236884242
 31
0.0
  0
INSERT
  5
210A
330
18
100
AcDbEntity
  8
0
100
AcDbBlockReference
  2
LINETYPE
 10
1159.671809081867
 20
1262.952798464323
 30
0.0
  0
INSERT
  5
210B
330
18
100
AcDbEntity
  8
0
100
AcDbBlockReference
  2
LINETYPE
 10
1526.163402707417
 20
1252.877706408245
 30
0.0
  0
INSERT
  5
2142
330
18
100
AcDbEntity
  8
0
100
AcDbBlockReference
  2
LINETYPE
 10
1645.455759361513
 20
1307.565646081155
 30
0.0
  0
INSERT
  5
2143
330
18
100
AcDbEntity
  8
0
100
AcDbBlockReference
  2
LINETYPE
 10
2011.947352987062
 20
1297.490554025076
 30
0.0
  0
TEXT
  5
2912
330
18
100
AcDbEntity
  8
0
100
AcDbText
 10
769.7359207023513
 20
1423.792210220383
 30
0.0
 40
4.990576090500001
  1
INDUSTRIAL STAIRWAY & PLATFORM
  7
ROMANC
100
AcDbText
  0
TEXT
  5
2913
330
18
100
AcDbEntity
  8
0
100
AcDbText
 10
931.7801966284495
 20
1221.313563139123
 30
0.0
 40
2.882111463
  1
FACTORY FINISH
  7
ROMANS
 72
     1
 11
949.1414871079495
 21
1221.313563139123
 31
0.0
100
AcDbText
  0
TEXT
  5
2914
330
18
100
AcDbEntity
  8
0
100
AcDbText
 10
924.3210176753995
 20
1216.647287437123
 30
0.0
 40
2.882111463
  1
%%OALUMINUM-MILL FINISH
  7
ROMANS
 72
     1
 11
949.1414871079495
 21
1216.647287437123
 31
0.0
100
AcDbText
  0
TEXT
  5
2955
330
18
100
AcDbEntity
  8
0
100
AcDbText
 10
701.8816533202257
 20
1354.150453917464
 30
0.0
 40
2.118351925305
  1
NOTE:
  7
ROMANS
100
AcDbText
  0
TEXT
  5
2956
330
18
100
AcDbEntity
  8
0
100
AcDbText
 10
701.8816533202257
 20
1350.720741276494
 30
0.0
 40
2.118351925305
  1
ALL BOLTS/FASTENERS
  7
ROMANS
100
AcDbText
  0
TEXT
  5
2957
330
18
100
AcDbEntity
  8
0
100
AcDbText
 10
701.8816533202257
 20
1347.291028635523
 30
0.0
 40
2.118351925305
  1
NECESSARY TO ANCHOR
  7
ROMANS
100
AcDbText
  0
TEXT
  5
2958
330
18
100
AcDbEntity
  8
0
100
AcDbText
 10
701.8816533202257
 20
1343.861315994554
 30
0.0
 40
2.118351925305
  1
STAIRWAY ARE BY OTHERS.
  7
ROMANS
100
AcDbText
  0
INSERT
  5
29BB
330
18
100
AcDbEntity
  8
0
100
AcDbBlockReference
  2
LINETYPE
 10
717.3414972006947
 20
1233.267717041403
 30
0.0
  0
INSERT
  5
29D4
330
18
100
AcDbEntity
  8
0
100
AcDbBlockReference
  2
LINETYPE
 10
1553.35056642135
 20
1452.129652834392
 30
0.0
  0
INSERT
  5
29D5
330
18
100
AcDbEntity
  8
0
100
AcDbBlockReference
  2
LINETYPE
 10
1919.842160046899
 20
1442.054560778313
 30
0.0
  0
INSERT
  5
29D6
330
18
100
AcDbEntity
  8
0
100
AcDbBlockReference
  2
LINETYPE
 10
2039.134516700995
 20
1496.742500451224
 30
0.0
  0
INSERT
  5
29D7
330
18
100
AcDbEntity
  8
0
100
AcDbBlockReference
  2
LINETYPE
 10
2405.626110326545
 20
1486.667408395145
 30
0.0
  0
INSERT
  5
2A69
330
18
100
AcDbEntity
  8
0
100
AcDbBlockReference
  2
LINETYPE
 10
1531.976905344694
 20
1414.381296605689
 30
0.0
 50
0.0000000000004071
  0
INSERT
  5
2A6A
330
18
100
AcDbEntity
  8
0
100
AcDbBlockReference
  2
LINETYPE
 10
1898.468498970244
 20
1404.306204549613
 30
0.0
 50
0.0000000000004071
  0
INSERT
  5
2A6D
330
18
100
AcDbEntity
  8
0
100
AcDbBlockReference
  2
LINETYPE
 10
2017.760855624339
 20
1458.994144222524
 30
0.0
 50
0.0000000000004071
  0
INSERT
  5
2A6E
330
18
100
AcDbEntity
  8
0
100
AcDbBlockReference
  2
LINETYPE
 10
2384.252449249889
 20
1448.919052166448
 30
0.0
 50
0.0000000000004071
  0
INSERT
  5
2ADD
330
18
100
AcDbEntity
  8
0
100
AcDbBlockReference
  2
LINETYPE
 10
1189.172035915097
 20
1359.804259507508
 30
0.0
  0
MTEXT
  5
2CA9
330
18
100
AcDbEntity
  8
0
100
AcDbMText
 10
772.1274691978057
 20
1299.749513186496
 30
0.0
 40
1.929599999999999
 41
0.0
 46
0.0
 71
     4
 72
     5
  1
 
  7
ROMANS
 73
     1
 44
1.0
  0
MTEXT
  5
2CE7
330
18
100
AcDbEntity
  8
0
100
AcDbMText
 10
774.9476373426111
 20
1299.749513186496
 30
0.0
 40
1.768799999999999
 41
0.0
 46
0.0
 71
     4
 72
     5
  1
 
  7
ROMANS
 73
     1
 44
1.0
  0
TEXT
  5
2F95
330
18
100
AcDbEntity
  8
0
100
AcDbText
 10
823.8911984879347
 20
1321.940531134347
 30
0.0
 40
2.800599999999999
  1
A
 50
0.0000000000004071
  7
ROMANS
 72
     1
 11
825.0914556307918
 21
1321.940531134347
 31
0.0
100
AcDbText
  0
CIRCLE
  5
2F96
330
18
100
AcDbEntity
  8
0
100
AcDbCircle
 10
825.0278836083548
 20
1323.134058601376
 30
0.0
 40
2.554318709706033
  0
CIRCLE
  5
2F97
330
18
100
AcDbEntity
  8
0
  6
PHANTOM
100
AcDbCircle
 10
815.4181666519789
 20
1329.158309985909
 30
0.0
 40
6.092900085925522
  0
LINE
  5
2F98
330
18
100
AcDbEntity
  8
0
100
AcDbLine
 10
820.6686237302676
 20
1326.243311512164
 30
0.0
 11
822.9906333491751
 21
1324.674888070184
 31
0.0
  0
LINE
  5
2FBD
330
18
100
AcDbEntity
  8
0
100
AcDbLine
 10
848.2023449748998
 20
1356.803581775875
 30
0.0
 11
738.6000000832701
 21
1247.201236884244
 31
0.0
  0
LINE
  5
2FBE
330
18
100
AcDbEntity
  8
0
100
AcDbLine
 10
847.9933983654694
 20
1367.201236884243
 30
0.0
 11
733.2966992243704
 21
1252.504537743144
 31
0.0
  0
LEADER
  5
2FC1
330
18
100
AcDbEntity
  8
0
100
AcDbLeader
  3
STANDARD
 73
     0
 40
2.0625
 41
-0.589285714285714
 76
     3
 10
842.3393201166575
 20
1350.630176616643
 30
0.0
 10
849.0387450299454
 20
1345.729006829934
 30
0.0
 10
851.0353567885065
 20
1345.729006829934
 30
0.0
  0
MTEXT
  5
2FC2
330
18
100
AcDbEntity
  8
0
 62
     7
100
AcDbMText
 10
810.0035096235417
 20
1304.055677829383
 30
0.0
 40
2.0625
 41
0.0
 46
0.0
 71
     4
 72
     5
  1
 
  7
ROMANS
 73
     1
 44
1.0
  0
LINE
  5
31E1
330
18
100
AcDbEntity
  8
0
100
AcDbLine
 10
889.6398449749012
 20
1357.951236884239
 30
0.0
 11
889.6398449749012
 21
1247.20123688424
 31
0.0
  0
LINE
  5
32FF
330
18
100
AcDbEntity
  8
0
100
AcDbLine
 10
733.2966992243707
 20
1247.201236884244
 30
0.0
 11
738.9535534738638
 21
1247.201236884244
 31
0.0
  0
LINE
  5
3300
330
18
100
AcDbEntity
  8
0
100
AcDbLine
 10
733.2966992243704
 20
1247.201236884244
 30
0.0
 11
733.2966992243704
 21
1252.858091133737
 31
0.0
  0
DIMENSION
  5
331C
330
18
100
AcDbEntity
  8
0
100
AcDbDimension
  2
*D3
 10
889.6398449749012
 20
1230.102730881832
 30
0.0
 11
811.4682720996359
 21
1230.102730881832
 31
0.0
 70
    32
  1
AS REQ'D
 71
     5
 42
156.3431457505307
 73
     0
 74
     0
 75
     0
  3
STANDARD$0
100
AcDbAlignedDimension
 13
733.2966992243704
 23
1247.201236884244
 33
0.0
 14
889.6398449749012
 24
1247.201236884238
 34
0.0
100
AcDbRotatedDimension
  0
LINE
  5
34D4
330
18
100
AcDbEntity
  8
0
100
AcDbLine
 10
931.8460063548972
 20
1357.951236884242
 30
0.0
 11
933.8147563548949
 21
1357.951236884242
 31
0.0
  0
LINE
  5
34D5
330
18
100
AcDbEntity
  8
0
100
AcDbLine
 10
931.846006354897
 20
1355.962788504931
 30
0.0
 11
933.8147563548943
 21
1355.962788504931
 31
0.0
  0
LINE
  5
34D6
330
18
100
AcDbEntity
  8
0
100
AcDbLine
 10
931.8460063548972
 20
1348.701236884242
 30
0.0
 11
933.8147563548927
 21
1348.701236884242
 31
0.0
  0
LINE
  5
34D7
330
18
100
AcDbEntity
  8
0
100
AcDbLine
 10
931.846006354897
 20
1346.712788504931
 30
0.0
 11
933.8147563548922
 21
1346.712788504931
 31
0.0
  0
LINE
  5
34D8
330
18
100
AcDbEntity
  8
0
100
AcDbLine
 10
931.8460063548972
 20
1339.451236884242
 30
0.0
 11
933.8147563548908
 21
1339.451236884242
 31
0.0
  0
LINE
  5
34D9
330
18
100
AcDbEntity
  8
0
100
AcDbLine
 10
931.846006354897
 20
1337.462788504931
 30
0.0
 11
933.8147563548901
 21
1337.462788504931
 31
0.0
  0
LINE
  5
34DA
330
18
100
AcDbEntity
  8
0
100
AcDbLine
 10
931.8460063548972
 20
1330.201236884241
 30
0.0
 11
933.8147563548886
 21
1330.201236884241
 31
0.0
  0
LINE
  5
34DB
330
18
100
AcDbEntity
  8
0
100
AcDbLine
 10
931.846006354897
 20
1328.212788504931
 30
0.0
 11
933.8147563548881
 21
1328.212788504931
 31
0.0
  0
LINE
  5
34DC
330
18
100
AcDbEntity
  8
0
100
AcDbLine
 10
931.8460063548972
 20
1320.951236884242
 30
0.0
 11
933.8147563548865
 21
1320.951236884242
 31
0.0
  0
LINE
  5
34DD
330
18
100
AcDbEntity
  8
0
100
AcDbLine
 10
931.846006354897
 20
1318.962788504931
 30
0.0
 11
933.814756354886
 21
1318.962788504931
 31
0.0
  0
LINE
  5
34DE
330
18
100
AcDbEntity
  8
0
100
AcDbLine
 10
931.8460063548972
 20
1311.701236884242
 30
0.0
 11
933.8147563548844
 21
1311.701236884241
 31
0.0
  0
LINE
  5
34DF
330
18
100
AcDbEntity
  8
0
100
AcDbLine
 10
931.846006354897
 20
1309.712788504931
 30
0.0
 11
933.8147563548838
 21
1309.712788504931
 31
0.0
  0
LINE
  5
34E0
330
18
100
AcDbEntity
  8
0
100
AcDbLine
 10
931.8460063548972
 20
1302.451236884242
 30
0.0
 11
933.8147563548824
 21
1302.451236884241
 31
0.0
  0
LINE
  5
34E1
330
18
100
AcDbEntity
  8
0
100
AcDbLine
 10
931.846006354897
 20
1300.462788504931
 30
0.0
 11
933.8147563548819
 21
1300.462788504931
 31
0.0
  0
LINE
  5
34E2
330
18
100
AcDbEntity
  8
0
100
AcDbLine
 10
931.8460063548972
 20
1293.201236884242
 30
0.0
 11
933.8147563548803
 21
1293.201236884242
 31
0.0
  0
LINE
  5
34E3
330
18
100
AcDbEntity
  8
0
100
AcDbLine
 10
931.846006354897
 20
1291.212788504931
 30
0.0
 11
933.8147563548798
 21
1291.212788504931
 31
0.0
  0
LINE
  5
34E4
330
18
100
AcDbEntity
  8
0
100
AcDbLine
 10
931.8460063548972
 20
1283.951236884242
 30
0.0
 11
933.8147563548778
 21
1283.951236884242
 31
0.0
  0
LINE
  5
34E5
330
18
100
AcDbEntity
  8
0
100
AcDbLine
 10
931.846006354897
 20
1281.962788504931
 30
0.0
 11
933.8147563548776
 21
1281.962788504931
 31
0.0
  0
LINE
  5
34E6
330
18
100
AcDbEntity
  8
0
100
AcDbLine
 10
931.8460063548972
 20
1274.701236884242
 30
0.0
 11
933.8147563548758
 21
1274.701236884242
 31
0.0
  0
LINE
  5
34E7
330
18
100
AcDbEntity
  8
0
100
AcDbLine
 10
931.846006354897
 20
1272.712788504931
 30
0.0
 11
933.8147563548755
 21
1272.712788504931
 31
0.0
  0
LINE
  5
34E8
330
18
100
AcDbEntity
  8
0
100
AcDbLine
 10
931.8460063548972
 20
1265.451236884242
 30
0.0
 11
963.3460063548973
 21
1265.451236884243
 31
0.0
  0
LINE
  5
34E9
330
18
100
AcDbEntity
  8
0
100
AcDbLine
 10
931.846006354897
 20
1263.462788504931
 30
0.0
 11
963.3460063548971
 21
1263.462788504932
 31
0.0
  0
LINE
  5
34EA
330
18
100
AcDbEntity
  8
0
100
AcDbLine
 10
931.8460063548972
 20
1256.201236884242
 30
0.0
 11
963.3460063548973
 21
1256.201236884243
 31
0.0
  0
LINE
  5
34EB
330
18
100
AcDbEntity
  8
0
100
AcDbLine
 10
931.846006354897
 20
1254.212788504931
 30
0.0
 11
963.3460063548971
 21
1254.212788504932
 31
0.0
  0
LINE
  5
34F1
102
{ACAD_REACTORS
330
4B9E
102
}
330
18
100
AcDbEntity
  8
0
100
AcDbLine
 10
850.1398449749023
 20
1367.201236884245
 30
0.0
 11
887.7648449749045
 21
1367.20123688424
 31
0.0
  0
LINE
  5
356F
330
18
100
AcDbEntity
  8
0
100
AcDbLine
 10
889.4523449749017
 20
1367.201236884239
 30
0.0
 11
889.4523449749016
 21
1357.95123688424
 31
0.0
  0
POINT
  5
35BA
330
18
100
AcDbEntity
  8
DEFPOINTS
  6
ByBlock
100
AcDbPoint
 10
783.6398449748773
 20
1293.201236884244
 30
0.0
 50
0.0000000000130276
  0
POINT
  5
35BB
330
18
100
AcDbEntity
  8
DEFPOINTS
  6
ByBlock
100
AcDbPoint
 10
774.3898449748772
 20
1283.951236884244
 30
0.0
 50
0.0000000000130276
  0
TEXT
  5
3913
330
18
100
AcDbEntity
  8
0
100
AcDbText
 10
859.8850979758747
 20
1369.093845505138
 30
0.0
 40
1.768799999999999
  1
TOE BOARDS
 50
359.999999999987
  7
ROMANS
 72
     4
 11
868.2658408330178
 21
1369.978245505137
 31
0.0
100
AcDbText
  0
INSERT
  5
3918
330
18
100
AcDbEntity
  8
0
100
AcDbBlockReference
  2
LINETYPE
 10
1226.130379873772
 20
1290.395017445976
 30
0.0
 50
359.999999999987
  0
MTEXT
  5
3925
330
18
100
AcDbEntity
  8
0
100
AcDbMText
 10
1325.726048045989
 20
1430.424971348562
 30
0.0
 40
1.768799999999999
 41
0.0
 46
0.0
 71
     4
 72
     5
  1
 
  7
ROMANS
 73
     1
 44
1.0
  0
MTEXT
  5
3927
330
18
100
AcDbEntity
  8
0
100
AcDbMText
 10
1297.788064070222
 20
1429.126705311621
 30
0.0
 40
1.768799999999999
 41
0.0
 46
0.0
 71
     6
 72
     5
  1
 
  7
ROMANS
 73
     1
 44
1.0
  0
MTEXT
  5
3929
330
18
100
AcDbEntity
  8
0
100
AcDbMText
 10
1310.6298647984
 20
1368.959352662312
 30
0.0
 40
1.768799999999999
 41
0.0
 46
0.0
 71
     4
 72
     5
  1
 
  7
ROMANS
 73
     1
 44
1.0
  0
MTEXT
  5
393B
330
18
100
AcDbEntity
  8
0
100
AcDbMText
 10
1376.345335353917
 20
1439.920939263362
 30
0.0
 40
1.768799999999999
 41
0.0
 46
0.0
 71
     6
 72
     5
  1
 
  7
ROMANS
 73
     1
 44
1.0
  0
INSERT
  5
396D
330
18
100
AcDbEntity
  8
0
100
AcDbBlockReference
  2
LINETYPE
 10
1248.654490051099
 20
1274.182900912907
 30
0.0
 50
359.999999999987
  0
LINE
  5
3A30
330
18
100
AcDbEntity
  8
0
100
AcDbLine
 10
850.1398449749034
 20
1371.701236884248
 30
0.0
 11
887.7648449749054
 21
1371.70123688424
 31
0.0
  0
LINE
  5
3A31
330
18
100
AcDbEntity
  8
0
100
AcDbLine
 10
850.1398449749025
 20
1367.701236884248
 30
0.0
 11
887.7648449749047
 21
1367.70123688424
 31
0.0
  0
MTEXT
  5
3AA6
330
18
100
AcDbEntity
  8
0
 62
     7
100
AcDbMText
 10
912.7429590119293
 20
1412.208128933123
 30
0.0
 40
2.0625
 41
0.0
 46
0.0
 71
     4
 72
     5
  1
{ }
  7
ROMANS
 73
     1
 44
1.0
  0
MTEXT
  5
3AA9
330
18
100
AcDbEntity
  8
0
 62
     7
100
AcDbMText
 10
883.6499519785549
 20
1376.509093396947
 30
0.0
 40
2.0625
 41
0.0
 46
0.0
 71
     4
 72
     5
  1
 
  7
ROMANS
 73
     1
 44
1.0
  0
INSERT
  5
3D14
330
18
100
AcDbEntity
  8
0
100
AcDbBlockReference
  2
LINETYPE
 10
694.4703401921258
 20
1199.608613225372
 30
0.0
 50
359.999999999987
  0
TEXT
  5
3DF2
330
18
100
AcDbEntity
  8
0
100
AcDbText
 10
862.4658272230233
 20
1337.486252712057
 30
0.0
 40
2.16513
  1
(TYPICAL)
  7
ROMANS
100
AcDbText
  0
INSERT
  5
3E1F
330
18
100
AcDbEntity
  8
0
100
AcDbBlockReference
 66
     1
  2
border-T
 10
690.2267076958723
 20
1198.1264306147
 30
0.0
 41
1.1
 42
1.1
 43
1.1
 50
359.999999999987
  0
ATTRIB
  5
3E20
330
3E1F
100
AcDbEntity
  8
0
 62
     5
100
AcDbText
 10
691.6243655283193
 20
1216.774687331738
 30
0.0
 40
2.475
  1

 50
359.999999999987
  7
ROMANS
100
AcDbAttribute
  2
SCALE
 70
     0
280
     0
  0
ATTRIB
  5
3E21
330
3E1F
100
AcDbEntity
  8
0
100
AcDbText
 10
980.4406794685114
 20
1216.793594811041
 30
0.0
 40
1.92701953125
  1
PS-4
 50
359.999999999987
  7
ROMANS
 72
     4
 11
984.5241256180653
 21
1217.757104576665
 31
0.0
100
AcDbAttribute
  2
SAVEDAS
 70
     0
280
     0
  0
ATTRIB
  5
3E22
330
3E1F
100
AcDbEntity
  8
0
 62
     5
100
AcDbText
 10
762.5762629458278
 20
1212.9666357724
 30
0.0
 40
1.37297794117647
  1

 50
89.99999999998696
  7
ROMANS
 72
     4
 11
762.5762629458278
 21
1212.9666357724
 31
0.0
100
AcDbAttribute
  2
X
 70
     0
280
     0
  0
ATTRIB
  5
3E23
330
3E1F
100
AcDbEntity
  8
0
100
AcDbText
 10
823.0812093195622
 20
1210.411564922953
 30
0.0
 40
1.945932685714286
  1

 50
359.999999999987
  7
ROMANS
 72
     1
 11
823.0812093195622
 21
1210.411564922953
 31
0.0
100
AcDbAttribute
  2
ARCHORENG
 70
     0
280
     0
  0
ATTRIB
  5
3E24
330
3E1F
100
AcDbEntity
  8
0
100
AcDbText
 10
823.0812093195609
 20
1204.742800241304
 30
0.0
 40
1.945932685714286
  1

 50
359.999999999987
  7
ROMANS
 72
     1
 11
823.0812093195609
 21
1204.742800241304
 31
0.0
100
AcDbAttribute
  2
PURCHASEORDER
 70
     0
280
     0
  0
ATTRIB
  5
3E25
330
3E1F
100
AcDbEntity
  8
0
100
AcDbText
 10
820.0696468297639
 20
1199.074035559656
 30
0.0
 40
1.945932685714286
  1
DNH
 50
359.999999999987
  7
ROMANS
 72
     1
 11
823.0812093195597
 21
1199.074035559656
 31
0.0
100
AcDbAttribute
  2
DRAWNBY
 70
     0
280
     0
  0
ATTRIB
  5
3E26
330
3E1F
100
AcDbEntity
  8
0
100
AcDbText
 10
856.3605307481324
 20
1204.742800241296
 30
0.0
 40
1.945932685714286
  1

 50
359.999999999987
  7
ROMANS
 72
     1
 11
856.3605307481324
 21
1204.742800241296
 31
0.0
100
AcDbAttribute
  2
DATE
 70
     0
280
     0
  0
ATTRIB
  5
3E27
330
3E1F
100
AcDbEntity
  8
0
100
AcDbText
 10
850.6153961522128
 20
1199.074035559649
 30
0.0
 40
1.945932685714286
  1
2/9/22
 50
359.999999999987
  7
ROMANS
 72
     1
 11
856.3605307481312
 21
1199.074035559648
 31
0.0
100
AcDbAttribute
  2
DATE
 70
     0
280
     0
  0
ATTRIB
  5
3E28
330
3E1F
100
AcDbEntity
  8
0
100
AcDbText
 10
889.6398521767052
 20
1210.411564922938
 30
0.0
 40
1.945932685714286
  1

 50
359.999999999987
  7
ROMANS
 72
     1
 11
889.6398521767052
 21
1210.411564922938
 31
0.0
100
AcDbAttribute
  2
PROJECT
 70
     0
280
     0
  0
ATTRIB
  5
3E29
330
3E1F
100
AcDbEntity
  8
0
100
AcDbText
 10
898.7160307481325
 20
1204.742800241287
 30
0.0
 40
1.945932685714286
  1

 50
359.999999999987
  7
ROMANS
 72
     1
 11
898.7160307481325
 21
1204.742800241287
 31
0.0
100
AcDbAttribute
  2
PURCHASER
 70
     0
280
     0
  0
ATTRIB
  5
3E2A
330
3E1F
100
AcDbEntity
  8
0
100
AcDbText
 10
889.561019082825
 20
1199.07403555964
 30
0.0
 40
1.945932685714286
  1
PS-
 50
359.999999999987
  7
ROMANS
 72
     1
 11
892.6652450338455
 21
1199.07403555964
 31
0.0
100
AcDbAttribute
  2
MODEL
 70
     0
280
     0
  0
ATTRIB
  5
3E2B
330
3E1F
100
AcDbEntity
  8
0
100
AcDbText
 10
925.9445664624168
 20
1199.074035559632
 30
0.0
 40
1.945932685714286
  1

 50
359.999999999987
  7
ROMANS
 72
     1
 11
925.9445664624168
 21
1199.074035559632
 31
0.0
100
AcDbAttribute
  2
QTY
 70
     0
280
     0
  0
ATTRIB
  5
3E2C
330
3E1F
100
AcDbEntity
  8
0
100
AcDbText
 10
962.2492807481338
 20
1210.410828815314
 30
0.0
 40
1.945932685714286
  1

 50
359.999999999987
  7
ROMANS
 72
     1
 11
962.2492807481338
 21
1210.410828815314
 31
0.0
100
AcDbAttribute
  2
REP
 70
     0
280
     0
  0
ATTRIB
  5
3E2D
330
3E1F
100
AcDbEntity
  8
0
100
AcDbText
 10
962.2868669997485
 20
1201.594993168608
 30
0.0
 40
3.800649776785714
  1

 50
359.999999999987
  7
ROMANS
 72
     1
 11
962.2868669997485
 21
1201.594993168608
 31
0.0
100
AcDbAttribute
  2
L010000
 70
     0
280
     0
  0
SEQEND
  5
3E2E
330
3E1F
100
AcDbEntity
  8
0
 62
     7
  0
MTEXT
  5
3EC3
330
18
100
AcDbEntity
  8
0
100
AcDbMText
 10
977.1175647237248
 20
1305.650308887908
 30
0.0
 40
2.0625
 41
0.0
 46
0.0
 71
     5
 72
     1
  1
\A1;VERTICAL\PHEIGHT\P\P \P\P \PMAX 15'
  7
ROMANS
 73
     1
 44
1.0
  0
LINE
  5
3EC4
330
18
100
AcDbEntity
  8
0
100
AcDbLine
 10
969.3170538311514
 20
1293.224342962122
 30
0.0
 11
984.9400368272766
 21
1293.224342962119
 31
0.0
  0
LINE
  5
3EC5
330
18
100
AcDbEntity
  8
0
100
AcDbLine
 10
984.9400368272766
 20
1293.224342962119
 30
0.0
 11
984.9400368272823
 21
1318.107869525035
 31
0.0
  0
LINE
  5
3EC6
330
18
100
AcDbEntity
  8
0
100
AcDbLine
 10
984.9400368272823
 20
1318.107869525035
 30
0.0
 11
969.3170538311569
 21
1318.107869525039
 31
0.0
  0
LINE
  5
3EC7
330
18
100
AcDbEntity
  8
0
100
AcDbLine
 10
969.3170538311569
 20
1318.107869525039
 30
0.0
 11
969.3170538311514
 21
1293.224342962122
 31
0.0
  0
LINE
  5
3EC8
330
18
100
AcDbEntity
  8
0
100
AcDbLine
 10
969.3170538311523
 20
1297.824024873353
 30
0.0
 11
984.9400368272776
 21
1297.824024873349
 31
0.0
  0
LINE
  5
3EC9
330
18
100
AcDbEntity
  8
0
100
AcDbLine
 10
969.3170538311555
 20
1311.396857908207
 30
0.0
 11
984.9400368272808
 21
1311.396857908203
 31
0.0
  0
LINE
  5
3ECA
330
18
100
AcDbEntity
  8
0
100
AcDbLine
 10
966.2835063548973
 20
1367.201236884243
 30
0.0
 11
979.1800647237256
 21
1367.201236884243
 31
0.0
  0
LINE
  5
3ECB
330
18
100
AcDbEntity
  8
0
100
AcDbLine
 10
966.2835063548975
 20
1247.201236884244
 30
0.0
 11
979.1800647237256
 21
1247.201236884244
 31
0.0
  0
LINE
  5
3ECC
330
18
100
AcDbEntity
  8
0
100
AcDbLine
 10
977.1175647237257
 20
1365.138736884243
 30
0.0
 11
977.1175647237257
 21
1318.107869525037
 31
0.0
  0
LINE
  5
3ECD
330
18
100
AcDbEntity
  8
0
100
AcDbLine
 10
977.1175647237257
 20
1249.263736884243
 30
0.0
 11
977.1175647237257
 21
1293.22434296212
 31
0.0
  0
SOLID
  5
3ECE
330
18
100
AcDbEntity
  8
0
100
AcDbTrace
 10
976.7738147237256
 20
1365.138736884243
 30
0.0
 11
977.4613147237257
 21
1365.138736884243
 31
0.0
 12
977.1175647237257
 22
1367.201236884243
 32
0.0
 13
977.1175647237257
 23
1367.201236884243
 33
0.0
  0
SOLID
  5
3ECF
330
18
100
AcDbEntity
  8
0
100
AcDbTrace
 10
976.7738147237256
 20
1249.263736884243
 30
0.0
 11
977.4613147237257
 21
1249.263736884243
 31
0.0
 12
977.1175647237257
 22
1247.201236884244
 32
0.0
 13
977.1175647237257
 23
1247.201236884244
 33
0.0
  0
CIRCLE
  5
40A2
330
18
100
AcDbEntity
  8
0
100
AcDbCircle
 10
699.1614542455452
 20
1416.182371629422
 30
0.0
 40
2.520709252999375
  0
TEXT
  5
44E8
330
18
100
AcDbEntity
  8
0
100
AcDbText
 10
706.5954078209628
 20
1201.430467431339
 30
0.0
 40
1.567230062224411
  1
Ph: (423) 586-2265 Fax: (423) 586-2091
 50
359.9999999999881
  7
ROMANS
100
AcDbText
  0
TEXT
  5
44E9
330
18
100
AcDbEntity
  8
0
100
AcDbText
 10
705.7175569698145
 20
1203.967887532084
 30
0.0
 40
1.567230062224411
  1
P.O. BOX 2279 Morristown, TN 37816-2279
 50
359.9999999999881
  7
ROMANS
100
AcDbText
  0
POLYLINE
  5
44EA
330
18
100
AcDbEntity
  8
0
100
AcDb2dPolyline
 66
     1
 10
0.0
 20
0.0
 30
0.0
1001
ACAD
1000
ASC_BOUNDS
1002
{
1070
    19
1002
}
  0
VERTEX
  5
44EB
330
44EA
100
AcDbEntity
  8
0
100
AcDbVertex
100
AcDb2dVertex
 10
699.8700565949985
 20
1204.607577978002
 30
0.0
  0
VERTEX
  5
44EC
330
44EA
100
AcDbEntity
  8
0
100
AcDbVertex
100
AcDb2dVertex
 10
700.1207312658711
 20
1204.735304921485
 30
0.0
1001
ACAD
1000
ASC_BOUNDS
1002
{
1070
    19
1002
}
  0
VERTEX
  5
44ED
330
44EA
100
AcDbEntity
  8
0
100
AcDbVertex
100
AcDb2dVertex
 10
701.8071054985732
 20
1201.360724762722
 30
0.0
1001
ACAD
1000
ASC_BOUNDS
1002
{
1070
    19
1002
}
  0
VERTEX
  5
44EE
330
44EA
100
AcDbEntity
  8
0
100
AcDbVertex
100
AcDb2dVertex
 10
701.2652381594493
 20
1201.364143786857
 30
0.0
  0
VERTEX
  5
44EF
330
44EA
100
AcDbEntity
  8
0
100
AcDbVertex
100
AcDb2dVertex
 10
699.6901982906794
 20
1204.515934289428
 30
0.0
  0
SEQEND
  5
44F0
330
44EA
100
AcDbEntity
  8
0
  0
TEXT
  5
44F1
330
18
100
AcDbEntity
  8
0
100
AcDbText
 10
700.1436139092874
 20
1206.633504952721
 30
0.0
 40
2.561774746233651
  1
Precision Ladders, LLC
 50
359.9999999999881
  7
STYLE1
100
AcDbText
  0
CIRCLE
  5
44F2
330
18
100
AcDbEntity
  8
0
100
AcDbCircle
 10
698.1628163932431
 20
1206.257914424682
 30
0.0
 40
7.025461821671304
1001
ACAD
1000
ASC_BOUNDS
1002
{
1070
    19
1002
}
  0
INSERT
  5
44F3
330
18
100
AcDbEntity
  8
0
100
AcDbBlockReference
  2
*X5
 10
719.2128508062504
 20
1363.900305432895
 30
0.0
 41
0.5684498872985842
 42
0.5684498872985842
 43
0.5684498872986327
 50
359.9999999999771
1001
ACAD
1000
HATCH
1002
{
1070
    19
1000
ANSI31
1040
0.8843871093750001
1040
0.0
1002
}
  0
LWPOLYLINE
  5
44F4
330
18
100
AcDbEntity
  8
0
100
AcDbPolyline
 90
        4
 70
     1
 43
0.0
 10
693.499745133153
 20
1209.846074767033
 10
693.4997451331532
 20
1210.354706211936
 10
698.9166700213692
 20
1210.354706211935
 10
698.9166700213691
 20
1209.846074767032
1001
ACAD
1000
ASC_BOUNDS
1002
{
1070
    19
1005
0
1005
0
1002
}
  0
LINE
  5
44F5
330
18
100
AcDbEntity
  8
0
100
AcDbLine
 10
693.6887569021414
 20
1209.791177935326
 30
0.0
 11
695.9401668797241
 21
1205.372537061121
 31
0.0
1001
ACAD
1000
ASC_BOUNDS
1002
{
1070
    19
1002
}
  0
LWPOLYLINE
  5
44F6
330
18
100
AcDbEntity
  8
0
100
AcDbPolyline
 90
        4
 70
     0
 43
0.0
 10
693.5742733433754
 20
1209.843844419183
 10
695.9582278673305
 20
1205.165070225819
 10
695.947351212871
 20
1205.159528293567
 10
693.5633966889159
 20
1209.83830248693
1001
ACAD
1000
ASC_BOUNDS
1002
{
1070
    19
1002
}
  0
LINE
  5
44F7
330
18
100
AcDbEntity
  8
0
100
AcDbLine
 10
693.6207778117691
 20
1209.756540858748
 30
0.0
 11
693.6887569021414
 21
1209.791177935326
 31
0.0
1001
ACAD
1000
ASC_BOUNDS
1002
{
1070
    19
1002
}
  0
LINE
  5
44F8
330
18
100
AcDbEntity
  8
0
100
AcDbLine
 10
693.6887569021414
 20
1209.791177935326
 30
0.0
 11
693.7964980007699
 21
1209.846074767033
 31
0.0
1001
ACAD
1000
ASC_BOUNDS
1002
{
1070
    19
1002
}
  0
LINE
  5
44F9
330
18
100
AcDbEntity
  8
0
100
AcDbLine
 10
693.6887569021414
 20
1209.791177935326
 30
0.0
 11
693.8273052084542
 21
1209.519261573836
 31
0.0
1001
ACAD
1000
ASC_BOUNDS
1002
{
1070
    19
1002
}
  0
LINE
  5
44FA
330
18
100
AcDbEntity
  8
0
100
AcDbLine
 10
695.8062386558123
 20
1208.010948290621
 30
0.0
 11
695.2820299056511
 21
1206.945985663973
 31
0.0
1001
ACAD
1000
ASC_BOUNDS
1002
{
1070
    19
1005
0
1002
}
  0
LWPOLYLINE
  5
44FB
330
18
100
AcDbEntity
  8
0
100
AcDbPolyline
 90
        2
 70
     0
 43
0.0
 10
695.6832647573735
 20
1208.017765488324
 10
695.1804630036252
 20
1206.996292504155
1001
ACAD
1000
ASC_BOUNDS
1002
{
1070
    19
1005
0
1002
}
  0
LINE
  5
44FC
330
18
100
AcDbEntity
  8
0
100
AcDbLine
 10
694.6883163179105
 20
1209.846074767033
 30
0.0
 11
695.6521226427325
 21
1207.954498348664
 31
0.0
1001
ACAD
1000
ASC_BOUNDS
1002
{
1070
    19
1002
}
  0
LINE
  5
44FD
330
18
100
AcDbEntity
  8
0
100
AcDbLine
 10
694.6026887555254
 20
1209.846074767033
 30
0.0
 11
695.6100479578577
 21
1207.869021013717
 31
0.0
1001
ACAD
1000
ASC_BOUNDS
1002
{
1070
    19
1002
}
  0
LINE
  5
44FE
330
18
100
AcDbEntity
  8
0
100
AcDbLine
 10
694.5146587939803
 20
1209.234593378038
 30
0.0
 11
695.4136994284424
 21
1207.470126783966
 31
0.0
1001
ACAD
1000
ASC_BOUNDS
1002
{
1070
    19
1002
}
  0
LINE
  5
44FF
330
18
100
AcDbEntity
  8
0
100
AcDbLine
 10
696.2591943027501
 20
1205.12091286342
 30
0.0
 11
699.6901982906794
 21
1204.515934289428
 31
0.0
1001
ACAD
1000
ASC_BOUNDS
1002
{
1070
    19
1002
}
  0
POLYLINE
  5
4500
330
18
100
AcDbEntity
  8
0
100
AcDb2dPolyline
 66
     1
 10
0.0
 20
0.0
 30
0.0
1001
ACAD
1000
ASC_BOUNDS
1002
{
1070
    19
1002
}
  0
VERTEX
  5
4501
330
4500
100
AcDbEntity
  8
0
100
AcDbVertex
100
AcDb2dVertex
 10
696.341546713843
 20
1205.46818332639
 30
0.0
  0
VERTEX
  5
4502
330
4500
100
AcDbEntity
  8
0
100
AcDbVertex
100
AcDb2dVertex
 10
696.3707011187491
 20
1205.591905212783
 30
0.0
1001
ACAD
1000
ASC_BOUNDS
1002
{
1070
    19
1002
}
  0
VERTEX
  5
4503
330
4500
100
AcDbEntity
  8
0
100
AcDbVertex
100
AcDb2dVertex
 10
699.7868173888535
 20
1204.989551745125
 30
0.0
1001
ACAD
1000
ASC_BOUNDS
1002
{
1070
    19
1002
}
  0
VERTEX
  5
4504
330
4500
100
AcDbEntity
  8
0
100
AcDbVertex
100
AcDb2dVertex
 10
699.7269394446416
 20
1204.696035865492
 30
0.0
  0
SEQEND
  5
4505
330
4500
100
AcDbEntity
  8
0
  0
LINE
  5
4506
330
18
100
AcDbEntity
  8
0
100
AcDbLine
 10
695.6743031451294
 20
1207.742913108145
 30
0.0
 11
696.6594889241053
 21
1205.809377148451
 31
0.0
1001
ACAD
1000
ASC_BOUNDS
1002
{
1070
    19
1005
0
1002
}
  0
LWPOLYLINE
  5
4507
330
18
100
AcDbEntity
  8
0
100
AcDbPolyline
 90
        2
 70
     0
 43
0.0
 10
695.7163778300041
 20
1207.828390443092
 10
696.7251990962714
 20
1205.848467227737
1001
ACAD
1000
ASC_BOUNDS
1002
{
1070
    19
1002
}
  0
LWPOLYLINE
  5
4508
330
18
100
AcDbEntity
  8
0
100
AcDbPolyline
 90
        3
 70
     0
 43
0.0
 10
695.1813761568849
 20
1206.86949906063
 10
695.3642381226606
 20
1206.958686800548
 10
695.3256043488034
 20
1207.034509850988
1001
ACAD
1000
ASC_BOUNDS
1002
{
1070
    19
1002
}
  0
CIRCLE
  5
4509
330
18
100
AcDbEntity
  8
0
100
AcDbCircle
 10
695.2538837164158
 20
1207.015659080399
 30
0.0
 40
0.0190736791838594
1001
ACAD
1000
ASC_BOUNDS
1002
{
1070
    19
1002
}
  0
LINE
  5
450A
330
18
100
AcDbEntity
  8
0
100
AcDbLine
 10
695.2446465410632
 20
1207.126685345931
 30
0.0
 11
695.0890106193431
 21
1207.050776634957
 31
0.0
1001
ACAD
1000
ASC_BOUNDS
1002
{
1070
    19
1002
}
  0
LINE
  5
450B
330
18
100
AcDbEntity
  8
0
100
AcDbLine
 10
695.0641839581111
 20
1207.088690415133
 30
0.0
 11
695.2027322644239
 21
1206.816774053644
 31
0.0
1001
ACAD
1000
ASC_BOUNDS
1002
{
1070
    19
1002
}
  0
LINE
  5
450C
330
18
100
AcDbEntity
  8
0
100
AcDbLine
 10
695.2819499406839
 20
1206.945873070892
 30
0.0
 11
695.1802667961714
 21
1206.995944538598
 31
0.0
1001
ACAD
1000
ASC_BOUNDS
1002
{
1070
    19
1002
}
  0
LWPOLYLINE
  5
450D
330
18
100
AcDbEntity
  8
0
100
AcDbPolyline
 90
        2
 70
     1
 43
0.0
 10
695.2729573955996
 20
1207.015659080399
 42
-1.0
 10
695.2348100372319
 20
1207.015659080399
 42
-1.0
1001
ACAD
1000
ASC_BOUNDS
1002
{
1070
    19
1002
}
  0
LINE
  5
450E
330
18
100
AcDbEntity
  8
0
100
AcDbLine
 10
696.7257446471477
 20
1205.848795027774
 30
0.0
 11
696.6603473107458
 21
1205.809500343741
 31
0.0
1001
ACAD
1000
ASC_BOUNDS
1002
{
1070
    19
1002
}
  0
LINE
  5
450F
330
18
100
AcDbEntity
  8
0
100
AcDbLine
 10
696.1998429456571
 20
1205.504848625338
 30
0.0
 11
695.8705832668417
 21
1205.337082439489
 31
0.0
1001
ACAD
1000
ASC_BOUNDS
1002
{
1070
    19
1002
}
  0
POLYLINE
  5
4510
330
18
100
AcDbEntity
  8
0
100
AcDb2dPolyline
 66
     1
 10
0.0
 20
0.0
 30
0.0
1001
ACAD
1000
ASC_BOUNDS
1002
{
1070
    19
1002
}
  0
VERTEX
  5
4511
330
4510
100
AcDbEntity
  8
0
100
AcDbVertex
100
AcDb2dVertex
 10
696.2596935318731
 20
1205.120824835856
 30
0.0
  0
VERTEX
  5
4512
330
4510
100
AcDbEntity
  8
0
100
AcDbVertex
100
AcDb2dVertex
 10
696.3278179316151
 20
1205.409922804846
 30
0.0
1001
ACAD
1000
ASC_BOUNDS
1002
{
1070
    19
1002
}
  0
SEQEND
  5
4513
330
4510
100
AcDbEntity
  8
0
  0
LINE
  5
4514
330
18
100
AcDbEntity
  8
0
100
AcDbLine
 10
695.4779546157141
 20
1207.344018878393
 30
0.0
 11
696.0999204954445
 21
1206.123342108768
 31
0.0
1001
ACAD
1000
ASC_BOUNDS
1002
{
1070
    19
1002
}
  0
LINE
  5
4515
330
18
100
AcDbEntity
  8
0
100
AcDbLine
 10
696.1363817989186
 20
1206.051782771525
 30
0.0
 11
696.3707011187491
 21
1205.591905212783
 31
0.0
1001
ACAD
1000
ASC_BOUNDS
1002
{
1070
    19
1002
}
  0
LWPOLYLINE
  5
4516
330
18
100
AcDbEntity
  8
0
100
AcDbPolyline
 90
        4
 70
     0
 43
0.0
 10
696.4564389852857
 20
1206.207885091521
 10
695.9294453662001
 20
1205.950853129527
 10
695.8948082896219
 20
1206.018832219899
 10
696.4171562505156
 20
1206.284981799466
1001
ACAD
1000
ASC_BOUNDS
1002
{
1070
    19
1005
0
1002
}
  0
LWPOLYLINE
  5
4517
330
18
100
AcDbEntity
  8
0
100
AcDbPolyline
 90
        5
 70
     0
 43
0.0
 10
696.3707011187733
 20
1205.591905212888
 10
696.3844360313328
 20
1205.56082007146
 10
696.5536621462911
 20
1205.218936148089
 10
696.4397008385008
 20
1205.162527443103
 10
696.2961588868516
 20
1205.479927250115
1001
ACAD
1000
ASC_BOUNDS
1002
{
1070
    19
1002
}
  0
POLYLINE
  5
4518
330
18
100
AcDbEntity
  8
0
100
AcDb2dPolyline
 66
     1
 10
0.0
 20
0.0
 30
0.0
 70
     1
1001
ACAD
1000
ASC_BOUNDS
1002
{
1070
    19
1002
}
  0
VERTEX
  5
4519
330
4518
100
AcDbEntity
  8
0
100
AcDbVertex
100
AcDb2dVertex
 10
695.9418746927414
 20
1205.57007112739
 30
0.0
1001
ACAD
1000
ASC_BOUNDS
1002
{
1070
    19
1002
}
  0
VERTEX
  5
451A
330
4518
100
AcDbEntity
  8
0
100
AcDbVertex
100
AcDb2dVertex
 10
695.9654541073961
 20
1205.683313750003
 30
0.0
  0
VERTEX
  5
451B
330
4518
100
AcDbEntity
  8
0
100
AcDbVertex
100
AcDb2dVertex
 10
695.998279931276
 20
1205.674516072625
 30
0.0
  0
VERTEX
  5
451C
330
4518
100
AcDbEntity
  8
0
100
AcDbVertex
100
AcDb2dVertex
 10
696.3707011187733
 20
1205.591905212888
 30
0.0
  0
VERTEX
  5
451D
330
4518
100
AcDbEntity
  8
0
100
AcDbVertex
100
AcDb2dVertex
 10
696.3431641655277
 20
1205.467764817056
 30
0.0
  0
VERTEX
  5
451E
330
4518
100
AcDbEntity
  8
0
100
AcDbVertex
100
AcDb2dVertex
 10
695.9738529243821
 20
1205.563322664494
 30
0.0
  0
SEQEND
  5
451F
330
4518
100
AcDbEntity
  8
0
  0
LWPOLYLINE
  5
4520
330
18
100
AcDbEntity
  8
0
100
AcDbPolyline
 90
        5
 70
     0
 43
0.0
 10
699.6901982906794
 20
1204.515934289428
 10
699.675125546807
 20
1204.546393216408
 10
699.4912027118346
 20
1204.880600466209
 10
699.6026051284348
 20
1204.941908077867
 10
699.7598041039284
 20
1204.631045710446
1001
ACAD
1000
ASC_BOUNDS
1002
{
1070
    19
1002
}
  0
LINE
  5
4521
330
18
100
AcDbEntity
  8
0
100
AcDbLine
 10
699.7156007319069
 20
1204.640454594523
 30
0.0
 11
699.6901982906794
 21
1204.515934289428
 31
0.0
1001
ACAD
1000
ASC_BOUNDS
1002
{
1070
    19
1002
}
  0
POLYLINE
  5
4522
330
18
100
AcDbEntity
  8
0
100
AcDb2dPolyline
 66
     1
 10
0.0
 20
0.0
 30
0.0
 70
     1
1001
ACAD
1000
ASC_BOUNDS
1002
{
1070
    19
1002
}
  0
VERTEX
  5
4523
330
4522
100
AcDbEntity
  8
0
100
AcDbVertex
100
AcDb2dVertex
 10
700.1176708398782
 20
1204.556382412185
 30
0.0
1001
ACAD
1000
ASC_BOUNDS
1002
{
1070
    19
1002
}
  0
VERTEX
  5
4524
330
4522
100
AcDbEntity
  8
0
100
AcDbVertex
100
AcDb2dVertex
 10
700.0990346594435
 20
1204.442222116326
 30
0.0
  0
VERTEX
  5
4525
330
4522
100
AcDbEntity
  8
0
100
AcDbVertex
100
AcDb2dVertex
 10
700.0658575400805
 20
1204.449585036358
 30
0.0
  0
VERTEX
  5
4526
330
4522
100
AcDbEntity
  8
0
100
AcDbVertex
100
AcDb2dVertex
 10
699.6901982906794
 20
1204.515934289428
 30
0.0
  0
VERTEX
  5
4527
330
4522
100
AcDbEntity
  8
0
100
AcDbVertex
100
AcDb2dVertex
 10
699.7123147083694
 20
1204.641154039229
 30
0.0
  0
VERTEX
  5
4528
330
4522
100
AcDbEntity
  8
0
100
AcDbVertex
100
AcDb2dVertex
 10
700.085429560767
 20
1204.561734885595
 30
0.0
  0
SEQEND
  5
4529
330
4522
100
AcDbEntity
  8
0
  0
LINE
  5
452A
330
18
100
AcDbEntity
  8
0
100
AcDbLine
 10
699.7868173888535
 20
1204.989551745125
 30
0.0
 11
699.7269394446416
 21
1204.696035865492
 31
0.0
1001
ACAD
1000
ASC_BOUNDS
1002
{
1070
    19
1002
}
  0
LINE
  5
452B
330
18
100
AcDbEntity
  8
0
100
AcDbLine
 10
699.7269394446416
 20
1204.696035865492
 30
0.0
 11
699.7598041039284
 21
1204.631045710446
 31
0.0
1001
ACAD
1000
ASC_BOUNDS
1002
{
1070
    19
1002
}
  0
LINE
  5
452C
330
18
100
AcDbEntity
  8
0
100
AcDbLine
 10
699.7598041039284
 20
1204.631045710446
 30
0.0
 11
699.8700565949985
 21
1204.607577978002
 31
0.0
  0
LINE
  5
452D
330
18
100
AcDbEntity
  8
0
100
AcDbLine
 10
699.8700565949985
 20
1204.607577978002
 30
0.0
 11
700.1207312658711
 21
1204.735304921485
 31
0.0
1001
ACAD
1000
ASC_BOUNDS
1002
{
1070
    19
1002
}
  0
LINE
  5
452E
330
18
100
AcDbEntity
  8
0
100
AcDbLine
 10
694.2030934643952
 20
1209.846074767033
 30
0.0
 11
694.4818331505383
 21
1209.299017330707
 31
0.0
1001
ACAD
1000
ASC_BOUNDS
1002
{
1070
    19
1002
}
  0
LWPOLYLINE
  5
452F
330
18
100
AcDbEntity
  8
0
100
AcDbPolyline
 90
        4
 70
     0
 43
0.0
 10
694.8018903369057
 20
1209.455119650703
 10
694.2769464443735
 20
1209.199087407147
 10
694.3103918468428
 20
1209.130514169981
 10
694.8318945490515
 20
1209.396233068736
1001
ACAD
1000
ASC_BOUNDS
1002
{
1070
    19
1002
}
  0
LINE
  5
4530
330
18
100
AcDbEntity
  8
0
100
AcDbLine
 10
696.5071431742309
 20
1209.846074767033
 30
0.0
 11
695.8557265975453
 21
1208.668694663866
 31
0.0
1001
ACAD
1000
ASC_BOUNDS
1002
{
1070
    19
1002
}
  0
LINE
  5
4531
330
18
100
AcDbEntity
  8
0
100
AcDbLine
 10
696.3618203337077
 20
1209.846074767033
 30
0.0
 11
695.8764777865386
 21
1208.968859358785
 31
0.0
1001
ACAD
1000
ASC_BOUNDS
1002
{
1070
    19
1002
}
  0
CIRCLE
  5
4532
330
18
100
AcDbEntity
  8
0
100
AcDbCircle
 10
695.7498537619102
 20
1208.042010985272
 30
0.0
 40
0.0190736791838594
1001
ACAD
1000
ASC_BOUNDS
1002
{
1070
    19
1002
}
  0
LWPOLYLINE
  5
4533
330
18
100
AcDbEntity
  8
0
100
AcDbPolyline
 90
        2
 70
     1
 43
0.0
 10
695.7689274410941
 20
1208.042010985272
 42
-1.0
 10
695.7307800827264
 20
1208.042010985272
 42
-1.0
1001
ACAD
1000
ASC_BOUNDS
1002
{
1070
    19
1002
}
  0
LINE
  5
4534
330
18
100
AcDbEntity
  8
0
100
AcDbLine
 10
695.8101190973905
 20
1208.008984929916
 30
0.0
 11
695.8052722267228
 21
1208.008984929916
 31
0.0
  0
LINE
  5
4535
330
18
100
AcDbEntity
  8
0
100
AcDbLine
 10
695.9371220362876
 20
1209.846074767033
 30
0.0
 11
695.8095128154647
 21
1208.000215098494
 31
0.0
1001
ACAD
1000
ASC_BOUNDS
1002
{
1070
    19
1005
0
1002
}
  0
LWPOLYLINE
  5
4536
330
18
100
AcDbEntity
  8
0
100
AcDbPolyline
 90
        3
 70
     0
 43
0.0
 10
695.8096606727594
 20
1209.846074767033
 10
695.6826577338624
 20
1208.008984929916
 10
695.8098155950881
 20
1208.008984929916
1001
ACAD
1000
ASC_BOUNDS
1002
{
1070
    19
1005
0
1002
}
  0
TEXT
  5
4537
330
18
100
AcDbEntity
  8
0
100
AcDbText
 10
713.7340153889742
 20
1198.598362645257
 30
0.0
 40
1.802314571558073
  1
www.PrecisionLadders.com
 50
359.9999999999881
  7
ROMANS
100
AcDbText
  0
LWPOLYLINE
  5
4538
330
18
100
AcDbEntity
  8
0
100
AcDbPolyline
 90
        9
 70
     0
 43
0.0
 10
701.6296751535301
 20
1201.291354332291
 10
701.6299158473924
 20
1201.329500931313
 10
701.5154760503281
 20
1201.3302230129
 10
701.4391828522853
 20
1201.330704400624
 10
701.4389421584231
 20
1201.292557801603
 42
0.4142135623730939
 10
701.4515774601427
 20
1201.279762037308
 10
701.6168793892354
 20
1201.278719030572
 42
0.4142135623730989
 10
701.6296751535301
 20
1201.291354332291
 42
-0.4142135623730944
 10
701.6168793892354
 20
1201.278719030572
1001
ACAD
1000
ASC_BOUNDS
1002
{
1070
    19
1002
}
  0
LINE
  5
4539
330
18
100
AcDbEntity
  8
0
100
AcDbLine
 10
701.5711395447809
 20
1201.36221363875
 30
0.0
 11
701.5706878511514
 21
1201.329874642614
 31
0.0
1001
ACAD
1000
ASC_BOUNDS
1002
{
1070
    19
1002
}
  0
LINE
  5
453A
330
18
100
AcDbEntity
  8
0
100
AcDbLine
 10
701.5012041132417
 20
1201.36265491083
 30
0.0
 11
701.5711395447809
 21
1201.36221363875
 31
0.0
1001
ACAD
1000
ASC_BOUNDS
1002
{
1070
    19
1002
}
  0
LINE
  5
453B
330
18
100
AcDbEntity
  8
0
100
AcDbLine
 10
701.5010257791845
 20
1201.334391465723
 30
0.0
 11
701.5012041132417
 21
1201.36265491083
 31
0.0
1001
ACAD
1000
ASC_BOUNDS
1002
{
1070
    19
1002
}
  0
TEXT
  5
453D
330
18
100
AcDbEntity
  8
0
100
AcDbText
 10
764.9243053834021
 20
1201.37278397807
 30
0.0
 40
1.21605
  1
CHECKED BY:
 50
359.9999999999881
  7
ROMANS
100
AcDbText
  0
TEXT
  5
453E
330
18
100
AcDbEntity
  8
0
100
AcDbText
 10
764.9243053834047
 20
1212.708841126153
 30
0.0
 40
1.21605
  1
DWG. CHECK
 50
359.9999999999881
  7
ROMANS
100
AcDbText
  0
TEXT
  5
453F
330
18
100
AcDbEntity
  8
0
100
AcDbText
 10
764.9243053834035
 20
1207.040812552111
 30
0.0
 40
1.21605
  1
BUILT BY:
 50
359.9999999999881
  7
ROMANS
100
AcDbText
  0
TEXT
  5
4540
330
18
100
AcDbEntity
  8
0
100
AcDbText
 10
799.5804576958729
 20
1201.372783978062
 30
0.0
 40
1.21605
  1
DRAWN BY:
 50
359.9999999999881
  7
ROMANS
100
AcDbText
  0
TEXT
  5
4541
330
18
100
AcDbEntity
  8
0
100
AcDbText
 10
799.5804576958741
 20
1207.040812552103
 30
0.0
 40
1.21605
  1
PURCHASE ORDER
 50
359.9999999999881
  7
ROMANS
100
AcDbText
  0
TEXT
  5
4542
330
18
100
AcDbEntity
  8
0
100
AcDbText
 10
799.5804576958756
 20
1212.708841126145
 30
0.0
 40
1.21605
  1
ARCH'T OR ENG'R.
 50
359.9999999999881
  7
ROMANS
100
AcDbText
  0
TEXT
  5
4543
330
18
100
AcDbEntity
  8
0
100
AcDbText
 10
932.8343910815807
 20
1206.579436630144
 30
0.0
 40
1.21605
  1
SERIAL#
 50
359.9999999999881
  7
ROMANS
100
AcDbText
  0
TEXT
  5
4544
330
18
100
AcDbEntity
  8
0
100
AcDbText
 10
932.6804576958755
 20
1212.708841126115
 30
0.0
 40
1.21605
  1
PRECISION REP
 50
359.9999999999881
  7
ROMANS
100
AcDbText
  0
TEXT
  5
4545
330
18
100
AcDbEntity
  8
0
100
AcDbText
 10
847.9804576958729
 20
1201.372783978051
 30
0.0
 40
1.21605
  1
DATE
 50
359.9999999999881
  7
ROMANS
100
AcDbText
  0
TEXT
  5
4546
330
18
100
AcDbEntity
  8
0
100
AcDbText
 10
866.130457695873
 20
1201.372783978047
 30
0.0
 40
1.21605
  1
MODEL#
 50
359.9999999999881
  7
ROMANS
100
AcDbText
  0
TEXT
  5
4547
330
18
100
AcDbEntity
  8
0
100
AcDbText
 10
847.9804576958756
 20
1212.708841126134
 30
0.0
 40
1.21605
  1
PROJECT
 50
359.9999999999881
  7
ROMANS
100
AcDbText
  0
TEXT
  5
4548
330
18
100
AcDbEntity
  8
0
100
AcDbText
 10
847.9804576958743
 20
1207.040812552092
 30
0.0
 40
1.21605
  1
WORK ORDER
 50
359.9999999999881
  7
ROMANS
100
AcDbText
  0
TEXT
  5
4549
330
18
100
AcDbEntity
  8
0
100
AcDbText
 10
866.1304576958743
 20
1207.040812552088
 30
0.0
 40
1.21605
  1
PURCHASER
 50
359.9999999999881
  7
ROMANS
100
AcDbText
  0
TEXT
  5
454A
330
18
100
AcDbEntity
  8
0
100
AcDbText
 10
920.580457695873
 20
1201.372783978034
 30
0.0
 40
1.21605
  1
QTY.
 50
359.9999999999881
  7
ROMANS
100
AcDbText
  0
LINE
  5
454B
330
18
100
AcDbEntity
  8
0
100
AcDbLine
 10
764.4705553834025
 20
1203.18778397807
 30
0.0
 11
932.2267076958734
 21
1203.187783978031
 31
0.0
  0
LINE
  5
454C
330
18
100
AcDbEntity
  8
0
100
AcDbLine
 10
992.726707695872
 20
1197.519755403976
 30
0.0
 11
992.7267076959251
 21
1431.269755403976
 31
0.0
  0
LINE
  5
454D
330
18
100
AcDbEntity
  8
0
100
AcDbLine
 10
992.7267076959251
 20
1431.269755403976
 30
0.0
 11
690.2267076959252
 21
1431.269755404045
 31
0.0
  0
LINE
  5
454E
330
18
100
AcDbEntity
  8
0
100
AcDbLine
 10
690.2267076959252
 20
1431.269755404045
 30
0.0
 11
690.226707695872
 21
1197.519755404045
 31
0.0
  0
LINE
  5
454F
330
18
100
AcDbEntity
  8
0
100
AcDbLine
 10
690.226707695872
 20
1197.519755404045
 30
0.0
 11
992.726707695872
 21
1197.519755403976
 31
0.0
  0
LINE
  5
4550
330
18
100
AcDbEntity
  8
0
100
AcDbLine
 10
764.4705553834012
 20
1197.519755404028
 30
0.0
 11
764.470555383405
 21
1214.523841126153
 31
0.0
  0
LINE
  5
4551
330
18
100
AcDbEntity
  8
0
100
AcDbLine
 10
799.126707695872
 20
1197.51975540402
 30
0.0
 11
799.1267076958759
 21
1214.523841126145
 31
0.0
  0
LINE
  5
4552
330
18
100
AcDbEntity
  8
0
100
AcDbLine
 10
847.526707695872
 20
1197.519755404009
 30
0.0
 11
847.5267076958759
 21
1214.523841126134
 31
0.0
  0
LINE
  5
4553
330
18
100
AcDbEntity
  8
0
100
AcDbLine
 10
865.676707695872
 20
1197.519755404005
 30
0.0
 11
865.6767076958747
 21
1208.855812552088
 31
0.0
  0
LINE
  5
4554
330
18
100
AcDbEntity
  8
0
100
AcDbLine
 10
932.2267076958722
 20
1197.51975540399
 30
0.0
 11
932.2267076958761
 21
1214.523841126115
 31
0.0
  0
LINE
  5
4555
330
18
100
AcDbEntity
  8
0
100
AcDbLine
 10
920.1267076958721
 20
1197.519755403993
 30
0.0
 11
920.1267076958734
 21
1203.187783978034
 31
0.0
  0
LINE
  5
4556
330
18
100
AcDbEntity
  8
0
100
AcDbLine
 10
690.2267076958759
 20
1214.52384112617
 30
0.0
 11
992.7267076958759
 21
1214.523841126101
 31
0.0
  0
LINE
  5
4557
330
18
100
AcDbEntity
  8
0
100
AcDbLine
 10
764.4705553834038
 20
1208.855812552111
 30
0.0
 11
992.7267076958747
 21
1208.855812552059
 31
0.0
  0
LINE
  5
4560
102
{ACAD_REACTORS
330
4B9E
102
}
330
18
100
AcDbEntity
  8
0
100
AcDbLine
 10
848.4523449749016
 20
1365.951236884245
 30
0.0
 11
889.4523449749014
 21
1365.951236884239
 31
0.0
  0
LEADER
  5
457E
330
18
100
AcDbEntity
  8
0
100
AcDbLeader
  3
STANDARD
 73
     0
 40
2.0625
 41
19.74107142857143
 76
     3
 10
853.2016219822022
 20
1367.201236884245
 30
0.0
 10
853.2016219822043
 20
1376.92556727279
 30
0.0
 10
855.4498229565144
 20
1376.925567272789
 30
0.0
340
457F
211
1.0
221
-0.0000000000002274
231
0.0
213
0.0
223
-1.03125
233
0.0
1001
ACAD
1000
DSTYLE
1002
{
1070
   147
1040
0.0625
1070
    77
1070
     0
1002
}
  0
MTEXT
  5
457F
102
{ACAD_REACTORS
330
457E
102
}
330
18
100
AcDbEntity
  8
0
100
AcDbMText
 10
856.1373229565145
 20
1377.956817272789
 30
0.0
 40
2.0625
 41
0.0
 46
0.0
 71
     1
 72
     1
  1
BAR GRATING
  7
ROMANS
 73
     1
 44
1.0
  0
LINE
  5
4582
330
18
100
AcDbEntity
  8
0
100
AcDbLine
 10
848.2023449748997
 20
1356.450028385282
 30
0.0
 11
848.2023449749021
 21
1367.201236884243
 31
0.0
  0
LINE
  5
4584
330
18
100
AcDbEntity
  8
0
100
AcDbLine
 10
848.2023449749021
 20
1367.201236884243
 30
0.0
 11
848.4523449749021
 21
1367.201236884243
 31
0.0
  0
LINE
  5
4585
330
18
100
AcDbEntity
  8
0
100
AcDbLine
 10
848.4523449749021
 20
1367.201236884243
 30
0.0
 11
848.4523449749003
 21
1357.201236884243
 31
0.0
  0
LINE
  5
4586
330
18
100
AcDbEntity
  8
0
100
AcDbLine
 10
848.4523449749003
 20
1357.201236884243
 30
0.0
 11
848.2023449748997
 21
1357.201236884243
 31
0.0
  0
LINE
  5
4592
330
18
100
AcDbEntity
  8
0
100
AcDbLine
 10
847.6398449748762
 20
1367.201236884243
 30
0.0
 11
846.9327381936897
 21
1366.494130103057
 31
0.0
  0
LINE
  5
4593
330
18
100
AcDbEntity
  8
0
100
AcDbLine
 10
846.9327381936897
 20
1366.494130103057
 30
0.0
 11
846.9327381937002
 21
1408.494130103059
 31
0.0
  0
LINE
  5
4594
330
18
100
AcDbEntity
  8
0
100
AcDbLine
 10
736.6398449749229
 20
1256.201236884299
 30
0.0
 11
736.6398449749381
 21
1298.201236884296
 31
0.0
  0
LINE
  5
4595
330
18
100
AcDbEntity
  8
0
100
AcDbLine
 10
847.639844974886
 20
1401.201236884246
 30
0.0
 11
819.7975154656637
 21
1373.358907375024
 31
0.0
  0
LINE
  5
45A2
330
18
100
AcDbEntity
  8
0
100
AcDbLine
 10
763.8395700095879
 20
1283.400961918955
 30
0.0
 11
763.8395700095967
 21
1323.014476532434
 31
0.0
  0
LINE
  5
45A4
330
18
100
AcDbEntity
  8
0
100
AcDbLine
 10
790.9747927376217
 20
1310.536184647003
 30
0.0
 11
790.9747927376304
 21
1350.149699260485
 31
0.0
  0
LINE
  5
45A6
330
18
100
AcDbEntity
  8
0
100
AcDbLine
 10
818.1100154656556
 20
1337.671407375034
 30
0.0
 11
818.1100154656643
 21
1377.284921988518
 31
0.0
  0
LINE
  5
45AD
330
18
100
AcDbEntity
  8
0
100
AcDbLine
 10
845.2452381936952
 20
1385.806630103064
 30
0.0
 11
819.7975154656607
 21
1360.358907375029
 31
0.0
  0
LINE
  5
45C5
330
18
100
AcDbEntity
  8
0
100
AcDbLine
 10
733.2966992243707
 20
1247.451236884244
 30
0.0
 11
738.9535534738638
 21
1247.451236884244
 31
0.0
  0
LEADER
  5
45C6
330
18
100
AcDbEntity
  8
0
100
AcDbLeader
  3
STANDARD
 73
     0
 40
5.892857142857142
 41
22.78571428571428
 76
     3
 10
735.7383914879214
 20
1247.201236884243
 30
0.0
 10
729.1852757467068
 20
1241.912000453445
 30
0.0
 10
726.3469411691055
 20
1241.912000453446
 30
0.0
340
45C7
211
1.0
221
-0.0000000000002274
231
0.0
213
0.0
223
1.03125
233
0.0
1001
ACAD
1000
DSTYLE
1002
{
1070
   147
1040
0.0625
1070
    77
1070
     0
1002
}
  0
MTEXT
  5
45C7
102
{ACAD_REACTORS
330
45C6
102
}
330
18
100
AcDbEntity
  8
0
100
AcDbMText
 10
725.6594411691055
 20
1240.880750453446
 30
0.0
 40
2.0625
 41
0.0
 46
0.0
 71
     6
 72
     1
  1
4" FLAT BAR\PFOR MOUNTING
  7
ROMANS
 73
     1
 44
1.0
  0
DIMENSION
  5
45DC
330
18
100
AcDbEntity
  8
0
100
AcDbDimension
  2
*D6
 10
803.8844685980585
 20
1293.201236884243
 30
0.0
 11
803.8844685980581
 21
1297.826236884244
 31
0.0
 70
    32
  1
6-1/2" MIN.\P9-1/2" MAX.
 71
     5
 42
9.25
 73
     0
 74
     0
 75
     0
 51
0.0000000000130276
  3
STANDARD$0
100
AcDbAlignedDimension
 13
792.889844974877
 23
1302.451236884244
 33
0.0
 14
783.6398449748771
 24
1293.201236884243
 34
0.0
 50
89.99999999998697
100
AcDbRotatedDimension
  0
LEADER
  5
45F5
330
18
100
AcDbEntity
  8
0
100
AcDbLeader
  3
STANDARD
 73
     0
 40
6.973214285714286
 41
35.16071428571429
 76
     3
 10
937.7536247705513
 20
1367.201236884242
 30
0.0
 10
937.7536247705528
 20
1373.136285648946
 30
0.0
 10
927.3541643262779
 20
1373.136285648948
 30
0.0
340
45F6
211
1.0
221
-0.0000000000002274
231
0.0
213
0.0
223
1.03125
233
0.0
1001
ACAD
1000
DSTYLE
1002
{
1070
   147
1040
0.0625
1070
    77
1070
     0
1002
}
  0
MTEXT
  5
45F6
102
{ACAD_REACTORS
330
45F5
102
}
330
18
100
AcDbEntity
  8
0
100
AcDbMText
 10
926.6666643262778
 20
1372.105035648949
 30
0.0
 40
2.0625
 41
0.0
 46
0.0
 71
     9
 72
     1
  1
1/4" MOUNTING PLATE \P(DIMENSIONS VARY)
  7
ROMANS
 73
     1
 44
1.0
  0
LEADER
  5
463C
330
18
100
AcDbEntity
  8
0
100
AcDbLeader
  3
STANDARD
 73
     0
 40
3.4375
 76
     3
 10
856.3709974879323
 20
1357.951236884244
 30
0.0
 10
849.0387450299454
 20
1345.729006829934
 30
0.0
 10
851.0353567885065
 20
1345.729006829934
 30
0.0
340
463D
211
1.0
221
-0.0000000000002274
231
0.0
213
0.0
223
-1.03125
233
0.0
1001
ACAD
1000
DSTYLE
1002
{
1070
   147
1040
0.0625
1070
    77
1070
     0
1002
}
  0
MTEXT
  5
463D
102
{ACAD_REACTORS
330
463C
102
}
330
18
100
AcDbEntity
  8
0
 62
     7
100
AcDbMText
 10
844.845702329008
 20
1346.760256829935
 30
0.0
 40
2.0625
 41
0.0
 46
0.0
 71
     1
 72
     1
  1
\A1;
  7
ROMANS
 73
     1
 44
1.0
  0
TEXT
  5
46E4
330
18
100
AcDbEntity
  8
0
100
AcDbText
 10
702.6834819580147
 20
1414.954584923211
 30
0.0
 40
2.763749999999999
  1
BAR GRATING TREAD
 50
359.999999999987
  7
ROMANS
100
AcDbText
  0
TEXT
  5
46E6
330
18
100
AcDbEntity
  8
0
100
AcDbText
 10
697.9826476945701
 20
1415.147105539552
 30
0.0
 40
2.763749999999999
  1
A
 50
359.999999999987
  7
ROMANS
 72
     1
 11
699.1671119802844
 21
1415.147105539551
 31
0.0
100
AcDbText
  0
TEXT
  5
46E7
330
18
100
AcDbEntity
  8
0
100
AcDbText
 10
706.5564595340656
 20
1386.92615931213
 30
0.0
 40
1.442130159474535
  1
TREAD WELDED AND BOLTED
 50
359.999999999987
  7
ROMANS
100
AcDbText
  0
TEXT
  5
46E8
330
18
100
AcDbEntity
  8
0
100
AcDbText
 10
708.7638691280655
 20
1384.591281911076
 30
0.0
 40
1.442130159474535
  1
TO STRINGER WITH 3/8"
 50
359.999999999987
  7
ROMANS
100
AcDbText
  0
TEXT
  5
46E9
330
18
100
AcDbEntity
  8
0
100
AcDbText
 10
710.7706054073568
 20
1382.256404510021
 30
0.0
 40
1.442130159474535
  1
HEX HEAD BOLTS
 50
359.999999999987
  7
ROMANS
100
AcDbText
  0
LINE
  5
46EA
330
18
100
AcDbEntity
  8
0
100
AcDbLine
 10
743.6884842629963
 20
1401.988804809906
 30
0.0
 11
701.5903123841187
 21
1401.988804809915
 31
0.0
  0
LINE
  5
46EB
330
18
100
AcDbEntity
  8
0
100
AcDbLine
 10
701.5903123841187
 20
1401.988804809915
 30
0.0
 11
701.5903123841164
 21
1392.128973890714
 31
0.0
  0
LINE
  5
46EC
330
18
100
AcDbEntity
  8
0
100
AcDbLine
 10
743.6884842629965
 20
1401.988804809906
 30
0.0
 11
743.6884842629941
 21
1392.128973890704
 31
0.0
  0
LINE
  5
46ED
330
18
100
AcDbEntity
  8
0
100
AcDbLine
 10
743.6884842629941
 20
1392.128973890704
 30
0.0
 11
701.5903123841164
 21
1392.128973890714
 31
0.0
  0
LINE
  5
46EE
330
18
100
AcDbEntity
  8
0
  6
HIDDEN
100
AcDbLine
 10
743.6884842629954
 20
1396.699803890705
 30
0.0
 11
742.7743182629954
 21
1396.699803890705
 31
0.0
  0
LINE
  5
46EF
330
18
100
AcDbEntity
  8
0
  6
HIDDEN
100
AcDbLine
 10
702.5044783841183
 20
1400.160472809915
 30
0.0
 11
702.504478384117
 21
1394.871471890714
 31
0.0
  0
LINE
  5
46F0
330
18
100
AcDbEntity
  8
0
  6
HIDDEN
100
AcDbLine
 10
742.7743182629964
 20
1401.074638809906
 30
0.0
 11
739.3520109687178
 21
1401.074638809907
 31
0.0
  0
LINE
  5
46F1
330
18
100
AcDbEntity
  8
0
  6
HIDDEN
100
AcDbLine
 10
742.7743182629967
 20
1401.988804809906
 30
0.0
 11
742.7743182629954
 21
1396.699803890705
 31
0.0
  0
LINE
  5
46F2
330
18
100
AcDbEntity
  8
0
  6
HIDDEN
100
AcDbLine
 10
706.1611423841186
 20
1401.988804809914
 30
0.0
 11
706.1611423841175
 21
1396.699803890713
 31
0.0
  0
LINE
  5
46F3
330
18
100
AcDbEntity
  8
0
  6
HIDDEN
100
AcDbLine
 10
707.0753083841188
 20
1401.988804809914
 30
0.0
 11
707.0753083841176
 21
1396.699803890713
 31
0.0
  0
LINE
  5
46F4
330
18
100
AcDbEntity
  8
0
  6
HIDDEN
100
AcDbLine
 10
710.7319723841187
 20
1401.988804809913
 30
0.0
 11
710.7319723841174
 21
1396.699803890712
 31
0.0
  0
LINE
  5
46F5
330
18
100
AcDbEntity
  8
0
  6
HIDDEN
100
AcDbLine
 10
711.6461383841188
 20
1401.988804809913
 30
0.0
 11
711.6461383841175
 21
1396.699803890712
 31
0.0
  0
LINE
  5
46F6
330
18
100
AcDbEntity
  8
0
  6
HIDDEN
100
AcDbLine
 10
729.1709227293276
 20
1401.988804809909
 30
0.0
 11
729.1709227293265
 21
1396.699803890708
 31
0.0
  0
LINE
  5
46F7
330
18
100
AcDbEntity
  8
0
  6
HIDDEN
100
AcDbLine
 10
730.0850887293277
 20
1401.988804809908
 30
0.0
 11
730.0850887293263
 21
1396.699803890708
 31
0.0
  0
LINE
  5
46F8
330
18
100
AcDbEntity
  8
0
  6
HIDDEN
100
AcDbLine
 10
738.4378449687183
 20
1401.988804809907
 30
0.0
 11
738.437844968717
 21
1396.699803890706
 31
0.0
  0
LINE
  5
46F9
330
18
100
AcDbEntity
  8
0
  6
HIDDEN
100
AcDbLine
 10
739.3520109687183
 20
1401.988804809907
 30
0.0
 11
739.352010968717
 21
1396.699803890706
 31
0.0
  0
LINE
  5
46FA
330
18
100
AcDbEntity
  8
0
  6
HIDDEN
100
AcDbLine
 10
706.1611423841185
 20
1401.074638809914
 30
0.0
 11
701.5903123841185
 21
1401.074638809915
 31
0.0
  0
LINE
  5
46FB
330
18
100
AcDbEntity
  8
0
  6
HIDDEN
100
AcDbLine
 10
710.7319723841185
 20
1401.074638809913
 30
0.0
 11
707.0753083841187
 21
1401.074638809914
 31
0.0
  0
LINE
  5
46FC
330
18
100
AcDbEntity
  8
0
  6
HIDDEN
100
AcDbLine
 10
738.4378449687179
 20
1401.074638809907
 30
0.0
 11
734.6559187293275
 21
1401.074638809908
 31
0.0
  0
LINE
  5
46FD
330
18
100
AcDbEntity
  8
0
  6
HIDDEN
100
AcDbLine
 10
706.1611423841183
 20
1400.160472809914
 30
0.0
 11
702.5044783841183
 21
1400.160472809915
 31
0.0
  0
LINE
  5
46FE
330
18
100
AcDbEntity
  8
0
  6
HIDDEN
100
AcDbLine
 10
707.0753083841176
 20
1396.699803890713
 30
0.0
 11
706.1611423841175
 21
1396.699803890713
 31
0.0
  0
LINE
  5
46FF
330
18
100
AcDbEntity
  8
0
  6
HIDDEN
100
AcDbLine
 10
711.6461383841176
 20
1396.699803890712
 30
0.0
 11
710.7319723841174
 21
1396.699803890712
 31
0.0
  0
LINE
  5
4700
330
18
100
AcDbEntity
  8
0
  6
HIDDEN
100
AcDbLine
 10
730.0850887293266
 20
1396.699803890708
 30
0.0
 11
729.1709227293265
 21
1396.699803890708
 31
0.0
  0
LINE
  5
4701
330
18
100
AcDbEntity
  8
0
  6
HIDDEN
100
AcDbLine
 10
739.352010968717
 20
1396.699803890706
 30
0.0
 11
738.437844968717
 21
1396.699803890706
 31
0.0
  0
CIRCLE
  5
4702
330
18
100
AcDbEntity
  8
0
100
AcDbCircle
 10
705.704059384117
 20
1394.871471890713
 30
0.0
 40
0.7998952500000001
  0
ARC
  5
4703
330
18
100
AcDbEntity
  8
0
100
AcDbCircle
 10
732.7152807505313
 20
1394.871471890707
 30
0.0
 40
0.7998952500000001
100
AcDbArc
 50
89.99999999998697
 51
269.999999999987
  0
ARC
  5
4704
330
18
100
AcDbEntity
  8
0
100
AcDbCircle
 10
735.9148617505312
 20
1394.871471890706
 30
0.0
 40
0.7998952500000001
100
AcDbArc
 50
269.999999999987
 51
89.99999999998697
  0
LINE
  5
4705
330
18
100
AcDbEntity
  8
0
100
AcDbLine
 10
732.7152807505312
 20
1394.071576640707
 30
0.0
 11
735.9148617505312
 21
1394.071576640707
 31
0.0
  0
LINE
  5
4706
330
18
100
AcDbEntity
  8
0
100
AcDbLine
 10
732.7152807505314
 20
1395.671367140707
 30
0.0
 11
735.9148617505314
 21
1395.671367140706
 31
0.0
  0
LINE
  5
4707
330
18
100
AcDbEntity
  8
0
  6
HIDDEN
100
AcDbLine
 10
702.504478384117
 20
1394.871471890714
 30
0.0
 11
701.590312384117
 21
1394.871471890714
 31
0.0
  0
DIMENSION
  5
4708
330
18
100
AcDbEntity
  8
0
100
AcDbDimension
  2
*D7
 10
743.6884842629963
 20
1405.882706949929
 30
0.0
 11
722.6393983235575
 21
1405.882706949929
 31
0.0
 70
    32
  1
AS REQ'D
 71
     5
 42
42.09817187887757
 73
     0
 74
     0
 75
     0
  3
STANDARD$0
100
AcDbAlignedDimension
 13
701.5903123841187
 23
1401.988804809915
 33
0.0
 14
743.6884842629963
 24
1401.988804809906
 34
0.0
 50
359.999999999987
100
AcDbRotatedDimension
  0
DIMENSION
  5
4709
330
18
100
AcDbEntity
  8
0
100
AcDbDimension
  2
*D8
 10
750.4789899624088
 20
1396.699803890705
 30
0.0
 11
750.4789899624086
 21
1399.344304350306
 31
0.0
 70
    32
  1
VARIES
 71
     5
 42
5.289000919200816
 73
     0
 74
     0
 75
     0
  3
STANDARD$0
100
AcDbAlignedDimension
 13
743.6884842629963
 23
1401.988804809906
 33
0.0
 14
743.6884842629954
 24
1396.699803890705
 34
0.0
 50
89.99999999998697
100
AcDbRotatedDimension
  0
TEXT
  5
470A
330
18
100
AcDbEntity
  8
0
100
AcDbText
 10
711.5501470056661
 20
1412.413876675709
 30
0.0
 40
1.358260529472
  1
(GROOVED NOSING)
 50
359.999999999987
  7
ROMANS
100
AcDbText
  0
LINE
  5
470B
330
18
100
AcDbEntity
  8
0
  6
HIDDEN
100
AcDbLine
 10
734.6559187293276
 20
1401.988804809908
 30
0.0
 11
734.6559187293264
 21
1396.699803890707
 31
0.0
  0
LINE
  5
470C
330
18
100
AcDbEntity
  8
0
  6
HIDDEN
100
AcDbLine
 10
733.7417527293276
 20
1401.988804809908
 30
0.0
 11
733.7417527293263
 21
1396.699803890707
 31
0.0
  0
LINE
  5
470D
330
18
100
AcDbEntity
  8
0
  6
HIDDEN
100
AcDbLine
 10
734.6559187293264
 20
1396.699803890707
 30
0.0
 11
733.7417527293264
 21
1396.699803890707
 31
0.0
  0
LINE
  5
470E
330
18
100
AcDbEntity
  8
0
  6
HIDDEN
100
AcDbLine
 10
733.7417527293273
 20
1401.074638809908
 30
0.0
 11
730.0850887293274
 21
1401.074638809909
 31
0.0
  0
LINE
  5
470F
330
18
100
AcDbEntity
  8
0
  6
HIDDEN
100
AcDbLine
 10
724.6000927293278
 20
1401.98880480991
 30
0.0
 11
724.6000927293265
 21
1396.699803890709
 31
0.0
  0
LINE
  5
4710
330
18
100
AcDbEntity
  8
0
  6
HIDDEN
100
AcDbLine
 10
725.5142587293278
 20
1401.98880480991
 30
0.0
 11
725.5142587293265
 21
1396.699803890709
 31
0.0
  0
LINE
  5
4711
330
18
100
AcDbEntity
  8
0
  6
HIDDEN
100
AcDbLine
 10
725.5142587293265
 20
1396.699803890709
 30
0.0
 11
724.6000927293267
 21
1396.699803890709
 31
0.0
  0
LINE
  5
4712
330
18
100
AcDbEntity
  8
0
  6
HIDDEN
100
AcDbLine
 10
729.1709227293275
 20
1401.074638809909
 30
0.0
 11
725.5142587293276
 21
1401.07463880991
 31
0.0
  0
LINE
  5
4713
330
18
100
AcDbEntity
  8
0
  6
HIDDEN
100
AcDbLine
 10
720.9434287293279
 20
1401.988804809911
 30
0.0
 11
720.9434287293268
 21
1396.69980389071
 31
0.0
  0
LINE
  5
4714
330
18
100
AcDbEntity
  8
0
  6
HIDDEN
100
AcDbLine
 10
720.0292627293279
 20
1401.988804809911
 30
0.0
 11
720.0292627293268
 21
1396.69980389071
 31
0.0
  0
LINE
  5
4715
330
18
100
AcDbEntity
  8
0
  6
HIDDEN
100
AcDbLine
 10
720.9434287293268
 20
1396.69980389071
 30
0.0
 11
720.0292627293268
 21
1396.69980389071
 31
0.0
  0
LINE
  5
4716
330
18
100
AcDbEntity
  8
0
  6
HIDDEN
100
AcDbLine
 10
724.6000927293275
 20
1401.07463880991
 30
0.0
 11
720.9434287293277
 21
1401.074638809911
 31
0.0
  0
LINE
  5
4717
330
18
100
AcDbEntity
  8
0
  6
HIDDEN
100
AcDbLine
 10
715.4584327293278
 20
1401.988804809912
 30
0.0
 11
715.4584327293266
 21
1396.699803890711
 31
0.0
  0
LINE
  5
4718
330
18
100
AcDbEntity
  8
0
  6
HIDDEN
100
AcDbLine
 10
716.372598729328
 20
1401.988804809912
 30
0.0
 11
716.3725987293267
 21
1396.699803890711
 31
0.0
  0
LINE
  5
4719
330
18
100
AcDbEntity
  8
0
  6
HIDDEN
100
AcDbLine
 10
716.3725987293267
 20
1396.699803890711
 30
0.0
 11
715.4584327293266
 21
1396.699803890711
 31
0.0
  0
LINE
  5
471A
330
18
100
AcDbEntity
  8
0
  6
HIDDEN
100
AcDbLine
 10
720.0292627293277
 20
1401.074638809911
 30
0.0
 11
716.3725987293278
 21
1401.074638809912
 31
0.0
  0
LINE
  5
471B
330
18
100
AcDbEntity
  8
0
  6
HIDDEN
100
AcDbLine
 10
715.4584327293276
 20
1401.074638809912
 30
0.0
 11
711.8017687293278
 21
1401.074638809913
 31
0.0
  0
LWPOLYLINE
  5
47F0
330
18
100
AcDbEntity
  8
0
  6
HIDDEN
100
AcDbPolyline
 90
        5
 70
     0
 43
0.0
 10
847.4442117493657
 20
1355.701236884265
 10
838.3898449748993
 20
1355.701236884267
 10
838.3898449748999
 20
1357.951236884266
 10
848.2023449748998
 20
1357.951236884264
 10
848.2023449748998
 20
1357.915215761803
  0
LWPOLYLINE
  5
47F1
330
18
100
AcDbEntity
  8
0
  6
Continuous
100
AcDbPolyline
 90
        3
 70
     0
 43
0.0
 10
848.2023449748998
 20
1357.915215761803
 10
848.2023449748995
 20
1355.701236884265
 10
846.2567117493657
 20
1355.701236884265
  0
LINE
  5
482E
330
18
100
AcDbEntity
  8
0
100
AcDbLine
 10
889.4523449749017
 20
1357.951236884239
 30
0.0
 11
848.4523449749005
 21
1357.951236884247
 31
0.0
  0
LINE
  5
4835
330
18
100
AcDbEntity
  8
0
100
AcDbLine
 10
847.6398449748762
 20
1367.201236884243
 30
0.0
 11
848.2023449749021
 21
1367.201236884243
 31
0.0
  0
LWPOLYLINE
  5
4836
330
18
100
AcDbEntity
  8
0
  6
HIDDEN
100
AcDbPolyline
 90
        5
 70
     0
 43
0.0
 10
838.1942117493677
 20
1346.451236884267
 10
829.1398449749015
 20
1346.451236884269
 10
829.1398449749019
 20
1348.701236884269
 10
838.9523449749018
 20
1348.701236884267
 10
838.9523449749018
 20
1348.665215761805
  0
LWPOLYLINE
  5
4837
330
18
100
AcDbEntity
  8
0
  6
Continuous
100
AcDbPolyline
 90
        3
 70
     0
 43
0.0
 10
838.9523449749018
 20
1348.665215761805
 10
838.9523449749015
 20
1346.451236884267
 10
837.0067117493677
 20
1346.451236884267
  0
LWPOLYLINE
  5
4838
330
18
100
AcDbEntity
  8
0
  6
HIDDEN
100
AcDbPolyline
 90
        5
 70
     0
 43
0.0
 10
828.9442117493697
 20
1337.201236884269
 10
819.8898449749036
 20
1337.201236884271
 10
819.8898449749039
 20
1339.451236884271
 10
829.702344974904
 20
1339.451236884269
 10
829.702344974904
 20
1339.415215761807
  0
LWPOLYLINE
  5
4839
330
18
100
AcDbEntity
  8
0
  6
Continuous
100
AcDbPolyline
 90
        3
 70
     0
 43
0.0
 10
829.702344974904
 20
1339.415215761807
 10
829.7023449749035
 20
1337.201236884269
 10
827.7567117493697
 20
1337.201236884269
  0
LWPOLYLINE
  5
483A
330
18
100
AcDbEntity
  8
0
  6
HIDDEN
100
AcDbPolyline
 90
        5
 70
     0
 43
0.0
 10
819.6942117493719
 20
1327.951236884271
 10
810.6398449749057
 20
1327.951236884273
 10
810.6398449749063
 20
1330.201236884273
 10
820.4523449749062
 20
1330.201236884271
 10
820.4523449749062
 20
1330.165215761809
  0
LWPOLYLINE
  5
483B
330
18
100
AcDbEntity
  8
0
  6
Continuous
100
AcDbPolyline
 90
        3
 70
     0
 43
0.0
 10
820.4523449749062
 20
1330.165215761809
 10
820.4523449749057
 20
1327.951236884271
 10
818.5067117493719
 20
1327.951236884271
  0
LWPOLYLINE
  5
483C
330
18
100
AcDbEntity
  8
0
  6
HIDDEN
100
AcDbPolyline
 90
        5
 70
     0
 43
0.0
 10
810.4442117493741
 20
1318.701236884273
 10
801.3898449749078
 20
1318.701236884275
 10
801.3898449749083
 20
1320.951236884275
 10
811.2023449749083
 20
1320.951236884273
 10
811.2023449749083
 20
1320.915215761811
  0
LWPOLYLINE
  5
483D
330
18
100
AcDbEntity
  8
0
  6
Continuous
100
AcDbPolyline
 90
        3
 70
     0
 43
0.0
 10
811.2023449749083
 20
1320.915215761811
 10
811.2023449749079
 20
1318.701236884273
 10
809.2567117493739
 20
1318.701236884273
  0
LWPOLYLINE
  5
483E
330
18
100
AcDbEntity
  8
0
  6
HIDDEN
100
AcDbPolyline
 90
        5
 70
     0
 43
0.0
 10
801.1942117493761
 20
1309.451236884275
 10
792.1398449749099
 20
1309.451236884277
 10
792.1398449749103
 20
1311.701236884277
 10
801.9523449749103
 20
1311.701236884275
 10
801.9523449749103
 20
1311.665215761813
  0
LWPOLYLINE
  5
483F
330
18
100
AcDbEntity
  8
0
  6
Continuous
100
AcDbPolyline
 90
        3
 70
     0
 43
0.0
 10
801.9523449749103
 20
1311.665215761814
 10
801.9523449749099
 20
1309.451236884275
 10
800.0067117493761
 20
1309.451236884276
  0
LWPOLYLINE
  5
4840
330
18
100
AcDbEntity
  8
0
  6
HIDDEN
100
AcDbPolyline
 90
        5
 70
     0
 43
0.0
 10
791.9442117493781
 20
1300.201236884277
 10
782.8898449749119
 20
1300.201236884279
 10
782.8898449749124
 20
1302.451236884279
 10
792.7023449749124
 20
1302.451236884277
 10
792.7023449749124
 20
1302.415215761815
  0
LWPOLYLINE
  5
4841
330
18
100
AcDbEntity
  8
0
  6
Continuous
100
AcDbPolyline
 90
        3
 70
     0
 43
0.0
 10
792.7023449749124
 20
1302.415215761816
 10
792.7023449749119
 20
1300.201236884277
 10
790.7567117493782
 20
1300.201236884278
  0
LWPOLYLINE
  5
4842
330
18
100
AcDbEntity
  8
0
  6
HIDDEN
100
AcDbPolyline
 90
        5
 70
     0
 43
0.0
 10
782.6942117493804
 20
1290.951236884279
 10
773.6398449749142
 20
1290.951236884281
 10
773.6398449749146
 20
1293.201236884281
 10
783.4523449749147
 20
1293.201236884279
 10
783.4523449749147
 20
1293.165215761817
  0
LWPOLYLINE
  5
4843
330
18
100
AcDbEntity
  8
0
  6
Continuous
100
AcDbPolyline
 90
        3
 70
     0
 43
0.0
 10
783.4523449749147
 20
1293.165215761818
 10
783.4523449749142
 20
1290.951236884279
 10
781.5067117493804
 20
1290.95123688428
  0
LWPOLYLINE
  5
4844
330
18
100
AcDbEntity
  8
0
  6
HIDDEN
100
AcDbPolyline
 90
        5
 70
     0
 43
0.0
 10
773.4442117493824
 20
1281.701236884281
 10
764.3898449749163
 20
1281.701236884283
 10
764.3898449749167
 20
1283.951236884283
 10
774.2023449749167
 20
1283.951236884281
 10
774.2023449749167
 20
1283.915215761819
  0
LWPOLYLINE
  5
4845
330
18
100
AcDbEntity
  8
0
  6
Continuous
100
AcDbPolyline
 90
        3
 70
     0
 43
0.0
 10
774.2023449749167
 20
1283.91521576182
 10
774.2023449749162
 20
1281.701236884281
 10
772.2567117493825
 20
1281.701236884282
  0
LWPOLYLINE
  5
4846
330
18
100
AcDbEntity
  8
0
  6
HIDDEN
100
AcDbPolyline
 90
        5
 70
     0
 43
0.0
 10
764.1942117493847
 20
1272.451236884283
 10
755.1398449749186
 20
1272.451236884285
 10
755.139844974919
 20
1274.701236884286
 10
764.952344974919
 20
1274.701236884283
 10
764.952344974919
 20
1274.665215761822
  0
LWPOLYLINE
  5
4847
330
18
100
AcDbEntity
  8
0
  6
Continuous
100
AcDbPolyline
 90
        3
 70
     0
 43
0.0
 10
764.952344974919
 20
1274.665215761822
 10
764.9523449749185
 20
1272.451236884283
 10
763.0067117493847
 20
1272.451236884284
  0
LWPOLYLINE
  5
4848
330
18
100
AcDbEntity
  8
0
  6
HIDDEN
100
AcDbPolyline
 90
        5
 70
     0
 43
0.0
 10
754.9442117493867
 20
1263.201236884285
 10
745.8898449749206
 20
1263.201236884287
 10
745.889844974921
 20
1265.451236884288
 10
755.702344974921
 20
1265.451236884285
 10
755.702344974921
 20
1265.415215761824
  0
LWPOLYLINE
  5
4849
330
18
100
AcDbEntity
  8
0
  6
Continuous
100
AcDbPolyline
 90
        3
 70
     0
 43
0.0
 10
755.702344974921
 20
1265.415215761824
 10
755.7023449749205
 20
1263.201236884285
 10
753.7567117493868
 20
1263.201236884286
  0
LWPOLYLINE
  5
484A
330
18
100
AcDbEntity
  8
0
  6
HIDDEN
100
AcDbPolyline
 90
        5
 70
     0
 43
0.0
 10
745.6942117493888
 20
1253.951236884288
 10
736.6398449749226
 20
1253.951236884289
 10
736.639844974923
 20
1256.20123688429
 10
746.4523449749231
 20
1256.201236884287
 10
746.4523449749231
 20
1256.165215761826
  0
LWPOLYLINE
  5
484B
330
18
100
AcDbEntity
  8
0
  6
Continuous
100
AcDbPolyline
 90
        3
 70
     0
 43
0.0
 10
746.4523449749231
 20
1256.165215761826
 10
746.4523449749226
 20
1253.951236884288
 10
744.5067117493888
 20
1253.951236884288
  0
LINE
  5
4A90
330
18
100
AcDbEntity
  8
0
 62
     7
100
AcDbLine
 10
931.5647563548711
 20
1253.565197914879
 30
0.0
 11
929.8772563548711
 21
1253.56519791488
 31
0.0
  0
ARC
  5
4A91
330
18
100
AcDbEntity
  8
0
 62
     7
100
AcDbCircle
 10
930.7210063549064
 20
1408.356395377484
 30
0.0
 40
0.8448415067378828
100
AcDbArc
 50
2.912795456015359
 51
177.0872045439846
  0
LINE
  5
4A92
330
18
100
AcDbEntity
  8
0
 62
     7
100
AcDbLine
 10
929.8772563549063
 20
1408.399326822916
 30
0.0
 11
929.8772563548711
 21
1253.56519791488
 31
0.0
  0
LINE
  5
4A93
330
18
100
AcDbEntity
  8
0
 62
     7
100
AcDbLine
 10
931.5647563549061
 20
1408.399326822921
 30
0.0
 11
931.5647563548711
 21
1253.56519791488
 31
0.0
  0
ARC
  5
4AB0
330
18
100
AcDbEntity
  8
0
 62
     7
100
AcDbCircle
 10
933.3147563549017
 20
1388.097676521586
 30
0.0
 40
0.5
100
AcDbArc
 50
359.999999999987
 51
89.99999999998697
  0
LINE
  5
4AB1
330
18
100
AcDbEntity
  8
0
 62
     7
100
AcDbLine
 10
933.8147563549021
 20
1390.097676521586
 30
0.0
 11
931.5647563549021
 21
1390.097676521587
 31
0.0
  0
LINE
  5
4AB2
330
18
100
AcDbEntity
  8
0
 62
     7
100
AcDbLine
 10
933.3147563549019
 20
1388.597676521586
 30
0.0
 11
931.5647563549017
 21
1388.597676521587
 31
0.0
  0
LINE
  5
4ACA
330
18
100
AcDbEntity
  8
0
 62
     7
100
AcDbLine
 10
848.4523449749019
 20
1365.951236884245
 30
0.0
 11
848.4523449749115
 21
1407.513736884246
 31
0.0
  0
LINE
  5
4AD0
102
{ACAD_REACTORS
330
4B9E
102
}
330
18
100
AcDbEntity
  8
0
 62
     7
100
AcDbLine
 10
850.1398449749022
 20
1365.951236884245
 30
0.0
 11
850.1398449749068
 21
1386.57523169056
 31
0.0
  0
LWPOLYLINE
  5
4AD1
330
18
100
AcDbEntity
  8
0
 62
     7
100
AcDbPolyline
 90
        8
 70
     1
 43
0.0
 10
850.1398449749117
 20
1409.201236884245
 10
853.7023449749119
 20
1409.201236884245
 10
853.7023449749113
 20
1407.513736884245
 10
850.9835949749115
 20
1407.513736884245
 42
0.4142135623730951
 10
850.1398449749114
 20
1406.669986884245
 10
850.1398449749105
 20
1403.951236884245
 10
848.4523449749106
 20
1403.951236884246
 10
848.4523449749113
 20
1407.513736884246
 42
-0.4142135623730951
  0
LINE
  5
4AD2
330
18
100
AcDbEntity
  8
0
 62
     7
100
AcDbLine
 10
853.7023449749113
 20
1407.513736884245
 30
0.0
 11
875.6213844902832
 21
1407.51373688424
 31
0.0
  0
LINE
  5
4AD5
330
18
100
AcDbEntity
  8
0
 62
     7
100
AcDbLine
 10
851.5449528897594
 20
1386.541236884245
 30
0.0
 11
887.6105173399615
 21
1386.541236884238
 31
0.0
  0
LINE
  5
4AD7
330
18
100
AcDbEntity
  8
0
 62
     7
100
AcDbLine
 10
851.5449528897597
 20
1388.201236884245
 30
0.0
 11
887.6105173399619
 21
1388.201236884238
 31
0.0
  0
ARC
  5
4AD9
330
18
100
AcDbEntity
  8
0
 62
     7
100
AcDbCircle
 10
850.3749528897596
 20
1387.371236884245
 30
0.0
 40
0.8299999999999982
100
AcDbArc
 50
89.99999999998697
 51
269.999999999987
  0
LWPOLYLINE
  5
4ADA
330
18
100
AcDbEntity
  8
0
 62
     7
100
AcDbPolyline
 90
        2
 70
     0
 43
0.0
 10
851.5449528897594
 20
1386.541236884245
 10
851.5449528897597
 20
1388.201236884245
  0
LINE
  5
4ADB
330
18
100
AcDbEntity
  8
0
 62
     7
100
AcDbLine
 10
850.3749528897595
 20
1386.541236884245
 30
0.0
 11
851.5449528897594
 21
1386.541236884245
 31
0.0
  0
LINE
  5
4AE9
330
18
100
AcDbEntity
  8
0
 62
     7
100
AcDbLine
 10
933.8147563548773
 20
1279.86430796149
 30
0.0
 11
933.8147563549044
 21
1400.357486884227
 31
0.0
  0
LINE
  5
4AEA
330
18
100
AcDbEntity
  8
0
 62
     7
100
AcDbLine
 10
935.5022563548773
 20
1280.357486884203
 30
0.0
 11
935.5022563549045
 21
1400.357486884226
 31
0.0
  0
ARC
  5
4AEB
330
18
100
AcDbEntity
  8
0
 62
     7
100
AcDbCircle
 10
934.658506354904
 20
1400.357486884227
 30
0.0
 40
0.84375
100
AcDbArc
 50
359.999999999987
 51
179.999999999987
  0
ARC
  5
4AFA
330
18
100
AcDbEntity
  8
0
 62
     7
100
AcDbCircle
 10
887.6105173399617
 20
1387.371236884237
 30
0.0
 40
0.8299999999999982
100
AcDbArc
 50
269.999999999987
 51
89.99999999998697
  0
LWPOLYLINE
  5
4AFB
330
18
100
AcDbEntity
  8
0
 62
     7
100
AcDbPolyline
 90
        2
 70
     0
 43
0.0
 10
886.4405173399616
 20
1386.541236884238
 10
886.4405173399617
 20
1388.201236884238
  0
LINE
  5
4AFC
330
18
100
AcDbEntity
  8
0
 62
     7
100
AcDbLine
 10
887.6105173399615
 20
1386.541236884237
 30
0.0
 11
886.4405173399616
 21
1386.541236884238
 31
0.0
  0
LINE
  5
4AFD
330
18
100
AcDbEntity
  8
0
 62
     7
100
AcDbLine
 10
887.6105173399619
 20
1388.201236884237
 30
0.0
 11
886.4405173399617
 21
1388.201236884238
 31
0.0
  0
DIMENSION
  5
4AFF
330
18
100
AcDbEntity
  8
0
 62
     7
100
AcDbDimension
  2
*D9
 10
931.5647563549063
 20
1414.766110083928
 30
0.0
 11
921.2522563549063
 21
1414.766110083928
 31
0.0
 70
    32
 71
     5
 42
2.249999999997726
 73
     0
 74
     0
 75
     0
  3
STANDARD$0
100
AcDbAlignedDimension
 13
933.8147563549041
 23
1400.357486884227
 33
0.0
 14
931.5647563549063
 24
1408.399326822921
 34
0.0
 50
359.999999999987
100
AcDbRotatedDimension
  0
LINE
  5
4B90
330
18
100
AcDbEntity
  8
0
 62
     7
100
AcDbLine
 10
889.4523449749042
 20
1365.951236884236
 30
0.0
 11
889.4523449749137
 21
1407.513736884236
 31
0.0
  0
LINE
  5
4B91
102
{ACAD_REACTORS
330
4B9E
102
}
330
18
100
AcDbEntity
  8
0
 62
     7
100
AcDbLine
 10
887.7648449749042
 20
1365.95123688424
 30
0.0
 11
887.7648449749088
 21
1386.555710685338
 31
0.0
  0
LWPOLYLINE
  5
4B92
330
18
100
AcDbEntity
  8
0
 62
     7
100
AcDbPolyline
 90
        8
 70
     1
 43
0.0
 10
887.7648449749143
 20
1409.201236884237
 10
884.2023449749142
 20
1409.201236884238
 10
884.2023449749138
 20
1407.513736884238
 10
886.9210949749135
 20
1407.513736884237
 42
-0.4142135623730951
 10
887.7648449749132
 20
1406.669986884237
 10
887.7648449749129
 20
1403.951236884237
 10
889.4523449749128
 20
1403.951236884237
 10
889.4523449749138
 20
1407.513736884236
 42
0.4142135623730951
  0
LINE
  5
4B93
330
18
100
AcDbEntity
  8
0
 62
     7
100
AcDbLine
 10
884.2023449749138
 20
1407.513736884238
 30
0.0
 11
862.2833054595419
 21
1407.513736884243
 31
0.0
  0
LINE
  5
4B95
330
18
100
AcDbEntity
  8
0
 62
     7
100
AcDbLine
 10
853.7023449749119
 20
1409.201236884245
 30
0.0
 11
884.2023449749142
 21
1409.201236884238
 31
0.0
  0
LINE
  5
4B96
330
18
100
AcDbEntity
  8
0
 62
     7
100
AcDbLine
 10
887.7648449749091
 20
1388.186763083137
 30
0.0
 11
887.7648449749134
 21
1406.669986884237
 31
0.0
  0
LINE
  5
4B97
330
18
100
AcDbEntity
  8
0
 62
     7
100
AcDbLine
 10
850.1398449749073
 20
1388.16724207793
 30
0.0
 11
850.1398449749112
 21
1406.669986884245
 31
0.0
  0
HATCH
  5
4B9E
330
18
100
AcDbEntity
  8
0
 62
     7
100
AcDbHatch
 10
0.0
 20
0.0
 30
0.0
210
0.0
220
0.0
230
1.0
  2
ANSI31
 70
     0
 71
     1
 91
        1
 92
        7
 72
     0
 73
     1
 93
        4
 10
887.7648449749043
 20
1365.951236884239
 10
887.7648449749047
 20
1367.20123688424
 10
850.1398449749023
 20
1367.201236884246
 10
850.1398449749022
 20
1365.951236884245
 97
        4
330
34F1
330
4AD0
330
4560
330
4B91
 75
     0
 76
     1
 52
0.0
 41
1.0
 77
     0
 78
     1
 53
44.99999999998697
 43
13.81711727055
 44
-0.0000000000027285
 45
-0.0883883476482983
 46
0.0883883476483386
 79
     0
 47
0.0601629112326073
 98
        1
 10
863.8095701577656
 20
1366.349643265517
1001
ACAD
1010
0.0
1020
0.0
1030
0.0
  0
LINE
  5
4BDE
330
18
100
AcDbEntity
  8
0
100
AcDbLine
 10
845.2452381936893
 20
1364.806630103056
 30
0.0
 11
845.2452381936989
 21
1404.420144716553
 31
0.0
  0
LINE
  5
4BE0
330
18
100
AcDbEntity
  8
0
100
AcDbLine
 10
848.3388303613905
 20
1399.513736884246
 30
0.0
 11
819.797515465663
 21
1370.972421988518
 31
0.0
  0
LINE
  5
4BE2
330
18
100
AcDbEntity
  8
0
100
AcDbLine
 10
819.7975154656557
 20
1339.358907375023
 30
0.0
 11
819.7975154656649
 21
1378.972421988519
 31
0.0
  0
LINE
  5
4BE5
330
18
100
AcDbEntity
  8
0
100
AcDbLine
 10
765.5270700095882
 20
1285.088461918938
 30
0.0
 11
765.5270700095972
 21
1324.701976532434
 31
0.0
  0
LINE
  5
4BE6
330
18
100
AcDbEntity
  8
0
100
AcDbLine
 10
845.2452381936947
 20
1383.420144716558
 30
0.0
 11
819.7975154656601
 21
1357.972421988524
 31
0.0
  0
LINE
  5
4BE7
330
18
100
AcDbEntity
  8
0
100
AcDbLine
 10
738.3273449749232
 20
1257.88873688429
 30
0.0
 11
738.3273449749319
 21
1297.502251497786
 31
0.0
  0
LINE
  5
4BE9
330
18
100
AcDbEntity
  8
0
100
AcDbLine
 10
792.662292737622
 20
1312.223684646989
 30
0.0
 11
792.662292737631
 21
1351.837199260485
 31
0.0
  0
LINE
  5
4BEE
330
18
100
AcDbEntity
  8
0
100
AcDbLine
 10
846.9327381936999
 20
1408.494130103058
 30
0.0
 11
736.6398449749382
 21
1298.201236884296
 31
0.0
  0
LINE
  5
4BEF
330
18
100
AcDbEntity
  8
0
100
AcDbLine
 10
845.2452381936987
 20
1404.420144716553
 30
0.0
 11
738.3273449749319
 21
1297.502251497786
 31
0.0
  0
LINE
  5
4C03
330
18
100
AcDbEntity
  8
0
 62
     7
100
AcDbLine
 10
738.3273449749319
 20
1297.502251497786
 30
0.0
 11
736.6398449749319
 21
1298.201236884299
 31
0.0
  0
LINE
  5
4C04
330
18
100
AcDbEntity
  8
0
100
AcDbLine
 10
763.839570009592
 20
1302.014476532455
 30
0.0
 11
738.3273449749273
 21
1276.50225149779
 31
0.0
  0
LINE
  5
4C05
330
18
100
AcDbEntity
  8
0
100
AcDbLine
 10
763.8395700095925
 20
1304.400961918961
 30
0.0
 11
738.3273449749278
 21
1278.888736884295
 31
0.0
  0
LINE
  5
4C06
330
18
100
AcDbEntity
  8
0
100
AcDbLine
 10
763.8395700095949
 20
1315.01447653245
 30
0.0
 11
728.8273427184515
 21
1280.002249241307
 31
0.0
  0
LINE
  5
4C07
330
18
100
AcDbEntity
  8
0
100
AcDbLine
 10
763.8395700095953
 20
1317.400961918955
 30
0.0
 11
727.1398449749316
 21
1280.701236884291
 31
0.0
  0
LINE
  5
4C08
330
18
100
AcDbEntity
  8
0
100
AcDbLine
 10
790.9747927376256
 20
1329.149699260489
 30
0.0
 11
765.5270700095924
 21
1303.701976532456
 31
0.0
  0
LINE
  5
4C09
330
18
100
AcDbEntity
  8
0
100
AcDbLine
 10
790.9747927376263
 20
1331.536184646994
 30
0.0
 11
765.5270700095928
 21
1306.088461918961
 31
0.0
  0
LINE
  5
4C0A
330
18
100
AcDbEntity
  8
0
100
AcDbLine
 10
790.9747927376287
 20
1342.149699260484
 30
0.0
 11
765.5270700095952
 21
1316.70197653245
 31
0.0
  0
LINE
  5
4C0B
330
18
100
AcDbEntity
  8
0
100
AcDbLine
 10
790.9747927376291
 20
1344.536184646989
 30
0.0
 11
765.5270700095959
 21
1319.088461918956
 31
0.0
  0
LINE
  5
4C0C
330
18
100
AcDbEntity
  8
0
100
AcDbLine
 10
818.1100154656595
 20
1356.284921988524
 30
0.0
 11
792.662292737626
 21
1330.837199260489
 31
0.0
  0
LINE
  5
4C0D
330
18
100
AcDbEntity
  8
0
100
AcDbLine
 10
818.1100154656601
 20
1358.671407375029
 30
0.0
 11
792.6622927376265
 21
1333.223684646995
 31
0.0
  0
LINE
  5
4C0E
330
18
100
AcDbEntity
  8
0
100
AcDbLine
 10
818.1100154656625
 20
1369.284921988518
 30
0.0
 11
792.6622927376289
 21
1343.837199260484
 31
0.0
  0
LINE
  5
4C0F
330
18
100
AcDbEntity
  8
0
100
AcDbLine
 10
818.1100154656631
 20
1371.671407375023
 30
0.0
 11
792.6622927376296
 21
1346.22368464699
 31
0.0
  0
LINE
  5
4C3A
330
18
100
AcDbEntity
  8
0
 62
     7
100
AcDbLine
 10
845.2452381936991
 20
1404.420144716553
 30
0.0
 11
846.9327381937
 21
1408.494130103058
 31
0.0
  0
ARC
  5
4C4C
330
18
100
AcDbEntity
  8
0
 62
     7
100
AcDbCircle
 10
933.3147563548742
 20
1271.201236884204
 30
0.0
 40
0.5
100
AcDbArc
 50
269.999999999987
 51
359.999999999987
  0
ARC
  5
4C4D
330
18
100
AcDbEntity
  8
0
 62
     7
100
AcDbCircle
 10
933.8147563548739
 20
1270.701236884204
 30
0.0
 40
1.5
100
AcDbArc
 50
269.999999999987
 51
288.8394795313636
  0
LINE
  5
4C4E
330
18
100
AcDbEntity
  8
0
 62
     7
100
AcDbLine
 10
933.8147563548735
 20
1269.201236884204
 30
0.0
 11
931.5647563548749
 21
1269.201236884204
 31
0.0
  0
LINE
  5
4C4F
330
18
100
AcDbEntity
  8
0
 62
     7
100
AcDbLine
 10
933.314756354874
 20
1270.701236884204
 30
0.0
 11
931.5647563548751
 21
1270.701236884204
 31
0.0
  0
LINE
  5
4C50
330
18
100
AcDbEntity
  8
0
 62
     7
100
AcDbLine
 10
933.814756354875
 20
1270.044986884204
 30
0.0
 11
933.8147563548773
 21
1280.357486884204
 31
0.0
  0
LINE
  5
4C51
330
18
100
AcDbEntity
  8
0
 62
     7
100
AcDbLine
 10
935.5022563548748
 20
1270.044986884203
 30
0.0
 11
935.5022563548773
 21
1280.357486884203
 31
0.0
  0
ARC
  5
4C54
330
18
100
AcDbEntity
  8
0
 62
     7
100
AcDbCircle
 10
934.6585063548772
 20
1280.357486884204
 30
0.0
 40
0.84375
100
AcDbArc
 50
359.999999999987
 51
179.999999999987
  0
ARC
  5
4C55
330
18
100
AcDbEntity
  8
0
 62
     7
100
AcDbCircle
 10
934.6585063548749
 20
1270.044986884204
 30
0.0
 40
0.84375
100
AcDbArc
 50
179.999999999987
 51
359.999999999987
  0
LINE
  5
4C5C
330
18
100
AcDbEntity
  8
0
100
AcDbLine
 10
931.5647563548971
 20
1367.201236884241
 30
0.0
 11
931.846006354897
 21
1367.201236884242
 31
0.0
  0
LINE
  5
4C5D
330
18
100
AcDbEntity
  8
0
100
AcDbLine
 10
931.8460063548961
 20
1269.201236884204
 30
0.0
 11
931.8460063548974
 21
1247.201236884242
 31
0.0
  0
LINE
  5
4C5E
330
18
100
AcDbEntity
  8
0
100
AcDbLine
 10
935.5022563548777
 20
1281.962788504931
 30
0.0
 11
959.6897563549294
 21
1281.962788504931
 31
0.0
  0
LINE
  5
4C5F
330
18
100
AcDbEntity
  8
0
100
AcDbLine
 10
935.502256354878
 20
1283.951236884242
 30
0.0
 11
959.6897563549298
 21
1283.951236884243
 31
0.0
  0
LINE
  5
4C60
330
18
100
AcDbEntity
  8
0
100
AcDbLine
 10
935.5022563548796
 20
1291.212788504931
 30
0.0
 11
959.6897563549315
 21
1291.212788504932
 31
0.0
  0
LINE
  5
4C61
330
18
100
AcDbEntity
  8
0
100
AcDbLine
 10
935.50225635488
 20
1293.201236884242
 30
0.0
 11
959.6897563549319
 21
1293.201236884243
 31
0.0
  0
LINE
  5
4C62
330
18
100
AcDbEntity
  8
0
100
AcDbLine
 10
935.5022563548818
 20
1300.462788504931
 30
0.0
 11
959.6897563549335
 21
1300.462788504932
 31
0.0
  0
LINE
  5
4C63
330
18
100
AcDbEntity
  8
0
100
AcDbLine
 10
935.5022563548821
 20
1302.451236884242
 30
0.0
 11
959.6897563549342
 21
1302.451236884243
 31
0.0
  0
LINE
  5
4C64
330
18
100
AcDbEntity
  8
0
100
AcDbLine
 10
935.5022563548839
 20
1309.712788504931
 30
0.0
 11
959.6897563549358
 21
1309.712788504932
 31
0.0
  0
LINE
  5
4C65
330
18
100
AcDbEntity
  8
0
100
AcDbLine
 10
935.5022563548843
 20
1311.701236884242
 30
0.0
 11
959.6897563549362
 21
1311.701236884243
 31
0.0
  0
LINE
  5
4C66
330
18
100
AcDbEntity
  8
0
100
AcDbLine
 10
935.5022563548859
 20
1318.962788504931
 30
0.0
 11
959.6897563549379
 21
1318.962788504932
 31
0.0
  0
LINE
  5
4C67
330
18
100
AcDbEntity
  8
0
100
AcDbLine
 10
935.5022563548862
 20
1320.951236884242
 30
0.0
 11
959.6897563549381
 21
1320.951236884243
 31
0.0
  0
LINE
  5
4C68
330
18
100
AcDbEntity
  8
0
100
AcDbLine
 10
935.5022563548882
 20
1328.212788504931
 30
0.0
 11
959.6897563549401
 21
1328.212788504932
 31
0.0
  0
LINE
  5
4C69
330
18
100
AcDbEntity
  8
0
100
AcDbLine
 10
935.5022563548883
 20
1330.201236884241
 30
0.0
 11
959.6897563549404
 21
1330.201236884243
 31
0.0
  0
LINE
  5
4C6A
330
18
100
AcDbEntity
  8
0
100
AcDbLine
 10
935.5022563548901
 20
1337.462788504931
 30
0.0
 11
959.689756354942
 21
1337.462788504932
 31
0.0
  0
LINE
  5
4C6B
330
18
100
AcDbEntity
  8
0
100
AcDbLine
 10
935.5022563548907
 20
1339.451236884242
 30
0.0
 11
959.6897563549427
 21
1339.451236884243
 31
0.0
  0
LINE
  5
4C6C
330
18
100
AcDbEntity
  8
0
100
AcDbLine
 10
935.5022563548923
 20
1346.712788504931
 30
0.0
 11
959.6897563549443
 21
1346.712788504931
 31
0.0
  0
LINE
  5
4C6D
330
18
100
AcDbEntity
  8
0
100
AcDbLine
 10
935.5022563548926
 20
1348.701236884242
 30
0.0
 11
959.6897563549447
 21
1348.701236884243
 31
0.0
  0
LINE
  5
4C6E
330
18
100
AcDbEntity
  8
0
100
AcDbLine
 10
935.5022563548942
 20
1355.962788504931
 30
0.0
 11
959.6897563549463
 21
1355.962788504932
 31
0.0
  0
LINE
  5
4C6F
330
18
100
AcDbEntity
  8
0
100
AcDbLine
 10
935.5022563548947
 20
1357.951236884242
 30
0.0
 11
959.6897563549468
 21
1357.951236884243
 31
0.0
  0
LINE
  5
4C70
330
18
100
AcDbEntity
  8
0
100
AcDbLine
 10
935.5022563548969
 20
1367.201236884242
 30
0.0
 11
959.6897563549489
 21
1367.201236884243
 31
0.0
  0
ARC
  5
4C71
330
18
100
AcDbEntity
  8
0
 62
     7
100
AcDbCircle
 10
964.4710063549581
 20
1408.356395377477
 30
0.0
 40
0.8448415067378828
100
AcDbArc
 50
2.912795455989438
 51
177.0872045439585
  0
LINE
  5
4C72
330
18
100
AcDbEntity
  8
0
 62
     7
100
AcDbLine
 10
965.3147563549584
 20
1408.399326822909
 30
0.0
 11
965.3147563549227
 21
1253.565197914873
 31
0.0
  0
LINE
  5
4C73
330
18
100
AcDbEntity
  8
0
 62
     7
100
AcDbLine
 10
963.6272563549583
 20
1408.399326822914
 30
0.0
 11
963.6272563549228
 21
1253.565197914873
 31
0.0
  0
ARC
  5
4C74
330
18
100
AcDbEntity
  8
0
 62
     7
100
AcDbCircle
 10
961.8772563549537
 20
1388.09767652158
 30
0.0
 40
0.5
100
AcDbArc
 50
89.99999999998697
 51
179.9999999999869
  0
LINE
  5
4C75
330
18
100
AcDbEntity
  8
0
 62
     7
100
AcDbLine
 10
961.3772563549542
 20
1390.09767652158
 30
0.0
 11
963.6272563549541
 21
1390.09767652158
 31
0.0
  0
LINE
  5
4C76
330
18
100
AcDbEntity
  8
0
 62
     7
100
AcDbLine
 10
961.8772563549537
 20
1388.59767652158
 30
0.0
 11
963.6272563549537
 21
1388.597676521579
 31
0.0
  0
LINE
  5
4C77
330
18
100
AcDbEntity
  8
0
 62
     7
100
AcDbLine
 10
961.3772563549289
 20
1279.864307961484
 30
0.0
 11
961.3772563549566
 21
1400.357486884221
 31
0.0
  0
LINE
  5
4C78
330
18
100
AcDbEntity
  8
0
 62
     7
100
AcDbLine
 10
959.6897563549291
 20
1280.357486884198
 30
0.0
 11
959.6897563549566
 21
1400.357486884221
 31
0.0
  0
ARC
  5
4C79
330
18
100
AcDbEntity
  8
0
 62
     7
100
AcDbCircle
 10
960.5335063549571
 20
1400.357486884221
 30
0.0
 40
0.84375
100
AcDbArc
 50
359.9999999999869
 51
179.9999999999869
  0
ARC
  5
4C7A
330
18
100
AcDbEntity
  8
0
 62
     7
100
AcDbCircle
 10
961.8772563549281
 20
1271.201236884198
 30
0.0
 40
0.5
100
AcDbArc
 50
179.9999999999869
 51
269.999999999987
  0
ARC
  5
4C7B
330
18
100
AcDbEntity
  8
0
 62
     7
100
AcDbCircle
 10
961.3772563549281
 20
1270.701236884198
 30
0.0
 40
1.5
100
AcDbArc
 50
251.1605204686075
 51
269.999999999987
  0
LINE
  5
4C7C
330
18
100
AcDbEntity
  8
0
 62
     7
100
AcDbLine
 10
961.3772563549277
 20
1269.201236884198
 30
0.0
 11
963.6272563549265
 21
1269.201236884197
 31
0.0
  0
LINE
  5
4C7D
330
18
100
AcDbEntity
  8
0
 62
     7
100
AcDbLine
 10
961.877256354928
 20
1270.701236884197
 30
0.0
 11
963.6272563549269
 21
1270.701236884197
 31
0.0
  0
LINE
  5
4C7E
330
18
100
AcDbEntity
  8
0
 62
     7
100
AcDbLine
 10
961.3772563549268
 20
1270.044986884198
 30
0.0
 11
961.3772563549291
 21
1280.357486884198
 31
0.0
  0
LINE
  5
4C7F
330
18
100
AcDbEntity
  8
0
 62
     7
100
AcDbLine
 10
959.6897563549267
 20
1270.044986884198
 30
0.0
 11
959.6897563549291
 21
1280.357486884198
 31
0.0
  0
ARC
  5
4C82
330
18
100
AcDbEntity
  8
0
 62
     7
100
AcDbCircle
 10
960.5335063549292
 20
1280.357486884198
 30
0.0
 40
0.84375
100
AcDbArc
 50
359.9999999999869
 51
179.9999999999869
  0
ARC
  5
4C83
330
18
100
AcDbEntity
  8
0
 62
     7
100
AcDbCircle
 10
960.5335063549267
 20
1270.044986884198
 30
0.0
 40
0.84375
100
AcDbArc
 50
179.9999999999869
 51
359.9999999999869
  0
LINE
  5
4C84
330
18
100
AcDbEntity
  8
0
100
AcDbLine
 10
961.3772563549488
 20
1367.201236884243
 30
0.0
 11
963.3460063548971
 21
1367.201236884243
 31
0.0
  0
LINE
  5
4C85
330
18
100
AcDbEntity
  8
0
100
AcDbLine
 10
965.314756354949
 20
1367.201236884243
 30
0.0
 11
965.5960063548972
 21
1367.201236884243
 31
0.0
  0
LINE
  5
4C86
330
18
100
AcDbEntity
  8
0
100
AcDbLine
 10
961.3772563549295
 20
1281.962788504931
 30
0.0
 11
963.3460063548971
 21
1281.962788504932
 31
0.0
  0
LINE
  5
4C87
330
18
100
AcDbEntity
  8
0
100
AcDbLine
 10
961.3772563549296
 20
1283.951236884243
 30
0.0
 11
963.3460063548973
 21
1283.951236884243
 31
0.0
  0
LINE
  5
4C88
330
18
100
AcDbEntity
  8
0
100
AcDbLine
 10
961.3772563549316
 20
1291.212788504932
 30
0.0
 11
963.3460063548971
 21
1291.212788504932
 31
0.0
  0
LINE
  5
4C89
330
18
100
AcDbEntity
  8
0
100
AcDbLine
 10
961.377256354932
 20
1293.201236884243
 30
0.0
 11
963.3460063548973
 21
1293.201236884243
 31
0.0
  0
LINE
  5
4C8A
330
18
100
AcDbEntity
  8
0
100
AcDbLine
 10
961.3772563549336
 20
1300.462788504932
 30
0.0
 11
963.3460063548971
 21
1300.462788504932
 31
0.0
  0
LINE
  5
4C8B
330
18
100
AcDbEntity
  8
0
100
AcDbLine
 10
961.3772563549341
 20
1302.451236884243
 30
0.0
 11
963.3460063548973
 21
1302.451236884243
 31
0.0
  0
LINE
  5
4C8C
330
18
100
AcDbEntity
  8
0
100
AcDbLine
 10
961.3772563549359
 20
1309.712788504932
 30
0.0
 11
963.3460063548971
 21
1309.712788504932
 31
0.0
  0
LINE
  5
4C8D
330
18
100
AcDbEntity
  8
0
100
AcDbLine
 10
961.377256354936
 20
1311.701236884243
 30
0.0
 11
963.3460063548973
 21
1311.701236884243
 31
0.0
  0
LINE
  5
4C8E
330
18
100
AcDbEntity
  8
0
100
AcDbLine
 10
961.3772563549378
 20
1318.962788504931
 30
0.0
 11
963.3460063548971
 21
1318.962788504931
 31
0.0
  0
LINE
  5
4C8F
330
18
100
AcDbEntity
  8
0
100
AcDbLine
 10
961.3772563549384
 20
1320.951236884243
 30
0.0
 11
963.3460063548973
 21
1320.951236884243
 31
0.0
  0
LINE
  5
4C90
330
18
100
AcDbEntity
  8
0
100
AcDbLine
 10
961.37725635494
 20
1328.212788504932
 30
0.0
 11
963.3460063548971
 21
1328.212788504932
 31
0.0
  0
LINE
  5
4C91
330
18
100
AcDbEntity
  8
0
100
AcDbLine
 10
961.3772563549405
 20
1330.201236884243
 30
0.0
 11
963.3460063548973
 21
1330.201236884243
 31
0.0
  0
LINE
  5
4C92
330
18
100
AcDbEntity
  8
0
100
AcDbLine
 10
961.3772563549419
 20
1337.462788504932
 30
0.0
 11
963.3460063548971
 21
1337.462788504932
 31
0.0
  0
LINE
  5
4C93
330
18
100
AcDbEntity
  8
0
100
AcDbLine
 10
961.3772563549426
 20
1339.451236884243
 30
0.0
 11
963.3460063548973
 21
1339.451236884243
 31
0.0
  0
LINE
  5
4C94
330
18
100
AcDbEntity
  8
0
100
AcDbLine
 10
961.3772563549442
 20
1346.712788504931
 30
0.0
 11
963.3460063548971
 21
1346.712788504931
 31
0.0
  0
LINE
  5
4C95
330
18
100
AcDbEntity
  8
0
100
AcDbLine
 10
961.3772563549447
 20
1348.701236884243
 30
0.0
 11
963.3460063548973
 21
1348.701236884243
 31
0.0
  0
LINE
  5
4C96
330
18
100
AcDbEntity
  8
0
100
AcDbLine
 10
961.3772563549465
 20
1355.962788504932
 30
0.0
 11
963.3460063548971
 21
1355.962788504932
 31
0.0
  0
LINE
  5
4C97
330
18
100
AcDbEntity
  8
0
100
AcDbLine
 10
961.3772563549467
 20
1357.951236884243
 30
0.0
 11
963.3460063548973
 21
1357.951236884243
 31
0.0
  0
LINE
  5
4C98
330
18
100
AcDbEntity
  8
0
100
AcDbLine
 10
963.3460063548961
 20
1269.201236884197
 30
0.0
 11
963.3460063548975
 21
1247.201236884243
 31
0.0
  0
DIMENSION
  5
4C99
330
18
100
AcDbEntity
  8
0
 62
     7
100
AcDbDimension
  2
*D10
 10
977.1175647237257
 20
1367.201236884243
 30
0.0
 11
977.1175647237255
 21
1388.201236884229
 31
0.0
 70
    32
 71
     5
 42
41.99999999997158
 73
     0
 74
     0
 75
     0
 51
0.0000000000130276
  3
STANDARD$0
100
AcDbAlignedDimension
 13
964.4710063549585
 23
1409.201236884215
 33
0.0
 14
965.5960063548972
 24
1367.201236884243
 34
0.0
 50
89.99999999998697
100
AcDbRotatedDimension
  0
ARC
  5
4CC9
330
18
100
AcDbEntity
  8
0
 62
     7
100
AcDbCircle
 10
738.9535534741473
 20
1247.201236884079
 30
0.0
 40
33.28660733149465
100
AcDbArc
 50
3.550721053037331
 51
16.01946450372932
  0
ARC
  5
4CCA
330
18
100
AcDbEntity
  8
0
 62
     7
100
AcDbCircle
 10
738.9535534741473
 20
1247.201236884079
 30
0.0
 40
33.28660733149465
100
AcDbArc
 50
24.31103418775169
 51
41.44927894693484
  0
SOLID
  5
4CCB
330
18
100
AcDbEntity
  8
0
 62
     7
100
AcDbTrace
 10
772.5198476324091
 20
1249.273396528363
 30
0.0
 11
771.8326776490297
 21
1249.252097140056
 31
0.0
 12
772.240160805642
 22
1247.201236884071
 32
0.0
 13
772.240160805642
 23
1247.201236884071
 33
0.0
  0
SOLID
  5
4CCC
330
18
100
AcDbEntity
  8
0
 62
     7
100
AcDbTrace
 10
763.6527823319582
 20
1269.000111353335
 30
0.0
 11
764.153745828941
 21
1269.470952966503
 31
0.0
 12
762.4907392409461
 22
1270.738422650868
 32
0.0
 13
762.4907392409461
 23
1270.738422650868
 33
0.0
  0
MTEXT
  5
4CCD
330
18
100
AcDbEntity
  8
0
 62
     7
100
AcDbMText
 10
778.7671372996651
 20
1258.646067413112
 30
0.0
 40
2.0625
 41
0.0
 46
0.0
 71
     5
 72
     1
  1
\A1;30%%D-45%%D (AVAILABLE RANGE)
  7
ROMANS
 73
     1
 44
1.0
  0
MTEXT
  5
4CD8
330
18
100
AcDbEntity
  8
0
 62
     7
100
AcDbMText
 10
715.4599734862992
 20
1217.673550988976
 30
0.0
 40
2.0625
 41
0.0
 46
0.0
 71
     5
 72
     1
  1
\A1;OSHA 1910.25 & 29
  7
ROMANS
 73
     1
 44
1.0
  0
ARC
  5
4E0A
330
18
100
AcDbEntity
  8
0
 62
     7
100
AcDbCircle
 10
930.7210063549064
 20
1407.649288596301
 30
0.0
 40
0.8448415067378828
100
AcDbArc
 50
2.912795456015359
 51
177.0872045439846
  0
ARC
  5
4E0B
330
18
100
AcDbEntity
  8
0
 62
     7
100
AcDbCircle
 10
964.4710063549581
 20
1407.649288596294
 30
0.0
 40
0.8448415067378828
100
AcDbArc
 50
2.912795455989436
 51
177.0872045439585
  0
CIRCLE
  5
4E7C
330
18
100
AcDbEntity
  8
0
  6
HIDDEN
 62
     7
100
AcDbCircle
 10
737.4835949749256
 20
1269.544986884289
 30
0.0
 40
0.84375
  0
LINE
  5
4E7D
330
18
100
AcDbEntity
  8
0
 62
     7
100
AcDbLine
 10
737.4835949749254
 20
1268.701236884289
 30
0.0
 11
732.3273449749254
 21
1268.701236884291
 31
0.0
  0
LINE
  5
4E7E
330
18
100
AcDbEntity
  8
0
 62
     7
100
AcDbLine
 10
737.4855463348271
 20
1270.388734627809
 30
0.0
 11
732.3292963348271
 21
1270.38873462781
 31
0.0
  0
LINE
  5
4E7F
330
18
100
AcDbEntity
  8
0
 62
     7
100
AcDbLine
 10
732.3273449749254
 20
1268.701236884291
 30
0.0
 11
732.3292963348271
 21
1270.38873462781
 31
0.0
  0
LINE
  5
4E80
330
18
100
AcDbEntity
  8
0
 62
     7
100
AcDbLine
 10
732.3292963348271
 20
1270.38873462781
 30
0.0
 11
728.827342718449
 21
1270.38873462781
 31
0.0
  0
LINE
  5
4E81
330
18
100
AcDbEntity
  8
0
 62
     7
100
AcDbLine
 10
727.139844974929
 20
1268.701236884291
 30
0.0
 11
732.3273449749254
 21
1268.701236884291
 31
0.0
  0
LINE
  5
4E82
330
18
100
AcDbEntity
  8
0
 62
     7
100
AcDbLine
 10
929.5960063548974
 20
1247.201236884242
 30
0.0
 11
927.5960063548975
 21
1247.201236884243
 31
0.0
  0
LINE
  5
4E83
330
18
100
AcDbEntity
  8
0
 62
     7
100
AcDbLine
 10
927.5960063548975
 20
1247.201236884243
 30
0.0
 11
927.5960063548975
 21
1247.451236884243
 31
0.0
  0
LINE
  5
4E84
330
18
100
AcDbEntity
  8
0
 62
     7
100
AcDbLine
 10
927.5960063548975
 20
1247.451236884243
 30
0.0
 11
929.5960063548974
 21
1247.451236884242
 31
0.0
  0
LINE
  5
4E85
330
18
100
AcDbEntity
  8
0
 62
     7
100
AcDbLine
 10
928.5960063548973
 20
1246.474759815542
 30
0.0
 11
928.5960063548978
 21
1248.097945768338
 31
0.0
  0
LINE
  5
4E86
330
18
100
AcDbEntity
  8
0
 62
     7
100
AcDbLine
 10
965.5960063548976
 20
1247.201236884244
 30
0.0
 11
967.5960063548975
 21
1247.201236884243
 31
0.0
  0
LINE
  5
4E87
330
18
100
AcDbEntity
  8
0
 62
     7
100
AcDbLine
 10
967.5960063548975
 20
1247.201236884243
 30
0.0
 11
967.5960063548975
 21
1247.451236884243
 31
0.0
  0
LINE
  5
4E88
330
18
100
AcDbEntity
  8
0
 62
     7
100
AcDbLine
 10
967.5960063548975
 20
1247.451236884243
 30
0.0
 11
965.5960063548976
 21
1247.451236884243
 31
0.0
  0
LINE
  5
4E89
330
18
100
AcDbEntity
  8
0
 62
     7
100
AcDbLine
 10
966.5960063548974
 20
1246.474759815542
 30
0.0
 11
966.5960063548977
 21
1248.097945768338
 31
0.0
  0
ARC
  5
4E8A
330
18
100
AcDbEntity
  8
0
 62
     7
100
AcDbCircle
 10
858.7648449749076
 20
1390.888736884244
 30
0.0
 40
1.6875
100
AcDbArc
 50
269.999999999987
 51
359.999999999987
  0
ARC
  5
4E8B
330
18
100
AcDbEntity
  8
0
 62
     7
100
AcDbCircle
 10
857.9210949749073
 20
1391.732486884244
 30
0.0
 40
0.84375
100
AcDbArc
 50
269.999999999987
 51
359.999999999987
  0
LINE
  5
4E8C
330
18
100
AcDbEntity
  8
0
 62
     7
100
AcDbLine
 10
860.4523449749077
 20
1390.888736884243
 30
0.0
 11
860.4523449749096
 21
1399.513736884243
 31
0.0
  0
ARC
  5
4E8D
330
18
100
AcDbEntity
  8
0
 62
     7
100
AcDbCircle
 10
858.7648449749096
 20
1399.513736884244
 30
0.0
 40
1.6875
100
AcDbArc
 50
359.999999999987
 51
89.99999999998697
  0
LINE
  5
4E8E
330
18
100
AcDbEntity
  8
0
 62
     7
100
AcDbLine
 10
858.7648449749075
 20
1391.732486884244
 30
0.0
 11
858.7648449749094
 21
1398.669986884244
 31
0.0
  0
ARC
  5
4E8F
330
18
100
AcDbEntity
  8
0
 62
     7
100
AcDbCircle
 10
857.9210949749095
 20
1398.669986884244
 30
0.0
 40
0.84375
100
AcDbArc
 50
359.999999999987
 51
89.99999999998697
  0
LINE
  5
4E90
330
18
100
AcDbEntity
  8
0
 62
     7
100
AcDbLine
 10
858.7648449749099
 20
1401.201236884244
 30
0.0
 11
852.4523449749098
 21
1401.201236884246
 31
0.0
  0
LINE
  5
4E91
330
18
100
AcDbEntity
  8
0
 62
     7
100
AcDbLine
 10
857.9210949749096
 20
1399.513736884244
 30
0.0
 11
852.4523449749096
 21
1399.513736884246
 31
0.0
  0
LINE
  5
4E92
330
18
100
AcDbEntity
  8
0
 62
     7
100
AcDbLine
 10
852.4523449749098
 20
1401.201236884245
 30
0.0
 11
852.4523449749096
 21
1399.513736884246
 31
0.0
  0
LINE
  5
4E93
330
18
100
AcDbEntity
  8
0
 62
     7
100
AcDbLine
 10
851.2648449749075
 20
1390.888736884245
 30
0.0
 11
851.2648449749072
 21
1389.201236884245
 31
0.0
  0
LINE
  5
4E94
330
18
100
AcDbEntity
  8
0
 62
     7
100
AcDbLine
 10
857.9210949749072
 20
1390.888736884244
 30
0.0
 11
854.4523449749076
 21
1390.888736884245
 31
0.0
  0
LINE
  5
4E95
330
18
100
AcDbEntity
  8
0
 62
     7
100
AcDbLine
 10
854.4523449749071
 20
1389.201236884245
 30
0.0
 11
858.7648449749071
 21
1389.201236884244
 31
0.0
  0
LINE
  5
4E96
330
18
100
AcDbEntity
  8
0
 62
     7
100
AcDbLine
 10
851.2648449749075
 20
1390.888736884245
 30
0.0
 11
846.0889881936957
 21
1390.888736884247
 31
0.0
  0
CIRCLE
  5
4E97
330
18
100
AcDbEntity
  8
0
  6
HIDDEN
 62
     7
100
AcDbCircle
 10
846.0889881936955
 20
1390.044986884247
 30
0.0
 40
0.84375
  0
LINE
  5
4E98
330
18
100
AcDbEntity
  8
0
 62
     7
100
AcDbLine
 10
846.0889881936953
 20
1389.201236884247
 30
0.0
 11
851.2648449749072
 21
1389.201236884245
 31
0.0
  0
TEXT
  5
4E99
330
18
100
AcDbEntity
  8
0
100
AcDbText
 10
827.5067610692341
 20
1307.525965020666
 30
0.0
 40
2.118351925305
  1
UNIFORM RISER HEIGHTS AND
 50
359.999999999987
  7
ROMANS
100
AcDbText
  0
TEXT
  5
4E9A
330
18
100
AcDbEntity
  8
0
100
AcDbText
 10
823.3312229240928
 20
1304.096252379697
 30
0.0
 40
2.118351925305
  1
TREAD DEPTHS BETWEEN LANDINGS
 50
359.999999999987
  7
ROMANS
100
AcDbText
  0
LWPOLYLINE
  5
4E9B
330
18
100
AcDbEntity
  8
0
 62
     7
100
AcDbPolyline
 90
        4
 70
     1
 43
0.0
 10
884.1652680176368
 20
1300.728265467133
 10
821.5835822584697
 20
1300.728265467148
 10
821.5835822584724
 20
1312.899588540051
 10
884.1652680176396
 20
1312.899588540037
  0
DIMENSION
  5
4EA6
330
18
100
AcDbEntity
  8
0
 62
     7
100
AcDbDimension
  2
*D11
 10
764.3898449752082
 20
1278.537807914896
 30
0.0
 11
784.1399572893664
 21
1278.537807914896
 31
0.0
 70
   160
  1
9-1/2" MIN.
 71
     5
 42
9.250000000289219
 73
     0
 74
     0
 75
     0
 51
0.0000000000130276
  3
STANDARD$0
100
AcDbAlignedDimension
 13
755.139844974919
 23
1274.701236884286
 33
0.0
 14
764.3898449752082
 24
1281.701236884283
 34
0.0
 50
359.999999999987
100
AcDbRotatedDimension
  0
DIMENSION
  5
4EFA
330
18
100
AcDbEntity
  8
0
 62
     7
100
AcDbDimension
  2
*D12
 10
848.4523449749115
 20
1414.151767986902
 30
0.0
 11
868.9523449749126
 21
1414.151767986902
 31
0.0
 70
    32
  1
30" MIN.
 71
     5
 42
41.00000000000227
 73
     0
 74
     0
 75
     0
 51
0.0000000000130276
  3
STANDARD$0
100
AcDbAlignedDimension
 13
889.4523449749138
 23
1407.513736884236
 33
0.0
 14
848.4523449749115
 24
1407.513736884246
 34
0.0
 50
359.999999999987
100
AcDbRotatedDimension
  0
DIMENSION
  5
4F4B
330
18
100
AcDbEntity
  8
0
 62
     7
100
AcDbDimension
  2
*D16
 10
698.9262760989577
 20
1298.201236884299
 30
0.0
 11
698.9262760989575
 21
1277.201236884301
 31
0.0
 70
    32
 71
     5
 42
41.99999999999749
 73
     0
 74
     0
 75
     0
 51
0.0000000000130276
  3
STANDARD$0
100
AcDbAlignedDimension
 13
736.6398449749167
 23
1256.201236884301
 33
0.0
 14
736.6398449749319
 24
1298.201236884299
 34
0.0
 50
89.99999999998697
100
AcDbRotatedDimension
  0
LINE
  5
4FDD
330
18
100
AcDbEntity
  8
0
 62
     7
100
AcDbLine
 10
850.3749528897598
 20
1388.201236884245
 30
0.0
 11
851.5449528897597
 21
1388.201236884245
 31
0.0
  0
LINE
  5
4FDE
330
18
100
AcDbEntity
  8
0
 62
     7
100
AcDbLine
 10
852.4523449749098
 20
1401.201236884245
 30
0.0
 11
847.6398449748856
 21
1401.201236884246
 31
0.0
  0
LINE
  5
4FDF
330
18
100
AcDbEntity
  8
0
 62
     7
100
AcDbLine
 10
852.4523449749096
 20
1399.513736884246
 30
0.0
 11
848.3388303613903
 21
1399.513736884246
 31
0.0
  0
LINE
  5
4FE0
330
18
100
AcDbEntity
  8
0
 62
     7
100
AcDbLine
 10
848.3388303613901
 20
1399.513736884246
 30
0.0
 11
847.6398449748858
 21
1401.201236884246
 31
0.0
  0
LINE
  5
4FE2
330
18
100
AcDbEntity
  8
0
100
AcDbLine
 10
935.5022563548756
 20
1272.712788504931
 30
0.0
 11
959.6897563549273
 21
1272.712788504931
 31
0.0
  0
LINE
  5
4FE3
330
18
100
AcDbEntity
  8
0
100
AcDbLine
 10
935.5022563548759
 20
1274.701236884242
 30
0.0
 11
959.6897563549278
 21
1274.701236884243
 31
0.0
  0
LINE
  5
4FE4
330
18
100
AcDbEntity
  8
0
100
AcDbLine
 10
961.3772563549272
 20
1272.712788504931
 30
0.0
 11
963.3460063548971
 21
1272.712788504932
 31
0.0
  0
LINE
  5
4FE5
330
18
100
AcDbEntity
  8
0
100
AcDbLine
 10
961.3772563549277
 20
1274.701236884243
 30
0.0
 11
963.3460063548973
 21
1274.701236884243
 31
0.0
  0
LINE
  5
5007
330
18
100
AcDbEntity
  8
0
 62
     7
100
AcDbLine
 10
854.4523449749076
 20
1390.888736884244
 30
0.0
 11
854.4523449749071
 21
1389.201236884244
 31
0.0
  0
LINE
  5
500E
330
18
100
AcDbEntity
  8
0
 62
     7
100
AcDbLine
 10
851.2648449749075
 20
1390.888736884245
 30
0.0
 11
854.4523449749076
 21
1390.888736884245
 31
0.0
  0
LINE
  5
500F
330
18
100
AcDbEntity
  8
0
 62
     7
100
AcDbLine
 10
854.4523449749071
 20
1389.201236884244
 30
0.0
 11
851.2648449749072
 21
1389.201236884245
 31
0.0
  0
DIMENSION
  5
5010
330
18
100
AcDbEntity
  8
0
 62
     7
100
AcDbDimension
  2
*D17
 10
959.6897563549525
 20
1382.913012103395
 30
0.0
 11
947.5960063549266
 21
1382.913012103395
 31
0.0
 70
    32
  1
24" MIN.
 71
     5
 42
24.18750000005207
 73
     0
 74
     0
 75
     0
 51
0.0000000000130276
  3
STANDARD$0
100
AcDbAlignedDimension
 13
935.5022563549004
 23
1382.224389224657
 33
0.0
 14
959.6897563549525
 24
1382.224389224652
 34
0.0
 50
359.999999999987
100
AcDbRotatedDimension
  0
LINE
  5
50FB
330
18
100
AcDbEntity
  8
0
 62
     7
100
AcDbLine
 10
727.1398449749317
 20
1280.701236884291
 30
0.0
 11
727.139844974929
 21
1268.701236884291
 31
0.0
  0
LINE
  5
50FC
330
18
100
AcDbEntity
  8
0
 62
     7
100
AcDbLine
 10
728.8273427184513
 20
1280.002249241306
 30
0.0
 11
728.8273427184491
 21
1270.38873462781
 31
0.0
  0
LINE
  5
50FD
330
18
100
AcDbEntity
  8
0
 62
     7
100
AcDbLine
 10
728.8273427184515
 20
1280.002249241307
 30
0.0
 11
727.1398449749317
 21
1280.701236884291
 31
0.0
  0
DIMENSION
  5
50FE
330
18
100
AcDbEntity
  8
0
 62
     7
100
AcDbDimension
  2
*D18
 10
721.5091671015271
 20
1280.701236884291
 30
0.0
 11
721.5091671015269
 21
1274.701236884292
 31
0.0
 70
    32
 71
     5
 42
12.0
 73
     0
 74
     0
 75
     0
 51
0.0000000000130276
  3
STANDARD$0
100
AcDbAlignedDimension
 13
727.139844974929
 23
1268.701236884291
 33
0.0
 14
727.1398449749317
 24
1280.701236884291
 34
0.0
 50
89.99999999998697
100
AcDbRotatedDimension
  0
DIMENSION
  5
510C
330
18
100
AcDbEntity
  8
0
 62
     7
100
AcDbDimension
  2
*D19
 10
708.5313380237237
 20
1256.201236884299
 30
0.0
 11
708.5313380237236
 21
1273.201236884297
 31
0.0
 70
    32
 71
     5
 42
33.99999999999613
 73
     0
 74
     0
 75
     0
 51
0.0000000000130276
  3
STANDARD$0
100
AcDbAlignedDimension
 13
736.6398449749351
 23
1290.201236884295
 33
0.0
 14
736.6398449749229
 24
1256.201236884299
 34
0.0
 50
89.99999999998697
100
AcDbRotatedDimension
  0
DIMENSION
  5
511A
330
18
100
AcDbEntity
  8
0
 62
     7
100
AcDbDimension
  2
*D20
 10
727.139844974929
 20
1249.688383651562
 30
0.0
 11
714.077344974929
 21
1249.688383651562
 31
0.0
 70
    32
  1
TREAD DEPTH
 71
     5
 42
9.499999999993633
 73
     0
 74
     0
 75
     0
 51
0.0000000000130276
  3
STANDARD$0
100
AcDbAlignedDimension
 13
736.6398449749226
 23
1253.951236884289
 33
0.0
 14
727.139844974929
 24
1268.701236884291
 34
0.0
 50
359.999999999987
100
AcDbRotatedDimension
  0
LINE
  5
514A
330
18
100
AcDbEntity
  8
0
 62
     7
100
AcDbLine
 10
727.139844974929
 20
1268.701236884291
 30
0.0
 11
728.827342718449
 21
1270.38873462781
 31
0.0
  0
ENDSEC
  0
SECTION
  2
OBJECTS
  0
DICTIONARY
  5
C
330
0
100
AcDbDictionary
281
     1
  3
ACAD_COLOR
350
3E46
  3
ACAD_GROUP
350
D
  3
ACAD_LAYOUT
350
3DFF
  3
ACAD_MATERIAL
350
3E31
  3
ACAD_MLINESTYLE
350
E
  3
ACAD_PLOTSETTINGS
350
3E00
  3
ACAD_PLOTSTYLENAME
350
3DFD
  3
ACAD_TABLESTYLE
350
3E47
  3
ACAD_VISUALSTYLE
350
3E35
  3
AcDbVariableDictionary
350
3E49
  0
DICTIONARY
  5
4647
330
8
100
AcDbDictionary
280
     1
281
     1
  0
DICTIONARY
  5
3ED1
330
18
100
AcDbDictionary
280
     1
281
     1
  3
ACAD_SORTENTS
360
3ED2
  0
DICTIONARY
  5
3E46
102
{ACAD_REACTORS
330
C
102
}
330
C
100
AcDbDictionary
281
     1
  0
DICTIONARY
  5
D
102
{ACAD_REACTORS
330
C
102
}
330
C
100
AcDbDictionary
281
     1
  0
DICTIONARY
  5
3DFF
102
{ACAD_REACTORS
330
C
102
}
330
C
100
AcDbDictionary
281
     1
  3
Layout1
350
3E02
  3
Model
350
3E01
  0
DICTIONARY
  5
3E31
102
{ACAD_REACTORS
330
C
102
}
330
C
100
AcDbDictionary
281
     1
  3
ByBlock
350
3E33
  3
ByLayer
350
3E32
  3
Global
350
3E34
  0
DICTIONARY
  5
E
102
{ACAD_REACTORS
330
C
102
}
330
C
100
AcDbDictionary
281
     1
  3
STANDARD
350
1B
  0
DICTIONARY
  5
3E00
102
{ACAD_REACTORS
330
C
102
}
330
C
100
AcDbDictionary
281
     1
  0
ACDBDICTIONARYWDFLT
  5
3DFD
102
{ACAD_REACTORS
330
C
102
}
330
C
100
AcDbDictionary
281
     1
  3
Normal
350
3DFE
100
AcDbDictionaryWithDefault
340
3DFE
  0
DICTIONARY
  5
3E47
102
{ACAD_REACTORS
330
C
102
}
330
C
100
AcDbDictionary
281
     1
  3
Standard
350
3E48
  0
DICTIONARY
  5
3E35
102
{ACAD_REACTORS
330
C
102
}
330
C
100
AcDbDictionary
281
     1
  3
2dWireframe
350
3E3B
  3
3D Hidden
350
3E3D
  3
3dWireframe
350
3E3C
  3
Basic
350
3E3A
  3
Brighten
350
3E41
  3
ColorChange
350
3E45
  3
Conceptual
350
3E3E
  3
Dim
350
3E40
  3
Facepattern
350
3E44
  3
Flat
350
3E36
  3
FlatWithEdges
350
3E37
  3
Gouraud
350
3E38
  3
GouraudWithEdges
350
3E39
  3
Linepattern
350
3E43
  3
Realistic
350
3E3F
  3
Thicken
350
3E42
  0
DICTIONARY
  5
3E49
102
{ACAD_REACTORS
330
C
102
}
330
C
100
AcDbDictionary
281
     1
  3
CTABLESTYLE
350
3E4A
  3
DIMASSOC
350
465B
  3
INDEXCTL
350
465A
  3
SORTENTS
350
4659
  0
SORTENTSTABLE
  5
3ED2
102
{ACAD_REACTORS
330
3ED1
102
}
330
3ED1
100
AcDbSortentsTable
330
18
331
46F0
  5
4A92
331
4C92
  5
353C
331
46F8
  5
4A9A
331
4AD5
  5
4C67
331
4700
  5
4AA2
331
4C63
  5
3ED0
331
4C6B
  5
34F6
331
4AFD
  5
4C74
331
3EC9
  5
4703
331
44FA
  5
40B8
331
4539
  5
4599
331
4541
  5
46E4
331
4CCA
  5
4E71
331
731
  5
731
331
34E9
  5
4094
331
A58
  5
A58
331
2914
  5
2A13
331
4549
  5
46ED
331
450A
  5
40C3
331
739
  5
739
331
50FC
  5
50FC
331
34F1
  5
4099
331
FD7
  5
1053
331
4551
  5
46F5
331
4E0A
  5
4E76
331
7F9
  5
7F9
331
1D1D
  5
2112
331
510C
  5
510C
331
4592
  5
470B
331
4708
  5
4AAA
331
4C04
  5
4836
331
4710
  5
4AB2
331
45A2
  5
4837
331
4837
  5
4AC4
331
4C73
  5
4C90
331
4C0C
  5
482E
331
4718
  5
4ABA
331
483F
  5
4AD3
331
4C7B
  5
4CC9
331
46E9
  5
4848
331
4847
  5
4AE2
331
4B95
  5
4C7E
331
4C83
  5
4E0A
331
4C8B
  5
407D
331
4C4C
  5
4C84
331
4522
  5
40F4
331
4E82
  5
4E8A
331
29D4
  5
2CE7
331
500E
  5
500F
331
44F3
  5
40B1
331
452A
  5
40F5
331
4E8A
  5
4E92
331
4532
  5
4585
331
4E92
  5
4E9A
331
4FDF
  5
5007
331
4E9A
  5
4F2F
331
34DA
  5
3546
331
34E2
  5
4081
331
1C56
  5
1D1B
331
46F1
  5
4A93
331
4C93
  5
3500
331
46F9
  5
4A9B
331
4C54
  5
4C8C
331
4C5C
  5
C6A
331
4BE5
  5
4838
331
4701
  5
4AA3
331
47F0
  5
4ABE
331
4C64
  5
3ECD
331
4C6C
  5
34F2
331
3D14
  5
40A9
331
3ECA
  5
1D21
331
44FB
  5
40B9
331
453A
  5
459D
331
3925
  5
40A0
331
4542
  5
46E6
331
4CCB
  5
4E72
331
34EA
  5
4096
331
454A
  5
46EE
331
450B
  5
40C4
331
50FD
  5
50FD
331
2955
  5
2A14
331
FD8
  5
108A
331
4EFA
  5
4FDB
331
4552
  5
46F6
331
4E0B
  5
4E83
331
AC9
  5
AC9
331
1D1E
  5
2113
331
5007
  5
4EA6
331
35BA
  5
409C
331
4593
  5
470C
331
4709
  5
4AAB
331
4C05
  5
47F0
331
4711
  5
4AB3
331
4838
  5
4AC5
331
4C74
  5
4C91
331
4C0D
  5
471A
331
4719
  5
4ABB
331
4840
  5
4AD5
331
4C7C
  5
4CCA
331
4C84
  5
FD8
331
46EA
  5
4849
331
4848
  5
4AE7
331
4B96
  5
4C7B
331
4C8C
  5
3ECE
331
4B9E
  5
4098
331
4C4D
  5
4C87
331
40A2
  5
4704
331
396D
  5
40A4
331
4E83
  5
4E8B
331
29D5
  5
2EBA
331
C69
  5
C69
331
500F
  5
5010
331
44F4
  5
40B2
331
452B
  5
40F6
331
4582
  5
4707
331
4E8B
  5
4E93
331
9AA
  5
9AA
331
2A6D
  5
30A2
331
4533
  5
4586
331
4E93
  5
4E9B
331
34DB
  5
3A2E
331
4E9B
  5
4F3D
331
2ADD
  5
30C9
331
34E3
  5
4084
331
46F2
  5
4A94
331
4C94
  5
34F3
331
4BDE
  5
470D
331
46FA
  5
4A9C
331
4AD7
  5
4C68
331
4C55
  5
4C8D
331
4C5D
  5
C82
331
4BE6
  5
47F1
331
4702
  5
4AA4
331
47F1
  5
4ABF
331
4C65
  5
3ECA
331
4BEE
  5
4C80
331
4C6D
  5
34EA
331
4AFF
  5
4C75
331
3EC3
  5
46FD
331
3ECB
  5
1D22
331
44FC
  5
40BA
331
453B
  5
459F
331
4FE0
  5
500E
331
4543
  5
46E7
331
4CCC
  5
4E73
331
34EB
  5
4097
331
1C67
  5
1D1C
331
454B
  5
46EF
331
450C
  5
40C5
331
50FE
  5
50FE
331
2F95
  5
30CC
331
2956
  5
2A15
331
FD9
  5
108B
331
4553
  5
46F7
331
4514
  5
40CA
331
331C
  5
34E2
331
4E7C
  5
4E84
331
1D1F
  5
2912
331
35BB
  5
409D
331
2FBD
  5
332F
331
4594
  5
470E
331
470A
  5
4AAC
331
4C06
  5
4718
331
4839
  5
4AC6
331
45A4
  5
4839
331
4712
  5
4AB4
331
4A90
  5
4C01
331
4C75
  5
4C92
331
4C0E
  5
4716
331
471A
  5
4ABC
331
4841
  5
4AD6
331
4AB0
  5
4C08
331
4C7D
  5
4CCB
331
4C85
  5
FDA
331
46EB
  5
484A
331
4849
  5
4BDC
331
4B97
  5
4C50
331
4C8D
  5
3ECB
331
4C4E
  5
4C88
331
1BC0
  5
1CCD
331
4E84
  5
4E8C
331
5010
  5
50FA
331
29D6
  5
2EBB
331
C6A
  5
C6C
331
44F5
  5
40B3
331
452C
  5
40F7
331
4E8C
  5
4E94
331
9AB
  5
9AB
331
34D4
  5
34E3
331
2A6E
  5
30C8
331
1C48
  5
1CEB
331
4534
  5
4591
331
4E94
  5
4EFA
331
34DC
  5
3AA4
331
C7A
  5
FD6
331
34E4
  5
4087
331
45DC
  5
483F
331
46F3
  5
4A95
331
4AD0
  5
4C3A
331
4C95
  5
34EB
331
46FB
  5
4A9D
331
4C5E
  5
408B
331
4BE7
  5
4710
331
4703
  5
4AA5
331
4C66
  5
3E1F
331
463C
  5
4842
331
4BEF
  5
4C81
331
4C6E
  5
34E7
331
3AA6
  5
40A7
331
3EC4
  5
46FE
331
3ECC
  5
1D23
331
44FD
  5
40BB
331
C82
  5
FD9
331
3927
  5
40A1
331
4544
  5
46E8
331
4CCD
  5
4E74
331
454C
  5
46F0
331
450D
  5
40C6
331
4F4B
  5
4FE2
331
2F96
  5
3262
331
2957
  5
2CA9
331
1AD1
  5
1B1C
331
FDA
  5
162A
331
4554
  5
46F8
331
4515
  5
40CB
331
1D20
  5
2913
331
4E7D
  5
4E85
331
1052
  5
17F5
331
87C
  5
87C
331
2FBE
  5
348A
331
4595
  5
4711
331
470B
  5
4AAD
331
4C07
  5
4714
331
483A
  5
4AC7
331
4713
  5
4AB5
331
4A91
  5
4C02
331
4C76
  5
4C93
331
4C0F
  5
4712
331
4AB1
  5
4C0F
331
471B
  5
4ABD
331
45AD
  5
4719
331
46E4
  5
4844
331
4842
  5
4AD7
331
4B90
  5
4C76
331
4C7E
  5
4CCC
331
4C86
  5
408C
331
45C5
  5
34E0
331
46EC
  5
484B
331
484A
  5
4BDD
331
4C8E
  5
3EC7
331
4C4F
  5
4C89
331
1BC1
  5
1CEA
331
108A
  5
1AD1
331
4E85
  5
4E8D
331
29D7
  5
2ECD
331
162A
  5
1AD3
331
44F6
  5
40B4
331
452D
  5
40F8
331
4584
  5
4708
331
4E8D
  5
4E95
331
34D5
  5
34E6
331
4535
  5
4592
331
4E95
  5
4F12
331
34DD
  5
3E0D
331
34E5
  5
408A
331
46F4
  5
4A96
331
4AD1
  5
4C51
331
4C96
  5
34E8
331
4BE0
  5
4715
331
46FC
  5
4A9E
331
4AD9
  5
4C69
331
4C5F
  5
4088
331
4704
  5
4AA6
331
45F5
  5
4840
331
4AE9
  5
4C6D
331
4C67
  5
3AA5
331
463D
  5
4843
331
4C6F
  5
34E4
331
3EC5
  5
46FF
331
3918
  5
409F
331
453D
  5
45A0
331
3ECD
  5
1DB6
331
44FE
  5
40BC
331
4FE2
  5
4091
331
4545
  5
46E9
331
4506
  5
40BF
331
2CE7
  5
30CB
331
454D
  5
46F1
331
450E
  5
40C7
331
2F97
  5
332D
331
2958
  5
2CAA
331
1AD2
  5
1BC0
331
FDB
  5
163B
331
4555
  5
46F9
331
4516
  5
40CC
331
1D21
  5
2957
331
1B1A
  5
1C56
331
4E7E
  5
4E86
331
1053
  5
17FB
331
87D
  5
87D
331
470C
  5
4AAE
331
4C08
  5
4835
331
483B
  5
4ACA
331
45A6
  5
483B
331
4714
  5
4AB6
331
4A92
  5
4C03
331
4C77
  5
4C94
331
4AB2
  5
4C1E
331
4843
  5
4AD8
331
4B91
  5
4C77
331
4C7F
  5
4CCD
331
4C87
  5
4089
331
46ED
  5
4921
331
45C6
  5
483D
331
484B
  5
4BDE
331
4ACA
  5
4C2C
331
4C8F
  5
3DCC
331
3A30
  5
40A5
331
108B
  5
1AD2
331
4E86
  5
4E8E
331
C6C
  5
C6D
331
44F7
  5
40B5
331
452E
  5
40FB
331
4585
  5
4709
331
4E8E
  5
4E96
331
163B
  5
1AD4
331
34D6
  5
34E9
331
4536
  5
4594
331
4E96
  5
4F1C
331
A3D
  5
A3D
331
34DE
  5
3EC9
331
32FF
  5
34DF
331
34E6
  5
408D
331
46F5
  5
4A97
331
4AD2
  5
4C52
331
4C50
  5
4C8A
331
4C97
  5
34E5
331
46FD
  5
4A9F
331
4ADA
  5
4C6A
331
4C60
  5
4085
331
4BE9
  5
483A
331
4705
  5
4AA7
331
45F6
  5
4841
331
4AEA
  5
4C6E
331
4C68
  5
3A2F
331
4AFA
  5
4C70
331
3EC6
  5
4700
331
3E1F
  5
46FC
331
453E
  5
45F6
331
3ECE
  5
210A
331
44FF
  5
40BD
331
4FE3
  5
408E
331
4546
  5
46EA
331
4507
  5
40C0
331
4EA6
  5
4F4B
331
1CEA
  5
210D
331
17FB
  5
1B1B
331
454E
  5
46F2
331
450F
  5
40C8
331
2F98
  5
332E
331
1AD3
  5
1BC1
331
4556
  5
46FA
331
4517
  5
40CD
331
1D22
  5
2958
331
4E7F
  5
4E87
331
1B1B
  5
1C67
331
4C70
  5
FD7
331
470D
  5
4AAF
331
4C09
  5
471B
331
483C
  5
4AD0
331
4715
  5
4AB7
331
4A93
  5
4C06
331
4C78
  5
4C95
331
46E6
  5
4845
331
4844
  5
4AD9
331
4B92
  5
4C7C
331
4C88
  5
4086
331
45C7
  5
483E
331
46EE
  5
4A90
331
3929
  5
40A2
331
3A31
  5
40A6
331
44E8
  5
40AB
331
210A
  5
29D4
331
457E
  5
4705
331
4E87
  5
4E8F
331
8CE
  5
8CE
331
2A69
  5
2FC2
331
2142
  5
2A0F
331
C6D
  5
C6E
331
452F
  5
457F
331
4586
  5
470A
331
4E8F
  5
4E97
331
34D7
  5
34F1
331
4537
  5
4595
331
4E97
  5
4F1D
331
A3E
  5
A3E
331
34DF
  5
3ECC
331
2CA9
  5
30CA
331
34E7
  5
4090
331
4C90
  5
3A30
331
46F6
  5
4A98
331
4C51
  5
4C8B
331
4C98
  5
C76
331
4BE2
  5
483C
331
46FE
  5
4AA0
331
4ADB
  5
4C6C
331
4C61
  5
4082
331
4706
  5
4AA8
331
4AEB
  5
4C6F
331
4C69
  5
3A23
331
4AFB
  5
4C71
331
3AA9
  5
40A8
331
44F8
  5
40B6
331
3EC7
  5
4701
331
453F
  5
463C
331
4500
  5
40BE
331
3ECF
  5
210B
331
3300
  5
34E1
331
2912
  5
2A11
331
4FE4
  5
4092
331
4547
  5
46EB
331
4508
  5
40C1
331
4CD8
  5
4E75
331
1CEB
  5
210E
331
FD5
  5
FDB
331
454F
  5
46F3
331
4510
  5
40C9
331
1D1B
  5
210F
331
1AD4
  5
1C48
331
4557
  5
46FB
331
1D23
  5
29BB
331
1B1C
  5
1CC2
331
356F
  5
409B
331
470E
  5
4AB0
331
4835
  5
4AC2
331
4C71
  5
4C8E
331
4C0A
  5
4717
331
4716
  5
4AB8
331
483D
  5
4AD1
331
4C79
  5
4C96
331
4845
  5
4ADB
331
46E7
  5
4846
331
4B93
  5
4C7D
331
4C3A
  5
4C83
331
4C89
  5
4083
331
46EF
  5
4A91
331
4518
  5
40CE
331
4520
  5
40CF
331
44E9
  5
40AC
331
4E80
  5
4E88
331
2FC1
  5
34DC
331
210B
  5
29D5
331
44F1
  5
40AF
331
457F
  5
4706
331
4E88
  5
4E90
331
511A
  5
511A
331
31E1
  5
34DE
331
2A6A
  5
3090
331
2143
  5
2A10
331
C6E
  5
C7A
331
4530
  5
4582
331
4E90
  5
4E98
331
8CF
  5
8CF
331
4FDD
  5
4FE3
331
4E98
  5
4F1E
331
C76
  5
FD5
331
34D8
  5
34F4
331
34E0
  5
3ECF
331
4C91
  5
3A25
331
46F7
  5
4A99
331
46FF
  5
4AA1
331
4C99
  5
4E0B
331
4C62
  5
407F
331
4707
  5
4AA9
331
4C6A
  5
351E
331
482E
  5
4AC0
331
4AFC
  5
4C72
331
3913
  5
409E
331
4538
  5
4597
331
44F9
  5
40B7
331
3EC8
  5
4702
331
4540
  5
463D
331
4CC9
  5
4E70
331
3DF2
  5
40AA
331
2913
  5
2A12
331
34E8
  5
4093
331
A57
  5
A57
331
17F5
  5
1B1A
331
4FE5
  5
408F
331
4548
  5
46EC
331
4509
  5
40C2
331
50FB
  5
50FB
331
FD6
  5
1052
331
4550
  5
46F4
331
1D1C
  5
2110
331
29BB
  5
2CC3
331
470F
  5
4AB1
331
4836
  5
4AC3
331
4C03
  5
4C82
331
4C72
  5
4C8F
331
4C0B
  5
4713
331
4717
  5
4AB9
331
483E
  5
4AD2
331
4C7A
  5
4C97
331
46E8
  5
4847
331
4846
  5
4ADC
331
4C82
  5
4CD8
331
4C8A
  5
4080
331
393B
  5
40A3
331
4560
  5
409A
331
4521
  5
40D0
331
44EA
  5
40AE
331
4E81
  5
4E89
331
2FC2
  5
34DD
331
44F2
  5
40B0
331
4E89
  5
4E91
331
4531
  5
4583
331
4E91
  5
4E99
331
34D9
  5
350A
331
4FDE
  5
4FE4
331
4E99
  5
4F21
331
34E1
  5
407E
  0
LAYOUT
  5
3E02
102
{ACAD_REACTORS
330
3DFF
102
}
330
3DFF
100
AcDbPlotSettings
  1

  2
HP LaserJet 2100 Series PCL 6
  4

  6

 40
0.0
 41
0.0
 42
0.0
 43
0.0
 44
0.0
 45
0.0
 46
0.0
 47
0.0
 48
0.0
 49
0.0
140
0.0
141
0.0
142
1.0
143
1.0
 70
   688
 72
     0
 73
     0
 74
     5
  7
Erik.ctb
 75
    16
147
1.0
 76
     0
 77
     2
 78
   300
148
0.0
149
0.0
100
AcDbLayout
  1
Layout1
 70
     1
 71
     1
 10
0.0
 20
0.0
 11
12.0
 21
9.0
 12
0.0
 22
0.0
 32
0.0
 14
1.000000000000000E+20
 24
1.000000000000000E+20
 34
1.000000000000000E+20
 15
-1.000000000000000E+20
 25
-1.000000000000000E+20
 35
-1.000000000000000E+20
146
0.0
 13
0.0
 23
0.0
 33
0.0
 16
1.0
 26
0.0
 36
0.0
 17
0.0
 27
1.0
 37
0.0
 76
     0
330
15
  0
LAYOUT
  5
3E01
102
{ACAD_REACTORS
330
3DFF
102
}
330
3DFF
100
AcDbPlotSettings
  1

  2
PDF Pro 10
  4
Letter
  6

 40
3.174999952316284
 41
3.174999952316284
 42
3.175003051757812
 43
3.17498779296875
 44
215.8999938964844
 45
279.3999938964844
 46
0.0
 47
0.9569818178678774
 48
0.0
 49
0.0
140
0.0
141
0.0
142
1.0
143
28.33963091498802
 70
  3764
 72
     0
 73
     1
 74
     1
  7
acad.ctb
 75
     0
147
0.0352862746519091
 76
     0
 77
     2
 78
   300
148
-17531.36341379793
149
-30415.68297963702
100
AcDbLayout
  1
Model
 70
     1
 71
     0
 10
0.0
 20
0.0
 11
12.0
 21
9.0
 12
0.0
 22
0.0
 32
0.0
 14
0.0
 24
0.0
 34
0.0
 15
0.0
 25
0.0
 35
0.0
146
0.0
 13
0.0
 23
0.0
 33
0.0
 16
1.0
 26
0.0
 36
0.0
 17
0.0
 27
1.0
 37
0.0
 76
     0
330
18
331
3E2F
1001
ACAD_PSEXT
1000
PDF Pro 10
1000
Visage PDF
1000
VSP1:
1000

1070
     0
  0
MATERIAL
  5
3E33
102
{ACAD_REACTORS
330
3E31
102
}
330
3E31
100
AcDbMaterial
  1
ByBlock
  0
MATERIAL
  5
3E32
102
{ACAD_REACTORS
330
3E31
102
}
330
3E31
100
AcDbMaterial
  1
ByLayer
  0
MATERIAL
  5
3E34
102
{ACAD_REACTORS
330
3E31
102
}
330
3E31
100
AcDbMaterial
  1
Global
  0
MLINESTYLE
  5
1B
102
{ACAD_REACTORS
330
E
102
}
330
E
100
AcDbMlineStyle
  2
STANDARD
 70
     0
  3

 62
     0
 51
90.0
 52
90.0
 71
     2
 49
0.5
 62
   256
  6
BYLAYER
 49
-0.5
 62
   256
  6
BYLAYER
  0
ACDBPLACEHOLDER
  5
3DFE
102
{ACAD_REACTORS
330
3DFD
102
}
330
3DFD
  0
TABLESTYLE
  5
3E48
102
{ACAD_REACTORS
330
3E47
102
}
330
3E47
100
AcDbTableStyle
  3
Standard
 70
     0
 71
     0
 40
0.06
 41
0.06
280
     0
281
     0
  7
STANDARD
140
0.18
170
     2
 62
     0
 63
     7
283
     0
 90
      512
 91
        0
  1

274
    -2
284
     1
 64
     0
275
    -2
285
     1
 65
     0
276
    -2
286
     1
 66
     0
277
    -2
287
     1
 67
     0
278
    -2
288
     1
 68
     0
279
    -2
289
     1
 69
     0
  7
STANDARD
140
0.25
170
     5
 62
     0
 63
     7
283
     0
 90
      512
 91
        0
  1

274
    -2
284
     1
 64
     0
275
    -2
285
     1
 65
     0
276
    -2
286
     1
 66
     0
277
    -2
287
     1
 67
     0
278
    -2
288
     1
 68
     0
279
    -2
289
     1
 69
     0
  7
STANDARD
140
0.18
170
     5
 62
     0
 63
     7
283
     0
 90
      512
 91
        0
  1

274
    -2
284
     1
 64
     0
275
    -2
285
     1
 65
     0
276
    -2
286
     1
 66
     0
277
    -2
287
     1
 67
     0
278
    -2
288
     1
 68
     0
279
    -2
289
     1
 69
     0
  0
VISUALSTYLE
  5
3E3B
102
{ACAD_REACTORS
330
3E35
102
}
330
3E35
100
AcDbVisualStyle
  2
2dWireframe
 70
     4
 71
     0
 72
     2
 73
     0
 90
        0
 40
-0.6
 41
-30.0
 62
     5
 63
     7
 74
     1
 91
        4
 64
     7
 65
   257
 75
     1
175
     1
 42
1.0
 92
        0
 66
   257
 43
1.0
 76
     1
 77
     6
 78
     2
 67
     7
 79
     5
170
     0
171
     0
290
     0
174
     0
 93
        1
 44
0.0
173
     0
291
     0
 45
0.0
  0
VISUALSTYLE
  5
3E3D
102
{ACAD_REACTORS
330
3E35
102
}
330
3E35
100
AcDbVisualStyle
  2
3D Hidden
 70
     6
 71
     1
 72
     2
 73
     2
 90
        0
 40
-0.6
 41
-30.0
 62
     5
 63
     7
 74
     2
 91
        2
 64
     7
 65
   257
 75
     2
175
     1
 42
40.0
 92
        0
 66
   257
 43
1.0
 76
     1
 77
     6
 78
     2
 67
     7
 79
     3
170
     0
171
     0
290
     0
174
     0
 93
        1
 44
0.0
173
     0
291
     0
 45
0.0
  0
VISUALSTYLE
  5
3E3C
102
{ACAD_REACTORS
330
3E35
102
}
330
3E35
100
AcDbVisualStyle
  2
3dWireframe
 70
     5
 71
     0
 72
     2
 73
     0
 90
        0
 40
-0.6
 41
-30.0
 62
     5
 63
     7
 74
     1
 91
        4
 64
     7
 65
   257
 75
     1
175
     1
 42
1.0
 92
        0
 66
   257
 43
1.0
 76
     1
 77
     6
 78
     2
 67
     7
 79
     5
170
     0
171
     0
290
     0
174
     0
 93
        1
 44
0.0
173
     0
291
     0
 45
0.0
  0
VISUALSTYLE
  5
3E3A
102
{ACAD_REACTORS
330
3E35
102
}
330
3E35
100
AcDbVisualStyle
  2
Basic
 70
     7
 71
     1
 72
     0
 73
     1
 90
        0
 40
-0.6
 41
-30.0
 62
     5
 63
     7
 74
     0
 91
        4
 64
     7
 65
   257
 75
     1
175
     1
 42
1.0
 92
        8
 66
     7
 43
1.0
 76
     1
 77
     6
 78
     2
 67
     7
 79
     5
170
     0
171
     0
290
     0
174
     0
 93
        1
 44
0.0
173
     0
291
     1
 45
0.0
  0
VISUALSTYLE
  5
3E41
102
{ACAD_REACTORS
330
3E35
102
}
330
3E35
100
AcDbVisualStyle
  2
Brighten
 70
    12
 71
     2
 72
     2
 73
     0
 90
        0
 40
-0.6
 41
-30.0
 62
     5
 63
     7
 74
     1
 91
        4
 64
     7
 65
   257
 75
     1
175
     1
 42
1.0
 92
        8
 66
     7
 43
1.0
 76
     1
 77
     6
 78
     2
 67
     7
 79
     5
170
     0
171
     0
290
     0
174
     0
 93
        1
 44
50.0
173
     0
291
     1
 45
0.0
  0
VISUALSTYLE
  5
3E45
102
{ACAD_REACTORS
330
3E35
102
}
330
3E35
100
AcDbVisualStyle
  2
ColorChange
 70
    16
 71
     2
 72
     2
 73
     3
 90
        0
 40
-0.6
 41
-30.0
 62
     5
 63
     8
 74
     1
 91
        4
 64
     7
 65
   257
 75
     1
175
     1
 42
1.0
 92
        8
 66
     8
 43
1.0
 76
     1
 77
     6
 78
     2
 67
     7
 79
     5
170
     0
171
     0
290
     0
174
     0
 93
        1
 44
0.0
173
     0
291
     1
 45
0.0
  0
VISUALSTYLE
  5
3E3E
102
{ACAD_REACTORS
330
3E35
102
}
330
3E35
100
AcDbVisualStyle
  2
Conceptual
 70
     9
 71
     3
 72
     2
 73
     0
 90
        0
 40
-0.6
 41
-30.0
 62
     5
 63
     7
 74
     2
 91
        2
 64
     7
 65
   257
 75
     1
175
     1
 42
40.0
 92
        8
 66
     7
 43
1.0
 76
     1
 77
     6
 78
     2
 67
     7
 79
     3
170
     0
171
     0
290
     0
174
     0
 93
        1
 44
0.0
173
     0
291
     0
 45
0.0
  0
VISUALSTYLE
  5
3E40
102
{ACAD_REACTORS
330
3E35
102
}
330
3E35
100
AcDbVisualStyle
  2
Dim
 70
    11
 71
     2
 72
     2
 73
     0
 90
        0
 40
-0.6
 41
-30.0
 62
     5
 63
     7
 74
     1
 91
        4
 64
     7
 65
   257
 75
     1
175
     1
 42
1.0
 92
        8
 66
     7
 43
1.0
 76
     1
 77
     6
 78
     2
 67
     7
 79
     5
170
     0
171
     0
290
     0
174
     0
 93
        1
 44
-50.0
173
     0
291
     1
 45
0.0
  0
VISUALSTYLE
  5
3E44
102
{ACAD_REACTORS
330
3E35
102
}
330
3E35
100
AcDbVisualStyle
  2
Facepattern
 70
    15
 71
     2
 72
     2
 73
     0
 90
        0
 40
-0.6
 41
-30.0
 62
     5
 63
     7
 74
     1
 91
        4
 64
     7
 65
   257
 75
     1
175
     1
 42
1.0
 92
        8
 66
     7
 43
1.0
 76
     1
 77
     6
 78
     2
 67
     7
 79
     5
170
     0
171
     0
290
     0
174
     0
 93
        1
 44
0.0
173
     0
291
     1
 45
0.0
  0
VISUALSTYLE
  5
3E36
102
{ACAD_REACTORS
330
3E35
102
}
330
3E35
100
AcDbVisualStyle
  2
Flat
 70
     0
 71
     2
 72
     1
 73
     1
 90
        2
 40
-0.6
 41
30.0
 62
     5
 63
     7
 74
     0
 91
        4
 64
     7
 65
   257
 75
     1
175
     1
 42
1.0
 92
        8
 66
     7
 43
1.0
 76
     1
 77
     6
 78
     2
 67
     7
 79
     5
170
     0
171
     0
290
     0
174
     0
 93
       13
 44
0.0
173
     0
291
     1
 45
0.0
  0
VISUALSTYLE
  5
3E37
102
{ACAD_REACTORS
330
3E35
102
}
330
3E35
100
AcDbVisualStyle
  2
FlatWithEdges
 70
     1
 71
     2
 72
     1
 73
     1
 90
        2
 40
-0.6
 41
30.0
 62
     5
 63
     7
 74
     1
 91
        4
 64
     7
 65
   257
 75
     1
175
     1
 42
1.0
 92
        0
 66
   257
 43
1.0
 76
     1
 77
     6
 78
     2
 67
     7
 79
     5
170
     0
171
     0
290
     0
174
     0
 93
       13
 44
0.0
173
     0
291
     1
 45
0.0
  0
VISUALSTYLE
  5
3E38
102
{ACAD_REACTORS
330
3E35
102
}
330
3E35
100
AcDbVisualStyle
  2
Gouraud
 70
     2
 71
     2
 72
     2
 73
     1
 90
        2
 40
-0.6
 41
30.0
 62
     5
 63
     7
 74
     0
 91
        4
 64
     7
 65
   257
 75
     1
175
     1
 42
1.0
 92
        0
 66
     7
 43
1.0
 76
     1
 77
     6
 78
     2
 67
     7
 79
     5
170
     0
171
     0
290
     0
174
     0
 93
       13
 44
0.0
173
     0
291
     1
 45
0.0
  0
VISUALSTYLE
  5
3E39
102
{ACAD_REACTORS
330
3E35
102
}
330
3E35
100
AcDbVisualStyle
  2
GouraudWithEdges
 70
     3
 71
     2
 72
     2
 73
     1
 90
        2
 40
-0.6
 41
30.0
 62
     5
 63
     7
 74
     1
 91
        4
 64
     7
 65
   257
 75
     1
175
     1
 42
1.0
 92
        0
 66
   257
 43
1.0
 76
     1
 77
     6
 78
     2
 67
     7
 79
     5
170
     0
171
     0
290
     0
174
     0
 93
       13
 44
0.0
173
     0
291
     1
 45
0.0
  0
VISUALSTYLE
  5
3E43
102
{ACAD_REACTORS
330
3E35
102
}
330
3E35
100
AcDbVisualStyle
  2
Linepattern
 70
    14
 71
     2
 72
     2
 73
     0
 90
        0
 40
-0.6
 41
-30.0
 62
     5
 63
     7
 74
     1
 91
        4
 64
     7
 65
   257
 75
     7
175
     7
 42
1.0
 92
        8
 66
     7
 43
1.0
 76
     1
 77
     6
 78
     2
 67
     7
 79
     5
170
     0
171
     0
290
     0
174
     0
 93
        1
 44
0.0
173
     0
291
     1
 45
0.0
  0
VISUALSTYLE
  5
3E3F
102
{ACAD_REACTORS
330
3E35
102
}
330
3E35
100
AcDbVisualStyle
  2
Realistic
 70
     8
 71
     2
 72
     2
 73
     0
 90
        0
 40
-0.6
 41
-30.0
 62
     5
 63
     7
 74
     1
 91
        0
 64
     7
 65
   257
 75
     1
175
     1
 42
1.0
 92
        8
 66
     8
 43
1.0
 76
     1
 77
     6
 78
     2
 67
     7
 79
     5
170
     0
171
     0
290
     0
174
     0
 93
       13
 44
0.0
173
     0
291
     0
 45
0.0
  0
VISUALSTYLE
  5
3E42
102
{ACAD_REACTORS
330
3E35
102
}
330
3E35
100
AcDbVisualStyle
  2
Thicken
 70
    13
 71
     2
 72
     2
 73
     0
 90
        0
 40
-0.6
 41
-30.0
 62
     5
 63
     7
 74
     1
 91
        4
 64
     7
 65
   257
 75
     1
175
     1
 42
1.0
 92
       12
 66
     7
 43
1.0
 76
     1
 77
     6
 78
     2
 67
     7
 79
     5
170
     0
171
     0
290
     0
174
     0
 93
        1
 44
0.0
173
     0
291
     1
 45
0.0
  0
DICTIONARYVAR
  5
3E4A
102
{ACAD_REACTORS
330
3E49
102
}
330
3E49
100
DictionaryVariables
280
     0
  1
STANDARD
  0
DICTIONARYVAR
  5
465B
102
{ACAD_REACTORS
330
3E49
102
}
330
3E49
100
DictionaryVariables
280
     0
  1
1
  0
DICTIONARYVAR
  5
465A
102
{ACAD_REACTORS
330
3E49
102
}
330
3E49
100
DictionaryVariables
280
     0
  1
0
  0
DICTIONARYVAR
  5
4659
102
{ACAD_REACTORS
330
3E49
102
}
330
3E49
100
DictionaryVariables
280
     0
  1
127
  0
ENDSEC
  0
EOF
