  0
SECTION
  2
HEADER
  9
$ACADVER
  1
AC1021
  9
$ACADMAINTVER
 70
     1
  9
$DWGCODEPAGE
  3
ANSI_1252
  9
$LASTSAVEDBY
  1
dusti
  9
$INSBASE
 10
0.0
 20
0.0
 30
0.0
  9
$EXTMIN
 10
-21.23950431940368
 20
922.2967138823412
 30
0.0
  9
$EXTMAX
 10
392.0155225559913
 20
1179.421713882341
 30
0.0
  9
$LIMMIN
 10
0.0
 20
0.0
  9
$LIMMAX
 10
12.0
 20
9.0
  9
$ORTHOMODE
 70
     1
  9
$REGENMODE
 70
     1
  9
$FILLMODE
 70
     1
  9
$QTEXTMODE
 70
     0
  9
$MIRRTEXT
 70
     1
  9
$LTSCALE
 40
5.0
  9
$ATTMODE
 70
     1
  9
$TEXTSIZE
 40
3.0
  9
$TRACEWID
 40
0.05
  9
$TEXTSTYLE
  7
ROMANS
  9
$CLAYER
  8
0
  9
$CELTYPE
  6
BYLAYER
  9
$CECOLOR
 62
     7
  9
$CELTSCALE
 40
1.0
  9
$DISPSILH
 70
     0
  9
$DIMSCALE
 40
12.0
  9
$DIMASZ
 40
0.1875
  9
$DIMEXO
 40
0.0625
  9
$DIMDLI
 40
0.375
  9
$DIMRND
 40
0.0
  9
$DIMDLE
 40
0.0
  9
$DIMEXE
 40
0.1875
  9
$DIMTP
 40
0.0
  9
$DIMTM
 40
0.0
  9
$DIMTXT
 40
0.1875
  9
$DIMCEN
 40
0.0625
  9
$DIMTSZ
 40
0.0
  9
$DIMTOL
 70
     0
  9
$DIMLIM
 70
     0
  9
$DIMTIH
 70
     1
  9
$DIMTOH
 70
     1
  9
$DIMSE1
 70
     0
  9
$DIMSE2
 70
     0
  9
$DIMTAD
 70
     0
  9
$DIMZIN
 70
     3
  9
$DIMBLK
  1

  9
$DIMASO
 70
     1
  9
$DIMSHO
 70
     1
  9
$DIMPOST
  1

  9
$DIMAPOST
  1

  9
$DIMALT
 70
     0
  9
$DIMALTD
 70
     2
  9
$DIMALTF
 40
25.4
  9
$DIMLFAC
 40
1.0
  9
$DIMTOFL
 70
     0
  9
$DIMTVP
 40
0.0
  9
$DIMTIX
 70
     0
  9
$DIMSOXD
 70
     0
  9
$DIMSAH
 70
     0
  9
$DIMBLK1
  1

  9
$DIMBLK2
  1

  9
$DIMSTYLE
  2
STANDARD
  9
$DIMCLRD
 70
     0
  9
$DIMCLRE
 70
     0
  9
$DIMCLRT
 70
     0
  9
$DIMTFAC
 40
1.0
  9
$DIMGAP
 40
0.0625
  9
$DIMJUST
 70
     0
  9
$DIMSD1
 70
     0
  9
$DIMSD2
 70
     0
  9
$DIMTOLJ
 70
     1
  9
$DIMTZIN
 70
     0
  9
$DIMALTZ
 70
     0
  9
$DIMALTTZ
 70
     0
  9
$DIMUPT
 70
     0
  9
$DIMDEC
 70
     4
  9
$DIMTDEC
 70
     4
  9
$DIMALTU
 70
     2
  9
$DIMALTTD
 70
     2
  9
$DIMTXSTY
  7
ROMANS
  9
$DIMAUNIT
 70
     0
  9
$DIMADEC
 70
     0
  9
$DIMALTRND
 40
0.0
  9
$DIMAZIN
 70
     0
  9
$DIMDSEP
 70
    46
  9
$DIMATFIT
 70
     3
  9
$DIMFRAC
 70
     2
  9
$DIMLDRBLK
  1

  9
$DIMLUNIT
 70
     4
  9
$DIMLWD
 70
    -2
  9
$DIMLWE
 70
    -2
  9
$DIMTMOVE
 70
     0
  9
$DIMFXL
 40
1.0
  9
$DIMFXLON
 70
     0
  9
$DIMJOGANG
 40
0.7853981633974483
  9
$DIMTFILL
 70
     0
  9
$DIMTFILLCLR
 70
     0
  9
$DIMARCSYM
 70
     0
  9
$DIMLTYPE
  6

  9
$DIMLTEX1
  6

  9
$DIMLTEX2
  6

  9
$LUNITS
 70
     4
  9
$LUPREC
 70
     4
  9
$SKETCHINC
 40
0.1
  9
$FILLETRAD
 40
0.0
  9
$AUNITS
 70
     0
  9
$AUPREC
 70
     0
  9
$MENU
  1
acad
  9
$ELEVATION
 40
0.0
  9
$PELEVATION
 40
0.0
  9
$THICKNESS
 40
0.0
  9
$LIMCHECK
 70
     0
  9
$CHAMFERA
 40
0.0
  9
$CHAMFERB
 40
0.0
  9
$CHAMFERC
 40
0.0
  9
$CHAMFERD
 40
0.0
  9
$SKPOLY
 70
     0
  9
$TDCREATE
 40
2451513.381977314
  9
$TDUCREATE
 40
2451513.590310648
  9
$TDUPDATE
 40
2459620.564151018
  9
$TDUUPDATE
 40
2459620.772484352
  9
$TDINDWG
 40
1.1343121296
  9
$TDUSRTIMER
 40
1.1343121296
  9
$USRTIMER
 70
     1
  9
$ANGBASE
 50
0.0
  9
$ANGDIR
 70
     0
  9
$PDMODE
 70
    33
  9
$PDSIZE
 40
0.0
  9
$PLINEWID
 40
0.0
  9
$SPLFRAME
 70
     0
  9
$SPLINETYPE
 70
     6
  9
$SPLINESEGS
 70
     8
  9
$HANDSEED
  5
631C
  9
$SURFTAB1
 70
     6
  9
$SURFTAB2
 70
     6
  9
$SURFTYPE
 70
     6
  9
$SURFU
 70
     6
  9
$SURFV
 70
     6
  9
$UCSBASE
  2

  9
$UCSNAME
  2

  9
$UCSORG
 10
0.0
 20
0.0
 30
0.0
  9
$UCSXDIR
 10
1.0
 20
0.0
 30
0.0
  9
$UCSYDIR
 10
0.0
 20
1.0
 30
0.0
  9
$UCSORTHOREF
  2

  9
$UCSORTHOVIEW
 70
     0
  9
$UCSORGTOP
 10
0.0
 20
0.0
 30
0.0
  9
$UCSORGBOTTOM
 10
0.0
 20
0.0
 30
0.0
  9
$UCSORGLEFT
 10
0.0
 20
0.0
 30
0.0
  9
$UCSORGRIGHT
 10
0.0
 20
0.0
 30
0.0
  9
$UCSORGFRONT
 10
0.0
 20
0.0
 30
0.0
  9
$UCSORGBACK
 10
0.0
 20
0.0
 30
0.0
  9
$PUCSBASE
  2

  9
$PUCSNAME
  2

  9
$PUCSORG
 10
0.0
 20
0.0
 30
0.0
  9
$PUCSXDIR
 10
1.0
 20
0.0
 30
0.0
  9
$PUCSYDIR
 10
0.0
 20
1.0
 30
0.0
  9
$PUCSORTHOREF
  2

  9
$PUCSORTHOVIEW
 70
     0
  9
$PUCSORGTOP
 10
0.0
 20
0.0
 30
0.0
  9
$PUCSORGBOTTOM
 10
0.0
 20
0.0
 30
0.0
  9
$PUCSORGLEFT
 10
0.0
 20
0.0
 30
0.0
  9
$PUCSORGRIGHT
 10
0.0
 20
0.0
 30
0.0
  9
$PUCSORGFRONT
 10
0.0
 20
0.0
 30
0.0
  9
$PUCSORGBACK
 10
0.0
 20
0.0
 30
0.0
  9
$USERI1
 70
     0
  9
$USERI2
 70
     0
  9
$USERI3
 70
     0
  9
$USERI4
 70
     0
  9
$USERI5
 70
     0
  9
$USERR1
 40
0.0
  9
$USERR2
 40
0.0
  9
$USERR3
 40
0.0
  9
$USERR4
 40
0.0
  9
$USERR5
 40
0.0
  9
$WORLDVIEW
 70
     1
  9
$SHADEDGE
 70
     3
  9
$SHADEDIF
 70
    70
  9
$TILEMODE
 70
     1
  9
$MAXACTVP
 70
    16
  9
$PINSBASE
 10
0.0
 20
0.0
 30
0.0
  9
$PLIMCHECK
 70
     0
  9
$PEXTMIN
 10
1.000000000000000E+20
 20
1.000000000000000E+20
 30
1.000000000000000E+20
  9
$PEXTMAX
 10
-1.000000000000000E+20
 20
-1.000000000000000E+20
 30
-1.000000000000000E+20
  9
$PLIMMIN
 10
0.0
 20
0.0
  9
$PLIMMAX
 10
12.0
 20
9.0
  9
$UNITMODE
 70
     0
  9
$VISRETAIN
 70
     0
  9
$PLINEGEN
 70
     0
  9
$PSLTSCALE
 70
     1
  9
$TREEDEPTH
 70
  3020
  9
$CMLSTYLE
  2
STANDARD
  9
$CMLJUST
 70
     0
  9
$CMLSCALE
 40
1.0
  9
$PROXYGRAPHICS
 70
     1
  9
$MEASUREMENT
 70
     0
  9
$CELWEIGHT
370
    -1
  9
$ENDCAPS
280
     0
  9
$JOINSTYLE
280
     0
  9
$LWDISPLAY
290
     0
  9
$INSUNITS
 70
     0
  9
$HYPERLINKBASE
  1

  9
$STYLESHEET
  1
acad.ctb
  9
$XEDIT
290
     1
  9
$CEPSNTYPE
380
     0
  9
$PSTYLEMODE
290
     1
  9
$FINGERPRINTGUID
  2
{902FD95F-4C5E-11D6-8735-0010B50CF566}
  9
$VERSIONGUID
  2
{33ACC458-4DFC-428B-A25B-CBE1E416FDC3}
  9
$EXTNAMES
290
     1
  9
$PSVPSCALE
 40
0.0
  9
$OLESTARTUP
290
     0
  9
$SORTENTS
280
   127
  9
$INDEXCTL
280
     0
  9
$HIDETEXT
280
     0
  9
$XCLIPFRAME
290
     0
  9
$HALOGAP
280
     0
  9
$OBSCOLOR
 70
   257
  9
$OBSLTYPE
280
     0
  9
$INTERSECTIONDISPLAY
280
     0
  9
$INTERSECTIONCOLOR
 70
   257
  9
$DIMASSOC
280
     1
  9
$PROJECTNAME
  1

  9
$CAMERADISPLAY
290
     0
  9
$LENSLENGTH
 40
50.0
  9
$CAMERAHEIGHT
 40
0.0
  9
$STEPSPERSEC
 40
2.0
  9
$STEPSIZE
 40
6.0
  9
$3DDWFPREC
 40
2.0
  9
$PSOLWIDTH
 40
0.25
  9
$PSOLHEIGHT
 40
4.0
  9
$LOFTANG1
 40
1.570796326794896
  9
$LOFTANG2
 40
1.570796326794896
  9
$LOFTMAG1
 40
0.0
  9
$LOFTMAG2
 40
0.0
  9
$LOFTPARAM
 70
     7
  9
$LOFTNORMALS
280
     1
  9
$LATITUDE
 40
37.795
  9
$LONGITUDE
 40
-122.394
  9
$NORTHDIRECTION
 40
0.0
  9
$TIMEZONE
 70
 -8000
  9
$LIGHTGLYPHDISPLAY
280
     1
  9
$TILEMODELIGHTSYNCH
280
     1
  9
$CMATERIAL
347
5145
  9
$SOLIDHIST
280
     1
  9
$SHOWHIST
280
     1
  9
$DWFFRAME
280
     2
  9
$DGNFRAME
280
     0
  9
$REALWORLDSCALE
290
     1
  9
$INTERFERECOLOR
 62
     1
  9
$INTERFEREOBJVS
345
5152
  9
$INTERFEREVPVS
346
514F
  9
$CSHADOW
280
     0
  9
$SHADOWPLANELOCATION
 40
0.0
  0
ENDSEC
  0
SECTION
  2
CLASSES
  0
CLASS
  1
ACDBDICTIONARYWDFLT
  2
AcDbDictionaryWithDefault
  3
ObjectDBX Classes
 90
        0
 91
        1
280
     0
281
     0
  0
CLASS
  1
MATERIAL
  2
AcDbMaterial
  3
ObjectDBX Classes
 90
     1024
 91
        3
280
     0
281
     0
  0
CLASS
  1
VISUALSTYLE
  2
AcDbVisualStyle
  3
ObjectDBX Classes
 90
     4095
 91
       16
280
     0
281
     0
  0
CLASS
  1
TABLESTYLE
  2
AcDbTableStyle
  3
ObjectDBX Classes
 90
     4095
 91
        1
280
     0
281
     0
  0
CLASS
  1
DICTIONARYVAR
  2
AcDbDictionaryVar
  3
ObjectDBX Classes
 90
        0
 91
        4
280
     0
281
     0
  0
CLASS
  1
SORTENTSTABLE
  2
AcDbSortentsTable
  3
ObjectDBX Classes
 90
        0
 91
        1
280
     0
281
     0
  0
CLASS
  1
EXACTERMXREFMAP
  2
ExAcTermXrefMap
  3
EXAC_SERVICE
 90
     1025
 91
        0
280
     0
281
     0
  0
CLASS
  1
NPOCOLLECTION
  2
AcDbImpNonPersistentObjectsCollection
  3
ObjectDBX Classes
 90
     1153
 91
        1
280
     0
281
     0
  0
CLASS
  1
EXACXREFPANELOBJECT
  2
ExAcXREFPanelObject
  3
EXAC_ESW
 90
     1025
 91
        1
280
     0
281
     0
  0
ENDSEC
  0
SECTION
  2
TABLES
  0
TABLE
  2
VPORT
  5
8
102
{ACAD_XDICTIONARY
360
5BB9
102
}
330
0
100
AcDbSymbolTable
 70
     1
  0
VPORT
  5
5142
330
8
100
AcDbSymbolTableRecord
100
AcDbViewportTableRecord
  2
*Active
 70
     0
 10
0.0
 20
0.0
 11
1.0
 21
1.0
 12
112.9880605651614
 22
1051.249646371626
 13
0.0
 23
0.0
 14
1.0
 24
1.0
 15
0.0
 25
0.0
 16
0.0
 26
0.0
 36
1.0
 17
0.0
 27
0.0
 37
0.0
 40
279.2405122198583
 41
2.016703786191536
 42
50.0
 43
0.0
 44
0.0
 50
0.0
 51
0.0
 71
     0
 72
   100
 73
     1
 74
     0
 75
     0
 76
     0
 77
     0
 78
     0
281
     0
 65
     1
110
0.0
120
0.0
130
0.0
111
1.0
121
0.0
131
0.0
112
0.0
122
1.0
132
0.0
 79
     0
146
0.0
348
514E
 60
     3
 61
     5
292
     1
282
     1
141
0.0
142
0.0
 63
   250
421
  3355443
  0
ENDTAB
  0
TABLE
  2
LTYPE
  5
5
330
0
100
AcDbSymbolTable
 70
     3
  0
LTYPE
  5
12
330
5
100
AcDbSymbolTableRecord
100
AcDbLinetypeTableRecord
  2
BYBLOCK
 70
     0
  3

 72
    65
 73
     0
 40
0.0
  0
LTYPE
  5
13
330
5
100
AcDbSymbolTableRecord
100
AcDbLinetypeTableRecord
  2
BYLAYER
 70
     0
  3

 72
    65
 73
     0
 40
0.0
  0
LTYPE
  5
14
330
5
100
AcDbSymbolTableRecord
100
AcDbLinetypeTableRecord
  2
CONTINUOUS
 70
     0
  3
Solid line
 72
    65
 73
     0
 40
0.0
  0
LTYPE
  5
75
330
5
100
AcDbSymbolTableRecord
100
AcDbLinetypeTableRecord
  2
PHANTOM
 70
     0
  3
______  __  __  ______  __  __  ______  __  __ 
 72
    65
 73
     6
 40
2.5
 49
1.25
 74
     0
 49
-0.25
 74
     0
 49
0.25
 74
     0
 49
-0.25
 74
     0
 49
0.25
 74
     0
 49
-0.25
 74
     0
  0
LTYPE
  5
3477
330
5
100
AcDbSymbolTableRecord
100
AcDbLinetypeTableRecord
  2
HIDDEN
 70
     0
  3
__ __ __ __ __ __ __ __ __ __ __ __ __ __ __ __
 72
    65
 73
     2
 40
0.375
 49
0.25
 74
     0
 49
-0.125
 74
     0
  0
ENDTAB
  0
TABLE
  2
LAYER
  5
2
330
0
100
AcDbSymbolTable
 70
     2
  0
LAYER
  5
F
330
2
100
AcDbSymbolTableRecord
100
AcDbLayerTableRecord
  2
0
 70
     0
 62
     7
  6
CONTINUOUS
370
    -3
390
4B88
347
5147
  0
LAYER
  5
79
330
2
100
AcDbSymbolTableRecord
100
AcDbLayerTableRecord
  2
DEFPOINTS
 70
     0
 62
     7
  6
CONTINUOUS
290
     0
370
    -3
390
4B88
347
5147
  0
ENDTAB
  0
TABLE
  2
STYLE
  5
3
330
0
100
AcDbSymbolTable
 70
     4
  0
STYLE
  5
10
330
3
100
AcDbSymbolTableRecord
100
AcDbTextStyleTableRecord
  2
STANDARD
 70
     0
 40
0.0
 41
1.0
 50
0.0
 71
     0
 42
0.2
  3
txt
  4

  0
STYLE
  5
6F
330
3
100
AcDbSymbolTableRecord
100
AcDbTextStyleTableRecord
  2
ROMANS
 70
     0
 40
0.0
 41
1.0
 50
0.0
 71
     0
 42
3.0
  3
romans
  4

  0
STYLE
  5
70
330
3
100
AcDbSymbolTableRecord
100
AcDbTextStyleTableRecord
  2
ROMANC
 70
     0
 40
1.5314
 41
1.0
 50
0.0
 71
     0
 42
1.768799999999999
  3
romanc
  4

  0
STYLE
  5
308A
330
3
100
AcDbSymbolTableRecord
100
AcDbTextStyleTableRecord
  2
STYLE1
 70
     0
 40
0.0
 41
1.0
 50
0.0
 71
     0
 42
3.0954
  3
C:\Program Files\AutoCAD LT\romanc.shx
  4

  0
ENDTAB
  0
TABLE
  2
VIEW
  5
6
330
0
100
AcDbSymbolTable
 70
     0
  0
ENDTAB
  0
TABLE
  2
UCS
  5
7
330
0
100
AcDbSymbolTable
 70
     0
  0
ENDTAB
  0
TABLE
  2
APPID
  5
9
330
0
100
AcDbSymbolTable
 70
     3
  0
APPID
  5
11
330
9
100
AcDbSymbolTableRecord
100
AcDbRegAppTableRecord
  2
ACAD
 70
     0
  0
APPID
  5
517A
330
9
100
AcDbSymbolTableRecord
100
AcDbRegAppTableRecord
  2
ACAD_PSEXT
 70
     0
  0
APPID
  5
5AA9
330
9
100
AcDbSymbolTableRecord
100
AcDbRegAppTableRecord
  2
ACAD_EXEMPT_FROM_CAD_STANDARDS
 70
     0
  0
ENDTAB
  0
TABLE
  2
DIMSTYLE
  5
A
330
0
100
AcDbSymbolTable
 70
     3
100
AcDbDimStyleTable
 71
     3
340
AB7
340
B04
340
BA8
  0
DIMSTYLE
105
AB7
330
A
100
AcDbSymbolTableRecord
100
AcDbDimStyleTableRecord
  2
STANDARD
 70
     0
 40
12.0
 41
0.1875
 43
0.375
 44
0.1875
 78
     3
140
0.1875
141
0.0625
147
0.0625
276
     2
277
     4
340
6F
  0
DIMSTYLE
105
B04
102
{ACAD_REACTORS
330
2368
330
35BF
330
35C0
330
389E
330
4A2B
330
5B63
330
5D40
330
5F20
330
5FC3
330
6179
330
6191
330
62B9
330
62C8
330
62D6
330
62E4
102
}
330
A
100
AcDbSymbolTableRecord
100
AcDbDimStyleTableRecord
  2
STANDARD$0
 70
     0
 40
12.0
 41
0.1875
 43
0.375
 44
0.1875
 78
     3
140
0.1875
141
0.0625
147
0.0625
276
     2
277
     4
340
6F
  0
DIMSTYLE
105
BA8
330
A
100
AcDbSymbolTableRecord
100
AcDbDimStyleTableRecord
  2
STANDARD$2
 70
     0
 40
12.0
 41
0.1875
 43
0.375
 44
0.1875
 78
     3
140
0.1875
141
0.0625
147
0.0625
271
     0
272
     0
276
     2
277
     4
340
6F
  0
ENDTAB
  0
TABLE
  2
BLOCK_RECORD
  5
1
330
0
100
AcDbSymbolTable
 70
    24
  0
BLOCK_RECORD
  5
18
102
{ACAD_XDICTIONARY
360
51A2
102
}
330
1
100
AcDbSymbolTableRecord
100
AcDbBlockTableRecord
  2
*MODEL_SPACE
340
4B8B
 70
     0
280
     1
281
     0
  0
BLOCK_RECORD
  5
15
330
1
100
AcDbSymbolTableRecord
100
AcDbBlockTableRecord
  2
*PAPER_SPACE
340
4B8C
 70
     0
280
     1
281
     0
  0
BLOCK_RECORD
  5
1F
330
1
100
AcDbSymbolTableRecord
100
AcDbBlockTableRecord
  2
LINETYPE
340
0
102
{BLKREFS
331
731
331
739
331
87C
331
87D
331
8CE
331
8CF
331
9AA
331
9AB
331
A3D
331
A3E
331
A57
331
A58
331
1052
331
1053
331
108A
331
108B
331
162A
331
163B
331
17F5
331
17FB
331
1AD1
331
1AD2
331
1AD3
331
1AD4
331
1B1A
331
1B1B
331
1B1C
331
210A
331
210B
331
2142
331
2143
331
30A8
331
3584
331
3590
331
3591
331
3592
331
359B
331
359C
331
359D
331
359E
331
3600
331
3F3B
331
3F3C
331
3F73
331
3F74
102
}
 70
     0
280
     1
281
     0
  0
BLOCK_RECORD
  5
235B
330
1
100
AcDbSymbolTableRecord
100
AcDbBlockTableRecord
  2
*D1
340
0
 70
     0
280
     1
281
     0
  0
BLOCK_RECORD
  5
3075
330
1
100
AcDbSymbolTableRecord
100
AcDbBlockTableRecord
  2
TB-ATT
340
0
 70
     0
280
     1
281
     0
  0
BLOCK_RECORD
  5
31D4
330
1
100
AcDbSymbolTableRecord
100
AcDbBlockTableRecord
  2
*D3
340
0
 70
     0
280
     1
281
     0
  0
BLOCK_RECORD
  5
31E1
330
1
100
AcDbSymbolTableRecord
100
AcDbBlockTableRecord
  2
*D4
340
0
 70
     0
280
     1
281
     0
  0
BLOCK_RECORD
  5
3891
330
1
100
AcDbSymbolTableRecord
100
AcDbBlockTableRecord
  2
*D5
340
0
 70
     0
280
     1
281
     0
  0
BLOCK_RECORD
  5
4A1E
330
1
100
AcDbSymbolTableRecord
100
AcDbBlockTableRecord
  2
*D6
340
0
 70
     0
280
     1
281
     0
  0
BLOCK_RECORD
  5
4F82
102
{ACAD_XDICTIONARY
360
59FF
102
}
330
1
100
AcDbSymbolTableRecord
100
AcDbBlockTableRecord
  2
Border
340
0
 70
     0
280
     1
281
     0
  0
BLOCK_RECORD
  5
5040
330
1
100
AcDbSymbolTableRecord
100
AcDbBlockTableRecord
  2
border-T
340
0
102
{BLKREFS
331
5051
102
}
 70
     0
280
     1
281
     0
  0
BLOCK_RECORD
  5
574E
330
1
100
AcDbSymbolTableRecord
100
AcDbBlockTableRecord
  2
*X9
340
0
102
{BLKREFS
331
574D
331
5A2E
102
}
 70
     0
280
     1
281
     0
  0
BLOCK_RECORD
  5
5B64
330
1
100
AcDbSymbolTableRecord
100
AcDbBlockTableRecord
  2
*D10
340
0
 70
     0
280
     1
281
     0
  0
BLOCK_RECORD
  5
5D42
330
1
100
AcDbSymbolTableRecord
100
AcDbBlockTableRecord
  2
*D11
340
0
 70
     0
280
     1
281
     0
  0
BLOCK_RECORD
  5
5F21
330
1
100
AcDbSymbolTableRecord
100
AcDbBlockTableRecord
  2
*D12
340
0
 70
     0
280
     1
281
     0
  0
BLOCK_RECORD
  5
5FC4
330
1
100
AcDbSymbolTableRecord
100
AcDbBlockTableRecord
  2
*D13
340
0
 70
     0
280
     1
281
     0
  0
BLOCK_RECORD
  5
6047
330
1
100
AcDbSymbolTableRecord
100
AcDbBlockTableRecord
  2
*D14
340
0
 70
     0
280
     1
281
     0
  0
BLOCK_RECORD
  5
6055
330
1
100
AcDbSymbolTableRecord
100
AcDbBlockTableRecord
  2
*D15
340
0
 70
     0
280
     1
281
     0
  0
BLOCK_RECORD
  5
6063
330
1
100
AcDbSymbolTableRecord
100
AcDbBlockTableRecord
  2
*D16
340
0
 70
     0
280
     1
281
     0
  0
BLOCK_RECORD
  5
6071
330
1
100
AcDbSymbolTableRecord
100
AcDbBlockTableRecord
  2
*D17
340
0
 70
     0
280
     1
281
     0
  0
BLOCK_RECORD
  5
617A
330
1
100
AcDbSymbolTableRecord
100
AcDbBlockTableRecord
  2
*D18
340
0
 70
     0
280
     1
281
     0
  0
BLOCK_RECORD
  5
6192
330
1
100
AcDbSymbolTableRecord
100
AcDbBlockTableRecord
  2
*D19
340
0
 70
     0
280
     1
281
     0
  0
BLOCK_RECORD
  5
62BA
330
1
100
AcDbSymbolTableRecord
100
AcDbBlockTableRecord
  2
*D20
340
0
 70
     0
280
     1
281
     0
  0
BLOCK_RECORD
  5
62C9
330
1
100
AcDbSymbolTableRecord
100
AcDbBlockTableRecord
  2
*D21
340
0
 70
     0
280
     1
281
     0
  0
BLOCK_RECORD
  5
62D7
330
1
100
AcDbSymbolTableRecord
100
AcDbBlockTableRecord
  2
*D22
340
0
 70
     0
280
     1
281
     0
  0
BLOCK_RECORD
  5
62E5
330
1
100
AcDbSymbolTableRecord
100
AcDbBlockTableRecord
  2
*D23
340
0
 70
     0
280
     1
281
     0
  0
ENDTAB
  0
ENDSEC
  0
SECTION
  2
BLOCKS
  0
BLOCK
  5
7C
330
18
100
AcDbEntity
  8
0
 62
     5
100
AcDbBlockBegin
  2
*MODEL_SPACE
 70
     0
 10
0.0
 20
0.0
 30
0.0
  3
*MODEL_SPACE
  1

  0
ENDBLK
  5
7D
330
18
100
AcDbEntity
  8
0
 62
     5
100
AcDbBlockEnd
  0
BLOCK
  5
7A
330
15
100
AcDbEntity
 67
     1
  8
0
 62
     5
100
AcDbBlockBegin
  2
*PAPER_SPACE
 70
     0
 10
0.0
 20
0.0
 30
0.0
  3
*PAPER_SPACE
  1

  0
ENDBLK
  5
7B
330
15
100
AcDbEntity
 67
     1
  8
0
 62
     5
100
AcDbBlockEnd
  0
BLOCK
  5
13D
330
1F
100
AcDbEntity
  8
0
100
AcDbBlockBegin
  2
LINETYPE
 70
     0
 10
0.0
 20
0.0
 30
0.0
  3
LINETYPE
  1

  0
ENDBLK
  5
13E
330
1F
100
AcDbEntity
  8
0
100
AcDbBlockEnd
  0
BLOCK
  5
4A12
330
235B
100
AcDbEntity
  8
0
100
AcDbBlockBegin
  2
*D1
 70
     1
 10
0.0
 20
0.0
 30
0.0
  3
*D1
  1

  0
LINE
  5
6268
330
235B
100
AcDbEntity
  8
0
 62
     0
370
    -2
100
AcDbLine
 10
253.3852936151394
 20
975.8321017430137
 30
0.0
 11
253.3852936151394
 21
970.1331446997466
 31
0.0
  0
LINE
  5
6269
330
235B
100
AcDbEntity
  8
0
 62
     0
370
    -2
100
AcDbLine
 10
284.8590194181044
 20
975.8321017430134
 30
0.0
 11
284.8590194181044
 21
970.1331446997466
 31
0.0
  0
LINE
  5
626A
330
235B
100
AcDbEntity
  8
0
 62
     0
370
    -2
100
AcDbLine
 10
255.6352936151394
 20
972.3831446997465
 30
0.0
 11
257.3364422309076
 21
972.3831446997465
 31
0.0
  0
LINE
  5
626B
330
235B
100
AcDbEntity
  8
0
 62
     0
370
    -2
100
AcDbLine
 10
282.6090194181044
 20
972.3831446997465
 30
0.0
 11
280.9078708023362
 21
972.3831446997465
 31
0.0
  0
SOLID
  5
626C
330
235B
100
AcDbEntity
  8
0
 62
     0
100
AcDbTrace
 10
255.6352936151394
 20
972.7581446997465
 30
0.0
 11
255.6352936151394
 21
972.0081446997467
 31
0.0
 12
253.3852936151394
 22
972.3831446997465
 32
0.0
 13
253.3852936151394
 23
972.3831446997465
 33
0.0
  0
SOLID
  5
626D
330
235B
100
AcDbEntity
  8
0
 62
     0
100
AcDbTrace
 10
282.6090194181044
 20
972.7581446997465
 30
0.0
 11
282.6090194181044
 21
972.0081446997467
 31
0.0
 12
284.8590194181044
 22
972.3831446997465
 32
0.0
 13
284.8590194181044
 23
972.3831446997465
 33
0.0
  0
MTEXT
  5
626E
330
235B
100
AcDbEntity
  8
0
 62
     0
100
AcDbMText
 10
269.1221565166219
 20
972.3831446997465
 30
0.0
 40
2.25
 41
0.0
 46
0.0
 71
     5
 72
     1
  1
\A1;CLEAR TREAD\P31-1/2"MIN\P55-1/2"MAX
  7
ROMANS
 73
     1
 44
1.0
  0
POINT
  5
626F
330
235B
100
AcDbEntity
  8
DEFPOINTS
 62
     0
100
AcDbPoint
 10
253.3852936151394
 20
976.5821017430138
 30
0.0
  0
POINT
  5
6270
330
235B
100
AcDbEntity
  8
DEFPOINTS
 62
     0
100
AcDbPoint
 10
284.8590194181044
 20
976.5821017430134
 30
0.0
  0
POINT
  5
6271
330
235B
100
AcDbEntity
  8
DEFPOINTS
 62
     0
100
AcDbPoint
 10
284.8590194181044
 20
972.3831446997465
 30
0.0
  0
ENDBLK
  5
4A1D
330
235B
100
AcDbEntity
  8
0
100
AcDbBlockEnd
  0
BLOCK
  5
3088
330
3075
100
AcDbEntity
  8
0
100
AcDbBlockBegin
  2
TB-ATT
 70
     2
 10
0.0
 20
0.0
 30
0.0
  3
TB-ATT
  1

  0
ATTDEF
  5
3076
330
3075
100
AcDbEntity
  8
0
 62
     5
100
AcDbText
 10
-215.598003151808
 20
12.89673285282586
 30
0.0
 40
1.248161764705882
  1

 50
90.0
  7
ROMANS
 72
     4
 11
-216.2220840341609
 21
13.4910955979239
 31
0.0
100
AcDbAttributeDefinition
  3
WORK ORDER (X)
  2
X
 70
     0
280
     0
  0
ATTDEF
  5
3077
330
3075
100
AcDbEntity
  8
0
100
AcDbText
 10
-99.56996915842902
 20
11.16830391662092
 30
0.0
 40
1.769029714285714
  1

  7
ROMANS
 72
     1
 11
-93.71532319924535
 21
11.16830391662092
 31
0.0
100
AcDbAttributeDefinition
  3
PROJECT
  2
PROJECT
 70
     0
280
     0
  0
ATTDEF
  5
3078
330
3075
100
AcDbEntity
  8
0
100
AcDbText
 10
-93.29852621965358
 20
6.014881478758579
 30
0.0
 40
1.769029714285714
  1

  7
ROMANS
 72
     1
 11
-85.464251770674
 21
6.014881478758579
 31
0.0
100
AcDbAttributeDefinition
  3
PURCHASER
  2
PURCHASER
 70
     0
280
     0
  0
ATTDEF
  5
3079
330
3075
100
AcDbEntity
  8
0
100
AcDbText
 10
-165.5533944645515
 20
6.014881478758579
 30
0.0
 40
1.769029714285714
  1

  7
ROMANS
 72
     1
 11
-154.2231803421025
 21
6.014881478758579
 31
0.0
100
AcDbAttributeDefinition
  3
PURCHASE ORDER
  2
PURCHASEORDER
 70
     0
280
     0
  0
ATTDEF
  5
307A
330
3075
100
AcDbEntity
  8
0
100
AcDbText
 10
-33.81411626046983
 20
11.16830391662092
 30
0.0
 40
1.769029714285714
  1

  7
ROMANS
 72
     1
 11
-27.70675177067392
 21
11.16830391662092
 31
0.0
100
AcDbAttributeDefinition
  3
GENERAL CONTRACTOR
  2
GENCONT
 70
     0
280
     0
  0
ATTDEF
  5
307B
330
3075
100
AcDbEntity
  8
0
100
AcDbText
 10
-162.01533503598
 20
11.16830391662092
 30
0.0
 40
1.769029714285714
  1

  7
ROMANS
 72
     1
 11
-154.2231803421025
 21
11.16830391662092
 31
0.0
100
AcDbAttributeDefinition
  3
ARCHITECT OR ENGINEER
  2
ARCHORENG
 70
     0
280
     0
  0
ATTDEF
  5
307C
330
3075
100
AcDbEntity
  8
0
100
AcDbText
 10
-30.31817658700044
 20
6.014881478758579
 30
0.0
 40
1.769029714285714
  1

  7
ROMANS
 72
     1
 11
-27.70675177067392
 21
6.014881478758579
 31
0.0
100
AcDbAttributeDefinition
  3
PRECISION REP
  2
REP
 70
     0
280
     0
  0
ATTDEF
  5
307D
330
3075
100
AcDbEntity
  8
0
100
AcDbText
 10
-95.42966009720457
 20
0.8614590408962374
 30
0.0
 40
1.769029714285714
  1

  7
ROMANS
 72
     1
 11
-90.96496605638822
 21
0.8614590408962374
 31
0.0
100
AcDbAttributeDefinition
  3
MODEL #
  2
MODEL
 70
     0
280
     0
  0
ATTDEF
  5
307E
330
3075
100
AcDbEntity
  8
0
100
AcDbText
 10
-63.15398328087806
 20
0.8614590408961362
 30
0.0
 40
1.769029714285714
  1
1
  7
ROMANS
 72
     1
 11
-60.71103748495969
 21
0.8614590408961362
 31
0.0
100
AcDbAttributeDefinition
  3
QUANTITY
  2
QTY
 70
     0
280
     0
  0
ATTDEF
  5
307F
330
3075
100
AcDbEntity
  8
0
100
AcDbText
 10
-127.1703531584289
 20
6.014881478758579
 30
0.0
 40
1.769029714285714
  1

  7
ROMANS
 72
     1
 11
-123.9692517706739
 21
6.014881478758579
 31
0.0
100
AcDbAttributeDefinition
  3
WORK ORDER DATE?
  2
DATE
 70
     0
280
     0
  0
ATTDEF
  5
3080
330
3075
100
AcDbEntity
  8
0
100
AcDbText
 10
-127.1703531584289
 20
0.8614590408961362
 30
0.0
 40
1.769029714285714
  1

  7
ROMANS
 72
     1
 11
-123.9692517706739
 21
0.8614590408961362
 31
0.0
100
AcDbAttributeDefinition
  3
WHAT IS TODAY'S DATE?
  2
DATE
 70
     0
280
     0
  0
ATTDEF
  5
3081
330
3075
100
AcDbEntity
  8
0
100
AcDbText
 10
-160.4569040972046
 20
0.8614590408961362
 30
0.0
 40
1.769029714285714
  1
JEB
  7
ROMANS
 72
     1
 11
-154.2231803421025
 21
0.8614590408961362
 31
0.0
100
AcDbAttributeDefinition
  3
WHO ARE YOU?
  2
DRAWNBY
 70
     0
280
     0
  0
ATTDEF
  5
3082
330
3075
100
AcDbEntity
  8
0
100
AcDbText
 10
-32.12932605638821
 20
0.8614590408961362
 30
0.0
 40
1.769029714285714
  1

  7
ROMANS
 72
     1
 11
-27.70675177067392
 21
0.8614590408961362
 31
0.0
100
AcDbAttributeDefinition
  3
SERIAL #
  2
SERIAL
 70
     0
280
     0
  0
ATTDEF
  5
3083
330
3075
100
AcDbEntity
  8
0
 62
     5
100
AcDbText
 10
-273.7294019705065
 20
16.95296065185261
 30
0.0
 40
2.25
  1

  7
ROMANS
100
AcDbAttributeDefinition
  3
SCALE
  2
SCALE
 70
     0
280
     0
  0
ATTDEF
  5
3084
330
3075
100
AcDbEntity
  8
0
100
AcDbText
 10
-13.04608364622476
 20
16.97014926946124
 30
0.0
 40
1.7518359375
  1

  7
ROMANS
 72
     4
 11
-7.456892798010471
 21
17.84606723821125
 31
0.0
100
AcDbAttributeDefinition
  3
SAVED AS
  2
SAVEDAS
 70
     0
280
     0
  0
ATTDEF
  5
3085
330
3075
100
AcDbEntity
  8
0
100
AcDbText
 10
-201.8500886821915
 20
11.16830391662092
 30
0.0
 40
1.769029714285714
  1

  7
ROMANS
 72
     1
 11
-194.6476105597425
 21
11.16830391662092
 31
0.0
100
AcDbAttributeDefinition
  3
DWG CHECK
  2
DWGCHECK
 70
     0
280
     0
  0
ATTDEF
  5
3086
330
3075
100
AcDbEntity
  8
0
100
AcDbText
 10
-199.9546997025996
 20
6.67317671248219
 30
0.0
 40
1.769029714285714
  1

  7
ROMANS
 72
     1
 11
-194.6476105597425
 21
6.67317671248219
 31
0.0
100
AcDbAttributeDefinition
  3
BUILT BY
  2
BUILTBY
 70
     0
280
     0
  0
ATTDEF
  5
3087
330
3075
100
AcDbEntity
  8
0
100
AcDbText
 10
-202.4397652536201
 20
1.519754274619748
 30
0.0
 40
1.769029714285714
  1

  7
ROMANS
 72
     1
 11
-194.6476105597425
 21
1.519754274619748
 31
0.0
100
AcDbAttributeDefinition
  3
CHECKED BY
  2
CHECKEDBY
 70
     0
280
     0
  0
ENDBLK
  5
3089
330
3075
100
AcDbEntity
  8
0
100
AcDbBlockEnd
  0
BLOCK
  5
4A97
330
31D4
100
AcDbEntity
  8
0
100
AcDbBlockBegin
  2
*D3
 70
     1
 10
0.0
 20
0.0
 30
0.0
  3
*D3
  1

  0
LINE
  5
5C18
330
31D4
100
AcDbEntity
  8
0
 62
     0
370
    -2
100
AcDbLine
 10
-0.7303894777917322
 20
1143.180245723928
 30
0.0
 11
-0.7303894777917317
 21
1149.48753231655
 31
0.0
  0
LINE
  5
5C19
330
31D4
100
AcDbEntity
  8
0
 62
     0
370
    -2
100
AcDbLine
 10
51.24266222452661
 20
1143.180245723928
 30
0.0
 11
51.24266222452661
 21
1149.48753231655
 31
0.0
  0
LINE
  5
5C1A
330
31D4
100
AcDbEntity
  8
0
 62
     0
370
    -2
100
AcDbLine
 10
1.519610522208268
 20
1147.23753231655
 30
0.0
 11
16.57756494479601
 21
1147.23753231655
 31
0.0
  0
LINE
  5
5C1B
330
31D4
100
AcDbEntity
  8
0
 62
     0
370
    -2
100
AcDbLine
 10
48.99266222452661
 20
1147.23753231655
 30
0.0
 11
33.93470780193887
 21
1147.23753231655
 31
0.0
  0
SOLID
  5
5C1C
330
31D4
100
AcDbEntity
  8
0
 62
     0
100
AcDbTrace
 10
1.519610522208268
 20
1147.61253231655
 30
0.0
 11
1.519610522208268
 21
1146.86253231655
 31
0.0
 12
-0.7303894777917318
 22
1147.23753231655
 32
0.0
 13
-0.7303894777917318
 23
1147.23753231655
 33
0.0
  0
SOLID
  5
5C1D
330
31D4
100
AcDbEntity
  8
0
 62
     0
100
AcDbTrace
 10
48.99266222452661
 20
1147.61253231655
 30
0.0
 11
48.99266222452661
 21
1146.86253231655
 31
0.0
 12
51.24266222452661
 22
1147.23753231655
 32
0.0
 13
51.24266222452661
 23
1147.23753231655
 33
0.0
  0
MTEXT
  5
5C1E
330
31D4
100
AcDbEntity
  8
0
 62
     0
100
AcDbMText
 10
25.25613637336744
 20
1147.23753231655
 30
0.0
 40
2.25
 41
0.0
 46
0.0
 71
     5
 72
     1
  1
\A1;AS REQ'D
  7
ROMANS
 73
     1
 44
1.0
  0
POINT
  5
5C1F
330
31D4
100
AcDbEntity
  8
DEFPOINTS
 62
     0
100
AcDbPoint
 10
-0.7303894777917322
 20
1142.430245723928
 30
0.0
  0
POINT
  5
5C20
330
31D4
100
AcDbEntity
  8
DEFPOINTS
 62
     0
100
AcDbPoint
 10
51.24266222452661
 20
1142.430245723928
 30
0.0
  0
POINT
  5
5C21
330
31D4
100
AcDbEntity
  8
DEFPOINTS
 62
     0
100
AcDbPoint
 10
51.24266222452661
 20
1147.23753231655
 30
0.0
  0
ENDBLK
  5
4AA2
330
31D4
100
AcDbEntity
  8
0
100
AcDbBlockEnd
  0
BLOCK
  5
4AEC
330
31E1
100
AcDbEntity
  8
0
100
AcDbBlockBegin
  2
*D4
 70
     1
 10
0.0
 20
0.0
 30
0.0
  3
*D4
  1

  0
LINE
  5
5C4B
330
31E1
100
AcDbEntity
  8
0
 62
     0
370
    -2
100
AcDbLine
 10
51.99266222452661
 20
1142.430245723928
 30
0.0
 11
61.85163811740147
 21
1142.430245723928
 31
0.0
  0
LINE
  5
5C4C
330
31E1
100
AcDbEntity
  8
0
 62
     0
370
    -2
100
AcDbLine
 10
51.99266222452684
 20
1135.900614959482
 30
0.0
 11
61.85163811740146
 21
1135.900614959482
 31
0.0
  0
LINE
  5
5C4D
330
31E1
100
AcDbEntity
  8
0
 62
     0
370
    -2
100
AcDbLine
 10
59.60163811740147
 20
1144.680245723928
 30
0.0
 11
59.60163811740147
 21
1146.930245723928
 31
0.0
  0
LINE
  5
5C4E
330
31E1
100
AcDbEntity
  8
0
 62
     0
370
    -2
100
AcDbLine
 10
59.60163811740146
 20
1133.650614959482
 30
0.0
 11
59.60163811740146
 21
1131.400614959482
 31
0.0
  0
SOLID
  5
5C4F
330
31E1
100
AcDbEntity
  8
0
 62
     0
100
AcDbTrace
 10
59.22663811740147
 20
1144.680245723928
 30
0.0
 11
59.97663811740147
 21
1144.680245723928
 31
0.0
 12
59.60163811740147
 22
1142.430245723928
 32
0.0
 13
59.60163811740147
 23
1142.430245723928
 33
0.0
  0
SOLID
  5
5C50
330
31E1
100
AcDbEntity
  8
0
 62
     0
100
AcDbTrace
 10
59.22663811740147
 20
1133.650614959482
 30
0.0
 11
59.97663811740146
 21
1133.650614959482
 31
0.0
 12
59.60163811740146
 22
1135.900614959482
 32
0.0
 13
59.60163811740146
 23
1135.900614959482
 33
0.0
  0
MTEXT
  5
5C51
330
31E1
100
AcDbEntity
  8
0
 62
     0
100
AcDbMText
 10
59.60163811740128
 20
1139.165430341705
 30
0.0
 40
2.25
 41
0.0
 46
0.0
 71
     5
 72
     1
  1
\A1;VARIES
  7
ROMANS
 73
     1
 44
1.0
  0
POINT
  5
5C52
330
31E1
100
AcDbEntity
  8
DEFPOINTS
 62
     0
100
AcDbPoint
 10
51.24266222452661
 20
1142.430245723928
 30
0.0
  0
POINT
  5
5C53
330
31E1
100
AcDbEntity
  8
DEFPOINTS
 62
     0
100
AcDbPoint
 10
51.24266222452684
 20
1135.900614959482
 30
0.0
  0
POINT
  5
5C54
330
31E1
100
AcDbEntity
  8
DEFPOINTS
 62
     0
100
AcDbPoint
 10
59.60163811740146
 20
1135.900614959482
 30
0.0
  0
ENDBLK
  5
4AF7
330
31E1
100
AcDbEntity
  8
0
100
AcDbBlockEnd
  0
BLOCK
  5
49AA
330
3891
100
AcDbEntity
  8
0
100
AcDbBlockBegin
  2
*D5
 70
     1
 10
0.0
 20
0.0
 30
0.0
  3
*D5
  1

  0
LINE
  5
60D9
330
3891
100
AcDbEntity
  8
0
 62
     0
370
    -2
100
AcDbLine
 10
25.14878240229439
 20
975.8321017430132
 30
0.0
 11
25.14878240229439
 21
957.2725387177372
 31
0.0
  0
LINE
  5
60DA
330
3891
100
AcDbEntity
  8
0
 62
     0
370
    -2
100
AcDbLine
 10
214.6097806194243
 20
975.832101743012
 30
0.0
 11
214.6097806194243
 21
957.2725387177372
 31
0.0
  0
LINE
  5
60DB
330
3891
100
AcDbEntity
  8
0
 62
     0
370
    -2
100
AcDbLine
 10
27.39878240229439
 20
959.5225387177372
 30
0.0
 11
111.2007100822879
 21
959.5225387177372
 31
0.0
  0
LINE
  5
60DC
330
3891
100
AcDbEntity
  8
0
 62
     0
370
    -2
100
AcDbLine
 10
212.3597806194243
 20
959.5225387177372
 30
0.0
 11
128.5578529394307
 21
959.5225387177372
 31
0.0
  0
SOLID
  5
60DD
330
3891
100
AcDbEntity
  8
0
 62
     0
100
AcDbTrace
 10
27.39878240229439
 20
959.8975387177372
 30
0.0
 11
27.39878240229439
 21
959.1475387177371
 31
0.0
 12
25.14878240229439
 22
959.5225387177372
 32
0.0
 13
25.14878240229439
 23
959.5225387177372
 33
0.0
  0
SOLID
  5
60DE
330
3891
100
AcDbEntity
  8
0
 62
     0
100
AcDbTrace
 10
212.3597806194243
 20
959.8975387177372
 30
0.0
 11
212.3597806194243
 21
959.1475387177371
 31
0.0
 12
214.6097806194243
 22
959.5225387177372
 32
0.0
 13
214.6097806194243
 23
959.5225387177372
 33
0.0
  0
MTEXT
  5
60DF
330
3891
100
AcDbEntity
  8
0
 62
     0
100
AcDbMText
 10
119.8792815108593
 20
959.5225387177372
 30
0.0
 40
2.25
 41
0.0
 46
0.0
 71
     5
 72
     1
  1
\A1;AS REQ'D
  7
ROMANS
 73
     1
 44
1.0
  0
POINT
  5
60E0
330
3891
100
AcDbEntity
  8
DEFPOINTS
 62
     0
100
AcDbPoint
 10
25.14878240229439
 20
976.5821017430132
 30
0.0
  0
POINT
  5
60E1
330
3891
100
AcDbEntity
  8
DEFPOINTS
 62
     0
100
AcDbPoint
 10
214.6097806194243
 20
976.582101743012
 30
0.0
  0
POINT
  5
60E2
330
3891
100
AcDbEntity
  8
DEFPOINTS
 62
     0
100
AcDbPoint
 10
214.6097806194243
 20
959.5225387177372
 30
0.0
  0
ENDBLK
  5
49B5
330
3891
100
AcDbEntity
  8
0
100
AcDbBlockEnd
  0
BLOCK
  5
4A1F
330
4A1E
100
AcDbEntity
  8
0
100
AcDbBlockBegin
  2
*D6
 70
     1
 10
0.0
 20
0.0
 30
0.0
  3
*D6
  1

  0
LINE
  5
6290
330
4A1E
100
AcDbEntity
  8
0
 62
     0
370
    -2
100
AcDbLine
 10
287.1090194181044
 20
975.8321017430137
 30
0.0
 11
287.1090194181044
 21
957.2725387177372
 31
0.0
  0
LINE
  5
6291
330
4A1E
100
AcDbEntity
  8
0
 62
     0
370
    -2
100
AcDbLine
 10
251.1352936151394
 20
975.8321017430134
 30
0.0
 11
251.1352936151394
 21
957.2725387177372
 31
0.0
  0
LINE
  5
6292
330
4A1E
100
AcDbEntity
  8
0
 62
     0
370
    -2
100
AcDbLine
 10
284.8590194181044
 20
959.5225387177372
 30
0.0
 11
281.4049597385859
 21
959.5225387177372
 31
0.0
  0
LINE
  5
6293
330
4A1E
100
AcDbEntity
  8
0
 62
     0
370
    -2
100
AcDbLine
 10
253.3852936151394
 20
959.5225387177372
 30
0.0
 11
257.8335311671573
 21
959.5225387177372
 31
0.0
  0
MTEXT
  5
6294
330
4A1E
100
AcDbEntity
  8
0
 62
     0
100
AcDbMText
 10
269.6192454528716
 20
959.5225387177372
 30
0.0
 40
2.25
 41
0.0
 46
0.0
 71
     5
 72
     1
  1
\A1;CLEAR TREAD \P+ 4-1/2"
  7
ROMANS
 73
     1
 44
1.0
  0
SOLID
  5
6295
330
4A1E
100
AcDbEntity
  8
0
 62
     0
100
AcDbTrace
 10
284.8590194181044
 20
959.8975387177372
 30
0.0
 11
284.8590194181044
 21
959.1475387177371
 31
0.0
 12
287.1090194181044
 22
959.5225387177372
 32
0.0
 13
287.1090194181044
 23
959.5225387177372
 33
0.0
  0
SOLID
  5
6296
330
4A1E
100
AcDbEntity
  8
0
 62
     0
100
AcDbTrace
 10
253.3852936151394
 20
959.8975387177372
 30
0.0
 11
253.3852936151394
 21
959.1475387177371
 31
0.0
 12
251.1352936151394
 22
959.5225387177372
 32
0.0
 13
251.1352936151394
 23
959.5225387177372
 33
0.0
  0
POINT
  5
6297
330
4A1E
100
AcDbEntity
  8
DEFPOINTS
 62
     0
100
AcDbPoint
 10
287.1090194181044
 20
976.5821017430138
 30
0.0
  0
POINT
  5
6298
330
4A1E
100
AcDbEntity
  8
DEFPOINTS
 62
     0
100
AcDbPoint
 10
251.1352936151394
 20
976.5821017430134
 30
0.0
  0
POINT
  5
6299
330
4A1E
100
AcDbEntity
  8
DEFPOINTS
 62
     0
100
AcDbPoint
 10
251.1352936151394
 20
959.5225387177372
 30
0.0
  0
ENDBLK
  5
4A2A
330
4A1E
100
AcDbEntity
  8
0
100
AcDbBlockEnd
  0
BLOCK
  5
4F83
330
4F82
100
AcDbEntity
  8
0
 62
     7
100
AcDbBlockBegin
  2
Border
 70
     0
 10
-0.7091800116219247
 20
15.8157349101412
 30
0.0
  3
Border
  1
\\Precisionserver\Cad Files\Ladders\STANDARD\X-REF\Border.dwg
  0
TEXT
  5
5742
330
4F82
100
AcDbEntity
  8
0
 62
     7
100
AcDbText
 10
14.88063647735445
 20
3.555192752089299
 30
0.0
 40
1.424754602022191
  1
Ph: (423) 586-2265 Fax: (423) 586-2091
  7
ROMANS
100
AcDbText
  0
TEXT
  5
5743
330
4F82
100
AcDbEntity
  8
0
 62
     7
100
AcDbText
 10
14.08259024903724
 20
5.861938298220397
 30
0.0
 40
1.424754602022191
  1
P.O. BOX 2279 Morristown, TN 37816-2279
  7
ROMANS
100
AcDbText
  0
POLYLINE
  5
5744
330
4F82
100
AcDbEntity
  8
0
 62
     7
100
AcDb2dPolyline
 66
     1
 10
0.0
 20
0.0
 30
0.0
1001
ACAD
1000
ASC_BOUNDS
1002
{
1070
    19
1002
}
  0
VERTEX
  5
5745
330
5744
100
AcDbEntity
  8
0
 62
     7
100
AcDbVertex
100
AcDb2dVertex
 10
8.766680817386179
 20
6.443475067235914
 30
0.0
  0
VERTEX
  5
5746
330
5744
100
AcDbEntity
  8
0
 62
     7
100
AcDbVertex
100
AcDb2dVertex
 10
8.994566881815797
 20
6.559590470402541
 30
0.0
1001
ACAD
1000
ASC_BOUNDS
1002
{
1070
    19
1002
}
  0
VERTEX
  5
5747
330
5744
100
AcDbEntity
  8
0
 62
     7
100
AcDbVertex
100
AcDb2dVertex
 10
10.52763436609123
 20
3.491790326072928
 30
0.0
1001
ACAD
1000
ASC_BOUNDS
1002
{
1070
    19
1002
}
  0
VERTEX
  5
5748
330
5744
100
AcDbEntity
  8
0
 62
     7
100
AcDbVertex
100
AcDb2dVertex
 10
10.03502769416031
 20
3.494898529831843
 30
0.0
  0
VERTEX
  5
5749
330
5744
100
AcDbEntity
  8
0
 62
     7
100
AcDbVertex
100
AcDb2dVertex
 10
8.60317326800528
 20
6.36016262307789
 30
0.0
  0
SEQEND
  5
574A
330
5744
100
AcDbEntity
  8
0
 62
     7
  0
TEXT
  5
574B
330
4F82
100
AcDbEntity
  8
0
 62
     7
100
AcDbText
 10
9.015369284921122
 20
8.285226862434919
 30
0.0
 40
2.328886132939683
  1
Precision Ladders, LLC
  7
STYLE1
100
AcDbText
  0
CIRCLE
  5
574C
330
4F82
100
AcDbEntity
  8
0
100
AcDbCircle
 10
7.214644270335539
 20
7.943780927853118
 30
0.0
 40
6.386783474246639
1001
ACAD
1000
ASC_BOUNDS
1002
{
1070
    19
1002
}
  0
INSERT
  5
574D
330
4F82
100
AcDbEntity
  8
0
100
AcDbBlockReference
  2
*X9
 10
26.35103919121864
 20
151.2550454807789
 30
0.0
 41
0.5167726248169388
 42
0.5167726248169388
 43
0.5167726248169388
1001
ACAD
1000
HATCH
1002
{
1070
    19
1000
ANSI31
1040
0.8843871093750001
1040
0.0
1002
}
  0
LWPOLYLINE
  5
599B
330
4F82
100
AcDbEntity
  8
0
 62
     7
100
AcDbPolyline
 90
        4
 70
     1
 43
0.0
 10
2.975488579343775
 20
11.20574487544475
 10
2.975488579343775
 20
11.66813709808382
 10
7.899965750449309
 20
11.66813709808382
 10
7.899965750449309
 20
11.20574487544475
1001
ACAD
1000
ASC_BOUNDS
1002
{
1070
    19
1005
0
1005
0
1002
}
  0
LINE
  5
599C
330
4F82
100
AcDbEntity
  8
0
 62
     7
100
AcDbLine
 10
3.147317460242413
 20
11.15583866480141
 30
0.0
 11
5.194053803500192
 21
7.138892415524502
 31
0.0
1001
ACAD
1000
ASC_BOUNDS
1002
{
1070
    19
1002
}
  0
LWPOLYLINE
  5
599D
330
4F82
100
AcDbEntity
  8
0
 62
     7
100
AcDbPolyline
 90
        4
 70
     0
 43
0.0
 10
3.043241497727863
 20
11.20371728648946
 10
5.210472883142562
 20
6.950286201614057
 10
5.200585015452042
 20
6.945248081384521
 10
3.033353630037338
 20
11.19867916625988
1001
ACAD
1000
ASC_BOUNDS
1002
{
1070
    19
1002
}
  0
LINE
  5
599E
330
4F82
100
AcDbEntity
  8
0
 62
     7
100
AcDbLine
 10
3.085518287176609
 20
11.12435041336665
 30
0.0
 11
3.147317460242413
 21
11.15583866480141
 31
0.0
1001
ACAD
1000
ASC_BOUNDS
1002
{
1070
    19
1002
}
  0
LINE
  5
599F
330
4F82
100
AcDbEntity
  8
0
 62
     7
100
AcDbLine
 10
3.147317460242413
 20
11.15583866480141
 30
0.0
 11
3.245263913540979
 21
11.20574487544475
 31
0.0
1001
ACAD
1000
ASC_BOUNDS
1002
{
1070
    19
1002
}
  0
LINE
  5
59A0
330
4F82
100
AcDbEntity
  8
0
 62
     7
100
AcDbLine
 10
3.147317460242413
 20
11.15583866480141
 30
0.0
 11
3.273270465981351
 21
10.90864197253824
 31
0.0
1001
ACAD
1000
ASC_BOUNDS
1002
{
1070
    19
1002
}
  0
LINE
  5
59A1
330
4F82
100
AcDbEntity
  8
0
 62
     7
100
AcDbLine
 10
5.072300872670789
 20
9.53744807870658
 30
0.0
 11
4.595747463433541
 21
8.569300236298861
 31
0.0
1001
ACAD
1000
ASC_BOUNDS
1002
{
1070
    19
1005
0
1002
}
  0
LWPOLYLINE
  5
59A2
330
4F82
100
AcDbEntity
  8
0
 62
     7
100
AcDbPolyline
 90
        2
 70
     0
 43
0.0
 10
4.960506419544628
 20
9.543645531164383
 10
4.503413916137342
 20
8.615033727373582
1001
ACAD
1000
ASC_BOUNDS
1002
{
1070
    19
1005
0
1002
}
  0
LINE
  5
59A3
330
4F82
100
AcDbEntity
  8
0
 62
     7
100
AcDbLine
 10
4.056007838214296
 20
11.20574487544475
 30
0.0
 11
4.932195406234607
 21
9.486129949655111
 31
0.0
1001
ACAD
1000
ASC_BOUNDS
1002
{
1070
    19
1002
}
  0
LINE
  5
59A4
330
4F82
100
AcDbEntity
  8
0
 62
     7
100
AcDbLine
 10
3.978164599682429
 20
11.20574487544475
 30
0.0
 11
4.89394569271214
 21
9.408423281521596
 31
0.0
1001
ACAD
1000
ASC_BOUNDS
1002
{
1070
    19
1002
}
  0
LINE
  5
59A5
330
4F82
100
AcDbEntity
  8
0
 62
     7
100
AcDbLine
 10
3.898137361914258
 20
10.64985270363088
 30
0.0
 11
4.715447029607361
 21
9.045792163565488
 31
0.0
1001
ACAD
1000
ASC_BOUNDS
1002
{
1070
    19
1002
}
  0
LINE
  5
59A6
330
4F82
100
AcDbEntity
  8
0
 62
     7
100
AcDbLine
 10
5.484078733523913
 20
6.910143144887292
 30
0.0
 11
8.60317326800528
 21
6.36016262307789
 31
0.0
1001
ACAD
1000
ASC_BOUNDS
1002
{
1070
    19
1002
}
  0
POLYLINE
  5
59A7
330
4F82
100
AcDbEntity
  8
0
 62
     7
100
AcDb2dPolyline
 66
     1
 10
0.0
 20
0.0
 30
0.0
1001
ACAD
1000
ASC_BOUNDS
1002
{
1070
    19
1002
}
  0
VERTEX
  5
59A8
330
59A7
100
AcDbEntity
  8
0
 62
     7
100
AcDbVertex
100
AcDb2dVertex
 10
5.558944561790159
 20
7.225843565768938
 30
0.0
  0
VERTEX
  5
59A9
330
59A7
100
AcDbEntity
  8
0
 62
     7
100
AcDbVertex
100
AcDb2dVertex
 10
5.585448566250245
 20
7.338318007944597
 30
0.0
1001
ACAD
1000
ASC_BOUNDS
1002
{
1070
    19
1002
}
  0
VERTEX
  5
59AA
330
59A7
100
AcDbEntity
  8
0
 62
     7
100
AcDbVertex
100
AcDb2dVertex
 10
8.691008811799827
 20
6.790723946438539
 30
0.0
1001
ACAD
1000
ASC_BOUNDS
1002
{
1070
    19
1002
}
  0
VERTEX
  5
59AB
330
59A7
100
AcDbEntity
  8
0
 62
     7
100
AcDbVertex
100
AcDb2dVertex
 10
8.636574317061807
 20
6.523891328589764
 30
0.0
  0
SEQEND
  5
59AC
330
59A7
100
AcDbEntity
  8
0
 62
     7
  0
LINE
  5
59AD
330
4F82
100
AcDbEntity
  8
0
 62
     7
100
AcDbLine
 10
4.952359499322798
 20
9.293779731001041
 30
0.0
 11
5.847982934755883
 21
7.536019767643502
 31
0.0
1001
ACAD
1000
ASC_BOUNDS
1002
{
1070
    19
1005
0
1002
}
  0
LWPOLYLINE
  5
59AE
330
4F82
100
AcDbEntity
  8
0
 62
     7
100
AcDbPolyline
 90
        2
 70
     0
 43
0.0
 10
4.99060921284524
 20
9.371486399134514
 10
5.907719454906815
 20
7.571556203358091
1001
ACAD
1000
ASC_BOUNDS
1002
{
1070
    19
1002
}
  0
LWPOLYLINE
  5
59AF
330
4F82
100
AcDbEntity
  8
0
 62
     7
100
AcDbPolyline
 90
        3
 70
     0
 43
0.0
 10
4.504244055464261
 20
8.499766960532987
 10
4.67048220616947
 20
8.580846724094861
 10
4.635360593571968
 20
8.649776769948978
1001
ACAD
1000
ASC_BOUNDS
1002
{
1070
    19
1002
}
  0
CIRCLE
  5
59B0
330
4F82
100
AcDbEntity
  8
0
 62
     7
100
AcDbCircle
 10
4.570160018674124
 20
8.632639705777027
 30
0.0
 40
0.0173397083489631
1001
ACAD
1000
ASC_BOUNDS
1002
{
1070
    19
1002
}
  0
LINE
  5
59B1
330
4F82
100
AcDbEntity
  8
0
 62
     7
100
AcDbLine
 10
4.561762586535443
 20
8.733572674442768
 30
0.0
 11
4.420275384971654
 21
8.664564755375142
 31
0.0
1001
ACAD
1000
ASC_BOUNDS
1002
{
1070
    19
1002
}
  0
LINE
  5
59B2
330
4F82
100
AcDbEntity
  8
0
 62
     7
100
AcDbLine
 10
4.397705692942639
 20
8.699031828263084
 30
0.0
 11
4.523658698681582
 21
8.451835135999914
 31
0.0
1001
ACAD
1000
ASC_BOUNDS
1002
{
1070
    19
1002
}
  0
LINE
  5
59B3
330
4F82
100
AcDbEntity
  8
0
 62
     7
100
AcDbLine
 10
4.59567476800885
 20
8.569197878952618
 30
0.0
 11
4.503235545724734
 21
8.614717395049247
 31
0.0
1001
ACAD
1000
ASC_BOUNDS
1002
{
1070
    19
1002
}
  0
LWPOLYLINE
  5
59B4
330
4F82
100
AcDbEntity
  8
0
 62
     1
100
AcDbPolyline
 90
        2
 70
     1
 43
0.0
 10
4.587499727023091
 20
8.632639705777027
 42
-1.0
 10
4.552820310325168
 20
8.632639705777027
 42
-1.0
1001
ACAD
1000
ASC_BOUNDS
1002
{
1070
    19
1002
}
  0
LINE
  5
59B5
330
4F82
100
AcDbEntity
  8
0
 62
     7
100
AcDbLine
 10
5.908215410248867
 20
7.571854203391933
 30
0.0
 11
5.848763286247105
 21
7.536131763361761
 31
0.0
1001
ACAD
1000
ASC_BOUNDS
1002
{
1070
    19
1002
}
  0
LINE
  5
59B6
330
4F82
100
AcDbEntity
  8
0
 62
     7
100
AcDbLine
 10
5.430122954348513
 20
7.259175655722259
 30
0.0
 11
5.130795973607245
 21
7.106660941314304
 31
0.0
1001
ACAD
1000
ASC_BOUNDS
1002
{
1070
    19
1002
}
  0
POLYLINE
  5
59B7
330
4F82
100
AcDbEntity
  8
0
 62
     7
100
AcDb2dPolyline
 66
     1
 10
0.0
 20
0.0
 30
0.0
1001
ACAD
1000
ASC_BOUNDS
1002
{
1070
    19
1002
}
  0
VERTEX
  5
59B8
330
59B7
100
AcDbEntity
  8
0
 62
     7
100
AcDbVertex
100
AcDb2dVertex
 10
5.484532578181231
 20
6.910063119829048
 30
0.0
  0
VERTEX
  5
59B9
330
59B7
100
AcDbEntity
  8
0
 62
     7
100
AcDbVertex
100
AcDb2dVertex
 10
5.546463850673874
 20
7.172879455274841
 30
0.0
1001
ACAD
1000
ASC_BOUNDS
1002
{
1070
    19
1002
}
  0
SEQEND
  5
59BA
330
59B7
100
AcDbEntity
  8
0
 62
     7
  0
LINE
  5
59BB
330
4F82
100
AcDbEntity
  8
0
 62
     7
100
AcDbLine
 10
4.773860836218019
 20
8.931148613044847
 30
0.0
 11
5.339284363245941
 21
7.821442458840061
 31
0.0
1001
ACAD
1000
ASC_BOUNDS
1002
{
1070
    19
1002
}
  0
LINE
  5
59BC
330
4F82
100
AcDbEntity
  8
0
 62
     7
100
AcDbLine
 10
5.372431002767807
 20
7.756388515892252
 30
0.0
 11
5.585448566250245
 21
7.338318007944597
 31
0.0
1001
ACAD
1000
ASC_BOUNDS
1002
{
1070
    19
1002
}
  0
LWPOLYLINE
  5
59BD
330
4F82
100
AcDbEntity
  8
0
 62
     7
100
AcDbPolyline
 90
        4
 70
     0
 43
0.0
 10
5.663392081283444
 20
7.898299715888605
 10
5.184306973023733
 20
7.664634295893689
 10
5.152818721589007
 20
7.726433468959521
 10
5.627680504219661
 20
7.968387632202145
1001
ACAD
1000
ASC_BOUNDS
1002
{
1070
    19
1005
0
1002
}
  0
LWPOLYLINE
  5
59BE
330
4F82
100
AcDbEntity
  8
0
 62
     7
100
AcDbPolyline
 90
        5
 70
     0
 43
0.0
 10
5.58544856627228
 20
7.338318008040809
 10
5.597934850417206
 20
7.310058788560708
 10
5.751776773106651
 20
6.999255221859684
 10
5.648175584206336
 20
6.94797458096329
 10
5.517682900888962
 20
7.236519860065415
1001
ACAD
1000
ASC_BOUNDS
1002
{
1070
    19
1002
}
  0
POLYLINE
  5
59BF
330
4F82
100
AcDbEntity
  8
0
 62
     7
100
AcDb2dPolyline
 66
     1
 10
0.0
 20
0.0
 30
0.0
 70
     1
1001
ACAD
1000
ASC_BOUNDS
1002
{
1070
    19
1002
}
  0
VERTEX
  5
59C0
330
59BF
100
AcDbEntity
  8
0
 62
     7
100
AcDbVertex
100
AcDb2dVertex
 10
5.195606360788609
 20
7.318468839405722
 30
0.0
1001
ACAD
1000
ASC_BOUNDS
1002
{
1070
    19
1002
}
  0
VERTEX
  5
59C1
330
59BF
100
AcDbEntity
  8
0
 62
     7
100
AcDbVertex
100
AcDb2dVertex
 10
5.217042192292937
 20
7.421416678144872
 30
0.0
  0
VERTEX
  5
59C2
330
59BF
100
AcDbEntity
  8
0
 62
     7
100
AcDbVertex
100
AcDb2dVertex
 10
5.246883850365481
 20
7.413418789619857
 30
0.0
  0
VERTEX
  5
59C3
330
59BF
100
AcDbEntity
  8
0
 62
     7
100
AcDbVertex
100
AcDb2dVertex
 10
5.58544856627228
 20
7.338318008040809
 30
0.0
  0
VERTEX
  5
59C4
330
59BF
100
AcDbEntity
  8
0
 62
     7
100
AcDbVertex
100
AcDb2dVertex
 10
5.560414972412595
 20
7.225463102738594
 30
0.0
  0
VERTEX
  5
59C5
330
59BF
100
AcDbEntity
  8
0
 62
     7
100
AcDbVertex
100
AcDb2dVertex
 10
5.22467748046209
 20
7.312333873137024
 30
0.0
  0
SEQEND
  5
59C6
330
59BF
100
AcDbEntity
  8
0
 62
     7
  0
LWPOLYLINE
  5
59C7
330
4F82
100
AcDbEntity
  8
0
 62
     7
100
AcDbPolyline
 90
        5
 70
     0
 43
0.0
 10
8.603173268005274
 20
6.36016262307789
 10
8.589470773575794
 20
6.387852556696197
 10
8.422268196328207
 20
6.691677329242223
 10
8.523543120510186
 20
6.74741152165798
 10
8.666451280049757
 20
6.464809369457237
1001
ACAD
1000
ASC_BOUNDS
1002
{
1070
    19
1002
}
  0
LINE
  5
59C8
330
4F82
100
AcDbEntity
  8
0
 62
     7
100
AcDbLine
 10
8.626266396393788
 20
6.473362900436553
 30
0.0
 11
8.60317326800528
 21
6.36016262307789
 31
0.0
1001
ACAD
1000
ASC_BOUNDS
1002
{
1070
    19
1002
}
  0
POLYLINE
  5
59C9
330
4F82
100
AcDbEntity
  8
0
 62
     7
100
AcDb2dPolyline
 66
     1
 10
0.0
 20
0.0
 30
0.0
 70
     1
1001
ACAD
1000
ASC_BOUNDS
1002
{
1070
    19
1002
}
  0
VERTEX
  5
59CA
330
59C9
100
AcDbEntity
  8
0
 62
     7
100
AcDbVertex
100
AcDb2dVertex
 10
8.991784676367734
 20
6.396933643765679
 30
0.0
1001
ACAD
1000
ASC_BOUNDS
1002
{
1070
    19
1002
}
  0
VERTEX
  5
59CB
330
59C9
100
AcDbEntity
  8
0
 62
     7
100
AcDbVertex
100
AcDb2dVertex
 10
8.974842694154414
 20
6.293151556621431
 30
0.0
  0
VERTEX
  5
59CC
330
59C9
100
AcDbEntity
  8
0
 62
     7
100
AcDbVertex
100
AcDb2dVertex
 10
8.944681676551669
 20
6.299845120286859
 30
0.0
  0
VERTEX
  5
59CD
330
59C9
100
AcDbEntity
  8
0
 62
     7
100
AcDbVertex
100
AcDb2dVertex
 10
8.603173268005274
 20
6.36016262307789
 30
0.0
  0
VERTEX
  5
59CE
330
59C9
100
AcDbEntity
  8
0
 62
     7
100
AcDbVertex
100
AcDb2dVertex
 10
8.623279102268954
 20
6.473998759260005
 30
0.0
  0
VERTEX
  5
59CF
330
59C9
100
AcDbEntity
  8
0
 62
     7
100
AcDbVertex
100
AcDb2dVertex
 10
8.962474422630362
 20
6.401799528684035
 30
0.0
  0
SEQEND
  5
59D0
330
59C9
100
AcDbEntity
  8
0
 62
     7
  0
LINE
  5
59D1
330
4F82
100
AcDbEntity
  8
0
 62
     1
100
AcDbLine
 10
8.691008811799827
 20
6.790723946438539
 30
0.0
 11
8.636574317061807
 21
6.523891328589764
 31
0.0
1001
ACAD
1000
ASC_BOUNDS
1002
{
1070
    19
1002
}
  0
LINE
  5
59D2
330
4F82
100
AcDbEntity
  8
0
 62
     1
100
AcDbLine
 10
8.636574317061807
 20
6.523891328589764
 30
0.0
 11
8.666451280049757
 21
6.464809369457237
 31
0.0
1001
ACAD
1000
ASC_BOUNDS
1002
{
1070
    19
1002
}
  0
LINE
  5
59D3
330
4F82
100
AcDbEntity
  8
0
 62
     1
100
AcDbLine
 10
8.666451280049757
 20
6.464809369457237
 30
0.0
 11
8.766680817386195
 21
6.443475067235914
 31
0.0
  0
LINE
  5
59D4
330
4F82
100
AcDbEntity
  8
0
 62
     1
100
AcDbLine
 10
8.766680817386195
 20
6.443475067235914
 30
0.0
 11
8.994566881815797
 21
6.559590470402541
 31
0.0
1001
ACAD
1000
ASC_BOUNDS
1002
{
1070
    19
1002
}
  0
LINE
  5
59D5
330
4F82
100
AcDbEntity
  8
0
 62
     7
100
AcDbLine
 10
3.61489615320033
 20
11.20574487544475
 30
0.0
 11
3.86829586787606
 21
10.70841993333023
 31
0.0
1001
ACAD
1000
ASC_BOUNDS
1002
{
1070
    19
1002
}
  0
LWPOLYLINE
  5
59D6
330
4F82
100
AcDbEntity
  8
0
 62
     7
100
AcDbPolyline
 90
        4
 70
     0
 43
0.0
 10
4.159256946391717
 20
10.85033113332658
 10
3.68203522590797
 20
10.61757454827512
 10
3.712440137243662
 20
10.5552352417607
 10
4.186533502887983
 20
10.79679787699292
1001
ACAD
1000
ASC_BOUNDS
1002
{
1070
    19
1002
}
  0
LINE
  5
59D7
330
4F82
100
AcDbEntity
  8
0
 62
     7
100
AcDbLine
 10
5.709486798505537
 20
11.20574487544475
 30
0.0
 11
5.11728991060976
 21
10.13539932711142
 31
0.0
1001
ACAD
1000
ASC_BOUNDS
1002
{
1070
    19
1002
}
  0
LINE
  5
59D8
330
4F82
100
AcDbEntity
  8
0
 62
     7
100
AcDbLine
 10
5.577375125302518
 20
11.20574487544475
 30
0.0
 11
5.136154627876379
 21
10.40827632249176
 31
0.0
1001
ACAD
1000
ASC_BOUNDS
1002
{
1070
    19
1002
}
  0
CIRCLE
  5
59D9
330
4F82
100
AcDbEntity
  8
0
 62
     7
100
AcDbCircle
 10
5.02104187821431
 20
9.565686892025851
 30
0.0
 40
0.0173397083489631
1001
ACAD
1000
ASC_BOUNDS
1002
{
1070
    19
1002
}
  0
LWPOLYLINE
  5
59DA
330
4F82
100
AcDbEntity
  8
0
 62
     1
100
AcDbPolyline
 90
        2
 70
     1
 43
0.0
 10
5.038381586563275
 20
9.565686892025851
 42
-1.0
 10
5.00370216986535
 20
9.565686892025851
 42
-1.0
1001
ACAD
1000
ASC_BOUNDS
1002
{
1070
    19
1002
}
  0
LINE
  5
59DB
330
4F82
100
AcDbEntity
  8
0
 62
     1
100
AcDbLine
 10
5.075828546832791
 20
9.535663205337947
 30
0.0
 11
5.071422300771323
 21
9.535663205337947
 31
0.0
  0
LINE
  5
59DC
330
4F82
100
AcDbEntity
  8
0
 62
     7
100
AcDbLine
 10
5.191285764011571
 20
11.20574487544475
 30
0.0
 11
5.075277381445791
 21
9.52769063131852
 31
0.0
1001
ACAD
1000
ASC_BOUNDS
1002
{
1070
    19
1005
0
1002
}
  0
LWPOLYLINE
  5
59DD
330
4F82
100
AcDbEntity
  8
0
 62
     7
100
AcDbPolyline
 90
        3
 70
     0
 43
0.0
 10
5.075411797167864
 20
11.20574487544475
 10
4.9599545799891
 20
9.535663205337947
 10
5.075552635648853
 20
9.535663205337947
1001
ACAD
1000
ASC_BOUNDS
1002
{
1070
    19
1005
0
1002
}
  0
TEXT
  5
59DE
330
4F82
100
AcDbEntity
  8
0
 62
     7
100
AcDbText
 10
21.37027972100177
 20
0.9805520374701943
 30
0.0
 40
1.638467792325521
  1
www.PrecisionLadders.com
  7
ROMANS
100
AcDbText
  0
LWPOLYLINE
  5
59DF
330
4F82
100
AcDbEntity
  8
0
 62
     7
100
AcDbPolyline
 90
        9
 70
     0
 43
0.0
 10
10.36633405241562
 20
3.428726298408117
 10
10.36655286501771
 20
3.463405024791232
 10
10.26251668586843
 20
3.464061462597571
 10
10.19315923310223
 20
3.464499087801723
 10
10.19294042050013
 20
3.429820361418695
 42
0.4142135623730939
 10
10.20442705842713
 20
3.418187848423535
 10
10.35470153942054
 20
3.417239660481108
 42
0.4142135623730989
 10
10.3663340524156
 20
3.428726298408117
 42
-0.4142135623730944
 10
10.35470153942054
 20
3.417239660481108
1001
ACAD
1000
ASC_BOUNDS
1002
{
1070
    19
1002
}
  0
LINE
  5
59E0
330
4F82
100
AcDbEntity
  8
0
 62
     7
100
AcDbLine
 10
10.31311986264362
 20
3.493143849733797
 30
0.0
 11
10.3127092320714
 21
3.463744762338132
 31
0.0
1001
ACAD
1000
ASC_BOUNDS
1002
{
1070
    19
1002
}
  0
LINE
  5
59E1
330
4F82
100
AcDbEntity
  8
0
 62
     7
100
AcDbLine
 10
10.24954219760794
 20
3.493545006170977
 30
0.0
 11
10.31311986264362
 21
3.493143849733797
 31
0.0
1001
ACAD
1000
ASC_BOUNDS
1002
{
1070
    19
1002
}
  0
LINE
  5
59E2
330
4F82
100
AcDbEntity
  8
0
 62
     7
100
AcDbLine
 10
10.24938007573792
 20
3.467850965163846
 30
0.0
 11
10.24954219760794
 21
3.493545006170977
 31
0.0
1001
ACAD
1000
ASC_BOUNDS
1002
{
1070
    19
1002
}
  0
TEXT
  5
59E3
330
4F82
100
AcDbEntity
  8
0
100
AcDbText
 10
66.24482379919353
 20
0.7698485708019974
 30
0.0
 40
1.1055
  1
WORK ORDER: ( )
 50
90.0
 41
0.9
  7
ROMANS
100
AcDbText
  0
TEXT
  5
59E4
330
4F82
100
AcDbEntity
  8
0
100
AcDbText
 10
67.90690698866296
 20
3.502753249128737
 30
0.0
 40
1.1055
  1
CHECKED BY:
  7
ROMANS
100
AcDbText
  0
TEXT
  5
59E5
330
4F82
100
AcDbEntity
  8
0
100
AcDbText
 10
67.90690698866296
 20
13.80825974738626
 30
0.0
 40
1.1055
  1
DWG. CHECK
  7
ROMANS
100
AcDbText
  0
TEXT
  5
59E6
330
4F82
100
AcDbEntity
  8
0
100
AcDbText
 10
67.90690698866296
 20
8.655506498257498
 30
0.0
 40
1.1055
  1
BUILT BY:
  7
ROMANS
100
AcDbText
  0
TEXT
  5
59E7
330
4F82
100
AcDbEntity
  8
0
100
AcDbText
 10
99.41250000000003
 20
3.502753249128737
 30
0.0
 40
1.1055
  1
DRAWN BY:
  7
ROMANS
100
AcDbText
  0
TEXT
  5
59E8
330
4F82
100
AcDbEntity
  8
0
100
AcDbText
 10
99.41250000000003
 20
8.655506498257498
 30
0.0
 40
1.1055
  1
PURCHASE ORDER
  7
ROMANS
100
AcDbText
  0
TEXT
  5
59E9
330
4F82
100
AcDbEntity
  8
0
100
AcDbText
 10
99.41250000000003
 20
13.80825974738626
 30
0.0
 40
1.1055
  1
ARCH'T OR ENG'R.
  7
ROMANS
100
AcDbText
  0
TEXT
  5
59EA
330
4F82
100
AcDbEntity
  8
0
100
AcDbText
 10
220.5524394415514
 20
8.236073841958663
 30
0.0
 40
1.1055
  1
SERIAL#
  7
ROMANS
100
AcDbText
  0
TEXT
  5
59EB
330
4F82
100
AcDbEntity
  8
0
100
AcDbText
 10
220.4125000000001
 20
13.80825974738626
 30
0.0
 40
1.1055
  1
PRECISION REP
  7
ROMANS
100
AcDbText
  0
TEXT
  5
59EC
330
4F82
100
AcDbEntity
  8
0
100
AcDbText
 10
143.4125
 20
3.502753249128737
 30
0.0
 40
1.1055
  1
DATE
  7
ROMANS
100
AcDbText
  0
TEXT
  5
59ED
330
4F82
100
AcDbEntity
  8
0
100
AcDbText
 10
159.9125
 20
3.502753249128737
 30
0.0
 40
1.1055
  1
MODEL#
  7
ROMANS
100
AcDbText
  0
TEXT
  5
59EE
330
4F82
100
AcDbEntity
  8
0
100
AcDbText
 10
143.4125
 20
13.80825974738626
 30
0.0
 40
1.1055
  1
PROJECT
  7
ROMANS
100
AcDbText
  0
TEXT
  5
59EF
330
4F82
100
AcDbEntity
  8
0
100
AcDbText
 10
143.4125
 20
8.655506498257498
 30
0.0
 40
1.1055
  1
WORK ORDER
  7
ROMANS
100
AcDbText
  0
TEXT
  5
59F0
330
4F82
100
AcDbEntity
  8
0
100
AcDbText
 10
159.9125
 20
8.655506498257498
 30
0.0
 40
1.1055
  1
PURCHASER
  7
ROMANS
100
AcDbText
  0
TEXT
  5
59F1
330
4F82
100
AcDbEntity
  8
0
100
AcDbText
 10
209.4125
 20
3.502753249128737
 30
0.0
 40
1.1055
  1
QTY.
  7
ROMANS
100
AcDbText
  0
LINE
  5
59F2
330
4F82
100
AcDbEntity
  8
0
 62
     1
100
AcDbLine
 10
67.49440698866294
 20
5.15275324912876
 30
0.0
 11
220.0
 21
5.15275324912876
 31
0.0
  0
LINE
  5
59F3
330
4F82
100
AcDbEntity
  8
0
 62
     1
100
AcDbLine
 10
275.0
 20
0.0
 30
0.0
 11
275.0
 21
212.5
 31
0.0
  0
LINE
  5
59F4
330
4F82
100
AcDbEntity
  8
0
 62
     1
100
AcDbLine
 10
275.0
 20
212.5
 30
0.0
 11
0.0
 21
212.5
 31
0.0
  0
LINE
  5
59F5
330
4F82
100
AcDbEntity
  8
0
 62
     1
100
AcDbLine
 10
0.0
 20
212.5
 30
0.0
 11
0.0
 21
0.0
 31
0.0
  0
LINE
  5
59F6
330
4F82
100
AcDbEntity
  8
0
 62
     1
100
AcDbLine
 10
0.0
 20
0.0
 30
0.0
 11
275.0
 21
0.0
 31
0.0
  0
LINE
  5
59F7
330
4F82
100
AcDbEntity
  8
0
 62
     1
100
AcDbLine
 10
67.49440698866294
 20
0.0
 30
0.0
 11
67.49440698866294
 21
15.45825974738624
 31
0.0
  0
LINE
  5
59F8
330
4F82
100
AcDbEntity
  8
0
 62
     1
100
AcDbLine
 10
99.0
 20
0.0
 30
0.0
 11
99.0
 21
15.45825974738624
 31
0.0
  0
LINE
  5
59F9
330
4F82
100
AcDbEntity
  8
0
 62
     1
100
AcDbLine
 10
143.0
 20
0.0
 30
0.0
 11
143.0
 21
15.45825974738624
 31
0.0
  0
LINE
  5
59FA
330
4F82
100
AcDbEntity
  8
0
 62
     1
100
AcDbLine
 10
159.5
 20
0.0
 30
0.0
 11
159.5
 21
10.30550649825748
 31
0.0
  0
LINE
  5
59FB
330
4F82
100
AcDbEntity
  8
0
 62
     1
100
AcDbLine
 10
220.0
 20
0.0
 30
0.0
 11
220.0
 21
15.45825974738624
 31
0.0
  0
LINE
  5
59FC
330
4F82
100
AcDbEntity
  8
0
 62
     1
100
AcDbLine
 10
209.0
 20
0.0
 30
0.0
 11
209.0
 21
5.15275324912876
 31
0.0
  0
LINE
  5
59FD
330
4F82
100
AcDbEntity
  8
0
 62
     1
100
AcDbLine
 10
0.0
 20
15.45825974738624
 30
0.0
 11
275.0
 21
15.45825974738624
 31
0.0
  0
LINE
  5
59FE
330
4F82
100
AcDbEntity
  8
0
 62
     1
100
AcDbLine
 10
67.49440698866294
 20
10.30550649825748
 30
0.0
 11
275.0
 21
10.30550649825748
 31
0.0
  0
ENDBLK
  5
4F84
330
4F82
100
AcDbEntity
  8
0
 62
     7
100
AcDbBlockEnd
  0
BLOCK
  5
504F
330
5040
100
AcDbEntity
  8
0
 62
     7
100
AcDbBlockBegin
  2
border-T
 70
     2
 10
0.0
 20
0.0
 30
0.0
  3
border-T
  1

  0
ATTDEF
  5
5041
330
5040
100
AcDbEntity
  8
0
 62
     5
100
AcDbText
 10
1.270598029493498
 20
16.95296065185261
 30
0.0
 40
2.25
  1

  7
ROMANS
100
AcDbAttributeDefinition
  3
SCALE
  2
SCALE
 70
     0
280
     0
  0
ATTDEF
  5
5042
330
5040
100
AcDbEntity
  8
0
100
AcDbText
 10
267.5431072019895
 20
17.84606723821125
 30
0.0
 40
1.7518359375
  1

  7
ROMANS
 72
     4
 11
267.5431072019895
 21
17.84606723821125
 31
0.0
100
AcDbAttributeDefinition
  3
SAVED AS
  2
SAVEDAS
 70
     0
280
     0
  0
ATTDEF
  5
5043
330
5040
100
AcDbEntity
  8
0
 62
     5
100
AcDbText
 10
65.77232295450201
 20
13.4910955979239
 30
0.0
 40
1.248161764705882
  1

 50
90.0
  7
ROMANS
 72
     4
 11
65.77232295450201
 21
13.4910955979239
 31
0.0
100
AcDbAttributeDefinition
  3
WORK ORDER (X)
  2
X
 70
     0
280
     0
  0
ATTDEF
  5
5044
330
5040
100
AcDbEntity
  8
0
100
AcDbText
 10
120.7768196578975
 20
11.16830391662092
 30
0.0
 40
1.769029714285714
  1

  7
ROMANS
 72
     1
 11
120.7768196578975
 21
11.16830391662092
 31
0.0
100
AcDbAttributeDefinition
  3
ARCHITECT OR ENGINEER
  2
ARCHORENG
 70
     0
280
     0
  0
ATTDEF
  5
5045
330
5040
100
AcDbEntity
  8
0
100
AcDbText
 10
120.7768196578975
 20
6.014881478758579
 30
0.0
 40
1.769029714285714
  1

  7
ROMANS
 72
     1
 11
120.7768196578975
 21
6.014881478758579
 31
0.0
100
AcDbAttributeDefinition
  3
PURCHASE ORDER
  2
PURCHASEORDER
 70
     0
280
     0
  0
ATTDEF
  5
5046
330
5040
100
AcDbEntity
  8
0
100
AcDbText
 10
118.4602331272852
 20
0.8614590408961362
 30
0.0
 40
1.769029714285714
  1
JEB
  7
ROMANS
 72
     1
 11
120.7768196578975
 21
0.8614590408961362
 31
0.0
100
AcDbAttributeDefinition
  3
WHO ARE YOU?
  2
DRAWNBY
 70
     0
280
     0
  0
ATTDEF
  5
5047
330
5040
100
AcDbEntity
  8
0
100
AcDbText
 10
151.0307482293261
 20
6.014881478758579
 30
0.0
 40
1.769029714285714
  1

  7
ROMANS
 72
     1
 11
151.0307482293261
 21
6.014881478758579
 31
0.0
100
AcDbAttributeDefinition
  3
WORK ORDER DATE?
  2
DATE
 70
     0
280
     0
  0
ATTDEF
  5
5048
330
5040
100
AcDbEntity
  8
0
100
AcDbText
 10
151.0307482293261
 20
0.8614590408961362
 30
0.0
 40
1.769029714285714
  1

  7
ROMANS
 72
     1
 11
151.0307482293261
 21
0.8614590408961362
 31
0.0
100
AcDbAttributeDefinition
  3
WHAT IS TODAY'S DATE?
  2
DATE
 70
     0
280
     0
  0
ATTDEF
  5
5049
330
5040
100
AcDbEntity
  8
0
100
AcDbText
 10
181.2846768007546
 20
11.16830391662092
 30
0.0
 40
1.769029714285714
  1

  7
ROMANS
 72
     1
 11
181.2846768007546
 21
11.16830391662092
 31
0.0
100
AcDbAttributeDefinition
  3
PROJECT
  2
PROJECT
 70
     0
280
     0
  0
ATTDEF
  5
504A
330
5040
100
AcDbEntity
  8
0
100
AcDbText
 10
189.535748229326
 20
6.014881478758579
 30
0.0
 40
1.769029714285714
  1

  7
ROMANS
 72
     1
 11
189.535748229326
 21
6.014881478758579
 31
0.0
100
AcDbAttributeDefinition
  3
PURCHASER
  2
PURCHASER
 70
     0
280
     0
  0
ATTDEF
  5
504B
330
5040
100
AcDbEntity
  8
0
100
AcDbText
 10
184.0350339436118
 20
0.8614590408962374
 30
0.0
 40
1.769029714285714
  1

  7
ROMANS
 72
     1
 11
184.0350339436118
 21
0.8614590408962374
 31
0.0
100
AcDbAttributeDefinition
  3
MODEL #
  2
MODEL
 70
     0
280
     0
  0
ATTDEF
  5
504C
330
5040
100
AcDbEntity
  8
0
100
AcDbText
 10
213.5729266783056
 20
0.8614590408961362
 30
0.0
 40
1.769029714285714
  1
1
  7
ROMANS
 72
     1
 11
214.2889625150403
 21
0.8614590408961362
 31
0.0
100
AcDbAttributeDefinition
  3
QUANTITY
  2
QTY
 70
     0
280
     0
  0
ATTDEF
  5
504D
330
5040
100
AcDbEntity
  8
0
100
AcDbText
 10
247.2932482293261
 20
11.16763472788734
 30
0.0
 40
1.769029714285714
  1

  7
ROMANS
 72
     1
 11
247.2932482293261
 21
11.16763472788734
 31
0.0
100
AcDbAttributeDefinition
  3
PRECISION REP
  2
REP
 70
     0
280
     0
  0
ATTDEF
  5
504E
330
5040
100
AcDbEntity
  8
0
100
AcDbText
 10
247.3274175489777
 20
3.153238685427304
 30
0.0
 40
3.455136160714285
  1

  7
ROMANS
 72
     1
 11
247.3274175489777
 21
3.153238685427304
 31
0.0
100
AcDbAttributeDefinition
  3
SERIAL #
  2
L010000
 70
     0
280
     0
  0
ENDBLK
  5
5050
330
5040
100
AcDbEntity
  8
0
 62
     7
100
AcDbBlockEnd
  0
BLOCK
  5
574F
330
574E
100
AcDbEntity
  8
0
100
AcDbBlockBegin
  2
*X9
 70
     1
 10
0.0
 20
0.0
 30
0.0
  3
*X9
  1

  0
LINE
  5
5750
330
574E
100
AcDbEntity
  8
0
 62
     0
100
AcDbLine
 10
-39.38783740946116
 20
-279.4947837961181
 30
0.0
 11
-38.65407559127778
 21
-278.7610219779348
 31
0.0
  0
LINE
  5
5751
330
574E
100
AcDbEntity
  8
0
 62
     0
100
AcDbLine
 10
-39.50054631068232
 20
-279.4749101758668
 30
0.0
 11
-38.76678449249896
 21
-278.7411483576835
 31
0.0
  0
LINE
  5
5752
330
574E
100
AcDbEntity
  8
0
 62
     0
100
AcDbLine
 10
-39.61325521190351
 20
-279.4550365556156
 30
0.0
 11
-38.87949339372014
 21
-278.7212747374322
 31
0.0
  0
LINE
  5
5753
330
574E
100
AcDbEntity
  8
0
 62
     0
100
AcDbLine
 10
-39.7259641131247
 20
-279.4351629353642
 30
0.0
 11
-38.99220229494132
 21
-278.7014011171809
 31
0.0
  0
LINE
  5
5754
330
574E
100
AcDbEntity
  8
0
 62
     0
100
AcDbLine
 10
-39.83867301434587
 20
-279.415289315113
 30
0.0
 11
-39.1049111961625
 21
-278.6815274969296
 31
0.0
  0
LINE
  5
5755
330
574E
100
AcDbEntity
  8
0
 62
     0
100
AcDbLine
 10
-39.95138191556705
 20
-279.3954156948617
 30
0.0
 11
-39.21762009738368
 21
-278.6616538766783
 31
0.0
  0
LINE
  5
5756
330
574E
100
AcDbEntity
  8
0
 62
     0
100
AcDbLine
 10
-40.06409081678821
 20
-279.3755420746104
 30
0.0
 11
-39.33032899860484
 21
-278.641780256427
 31
0.0
  0
LINE
  5
5757
330
574E
100
AcDbEntity
  8
0
 62
     0
100
AcDbLine
 10
-40.1767997180094
 20
-279.3556684543591
 30
0.0
 11
-40.06372011526283
 21
-279.2425888516125
 31
0.0
  0
LINE
  5
5758
330
574E
100
AcDbEntity
  8
0
 62
     0
100
AcDbLine
 10
-39.89688315430998
 20
-279.0757518906596
 30
0.0
 11
-39.44303789982602
 21
-278.6219066361756
 31
0.0
  0
LINE
  5
5759
330
574E
100
AcDbEntity
  8
0
 62
     0
100
AcDbLine
 10
-40.06372011526283
 20
-279.2425888516125
 30
0.0
 11
-39.89688315430998
 21
-279.0757518906597
 31
0.0
  0
LINE
  5
575A
330
574E
100
AcDbEntity
  8
0
 62
     0
100
AcDbLine
 10
-40.28950861923056
 20
-279.3357948341077
 30
0.0
 11
-40.10500766087813
 21
-279.1512938757553
 31
0.0
  0
LINE
  5
575B
330
574E
100
AcDbEntity
  8
0
 62
     0
100
AcDbLine
 10
-39.94078059974761
 20
-278.9870668146248
 30
0.0
 11
-39.5557468010472
 21
-278.6020330159244
 31
0.0
  0
LINE
  5
575C
330
574E
100
AcDbEntity
  8
0
 62
     0
100
AcDbLine
 10
-40.10500766087811
 20
-279.1512938757553
 30
0.0
 11
-39.9407805997476
 21
-278.9870668146248
 31
0.0
  0
LINE
  5
575D
330
574E
100
AcDbEntity
  8
0
 62
     0
100
AcDbLine
 10
-40.36990717715883
 20
-279.2836108705636
 30
0.0
 11
-40.1462952064934
 21
-279.0599988998982
 31
0.0
  0
LINE
  5
575E
330
574E
100
AcDbEntity
  8
0
 62
     0
100
AcDbLine
 10
-39.98467804518519
 20
-278.8983817385899
 30
0.0
 11
-39.66845570226838
 21
-278.5821593956731
 31
0.0
  0
LINE
  5
575F
330
574E
100
AcDbEntity
  8
0
 62
     0
100
AcDbLine
 10
-40.14629520649338
 20
-279.0599988998981
 30
0.0
 11
-39.98467804518524
 21
-278.89838173859
 31
0.0
  0
LINE
  5
5760
330
574E
100
AcDbEntity
  8
0
 62
     0
100
AcDbLine
 10
-40.32903303677044
 20
-279.1101542087027
 30
0.0
 11
-40.18758275210868
 21
-278.968703924041
 31
0.0
  0
LINE
  5
5761
330
574E
100
AcDbEntity
  8
0
 62
     0
100
AcDbLine
 10
-40.02857549062279
 20
-278.8096966625551
 30
0.0
 11
-39.78116460348956
 21
-278.5622857754218
 31
0.0
  0
LINE
  5
5762
330
574E
100
AcDbEntity
  8
0
 62
     0
100
AcDbLine
 10
-40.18758275210866
 20
-278.9687039240409
 30
0.0
 11
-40.02857549062286
 21
-278.8096966625551
 31
0.0
  0
LINE
  5
5763
330
574E
100
AcDbEntity
  8
0
 62
     0
100
AcDbLine
 10
-40.28815889638206
 20
-278.9366975468419
 30
0.0
 11
-40.22887029772395
 21
-278.8774089481838
 31
0.0
  0
LINE
  5
5764
330
574E
100
AcDbEntity
  8
0
 62
     0
100
AcDbLine
 10
-40.07247293606041
 20
-278.7210115865202
 30
0.0
 11
-39.89387350471074
 21
-278.5424121551705
 31
0.0
  0
LINE
  5
5765
330
574E
100
AcDbEntity
  8
0
 62
     0
100
AcDbLine
 10
-40.22887029772394
 20
-278.8774089481837
 30
0.0
 11
-40.07247293606049
 21
-278.7210115865203
 31
0.0
  0
LINE
  5
5766
330
574E
100
AcDbEntity
  8
0
 62
     0
100
AcDbLine
 10
-40.27015784333923
 20
-278.7861139723266
 30
0.0
 11
-40.11637038149812
 21
-278.6323265104854
 31
0.0
  0
LINE
  5
5767
330
574E
100
AcDbEntity
  8
0
 62
     0
100
AcDbLine
 10
-40.116370381498
 20
-278.6323265104853
 30
0.0
 11
-40.00658240593192
 21
-278.5225385349192
 31
0.0
  0
LINE
  5
5768
330
574E
100
AcDbEntity
  8
0
 62
     0
100
AcDbLine
 10
-40.31144538895452
 20
-278.6948189964694
 30
0.0
 11
-40.30692854477254
 21
-278.6903021522874
 31
0.0
  0
LINE
  5
5769
330
574E
100
AcDbEntity
  8
0
 62
     0
100
AcDbLine
 10
-39.69215944246978
 20
-278.0755330499846
 30
0.0
 11
-39.59237083622737
 21
-277.9757444437422
 31
0.0
  0
LINE
  5
576A
330
574E
100
AcDbEntity
  8
0
 62
     0
100
AcDbLine
 10
-40.30692854477248
 20
-278.6903021522873
 30
0.0
 11
-40.20641061560525
 21
-278.5897842231201
 31
0.0
  0
LINE
  5
576B
330
574E
100
AcDbEntity
  8
0
 62
     0
100
AcDbLine
 10
-40.16017812122486
 20
-278.5435517287397
 30
0.0
 11
-40.11929130715309
 21
-278.5026649146679
 31
0.0
  0
LINE
  5
576C
330
574E
100
AcDbEntity
  8
0
 62
     0
100
AcDbLine
 10
-40.20466276288202
 20
-278.5880363703969
 30
0.0
 11
-40.16017812122502
 21
-278.5435517287398
 31
0.0
  0
LINE
  5
576D
330
574E
100
AcDbEntity
  8
0
 62
     0
100
AcDbLine
 10
-40.41225758634928
 20
-278.6630486723916
 30
0.0
 11
-40.23018407840633
 21
-278.4809751644487
 31
0.0
  0
LINE
  5
576E
330
574E
100
AcDbEntity
  8
0
 62
     0
100
AcDbLine
 10
-39.73691136690469
 20
-277.987702452947
 30
0.0
 11
-39.6371227606623
 21
-277.8879138467047
 31
0.0
  0
LINE
  5
576F
330
574E
100
AcDbEntity
  8
0
 62
     0
100
AcDbLine
 10
-40.23018407840633
 20
-278.4809751644486
 30
0.0
 11
-40.20259152936932
 21
-278.4533826154117
 31
0.0
  0
LINE
  5
5770
330
574E
100
AcDbEntity
  8
0
 62
     0
100
AcDbLine
 10
-40.57051962558798
 20
-278.6887281901577
 30
0.0
 11
-40.51758662792604
 21
-278.6357951924959
 31
0.0
  0
LINE
  5
5771
330
574E
100
AcDbEntity
  8
0
 62
     0
100
AcDbLine
 10
-39.78166329133961
 20
-277.8998718559094
 30
0.0
 11
-39.68187468509722
 21
-277.8000832496671
 31
0.0
  0
LINE
  5
5772
330
574E
100
AcDbEntity
  8
0
 62
     0
100
AcDbLine
 10
-40.51758662792603
 20
-278.6357951924959
 30
0.0
 11
-40.33869630383812
 21
-278.456904868408
 31
0.0
  0
LINE
  5
5773
330
574E
100
AcDbEntity
  8
0
 62
     0
100
AcDbLine
 10
-40.33869630383812
 20
-278.456904868408
 30
0.0
 11
-40.24734345380425
 21
-278.3655520183742
 31
0.0
  0
LINE
  5
5774
330
574E
100
AcDbEntity
  8
0
 62
     0
100
AcDbLine
 10
-40.84083440815077
 20
-278.8264604512481
 30
0.0
 11
-40.62291566950281
 21
-278.6085417126002
 31
0.0
  0
LINE
  5
5775
330
574E
100
AcDbEntity
  8
0
 62
     0
100
AcDbLine
 10
-39.82641521577454
 20
-277.812041258872
 30
0.0
 11
-39.72662660953214
 21
-277.7122526526295
 31
0.0
  0
LINE
  5
5776
330
574E
100
AcDbEntity
  8
0
 62
     0
100
AcDbLine
 10
-40.62291566950278
 20
-278.6085417126002
 30
0.0
 11
-40.44720852926992
 21
-278.4328345723673
 31
0.0
  0
LINE
  5
5777
330
574E
100
AcDbEntity
  8
0
 62
     0
100
AcDbLine
 10
-40.44720852926991
 20
-278.4328345723673
 30
0.0
 11
-40.29209537823916
 21
-278.2777214213366
 31
0.0
  0
LINE
  5
5778
330
574E
100
AcDbEntity
  8
0
 62
     0
100
AcDbLine
 10
-41.07098574326527
 20
-278.9240292648902
 30
0.0
 11
-40.96884180887604
 21
-278.821885330501
 31
0.0
  0
LINE
  5
5779
330
574E
100
AcDbEntity
  8
0
 62
     0
100
AcDbLine
 10
-39.87116714020946
 20
-277.7242106618344
 30
0.0
 11
-39.77137853396706
 21
-277.624422055592
 31
0.0
  0
LINE
  5
577A
330
574E
100
AcDbEntity
  8
0
 62
     0
100
AcDbLine
 10
-40.96884180887601
 20
-278.8218853305009
 30
0.0
 11
-40.72824471107957
 21
-278.5812882327045
 31
0.0
  0
LINE
  5
577B
330
574E
100
AcDbEntity
  8
0
 62
     0
100
AcDbLine
 10
-40.55572075470169
 20
-278.4087642763266
 30
0.0
 11
-40.33684730267409
 21
-278.189890824299
 31
0.0
  0
LINE
  5
577C
330
574E
100
AcDbEntity
  8
0
 62
     0
100
AcDbLine
 10
-40.72824471107958
 20
-278.5812882327045
 30
0.0
 11
-40.55572075470172
 21
-278.4087642763266
 31
0.0
  0
LINE
  5
577D
330
574E
100
AcDbEntity
  8
0
 62
     0
100
AcDbLine
 10
-41.11573766770019
 20
-278.8361986678526
 30
0.0
 11
-41.01359373331094
 21
-278.7340547334634
 31
0.0
  0
LINE
  5
577E
330
574E
100
AcDbEntity
  8
0
 62
     0
100
AcDbLine
 10
-39.91591906464438
 20
-277.6363800647968
 30
0.0
 11
-39.81613045840198
 21
-277.5365914585544
 31
0.0
  0
LINE
  5
577F
330
574E
100
AcDbEntity
  8
0
 62
     0
100
AcDbLine
 10
-41.01359373331097
 20
-278.7340547334634
 30
0.0
 11
-40.83357375265634
 21
-278.5540347528088
 31
0.0
  0
LINE
  5
5780
330
574E
100
AcDbEntity
  8
0
 62
     0
100
AcDbLine
 10
-40.66423298013347
 20
-278.3846939802859
 30
0.0
 11
-40.38159922710902
 21
-278.1020602272615
 31
0.0
  0
LINE
  5
5781
330
574E
100
AcDbEntity
  8
0
 62
     0
100
AcDbLine
 10
-40.83357375265634
 20
-278.5540347528088
 30
0.0
 11
-40.66423298013349
 21
-278.384693980286
 31
0.0
  0
LINE
  5
5782
330
574E
100
AcDbEntity
  8
0
 62
     0
100
AcDbLine
 10
-41.16048959213512
 20
-278.7483680708151
 30
0.0
 11
-41.05834565774588
 21
-278.6462241364259
 31
0.0
  0
LINE
  5
5783
330
574E
100
AcDbEntity
  8
0
 62
     0
100
AcDbLine
 10
-39.96067098907931
 20
-277.5485494677593
 30
0.0
 11
-39.86088238283691
 21
-277.4487608615169
 31
0.0
  0
LINE
  5
5784
330
574E
100
AcDbEntity
  8
0
 62
     0
100
AcDbLine
 10
-41.05834565774586
 20
-278.6462241364258
 30
0.0
 11
-40.93646758632097
 21
-278.524346065001
 31
0.0
  0
LINE
  5
5785
330
574E
100
AcDbEntity
  8
0
 62
     0
100
AcDbLine
 10
-40.77274520556526
 20
-278.3606236842452
 30
0.0
 11
-40.42635115154395
 21
-278.0142296302239
 31
0.0
  0
LINE
  5
5786
330
574E
100
AcDbEntity
  8
0
 62
     0
100
AcDbLine
 10
-40.93646758632099
 20
-278.524346065001
 30
0.0
 11
-40.77274520556528
 21
-278.3606236842453
 31
0.0
  0
LINE
  5
5787
330
574E
100
AcDbEntity
  8
0
 62
     0
100
AcDbLine
 10
-41.20524151657004
 20
-278.6605374737775
 30
0.0
 11
-41.10309758218079
 21
-278.5583935393883
 31
0.0
  0
LINE
  5
5788
330
574E
100
AcDbEntity
  8
0
 62
     0
100
AcDbLine
 10
-40.00542291351423
 20
-277.4607188707217
 30
0.0
 11
-39.90563430727183
 21
-277.3609302644794
 31
0.0
  0
LINE
  5
5789
330
574E
100
AcDbEntity
  8
0
 62
     0
100
AcDbLine
 10
-41.10309758218081
 20
-278.5583935393883
 30
0.0
 11
-40.90160135388338
 21
-278.3568973110909
 31
0.0
  0
LINE
  5
578A
330
574E
100
AcDbEntity
  8
0
 62
     0
100
AcDbLine
 10
-40.87969543086212
 20
-278.3349913880696
 30
0.0
 11
-40.47110307597886
 21
-277.9263990331864
 31
0.0
  0
LINE
  5
578B
330
574E
100
AcDbEntity
  8
0
 62
     0
100
AcDbLine
 10
-40.9016013538834
 20
-278.3568973110909
 30
0.0
 11
-40.87969543086214
 21
-278.3349913880696
 31
0.0
  0
LINE
  5
578C
330
574E
100
AcDbEntity
  8
0
 62
     0
100
AcDbLine
 10
-41.24999344100497
 20
-278.57270687674
 30
0.0
 11
-41.14784950661573
 21
-278.4705629423507
 31
0.0
  0
LINE
  5
578D
330
574E
100
AcDbEntity
  8
0
 62
     0
100
AcDbLine
 10
-40.05017483794916
 20
-277.3728882736842
 30
0.0
 11
-39.95038623170675
 21
-277.2730996674417
 31
0.0
  0
LINE
  5
578E
330
574E
100
AcDbEntity
  8
0
 62
     0
100
AcDbLine
 10
-41.14784950661571
 20
-278.4705629423507
 30
0.0
 11
-40.51585500041379
 21
-277.8385684361488
 31
0.0
  0
LINE
  5
578F
330
574E
100
AcDbEntity
  8
0
 62
     0
100
AcDbLine
 10
-40.13520989857035
 20
-277.4579233343053
 30
0.0
 11
-40.05017483794913
 21
-277.3728882736842
 31
0.0
  0
LINE
  5
5790
330
574E
100
AcDbEntity
  8
0
 62
     0
100
AcDbLine
 10
-41.29474536543989
 20
-278.4848762797024
 30
0.0
 11
-41.19260143105066
 21
-278.3827323453132
 31
0.0
  0
LINE
  5
5791
330
574E
100
AcDbEntity
  8
0
 62
     0
100
AcDbLine
 10
-40.09492676238408
 20
-277.2850576766466
 30
0.0
 11
-39.99513815614167
 21
-277.1852690704042
 31
0.0
  0
LINE
  5
5792
330
574E
100
AcDbEntity
  8
0
 62
     0
100
AcDbLine
 10
-41.19260143105065
 20
-278.3827323453131
 30
0.0
 11
-40.56060692484869
 21
-277.7507378391113
 31
0.0
  0
LINE
  5
5793
330
574E
100
AcDbEntity
  8
0
 62
     0
100
AcDbLine
 10
-40.39402495983168
 20
-277.5841558740942
 30
0.0
 11
-40.09492676238404
 21
-277.2850576766466
 31
0.0
  0
LINE
  5
5794
330
574E
100
AcDbEntity
  8
0
 62
     0
100
AcDbLine
 10
-41.3394972898748
 20
-278.3970456826649
 30
0.0
 11
-41.23735335548558
 21
-278.2949017482756
 31
0.0
  0
LINE
  5
5795
330
574E
100
AcDbEntity
  8
0
 62
     0
100
AcDbLine
 10
-40.13967868681899
 20
-277.197227079609
 30
0.0
 11
-40.0398900805766
 21
-277.0974384733666
 31
0.0
  0
LINE
  5
5796
330
574E
100
AcDbEntity
  8
0
 62
     0
100
AcDbLine
 10
-41.23735335548557
 20
-278.2949017482756
 30
0.0
 11
-40.65284002109301
 21
-277.7103884138831
 31
0.0
  0
LINE
  5
5797
330
574E
100
AcDbEntity
  8
0
 62
     0
100
AcDbLine
 10
-40.65284002109302
 20
-277.710388413883
 30
0.0
 11
-40.33209807941335
 21
-277.3896464722034
 31
0.0
  0
LINE
  5
5798
330
574E
100
AcDbEntity
  8
0
 62
     0
100
AcDbLine
 10
-41.38424921430973
 20
-278.3092150856273
 30
0.0
 11
-41.28210527992051
 21
-278.2070711512381
 31
0.0
  0
LINE
  5
5799
330
574E
100
AcDbEntity
  8
0
 62
     0
100
AcDbLine
 10
-40.18443061125393
 20
-277.1093964825715
 30
0.0
 11
-40.08464200501151
 21
-277.0096078763291
 31
0.0
  0
LINE
  5
579A
330
574E
100
AcDbEntity
  8
0
 62
     0
100
AcDbLine
 10
-41.2821052799205
 20
-278.2070711512381
 30
0.0
 11
-40.91165508235433
 21
-277.8366209536719
 31
0.0
  0
LINE
  5
579B
330
574E
100
AcDbEntity
  8
0
 62
     0
100
AcDbLine
 10
-40.91165508235427
 20
-277.8366209536719
 30
0.0
 11
-40.60241286197611
 21
-277.5273787332937
 31
0.0
  0
LINE
  5
579C
330
574E
100
AcDbEntity
  8
0
 62
     0
100
AcDbLine
 10
-41.42900113874467
 20
-278.2213844885897
 30
0.0
 11
-41.32685720435543
 21
-278.1192405542005
 31
0.0
  0
LINE
  5
579D
330
574E
100
AcDbEntity
  8
0
 62
     0
100
AcDbLine
 10
-40.22918253568884
 20
-277.0215658855339
 30
0.0
 11
-40.12939392944644
 21
-276.9217772792915
 31
0.0
  0
LINE
  5
579E
330
574E
100
AcDbEntity
  8
0
 62
     0
100
AcDbLine
 10
-41.32685720435541
 20
-278.1192405542005
 30
0.0
 11
-40.99595323982196
 21
-277.788336589667
 31
0.0
  0
LINE
  5
579F
330
574E
100
AcDbEntity
  8
0
 62
     0
100
AcDbLine
 10
-40.87272764453877
 20
-277.6651109943838
 30
0.0
 11
-40.69486269815346
 21
-277.4872460479985
 31
0.0
  0
LINE
  5
57A0
330
574E
100
AcDbEntity
  8
0
 62
     0
100
AcDbLine
 10
-40.99595323982194
 20
-277.788336589667
 30
0.0
 11
-40.87272764453897
 21
-277.665110994384
 31
0.0
  0
LINE
  5
57A1
330
574E
100
AcDbEntity
  8
0
 62
     0
100
AcDbLine
 10
-41.47375306317957
 20
-278.1335538915521
 30
0.0
 11
-41.37160912879036
 21
-278.031409957163
 31
0.0
  0
LINE
  5
57A2
330
574E
100
AcDbEntity
  8
0
 62
     0
100
AcDbLine
 10
-40.27393446012377
 20
-276.9337352884964
 30
0.0
 11
-40.17414585388136
 21
-276.833946682254
 31
0.0
  0
LINE
  5
57A3
330
574E
100
AcDbEntity
  8
0
 62
     0
100
AcDbLine
 10
-41.37160912879035
 20
-278.0314099571629
 30
0.0
 11
-40.73961462258838
 21
-277.399415450961
 31
0.0
  0
LINE
  5
57A4
330
574E
100
AcDbEntity
  8
0
 62
     0
100
AcDbLine
 10
-41.51850498761451
 20
-278.0457232945146
 30
0.0
 11
-41.41636105322528
 21
-277.9435793601255
 31
0.0
  0
LINE
  5
57A5
330
574E
100
AcDbEntity
  8
0
 62
     0
100
AcDbLine
 10
-40.3186863845587
 20
-276.8459046914588
 30
0.0
 11
-40.21889777831629
 21
-276.7461160852164
 31
0.0
  0
LINE
  5
57A6
330
574E
100
AcDbEntity
  8
0
 62
     0
100
AcDbLine
 10
-41.41636105322527
 20
-277.9435793601254
 30
0.0
 11
-40.78436654702331
 21
-277.3115848539234
 31
0.0
  0
LINE
  5
57A7
330
574E
100
AcDbEntity
  8
0
 62
     0
100
AcDbLine
 10
-41.56325691204942
 20
-277.9578926974771
 30
0.0
 11
-41.46111297766021
 21
-277.8557487630879
 31
0.0
  0
LINE
  5
57A8
330
574E
100
AcDbEntity
  8
0
 62
     0
100
AcDbLine
 10
-40.36343830899361
 20
-276.7580740944213
 30
0.0
 11
-40.2636497027512
 21
-276.6582854881789
 31
0.0
  0
LINE
  5
57A9
330
574E
100
AcDbEntity
  8
0
 62
     0
100
AcDbLine
 10
-41.4611129776602
 20
-277.8557487630878
 30
0.0
 11
-40.82911847145823
 21
-277.2237542568859
 31
0.0
  0
LINE
  5
57AA
330
574E
100
AcDbEntity
  8
0
 62
     0
100
AcDbLine
 10
-41.60800883648435
 20
-277.8700621004395
 30
0.0
 11
-41.50586490209513
 21
-277.7679181660503
 31
0.0
  0
LINE
  5
57AB
330
574E
100
AcDbEntity
  8
0
 62
     0
100
AcDbLine
 10
-40.40819023342854
 20
-276.6702434973837
 30
0.0
 11
-40.30840162718615
 21
-276.5704548911414
 31
0.0
  0
LINE
  5
57AC
330
574E
100
AcDbEntity
  8
0
 62
     0
100
AcDbLine
 10
-41.50586490209512
 20
-277.7679181660503
 30
0.0
 11
-40.87387039589315
 21
-277.1359236598483
 31
0.0
  0
LINE
  5
57AD
330
574E
100
AcDbEntity
  8
0
 62
     0
100
AcDbLine
 10
-41.65276076091928
 20
-277.782231503402
 30
0.0
 11
-41.55061682653006
 21
-277.6800875690128
 31
0.0
  0
LINE
  5
57AE
330
574E
100
AcDbEntity
  8
0
 62
     0
100
AcDbLine
 10
-40.45294215786347
 20
-276.5824129003462
 30
0.0
 11
-40.35315355162107
 21
-276.4826242941037
 31
0.0
  0
LINE
  5
57AF
330
574E
100
AcDbEntity
  8
0
 62
     0
100
AcDbLine
 10
-41.55061682653004
 20
-277.6800875690128
 30
0.0
 11
-40.91862232032808
 21
-277.0480930628108
 31
0.0
  0
LINE
  5
57B0
330
574E
100
AcDbEntity
  8
0
 62
     0
100
AcDbLine
 10
-41.6975126853542
 20
-277.6944009063644
 30
0.0
 11
-41.59536875096497
 21
-277.5922569719752
 31
0.0
  0
LINE
  5
57B1
330
574E
100
AcDbEntity
  8
0
 62
     0
100
AcDbLine
 10
-40.49769408229838
 20
-276.4945823033086
 30
0.0
 11
-40.39790547605599
 21
-276.3947936970662
 31
0.0
  0
LINE
  5
57B2
330
574E
100
AcDbEntity
  8
0
 62
     0
100
AcDbLine
 10
-41.59536875096496
 20
-277.5922569719751
 30
0.0
 11
-40.963374244763
 21
-276.9602624657732
 31
0.0
  0
LINE
  5
57B3
330
574E
100
AcDbEntity
  8
0
 62
     0
100
AcDbLine
 10
-41.74226460978912
 20
-277.6065703093268
 30
0.0
 11
-41.6401206753999
 21
-277.5044263749377
 31
0.0
  0
LINE
  5
57B4
330
574E
100
AcDbEntity
  8
0
 62
     0
100
AcDbLine
 10
-40.54244600673332
 20
-276.4067517062711
 30
0.0
 11
-40.44265740049091
 21
-276.3069631000287
 31
0.0
  0
LINE
  5
57B5
330
574E
100
AcDbEntity
  8
0
 62
     0
100
AcDbLine
 10
-41.64012067539989
 20
-277.5044263749376
 30
0.0
 11
-41.00812616919793
 21
-276.8724318687357
 31
0.0
  0
LINE
  5
57B6
330
574E
100
AcDbEntity
  8
0
 62
     0
100
AcDbLine
 10
-41.78701653422404
 20
-277.5187397122893
 30
0.0
 11
-41.68487259983481
 21
-277.4165957779001
 31
0.0
  0
LINE
  5
57B7
330
574E
100
AcDbEntity
  8
0
 62
     0
100
AcDbLine
 10
-40.58719793116824
 20
-276.3189211092335
 30
0.0
 11
-40.48740932492584
 21
-276.2191325029911
 31
0.0
  0
LINE
  5
57B8
330
574E
100
AcDbEntity
  8
0
 62
     0
100
AcDbLine
 10
-41.68487259983482
 20
-277.4165957779001
 30
0.0
 11
-41.05287809363285
 21
-276.7846012716981
 31
0.0
  0
LINE
  5
57B9
330
574E
100
AcDbEntity
  8
0
 62
     0
100
AcDbLine
 10
-41.83176845865896
 20
-277.4309091152518
 30
0.0
 11
-41.72962452426975
 21
-277.3287651808626
 31
0.0
  0
LINE
  5
57BA
330
574E
100
AcDbEntity
  8
0
 62
     0
100
AcDbLine
 10
-40.63194985560315
 20
-276.2310905121959
 30
0.0
 11
-40.53216124936076
 21
-276.1313019059535
 31
0.0
  0
LINE
  5
57BB
330
574E
100
AcDbEntity
  8
0
 62
     0
100
AcDbLine
 10
-41.72962452426975
 20
-277.3287651808625
 30
0.0
 11
-41.09763001806778
 21
-276.6967706746606
 31
0.0
  0
LINE
  5
57BC
330
574E
100
AcDbEntity
  8
0
 62
     0
100
AcDbLine
 10
-41.8765203830939
 20
-277.3430785182142
 30
0.0
 11
-41.77437644870467
 21
-277.240934583825
 31
0.0
  0
LINE
  5
57BD
330
574E
100
AcDbEntity
  8
0
 62
     0
100
AcDbLine
 10
-40.67670178003808
 20
-276.1432599151584
 30
0.0
 11
-40.57691317379568
 21
-276.043471308916
 31
0.0
  0
LINE
  5
57BE
330
574E
100
AcDbEntity
  8
0
 62
     0
100
AcDbLine
 10
-41.77437644870467
 20
-277.240934583825
 30
0.0
 11
-41.1423819425027
 21
-276.608940077623
 31
0.0
  0
LINE
  5
57BF
330
574E
100
AcDbEntity
  8
0
 62
     0
100
AcDbLine
 10
-41.92127230752881
 20
-277.2552479211766
 30
0.0
 11
-41.8191283731396
 21
-277.1531039867875
 31
0.0
  0
LINE
  5
57C0
330
574E
100
AcDbEntity
  8
0
 62
     0
100
AcDbLine
 10
-40.72145370447301
 20
-276.0554293181209
 30
0.0
 11
-40.6216650982306
 21
-275.9556407118785
 31
0.0
  0
LINE
  5
57C1
330
574E
100
AcDbEntity
  8
0
 62
     0
100
AcDbLine
 10
-41.81912837313959
 20
-277.1531039867874
 30
0.0
 11
-41.18713386693762
 21
-276.5211094805855
 31
0.0
  0
LINE
  5
57C2
330
574E
100
AcDbEntity
  8
0
 62
     0
100
AcDbLine
 10
-41.96602423196374
 20
-277.1674173241391
 30
0.0
 11
-41.86388029757452
 21
-277.0652733897499
 31
0.0
  0
LINE
  5
57C3
330
574E
100
AcDbEntity
  8
0
 62
     0
100
AcDbLine
 10
-35.8061910555824
 20
-271.0075841477578
 30
0.0
 11
-35.70443277119299
 21
-270.9058258633683
 31
0.0
  0
LINE
  5
57C4
330
574E
100
AcDbEntity
  8
0
 62
     0
100
AcDbLine
 10
-41.86388029757451
 20
-277.0652733897498
 30
0.0
 11
-41.23188579137255
 21
-276.4332788835479
 31
0.0
  0
LINE
  5
57C5
330
574E
100
AcDbEntity
  8
0
 62
     0
100
AcDbLine
 10
-40.76620562890794
 20
-275.9675987210833
 30
0.0
 11
-40.66641702266553
 21
-275.8678101148409
 31
0.0
  0
LINE
  5
57C6
330
574E
100
AcDbEntity
  8
0
 62
     0
100
AcDbLine
 10
-42.01077615639866
 20
-277.0795867271015
 30
0.0
 11
-41.90863222200944
 21
-276.9774427927123
 31
0.0
  0
LINE
  5
57C7
330
574E
100
AcDbEntity
  8
0
 62
     0
100
AcDbLine
 10
-35.93877357705487
 20
-271.0075841477578
 30
0.0
 11
-35.70443277119299
 21
-270.7732433418959
 31
0.0
  0
LINE
  5
57C8
330
574E
100
AcDbEntity
  8
0
 62
     0
100
AcDbLine
 10
-41.90863222200944
 20
-276.9774427927123
 30
0.0
 11
-41.27663771580747
 21
-276.3454482865104
 31
0.0
  0
LINE
  5
57C9
330
574E
100
AcDbEntity
  8
0
 62
     0
100
AcDbLine
 10
-40.81095755334286
 20
-275.8797681240458
 30
0.0
 11
-40.71116894710044
 21
-275.7799795178034
 31
0.0
  0
LINE
  5
57CA
330
574E
100
AcDbEntity
  8
0
 62
     0
100
AcDbLine
 10
-42.05552808083359
 20
-276.991756130064
 30
0.0
 11
-41.95338414644437
 21
-276.8896121956748
 31
0.0
  0
LINE
  5
57CB
330
574E
100
AcDbEntity
  8
0
 62
     0
100
AcDbLine
 10
-36.07135609852736
 20
-271.0075841477578
 30
0.0
 11
-35.70443277119299
 21
-270.6406608204234
 31
0.0
  0
LINE
  5
57CC
330
574E
100
AcDbEntity
  8
0
 62
     0
100
AcDbLine
 10
-41.95338414644437
 20
-276.8896121956748
 30
0.0
 11
-41.32138964024239
 21
-276.2576176894728
 31
0.0
  0
LINE
  5
57CD
330
574E
100
AcDbEntity
  8
0
 62
     0
100
AcDbLine
 10
-40.85570947777777
 20
-275.7919375270082
 30
0.0
 11
-40.75592087153537
 21
-275.6921489207658
 31
0.0
  0
LINE
  5
57CE
330
574E
100
AcDbEntity
  8
0
 62
     0
100
AcDbLine
 10
-42.10028000526851
 20
-276.9039255330264
 30
0.0
 11
-41.99813607087929
 21
-276.8017815986373
 31
0.0
  0
LINE
  5
57CF
330
574E
100
AcDbEntity
  8
0
 62
     0
100
AcDbLine
 10
-36.20393861999985
 20
-271.0075841477578
 30
0.0
 11
-35.70443277119299
 21
-270.5080782989509
 31
0.0
  0
LINE
  5
57D0
330
574E
100
AcDbEntity
  8
0
 62
     0
100
AcDbLine
 10
-41.99813607087929
 20
-276.8017815986372
 30
0.0
 11
-41.36614156467731
 21
-276.1697870924352
 31
0.0
  0
LINE
  5
57D1
330
574E
100
AcDbEntity
  8
0
 62
     0
100
AcDbLine
 10
-40.90046140221271
 20
-275.7041069299706
 30
0.0
 11
-40.80067279597029
 21
-275.6043183237283
 31
0.0
  0
LINE
  5
57D2
330
574E
100
AcDbEntity
  8
0
 62
     0
100
AcDbLine
 10
-42.14503192970343
 20
-276.8160949359889
 30
0.0
 11
-42.04288799531422
 21
-276.7139510015997
 31
0.0
  0
LINE
  5
57D3
330
574E
100
AcDbEntity
  8
0
 62
     0
100
AcDbLine
 10
-36.33652114147233
 20
-271.0075841477578
 30
0.0
 11
-35.70443277119299
 21
-270.3754957774785
 31
0.0
  0
LINE
  5
57D4
330
574E
100
AcDbEntity
  8
0
 62
     0
100
AcDbLine
 10
-42.04288799531422
 20
-276.7139510015996
 30
0.0
 11
-41.41089348911224
 21
-276.0819564953977
 31
0.0
  0
LINE
  5
57D5
330
574E
100
AcDbEntity
  8
0
 62
     0
100
AcDbLine
 10
-40.94521332664762
 20
-275.6162763329331
 30
0.0
 11
-40.84542472040522
 21
-275.5164877266907
 31
0.0
  0
LINE
  5
57D6
330
574E
100
AcDbEntity
  8
0
 62
     0
100
AcDbLine
 10
-42.18978385413836
 20
-276.7282643389513
 30
0.0
 11
-42.08763991974914
 21
-276.6261204045621
 31
0.0
  0
LINE
  5
57D7
330
574E
100
AcDbEntity
  8
0
 62
     0
100
AcDbLine
 10
-36.46910366294478
 20
-271.0075841477578
 30
0.0
 11
-35.70443277119299
 21
-270.242913256006
 31
0.0
  0
LINE
  5
57D8
330
574E
100
AcDbEntity
  8
0
 62
     0
100
AcDbLine
 10
-42.08763991974914
 20
-276.6261204045621
 30
0.0
 11
-41.45564541354717
 21
-275.9941258983601
 31
0.0
  0
LINE
  5
57D9
330
574E
100
AcDbEntity
  8
0
 62
     0
100
AcDbLine
 10
-40.98996525108254
 20
-275.5284457358955
 30
0.0
 11
-40.89017664484013
 21
-275.4286571296531
 31
0.0
  0
LINE
  5
57DA
330
574E
100
AcDbEntity
  8
0
 62
     0
100
AcDbLine
 10
-42.23453577857329
 20
-276.6404337419138
 30
0.0
 11
-42.13239184418406
 21
-276.5382898075245
 31
0.0
  0
LINE
  5
57DB
330
574E
100
AcDbEntity
  8
0
 62
     0
100
AcDbLine
 10
-36.60168618441726
 20
-271.0075841477578
 30
0.0
 11
-35.7069169949642
 21
-270.1128149583047
 31
0.0
  0
LINE
  5
57DC
330
574E
100
AcDbEntity
  8
0
 62
     0
100
AcDbLine
 10
-42.13239184418408
 20
-276.5382898075245
 30
0.0
 11
-41.50039733798208
 21
-275.9062953013226
 31
0.0
  0
LINE
  5
57DD
330
574E
100
AcDbEntity
  8
0
 62
     0
100
AcDbLine
 10
-41.03471717551747
 20
-275.4406151388579
 30
0.0
 11
-40.93492856927506
 21
-275.3408265326156
 31
0.0
  0
LINE
  5
57DE
330
574E
100
AcDbEntity
  8
0
 62
     0
100
AcDbLine
 10
-42.2792877030082
 20
-276.5526031448762
 30
0.0
 11
-42.17714376861898
 21
-276.450459210487
 31
0.0
  0
LINE
  5
57DF
330
574E
100
AcDbEntity
  8
0
 62
     0
100
AcDbLine
 10
-36.73426870588975
 20
-271.0075841477578
 30
0.0
 11
-35.83949951643669
 21
-270.1128149583047
 31
0.0
  0
LINE
  5
57E0
330
574E
100
AcDbEntity
  8
0
 62
     0
100
AcDbLine
 10
-42.17714376861898
 20
-276.450459210487
 30
0.0
 11
-41.54514926241701
 21
-275.818464704285
 31
0.0
  0
LINE
  5
57E1
330
574E
100
AcDbEntity
  8
0
 62
     0
100
AcDbLine
 10
-41.0794690999524
 20
-275.3527845418204
 30
0.0
 11
-40.97968049370998
 21
-275.2529959355781
 31
0.0
  0
LINE
  5
57E2
330
574E
100
AcDbEntity
  8
0
 62
     0
100
AcDbLine
 10
-42.32403962744313
 20
-276.4647725478386
 30
0.0
 11
-42.22189569305391
 21
-276.3626286134495
 31
0.0
  0
LINE
  5
57E3
330
574E
100
AcDbEntity
  8
0
 62
     0
100
AcDbLine
 10
-36.86685122736224
 20
-271.0075841477578
 30
0.0
 11
-35.97208203790917
 21
-270.1128149583047
 31
0.0
  0
LINE
  5
57E4
330
574E
100
AcDbEntity
  8
0
 62
     0
100
AcDbLine
 10
-42.22189569305391
 20
-276.3626286134494
 30
0.0
 11
-41.58990118685194
 21
-275.7306341072474
 31
0.0
  0
LINE
  5
57E5
330
574E
100
AcDbEntity
  8
0
 62
     0
100
AcDbLine
 10
-41.12422102438733
 20
-275.2649539447828
 30
0.0
 11
-41.02443241814492
 21
-275.1651653385405
 31
0.0
  0
LINE
  5
57E6
330
574E
100
AcDbEntity
  8
0
 62
     0
100
AcDbLine
 10
-42.36879155187804
 20
-276.3769419508011
 30
0.0
 11
-42.2684645752521
 21
-276.2766149741751
 31
0.0
  0
LINE
  5
57E7
330
574E
100
AcDbEntity
  8
0
 62
     0
100
AcDbLine
 10
-36.99943374883472
 20
-271.0075841477578
 30
0.0
 11
-36.10466455938166
 21
-270.1128149583047
 31
0.0
  0
LINE
  5
57E8
330
574E
100
AcDbEntity
  8
0
 62
     0
100
AcDbLine
 10
-42.26664761748884
 20
-276.2747980164119
 30
0.0
 11
-42.19792528481469
 21
-276.2060756837377
 31
0.0
  0
LINE
  5
57E9
330
574E
100
AcDbEntity
  8
0
 62
     0
100
AcDbLine
 10
-41.16897294882225
 20
-275.1771233477454
 30
0.0
 11
-41.06918434257984
 21
-275.0773347415029
 31
0.0
  0
LINE
  5
57EA
330
574E
100
AcDbEntity
  8
0
 62
     0
100
AcDbLine
 10
-42.1979252848146
 20
-276.2060756837377
 30
0.0
 11
-42.10043854447298
 21
-276.108588943396
 31
0.0
  0
LINE
  5
57EB
330
574E
100
AcDbEntity
  8
0
 62
     0
100
AcDbLine
 10
-41.99598251496389
 20
-276.004132913887
 30
0.0
 11
-41.63465311128686
 21
-275.6428035102099
 31
0.0
  0
LINE
  5
57EC
330
574E
100
AcDbEntity
  8
0
 62
     0
100
AcDbLine
 10
-42.10043854447292
 20
-276.1085889433959
 30
0.0
 11
-42.09566753742882
 21
-276.1038179363519
 31
0.0
  0
LINE
  5
57ED
330
574E
100
AcDbEntity
  8
0
 62
     0
100
AcDbLine
 10
-42.09566753742871
 20
-276.1038179363518
 30
0.0
 11
-41.99598251496389
 21
-276.004132913887
 31
0.0
  0
LINE
  5
57EE
330
574E
100
AcDbEntity
  8
0
 62
     0
100
AcDbLine
 10
-42.41354347631298
 20
-276.2891113537635
 30
0.0
 11
-42.31321649968703
 21
-276.1887843771376
 31
0.0
  0
LINE
  5
57EF
330
574E
100
AcDbEntity
  8
0
 62
     0
100
AcDbLine
 10
-37.13201627030717
 20
-271.0075841477578
 30
0.0
 11
-36.23724708085414
 21
-270.1128149583047
 31
0.0
  0
LINE
  5
57F0
330
574E
100
AcDbEntity
  8
0
 62
     0
100
AcDbLine
 10
-42.31139954192374
 20
-276.1869674193743
 30
0.0
 11
-42.1892754338011
 21
-276.0648433112517
 31
0.0
  0
LINE
  5
57F1
330
574E
100
AcDbEntity
  8
0
 62
     0
100
AcDbLine
 10
-41.21372487325716
 20
-275.0892927507078
 30
0.0
 11
-41.11393626701477
 21
-274.9895041444653
 31
0.0
  0
LINE
  5
57F2
330
574E
100
AcDbEntity
  8
0
 62
     0
100
AcDbLine
 10
-42.18927543380108
 20
-276.0648433112517
 30
0.0
 11
-42.14458912338753
 21
-276.0201570008381
 31
0.0
  0
LINE
  5
57F3
330
574E
100
AcDbEntity
  8
0
 62
     0
100
AcDbLine
 10
-41.96714156490001
 20
-275.8427094423506
 30
0.0
 11
-41.67940503572178
 21
-275.5549729131724
 31
0.0
  0
LINE
  5
57F4
330
574E
100
AcDbEntity
  8
0
 62
     0
100
AcDbLine
 10
-42.11450619999326
 20
-275.9900740774438
 30
0.0
 11
-41.96714156489998
 21
-275.8427094423506
 31
0.0
  0
LINE
  5
57F5
330
574E
100
AcDbEntity
  8
0
 62
     0
100
AcDbLine
 10
-42.4582954007479
 20
-276.201280756726
 30
0.0
 11
-42.35796842412195
 21
-276.1009537801001
 31
0.0
  0
LINE
  5
57F6
330
574E
100
AcDbEntity
  8
0
 62
     0
100
AcDbLine
 10
-37.26459879177965
 20
-271.0075841477578
 30
0.0
 11
-36.36982960232659
 21
-270.1128149583047
 31
0.0
  0
LINE
  5
57F7
330
574E
100
AcDbEntity
  8
0
 62
     0
100
AcDbLine
 10
-42.35615146635868
 20
-276.0991368223368
 30
0.0
 11
-42.27628628029851
 21
-276.0192716362766
 31
0.0
  0
LINE
  5
57F8
330
574E
100
AcDbEntity
  8
0
 62
     0
100
AcDbLine
 10
-41.2584767976921
 20
-275.0014621536702
 30
0.0
 11
-41.15868819144969
 21
-274.9016735474278
 31
0.0
  0
LINE
  5
57F9
330
574E
100
AcDbEntity
  8
0
 62
     0
100
AcDbLine
 10
-42.27628628029848
 20
-276.0192716362765
 30
0.0
 11
-41.83861559237119
 21
-275.5816009483493
 31
0.0
  0
LINE
  5
57FA
330
574E
100
AcDbEntity
  8
0
 62
     0
100
AcDbLine
 10
-41.83861559237118
 20
-275.5816009483492
 30
0.0
 11
-41.72415696015671
 21
-275.4671423161348
 31
0.0
  0
LINE
  5
57FB
330
574E
100
AcDbEntity
  8
0
 62
     0
100
AcDbLine
 10
-42.50304732518282
 20
-276.1134501596885
 30
0.0
 11
-42.40272034855689
 21
-276.0131231830625
 31
0.0
  0
LINE
  5
57FC
330
574E
100
AcDbEntity
  8
0
 62
     0
100
AcDbLine
 10
-37.39718131325214
 20
-271.0075841477578
 30
0.0
 11
-36.50241212379908
 21
-270.1128149583047
 31
0.0
  0
LINE
  5
57FD
330
574E
100
AcDbEntity
  8
0
 62
     0
100
AcDbLine
 10
-42.4009033907936
 20
-276.0113062252992
 30
0.0
 11
-42.19714334742477
 21
-275.8075461819304
 31
0.0
  0
LINE
  5
57FE
330
574E
100
AcDbEntity
  8
0
 62
     0
100
AcDbLine
 10
-41.30322872212701
 20
-274.9136315566326
 30
0.0
 11
-41.20344011588461
 21
-274.8138429503903
 31
0.0
  0
LINE
  5
57FF
330
574E
100
AcDbEntity
  8
0
 62
     0
100
AcDbLine
 10
-42.19714334742469
 20
-275.8075461819303
 30
0.0
 11
-42.14776030776967
 21
-275.7581631422754
 31
0.0
  0
LINE
  5
5800
330
574E
100
AcDbEntity
  8
0
 62
     0
100
AcDbLine
 10
-42.14776030776969
 20
-275.7581631422754
 30
0.0
 11
-41.71008961984234
 21
-275.320492454348
 31
0.0
  0
LINE
  5
5801
330
574E
100
AcDbEntity
  8
0
 62
     0
100
AcDbLine
 10
-42.54779924961775
 20
-276.0256195626509
 30
0.0
 11
-42.44747227299181
 21
-275.925292586025
 31
0.0
  0
LINE
  5
5802
330
574E
100
AcDbEntity
  8
0
 62
     0
100
AcDbLine
 10
-37.52976383472462
 20
-271.0075841477578
 30
0.0
 11
-36.63499464527156
 21
-270.1128149583047
 31
0.0
  0
LINE
  5
5803
330
574E
100
AcDbEntity
  8
0
 62
     0
100
AcDbLine
 10
-42.44565531522854
 20
-275.9234756282617
 30
0.0
 11
-42.01923433524084
 21
-275.497054648274
 31
0.0
  0
LINE
  5
5804
330
574E
100
AcDbEntity
  8
0
 62
     0
100
AcDbLine
 10
-41.34798064656194
 20
-274.8258009595951
 30
0.0
 11
-41.24819204031953
 21
-274.7260123533527
 31
0.0
  0
LINE
  5
5805
330
574E
100
AcDbEntity
  8
0
 62
     0
100
AcDbLine
 10
-42.01923433524087
 20
-275.497054648274
 30
0.0
 11
-41.58156364731355
 21
-275.0593839603467
 31
0.0
  0
LINE
  5
5806
330
574E
100
AcDbEntity
  8
0
 62
     0
100
AcDbLine
 10
-42.59255117405266
 20
-275.9377889656133
 30
0.0
 11
-42.49040723966347
 21
-275.8356450312241
 31
0.0
  0
LINE
  5
5807
330
574E
100
AcDbEntity
  8
0
 62
     0
100
AcDbLine
 10
-37.6623463561971
 20
-271.0075841477578
 30
0.0
 11
-36.76757716674404
 21
-270.1128149583047
 31
0.0
  0
LINE
  5
5808
330
574E
100
AcDbEntity
  8
0
 62
     0
100
AcDbLine
 10
-42.49040723966347
 20
-275.8356450312241
 30
0.0
 11
-41.89070836271205
 21
-275.2359461542728
 31
0.0
  0
LINE
  5
5809
330
574E
100
AcDbEntity
  8
0
 62
     0
100
AcDbLine
 10
-41.39273257099687
 20
-274.7379703625575
 30
0.0
 11
-41.29294396475446
 21
-274.6381817563151
 31
0.0
  0
LINE
  5
580A
330
574E
100
AcDbEntity
  8
0
 62
     0
100
AcDbLine
 10
-41.89070836271203
 20
-275.2359461542727
 30
0.0
 11
-41.45303767478471
 21
-274.7982754663454
 31
0.0
  0
LINE
  5
580B
330
574E
100
AcDbEntity
  8
0
 62
     0
100
AcDbLine
 10
-42.63730309848759
 20
-275.8499583685758
 30
0.0
 11
-42.53515916409838
 21
-275.7478144341866
 31
0.0
  0
LINE
  5
580C
330
574E
100
AcDbEntity
  8
0
 62
     0
100
AcDbLine
 10
-37.79492887766956
 20
-271.0075841477578
 30
0.0
 11
-36.90015968821653
 21
-270.1128149583047
 31
0.0
  0
LINE
  5
580D
330
574E
100
AcDbEntity
  8
0
 62
     0
100
AcDbLine
 10
-42.53515916409839
 20
-275.7478144341866
 30
0.0
 11
-41.90316465789641
 21
-275.1158199279846
 31
0.0
  0
LINE
  5
580E
330
574E
100
AcDbEntity
  8
0
 62
     0
100
AcDbLine
 10
-41.76218239018321
 20
-274.9748376602715
 30
0.0
 11
-41.32451170225591
 21
-274.5371669723441
 31
0.0
  0
LINE
  5
580F
330
574E
100
AcDbEntity
  8
0
 62
     0
100
AcDbLine
 10
-42.68205502292253
 20
-275.7621277715383
 30
0.0
 11
-42.57991108853331
 21
-275.6599838371491
 31
0.0
  0
LINE
  5
5810
330
574E
100
AcDbEntity
  8
0
 62
     0
100
AcDbLine
 10
-37.92751139914204
 20
-271.0075841477578
 30
0.0
 11
-37.03274220968898
 21
-270.1128149583047
 31
0.0
  0
LINE
  5
5811
330
574E
100
AcDbEntity
  8
0
 62
     0
100
AcDbLine
 10
-42.57991108853332
 20
-275.659983837149
 30
0.0
 11
-41.94791658233133
 21
-275.027989330947
 31
0.0
  0
LINE
  5
5812
330
574E
100
AcDbEntity
  8
0
 62
     0
100
AcDbLine
 10
-41.63365641765442
 20
-274.7137291662701
 30
0.0
 11
-41.19598572972707
 21
-274.2760584783428
 31
0.0
  0
LINE
  5
5813
330
574E
100
AcDbEntity
  8
0
 62
     0
100
AcDbLine
 10
-42.72680694735743
 20
-275.6742971745007
 30
0.0
 11
-42.62466301296824
 21
-275.5721532401115
 31
0.0
  0
LINE
  5
5814
330
574E
100
AcDbEntity
  8
0
 62
     0
100
AcDbLine
 10
-38.06009392061452
 20
-271.0075841477578
 30
0.0
 11
-37.16532473116146
 21
-270.1128149583047
 31
0.0
  0
LINE
  5
5815
330
574E
100
AcDbEntity
  8
0
 62
     0
100
AcDbLine
 10
-42.62466301296824
 20
-275.5721532401115
 30
0.0
 11
-41.99266850676624
 21
-274.9401587339095
 31
0.0
  0
LINE
  5
5816
330
574E
100
AcDbEntity
  8
0
 62
     0
100
AcDbLine
 10
-41.24320808781802
 20
-274.1906983149613
 30
0.0
 11
-41.16028905131896
 21
-274.1077792784622
 31
0.0
  0
LINE
  5
5817
330
574E
100
AcDbEntity
  8
0
 62
     0
100
AcDbLine
 10
-41.52698834430164
 20
-274.4744785714449
 30
0.0
 11
-41.50513044512558
 21
-274.4526206722688
 31
0.0
  0
LINE
  5
5818
330
574E
100
AcDbEntity
  8
0
 62
     0
100
AcDbLine
 10
-41.2918472873847
 20
-274.2393375145279
 30
0.0
 11
-41.26594175883485
 21
-274.2134319859781
 31
0.0
  0
LINE
  5
5819
330
574E
100
AcDbEntity
  8
0
 62
     0
100
AcDbLine
 10
-41.50513044512556
 20
-274.4526206722688
 30
0.0
 11
-41.29184728738475
 21
-274.239337514528
 31
0.0
  0
LINE
  5
581A
330
574E
100
AcDbEntity
  8
0
 62
     0
100
AcDbLine
 10
-42.77155887179236
 20
-275.5864665774631
 30
0.0
 11
-42.66941493740316
 21
-275.484322643074
 31
0.0
  0
LINE
  5
581B
330
574E
100
AcDbEntity
  8
0
 62
     0
100
AcDbLine
 10
-38.192676442087
 20
-271.0075841477578
 30
0.0
 11
-37.29790725263395
 21
-270.1128149583047
 31
0.0
  0
LINE
  5
581C
330
574E
100
AcDbEntity
  8
0
 62
     0
100
AcDbLine
 10
-42.66941493740316
 20
-275.484322643074
 30
0.0
 11
-42.03742043120118
 21
-274.8523281368719
 31
0.0
  0
LINE
  5
581D
330
574E
100
AcDbEntity
  8
0
 62
     0
100
AcDbLine
 10
-41.39132135807054
 20
-274.2062290637413
 30
0.0
 11
-41.15044255176923
 21
-273.96535025744
 31
0.0
  0
LINE
  5
581E
330
574E
100
AcDbEntity
  8
0
 62
     0
100
AcDbLine
 10
-41.57174026873658
 20
-274.3866479744074
 30
0.0
 11
-41.47195166249413
 21
-274.2868593681649
 31
0.0
  0
LINE
  5
581F
330
574E
100
AcDbEntity
  8
0
 62
     0
100
AcDbLine
 10
-42.81631079622728
 20
-275.4986359804255
 30
0.0
 11
-42.71416686183809
 21
-275.3964920460364
 31
0.0
  0
LINE
  5
5820
330
574E
100
AcDbEntity
  8
0
 62
     0
100
AcDbLine
 10
-38.32525896355949
 20
-271.0075841477578
 30
0.0
 11
-37.43048977410643
 21
-270.1128149583047
 31
0.0
  0
LINE
  5
5821
330
574E
100
AcDbEntity
  8
0
 62
     0
100
AcDbLine
 10
-42.71416686183809
 20
-275.3964920460364
 30
0.0
 11
-42.0821723556361
 21
-274.7644975398344
 31
0.0
  0
LINE
  5
5822
330
574E
100
AcDbEntity
  8
0
 62
     0
100
AcDbLine
 10
-41.3814748585208
 20
-274.0638000427191
 30
0.0
 11
-41.1405960522195
 21
-273.8229212364178
 31
0.0
  0
LINE
  5
5823
330
574E
100
AcDbEntity
  8
0
 62
     0
100
AcDbLine
 10
-41.6164921931715
 20
-274.2988173773698
 30
0.0
 11
-41.51670358692905
 21
-274.1990287711273
 31
0.0
  0
LINE
  5
5824
330
574E
100
AcDbEntity
  8
0
 62
     0
100
AcDbLine
 10
-42.86106272066221
 20
-275.410805383388
 30
0.0
 11
-42.75891878627302
 21
-275.3086614489988
 31
0.0
  0
LINE
  5
5825
330
574E
100
AcDbEntity
  8
0
 62
     0
100
AcDbLine
 10
-38.45784148503194
 20
-271.0075841477578
 30
0.0
 11
-37.56307229557891
 21
-270.1128149583047
 31
0.0
  0
LINE
  5
5826
330
574E
100
AcDbEntity
  8
0
 62
     0
100
AcDbLine
 10
-42.75891878627301
 20
-275.3086614489988
 30
0.0
 11
-42.12692428007102
 21
-274.6766669427968
 31
0.0
  0
LINE
  5
5827
330
574E
100
AcDbEntity
  8
0
 62
     0
100
AcDbLine
 10
-41.37162835897107
 20
-273.9213710216969
 30
0.0
 11
-41.13074955266977
 21
-273.6804922153956
 31
0.0
  0
LINE
  5
5828
330
574E
100
AcDbEntity
  8
0
 62
     0
100
AcDbLine
 10
-41.66124411760642
 20
-274.2109867803322
 30
0.0
 11
-41.56145551136398
 21
-274.1111981740898
 31
0.0
  0
LINE
  5
5829
330
574E
100
AcDbEntity
  8
0
 62
     0
100
AcDbLine
 10
-42.90581464509713
 20
-275.3229747863504
 30
0.0
 11
-42.80367071070794
 21
-275.2208308519613
 31
0.0
  0
LINE
  5
582A
330
574E
100
AcDbEntity
  8
0
 62
     0
100
AcDbLine
 10
-38.59042400650442
 20
-271.0075841477578
 30
0.0
 11
-37.69565481705136
 21
-270.1128149583047
 31
0.0
  0
LINE
  5
582B
330
574E
100
AcDbEntity
  8
0
 62
     0
100
AcDbLine
 10
-42.80367071070794
 20
-275.2208308519613
 30
0.0
 11
-42.17167620450595
 21
-274.5888363457593
 31
0.0
  0
LINE
  5
582C
330
574E
100
AcDbEntity
  8
0
 62
     0
100
AcDbLine
 10
-41.36178185942134
 20
-273.7789420006746
 30
0.0
 11
-41.12090305312004
 21
-273.5380631943733
 31
0.0
  0
LINE
  5
582D
330
574E
100
AcDbEntity
  8
0
 62
     0
100
AcDbLine
 10
-41.70599604204134
 20
-274.1231561832947
 30
0.0
 11
-41.60620743579889
 21
-274.0233675770522
 31
0.0
  0
LINE
  5
582E
330
574E
100
AcDbEntity
  8
0
 62
     0
100
AcDbLine
 10
-42.95056656953206
 20
-275.2351441893129
 30
0.0
 11
-42.84842263514287
 21
-275.1330002549237
 31
0.0
  0
LINE
  5
582F
330
574E
100
AcDbEntity
  8
0
 62
     0
100
AcDbLine
 10
-38.72300652797691
 20
-271.0075841477578
 30
0.0
 11
-37.82823733852385
 21
-270.1128149583047
 31
0.0
  0
LINE
  5
5830
330
574E
100
AcDbEntity
  8
0
 62
     0
100
AcDbLine
 10
-42.84842263514287
 20
-275.1330002549237
 30
0.0
 11
-42.21642812894087
 21
-274.5010057487217
 31
0.0
  0
LINE
  5
5831
330
574E
100
AcDbEntity
  8
0
 62
     0
100
AcDbLine
 10
-41.35193535987162
 20
-273.6365129796524
 30
0.0
 11
-41.11105655357031
 21
-273.3956341733511
 31
0.0
  0
LINE
  5
5832
330
574E
100
AcDbEntity
  8
0
 62
     0
100
AcDbLine
 10
-41.75074796647627
 20
-274.0353255862571
 30
0.0
 11
-41.65095936023383
 21
-273.9355369800147
 31
0.0
  0
LINE
  5
5833
330
574E
100
AcDbEntity
  8
0
 62
     0
100
AcDbLine
 10
-42.99531849396698
 20
-275.1473135922753
 30
0.0
 11
-42.89317455957778
 21
-275.0451696578862
 31
0.0
  0
LINE
  5
5834
330
574E
100
AcDbEntity
  8
0
 62
     0
100
AcDbLine
 10
-38.85558904944939
 20
-271.0075841477578
 30
0.0
 11
-37.96081985999633
 21
-270.1128149583047
 31
0.0
  0
LINE
  5
5835
330
574E
100
AcDbEntity
  8
0
 62
     0
100
AcDbLine
 10
-42.89317455957778
 20
-275.0451696578862
 30
0.0
 11
-42.2611800533758
 21
-274.4131751516842
 31
0.0
  0
LINE
  5
5836
330
574E
100
AcDbEntity
  8
0
 62
     0
100
AcDbLine
 10
-41.34208886032189
 20
-273.4940839586302
 30
0.0
 11
-41.10121005402058
 21
-273.2532051523289
 31
0.0
  0
LINE
  5
5837
330
574E
100
AcDbEntity
  8
0
 62
     0
100
AcDbLine
 10
-41.79549989091119
 20
-273.9474949892195
 30
0.0
 11
-41.69571128466874
 21
-273.8477063829771
 31
0.0
  0
LINE
  5
5838
330
574E
100
AcDbEntity
  8
0
 62
     0
100
AcDbLine
 10
-43.0400704184019
 20
-275.0594829952378
 30
0.0
 11
-42.93792648401271
 21
-274.9573390608487
 31
0.0
  0
LINE
  5
5839
330
574E
100
AcDbEntity
  8
0
 62
     0
100
AcDbLine
 10
-38.98817157092188
 20
-271.0075841477578
 30
0.0
 11
-38.09340238146882
 21
-270.1128149583047
 31
0.0
  0
LINE
  5
583A
330
574E
100
AcDbEntity
  8
0
 62
     0
100
AcDbLine
 10
-42.93792648401271
 20
-274.9573390608486
 30
0.0
 11
-42.30593197781072
 21
-274.3253445546466
 31
0.0
  0
LINE
  5
583B
330
574E
100
AcDbEntity
  8
0
 62
     0
100
AcDbLine
 10
-41.33224236077215
 20
-273.351654937608
 30
0.0
 11
-41.09136355447085
 21
-273.1107761313067
 31
0.0
  0
LINE
  5
583C
330
574E
100
AcDbEntity
  8
0
 62
     0
100
AcDbLine
 10
-41.84025181534611
 20
-273.859664392182
 30
0.0
 11
-41.74046320910367
 21
-273.7598757859395
 31
0.0
  0
LINE
  5
583D
330
574E
100
AcDbEntity
  8
0
 62
     0
100
AcDbLine
 10
-43.08482234283682
 20
-274.9716523982002
 30
0.0
 11
-42.98267840844763
 21
-274.8695084638111
 31
0.0
  0
LINE
  5
583E
330
574E
100
AcDbEntity
  8
0
 62
     0
100
AcDbLine
 10
-39.12075409239436
 20
-271.0075841477578
 30
0.0
 11
-38.2259849029413
 21
-270.1128149583047
 31
0.0
  0
LINE
  5
583F
330
574E
100
AcDbEntity
  8
0
 62
     0
100
AcDbLine
 10
-42.98267840844764
 20
-274.8695084638111
 30
0.0
 11
-42.35068390224564
 21
-274.2375139576091
 31
0.0
  0
LINE
  5
5840
330
574E
100
AcDbEntity
  8
0
 62
     0
100
AcDbLine
 10
-41.08151705492112
 20
-272.9683471102845
 30
0.0
 11
-40.96181643366968
 21
-272.848646489033
 31
0.0
  0
LINE
  5
5841
330
574E
100
AcDbEntity
  8
0
 62
     0
100
AcDbLine
 10
-41.88500373978103
 20
-273.7718337951445
 30
0.0
 11
-41.78521513353859
 21
-273.672045188902
 31
0.0
  0
LINE
  5
5842
330
574E
100
AcDbEntity
  8
0
 62
     0
100
AcDbLine
 10
-41.32239586122242
 20
-273.2092259165858
 30
0.0
 11
-41.08151705492112
 21
-272.9683471102845
 31
0.0
  0
LINE
  5
5843
330
574E
100
AcDbEntity
  8
0
 62
     0
100
AcDbLine
 10
-43.12957426727176
 20
-274.8838218011627
 30
0.0
 11
-43.02743033288257
 21
-274.7816778667736
 31
0.0
  0
LINE
  5
5844
330
574E
100
AcDbEntity
  8
0
 62
     0
100
AcDbLine
 10
-39.25333661386681
 20
-271.0075841477578
 30
0.0
 11
-38.35856742441375
 21
-270.1128149583047
 31
0.0
  0
LINE
  5
5845
330
574E
100
AcDbEntity
  8
0
 62
     0
100
AcDbLine
 10
-43.02743033288256
 20
-274.7816778667735
 30
0.0
 11
-42.39543582668058
 21
-274.1496833605715
 31
0.0
  0
LINE
  5
5846
330
574E
100
AcDbEntity
  8
0
 62
     0
100
AcDbLine
 10
-41.07167055537138
 20
-272.8259180892623
 30
0.0
 11
-40.79761027123158
 21
-272.5518578051226
 31
0.0
  0
LINE
  5
5847
330
574E
100
AcDbEntity
  8
0
 62
     0
100
AcDbLine
 10
-41.92975566421597
 20
-273.6840031981069
 30
0.0
 11
-41.82996705797352
 21
-273.5842145918645
 31
0.0
  0
LINE
  5
5848
330
574E
100
AcDbEntity
  8
0
 62
     0
100
AcDbLine
 10
-41.3125493616727
 20
-273.0667968955636
 30
0.0
 11
-41.07167055537138
 21
-272.8259180892623
 31
0.0
  0
LINE
  5
5849
330
574E
100
AcDbEntity
  8
0
 62
     0
100
AcDbLine
 10
-43.17432619170667
 20
-274.7959912041251
 30
0.0
 11
-43.07218225731747
 21
-274.693847269736
 31
0.0
  0
LINE
  5
584A
330
574E
100
AcDbEntity
  8
0
 62
     0
100
AcDbLine
 10
-39.3859191353393
 20
-271.0075841477578
 30
0.0
 11
-38.49114994588624
 21
-270.1128149583047
 31
0.0
  0
LINE
  5
584B
330
574E
100
AcDbEntity
  8
0
 62
     0
100
AcDbLine
 10
-43.07218225731748
 20
-274.693847269736
 30
0.0
 11
-42.44018775111549
 21
-274.0618527635339
 31
0.0
  0
LINE
  5
584C
330
574E
100
AcDbEntity
  8
0
 62
     0
100
AcDbLine
 10
-41.06182405582166
 20
-272.6834890682401
 30
0.0
 11
-40.63340410879347
 21
-272.2550691212119
 31
0.0
  0
LINE
  5
584D
330
574E
100
AcDbEntity
  8
0
 62
     0
100
AcDbLine
 10
-41.97450758865088
 20
-273.5961726010693
 30
0.0
 11
-41.87471898240843
 21
-273.4963839948269
 31
0.0
  0
LINE
  5
584E
330
574E
100
AcDbEntity
  8
0
 62
     0
100
AcDbLine
 10
-41.30270286212296
 20
-272.9243678745414
 30
0.0
 11
-41.06182405582166
 21
-272.6834890682401
 31
0.0
  0
LINE
  5
584F
330
574E
100
AcDbEntity
  8
0
 62
     0
100
AcDbLine
 10
-43.2190781161416
 20
-274.7081606070876
 30
0.0
 11
-43.11693418175241
 21
-274.6060166726984
 31
0.0
  0
LINE
  5
5850
330
574E
100
AcDbEntity
  8
0
 62
     0
100
AcDbLine
 10
-39.51850165681178
 20
-271.0075841477578
 30
0.0
 11
-38.62373246735872
 21
-270.1128149583047
 31
0.0
  0
LINE
  5
5851
330
574E
100
AcDbEntity
  8
0
 62
     0
100
AcDbLine
 10
-43.11693418175241
 20
-274.6060166726984
 30
0.0
 11
-42.48493967555043
 21
-273.9740221664964
 31
0.0
  0
LINE
  5
5852
330
574E
100
AcDbEntity
  8
0
 62
     0
100
AcDbLine
 10
-41.04147028864789
 20
-272.5305527795939
 30
0.0
 11
-40.46919794635537
 21
-271.9582804373014
 31
0.0
  0
LINE
  5
5853
330
574E
100
AcDbEntity
  8
0
 62
     0
100
AcDbLine
 10
-42.0192595130858
 20
-273.5083420040318
 30
0.0
 11
-41.91947090684336
 21
-273.4085533977893
 31
0.0
  0
LINE
  5
5854
330
574E
100
AcDbEntity
  8
0
 62
     0
100
AcDbLine
 10
-41.29285636257323
 20
-272.7819388535192
 30
0.0
 11
-41.05197755627193
 21
-272.5410600472179
 31
0.0
  0
LINE
  5
5855
330
574E
100
AcDbEntity
  8
0
 62
     0
100
AcDbLine
 10
-43.26383004057651
 20
-274.62033001005
 30
0.0
 11
-43.16168610618734
 21
-274.5181860756609
 31
0.0
  0
LINE
  5
5856
330
574E
100
AcDbEntity
  8
0
 62
     0
100
AcDbLine
 10
-39.65108417828427
 20
-271.0075841477578
 30
0.0
 11
-38.7563149888312
 21
-270.1128149583047
 31
0.0
  0
LINE
  5
5857
330
574E
100
AcDbEntity
  8
0
 62
     0
100
AcDbLine
 10
-43.16168610618732
 20
-274.5181860756608
 30
0.0
 11
-42.52969159998534
 21
-273.8861915694589
 31
0.0
  0
LINE
  5
5858
330
574E
100
AcDbEntity
  8
0
 62
     0
100
AcDbLine
 10
-40.87726412620977
 20
-272.2337640956832
 30
0.0
 11
-40.30499178391731
 21
-271.6614917533908
 31
0.0
  0
LINE
  5
5859
330
574E
100
AcDbEntity
  8
0
 62
     0
100
AcDbLine
 10
-42.06401143752072
 20
-273.4205114069942
 30
0.0
 11
-41.96422283127828
 21
-273.3207228007517
 31
0.0
  0
LINE
  5
585A
330
574E
100
AcDbEntity
  8
0
 62
     0
100
AcDbLine
 10
-41.2830098630235
 20
-272.639509832497
 30
0.0
 11
-41.04213105672219
 21
-272.3986310261957
 31
0.0
  0
LINE
  5
585B
330
574E
100
AcDbEntity
  8
0
 62
     0
100
AcDbLine
 10
-43.30858196501145
 20
-274.5324994130124
 30
0.0
 11
-43.20643803062226
 21
-274.4303554786233
 31
0.0
  0
LINE
  5
585C
330
574E
100
AcDbEntity
  8
0
 62
     0
100
AcDbLine
 10
-39.78366669975674
 20
-271.0075841477578
 30
0.0
 11
-38.88889751030369
 21
-270.1128149583047
 31
0.0
  0
LINE
  5
585D
330
574E
100
AcDbEntity
  8
0
 62
     0
100
AcDbLine
 10
-43.20643803062226
 20
-274.4303554786232
 30
0.0
 11
-42.57444352442026
 21
-273.7983609724213
 31
0.0
  0
LINE
  5
585E
330
574E
100
AcDbEntity
  8
0
 62
     0
100
AcDbLine
 10
-40.71305796377171
 20
-271.9369754117727
 30
0.0
 11
-40.14078562147921
 21
-271.3647030694802
 31
0.0
  0
LINE
  5
585F
330
574E
100
AcDbEntity
  8
0
 62
     0
100
AcDbLine
 10
-42.10876336195565
 20
-273.3326808099567
 30
0.0
 11
-42.00897475571321
 21
-273.2328922037142
 31
0.0
  0
LINE
  5
5860
330
574E
100
AcDbEntity
  8
0
 62
     0
100
AcDbLine
 10
-41.27316336347377
 20
-272.4970808114748
 30
0.0
 11
-41.03228455717245
 21
-272.2562020051735
 31
0.0
  0
LINE
  5
5861
330
574E
100
AcDbEntity
  8
0
 62
     0
100
AcDbLine
 10
-43.35333388944637
 20
-274.4446688159749
 30
0.0
 11
-43.25118995505717
 21
-274.3425248815857
 31
0.0
  0
LINE
  5
5862
330
574E
100
AcDbEntity
  8
0
 62
     0
100
AcDbLine
 10
-39.9162492212292
 20
-271.0075841477578
 30
0.0
 11
-39.02148003177617
 21
-270.1128149583047
 31
0.0
  0
LINE
  5
5863
330
574E
100
AcDbEntity
  8
0
 62
     0
100
AcDbLine
 10
-43.25118995505718
 20
-274.3425248815857
 30
0.0
 11
-42.61919544885519
 21
-273.7105303753837
 31
0.0
  0
LINE
  5
5864
330
574E
100
AcDbEntity
  8
0
 62
     0
100
AcDbLine
 10
-40.5488518013336
 20
-271.6401867278622
 30
0.0
 11
-39.97657945904111
 21
-271.0679143855696
 31
0.0
  0
LINE
  5
5865
330
574E
100
AcDbEntity
  8
0
 62
     0
100
AcDbLine
 10
-42.15351528639057
 20
-273.2448502129191
 30
0.0
 11
-42.05372668014815
 21
-273.1450616066767
 31
0.0
  0
LINE
  5
5866
330
574E
100
AcDbEntity
  8
0
 62
     0
100
AcDbLine
 10
-41.26331686392403
 20
-272.3546517904526
 30
0.0
 11
-41.02243805762273
 21
-272.1137729841512
 31
0.0
  0
LINE
  5
5867
330
574E
100
AcDbEntity
  8
0
 62
     0
100
AcDbLine
 10
-43.39808581388129
 20
-274.3568382189374
 30
0.0
 11
-43.29594187949211
 21
-274.2546942845482
 31
0.0
  0
LINE
  5
5868
330
574E
100
AcDbEntity
  8
0
 62
     0
100
AcDbLine
 10
-40.04883174270166
 20
-271.0075841477577
 30
0.0
 11
-39.15406255324862
 21
-270.1128149583047
 31
0.0
  0
LINE
  5
5869
330
574E
100
AcDbEntity
  8
0
 62
     0
100
AcDbLine
 10
-43.29594187949211
 20
-274.2546942845482
 30
0.0
 11
-42.66394737329011
 21
-273.6226997783461
 31
0.0
  0
LINE
  5
586A
330
574E
100
AcDbEntity
  8
0
 62
     0
100
AcDbLine
 10
-40.38464563889553
 20
-271.3433980439516
 30
0.0
 11
-40.04883174270168
 21
-271.0075841477578
 31
0.0
  0
LINE
  5
586B
330
574E
100
AcDbEntity
  8
0
 62
     0
100
AcDbLine
 10
-42.19826721082549
 20
-273.1570196158815
 30
0.0
 11
-42.09847860458307
 21
-273.0572310096391
 31
0.0
  0
LINE
  5
586C
330
574E
100
AcDbEntity
  8
0
 62
     0
100
AcDbLine
 10
-41.25347036437431
 20
-272.2122227694304
 30
0.0
 11
-41.01259155807299
 21
-271.971343963129
 31
0.0
  0
LINE
  5
586D
330
574E
100
AcDbEntity
  8
0
 62
     0
100
AcDbLine
 10
-43.44283773831622
 20
-274.2690076218998
 30
0.0
 11
-43.34069380392703
 21
-274.1668636875106
 31
0.0
  0
LINE
  5
586E
330
574E
100
AcDbEntity
  8
0
 62
     0
100
AcDbLine
 10
-40.18141426417416
 20
-271.0075841477577
 30
0.0
 11
-39.28664507472111
 21
-270.1128149583047
 31
0.0
  0
LINE
  5
586F
330
574E
100
AcDbEntity
  8
0
 62
     0
100
AcDbLine
 10
-43.34069380392703
 20
-274.1668636875106
 30
0.0
 11
-42.70869929772504
 21
-273.5348691813086
 31
0.0
  0
LINE
  5
5870
330
574E
100
AcDbEntity
  8
0
 62
     0
100
AcDbLine
 10
-40.22043947645742
 20
-271.046609360041
 30
0.0
 11
-40.18141426417416
 21
-271.0075841477578
 31
0.0
  0
LINE
  5
5871
330
574E
100
AcDbEntity
  8
0
 62
     0
100
AcDbLine
 10
-42.24301913526041
 20
-273.069189018844
 30
0.0
 11
-42.14323052901799
 21
-272.9694004126015
 31
0.0
  0
LINE
  5
5872
330
574E
100
AcDbEntity
  8
0
 62
     0
100
AcDbLine
 10
-41.24362386482458
 20
-272.0697937484081
 30
0.0
 11
-41.00274505852326
 21
-271.8289149421068
 31
0.0
  0
LINE
  5
5873
330
574E
100
AcDbEntity
  8
0
 62
     0
100
AcDbLine
 10
-43.48758966275113
 20
-274.1811770248623
 30
0.0
 11
-43.38544572836195
 21
-274.0790330904731
 31
0.0
  0
LINE
  5
5874
330
574E
100
AcDbEntity
  8
0
 62
     0
100
AcDbLine
 10
-40.31399678564665
 20
-271.0075841477578
 30
0.0
 11
-39.41922759619359
 21
-270.1128149583047
 31
0.0
  0
LINE
  5
5875
330
574E
100
AcDbEntity
  8
0
 62
     0
100
AcDbLine
 10
-43.38544572836195
 20
-274.0790330904731
 30
0.0
 11
-42.75345122215997
 21
-273.447038584271
 31
0.0
  0
LINE
  5
5876
330
574E
100
AcDbEntity
  8
0
 62
     0
100
AcDbLine
 10
-41.23377736527484
 20
-271.9273647273859
 30
0.0
 11
-40.99289855897352
 21
-271.6864859210846
 31
0.0
  0
LINE
  5
5877
330
574E
100
AcDbEntity
  8
0
 62
     0
100
AcDbLine
 10
-42.28777105969533
 20
-272.9813584218064
 30
0.0
 11
-42.18798245345292
 21
-272.881569815564
 31
0.0
  0
LINE
  5
5878
330
574E
100
AcDbEntity
  8
0
 62
     0
100
AcDbLine
 10
-43.53234158718605
 20
-274.0933464278247
 30
0.0
 11
-43.43019765279687
 21
-273.9912024934355
 31
0.0
  0
LINE
  5
5879
330
574E
100
AcDbEntity
  8
0
 62
     0
100
AcDbLine
 10
-40.44657930711912
 20
-271.0075841477578
 30
0.0
 11
-39.55181011766607
 21
-270.1128149583047
 31
0.0
  0
LINE
  5
587A
330
574E
100
AcDbEntity
  8
0
 62
     0
100
AcDbLine
 10
-43.43019765279688
 20
-273.9912024934355
 30
0.0
 11
-42.79820314659487
 21
-273.3592079872335
 31
0.0
  0
LINE
  5
587B
330
574E
100
AcDbEntity
  8
0
 62
     0
100
AcDbLine
 10
-41.22393086572511
 20
-271.7849357063637
 30
0.0
 11
-40.9830520594238
 21
-271.5440569000624
 31
0.0
  0
LINE
  5
587C
330
574E
100
AcDbEntity
  8
0
 62
     0
100
AcDbLine
 10
-42.33252298413026
 20
-272.8935278247689
 30
0.0
 11
-42.23273437788784
 21
-272.7937392185264
 31
0.0
  0
LINE
  5
587D
330
574E
100
AcDbEntity
  8
0
 62
     0
100
AcDbLine
 10
-43.57709351162099
 20
-274.0055158307872
 30
0.0
 11
-43.4749495772318
 21
-273.903371896398
 31
0.0
  0
LINE
  5
587E
330
574E
100
AcDbEntity
  8
0
 62
     0
100
AcDbLine
 10
-40.57916182859158
 20
-271.0075841477578
 30
0.0
 11
-39.68439263913856
 21
-270.1128149583047
 31
0.0
  0
LINE
  5
587F
330
574E
100
AcDbEntity
  8
0
 62
     0
100
AcDbLine
 10
-43.4749495772318
 20
-273.903371896398
 30
0.0
 11
-42.84295507102982
 21
-273.2713773901959
 31
0.0
  0
LINE
  5
5880
330
574E
100
AcDbEntity
  8
0
 62
     0
100
AcDbLine
 10
-41.21408436617539
 20
-271.6425066853415
 30
0.0
 11
-40.97320555987406
 21
-271.4016278790402
 31
0.0
  0
LINE
  5
5881
330
574E
100
AcDbEntity
  8
0
 62
     0
100
AcDbLine
 10
-42.37727490856518
 20
-272.8056972277314
 30
0.0
 11
-42.27748630232276
 21
-272.705908621489
 31
0.0
  0
LINE
  5
5882
330
574E
100
AcDbEntity
  8
0
 62
     0
100
AcDbLine
 10
-43.6218454360559
 20
-273.9176852337496
 30
0.0
 11
-43.51970150166672
 21
-273.8155412993604
 31
0.0
  0
LINE
  5
5883
330
574E
100
AcDbEntity
  8
0
 62
     0
100
AcDbLine
 10
-40.71174435006406
 20
-271.0075841477578
 30
0.0
 11
-39.81697516061101
 21
-270.1128149583047
 31
0.0
  0
LINE
  5
5884
330
574E
100
AcDbEntity
  8
0
 62
     0
100
AcDbLine
 10
-43.51970150166672
 20
-273.8155412993604
 30
0.0
 11
-42.88770699546473
 21
-273.1835467931584
 31
0.0
  0
LINE
  5
5885
330
574E
100
AcDbEntity
  8
0
 62
     0
100
AcDbLine
 10
-41.20423786662565
 20
-271.5000776643193
 30
0.0
 11
-40.96335906032432
 21
-271.259198858018
 31
0.0
  0
LINE
  5
5886
330
574E
100
AcDbEntity
  8
0
 62
     0
100
AcDbLine
 10
-42.4220268330001
 20
-272.7178666306938
 30
0.0
 11
-42.32223822675769
 21
-272.6180780244514
 31
0.0
  0
LINE
  5
5887
330
574E
100
AcDbEntity
  8
0
 62
     0
100
AcDbLine
 10
-43.66659736049083
 20
-273.829854636712
 30
0.0
 11
-43.56445342610165
 21
-273.7277107023229
 31
0.0
  0
LINE
  5
5888
330
574E
100
AcDbEntity
  8
0
 62
     0
100
AcDbLine
 10
-40.84432687153655
 20
-271.0075841477578
 30
0.0
 11
-39.94955768208349
 21
-270.1128149583047
 31
0.0
  0
LINE
  5
5889
330
574E
100
AcDbEntity
  8
0
 62
     0
100
AcDbLine
 10
-43.56445342610164
 20
-273.7277107023228
 30
0.0
 11
-42.93245891989965
 21
-273.0957161961208
 31
0.0
  0
LINE
  5
588A
330
574E
100
AcDbEntity
  8
0
 62
     0
100
AcDbLine
 10
-41.19439136707593
 20
-271.3576486432971
 30
0.0
 11
-40.95351256077459
 21
-271.1167698369958
 31
0.0
  0
LINE
  5
588B
330
574E
100
AcDbEntity
  8
0
 62
     0
100
AcDbLine
 10
-42.46677875743502
 20
-272.6300360336562
 30
0.0
 11
-42.36699015119261
 21
-272.5302474274138
 31
0.0
  0
LINE
  5
588C
330
574E
100
AcDbEntity
  8
0
 62
     0
100
AcDbLine
 10
-43.71134928492576
 20
-273.7420240396744
 30
0.0
 11
-43.60920535053657
 21
-273.6398801052853
 31
0.0
  0
LINE
  5
588D
330
574E
100
AcDbEntity
  8
0
 62
     0
100
AcDbLine
 10
-40.97690939300903
 20
-271.0075841477578
 30
0.0
 11
-40.08214020355597
 21
-270.1128149583047
 31
0.0
  0
LINE
  5
588E
330
574E
100
AcDbEntity
  8
0
 62
     0
100
AcDbLine
 10
-43.60920535053657
 20
-273.6398801052853
 30
0.0
 11
-42.97721084433458
 21
-273.0078855990833
 31
0.0
  0
LINE
  5
588F
330
574E
100
AcDbEntity
  8
0
 62
     0
100
AcDbLine
 10
-41.1845448675262
 20
-271.2152196222749
 30
0.0
 11
-40.97690939300904
 21
-271.0075841477578
 31
0.0
  0
LINE
  5
5890
330
574E
100
AcDbEntity
  8
0
 62
     0
100
AcDbLine
 10
-42.51153068186996
 20
-272.5422054366187
 30
0.0
 11
-42.41174207562753
 21
-272.4424168303762
 31
0.0
  0
LINE
  5
5891
330
574E
100
AcDbEntity
  8
0
 62
     0
100
AcDbLine
 10
-43.75610120936068
 20
-273.6541934426369
 30
0.0
 11
-43.65395727497149
 21
-273.5520495082478
 31
0.0
  0
LINE
  5
5892
330
574E
100
AcDbEntity
  8
0
 62
     0
100
AcDbLine
 10
-41.10949191448152
 20
-271.0075841477578
 30
0.0
 11
-40.21472272502846
 21
-270.1128149583047
 31
0.0
  0
LINE
  5
5893
330
574E
100
AcDbEntity
  8
0
 62
     0
100
AcDbLine
 10
-43.65395727497149
 20
-273.5520495082478
 30
0.0
 11
-43.02196276876951
 21
-272.9200550020458
 31
0.0
  0
LINE
  5
5894
330
574E
100
AcDbEntity
  8
0
 62
     0
100
AcDbLine
 10
-41.17469836797646
 20
-271.0727906012527
 30
0.0
 11
-41.10949191448153
 21
-271.0075841477578
 31
0.0
  0
LINE
  5
5895
330
574E
100
AcDbEntity
  8
0
 62
     0
100
AcDbLine
 10
-42.55628260630487
 20
-272.4543748395811
 30
0.0
 11
-42.45649400006246
 21
-272.3545862333387
 31
0.0
  0
LINE
  5
5896
330
574E
100
AcDbEntity
  8
0
 62
     0
100
AcDbLine
 10
-43.8008531337956
 20
-273.5663628455994
 30
0.0
 11
-43.69870919940642
 21
-273.4642189112102
 31
0.0
  0
LINE
  5
5897
330
574E
100
AcDbEntity
  8
0
 62
     0
100
AcDbLine
 10
-41.242074435954
 20
-271.0075841477578
 30
0.0
 11
-40.34730524650094
 21
-270.1128149583047
 31
0.0
  0
LINE
  5
5898
330
574E
100
AcDbEntity
  8
0
 62
     0
100
AcDbLine
 10
-43.69870919940643
 20
-273.4642189112102
 30
0.0
 11
-43.06671469320444
 21
-272.8322244050082
 31
0.0
  0
LINE
  5
5899
330
574E
100
AcDbEntity
  8
0
 62
     0
100
AcDbLine
 10
-42.6010345307398
 20
-272.3665442425436
 30
0.0
 11
-42.50124592449738
 21
-272.2667556363012
 31
0.0
  0
LINE
  5
589A
330
574E
100
AcDbEntity
  8
0
 62
     0
100
AcDbLine
 10
-43.84560505823052
 20
-273.4785322485618
 30
0.0
 11
-43.74346112384134
 21
-273.3763883141727
 31
0.0
  0
LINE
  5
589B
330
574E
100
AcDbEntity
  8
0
 62
     0
100
AcDbLine
 10
-41.37465695742645
 20
-271.0075841477578
 30
0.0
 11
-40.47988776797339
 21
-270.1128149583047
 31
0.0
  0
LINE
  5
589C
330
574E
100
AcDbEntity
  8
0
 62
     0
100
AcDbLine
 10
-43.74346112384134
 20
-273.3763883141726
 30
0.0
 11
-43.11146661763936
 21
-272.7443938079706
 31
0.0
  0
LINE
  5
589D
330
574E
100
AcDbEntity
  8
0
 62
     0
100
AcDbLine
 10
-42.64578645517471
 20
-272.278713645506
 30
0.0
 11
-42.5459978489323
 21
-272.1789250392636
 31
0.0
  0
LINE
  5
589E
330
574E
100
AcDbEntity
  8
0
 62
     0
100
AcDbLine
 10
-43.89035698266545
 20
-273.3907016515242
 30
0.0
 11
-43.78821304827627
 21
-273.2885577171351
 31
0.0
  0
LINE
  5
589F
330
574E
100
AcDbEntity
  8
0
 62
     0
100
AcDbLine
 10
-41.50723947889893
 20
-271.0075841477578
 30
0.0
 11
-40.61247028944587
 21
-270.1128149583047
 31
0.0
  0
LINE
  5
58A0
330
574E
100
AcDbEntity
  8
0
 62
     0
100
AcDbLine
 10
-43.78821304827627
 20
-273.2885577171351
 30
0.0
 11
-43.15621854207427
 21
-272.6565632109331
 31
0.0
  0
LINE
  5
58A1
330
574E
100
AcDbEntity
  8
0
 62
     0
100
AcDbLine
 10
-42.69053837960965
 20
-272.1908830484685
 30
0.0
 11
-42.59074977336722
 21
-272.0910944422261
 31
0.0
  0
LINE
  5
58A2
330
574E
100
AcDbEntity
  8
0
 62
     0
100
AcDbLine
 10
-43.93510890710039
 20
-273.3028710544867
 30
0.0
 11
-43.83296497271119
 21
-273.2007271200976
 31
0.0
  0
LINE
  5
58A3
330
574E
100
AcDbEntity
  8
0
 62
     0
100
AcDbLine
 10
-41.63982200037142
 20
-271.0075841477578
 30
0.0
 11
-40.74505281091837
 21
-270.1128149583047
 31
0.0
  0
LINE
  5
58A4
330
574E
100
AcDbEntity
  8
0
 62
     0
100
AcDbLine
 10
-43.83296497271119
 20
-273.2007271200975
 30
0.0
 11
-43.2009704665092
 21
-272.5687326138955
 31
0.0
  0
LINE
  5
58A5
330
574E
100
AcDbEntity
  8
0
 62
     0
100
AcDbLine
 10
-42.73529030404456
 20
-272.1030524514309
 30
0.0
 11
-42.63550169780215
 21
-272.0032638451885
 31
0.0
  0
LINE
  5
58A6
330
574E
100
AcDbEntity
  8
0
 62
     0
100
AcDbLine
 10
-43.97986083153529
 20
-273.2150404574491
 30
0.0
 11
-43.87771689714611
 21
-273.11289652306
 31
0.0
  0
LINE
  5
58A7
330
574E
100
AcDbEntity
  8
0
 62
     0
100
AcDbLine
 10
-41.7724045218439
 20
-271.0075841477578
 30
0.0
 11
-40.87763533239084
 21
-270.1128149583047
 31
0.0
  0
LINE
  5
58A8
330
574E
100
AcDbEntity
  8
0
 62
     0
100
AcDbLine
 10
-43.87771689714612
 20
-273.11289652306
 30
0.0
 11
-43.24572239094412
 21
-272.480902016858
 31
0.0
  0
LINE
  5
58A9
330
574E
100
AcDbEntity
  8
0
 62
     0
100
AcDbLine
 10
-42.78004222847949
 20
-272.0152218543934
 30
0.0
 11
-42.68025362223707
 21
-271.9154332481509
 31
0.0
  0
LINE
  5
58AA
330
574E
100
AcDbEntity
  8
0
 62
     0
100
AcDbLine
 10
-44.02461275597022
 20
-273.1272098604116
 30
0.0
 11
-43.92246882158103
 21
-273.0250659260224
 31
0.0
  0
LINE
  5
58AB
330
574E
100
AcDbEntity
  8
0
 62
     0
100
AcDbLine
 10
-41.90498704331639
 20
-271.0075841477578
 30
0.0
 11
-41.01021785386333
 21
-270.1128149583047
 31
0.0
  0
LINE
  5
58AC
330
574E
100
AcDbEntity
  8
0
 62
     0
100
AcDbLine
 10
-43.92246882158103
 20
-273.0250659260224
 30
0.0
 11
-43.29047431537905
 21
-272.3930714198204
 31
0.0
  0
LINE
  5
58AD
330
574E
100
AcDbEntity
  8
0
 62
     0
100
AcDbLine
 10
-42.8247941529144
 20
-271.9273912573558
 30
0.0
 11
-42.72500554667199
 21
-271.8276026511134
 31
0.0
  0
LINE
  5
58AE
330
574E
100
AcDbEntity
  8
0
 62
     0
100
AcDbLine
 10
-44.06936468040514
 20
-273.0393792633741
 30
0.0
 11
-43.96722074601596
 21
-272.9372353289849
 31
0.0
  0
LINE
  5
58AF
330
574E
100
AcDbEntity
  8
0
 62
     0
100
AcDbLine
 10
-42.03756956478883
 20
-271.0075841477578
 30
0.0
 11
-41.14280037533577
 21
-270.1128149583047
 31
0.0
  0
LINE
  5
58B0
330
574E
100
AcDbEntity
  8
0
 62
     0
100
AcDbLine
 10
-43.96722074601596
 20
-272.9372353289849
 30
0.0
 11
-43.33522623981397
 21
-272.3052408227829
 31
0.0
  0
LINE
  5
58B1
330
574E
100
AcDbEntity
  8
0
 62
     0
100
AcDbLine
 10
-42.86954607734934
 20
-271.8395606603182
 30
0.0
 11
-42.76975747110692
 21
-271.7397720540759
 31
0.0
  0
LINE
  5
58B2
330
574E
100
AcDbEntity
  8
0
 62
     0
100
AcDbLine
 10
-44.11411660484007
 20
-272.9515486663365
 30
0.0
 11
-44.01197267045088
 21
-272.8494047319474
 31
0.0
  0
LINE
  5
58B3
330
574E
100
AcDbEntity
  8
0
 62
     0
100
AcDbLine
 10
-42.17015208626132
 20
-271.0075841477578
 30
0.0
 11
-41.27538289680827
 21
-270.1128149583047
 31
0.0
  0
LINE
  5
58B4
330
574E
100
AcDbEntity
  8
0
 62
     0
100
AcDbLine
 10
-44.01197267045089
 20
-272.8494047319474
 30
0.0
 11
-43.3799781642489
 21
-272.2174102257453
 31
0.0
  0
LINE
  5
58B5
330
574E
100
AcDbEntity
  8
0
 62
     0
100
AcDbLine
 10
-42.91429800178426
 20
-271.7517300632807
 30
0.0
 11
-42.81450939554184
 21
-271.6519414570383
 31
0.0
  0
LINE
  5
58B6
330
574E
100
AcDbEntity
  8
0
 62
     0
100
AcDbLine
 10
-43.03552049306387
 20
-271.8729525545603
 30
0.0
 11
-42.91429800178426
 21
-271.7517300632807
 31
0.0
  0
LINE
  5
58B7
330
574E
100
AcDbEntity
  8
0
 62
     0
100
AcDbLine
 10
-44.15886852927499
 20
-272.8637180692989
 30
0.0
 11
-44.0567245948858
 21
-272.7615741349098
 31
0.0
  0
LINE
  5
58B8
330
574E
100
AcDbEntity
  8
0
 62
     0
100
AcDbLine
 10
-42.30273460773381
 20
-271.0075841477578
 30
0.0
 11
-41.40796541828075
 21
-270.1128149583047
 31
0.0
  0
LINE
  5
58B9
330
574E
100
AcDbEntity
  8
0
 62
     0
100
AcDbLine
 10
-44.05672459488581
 20
-272.7615741349098
 30
0.0
 11
-43.42473008868381
 21
-272.1295796287078
 31
0.0
  0
LINE
  5
58BA
330
574E
100
AcDbEntity
  8
0
 62
     0
100
AcDbLine
 10
-42.95904992621917
 20
-271.6638994662432
 30
0.0
 11
-42.85926131997678
 21
-271.5641108600007
 31
0.0
  0
LINE
  5
58BB
330
574E
100
AcDbEntity
  8
0
 62
     0
100
AcDbLine
 10
-43.30583527562661
 20
-272.0106848156506
 30
0.0
 11
-43.03567928394395
 21
-271.7405288239679
 31
0.0
  0
LINE
  5
58BC
330
574E
100
AcDbEntity
  8
0
 62
     0
100
AcDbLine
 10
-44.20362045370992
 20
-272.7758874722614
 30
0.0
 11
-44.10147651932073
 21
-272.6737435378722
 31
0.0
  0
LINE
  5
58BD
330
574E
100
AcDbEntity
  8
0
 62
     0
100
AcDbLine
 10
-42.43531712920629
 20
-271.0075841477578
 30
0.0
 11
-41.54054793975324
 21
-270.1128149583047
 31
0.0
  0
LINE
  5
58BE
330
574E
100
AcDbEntity
  8
0
 62
     0
100
AcDbLine
 10
-44.10147651932073
 20
-272.6737435378722
 30
0.0
 11
-43.57615005818931
 21
-272.1484170767408
 31
0.0
  0
LINE
  5
58BF
330
574E
100
AcDbEntity
  8
0
 62
     0
100
AcDbLine
 10
-43.00380185065409
 20
-271.5760688692056
 30
0.0
 11
-42.9040132444117
 21
-271.4762802629631
 31
0.0
  0
LINE
  5
58C0
330
574E
100
AcDbEntity
  8
0
 62
     0
100
AcDbLine
 10
-43.57615005818945
 20
-272.1484170767408
 30
0.0
 11
-43.29449434520518
 21
-271.8667613637567
 31
0.0
  0
LINE
  5
58C1
330
574E
100
AcDbEntity
  8
0
 62
     0
100
AcDbLine
 10
-44.24837237814484
 20
-272.6880568752238
 30
0.0
 11
-44.14622844375565
 21
-272.5859129408347
 31
0.0
  0
LINE
  5
58C2
330
574E
100
AcDbEntity
  8
0
 62
     0
100
AcDbLine
 10
-42.56789965067877
 20
-271.0075841477578
 30
0.0
 11
-41.67313046122571
 21
-270.1128149583047
 31
0.0
  0
LINE
  5
58C3
330
574E
100
AcDbEntity
  8
0
 62
     0
100
AcDbLine
 10
-44.14622844375567
 20
-272.5859129408347
 30
0.0
 11
-43.81389900091518
 21
-272.2535834979942
 31
0.0
  0
LINE
  5
58C4
330
574E
100
AcDbEntity
  8
0
 62
     0
100
AcDbLine
 10
-43.04855377508903
 20
-271.488238272168
 30
0.0
 11
-42.94876516884662
 21
-271.3884496659257
 31
0.0
  0
LINE
  5
58C5
330
574E
100
AcDbEntity
  8
0
 62
     0
100
AcDbLine
 10
-43.81389900091516
 20
-272.2535834979942
 30
0.0
 11
-43.5533094064665
 21
-271.9929939035455
 31
0.0
  0
LINE
  5
58C6
330
574E
100
AcDbEntity
  8
0
 62
     0
100
AcDbLine
 10
-43.55330940646641
 20
-271.9929939035454
 30
0.0
 11
-43.51423393755367
 21
-271.9539184346327
 31
0.0
  0
LINE
  5
58C7
330
574E
100
AcDbEntity
  8
0
 62
     0
100
AcDbLine
 10
-44.29312430257975
 20
-272.6002262781863
 30
0.0
 11
-44.19098036819057
 21
-272.4980823437971
 31
0.0
  0
LINE
  5
58C8
330
574E
100
AcDbEntity
  8
0
 62
     0
100
AcDbLine
 10
-42.70048217215122
 20
-271.0075841477578
 30
0.0
 11
-41.80571298269817
 21
-270.1128149583047
 31
0.0
  0
LINE
  5
58C9
330
574E
100
AcDbEntity
  8
0
 62
     0
100
AcDbLine
 10
-44.19098036819058
 20
-272.4980823437971
 30
0.0
 11
-43.85736435006013
 21
-272.1644663256667
 31
0.0
  0
LINE
  5
58CA
330
574E
100
AcDbEntity
  8
0
 62
     0
100
AcDbLine
 10
-43.09330569952394
 20
-271.4004076751304
 30
0.0
 11
-42.99351709328155
 21
-271.3006190688881
 31
0.0
  0
LINE
  5
58CB
330
574E
100
AcDbEntity
  8
0
 62
     0
100
AcDbLine
 10
-43.85736435006017
 20
-272.1644663256666
 30
0.0
 11
-43.81212446772781
 21
-272.1192264433343
 31
0.0
  0
LINE
  5
58CC
330
574E
100
AcDbEntity
  8
0
 62
     0
100
AcDbLine
 10
-43.81212446772774
 20
-272.1192264433343
 30
0.0
 11
-43.5589858619886
 21
-271.8660878375951
 31
0.0
  0
LINE
  5
58CD
330
574E
100
AcDbEntity
  8
0
 62
     0
100
AcDbLine
 10
-44.33787622701468
 20
-272.5123956811487
 30
0.0
 11
-44.23573229262551
 21
-272.4102517467596
 31
0.0
  0
LINE
  5
58CE
330
574E
100
AcDbEntity
  8
0
 62
     0
100
AcDbLine
 10
-42.83306469362371
 20
-271.0075841477578
 30
0.0
 11
-41.93829550417065
 21
-270.1128149583047
 31
0.0
  0
LINE
  5
58CF
330
574E
100
AcDbEntity
  8
0
 62
     0
100
AcDbLine
 10
-44.23573229262551
 20
-272.4102517467596
 30
0.0
 11
-43.60373778642352
 21
-271.7782572405575
 31
0.0
  0
LINE
  5
58D0
330
574E
100
AcDbEntity
  8
0
 62
     0
100
AcDbLine
 10
-43.13805762395886
 20
-271.3125770780929
 30
0.0
 11
-43.03826901771647
 21
-271.2127884718505
 31
0.0
  0
LINE
  5
58D1
330
574E
100
AcDbEntity
  8
0
 62
     0
100
AcDbLine
 10
-44.38262815144962
 20
-272.4245650841112
 30
0.0
 11
-44.28048421706043
 21
-272.3224211497221
 31
0.0
  0
LINE
  5
58D2
330
574E
100
AcDbEntity
  8
0
 62
     0
100
AcDbLine
 10
-42.9656472150962
 20
-271.0075841477578
 30
0.0
 11
-42.07087802564314
 21
-270.1128149583047
 31
0.0
  0
LINE
  5
58D3
330
574E
100
AcDbEntity
  8
0
 62
     0
100
AcDbLine
 10
-44.28048421706043
 20
-272.322421149722
 30
0.0
 11
-43.64848971085844
 21
-271.69042664352
 31
0.0
  0
LINE
  5
58D4
330
574E
100
AcDbEntity
  8
0
 62
     0
100
AcDbLine
 10
-43.18280954839378
 20
-271.2247464810554
 30
0.0
 11
-43.08302094215139
 21
-271.1249578748129
 31
0.0
  0
LINE
  5
58D5
330
574E
100
AcDbEntity
  8
0
 62
     0
100
AcDbLine
 10
-44.42738007588452
 20
-272.3367344870736
 30
0.0
 11
-44.32523614149536
 21
-272.2345905526844
 31
0.0
  0
LINE
  5
58D6
330
574E
100
AcDbEntity
  8
0
 62
     0
100
AcDbLine
 10
-43.09822973656867
 20
-271.0075841477578
 30
0.0
 11
-42.20346054711562
 21
-270.1128149583047
 31
0.0
  0
LINE
  5
58D7
330
574E
100
AcDbEntity
  8
0
 62
     0
100
AcDbLine
 10
-44.32523614149537
 20
-272.2345905526844
 30
0.0
 11
-43.69324163529338
 21
-271.6025960464825
 31
0.0
  0
LINE
  5
58D8
330
574E
100
AcDbEntity
  8
0
 62
     0
100
AcDbLine
 10
-43.22756147282872
 20
-271.1369158840178
 30
0.0
 11
-43.12777286658632
 21
-271.0371272777754
 31
0.0
  0
LINE
  5
58D9
330
574E
100
AcDbEntity
  8
0
 62
     0
100
AcDbLine
 10
-44.47213200031946
 20
-272.2489038900361
 30
0.0
 11
-44.36998806593027
 21
-272.1467599556469
 31
0.0
  0
LINE
  5
58DA
330
574E
100
AcDbEntity
  8
0
 62
     0
100
AcDbLine
 10
-43.23081225804116
 20
-271.0075841477578
 30
0.0
 11
-42.3360430685881
 21
-270.1128149583047
 31
0.0
  0
LINE
  5
58DB
330
574E
100
AcDbEntity
  8
0
 62
     0
100
AcDbLine
 10
-44.36998806593028
 20
-272.1467599556469
 30
0.0
 11
-43.7379935597283
 21
-271.5147654494449
 31
0.0
  0
LINE
  5
58DC
330
574E
100
AcDbEntity
  8
0
 62
     0
100
AcDbLine
 10
-43.27231339726363
 20
-271.0490852869802
 30
0.0
 11
-43.23081225804115
 21
-271.0075841477578
 31
0.0
  0
LINE
  5
58DD
330
574E
100
AcDbEntity
  8
0
 62
     0
100
AcDbLine
 10
-44.51688392475437
 20
-272.1610732929985
 30
0.0
 11
-44.41473999036521
 21
-272.0589293586094
 31
0.0
  0
LINE
  5
58DE
330
574E
100
AcDbEntity
  8
0
 62
     0
100
AcDbLine
 10
-43.36339477951361
 20
-271.0075841477578
 30
0.0
 11
-42.46862559006059
 21
-270.1128149583047
 31
0.0
  0
LINE
  5
58DF
330
574E
100
AcDbEntity
  8
0
 62
     0
100
AcDbLine
 10
-44.4147399903652
 20
-272.0589293586093
 30
0.0
 11
-43.78274548416323
 21
-271.4269348524073
 31
0.0
  0
LINE
  5
58E0
330
574E
100
AcDbEntity
  8
0
 62
     0
100
AcDbLine
 10
-44.5616358491893
 20
-272.0732426959609
 30
0.0
 11
-44.45949191480012
 21
-271.9710987615718
 31
0.0
  0
LINE
  5
58E1
330
574E
100
AcDbEntity
  8
0
 62
     0
100
AcDbLine
 10
-43.4959773009861
 20
-271.0075841477578
 30
0.0
 11
-42.60120811153304
 21
-270.1128149583047
 31
0.0
  0
LINE
  5
58E2
330
574E
100
AcDbEntity
  8
0
 62
     0
100
AcDbLine
 10
-44.45949191480013
 20
-271.9710987615718
 30
0.0
 11
-43.82749740859814
 21
-271.3391042553698
 31
0.0
  0
LINE
  5
58E3
330
574E
100
AcDbEntity
  8
0
 62
     0
100
AcDbLine
 10
-44.60638777362423
 20
-271.9854120989233
 30
0.0
 11
-44.50424383923505
 21
-271.8832681645342
 31
0.0
  0
LINE
  5
58E4
330
574E
100
AcDbEntity
  8
0
 62
     0
100
AcDbLine
 10
-43.62855982245858
 20
-271.0075841477578
 30
0.0
 11
-42.73379063300552
 21
-270.1128149583047
 31
0.0
  0
LINE
  5
58E5
330
574E
100
AcDbEntity
  8
0
 62
     0
100
AcDbLine
 10
-44.50424383923506
 20
-271.8832681645342
 30
0.0
 11
-43.87224933303307
 21
-271.2512736583323
 31
0.0
  0
LINE
  5
58E6
330
574E
100
AcDbEntity
  8
0
 62
     0
100
AcDbLine
 10
-44.65113969805915
 20
-271.8975815018858
 30
0.0
 11
-44.54899576366996
 21
-271.7954375674967
 31
0.0
  0
LINE
  5
58E7
330
574E
100
AcDbEntity
  8
0
 62
     0
100
AcDbLine
 10
-43.76114234393106
 20
-271.0075841477578
 30
0.0
 11
-42.86637315447801
 21
-270.1128149583047
 31
0.0
  0
LINE
  5
58E8
330
574E
100
AcDbEntity
  8
0
 62
     0
100
AcDbLine
 10
-44.54899576366997
 20
-271.7954375674967
 30
0.0
 11
-43.91700125746799
 21
-271.1634430612947
 31
0.0
  0
LINE
  5
58E9
330
574E
100
AcDbEntity
  8
0
 62
     0
100
AcDbLine
 10
-44.69589162249408
 20
-271.8097509048483
 30
0.0
 11
-44.5937476881049
 21
-271.7076069704591
 31
0.0
  0
LINE
  5
58EA
330
574E
100
AcDbEntity
  8
0
 62
     0
100
AcDbLine
 10
-43.89372486540355
 20
-271.0075841477578
 30
0.0
 11
-42.99895567595049
 21
-270.1128149583047
 31
0.0
  0
LINE
  5
58EB
330
574E
100
AcDbEntity
  8
0
 62
     0
100
AcDbLine
 10
-44.59374768810491
 20
-271.7076069704591
 30
0.0
 11
-43.96175318190293
 21
-271.0756124642572
 31
0.0
  0
LINE
  5
58EC
330
574E
100
AcDbEntity
  8
0
 62
     0
100
AcDbLine
 10
-44.74064354692899
 20
-271.7219203078107
 30
0.0
 11
-44.63849961253981
 21
-271.6197763734216
 31
0.0
  0
LINE
  5
58ED
330
574E
100
AcDbEntity
  8
0
 62
     0
100
AcDbLine
 10
-44.02630738687596
 20
-271.0075841477577
 30
0.0
 11
-43.13153819742297
 21
-270.1128149583047
 31
0.0
  0
LINE
  5
58EE
330
574E
100
AcDbEntity
  8
0
 62
     0
100
AcDbLine
 10
-44.63849961253983
 20
-271.6197763734216
 30
0.0
 11
-44.02630738687603
 21
-271.0075841477578
 31
0.0
  0
LINE
  5
58EF
330
574E
100
AcDbEntity
  8
0
 62
     0
100
AcDbLine
 10
-44.78539547136391
 20
-271.6340897107732
 30
0.0
 11
-44.68325153697474
 21
-271.5319457763841
 31
0.0
  0
LINE
  5
58F0
330
574E
100
AcDbEntity
  8
0
 62
     0
100
AcDbLine
 10
-44.15888990834845
 20
-271.0075841477577
 30
0.0
 11
-43.26412071889542
 21
-270.1128149583047
 31
0.0
  0
LINE
  5
58F1
330
574E
100
AcDbEntity
  8
0
 62
     0
100
AcDbLine
 10
-44.68325153697477
 20
-271.531945776384
 30
0.0
 11
-44.15888990834848
 21
-271.0075841477578
 31
0.0
  0
LINE
  5
58F2
330
574E
100
AcDbEntity
  8
0
 62
     0
100
AcDbLine
 10
-44.83014739579885
 20
-271.5462591137356
 30
0.0
 11
-44.72800346140967
 21
-271.4441151793465
 31
0.0
  0
LINE
  5
58F3
330
574E
100
AcDbEntity
  8
0
 62
     0
100
AcDbLine
 10
-44.29147242982091
 20
-271.0075841477577
 30
0.0
 11
-43.39670324036791
 21
-270.1128149583047
 31
0.0
  0
LINE
  5
58F4
330
574E
100
AcDbEntity
  8
0
 62
     0
100
AcDbLine
 10
-44.72800346140968
 20
-271.4441151793465
 30
0.0
 11
-44.29147242982097
 21
-271.0075841477578
 31
0.0
  0
LINE
  5
58F5
330
574E
100
AcDbEntity
  8
0
 62
     0
100
AcDbLine
 10
-44.87489932023376
 20
-271.4584285166981
 30
0.0
 11
-44.7727553858446
 21
-271.3562845823089
 31
0.0
  0
LINE
  5
58F6
330
574E
100
AcDbEntity
  8
0
 62
     0
100
AcDbLine
 10
-44.42405495129341
 20
-271.0075841477577
 30
0.0
 11
-43.5292857618404
 21
-270.1128149583047
 31
0.0
  0
LINE
  5
58F7
330
574E
100
AcDbEntity
  8
0
 62
     0
100
AcDbLine
 10
-44.77275538584461
 20
-271.3562845823089
 30
0.0
 11
-44.42405495129345
 21
-271.0075841477578
 31
0.0
  0
LINE
  5
58F8
330
574E
100
AcDbEntity
  8
0
 62
     0
100
AcDbLine
 10
-44.91965124466869
 20
-271.3705979196606
 30
0.0
 11
-44.81750731027952
 21
-271.2684539852714
 31
0.0
  0
LINE
  5
58F9
330
574E
100
AcDbEntity
  8
0
 62
     0
100
AcDbLine
 10
-44.55663747276587
 20
-271.0075841477577
 30
0.0
 11
-43.66186828331287
 21
-270.1128149583047
 31
0.0
  0
LINE
  5
58FA
330
574E
100
AcDbEntity
  8
0
 62
     0
100
AcDbLine
 10
-44.81750731027953
 20
-271.2684539852714
 30
0.0
 11
-44.55663747276593
 21
-271.0075841477578
 31
0.0
  0
LINE
  5
58FB
330
574E
100
AcDbEntity
  8
0
 62
     0
100
AcDbLine
 10
-44.96440316910361
 20
-271.282767322623
 30
0.0
 11
-44.86225923471444
 21
-271.1806233882338
 31
0.0
  0
LINE
  5
58FC
330
574E
100
AcDbEntity
  8
0
 62
     0
100
AcDbLine
 10
-44.68921999423836
 20
-271.0075841477577
 30
0.0
 11
-43.79445080478536
 21
-270.1128149583047
 31
0.0
  0
LINE
  5
58FD
330
574E
100
AcDbEntity
  8
0
 62
     0
100
AcDbLine
 10
-44.86225923471446
 20
-271.1806233882338
 30
0.0
 11
-44.68921999423842
 21
-271.0075841477578
 31
0.0
  0
LINE
  5
58FE
330
574E
100
AcDbEntity
  8
0
 62
     0
100
AcDbLine
 10
-45.00915509353854
 20
-271.1949367255854
 30
0.0
 11
-44.93619626528839
 21
-271.1219778973352
 31
0.0
  0
LINE
  5
58FF
330
574E
100
AcDbEntity
  8
0
 62
     0
100
AcDbLine
 10
-44.82180251571087
 20
-271.0075841477578
 30
0.0
 11
-43.92703332625781
 21
-270.1128149583047
 31
0.0
  0
LINE
  5
5900
330
574E
100
AcDbEntity
  8
0
 62
     0
100
AcDbLine
 10
-44.95438503718335
 20
-271.0075841477578
 30
0.0
 11
-44.0596158477303
 21
-270.1128149583047
 31
0.0
  0
LINE
  5
5901
330
574E
100
AcDbEntity
  8
0
 62
     0
100
AcDbLine
 10
-45.08696755865584
 20
-271.0075841477578
 30
0.0
 11
-44.19219836920278
 21
-270.1128149583047
 31
0.0
  0
LINE
  5
5902
330
574E
100
AcDbEntity
  8
0
 62
     0
100
AcDbLine
 10
-45.21955008012832
 20
-271.0075841477578
 30
0.0
 11
-44.32478089067527
 21
-270.1128149583047
 31
0.0
  0
LINE
  5
5903
330
574E
100
AcDbEntity
  8
0
 62
     0
100
AcDbLine
 10
-45.23372463886881
 20
-270.8891761850257
 30
0.0
 11
-44.45736341214774
 21
-270.1128149583047
 31
0.0
  0
LINE
  5
5904
330
574E
100
AcDbEntity
  8
0
 62
     0
100
AcDbLine
 10
-45.23372463886881
 20
-270.7565936635533
 30
0.0
 11
-44.5899459336202
 21
-270.1128149583047
 31
0.0
  0
LINE
  5
5905
330
574E
100
AcDbEntity
  8
0
 62
     0
100
AcDbLine
 10
-45.23372463886881
 20
-270.6240111420808
 30
0.0
 11
-44.72252845509268
 21
-270.1128149583047
 31
0.0
  0
LINE
  5
5906
330
574E
100
AcDbEntity
  8
0
 62
     0
100
AcDbLine
 10
-45.23372463886881
 20
-270.4914286206083
 30
0.0
 11
-44.85511097656517
 21
-270.1128149583047
 31
0.0
  0
LINE
  5
5907
330
574E
100
AcDbEntity
  8
0
 62
     0
100
AcDbLine
 10
-45.2337246388688
 20
-270.3588460991359
 30
0.0
 11
-44.98769349803765
 21
-270.1128149583047
 31
0.0
  0
LINE
  5
5908
330
574E
100
AcDbEntity
  8
0
 62
     0
100
AcDbLine
 10
-45.2337246388688
 20
-270.2262635776634
 30
0.0
 11
-45.12027601951014
 21
-270.1128149583047
 31
0.0
  0
LINE
  5
5909
330
574E
100
AcDbEntity
  8
0
 62
     0
100
AcDbLine
 10
-39.27512850824
 20
-279.5146574163695
 30
0.0
 11
-38.5413666900566
 21
-278.7808955981861
 31
0.0
  0
LINE
  5
590A
330
574E
100
AcDbEntity
  8
0
 62
     0
100
AcDbLine
 10
-39.16241960701883
 20
-279.5345310366208
 30
0.0
 11
-38.42865778883542
 21
-278.8007692184374
 31
0.0
  0
LINE
  5
590B
330
574E
100
AcDbEntity
  8
0
 62
     0
100
AcDbLine
 10
-39.04971070579762
 20
-279.5544046568721
 30
0.0
 11
-38.31594888761424
 21
-278.8206428386887
 31
0.0
  0
LINE
  5
590C
330
574E
100
AcDbEntity
  8
0
 62
     0
100
AcDbLine
 10
-38.93700180457646
 20
-279.5742782771234
 30
0.0
 11
-38.20323998639308
 21
-278.84051645894
 31
0.0
  0
LINE
  5
590D
330
574E
100
AcDbEntity
  8
0
 62
     0
100
AcDbLine
 10
-38.82429290335529
 20
-279.5941518973747
 30
0.0
 11
-38.0905310851719
 21
-278.8603900791913
 31
0.0
  0
LINE
  5
590E
330
574E
100
AcDbEntity
  8
0
 62
     0
100
AcDbLine
 10
-38.71158400213412
 20
-279.614025517626
 30
0.0
 11
-37.97782218395072
 21
-278.8802636994426
 31
0.0
  0
LINE
  5
590F
330
574E
100
AcDbEntity
  8
0
 62
     0
100
AcDbLine
 10
-38.59887510091292
 20
-279.6338991378773
 30
0.0
 11
-37.86511328272954
 21
-278.9001373196939
 31
0.0
  0
LINE
  5
5910
330
574E
100
AcDbEntity
  8
0
 62
     0
100
AcDbLine
 10
-38.48616619969174
 20
-279.6537727581286
 30
0.0
 11
-37.75240438150836
 21
-278.9200109399452
 31
0.0
  0
LINE
  5
5911
330
574E
100
AcDbEntity
  8
0
 62
     0
100
AcDbLine
 10
-38.37345729847058
 20
-279.6736463783799
 30
0.0
 11
-37.63969548028717
 21
-278.9398845601965
 31
0.0
  0
LINE
  5
5912
330
574E
100
AcDbEntity
  8
0
 62
     0
100
AcDbLine
 10
-38.26074839724942
 20
-279.6935199986312
 30
0.0
 11
-37.526986579066
 21
-278.9597581804478
 31
0.0
  0
LINE
  5
5913
330
574E
100
AcDbEntity
  8
0
 62
     0
100
AcDbLine
 10
-38.14803949602821
 20
-279.7133936188825
 30
0.0
 11
-37.41427767784482
 21
-278.9796318006991
 31
0.0
  0
LINE
  5
5914
330
574E
100
AcDbEntity
  8
0
 62
     0
100
AcDbLine
 10
-38.03533059480704
 20
-279.7332672391338
 30
0.0
 11
-37.30156877662363
 21
-278.9995054209504
 31
0.0
  0
LINE
  5
5915
330
574E
100
AcDbEntity
  8
0
 62
     0
100
AcDbLine
 10
-37.92262169358588
 20
-279.7531408593851
 30
0.0
 11
-37.18885987540245
 21
-279.0193790412017
 31
0.0
  0
LINE
  5
5916
330
574E
100
AcDbEntity
  8
0
 62
     0
100
AcDbLine
 10
-37.80991279236471
 20
-279.7730144796364
 30
0.0
 11
-37.07615097418127
 21
-279.039252661453
 31
0.0
  0
LINE
  5
5917
330
574E
100
AcDbEntity
  8
0
 62
     0
100
AcDbLine
 10
-37.6972038911435
 20
-279.7928880998877
 30
0.0
 11
-36.96344207296009
 21
-279.0591262817043
 31
0.0
  0
LINE
  5
5918
330
574E
100
AcDbEntity
  8
0
 62
     0
100
AcDbLine
 10
-37.58449498992233
 20
-279.812761720139
 30
0.0
 11
-36.85073317173891
 21
-279.0789999019556
 31
0.0
  0
LINE
  5
5919
330
574E
100
AcDbEntity
  8
0
 62
     0
100
AcDbLine
 10
-37.47178608870117
 20
-279.8326353403903
 30
0.0
 11
-36.73802427051778
 21
-279.0988735222069
 31
0.0
  0
LINE
  5
591A
330
574E
100
AcDbEntity
  8
0
 62
     0
100
AcDbLine
 10
-37.35907718748001
 20
-279.8525089606416
 30
0.0
 11
-36.62531536929659
 21
-279.1187471424582
 31
0.0
  0
LINE
  5
591B
330
574E
100
AcDbEntity
  8
0
 62
     0
100
AcDbLine
 10
-37.24636828625879
 20
-279.8723825808929
 30
0.0
 11
-36.51260646807542
 21
-279.1386207627095
 31
0.0
  0
LINE
  5
591C
330
574E
100
AcDbEntity
  8
0
 62
     0
100
AcDbLine
 10
-37.13365938503763
 20
-279.8922562011442
 30
0.0
 11
-36.39989756685424
 21
-279.1584943829608
 31
0.0
  0
LINE
  5
591D
330
574E
100
AcDbEntity
  8
0
 62
     0
100
AcDbLine
 10
-37.02095048381647
 20
-279.9121298213955
 30
0.0
 11
-36.28718866563306
 21
-279.1783680032121
 31
0.0
  0
LINE
  5
591E
330
574E
100
AcDbEntity
  8
0
 62
     0
100
AcDbLine
 10
-36.9082415825953
 20
-279.9320034416468
 30
0.0
 11
-36.17447976441188
 21
-279.1982416234634
 31
0.0
  0
LINE
  5
591F
330
574E
100
AcDbEntity
  8
0
 62
     0
100
AcDbLine
 10
-36.79553268137409
 20
-279.9518770618981
 30
0.0
 11
-36.0617708631907
 21
-279.2181152437147
 31
0.0
  0
LINE
  5
5920
330
574E
100
AcDbEntity
  8
0
 62
     0
100
AcDbLine
 10
-36.68282378015292
 20
-279.9717506821494
 30
0.0
 11
-35.94906196196951
 21
-279.237988863966
 31
0.0
  0
LINE
  5
5921
330
574E
100
AcDbEntity
  8
0
 62
     0
100
AcDbLine
 10
-36.57011487893175
 20
-279.9916243024007
 30
0.0
 11
-35.83635306074833
 21
-279.2578624842173
 31
0.0
  0
LINE
  5
5922
330
574E
100
AcDbEntity
  8
0
 62
     0
100
AcDbLine
 10
-36.45740597771059
 20
-280.011497922652
 30
0.0
 11
-35.72364415952716
 21
-279.2777361044686
 31
0.0
  0
LINE
  5
5923
330
574E
100
AcDbEntity
  8
0
 62
     0
100
AcDbLine
 10
-36.34469707648938
 20
-280.0313715429033
 30
0.0
 11
-35.61093525830597
 21
-279.2976097247199
 31
0.0
  0
LINE
  5
5924
330
574E
100
AcDbEntity
  8
0
 62
     0
100
AcDbLine
 10
-36.23198817526822
 20
-280.0512451631546
 30
0.0
 11
-35.49822635708479
 21
-279.3174833449712
 31
0.0
  0
LINE
  5
5925
330
574E
100
AcDbEntity
  8
0
 62
     0
100
AcDbLine
 10
-36.11927927404706
 20
-280.0711187834059
 30
0.0
 11
-35.38551745586361
 21
-279.3373569652225
 31
0.0
  0
LINE
  5
5926
330
574E
100
AcDbEntity
  8
0
 62
     0
100
AcDbLine
 10
-36.00657037282589
 20
-280.0909924036572
 30
0.0
 11
-35.27280855464243
 21
-279.3572305854738
 31
0.0
  0
LINE
  5
5927
330
574E
100
AcDbEntity
  8
0
 62
     0
100
AcDbLine
 10
-35.89386147160467
 20
-280.1108660239085
 30
0.0
 11
-35.16009965342125
 21
-279.3771042057251
 31
0.0
  0
LINE
  5
5928
330
574E
100
AcDbEntity
  8
0
 62
     0
100
AcDbLine
 10
-35.78115257038351
 20
-280.1307396441598
 30
0.0
 11
-35.04739075220007
 21
-279.3969778259764
 31
0.0
  0
LINE
  5
5929
330
574E
100
AcDbEntity
  8
0
 62
     0
100
AcDbLine
 10
-35.66844366916234
 20
-280.1506132644111
 30
0.0
 11
-34.93468185097889
 21
-279.4168514462277
 31
0.0
  0
LINE
  5
592A
330
574E
100
AcDbEntity
  8
0
 62
     0
100
AcDbLine
 10
-35.55573476794118
 20
-280.1704868846624
 30
0.0
 11
-34.82197294975771
 21
-279.436725066479
 31
0.0
  0
LINE
  5
592B
330
574E
100
AcDbEntity
  8
0
 62
     0
100
AcDbLine
 10
-35.44302586671997
 20
-280.1903605049137
 30
0.0
 11
-34.70926404853658
 21
-279.4565986867303
 31
0.0
  0
LINE
  5
592C
330
574E
100
AcDbEntity
  8
0
 62
     0
100
AcDbLine
 10
-35.3303169654988
 20
-280.210234125165
 30
0.0
 11
-34.59655514731539
 21
-279.4764723069816
 31
0.0
  0
LINE
  5
592D
330
574E
100
AcDbEntity
  8
0
 62
     0
100
AcDbLine
 10
-35.21760806427764
 20
-280.2301077454163
 30
0.0
 11
-34.48384624609421
 21
-279.496345927233
 31
0.0
  0
LINE
  5
592E
330
574E
100
AcDbEntity
  8
0
 62
     0
100
AcDbLine
 10
-35.10489916305647
 20
-280.2499813656676
 30
0.0
 11
-34.65961316436878
 21
-279.80469536698
 31
0.0
  0
LINE
  5
592F
330
574E
100
AcDbEntity
  8
0
 62
     0
100
AcDbLine
 10
-34.49507239555112
 20
-279.6401545981623
 30
0.0
 11
-34.37113734487303
 21
-279.5162195474842
 31
0.0
  0
LINE
  5
5930
330
574E
100
AcDbEntity
  8
0
 62
     0
100
AcDbLine
 10
-34.65961316436874
 20
-279.8046953669799
 30
0.0
 11
-34.49507239555113
 21
-279.6401545981623
 31
0.0
  0
LINE
  5
5931
330
574E
100
AcDbEntity
  8
0
 62
     0
100
AcDbLine
 10
-34.99219026183526
 20
-280.2698549859189
 30
0.0
 11
-34.61254978408334
 21
-279.890214508167
 31
0.0
  0
LINE
  5
5932
330
574E
100
AcDbEntity
  8
0
 62
     0
100
AcDbLine
 10
-34.4505443932725
 20
-279.7282091173562
 30
0.0
 11
-34.25842844365185
 21
-279.5360931677355
 31
0.0
  0
LINE
  5
5933
330
574E
100
AcDbEntity
  8
0
 62
     0
100
AcDbLine
 10
-34.61254978408327
 20
-279.8902145081669
 30
0.0
 11
-34.45054439327251
 21
-279.7282091173562
 31
0.0
  0
LINE
  5
5934
330
574E
100
AcDbEntity
  8
0
 62
     0
100
AcDbLine
 10
-34.8794813606141
 20
-280.2897286061702
 30
0.0
 11
-34.56548640379791
 21
-279.975733649354
 31
0.0
  0
LINE
  5
5935
330
574E
100
AcDbEntity
  8
0
 62
     0
100
AcDbLine
 10
-34.40601639099387
 20
-279.81626363655
 30
0.0
 11
-34.18212969867614
 21
-279.5923769442322
 31
0.0
  0
LINE
  5
5936
330
574E
100
AcDbEntity
  8
0
 62
     0
100
AcDbLine
 10
-34.5654864037978
 20
-279.975733649354
 30
0.0
 11
-34.4060163909939
 21
-279.81626363655
 31
0.0
  0
LINE
  5
5937
330
574E
100
AcDbEntity
  8
0
 62
     0
100
AcDbLine
 10
-34.76677245939293
 20
-280.3096022264215
 30
0.0
 11
-34.51842302351247
 21
-280.0612527905411
 31
0.0
  0
LINE
  5
5938
330
574E
100
AcDbEntity
  8
0
 62
     0
100
AcDbLine
 10
-34.36148838871525
 20
-279.9043181557439
 30
0.0
 11
-34.21610863625688
 21
-279.7589384032855
 31
0.0
  0
LINE
  5
5939
330
574E
100
AcDbEntity
  8
0
 62
     0
100
AcDbLine
 10
-34.51842302351233
 20
-280.0612527905409
 30
0.0
 11
-34.36148838871528
 21
-279.9043181557439
 31
0.0
  0
LINE
  5
593A
330
574E
100
AcDbEntity
  8
0
 62
     0
100
AcDbLine
 10
-34.65406355817177
 20
-280.3294758466728
 30
0.0
 11
-34.47135964322703
 21
-280.1467719317281
 31
0.0
  0
LINE
  5
593B
330
574E
100
AcDbEntity
  8
0
 62
     0
100
AcDbLine
 10
-34.31696038643663
 20
-279.9923726749377
 30
0.0
 11
-34.25008757383762
 21
-279.9254998623387
 31
0.0
  0
LINE
  5
593C
330
574E
100
AcDbEntity
  8
0
 62
     0
100
AcDbLine
 10
-34.47135964322686
 20
-280.1467719317279
 30
0.0
 11
-34.31696038643667
 21
-279.9923726749378
 31
0.0
  0
LINE
  5
593D
330
574E
100
AcDbEntity
  8
0
 62
     0
100
AcDbLine
 10
-34.54135465695056
 20
-280.3493494669242
 30
0.0
 11
-34.4242962629416
 21
-280.2322910729151
 31
0.0
  0
LINE
  5
593E
330
574E
100
AcDbEntity
  8
0
 62
     0
100
AcDbLine
 10
-34.42429626294139
 20
-280.232291072915
 30
0.0
 11
-34.27243238415805
 21
-280.0804271941316
 31
0.0
  0
LINE
  5
593F
330
574E
100
AcDbEntity
  8
0
 62
     0
100
AcDbLine
 10
-34.42864575572939
 20
-280.3692230871754
 30
0.0
 11
-34.37723288265617
 21
-280.3178102141022
 31
0.0
  0
LINE
  5
5940
330
574E
100
AcDbEntity
  8
0
 62
     0
100
AcDbLine
 10
-34.23763487951733
 20
-280.1782122109634
 30
0.0
 11
-34.22790438187941
 21
-280.1684817133254
 31
0.0
  0
LINE
  5
5941
330
574E
100
AcDbEntity
  8
0
 62
     0
100
AcDbLine
 10
-34.37723288265592
 20
-280.317810214102
 30
0.0
 11
-34.32222178119469
 21
-280.2627991126407
 31
0.0
  0
LINE
  5
5942
330
574E
100
AcDbEntity
  8
0
 62
     0
100
AcDbLine
 10
-34.3180454489991
 20
-280.2586227804452
 30
0.0
 11
-34.23763487951734
 21
-280.1782122109634
 31
0.0
  0
LINE
  5
5943
330
574E
100
AcDbEntity
  8
0
 62
     0
100
AcDbLine
 10
-34.33279649784393
 20
-280.4059563507625
 30
0.0
 11
-34.31594377963411
 21
-280.3891036325526
 31
0.0
  0
LINE
  5
5944
330
574E
100
AcDbEntity
  8
0
 62
     0
100
AcDbLine
 10
-34.31594377963405
 20
-280.3891036325526
 30
0.0
 11
-34.12832042519916
 21
-280.2014802781177
 31
0.0
  0
LINE
  5
5945
330
574E
100
AcDbEntity
  8
0
 62
     0
100
AcDbLine
 10
-34.2886183190611
 20
-280.4943606934521
 30
0.0
 11
-34.20326302751831
 21
-280.4090054019093
 31
0.0
  0
LINE
  5
5946
330
574E
100
AcDbEntity
  8
0
 62
     0
100
AcDbLine
 10
-34.01900597088106
 20
-280.224748345272
 30
0.0
 11
-34.00684354492805
 21
-280.2125859193191
 31
0.0
  0
LINE
  5
5947
330
574E
100
AcDbEntity
  8
0
 62
     0
100
AcDbLine
 10
-34.20326302751827
 20
-280.4090054019093
 30
0.0
 11
-34.01900597088101
 21
-280.224748345272
 31
0.0
  0
LINE
  5
5948
330
574E
100
AcDbEntity
  8
0
 62
     0
100
AcDbLine
 10
-34.24444014027825
 20
-280.5827650361417
 30
0.0
 11
-34.09058227540249
 21
-280.4289071712659
 31
0.0
  0
LINE
  5
5949
330
574E
100
AcDbEntity
  8
0
 62
     0
100
AcDbLine
 10
-33.90969151656292
 20
-280.2480164124263
 30
0.0
 11
-33.73652476279732
 21
-280.0748496586608
 31
0.0
  0
LINE
  5
594A
330
574E
100
AcDbEntity
  8
0
 62
     0
100
AcDbLine
 10
-34.09058227540246
 20
-280.4289071712659
 30
0.0
 11
-33.90969151656286
 21
-280.2480164124263
 31
0.0
  0
LINE
  5
594B
330
574E
100
AcDbEntity
  8
0
 62
     0
100
AcDbLine
 10
-34.20026196149541
 20
-280.6711693788314
 30
0.0
 11
-33.9779015232867
 21
-280.4488089406227
 31
0.0
  0
LINE
  5
594C
330
574E
100
AcDbEntity
  8
0
 62
     0
100
AcDbLine
 10
-33.80037706224471
 20
-280.2712844795807
 30
0.0
 11
-33.56665993146914
 21
-280.0375673488051
 31
0.0
  0
LINE
  5
594D
330
574E
100
AcDbEntity
  8
0
 62
     0
100
AcDbLine
 10
-33.97790152328667
 20
-280.4488089406226
 30
0.0
 11
-33.80037706224476
 21
-280.2712844795808
 31
0.0
  0
LINE
  5
594E
330
574E
100
AcDbEntity
  8
0
 62
     0
100
AcDbLine
 10
-34.15608378271257
 20
-280.759573721521
 30
0.0
 11
-33.86522077117088
 21
-280.4687107099793
 31
0.0
  0
LINE
  5
594F
330
574E
100
AcDbEntity
  8
0
 62
     0
100
AcDbLine
 10
-33.69106260792654
 20
-280.294552546735
 30
0.0
 11
-33.52248175268631
 21
-280.1259716914947
 31
0.0
  0
LINE
  5
5950
330
574E
100
AcDbEntity
  8
0
 62
     0
100
AcDbLine
 10
-33.86522077117085
 20
-280.4687107099793
 30
0.0
 11
-33.69106260792662
 21
-280.2945525467351
 31
0.0
  0
LINE
  5
5951
330
574E
100
AcDbEntity
  8
0
 62
     0
100
AcDbLine
 10
-34.11190560392971
 20
-280.8479780642106
 30
0.0
 11
-33.75254001905505
 21
-280.488612479336
 31
0.0
  0
LINE
  5
5952
330
574E
100
AcDbEntity
  8
0
 62
     0
100
AcDbLine
 10
-33.59453372366715
 20
-280.330606183948
 30
0.0
 11
-33.47830357390347
 21
-280.2143760341844
 31
0.0
  0
LINE
  5
5953
330
574E
100
AcDbEntity
  8
0
 62
     0
100
AcDbLine
 10
-33.75254001905507
 20
-280.4886124793359
 30
0.0
 11
-33.59453372366719
 21
-280.3306061839481
 31
0.0
  0
LINE
  5
5954
330
574E
100
AcDbEntity
  8
0
 62
     0
100
AcDbLine
 10
-34.06772742514688
 20
-280.9363824069003
 30
0.0
 11
-33.64145204273529
 21
-280.5101070244887
 31
0.0
  0
LINE
  5
5955
330
574E
100
AcDbEntity
  8
0
 62
     0
100
AcDbLine
 10
-33.62039977625162
 20
-280.489054758005
 30
0.0
 11
-33.43412539512061
 21
-280.302780376874
 31
0.0
  0
LINE
  5
5956
330
574E
100
AcDbEntity
  8
0
 62
     0
100
AcDbLine
 10
-33.64145204273528
 20
-280.5101070244887
 30
0.0
 11
-33.62039977625164
 21
-280.489054758005
 31
0.0
  0
LINE
  5
5957
330
574E
100
AcDbEntity
  8
0
 62
     0
100
AcDbLine
 10
-34.02354924636404
 20
-281.0247867495899
 30
0.0
 11
-33.38994721633778
 21
-280.3911847195636
 31
0.0
  0
LINE
  5
5958
330
574E
100
AcDbEntity
  8
0
 62
     0
100
AcDbLine
 10
-33.97937106758119
 20
-281.1131910922795
 30
0.0
 11
-33.34576903755494
 21
-280.4795890622533
 31
0.0
  0
LINE
  5
5959
330
574E
100
AcDbEntity
  8
0
 62
     0
100
AcDbLine
 10
-33.93519288879836
 20
-281.2015954349691
 30
0.0
 11
-33.30159085877209
 21
-280.567993404943
 31
0.0
  0
LINE
  5
595A
330
574E
100
AcDbEntity
  8
0
 62
     0
100
AcDbLine
 10
-33.89101471001551
 20
-281.2899997776588
 30
0.0
 11
-33.25741267998925
 21
-280.6563977476325
 31
0.0
  0
LINE
  5
595B
330
574E
100
AcDbEntity
  8
0
 62
     0
100
AcDbLine
 10
-33.84683653123266
 20
-281.3784041203485
 30
0.0
 11
-33.21323450120642
 21
-280.7448020903222
 31
0.0
  0
LINE
  5
595C
330
574E
100
AcDbEntity
  8
0
 62
     0
100
AcDbLine
 10
-33.80265835244982
 20
-281.4668084630381
 30
0.0
 11
-33.16905632242356
 21
-280.8332064330118
 31
0.0
  0
LINE
  5
595D
330
574E
100
AcDbEntity
  8
0
 62
     0
100
AcDbLine
 10
-33.75848017366698
 20
-281.5552128057277
 30
0.0
 11
-33.12487814364072
 21
-280.9216107757015
 31
0.0
  0
LINE
  5
595E
330
574E
100
AcDbEntity
  8
0
 62
     0
100
AcDbLine
 10
-33.71430199488414
 20
-281.6436171484174
 30
0.0
 11
-33.08069996485789
 21
-281.010015118391
 31
0.0
  0
LINE
  5
595F
330
574E
100
AcDbEntity
  8
0
 62
     0
100
AcDbLine
 10
-33.6701238161013
 20
-281.732021491107
 30
0.0
 11
-33.03652178607503
 21
-281.0984194610807
 31
0.0
  0
LINE
  5
5960
330
574E
100
AcDbEntity
  8
0
 62
     0
100
AcDbLine
 10
-33.62594563731845
 20
-281.8204258337966
 30
0.0
 11
-32.9923436072922
 21
-281.1868238037704
 31
0.0
  0
LINE
  5
5961
330
574E
100
AcDbEntity
  8
0
 62
     0
100
AcDbLine
 10
-33.58176745853561
 20
-281.9088301764862
 30
0.0
 11
-32.94816542850937
 21
-281.2752281464601
 31
0.0
  0
LINE
  5
5962
330
574E
100
AcDbEntity
  8
0
 62
     0
100
AcDbLine
 10
-33.53758927975277
 20
-281.9972345191759
 30
0.0
 11
-32.90398724972653
 21
-281.3636324891497
 31
0.0
  0
LINE
  5
5963
330
574E
100
AcDbEntity
  8
0
 62
     0
100
AcDbLine
 10
-33.49341110096992
 20
-282.0856388618656
 30
0.0
 11
-32.85980907094367
 21
-281.4520368318393
 31
0.0
  0
LINE
  5
5964
330
574E
100
AcDbEntity
  8
0
 62
     0
100
AcDbLine
 10
-33.44923292218708
 20
-282.1740432045552
 30
0.0
 11
-32.81563089216084
 21
-281.5404411745289
 31
0.0
  0
LINE
  5
5965
330
574E
100
AcDbEntity
  8
0
 62
     0
100
AcDbLine
 10
-33.40505474340423
 20
-282.2624475472448
 30
0.0
 11
-32.771452713378
 21
-281.6288455172186
 31
0.0
  0
LINE
  5
5966
330
574E
100
AcDbEntity
  8
0
 62
     0
100
AcDbLine
 10
-33.36087656462139
 20
-282.3508518899345
 30
0.0
 11
-32.72727453459515
 21
-281.7172498599082
 31
0.0
  0
LINE
  5
5967
330
574E
100
AcDbEntity
  8
0
 62
     0
100
AcDbLine
 10
-33.31669838583855
 20
-282.4392562326241
 30
0.0
 11
-32.68309635581231
 21
-281.8056542025978
 31
0.0
  0
LINE
  5
5968
330
574E
100
AcDbEntity
  8
0
 62
     0
100
AcDbLine
 10
-33.27252020705571
 20
-282.5276605753137
 30
0.0
 11
-32.63891817702948
 21
-281.8940585452875
 31
0.0
  0
LINE
  5
5969
330
574E
100
AcDbEntity
  8
0
 62
     0
100
AcDbLine
 10
-33.22834202827287
 20
-282.6160649180033
 30
0.0
 11
-32.59473999824662
 21
-281.9824628879771
 31
0.0
  0
LINE
  5
596A
330
574E
100
AcDbEntity
  8
0
 62
     0
100
AcDbLine
 10
-33.18416384949003
 20
-282.704469260693
 30
0.0
 11
-32.55056181946378
 21
-282.0708672306667
 31
0.0
  0
LINE
  5
596B
330
574E
100
AcDbEntity
  8
0
 62
     0
100
AcDbLine
 10
-33.13998567070718
 20
-282.7928736033826
 30
0.0
 11
-32.50638364068095
 21
-282.1592715733564
 31
0.0
  0
LINE
  5
596C
330
574E
100
AcDbEntity
  8
0
 62
     0
100
AcDbLine
 10
-33.09580749192433
 20
-282.8812779460723
 30
0.0
 11
-32.46220546189811
 21
-282.247675916046
 31
0.0
  0
LINE
  5
596D
330
574E
100
AcDbEntity
  8
0
 62
     0
100
AcDbLine
 10
-33.0516293131415
 20
-282.9696822887619
 30
0.0
 11
-32.41802728311526
 21
-282.3360802587357
 31
0.0
  0
LINE
  5
596E
330
574E
100
AcDbEntity
  8
0
 62
     0
100
AcDbLine
 10
-33.00745113435866
 20
-283.0580866314516
 30
0.0
 11
-32.37384910433242
 21
-282.4244846014253
 31
0.0
  0
LINE
  5
596F
330
574E
100
AcDbEntity
  8
0
 62
     0
100
AcDbLine
 10
-32.96327295557581
 20
-283.1464909741411
 30
0.0
 11
-32.32967092554959
 21
-282.5128889441149
 31
0.0
  0
LINE
  5
5970
330
574E
100
AcDbEntity
  8
0
 62
     0
100
AcDbLine
 10
-32.91909477679296
 20
-283.2348953168308
 30
0.0
 11
-32.28549274676673
 21
-282.6012932868045
 31
0.0
  0
LINE
  5
5971
330
574E
100
AcDbEntity
  8
0
 62
     0
100
AcDbLine
 10
-32.87491659801013
 20
-283.3232996595204
 30
0.0
 11
-32.24131456798389
 21
-282.6896976294942
 31
0.0
  0
LINE
  5
5972
330
574E
100
AcDbEntity
  8
0
 62
     0
100
AcDbLine
 10
-32.83073841922728
 20
-283.4117040022101
 30
0.0
 11
-32.19713638920106
 21
-282.7781019721838
 31
0.0
  0
LINE
  5
5973
330
574E
100
AcDbEntity
  8
0
 62
     0
100
AcDbLine
 10
-32.78656024044444
 20
-283.5001083448997
 30
0.0
 11
-32.1529582104182
 21
-282.8665063148735
 31
0.0
  0
LINE
  5
5974
330
574E
100
AcDbEntity
  8
0
 62
     0
100
AcDbLine
 10
-32.7423820616616
 20
-283.5885126875893
 30
0.0
 11
-32.10878003163537
 21
-282.9549106575631
 31
0.0
  0
LINE
  5
5975
330
574E
100
AcDbEntity
  8
0
 62
     0
100
AcDbLine
 10
-32.69820388287876
 20
-283.6769170302789
 30
0.0
 11
-32.06460185285254
 21
-283.0433150002527
 31
0.0
  0
LINE
  5
5976
330
574E
100
AcDbEntity
  8
0
 62
     0
100
AcDbLine
 10
-32.65402570409591
 20
-283.7653213729686
 30
0.0
 11
-32.0204236740697
 21
-283.1317193429424
 31
0.0
  0
LINE
  5
5977
330
574E
100
AcDbEntity
  8
0
 62
     0
100
AcDbLine
 10
-32.60984752531307
 20
-283.8537257156582
 30
0.0
 11
-31.97624549528684
 21
-283.220123685632
 31
0.0
  0
LINE
  5
5978
330
574E
100
AcDbEntity
  8
0
 62
     0
100
AcDbLine
 10
-32.56566934653022
 20
-283.9421300583479
 30
0.0
 11
-31.93206731650401
 21
-283.3085280283216
 31
0.0
  0
LINE
  5
5979
330
574E
100
AcDbEntity
  8
0
 62
     0
100
AcDbLine
 10
-32.52149116774738
 20
-284.0305344010375
 30
0.0
 11
-31.88788913772117
 21
-283.3969323710113
 31
0.0
  0
LINE
  5
597A
330
574E
100
AcDbEntity
  8
0
 62
     0
100
AcDbLine
 10
-32.47731298896454
 20
-284.1189387437271
 30
0.0
 11
-31.84371095893832
 21
-283.4853367137009
 31
0.0
  0
LINE
  5
597B
330
574E
100
AcDbEntity
  8
0
 62
     0
100
AcDbLine
 10
-32.43313481018169
 20
-284.2073430864168
 30
0.0
 11
-31.79953278015548
 21
-283.5737410563906
 31
0.0
  0
LINE
  5
597C
330
574E
100
AcDbEntity
  8
0
 62
     0
100
AcDbLine
 10
-32.38895663139885
 20
-284.2957474291064
 30
0.0
 11
-31.75535460137264
 21
-283.6621453990801
 31
0.0
  0
LINE
  5
597D
330
574E
100
AcDbEntity
  8
0
 62
     0
100
AcDbLine
 10
-32.34477845261601
 20
-284.384151771796
 30
0.0
 11
-31.71117642258979
 21
-283.7505497417698
 31
0.0
  0
LINE
  5
597E
330
574E
100
AcDbEntity
  8
0
 62
     0
100
AcDbLine
 10
-32.30060027383317
 20
-284.4725561144857
 30
0.0
 11
-31.66699824380695
 21
-283.8389540844595
 31
0.0
  0
LINE
  5
597F
330
574E
100
AcDbEntity
  8
0
 62
     0
100
AcDbLine
 10
-32.25642209505032
 20
-284.5609604571753
 30
0.0
 11
-31.62282006502412
 21
-283.9273584271491
 31
0.0
  0
LINE
  5
5980
330
574E
100
AcDbEntity
  8
0
 62
     0
100
AcDbLine
 10
-32.21224391626749
 20
-284.649364799865
 30
0.0
 11
-31.57864188624126
 21
-284.0157627698387
 31
0.0
  0
LINE
  5
5981
330
574E
100
AcDbEntity
  8
0
 62
     0
100
AcDbLine
 10
-32.16806573748464
 20
-284.7377691425545
 30
0.0
 11
-31.53446370745843
 21
-284.1041671125284
 31
0.0
  0
LINE
  5
5982
330
574E
100
AcDbEntity
  8
0
 62
     0
100
AcDbLine
 10
-32.1238875587018
 20
-284.8261734852442
 30
0.0
 11
-31.49028552867559
 21
-284.192571455218
 31
0.0
  0
LINE
  5
5983
330
574E
100
AcDbEntity
  8
0
 62
     0
100
AcDbLine
 10
-32.07970937991895
 20
-284.9145778279338
 30
0.0
 11
-31.44610734989275
 21
-284.2809757979077
 31
0.0
  0
LINE
  5
5984
330
574E
100
AcDbEntity
  8
0
 62
     0
100
AcDbLine
 10
-32.03553120113612
 20
-285.0029821706235
 30
0.0
 11
-31.4019291711099
 21
-284.3693801405972
 31
0.0
  0
LINE
  5
5985
330
574E
100
AcDbEntity
  8
0
 62
     0
100
AcDbLine
 10
-31.99135302235327
 20
-285.0913865133131
 30
0.0
 11
-31.35775099232706
 21
-284.4577844832869
 31
0.0
  0
LINE
  5
5986
330
574E
100
AcDbEntity
  8
0
 62
     0
100
AcDbLine
 10
-31.94717484357042
 20
-285.1797908560028
 30
0.0
 11
-31.31357281354423
 21
-284.5461888259766
 31
0.0
  0
LINE
  5
5987
330
574E
100
AcDbEntity
  8
0
 62
     0
100
AcDbLine
 10
-31.90299666478758
 20
-285.2681951986924
 30
0.0
 11
-31.26939463476138
 21
-284.6345931686662
 31
0.0
  0
LINE
  5
5988
330
574E
100
AcDbEntity
  8
0
 62
     0
100
AcDbLine
 10
-31.85881848600474
 20
-285.356599541382
 30
0.0
 11
-31.22521645597854
 21
-284.7229975113558
 31
0.0
  0
LINE
  5
5989
330
574E
100
AcDbEntity
  8
0
 62
     0
100
AcDbLine
 10
-31.8146403072219
 20
-285.4450038840717
 30
0.0
 11
-31.1810382771957
 21
-284.8114018540455
 31
0.0
  0
LINE
  5
598A
330
574E
100
AcDbEntity
  8
0
 62
     0
100
AcDbLine
 10
-31.77046212843906
 20
-285.5334082267613
 30
0.0
 11
-31.13686009841285
 21
-284.8998061967351
 31
0.0
  0
LINE
  5
598B
330
574E
100
AcDbEntity
  8
0
 62
     0
100
AcDbLine
 10
-31.72628394965622
 20
-285.6218125694509
 30
0.0
 11
-31.09268191963001
 21
-284.9882105394248
 31
0.0
  0
LINE
  5
598C
330
574E
100
AcDbEntity
  8
0
 62
     0
100
AcDbLine
 10
-31.68210577087337
 20
-285.7102169121406
 30
0.0
 11
-31.04850374084718
 21
-285.0766148821143
 31
0.0
  0
LINE
  5
598D
330
574E
100
AcDbEntity
  8
0
 62
     0
100
AcDbLine
 10
-31.63792759209052
 20
-285.7986212548302
 30
0.0
 11
-31.00432556206434
 21
-285.165019224804
 31
0.0
  0
LINE
  5
598E
330
574E
100
AcDbEntity
  8
0
 62
     0
100
AcDbLine
 10
-31.59374941330769
 20
-285.8870255975199
 30
0.0
 11
-30.96014738328149
 21
-285.2534235674937
 31
0.0
  0
LINE
  5
598F
330
574E
100
AcDbEntity
  8
0
 62
     0
100
AcDbLine
 10
-31.50332316272872
 20
-285.9291818684134
 30
0.0
 11
-30.91596920449865
 21
-285.3418279101833
 31
0.0
  0
LINE
  5
5990
330
574E
100
AcDbEntity
  8
0
 62
     0
100
AcDbLine
 10
-31.37157195278595
 20
-285.9300131799431
 30
0.0
 11
-30.87179102571581
 21
-285.4302322528729
 31
0.0
  0
LINE
  5
5991
330
574E
100
AcDbEntity
  8
0
 62
     0
100
AcDbLine
 10
-31.23982074284319
 20
-285.9308444914728
 30
0.0
 11
-30.82761284693296
 21
-285.5186365955626
 31
0.0
  0
LINE
  5
5992
330
574E
100
AcDbEntity
  8
0
 62
     0
100
AcDbLine
 10
-31.25232952633624
 20
-286.0759357964383
 30
0.0
 11
-31.16460760049095
 21
-285.988213870593
 31
0.0
  0
LINE
  5
5993
330
574E
100
AcDbEntity
  8
0
 62
     0
100
AcDbLine
 10
-31.10806953290039
 20
-285.9316758030024
 30
0.0
 11
-30.78343466815012
 21
-285.6070409382521
 31
0.0
  0
LINE
  5
5994
330
574E
100
AcDbEntity
  8
0
 62
     0
100
AcDbLine
 10
-31.15811563536502
 20
-285.981721905467
 30
0.0
 11
-31.10806953290039
 21
-285.9316758030025
 31
0.0
  0
LINE
  5
5995
330
574E
100
AcDbEntity
  8
0
 62
     0
100
AcDbLine
 10
-31.12177404626793
 20
-286.0779628378424
 30
0.0
 11
-31.0328563905482
 21
-285.9890451821227
 31
0.0
  0
LINE
  5
5996
330
574E
100
AcDbEntity
  8
0
 62
     0
100
AcDbLine
 10
-30.97631832295762
 20
-285.9325071145322
 30
0.0
 11
-30.73925648936729
 21
-285.6954452809418
 31
0.0
  0
LINE
  5
5997
330
574E
100
AcDbEntity
  8
0
 62
     0
100
AcDbLine
 10
-30.99002283632514
 20
-286.0787941493721
 30
0.0
 11
-30.93156545569635
 21
-286.0203367687433
 31
0.0
  0
LINE
  5
5998
330
574E
100
AcDbEntity
  8
0
 62
     0
100
AcDbLine
 10
-30.84456711301486
 20
-285.9333384260619
 30
0.0
 11
-30.69507831058443
 21
-285.7838496236314
 31
0.0
  0
LINE
  5
5999
330
574E
100
AcDbEntity
  8
0
 62
     0
100
AcDbLine
 10
-30.7128159030721
 20
-285.9341697375916
 30
0.0
 11
-30.6509001318016
 21
-285.8722539663211
 31
0.0
  0
ENDBLK
  5
599A
330
574E
100
AcDbEntity
  8
0
100
AcDbBlockEnd
  0
BLOCK
  5
5B70
330
5B64
100
AcDbEntity
  8
0
 62
     7
100
AcDbBlockBegin
  2
*D10
 70
     1
 10
0.0
 20
0.0
 30
0.0
  3
*D10
  1

  0
LINE
  5
60E3
330
5B64
100
AcDbEntity
  8
0
 62
     0
370
    -2
100
AcDbLine
 10
181.9377841851646
 20
1000.625022476855
 30
0.0
 11
160.9814362651607
 21
1000.625022476855
 31
0.0
  0
LINE
  5
60E4
330
5B64
100
AcDbEntity
  8
0
 62
     0
370
    -2
100
AcDbLine
 10
172.4182832937295
 20
1008.614292293394
 30
0.0
 11
160.9814362651607
 21
1008.614292293394
 31
0.0
  0
LINE
  5
60E5
330
5B64
100
AcDbEntity
  8
0
 62
     0
370
    -2
100
AcDbLine
 10
163.2314362651607
 20
1002.875022476855
 30
0.0
 11
163.2314362651607
 21
1006.364292293394
 31
0.0
  0
LINE
  5
60E6
330
5B64
100
AcDbEntity
  8
0
 62
     0
370
    -2
100
AcDbLine
 10
160.9814362651607
 20
995.6727427629717
 30
0.0
 11
163.2314362651607
 21
995.6727427629717
 31
0.0
  0
LINE
  5
60E7
330
5B64
100
AcDbEntity
  8
0
 62
     0
370
    -2
100
AcDbLine
 10
163.2314362651607
 20
995.6727427629717
 30
0.0
 11
163.2314362651607
 21
1000.625022476855
 31
0.0
  0
MTEXT
  5
60E8
330
5B64
100
AcDbEntity
  8
0
 62
     0
100
AcDbMText
 10
149.0885791223034
 20
995.6727427629717
 30
0.0
 40
2.25
 41
0.0
 46
0.0
 71
     5
 72
     1
  1
\A1;6-1/2" MIN.\P9-1/2" MAX.
  7
ROMANS
 73
     1
 44
1.0
  0
SOLID
  5
60E9
330
5B64
100
AcDbEntity
  8
0
 62
     0
100
AcDbTrace
 10
162.8564362651607
 20
1002.875022476855
 30
0.0
 11
163.6064362651607
 21
1002.875022476855
 31
0.0
 12
163.2314362651607
 22
1000.625022476855
 32
0.0
 13
163.2314362651607
 23
1000.625022476855
 33
0.0
  0
SOLID
  5
60EA
330
5B64
100
AcDbEntity
  8
0
 62
     0
100
AcDbTrace
 10
162.8564362651607
 20
1006.364292293394
 30
0.0
 11
163.6064362651607
 21
1006.364292293394
 31
0.0
 12
163.2314362651607
 22
1008.614292293394
 32
0.0
 13
163.2314362651607
 23
1008.614292293394
 33
0.0
  0
POINT
  5
60EB
330
5B64
100
AcDbEntity
  8
DEFPOINTS
 62
     0
100
AcDbPoint
 10
182.6877841851646
 20
1000.625022476855
 30
0.0
  0
POINT
  5
60EC
330
5B64
100
AcDbEntity
  8
DEFPOINTS
 62
     0
100
AcDbPoint
 10
173.1682832937295
 20
1008.614292293394
 30
0.0
  0
POINT
  5
60ED
330
5B64
100
AcDbEntity
  8
DEFPOINTS
 62
     0
100
AcDbPoint
 10
163.2314362651607
 20
1008.614292293394
 30
0.0
  0
ENDBLK
  5
5B71
330
5B64
100
AcDbEntity
  8
0
 62
     7
100
AcDbBlockEnd
  0
BLOCK
  5
5D4D
330
5D42
100
AcDbEntity
  8
0
 62
     7
100
AcDbBlockBegin
  2
*D11
 70
     1
 10
0.0
 20
0.0
 30
0.0
  3
*D11
  1

  0
LINE
  5
6240
330
5D42
100
AcDbEntity
  8
0
 62
     0
370
    -2
100
AcDbLine
 10
255.3540436151388
 20
1065.845495190369
 30
0.0
 11
255.3540436151388
 21
1081.754118390075
 31
0.0
  0
LINE
  5
6241
330
5D42
100
AcDbEntity
  8
0
 62
     0
370
    -2
100
AcDbLine
 10
253.1040436151393
 20
1073.887335129069
 30
0.0
 11
253.1040436151393
 21
1081.754118390075
 31
0.0
  0
LINE
  5
6242
330
5D42
100
AcDbEntity
  8
0
 62
     0
370
    -2
100
AcDbLine
 10
257.6040436151388
 20
1079.504118390075
 30
0.0
 11
259.8540436151388
 21
1079.504118390075
 31
0.0
  0
LINE
  5
6243
330
5D42
100
AcDbEntity
  8
0
 62
     0
370
    -2
100
AcDbLine
 10
250.8540436151393
 20
1079.504118390075
 30
0.0
 11
248.6040436151393
 21
1079.504118390075
 31
0.0
  0
SOLID
  5
6244
330
5D42
100
AcDbEntity
  8
0
 62
     0
100
AcDbTrace
 10
257.6040436151388
 20
1079.879118390075
 30
0.0
 11
257.6040436151388
 21
1079.129118390075
 31
0.0
 12
255.3540436151388
 22
1079.504118390075
 32
0.0
 13
255.3540436151388
 23
1079.504118390075
 33
0.0
  0
SOLID
  5
6245
330
5D42
100
AcDbEntity
  8
0
 62
     0
100
AcDbTrace
 10
250.8540436151393
 20
1079.879118390075
 30
0.0
 11
250.8540436151393
 21
1079.129118390075
 31
0.0
 12
253.1040436151393
 22
1079.504118390075
 32
0.0
 13
253.1040436151393
 23
1079.504118390075
 33
0.0
  0
MTEXT
  5
6246
330
5D42
100
AcDbEntity
  8
0
 62
     0
100
AcDbMText
 10
241.8540436151393
 20
1079.504118390075
 30
0.0
 40
2.25
 41
0.0
 46
0.0
 71
     5
 72
     1
  1
\A1;2 1/4"
  7
ROMANS
 73
     1
 44
1.0
  0
POINT
  5
6247
330
5D42
100
AcDbEntity
  8
DEFPOINTS
 62
     0
100
AcDbPoint
 10
255.3540436151388
 20
1065.095495190369
 30
0.0
  0
POINT
  5
6248
330
5D42
100
AcDbEntity
  8
DEFPOINTS
 62
     0
100
AcDbPoint
 10
253.1040436151393
 20
1073.137335129069
 30
0.0
  0
POINT
  5
6249
330
5D42
100
AcDbEntity
  8
DEFPOINTS
 62
     0
100
AcDbPoint
 10
253.1040436151393
 20
1079.504118390075
 30
0.0
  0
ENDBLK
  5
5D4E
330
5D42
100
AcDbEntity
  8
0
 62
     7
100
AcDbBlockEnd
  0
BLOCK
  5
5F2C
330
5F21
100
AcDbEntity
  8
0
 62
     7
100
AcDbBlockBegin
  2
*D12
 70
     1
 10
0.0
 20
0.0
 30
0.0
  3
*D12
  1

  0
LINE
  5
624A
330
5F21
100
AcDbEntity
  8
0
 62
     0
370
    -2
100
AcDbLine
 10
287.8590194181044
 20
1032.582101743013
 30
0.0
 11
303.0548899798237
 21
1032.582101743013
 31
0.0
  0
LINE
  5
624B
330
5F21
100
AcDbEntity
  8
0
 62
     0
370
    -2
100
AcDbLine
 10
286.7340194181053
 20
1074.582101743013
 30
0.0
 11
303.0548899798237
 21
1074.582101743013
 31
0.0
  0
LINE
  5
624C
330
5F21
100
AcDbEntity
  8
0
 62
     0
370
    -2
100
AcDbLine
 10
300.8048899798236
 20
1034.832101743013
 30
0.0
 11
300.8048899798236
 21
1051.492816028727
 31
0.0
  0
LINE
  5
624D
330
5F21
100
AcDbEntity
  8
0
 62
     0
370
    -2
100
AcDbLine
 10
300.8048899798236
 20
1072.332101743013
 30
0.0
 11
300.8048899798236
 21
1055.671387457299
 31
0.0
  0
SOLID
  5
624E
330
5F21
100
AcDbEntity
  8
0
 62
     0
100
AcDbTrace
 10
300.4298899798237
 20
1034.832101743013
 30
0.0
 11
301.1798899798237
 21
1034.832101743013
 31
0.0
 12
300.8048899798236
 22
1032.582101743013
 32
0.0
 13
300.8048899798236
 23
1032.582101743013
 33
0.0
  0
SOLID
  5
624F
330
5F21
100
AcDbEntity
  8
0
 62
     0
100
AcDbTrace
 10
300.4298899798237
 20
1072.332101743013
 30
0.0
 11
301.1798899798237
 21
1072.332101743013
 31
0.0
 12
300.8048899798236
 22
1074.582101743013
 32
0.0
 13
300.8048899798236
 23
1074.582101743013
 33
0.0
  0
MTEXT
  5
6250
330
5F21
100
AcDbEntity
  8
0
 62
     0
100
AcDbMText
 10
300.8048899798235
 20
1053.582101743013
 30
0.0
 40
2.25
 41
0.0
 46
0.0
 71
     5
 72
     1
  1
\A1;3'-6"
  7
ROMANS
 73
     1
 44
1.0
  0
POINT
  5
6251
330
5F21
100
AcDbEntity
  8
DEFPOINTS
 62
     0
100
AcDbPoint
 10
287.1090194181044
 20
1032.582101743013
 30
0.0
  0
POINT
  5
6252
330
5F21
100
AcDbEntity
  8
DEFPOINTS
 62
     0
100
AcDbPoint
 10
285.9840194181053
 20
1074.582101743013
 30
0.0
  0
POINT
  5
6253
330
5F21
100
AcDbEntity
  8
DEFPOINTS
 62
     0
100
AcDbPoint
 10
300.8048899798236
 20
1074.582101743013
 30
0.0
  0
ENDBLK
  5
5F2D
330
5F21
100
AcDbEntity
  8
0
 62
     7
100
AcDbBlockEnd
  0
BLOCK
  5
5FCF
330
5FC4
100
AcDbEntity
  8
0
 62
     7
100
AcDbBlockBegin
  2
*D13
 70
     1
 10
0.0
 20
0.0
 30
0.0
  3
*D13
  1

  0
LINE
  5
60EE
330
5FC4
100
AcDbEntity
  8
0
 62
     0
370
    -2
100
AcDbLine
 10
153.8792815108593
 20
1073.644601743013
 30
0.0
 11
153.8792815108593
 21
1083.079478782274
 31
0.0
  0
LINE
  5
60EF
330
5FC4
100
AcDbEntity
  8
0
 62
     0
370
    -2
100
AcDbLine
 10
85.87928151085924
 20
1073.644601743012
 30
0.0
 11
85.87928151085924
 21
1083.079478782274
 31
0.0
  0
LINE
  5
60F0
330
5FC4
100
AcDbEntity
  8
0
 62
     0
370
    -2
100
AcDbLine
 10
151.6292815108593
 20
1080.829478782274
 30
0.0
 11
127.7007100822878
 21
1080.829478782274
 31
0.0
  0
LINE
  5
60F1
330
5FC4
100
AcDbEntity
  8
0
 62
     0
370
    -2
100
AcDbLine
 10
88.12928151085925
 20
1080.829478782274
 30
0.0
 11
112.0578529394307
 21
1080.829478782274
 31
0.0
  0
SOLID
  5
60F2
330
5FC4
100
AcDbEntity
  8
0
 62
     0
100
AcDbTrace
 10
151.6292815108593
 20
1081.204478782274
 30
0.0
 11
151.6292815108593
 21
1080.454478782274
 31
0.0
 12
153.8792815108593
 22
1080.829478782274
 32
0.0
 13
153.8792815108593
 23
1080.829478782274
 33
0.0
  0
SOLID
  5
60F3
330
5FC4
100
AcDbEntity
  8
0
 62
     0
100
AcDbTrace
 10
88.12928151085925
 20
1081.204478782274
 30
0.0
 11
88.12928151085925
 21
1080.454478782274
 31
0.0
 12
85.87928151085924
 22
1080.829478782274
 32
0.0
 13
85.87928151085924
 23
1080.829478782274
 33
0.0
  0
MTEXT
  5
60F4
330
5FC4
100
AcDbEntity
  8
0
 62
     0
100
AcDbMText
 10
119.8792815108593
 20
1080.829478782274
 30
0.0
 40
2.25
 41
0.0
 46
0.0
 71
     5
 72
     1
  1
\A1;30" MIN.
  7
ROMANS
 73
     1
 44
1.0
  0
POINT
  5
60F5
330
5FC4
100
AcDbEntity
  8
DEFPOINTS
 62
     0
100
AcDbPoint
 10
153.8792815108593
 20
1072.894601743013
 30
0.0
  0
POINT
  5
60F6
330
5FC4
100
AcDbEntity
  8
DEFPOINTS
 62
     0
100
AcDbPoint
 10
85.87928151085924
 20
1072.894601743012
 30
0.0
  0
POINT
  5
60F7
330
5FC4
100
AcDbEntity
  8
DEFPOINTS
 62
     0
100
AcDbPoint
 10
85.87928151085924
 20
1080.829478782274
 30
0.0
  0
ENDBLK
  5
5FD0
330
5FC4
100
AcDbEntity
  8
0
 62
     7
100
AcDbBlockEnd
  0
BLOCK
  5
6052
330
6047
100
AcDbEntity
  8
0
 62
     7
100
AcDbBlockBegin
  2
*D14
 70
     1
 10
0.0
 20
0.0
 30
0.0
  3
*D14
  1

  0
LINE
  5
60F8
330
6047
100
AcDbEntity
  8
0
 62
     0
370
    -2
100
AcDbLine
 10
17.42277837915429
 20
1011.332101743013
 30
0.0
 11
17.42277837915429
 21
1017.104375533357
 31
0.0
  0
LINE
  5
60F9
330
6047
100
AcDbEntity
  8
0
 62
     0
370
    -2
100
AcDbLine
 10
5.422778379154287
 20
1009.644601743013
 30
0.0
 11
5.422778379154288
 21
1017.104375533357
 31
0.0
  0
LINE
  5
60FA
330
6047
100
AcDbEntity
  8
0
 62
     0
370
    -2
100
AcDbLine
 10
19.67277837915428
 20
1014.854375533358
 30
0.0
 11
21.92277837915429
 21
1014.854375533358
 31
0.0
  0
LINE
  5
60FB
330
6047
100
AcDbEntity
  8
0
 62
     0
370
    -2
100
AcDbLine
 10
3.172778379154287
 20
1014.854375533358
 30
0.0
 11
0.9227783791542876
 21
1014.854375533358
 31
0.0
  0
SOLID
  5
60FC
330
6047
100
AcDbEntity
  8
0
 62
     0
100
AcDbTrace
 10
19.67277837915428
 20
1015.229375533358
 30
0.0
 11
19.67277837915428
 21
1014.479375533358
 31
0.0
 12
17.42277837915429
 22
1014.854375533358
 32
0.0
 13
17.42277837915429
 23
1014.854375533358
 33
0.0
  0
SOLID
  5
60FD
330
6047
100
AcDbEntity
  8
0
 62
     0
100
AcDbTrace
 10
3.172778379154287
 20
1015.229375533358
 30
0.0
 11
3.172778379154287
 21
1014.479375533358
 31
0.0
 12
5.422778379154287
 22
1014.854375533358
 32
0.0
 13
5.422778379154287
 23
1014.854375533358
 33
0.0
  0
MTEXT
  5
60FE
330
6047
100
AcDbEntity
  8
0
 62
     0
100
AcDbMText
 10
11.42277837915429
 20
1014.854375533358
 30
0.0
 40
2.25
 41
0.0
 46
0.0
 71
     5
 72
     1
  1
\A1;1'-0"
  7
ROMANS
 73
     1
 44
1.0
  0
POINT
  5
60FF
330
6047
100
AcDbEntity
  8
DEFPOINTS
 62
     0
100
AcDbPoint
 10
17.42277837915429
 20
1010.582101743013
 30
0.0
  0
POINT
  5
6100
330
6047
100
AcDbEntity
  8
DEFPOINTS
 62
     0
100
AcDbPoint
 10
5.422778379154287
 20
1008.894601743013
 30
0.0
  0
POINT
  5
6101
330
6047
100
AcDbEntity
  8
DEFPOINTS
 62
     0
100
AcDbPoint
 10
5.422778379154287
 20
1014.854375533358
 30
0.0
  0
ENDBLK
  5
6053
330
6047
100
AcDbEntity
  8
0
 62
     7
100
AcDbBlockEnd
  0
BLOCK
  5
6060
330
6055
100
AcDbEntity
  8
0
 62
     7
100
AcDbBlockBegin
  2
*D15
 70
     1
 10
0.0
 20
0.0
 30
0.0
  3
*D15
  1

  0
LINE
  5
6102
330
6055
100
AcDbEntity
  8
0
 62
     0
370
    -2
100
AcDbLine
 10
6.315987817636694
 20
998.5826830739124
 30
0.0
 11
-2.696731445107618
 21
998.5826830739124
 31
0.0
  0
LINE
  5
6103
330
6055
100
AcDbEntity
  8
0
 62
     0
370
    -2
100
AcDbLine
 10
6.360278379154287
 20
1010.582101743013
 30
0.0
 11
-2.696731445107614
 21
1010.582101743013
 31
0.0
  0
LINE
  5
6104
330
6055
100
AcDbEntity
  8
0
 62
     0
370
    -2
100
AcDbLine
 10
-0.4467314451076167
 20
1000.832683073912
 30
0.0
 11
-0.4467314451076163
 21
1002.493106694177
 31
0.0
  0
LINE
  5
6105
330
6055
100
AcDbEntity
  8
0
 62
     0
370
    -2
100
AcDbLine
 10
-0.4467314451076151
 20
1008.332101743013
 30
0.0
 11
-0.4467314451076154
 21
1006.671678122748
 31
0.0
  0
SOLID
  5
6106
330
6055
100
AcDbEntity
  8
0
 62
     0
100
AcDbTrace
 10
-0.8217314451076166
 20
1000.832683073912
 30
0.0
 11
-0.0717314451076167
 21
1000.832683073912
 31
0.0
 12
-0.4467314451076172
 22
998.5826830739124
 32
0.0
 13
-0.4467314451076172
 23
998.5826830739124
 33
0.0
  0
SOLID
  5
6107
330
6055
100
AcDbEntity
  8
0
 62
     0
100
AcDbTrace
 10
-0.8217314451076148
 20
1008.332101743013
 30
0.0
 11
-0.071731445107615
 21
1008.332101743013
 31
0.0
 12
-0.4467314451076146
 22
1010.582101743013
 32
0.0
 13
-0.4467314451076146
 23
1010.582101743013
 33
0.0
  0
MTEXT
  5
6108
330
6055
100
AcDbEntity
  8
0
 62
     0
100
AcDbMText
 10
-0.4467314451077775
 20
1004.582392408463
 30
0.0
 40
2.25
 41
0.0
 46
0.0
 71
     5
 72
     1
  1
\A1;1'-0"
  7
ROMANS
 73
     1
 44
1.0
  0
POINT
  5
6109
330
6055
100
AcDbEntity
  8
DEFPOINTS
 62
     0
100
AcDbPoint
 10
7.065987817636694
 20
998.5826830739124
 30
0.0
  0
POINT
  5
610A
330
6055
100
AcDbEntity
  8
DEFPOINTS
 62
     0
100
AcDbPoint
 10
7.110278379154287
 20
1010.582101743013
 30
0.0
  0
POINT
  5
610B
330
6055
100
AcDbEntity
  8
DEFPOINTS
 62
     0
100
AcDbPoint
 10
-0.4467314451076146
 20
1010.582101743013
 30
0.0
  0
ENDBLK
  5
6061
330
6055
100
AcDbEntity
  8
0
 62
     7
100
AcDbBlockEnd
  0
BLOCK
  5
606E
330
6063
100
AcDbEntity
  8
0
 62
     7
100
AcDbBlockBegin
  2
*D16
 70
     1
 10
0.0
 20
0.0
 30
0.0
  3
*D16
  1

  0
LINE
  5
610C
330
6063
100
AcDbEntity
  8
0
 62
     0
370
    -2
100
AcDbLine
 10
24.39878240229462
 20
976.5821017430134
 30
0.0
 11
-9.082915016523664
 21
976.5821017430134
 31
0.0
  0
LINE
  5
610D
330
6063
100
AcDbEntity
  8
0
 62
     0
370
    -2
100
AcDbLine
 10
6.360278379154287
 20
1010.582101743013
 30
0.0
 11
-9.082915016523656
 21
1010.582101743013
 31
0.0
  0
LINE
  5
610E
330
6063
100
AcDbEntity
  8
0
 62
     0
370
    -2
100
AcDbLine
 10
-6.832915016523662
 20
978.8321017430135
 30
0.0
 11
-6.832915016523659
 21
991.4928160287276
 31
0.0
  0
LINE
  5
610F
330
6063
100
AcDbEntity
  8
0
 62
     0
370
    -2
100
AcDbLine
 10
-6.832915016523656
 20
1008.332101743013
 30
0.0
 11
-6.832915016523658
 21
995.6713874572988
 31
0.0
  0
SOLID
  5
6110
330
6063
100
AcDbEntity
  8
0
 62
     0
100
AcDbTrace
 10
-7.207915016523662
 20
978.8321017430135
 30
0.0
 11
-6.457915016523662
 21
978.8321017430135
 31
0.0
 12
-6.832915016523663
 22
976.5821017430134
 32
0.0
 13
-6.832915016523663
 23
976.5821017430134
 33
0.0
  0
SOLID
  5
6111
330
6063
100
AcDbEntity
  8
0
 62
     0
100
AcDbTrace
 10
-7.207915016523656
 20
1008.332101743013
 30
0.0
 11
-6.457915016523656
 21
1008.332101743013
 31
0.0
 12
-6.832915016523655
 22
1010.582101743013
 32
0.0
 13
-6.832915016523655
 23
1010.582101743013
 33
0.0
  0
MTEXT
  5
6112
330
6063
100
AcDbEntity
  8
0
 62
     0
100
AcDbMText
 10
-6.832915016523819
 20
993.5821017430132
 30
0.0
 40
2.25
 41
0.0
 46
0.0
 71
     5
 72
     1
  1
\A1;2'-10"
  7
ROMANS
 73
     1
 44
1.0
  0
POINT
  5
6113
330
6063
100
AcDbEntity
  8
DEFPOINTS
 62
     0
100
AcDbPoint
 10
25.14878240229462
 20
976.5821017430134
 30
0.0
  0
POINT
  5
6114
330
6063
100
AcDbEntity
  8
DEFPOINTS
 62
     0
100
AcDbPoint
 10
7.110278379154287
 20
1010.582101743013
 30
0.0
  0
POINT
  5
6115
330
6063
100
AcDbEntity
  8
DEFPOINTS
 62
     0
100
AcDbPoint
 10
-6.832915016523655
 20
1010.582101743013
 30
0.0
  0
ENDBLK
  5
606F
330
6063
100
AcDbEntity
  8
0
 62
     7
100
AcDbBlockEnd
  0
BLOCK
  5
607C
330
6071
100
AcDbEntity
  8
0
 62
     7
100
AcDbBlockBegin
  2
*D17
 70
     1
 10
0.0
 20
0.0
 30
0.0
  3
*D17
  1

  0
LINE
  5
6120
330
6071
100
AcDbEntity
  8
0
 62
     0
370
    -2
100
AcDbLine
 10
25.21977155044004
 20
1025.755191524113
 30
0.0
 11
-17.09144320029235
 21
1025.755191524113
 31
0.0
  0
LINE
  5
6121
330
6071
100
AcDbEntity
  8
0
 62
     0
370
    -2
100
AcDbLine
 10
25.21977155044004
 20
983.7551915241126
 30
0.0
 11
-17.09144320029236
 21
983.7551915241126
 31
0.0
  0
LINE
  5
6122
330
6071
100
AcDbEntity
  8
0
 62
     0
370
    -2
100
AcDbLine
 10
-14.84144320029235
 20
1023.505191524113
 30
0.0
 11
-14.84144320029236
 21
1006.844477238398
 31
0.0
  0
LINE
  5
6123
330
6071
100
AcDbEntity
  8
0
 62
     0
370
    -2
100
AcDbLine
 10
-14.84144320029236
 20
986.0051915241127
 30
0.0
 11
-14.84144320029236
 21
1002.665905809827
 31
0.0
  0
SOLID
  5
6124
330
6071
100
AcDbEntity
  8
0
 62
     0
100
AcDbTrace
 10
-15.21644320029235
 20
1023.505191524113
 30
0.0
 11
-14.46644320029235
 21
1023.505191524113
 31
0.0
 12
-14.84144320029235
 22
1025.755191524113
 32
0.0
 13
-14.84144320029235
 23
1025.755191524113
 33
0.0
  0
SOLID
  5
6125
330
6071
100
AcDbEntity
  8
0
 62
     0
100
AcDbTrace
 10
-15.21644320029236
 20
986.0051915241127
 30
0.0
 11
-14.46644320029236
 21
986.0051915241127
 31
0.0
 12
-14.84144320029236
 22
983.7551915241126
 32
0.0
 13
-14.84144320029236
 23
983.7551915241126
 33
0.0
  0
MTEXT
  5
6126
330
6071
100
AcDbEntity
  8
0
 62
     0
100
AcDbMText
 10
-14.84144320029252
 20
1004.755191524113
 30
0.0
 40
2.25
 41
0.0
 46
0.0
 71
     5
 72
     1
  1
\A1;3'-6"
  7
ROMANS
 73
     1
 44
1.0
  0
POINT
  5
6127
330
6071
100
AcDbEntity
  8
DEFPOINTS
 62
     0
100
AcDbPoint
 10
25.96977155044005
 20
1025.755191524113
 30
0.0
  0
POINT
  5
6128
330
6071
100
AcDbEntity
  8
DEFPOINTS
 62
     0
100
AcDbPoint
 10
25.96977155044004
 20
983.7551915241126
 30
0.0
  0
POINT
  5
6129
330
6071
100
AcDbEntity
  8
DEFPOINTS
 62
     0
100
AcDbPoint
 10
-14.84144320029236
 20
983.7551915241126
 30
0.0
  0
ENDBLK
  5
607D
330
6071
100
AcDbEntity
  8
0
 62
     7
100
AcDbBlockEnd
  0
BLOCK
  5
6185
330
617A
100
AcDbEntity
  8
0
 62
     7
100
AcDbBlockBegin
  2
*D18
 70
     1
 10
0.0
 20
0.0
 30
0.0
  3
*D18
  1

  0
LINE
  5
6187
330
617A
100
AcDbEntity
  8
0
 62
     0
370
    -2
100
AcDbLine
 10
212.7267859680348
 20
985.396482843776
 30
0.0
 11
212.7267859680348
 21
1009.654696476783
 31
0.0
  0
LINE
  5
6188
330
617A
100
AcDbEntity
  8
0
 62
     0
370
    -2
100
AcDbLine
 10
203.2072850765997
 20
993.3857526603155
 30
0.0
 11
203.2072850765997
 21
1009.654696476783
 31
0.0
  0
LINE
  5
6189
330
617A
100
AcDbEntity
  8
0
 62
     0
370
    -2
100
AcDbLine
 10
210.4767859680348
 20
1007.404696476783
 30
0.0
 11
205.4572850765997
 21
1007.404696476783
 31
0.0
  0
LINE
  5
618A
330
617A
100
AcDbEntity
  8
0
 62
     0
370
    -2
100
AcDbLine
 10
203.2072850765997
 20
1007.404696476783
 30
0.0
 11
200.9572850765997
 21
1007.404696476783
 31
0.0
  0
SOLID
  5
618B
330
617A
100
AcDbEntity
  8
0
 62
     0
100
AcDbTrace
 10
210.4767859680348
 20
1007.779696476784
 30
0.0
 11
210.4767859680348
 21
1007.029696476783
 31
0.0
 12
212.7267859680348
 22
1007.404696476783
 32
0.0
 13
212.7267859680348
 23
1007.404696476783
 33
0.0
  0
SOLID
  5
618C
330
617A
100
AcDbEntity
  8
0
 62
     0
100
AcDbTrace
 10
205.4572850765997
 20
1007.779696476784
 30
0.0
 11
205.4572850765997
 21
1007.029696476783
 31
0.0
 12
203.2072850765997
 22
1007.404696476783
 32
0.0
 13
203.2072850765997
 23
1007.404696476783
 33
0.0
  0
MTEXT
  5
618D
330
617A
100
AcDbEntity
  8
0
 62
     0
100
AcDbMText
 10
194.2072850765997
 20
1007.404696476783
 30
0.0
 40
2.25
 41
0.0
 46
0.0
 71
     5
 72
     1
  1
\A1;9 1/2"\PMIN.
  7
ROMANS
 73
     1
 44
1.0
  0
POINT
  5
618E
330
617A
100
AcDbEntity
  8
DEFPOINTS
 62
     0
100
AcDbPoint
 10
212.7267859680348
 20
984.646482843776
 30
0.0
  0
POINT
  5
618F
330
617A
100
AcDbEntity
  8
DEFPOINTS
 62
     0
100
AcDbPoint
 10
203.2072850765997
 20
992.6357526603155
 30
0.0
  0
POINT
  5
6190
330
617A
100
AcDbEntity
  8
DEFPOINTS
 62
     0
100
AcDbPoint
 10
203.2072850765997
 20
1007.404696476783
 30
0.0
  0
ENDBLK
  5
6186
330
617A
100
AcDbEntity
  8
0
 62
     7
100
AcDbBlockEnd
  0
BLOCK
  5
619D
330
6192
100
AcDbEntity
  8
0
 62
     7
100
AcDbBlockBegin
  2
*D19
 70
     1
 10
0.0
 20
0.0
 30
0.0
  3
*D19
  1

  0
LINE
  5
625E
330
6192
100
AcDbEntity
  8
0
 62
     0
370
    -2
100
AcDbLine
 10
257.0415436151392
 20
1048.388846167917
 30
0.0
 11
257.0415436151392
 21
1046.571313246932
 31
0.0
  0
LINE
  5
625F
330
6192
100
AcDbEntity
  8
0
 62
     0
370
    -2
100
AcDbLine
 10
281.2027694181046
 20
1048.388846167917
 30
0.0
 11
281.2027694181046
 21
1046.571313246932
 31
0.0
  0
LINE
  5
6260
330
6192
100
AcDbEntity
  8
0
 62
     0
370
    -2
100
AcDbLine
 10
259.2915436151392
 20
1048.821313246932
 30
0.0
 11
261.3007279451933
 21
1048.821313246932
 31
0.0
  0
LINE
  5
6261
330
6192
100
AcDbEntity
  8
0
 62
     0
370
    -2
100
AcDbLine
 10
278.9527694181046
 20
1048.821313246932
 30
0.0
 11
276.9435850880504
 21
1048.821313246932
 31
0.0
  0
SOLID
  5
6262
330
6192
100
AcDbEntity
  8
0
 62
     0
100
AcDbTrace
 10
259.2915436151392
 20
1049.196313246932
 30
0.0
 11
259.2915436151392
 21
1048.446313246932
 31
0.0
 12
257.0415436151392
 22
1048.821313246932
 32
0.0
 13
257.0415436151392
 23
1048.821313246932
 33
0.0
  0
SOLID
  5
6263
330
6192
100
AcDbEntity
  8
0
 62
     0
100
AcDbTrace
 10
278.9527694181046
 20
1049.196313246932
 30
0.0
 11
278.9527694181046
 21
1048.446313246932
 31
0.0
 12
281.2027694181046
 22
1048.821313246932
 32
0.0
 13
281.2027694181046
 23
1048.821313246932
 33
0.0
  0
MTEXT
  5
6264
330
6192
100
AcDbEntity
  8
0
 62
     0
100
AcDbMText
 10
269.1221565166219
 20
1048.821313246932
 30
0.0
 40
2.25
 41
0.0
 46
0.0
 71
     5
 72
     1
  1
\A1;24" MIN.
  7
ROMANS
 73
     1
 44
1.0
  0
POINT
  5
6265
330
6192
100
AcDbEntity
  8
DEFPOINTS
 62
     0
100
AcDbPoint
 10
257.0415436151392
 20
1049.138846167917
 30
0.0
  0
POINT
  5
6266
330
6192
100
AcDbEntity
  8
DEFPOINTS
 62
     0
100
AcDbPoint
 10
281.2027694181046
 20
1049.138846167917
 30
0.0
  0
POINT
  5
6267
330
6192
100
AcDbEntity
  8
DEFPOINTS
 62
     0
100
AcDbPoint
 10
281.2027694181046
 20
1048.821313246932
 30
0.0
  0
ENDBLK
  5
619E
330
6192
100
AcDbEntity
  8
0
 62
     7
100
AcDbBlockEnd
  0
BLOCK
  5
62C5
330
62BA
100
AcDbEntity
  8
0
 62
     7
100
AcDbBlockBegin
  2
*D20
 70
     1
 10
0.0
 20
0.0
 30
0.0
  3
*D20
  1

  0
LINE
  5
62BB
330
62BA
100
AcDbEntity
  8
0
 62
     0
370
    -2
100
AcDbLine
 10
16.7817770536832
 20
998.6735792091522
 30
0.0
 11
8.704721557777702
 21
998.6735792091522
 31
0.0
  0
LINE
  5
62BC
330
62BA
100
AcDbEntity
  8
0
 62
     0
370
    -2
100
AcDbLine
 10
16.78177705368319
 20
1010.673579209152
 30
0.0
 11
8.704721557777704
 21
1010.673579209152
 31
0.0
  0
LINE
  5
62BD
330
62BA
100
AcDbEntity
  8
0
 62
     0
370
    -2
100
AcDbLine
 10
10.9547215577777
 20
1000.923579209152
 30
0.0
 11
10.9547215577777
 21
1002.584293494866
 31
0.0
  0
LINE
  5
62BE
330
62BA
100
AcDbEntity
  8
0
 62
     0
370
    -2
100
AcDbLine
 10
10.9547215577777
 20
1008.423579209152
 30
0.0
 11
10.9547215577777
 21
1006.762864923438
 31
0.0
  0
SOLID
  5
62BF
330
62BA
100
AcDbEntity
  8
0
 62
     0
100
AcDbTrace
 10
10.5797215577777
 20
1000.923579209152
 30
0.0
 11
11.3297215577777
 21
1000.923579209152
 31
0.0
 12
10.9547215577777
 22
998.6735792091522
 32
0.0
 13
10.9547215577777
 23
998.6735792091522
 33
0.0
  0
SOLID
  5
62C0
330
62BA
100
AcDbEntity
  8
0
 62
     0
100
AcDbTrace
 10
10.5797215577777
 20
1008.423579209152
 30
0.0
 11
11.3297215577777
 21
1008.423579209152
 31
0.0
 12
10.9547215577777
 22
1010.673579209152
 32
0.0
 13
10.9547215577777
 23
1010.673579209152
 33
0.0
  0
MTEXT
  5
62C1
330
62BA
100
AcDbEntity
  8
0
 62
     0
100
AcDbMText
 10
10.95472155777754
 20
1004.673579209152
 30
0.0
 40
2.25
 41
0.0
 46
0.0
 71
     5
 72
     1
  1
\A1;1'-0"
  7
ROMANS
 73
     1
 44
1.0
  0
POINT
  5
62C2
330
62BA
100
AcDbEntity
  8
DEFPOINTS
 62
     0
100
AcDbPoint
 10
17.5317770536832
 20
998.6735792091522
 30
0.0
  0
POINT
  5
62C3
330
62BA
100
AcDbEntity
  8
DEFPOINTS
 62
     0
100
AcDbPoint
 10
17.53177705368319
 20
1010.673579209152
 30
0.0
  0
POINT
  5
62C4
330
62BA
100
AcDbEntity
  8
DEFPOINTS
 62
     0
100
AcDbPoint
 10
10.9547215577777
 20
1010.673579209152
 30
0.0
  0
ENDBLK
  5
62C6
330
62BA
100
AcDbEntity
  8
0
 62
     7
100
AcDbBlockEnd
  0
BLOCK
  5
62D4
330
62C9
100
AcDbEntity
  8
0
 62
     7
100
AcDbBlockBegin
  2
*D21
 70
     1
 10
0.0
 20
0.0
 30
0.0
  3
*D21
  1

  0
LINE
  5
62CA
330
62C9
100
AcDbEntity
  8
0
 62
     0
370
    -2
100
AcDbLine
 10
26.28177705368381
 20
984.646482843776
 30
0.0
 11
-3.189716859945528
 21
984.646482843776
 31
0.0
  0
LINE
  5
62CB
330
62C9
100
AcDbEntity
  8
0
 62
     0
370
    -2
100
AcDbLine
 10
26.2817770536832
 20
1018.646482843776
 30
0.0
 11
-3.189716859945521
 21
1018.646482843776
 31
0.0
  0
LINE
  5
62CC
330
62C9
100
AcDbEntity
  8
0
 62
     0
370
    -2
100
AcDbLine
 10
-0.9397168599455271
 20
986.8964828437761
 30
0.0
 11
-0.9397168599455243
 21
999.5571971294902
 31
0.0
  0
LINE
  5
62CD
330
62C9
100
AcDbEntity
  8
0
 62
     0
370
    -2
100
AcDbLine
 10
-0.9397168599455206
 20
1016.396482843775
 30
0.0
 11
-0.9397168599455234
 21
1003.735768558061
 31
0.0
  0
SOLID
  5
62CE
330
62C9
100
AcDbEntity
  8
0
 62
     0
100
AcDbTrace
 10
-1.314716859945527
 20
986.8964828437761
 30
0.0
 11
-0.5647168599455271
 21
986.8964828437761
 31
0.0
 12
-0.9397168599455277
 22
984.646482843776
 32
0.0
 13
-0.9397168599455277
 23
984.646482843776
 33
0.0
  0
SOLID
  5
62CF
330
62C9
100
AcDbEntity
  8
0
 62
     0
100
AcDbTrace
 10
-1.31471685994552
 20
1016.396482843775
 30
0.0
 11
-0.5647168599455206
 21
1016.396482843775
 31
0.0
 12
-0.93971685994552
 22
1018.646482843776
 32
0.0
 13
-0.93971685994552
 23
1018.646482843776
 33
0.0
  0
MTEXT
  5
62D0
330
62C9
100
AcDbEntity
  8
0
 62
     0
100
AcDbMText
 10
-0.9397168599456849
 20
1001.646482843776
 30
0.0
 40
2.25
 41
0.0
 46
0.0
 71
     5
 72
     1
  1
\A1;2'-10"
  7
ROMANS
 73
     1
 44
1.0
  0
POINT
  5
62D1
330
62C9
100
AcDbEntity
  8
DEFPOINTS
 62
     0
100
AcDbPoint
 10
27.03177705368381
 20
984.646482843776
 30
0.0
  0
POINT
  5
62D2
330
62C9
100
AcDbEntity
  8
DEFPOINTS
 62
     0
100
AcDbPoint
 10
27.0317770536832
 20
1018.646482843776
 30
0.0
  0
POINT
  5
62D3
330
62C9
100
AcDbEntity
  8
DEFPOINTS
 62
     0
100
AcDbPoint
 10
-0.93971685994552
 20
1018.646482843776
 30
0.0
  0
ENDBLK
  5
62D5
330
62C9
100
AcDbEntity
  8
0
 62
     7
100
AcDbBlockEnd
  0
BLOCK
  5
62E2
330
62D7
100
AcDbEntity
  8
0
 62
     7
100
AcDbBlockBegin
  2
*D22
 70
     1
 10
0.0
 20
0.0
 30
0.0
  3
*D22
  1

  0
LINE
  5
62D8
330
62D7
100
AcDbEntity
  8
0
 62
     0
370
    -2
100
AcDbLine
 10
26.28177705368381
 20
984.646482843776
 30
0.0
 11
-13.16197173277988
 21
984.646482843776
 31
0.0
  0
LINE
  5
62D9
330
62D7
100
AcDbEntity
  8
0
 62
     0
370
    -2
100
AcDbLine
 10
26.28177705368302
 20
1026.646482843776
 30
0.0
 11
-13.16197173277987
 21
1026.646482843776
 31
0.0
  0
LINE
  5
62DA
330
62D7
100
AcDbEntity
  8
0
 62
     0
370
    -2
100
AcDbLine
 10
-10.91197173277988
 20
986.8964828437761
 30
0.0
 11
-10.91197173277988
 21
1003.55719712949
 31
0.0
  0
LINE
  5
62DB
330
62D7
100
AcDbEntity
  8
0
 62
     0
370
    -2
100
AcDbLine
 10
-10.91197173277987
 20
1024.396482843775
 30
0.0
 11
-10.91197173277988
 21
1007.735768558061
 31
0.0
  0
SOLID
  5
62DC
330
62D7
100
AcDbEntity
  8
0
 62
     0
100
AcDbTrace
 10
-11.28697173277988
 20
986.8964828437761
 30
0.0
 11
-10.53697173277988
 21
986.8964828437761
 31
0.0
 12
-10.91197173277988
 22
984.646482843776
 32
0.0
 13
-10.91197173277988
 23
984.646482843776
 33
0.0
  0
SOLID
  5
62DD
330
62D7
100
AcDbEntity
  8
0
 62
     0
100
AcDbTrace
 10
-11.28697173277988
 20
1024.396482843775
 30
0.0
 11
-10.53697173277988
 21
1024.396482843775
 31
0.0
 12
-10.91197173277987
 22
1026.646482843776
 32
0.0
 13
-10.91197173277987
 23
1026.646482843776
 33
0.0
  0
MTEXT
  5
62DE
330
62D7
100
AcDbEntity
  8
0
 62
     0
100
AcDbMText
 10
-10.91197173278004
 20
1005.646482843776
 30
0.0
 40
2.25
 41
0.0
 46
0.0
 71
     5
 72
     1
  1
\A1;3'-6"
  7
ROMANS
 73
     1
 44
1.0
  0
POINT
  5
62DF
330
62D7
100
AcDbEntity
  8
DEFPOINTS
 62
     0
100
AcDbPoint
 10
27.03177705368381
 20
984.646482843776
 30
0.0
  0
POINT
  5
62E0
330
62D7
100
AcDbEntity
  8
DEFPOINTS
 62
     0
100
AcDbPoint
 10
27.03177705368303
 20
1026.646482843776
 30
0.0
  0
POINT
  5
62E1
330
62D7
100
AcDbEntity
  8
DEFPOINTS
 62
     0
100
AcDbPoint
 10
-10.91197173277987
 20
1026.646482843776
 30
0.0
  0
ENDBLK
  5
62E3
330
62D7
100
AcDbEntity
  8
0
 62
     7
100
AcDbBlockEnd
  0
BLOCK
  5
62F0
330
62E5
100
AcDbEntity
  8
0
 62
     7
100
AcDbBlockBegin
  2
*D23
 70
     1
 10
0.0
 20
0.0
 30
0.0
  3
*D23
  1

  0
LINE
  5
62F2
330
62E5
100
AcDbEntity
  8
0
 62
     0
370
    -2
100
AcDbLine
 10
27.03177705368381
 20
981.6464828437753
 30
0.0
 11
27.03177705368381
 21
977.0492908713359
 31
0.0
  0
LINE
  5
62F3
330
62E5
100
AcDbEntity
  8
0
 62
     0
370
    -2
100
AcDbLine
 10
17.53177705368319
 20
997.9235792091522
 30
0.0
 11
17.53177705368319
 21
977.0492908713359
 31
0.0
  0
LINE
  5
62F4
330
62E5
100
AcDbEntity
  8
0
 62
     0
370
    -2
100
AcDbLine
 10
24.78177705368381
 20
979.2992908713358
 30
0.0
 11
19.78177705368319
 21
979.2992908713358
 31
0.0
  0
LINE
  5
62F5
330
62E5
100
AcDbEntity
  8
0
 62
     0
370
    -2
100
AcDbLine
 10
17.53177705368319
 20
979.2992908713358
 30
0.0
 11
15.28177705368319
 21
979.2992908713358
 31
0.0
  0
SOLID
  5
62F6
330
62E5
100
AcDbEntity
  8
0
 62
     0
100
AcDbTrace
 10
24.78177705368381
 20
979.6742908713358
 30
0.0
 11
24.78177705368381
 21
978.9242908713358
 31
0.0
 12
27.03177705368381
 22
979.2992908713358
 32
0.0
 13
27.03177705368381
 23
979.2992908713358
 33
0.0
  0
SOLID
  5
62F7
330
62E5
100
AcDbEntity
  8
0
 62
     0
100
AcDbTrace
 10
19.78177705368319
 20
979.6742908713358
 30
0.0
 11
19.78177705368319
 21
978.9242908713358
 31
0.0
 12
17.53177705368319
 22
979.2992908713358
 32
0.0
 13
17.53177705368319
 23
979.2992908713358
 33
0.0
  0
MTEXT
  5
62F8
330
62E5
100
AcDbEntity
  8
0
 62
     0
100
AcDbMText
 10
3.281777053683192
 20
979.2992908713358
 30
0.0
 40
2.25
 41
0.0
 46
0.0
 71
     5
 72
     1
  1
\A1;TREAD DEPTH
  7
ROMANS
 73
     1
 44
1.0
  0
POINT
  5
62F9
330
62E5
100
AcDbEntity
  8
DEFPOINTS
 62
     0
100
AcDbPoint
 10
27.03177705368381
 20
982.3964828437754
 30
0.0
  0
POINT
  5
62FA
330
62E5
100
AcDbEntity
  8
DEFPOINTS
 62
     0
100
AcDbPoint
 10
17.53177705368319
 20
998.6735792091522
 30
0.0
  0
POINT
  5
62FB
330
62E5
100
AcDbEntity
  8
DEFPOINTS
 62
     0
100
AcDbPoint
 10
17.53177705368319
 20
979.2992908713358
 30
0.0
  0
ENDBLK
  5
62F1
330
62E5
100
AcDbEntity
  8
0
 62
     7
100
AcDbBlockEnd
  0
ENDSEC
  0
SECTION
  2
ENTITIES
  0
INSERT
  5
731
330
18
100
AcDbEntity
  8
0
100
AcDbBlockReference
  2
LINETYPE
 10
1755.465720098802
 20
319.6312055368388
 30
0.0
  0
INSERT
  5
739
330
18
100
AcDbEntity
  8
0
100
AcDbBlockReference
  2
LINETYPE
 10
1580.831671270289
 20
258.5738563159389
 30
0.0
  0
INSERT
  5
87C
330
18
100
AcDbEntity
  8
0
100
AcDbBlockReference
  2
LINETYPE
 10
3335.985291857908
 20
1226.649039023404
 30
0.0
  0
INSERT
  5
87D
330
18
100
AcDbEntity
  8
0
100
AcDbBlockReference
  2
LINETYPE
 10
3161.351243029394
 20
1165.591689802504
 30
0.0
  0
INSERT
  5
8CE
330
18
100
AcDbEntity
  8
0
100
AcDbBlockReference
  2
LINETYPE
 10
3030.127795686781
 20
1132.026704061406
 30
0.0
  0
INSERT
  5
8CF
330
18
100
AcDbEntity
  8
0
100
AcDbBlockReference
  2
LINETYPE
 10
2855.493746858268
 20
1070.969354840506
 30
0.0
  0
INSERT
  5
9AA
330
18
100
AcDbEntity
  8
0
100
AcDbBlockReference
  2
LINETYPE
 10
3452.502434436856
 20
1190.255832572662
 30
0.0
  0
INSERT
  5
9AB
330
18
100
AcDbEntity
  8
0
100
AcDbBlockReference
  2
LINETYPE
 10
3277.868385608343
 20
1129.198483351762
 30
0.0
  0
INSERT
  5
A3D
330
18
100
AcDbEntity
  8
0
100
AcDbBlockReference
  2
LINETYPE
 10
3270.44439946711
 20
1204.813115152959
 30
0.0
  0
INSERT
  5
A3E
330
18
100
AcDbEntity
  8
0
100
AcDbBlockReference
  2
LINETYPE
 10
3095.810350638597
 20
1143.755765932059
 30
0.0
  0
INSERT
  5
A57
330
18
100
AcDbEntity
  8
0
100
AcDbBlockReference
  2
LINETYPE
 10
3328.702970756584
 20
1117.469421481109
 30
0.0
  0
INSERT
  5
A58
330
18
100
AcDbEntity
  8
0
100
AcDbBlockReference
  2
LINETYPE
 10
3154.068921928071
 20
1056.412072260209
 30
0.0
  0
LINE
  5
C6A
330
18
100
AcDbEntity
  8
0
100
AcDbLine
 10
287.1090194181044
 20
976.5821017430138
 30
0.0
 11
284.8590194181046
 21
976.5821017430138
 31
0.0
  0
LINE
  5
C6C
330
18
100
AcDbEntity
  8
0
100
AcDbLine
 10
251.1352936151394
 20
1032.582101743013
 30
0.0
 11
251.1352936151394
 21
976.5821017430134
 31
0.0
  0
LINE
  5
C76
330
18
100
AcDbEntity
  8
0
100
AcDbLine
 10
253.3852936151396
 20
976.5821017430138
 30
0.0
 11
251.1352936151394
 21
976.5821017430138
 31
0.0
  0
MTEXT
  5
D20
330
18
100
AcDbEntity
  8
0
 62
     5
100
AcDbMText
 10
8.011253675687839
 20
1120.075936755773
 30
0.0
 40
2.8125
 41
0.0
 46
0.0
 71
     6
 72
     5
  1
 
  7
ROMANS
 73
     1
 44
1.0
  0
TEXT
  5
ECC
330
18
100
AcDbEntity
  8
0
100
AcDbText
 10
71.43944762084149
 20
1169.451134247392
 30
0.0
 40
5.0153227488
  1
INDUSTRIAL CROSSOVER STAIRWAY
  7
ROMANC
100
AcDbText
  0
TEXT
  5
ECD
330
18
100
AcDbEntity
  8
0
100
AcDbText
 10
252.9778292505773
 20
947.7077566237737
 30
0.0
 40
2.7929599632
  1
FACTORY FINISH
  7
ROMANS
 72
     1
 11
269.8020880765201
 21
947.7077566237737
 31
0.0
100
AcDbText
  0
TEXT
  5
ECE
330
18
100
AcDbEntity
  8
0
100
AcDbText
 10
245.7493828696289
 20
943.1858214452601
 30
0.0
 40
2.7929599632
  1
%%OALUMINUM-MILL FINISH
  7
ROMANS
 72
     1
 11
269.8020880765203
 21
943.1858214452601
 31
0.0
100
AcDbText
  0
TEXT
  5
F0C
330
18
100
AcDbEntity
  8
0
100
AcDbText
 10
186.1914396032621
 20
1130.730918079318
 30
0.0
 40
2.2565466
  1
NOTE:
  7
ROMANS
100
AcDbText
  0
TEXT
  5
F0D
330
18
100
AcDbEntity
  8
0
100
AcDbText
 10
186.1914396032621
 20
1127.077461679317
 30
0.0
 40
2.2565466
  1
ALL BOLTS/FASTENERS
  7
ROMANS
100
AcDbText
  0
TEXT
  5
F0E
330
18
100
AcDbEntity
  8
0
100
AcDbText
 10
186.1914396032621
 20
1123.424005279317
 30
0.0
 40
2.2565466
  1
NECESSARY TO ANCHOR
  7
ROMANS
100
AcDbText
  0
TEXT
  5
F0F
330
18
100
AcDbEntity
  8
0
100
AcDbText
 10
186.1914396032621
 20
1119.770548879317
 30
0.0
 40
2.2565466
  1
STAIRWAY ARE BY OTHERS.
  7
ROMANS
100
AcDbText
  0
TEXT
  5
FD5
330
18
100
AcDbEntity
  8
0
100
AcDbText
 10
11.16583611889261
 20
1057.747746450442
 30
0.0
 40
2.2565466
  1
ALUMINUM PIPE
  7
ROMANS
 72
     1
 11
24.38275191889261
 21
1057.747746450442
 31
0.0
100
AcDbText
  0
TEXT
  5
FD6
330
18
100
AcDbEntity
  8
0
100
AcDbText
 10
9.876380918892607
 20
1061.401202850442
 30
0.0
 40
2.2565466
  1
1-1/4" SCH 40
  7
ROMANS
 72
     1
 11
24.38275191889261
 21
1061.401202850442
 31
0.0
100
AcDbText
  0
TEXT
  5
FD7
330
18
100
AcDbEntity
  8
0
100
AcDbText
 10
15.24911091889261
 20
1050.440833650442
 30
0.0
 40
2.2565466
  1
(6005-T5)
  7
ROMANS
 72
     1
 11
24.38275191889261
 21
1050.440833650442
 31
0.0
100
AcDbText
  0
TEXT
  5
FD8
330
18
100
AcDbEntity
  8
0
100
AcDbText
 10
6.169197218892602
 20
1054.094290050442
 30
0.0
 40
2.2565466
  1
HANDRAIL/GUARDRAIL
  7
ROMANS
 72
     1
 11
24.38275191889261
 21
1054.094290050442
 31
0.0
100
AcDbText
  0
LINE
  5
FD9
330
18
100
AcDbEntity
  8
0
100
AcDbLine
 10
46.22771862243246
 20
1046.301082239645
 30
0.0
 11
39.37117154767168
 21
1051.308162193227
 31
0.0
  0
SOLID
  5
FDA
330
18
100
AcDbEntity
  8
0
100
AcDbTrace
 10
46.48967338804584
 20
1046.646012618703
 30
0.0
 11
45.96576385681896
 21
1045.956151860586
 31
0.0
 12
48.29730089678304
 22
1044.729353645964
 32
0.0
 13
48.29730089678304
 23
1044.729353645964
 33
0.0
  0
LINE
  5
FDB
330
18
100
AcDbEntity
  8
0
100
AcDbLine
 10
39.37117154767168
 20
1051.308162193227
 30
0.0
 11
34.27379744873986
 21
1051.308162193227
 31
0.0
  0
INSERT
  5
1052
330
18
100
AcDbEntity
  8
0
100
AcDbBlockReference
  2
LINETYPE
 10
707.4207238873416
 20
1171.184298484356
 30
0.0
  0
INSERT
  5
1053
330
18
100
AcDbEntity
  8
0
100
AcDbBlockReference
  2
LINETYPE
 10
1073.912317512891
 20
1161.109206428277
 30
0.0
  0
INSERT
  5
108A
330
18
100
AcDbEntity
  8
0
100
AcDbBlockReference
  2
LINETYPE
 10
1193.204674166987
 20
1215.797146101187
 30
0.0
  0
INSERT
  5
108B
330
18
100
AcDbEntity
  8
0
100
AcDbBlockReference
  2
LINETYPE
 10
1559.696267792537
 20
1205.722054045109
 30
0.0
  0
INSERT
  5
162A
330
18
100
AcDbEntity
  8
0
100
AcDbBlockReference
  2
LINETYPE
 10
757.2613386694179
 20
1372.951021811622
 30
0.0
  0
INSERT
  5
163B
330
18
100
AcDbEntity
  8
0
100
AcDbBlockReference
  2
LINETYPE
 10
1123.752932294967
 20
1362.875929755544
 30
0.0
  0
INSERT
  5
17F5
330
18
100
AcDbEntity
  8
0
100
AcDbBlockReference
  2
LINETYPE
 10
1243.045288949063
 20
1417.563869428454
 30
0.0
  0
INSERT
  5
17FB
330
18
100
AcDbEntity
  8
0
100
AcDbBlockReference
  2
LINETYPE
 10
1609.536882574612
 20
1407.488777372375
 30
0.0
  0
INSERT
  5
1AD1
330
18
100
AcDbEntity
  8
0
100
AcDbBlockReference
  2
LINETYPE
 10
726.9409203705532
 20
1310.206906098342
 30
0.0
  0
INSERT
  5
1AD2
330
18
100
AcDbEntity
  8
0
100
AcDbBlockReference
  2
LINETYPE
 10
1093.432513996103
 20
1300.131814042263
 30
0.0
  0
INSERT
  5
1AD3
330
18
100
AcDbEntity
  8
0
100
AcDbBlockReference
  2
LINETYPE
 10
1212.724870650198
 20
1354.819753715174
 30
0.0
  0
INSERT
  5
1AD4
330
18
100
AcDbEntity
  8
0
100
AcDbBlockReference
  2
LINETYPE
 10
1579.216464275748
 20
1344.744661659095
 30
0.0
  0
INSERT
  5
1B1A
330
18
100
AcDbEntity
  8
0
100
AcDbBlockReference
  2
LINETYPE
 10
1096.103694165373
 20
1287.484861659437
 30
0.0
  0
INSERT
  5
1B1B
330
18
100
AcDbEntity
  8
0
100
AcDbBlockReference
  2
LINETYPE
 10
1215.006594584586
 20
1614.165547174558
 30
0.0
  0
INSERT
  5
1B1C
330
18
100
AcDbEntity
  8
0
100
AcDbBlockReference
  2
LINETYPE
 10
1581.498188210135
 20
1604.090455118479
 30
0.0
  0
LEADER
  5
1BBE
330
18
100
AcDbEntity
  8
0
100
AcDbLeader
  3
STANDARD
 73
     0
 40
2.25
 41
-0.6428571428571424
 76
     3
 10
79.38614018819032
 20
1018.706136550234
 30
0.0
 10
92.94401930859738
 20
1010.948699893984
 30
0.0
 10
100.3428006038752
 20
1010.948699893984
 30
0.0
211
-1.0
221
0.0
231
0.0
  0
TEXT
  5
1BC0
330
18
100
AcDbEntity
  8
0
100
AcDbText
 10
102.2962494206056
 20
1005.942574500133
 30
0.0
 40
2.2320522
  1
ALUMINUM CHANNEL
  7
ROMANS
100
AcDbText
  0
TEXT
  5
1BC1
330
18
100
AcDbEntity
  8
0
100
AcDbText
 10
101.6608501578082
 20
1010.077161080667
 30
0.0
 40
2.2320522
  1
8" x 2-1/4" x 1/4"
  7
ROMANS
100
AcDbText
  0
LINE
  5
1D1B
330
18
100
AcDbEntity
  8
0
100
AcDbLine
 10
287.1090194181044
 20
983.7071017430131
 30
0.0
 11
284.8590194181044
 21
983.7071017430131
 31
0.0
  0
LINE
  5
1D1C
330
18
100
AcDbEntity
  8
0
100
AcDbLine
 10
253.3852936151392
 20
983.707101743013
 30
0.0
 11
251.1352936151392
 21
983.707101743013
 31
0.0
  0
LINE
  5
1D1D
330
18
100
AcDbEntity
  8
0
100
AcDbLine
 10
287.1090194181044
 20
1032.582101743013
 30
0.0
 11
287.1090194181044
 21
976.5821017430138
 31
0.0
  0
LINE
  5
1D1E
330
18
100
AcDbEntity
  8
0
100
AcDbLine
 10
253.1352936151394
 20
983.457101743013
 30
0.0
 11
253.1352936151394
 21
976.8321017430135
 31
0.0
  0
LINE
  5
1D1F
330
18
100
AcDbEntity
  8
0
100
AcDbLine
 10
253.1352936151394
 20
983.457101743013
 30
0.0
 11
251.1352936151392
 21
983.457101743013
 31
0.0
  0
LINE
  5
1D20
330
18
100
AcDbEntity
  8
0
100
AcDbLine
 10
253.1352936151394
 20
976.8321017430135
 30
0.0
 11
251.1352936151394
 21
976.8321017430137
 31
0.0
  0
LINE
  5
1D21
330
18
100
AcDbEntity
  8
0
100
AcDbLine
 10
287.1090194181044
 20
983.4571017430132
 30
0.0
 11
285.1090194181044
 21
983.4571017430132
 31
0.0
  0
LINE
  5
1D22
330
18
100
AcDbEntity
  8
0
100
AcDbLine
 10
285.1090194181042
 20
983.4571017430132
 30
0.0
 11
285.1090194181044
 21
976.8321017430137
 31
0.0
  0
LINE
  5
1D23
330
18
100
AcDbEntity
  8
0
100
AcDbLine
 10
287.1090194181044
 20
976.8321017430137
 30
0.0
 11
285.1090194181044
 21
976.8321017430137
 31
0.0
  0
INSERT
  5
210A
330
18
100
AcDbEntity
  8
0
100
AcDbBlockReference
  2
LINETYPE
 10
1159.671809081867
 20
1262.952798464323
 30
0.0
  0
INSERT
  5
210B
330
18
100
AcDbEntity
  8
0
100
AcDbBlockReference
  2
LINETYPE
 10
1526.163402707417
 20
1252.877706408245
 30
0.0
  0
INSERT
  5
2142
330
18
100
AcDbEntity
  8
0
100
AcDbBlockReference
  2
LINETYPE
 10
1645.455759361513
 20
1307.565646081155
 30
0.0
  0
INSERT
  5
2143
330
18
100
AcDbEntity
  8
0
100
AcDbBlockReference
  2
LINETYPE
 10
2011.947352987062
 20
1297.490554025076
 30
0.0
  0
LINE
  5
225B
330
18
100
AcDbEntity
  8
0
100
AcDbLine
 10
214.6097806194243
 20
976.582101743013
 30
0.0
 11
25.14878240229439
 21
976.5821017430132
 31
0.0
  0
DIMENSION
  5
2368
330
18
100
AcDbEntity
  8
0
100
AcDbDimension
  2
*D1
 10
284.8590194181044
 20
972.3831446997465
 30
0.0
 11
269.1221565166219
 21
972.3831446997465
 31
0.0
 70
    32
  1
CLEAR TREAD\P31-1/2"MIN\P55-1/2"MAX
 71
     5
 42
31.47372580296496
 73
     0
 74
     0
 75
     0
  3
STANDARD$0
100
AcDbAlignedDimension
 13
253.3852936151394
 23
976.5821017430138
 33
0.0
 14
284.8590194181044
 24
976.5821017430134
 34
0.0
100
AcDbRotatedDimension
  0
TEXT
  5
2C6B
330
18
100
AcDbEntity
  8
0
100
AcDbText
 10
107.9860182112615
 20
1001.983992786603
 30
0.0
 40
2.2320522
  1
(TYPICAL)
  7
ROMANS
100
AcDbText
  0
INSERT
  5
30A8
330
18
100
AcDbEntity
  8
0
100
AcDbBlockReference
  2
LINETYPE
 10
353.6907942653397
 20
938.9188396915168
 30
0.0
  0
INSERT
  5
3584
330
18
100
AcDbEntity
  8
0
100
AcDbBlockReference
  2
LINETYPE
 10
580.5048466692899
 20
999.7249753139026
 30
0.0
  0
INSERT
  5
3590
330
18
100
AcDbEntity
  8
0
100
AcDbBlockReference
  2
LINETYPE
 10
946.9964402948395
 20
989.649883257824
 30
0.0
  0
INSERT
  5
3591
330
18
100
AcDbEntity
  8
0
100
AcDbBlockReference
  2
LINETYPE
 10
1066.288796948935
 20
1044.337822930734
 30
0.0
  0
INSERT
  5
3592
330
18
100
AcDbEntity
  8
0
100
AcDbBlockReference
  2
LINETYPE
 10
1432.780390574485
 20
1034.262730874655
 30
0.0
  0
TEXT
  5
3595
330
18
100
AcDbEntity
  8
0
100
AcDbText
 10
0.0060109785039231
 20
1158.437381666268
 30
0.0
 40
2.794774752
  1
BAR GRATING TREAD
  7
ROMANS
100
AcDbText
  0
CIRCLE
  5
3596
330
18
100
AcDbEntity
  8
0
100
AcDbCircle
 10
-4.506934653442158
 20
1159.628426596166
 30
0.0
 40
2.549005726789845
  0
TEXT
  5
3597
330
18
100
AcDbEntity
  8
0
100
AcDbText
 10
-5.533912123179097
 20
1158.15847629144
 30
0.0
 40
2.794774752
  1
A
  7
ROMANS
 72
     1
 11
-4.336151515179096
 21
1158.15847629144
 31
0.0
100
AcDbText
  0
TEXT
  5
3598
330
18
100
AcDbEntity
  8
0
100
AcDbText
 10
6.572669387608698
 20
1123.661929738739
 30
0.0
 40
1.6768648512
  1
TREAD WELDED AND BOLTED
  7
ROMANS
100
AcDbText
  0
TEXT
  5
3599
330
18
100
AcDbEntity
  8
0
100
AcDbText
 10
9.139377764146559
 20
1120.947005693939
 30
0.0
 40
1.6768648512
  1
TO STRINGER WITH 3/8"
  7
ROMANS
100
AcDbText
  0
TEXT
  5
359A
330
18
100
AcDbEntity
  8
0
100
AcDbText
 10
11.47274934663824
 20
1118.232081649139
 30
0.0
 40
1.6768648512
  1
HEX HEAD BOLTS
  7
ROMANS
100
AcDbText
  0
INSERT
  5
359B
330
18
100
AcDbEntity
  8
0
100
AcDbBlockReference
  2
LINETYPE
 10
667.3663632275645
 20
1325.838801791054
 30
0.0
  0
INSERT
  5
359C
330
18
100
AcDbEntity
  8
0
100
AcDbBlockReference
  2
LINETYPE
 10
1033.857956853114
 20
1315.763709734975
 30
0.0
  0
INSERT
  5
359D
330
18
100
AcDbEntity
  8
0
100
AcDbBlockReference
  2
LINETYPE
 10
1153.15031350721
 20
1370.451649407885
 30
0.0
  0
INSERT
  5
359E
330
18
100
AcDbEntity
  8
0
100
AcDbBlockReference
  2
LINETYPE
 10
1519.64190713276
 20
1360.376557351807
 30
0.0
  0
LINE
  5
35A0
330
18
100
AcDbEntity
  8
0
100
AcDbLine
 10
51.24266222452661
 20
1142.430245723928
 30
0.0
 11
-0.7303894777917322
 21
1142.430245723928
 31
0.0
  0
LINE
  5
35A1
330
18
100
AcDbEntity
  8
0
100
AcDbLine
 10
-0.7303894777917322
 20
1142.430245723928
 30
0.0
 11
-0.7303894777917322
 21
1130.257614959482
 31
0.0
  0
LINE
  5
35A2
330
18
100
AcDbEntity
  8
0
100
AcDbLine
 10
51.24266222452684
 20
1142.430245723928
 30
0.0
 11
51.24266222452661
 21
1130.257614959482
 31
0.0
  0
LINE
  5
35A3
330
18
100
AcDbEntity
  8
0
100
AcDbLine
 10
51.24266222452661
 20
1130.257614959482
 30
0.0
 11
-0.7303894777917322
 21
1130.257614959482
 31
0.0
  0
LINE
  5
35A4
330
18
100
AcDbEntity
  8
0
  6
HIDDEN
100
AcDbLine
 10
51.24266222452684
 20
1135.900614959482
 30
0.0
 11
50.11406222452666
 21
1135.900614959482
 31
0.0
  0
LINE
  5
35A5
330
18
100
AcDbEntity
  8
0
  6
HIDDEN
100
AcDbLine
 10
0.3982105222083874
 20
1140.173045723928
 30
0.0
 11
0.3982105222083305
 21
1133.643414959482
 31
0.0
  0
LINE
  5
35A6
330
18
100
AcDbEntity
  8
0
  6
HIDDEN
100
AcDbLine
 10
50.11406222452666
 20
1141.301645723928
 30
0.0
 11
45.88899149084949
 21
1141.301645723928
 31
0.0
  0
LINE
  5
35A7
330
18
100
AcDbEntity
  8
0
  6
HIDDEN
100
AcDbLine
 10
50.11406222452677
 20
1142.430245723928
 30
0.0
 11
50.11406222452666
 21
1135.900614959482
 31
0.0
  0
LINE
  5
35A8
330
18
100
AcDbEntity
  8
0
  6
HIDDEN
100
AcDbLine
 10
4.912610522208296
 20
1142.430245723928
 30
0.0
 11
4.912610522208296
 21
1135.900614959482
 31
0.0
  0
LINE
  5
35A9
330
18
100
AcDbEntity
  8
0
  6
HIDDEN
100
AcDbLine
 10
6.041210522208302
 20
1142.430245723928
 30
0.0
 11
6.041210522208302
 21
1135.900614959482
 31
0.0
  0
LINE
  5
35AA
330
18
100
AcDbEntity
  8
0
  6
HIDDEN
100
AcDbLine
 10
10.55561052220827
 20
1142.430245723928
 30
0.0
 11
10.55561052220827
 21
1135.900614959482
 31
0.0
  0
LINE
  5
35AB
330
18
100
AcDbEntity
  8
0
  6
HIDDEN
100
AcDbLine
 10
11.68421052220827
 20
1142.430245723928
 30
0.0
 11
11.68421052220827
 21
1135.900614959482
 31
0.0
  0
LINE
  5
35AC
330
18
100
AcDbEntity
  8
0
  6
HIDDEN
100
AcDbLine
 10
33.31974675086139
 20
1142.430245723928
 30
0.0
 11
33.31974675086139
 21
1135.900614959482
 31
0.0
  0
LINE
  5
35AD
330
18
100
AcDbEntity
  8
0
  6
HIDDEN
100
AcDbLine
 10
34.44834675086139
 20
1142.430245723928
 30
0.0
 11
34.44834675086128
 21
1135.900614959482
 31
0.0
  0
LINE
  5
35AE
330
18
100
AcDbEntity
  8
0
  6
HIDDEN
100
AcDbLine
 10
44.76039149084965
 20
1142.430245723928
 30
0.0
 11
44.76039149084965
 21
1135.900614959482
 31
0.0
  0
LINE
  5
35AF
330
18
100
AcDbEntity
  8
0
  6
HIDDEN
100
AcDbLine
 10
45.88899149084966
 20
1142.430245723928
 30
0.0
 11
45.88899149084966
 21
1135.900614959482
 31
0.0
  0
LINE
  5
35B0
330
18
100
AcDbEntity
  8
0
  6
HIDDEN
100
AcDbLine
 10
4.912610522208296
 20
1141.301645723928
 30
0.0
 11
-0.7303894777917322
 21
1141.301645723928
 31
0.0
  0
LINE
  5
35B1
330
18
100
AcDbEntity
  8
0
  6
HIDDEN
100
AcDbLine
 10
10.55561052220838
 20
1141.301645723928
 30
0.0
 11
6.041210522208302
 21
1141.301645723928
 31
0.0
  0
LINE
  5
35B3
330
18
100
AcDbEntity
  8
0
  6
HIDDEN
100
AcDbLine
 10
44.76039149084954
 20
1141.301645723928
 30
0.0
 11
40.0913467508613
 21
1141.301645723928
 31
0.0
  0
LINE
  5
35B4
330
18
100
AcDbEntity
  8
0
  6
HIDDEN
100
AcDbLine
 10
4.912610522208296
 20
1140.173045723928
 30
0.0
 11
0.3982105222083874
 21
1140.173045723928
 31
0.0
  0
LINE
  5
35B5
330
18
100
AcDbEntity
  8
0
  6
HIDDEN
100
AcDbLine
 10
6.041210522208302
 20
1135.900614959482
 30
0.0
 11
4.91261052220841
 21
1135.900614959482
 31
0.0
  0
LINE
  5
35B6
330
18
100
AcDbEntity
  8
0
  6
HIDDEN
100
AcDbLine
 10
11.68421052220833
 20
1135.900614959482
 30
0.0
 11
10.55561052220827
 21
1135.900614959482
 31
0.0
  0
LINE
  5
35B7
330
18
100
AcDbEntity
  8
0
  6
HIDDEN
100
AcDbLine
 10
34.44834675086139
 20
1135.900614959482
 30
0.0
 11
33.31974675086144
 21
1135.900614959482
 31
0.0
  0
LINE
  5
35B8
330
18
100
AcDbEntity
  8
0
  6
HIDDEN
100
AcDbLine
 10
45.88899149084966
 20
1135.900614959482
 30
0.0
 11
44.76039149084965
 21
1135.900614959482
 31
0.0
  0
CIRCLE
  5
35B9
330
18
100
AcDbEntity
  8
0
100
AcDbCircle
 10
4.348310522208294
 20
1133.643414959482
 30
0.0
 40
0.9875249999999999
  0
ARC
  5
35BA
330
18
100
AcDbEntity
  8
0
100
AcDbCircle
 10
37.69549739432455
 20
1133.643414959482
 30
0.0
 40
0.9875249999999999
100
AcDbArc
 50
90.0
 51
270.0
  0
ARC
  5
35BB
330
18
100
AcDbEntity
  8
0
100
AcDbCircle
 10
41.64559739432457
 20
1133.643414959482
 30
0.0
 40
0.9875249999999999
100
AcDbArc
 50
270.0
 51
90.0
  0
LINE
  5
35BC
330
18
100
AcDbEntity
  8
0
100
AcDbLine
 10
37.69549739432455
 20
1132.655889959482
 30
0.0
 11
41.64559739432457
 21
1132.655889959482
 31
0.0
  0
LINE
  5
35BD
330
18
100
AcDbEntity
  8
0
100
AcDbLine
 10
37.69549739432455
 20
1134.630939959482
 30
0.0
 11
41.64559739432457
 21
1134.630939959482
 31
0.0
  0
LINE
  5
35BE
330
18
100
AcDbEntity
  8
0
  6
HIDDEN
100
AcDbLine
 10
0.3982105222083305
 20
1133.643414959482
 30
0.0
 11
-0.730389477791789
 21
1133.643414959482
 31
0.0
  0
DIMENSION
  5
35BF
330
18
100
AcDbEntity
  8
0
100
AcDbDimension
  2
*D3
 10
51.24266222452661
 20
1147.23753231655
 30
0.0
 11
25.25613637336744
 21
1147.23753231655
 31
0.0
 70
    32
  1
AS REQ'D
 71
     5
 42
51.97305170231834
 73
     0
 74
     0
 75
     0
  3
STANDARD$0
100
AcDbAlignedDimension
 13
-0.7303894777917322
 23
1142.430245723928
 33
0.0
 14
51.24266222452661
 24
1142.430245723928
 34
0.0
100
AcDbRotatedDimension
  0
DIMENSION
  5
35C0
330
18
100
AcDbEntity
  8
0
100
AcDbDimension
  2
*D4
 10
59.60163811740146
 20
1135.900614959482
 30
0.0
 11
59.60163811740128
 21
1139.165430341705
 31
0.0
 70
   160
  1
VARIES
 71
     5
 42
6.52963076444621
 73
     0
 74
     0
 75
     0
  3
STANDARD$0
100
AcDbAlignedDimension
 13
51.24266222452661
 23
1142.430245723928
 33
0.0
 14
51.24266222452684
 24
1135.900614959482
 34
0.0
 50
90.0
100
AcDbRotatedDimension
  0
TEXT
  5
35C1
330
18
100
AcDbEntity
  8
0
100
AcDbText
 10
11.56570264757266
 20
1154.350593657276
 30
0.0
 40
1.6768648512
  1
(GROOVED NOSING)
  7
ROMANS
100
AcDbText
  0
INSERT
  5
3600
330
18
100
AcDbEntity
  8
0
100
AcDbBlockReference
  2
LINETYPE
 10
552.6865624342715
 20
975.5032583184439
 30
0.0
  0
LINE
  5
37AF
330
18
100
AcDbEntity
  8
0
  6
HIDDEN
100
AcDbLine
 10
40.0913467508613
 20
1142.430245723928
 30
0.0
 11
40.09134675086118
 21
1135.900614959482
 31
0.0
  0
LINE
  5
37B0
330
18
100
AcDbEntity
  8
0
  6
HIDDEN
100
AcDbLine
 10
38.96274675086124
 20
1142.430245723928
 30
0.0
 11
38.96274675086124
 21
1135.900614959482
 31
0.0
  0
LINE
  5
37B1
330
18
100
AcDbEntity
  8
0
  6
HIDDEN
100
AcDbLine
 10
40.0913467508613
 20
1135.900614959482
 30
0.0
 11
38.96274675086136
 21
1135.900614959482
 31
0.0
  0
LINE
  5
37BE
330
18
100
AcDbEntity
  8
0
  6
HIDDEN
100
AcDbLine
 10
38.96274675086124
 20
1141.301645723928
 30
0.0
 11
34.44834675086128
 21
1141.301645723928
 31
0.0
  0
DIMENSION
  5
389E
330
18
100
AcDbEntity
  8
0
100
AcDbDimension
  2
*D5
 10
214.6097806194243
 20
959.5225387177372
 30
0.0
 11
119.8792815108593
 21
959.5225387177372
 31
0.0
 70
    32
  1
AS REQ'D
 71
     5
 42
189.4609982171298
 73
     0
 74
     0
 75
     0
  3
STANDARD$0
100
AcDbAlignedDimension
 13
25.14878240229439
 23
976.5821017430132
 33
0.0
 14
214.6097806194243
 24
976.582101743012
 34
0.0
100
AcDbRotatedDimension
  0
INSERT
  5
3F3B
330
18
100
AcDbEntity
  8
0
100
AcDbBlockReference
  2
LINETYPE
 10
968.4915880401558
 20
1056.659252077015
 30
0.0
  0
INSERT
  5
3F3C
330
18
100
AcDbEntity
  8
0
100
AcDbBlockReference
  2
LINETYPE
 10
1334.983181665705
 20
1046.584160020937
 30
0.0
  0
INSERT
  5
3F73
330
18
100
AcDbEntity
  8
0
100
AcDbBlockReference
  2
LINETYPE
 10
1454.275538319801
 20
1101.272099693847
 30
0.0
  0
INSERT
  5
3F74
330
18
100
AcDbEntity
  8
0
100
AcDbBlockReference
  2
LINETYPE
 10
1820.767131945351
 20
1091.197007637768
 30
0.0
  0
LINE
  5
45F0
330
18
100
AcDbEntity
  8
0
  6
HIDDEN
100
AcDbLine
 10
27.67674675086153
 20
1142.430245723928
 30
0.0
 11
27.67674675086153
 21
1135.900614959482
 31
0.0
  0
LINE
  5
45F1
330
18
100
AcDbEntity
  8
0
  6
HIDDEN
100
AcDbLine
 10
28.80534675086153
 20
1142.430245723928
 30
0.0
 11
28.80534675086142
 21
1135.900614959482
 31
0.0
  0
LINE
  5
45F2
330
18
100
AcDbEntity
  8
0
  6
HIDDEN
100
AcDbLine
 10
28.80534675086153
 20
1135.900614959482
 30
0.0
 11
27.67674675086158
 21
1135.900614959482
 31
0.0
  0
LINE
  5
45F3
330
18
100
AcDbEntity
  8
0
  6
HIDDEN
100
AcDbLine
 10
33.31974675086139
 20
1141.301645723928
 30
0.0
 11
28.80534675086142
 21
1141.301645723928
 31
0.0
  0
LINE
  5
45F4
330
18
100
AcDbEntity
  8
0
  6
HIDDEN
100
AcDbLine
 10
23.16234675086162
 20
1142.430245723928
 30
0.0
 11
23.1623467508615
 21
1135.900614959482
 31
0.0
  0
LINE
  5
45F5
330
18
100
AcDbEntity
  8
0
  6
HIDDEN
100
AcDbLine
 10
22.03374675086161
 20
1142.430245723928
 30
0.0
 11
22.03374675086161
 21
1135.900614959482
 31
0.0
  0
LINE
  5
45F6
330
18
100
AcDbEntity
  8
0
  6
HIDDEN
100
AcDbLine
 10
23.16234675086162
 20
1135.900614959482
 30
0.0
 11
22.03374675086172
 21
1135.900614959482
 31
0.0
  0
LINE
  5
45F7
330
18
100
AcDbEntity
  8
0
  6
HIDDEN
100
AcDbLine
 10
27.67674675086153
 20
1141.301645723928
 30
0.0
 11
23.1623467508615
 21
1141.301645723928
 31
0.0
  0
LINE
  5
45F8
330
18
100
AcDbEntity
  8
0
  6
HIDDEN
100
AcDbLine
 10
16.39074675086163
 20
1142.430245723928
 30
0.0
 11
16.39074675086163
 21
1135.900614959482
 31
0.0
  0
LINE
  5
45F9
330
18
100
AcDbEntity
  8
0
  6
HIDDEN
100
AcDbLine
 10
17.5193467508617
 20
1142.430245723928
 30
0.0
 11
17.51934675086159
 21
1135.900614959482
 31
0.0
  0
LINE
  5
45FA
330
18
100
AcDbEntity
  8
0
  6
HIDDEN
100
AcDbLine
 10
17.5193467508617
 20
1135.900614959482
 30
0.0
 11
16.39074675086175
 21
1135.900614959482
 31
0.0
  0
LINE
  5
45FB
330
18
100
AcDbEntity
  8
0
  6
HIDDEN
100
AcDbLine
 10
22.03374675086161
 20
1141.301645723928
 30
0.0
 11
17.51934675086159
 21
1141.301645723928
 31
0.0
  0
LINE
  5
45FC
330
18
100
AcDbEntity
  8
0
  6
HIDDEN
100
AcDbLine
 10
16.39074675086163
 20
1141.301645723928
 30
0.0
 11
11.87634675086167
 21
1141.301645723928
 31
0.0
  0
LINE
  5
48C7
330
18
100
AcDbEntity
  8
0
100
AcDbLine
 10
253.3852936151394
 20
1032.582101743013
 30
0.0
 11
253.1040436151392
 21
1032.582101743013
 31
0.0
  0
LINE
  5
48C8
330
18
100
AcDbEntity
  8
0
100
AcDbLine
 10
284.8590194181044
 20
1032.582101743013
 30
0.0
 11
285.1402694181045
 21
1032.582101743013
 31
0.0
  0
LINE
  5
48C9
330
18
100
AcDbEntity
  8
0
100
AcDbLine
 10
284.8590194181044
 20
1032.582101743013
 30
0.0
 11
282.8902694181046
 21
1032.582101743013
 31
0.0
  0
LINE
  5
4914
330
18
100
AcDbEntity
  8
0
100
AcDbLine
 10
286.6992110894269
 20
1014.446288658214
 30
0.0
 11
285.4492110894271
 21
1014.446288658214
 31
0.0
  0
DIMENSION
  5
4A2B
330
18
100
AcDbEntity
  8
0
100
AcDbDimension
  2
*D6
 10
251.1352936151394
 20
959.5225387177372
 30
0.0
 11
269.6192454528716
 21
959.5225387177372
 31
0.0
 70
   160
  1
CLEAR TREAD \P+ 4-1/2"
 71
     5
 42
35.97372580296497
 73
     0
 74
     0
 75
     0
  3
STANDARD$0
100
AcDbAlignedDimension
 13
287.1090194181044
 23
976.5821017430138
 33
0.0
 14
251.1352936151394
 24
976.5821017430134
 34
0.0
100
AcDbRotatedDimension
1001
ACAD
1000
DSTYLE
1002
{
1070
   279
1070
     2
1002
}
  0
CIRCLE
  5
4A3E
330
18
100
AcDbEntity
  8
0
  6
PHANTOM
100
AcDbCircle
 10
61.03154196381808
 20
1007.453983376943
 30
0.0
 40
6.228796531046824
  0
CIRCLE
  5
4A3F
330
18
100
AcDbEntity
  8
0
100
AcDbCircle
 10
70.95975939454928
 20
999.9232401252747
 30
0.0
 40
2.384584713686682
  0
TEXT
  5
4A40
330
18
100
AcDbEntity
  8
0
100
AcDbText
 10
69.85868514874937
 20
998.6739037460422
 30
0.0
 40
2.566860029999999
  1
A
  7
ROMANS
100
AcDbText
  0
LINE
  5
4A41
330
18
100
AcDbEntity
  8
0
100
AcDbLine
 10
65.99421236504316
 20
1003.689702739957
 30
0.0
 11
69.05988870221836
 21
1001.364328467178
 31
0.0
  0
LINE
  5
4D75
330
18
100
AcDbEntity
  8
0
100
AcDbLine
 10
154.1292815108594
 20
1023.706944455719
 30
0.0
 11
210.2802180186778
 21
976.5821017430134
 31
0.0
  0
LINE
  5
4D76
330
18
100
AcDbEntity
  8
0
100
AcDbLine
 10
154.1292815108594
 20
1023.380567983892
 30
0.0
 11
209.8913287727461
 21
976.5821017430132
 31
0.0
  0
LINE
  5
4D7A
330
18
100
AcDbEntity
  8
0
100
AcDbLine
 10
155.2208913734924
 20
1032.582101743013
 30
0.0
 11
214.6097806194241
 21
982.7397974351029
 31
0.0
  0
LINE
  5
4D7B
330
18
100
AcDbEntity
  8
0
100
AcDbLine
 10
155.6097806194243
 20
1032.582101743013
 30
0.0
 11
214.6097806194241
 21
983.0661739069299
 31
0.0
  0
LINE
  5
4DAB
330
18
100
AcDbEntity
  8
0
100
AcDbLine
 10
214.6097806194242
 20
976.5821017430134
 30
0.0
 11
209.891328772746
 21
976.5821017430134
 31
0.0
  0
LINE
  5
4DAD
330
18
100
AcDbEntity
  8
0
100
AcDbLine
 10
214.6097806194241
 20
983.0661739069297
 30
0.0
 11
214.6097806194242
 21
976.5821017430134
 31
0.0
  0
LINE
  5
4E58
330
18
100
AcDbEntity
  8
0
100
AcDbLine
 10
120.6955315108618
 20
1033.082101743013
 30
0.0
 11
152.1917815108593
 21
1033.082101743013
 31
0.0
  0
LINE
  5
4E59
330
18
100
AcDbEntity
  8
0
100
AcDbLine
 10
120.6955315108616
 20
1037.082101743012
 30
0.0
 11
152.1917815108593
 21
1037.082101743013
 31
0.0
  0
TEXT
  5
4E5A
330
18
100
AcDbEntity
  8
0
100
AcDbText
 10
126.8122468008672
 20
1033.86557471147
 30
0.0
 40
2.210999999999999
  1
TOE BOARDS
  7
ROMANS
 72
     4
 11
137.2881753722958
 21
1034.97107471147
 31
0.0
100
AcDbText
  0
LINE
  5
4E6E
330
18
100
AcDbEntity
  8
0
100
AcDbLine
 10
87.56678151085933
 20
1037.082101743013
 30
0.0
 11
119.0355315108615
 21
1037.082101743013
 31
0.0
  0
LINE
  5
4E6F
330
18
100
AcDbEntity
  8
0
100
AcDbLine
 10
87.56678151085933
 20
1033.082101743013
 30
0.0
 11
119.0355315108618
 21
1033.082101743013
 31
0.0
  0
LINE
  5
4E7E
102
{ACAD_REACTORS
330
5EBC
102
}
330
18
100
AcDbEntity
  8
0
100
AcDbLine
 10
87.56678151085935
 20
1032.582101743013
 30
0.0
 11
119.0355315108618
 21
1032.582101743013
 31
0.0
  0
LINE
  5
4E80
330
18
100
AcDbEntity
  8
0
100
AcDbLine
 10
85.87928151085931
 20
1032.582101743013
 30
0.0
 11
85.87928151085931
 21
1023.332101743013
 31
0.0
  0
LINE
  5
4E81
330
18
100
AcDbEntity
  8
0
100
AcDbLine
 10
153.8792815108593
 20
1032.582101743013
 30
0.0
 11
153.8792815108593
 21
1023.332101743013
 31
0.0
  0
LEADER
  5
4EC0
330
18
100
AcDbEntity
  8
0
100
AcDbLeader
  3
STANDARD
 73
     0
 40
2.25
 41
2.25
 76
     3
 10
100.0452972461537
 20
1023.332101743013
 30
0.0
 10
92.94401930859738
 20
1010.948699893984
 30
0.0
 10
100.3428006038752
 20
1010.948699893984
 30
0.0
340
4EC1
213
3.0
223
-1.125
233
0.0
1001
ACAD
1000
DSTYLE
1002
{
1070
   147
1040
0.0625
1070
    77
1070
     0
1002
}
  0
MTEXT
  5
4EC1
102
{ACAD_REACTORS
330
4EC0
102
}
330
18
100
AcDbEntity
  8
0
 62
     7
100
AcDbMText
 10
438.1806435166629
 20
1024.836944927973
 30
0.0
 40
2.25
 41
0.0
 46
0.0
 71
     1
 72
     1
  1
\A1; 
  7
ROMANS
 73
     1
 44
1.0
  0
INSERT
  5
5051
330
18
100
AcDbEntity
  8
0
100
AcDbBlockReference
 66
     1
  2
border-T
 10
-19.83971125698866
 20
922.2967138823412
 30
0.0
 41
1.199999999999999
 42
1.199999999999999
 43
1.199999999999999
  0
ATTRIB
  5
5052
330
5051
100
AcDbEntity
  8
0
 62
     5
100
AcDbText
 10
-18.31499362159644
 20
942.6402666645644
 30
0.0
 40
2.699999999999999
  1

  7
ROMANS
100
AcDbAttribute
  2
SCALE
 70
     0
280
     0
  0
ATTRIB
  5
5053
330
5051
100
AcDbEntity
  8
0
100
AcDbText
 10
296.8074013139702
 20
942.6608930056948
 30
0.0
 40
2.102203124999999
  1
PS-6
  7
ROMANS
 72
     4
 11
301.2120173853988
 21
943.7119945681947
 31
0.0
100
AcDbAttribute
  2
SAVEDAS
 70
     0
280
     0
  0
ATTRIB
  5
5054
330
5051
100
AcDbEntity
  8
0
 62
     5
100
AcDbText
 10
59.08707628841376
 20
938.4860285998499
 30
0.0
 40
1.497794117647058
  1

 50
90.0
  7
ROMANS
 72
     4
 11
59.08707628841376
 21
938.4860285998499
 31
0.0
100
AcDbAttribute
  2
X
 70
     0
280
     0
  0
ATTRIB
  5
5055
330
5051
100
AcDbEntity
  8
0
100
AcDbText
 10
125.0924723324883
 20
935.6986785822865
 30
0.0
 40
2.122835657142857
  1

  7
ROMANS
 72
     1
 11
125.0924723324883
 21
935.6986785822865
 31
0.0
100
AcDbAttribute
  2
ARCHORENG
 70
     0
280
     0
  0
ATTRIB
  5
5056
330
5051
100
AcDbEntity
  8
0
100
AcDbText
 10
125.0924723324883
 20
929.5145716568514
 30
0.0
 40
2.122835657142857
  1

  7
ROMANS
 72
     1
 11
125.0924723324883
 21
929.5145716568514
 31
0.0
100
AcDbAttribute
  2
PURCHASEORDER
 70
     0
280
     0
  0
ATTRIB
  5
5057
330
5051
100
AcDbEntity
  8
0
100
AcDbText
 10
121.8071314345291
 20
923.3304647314165
 30
0.0
 40
2.122835657142857
  1
DNH
  7
ROMANS
 72
     1
 11
125.0924723324883
 21
923.3304647314165
 31
0.0
100
AcDbAttribute
  2
DRAWNBY
 70
     0
280
     0
  0
ATTRIB
  5
5058
330
5051
100
AcDbEntity
  8
0
100
AcDbText
 10
161.3971866182027
 20
929.5145716568514
 30
0.0
 40
2.122835657142857
  1

  7
ROMANS
 72
     1
 11
161.3971866182027
 21
929.5145716568514
 31
0.0
100
AcDbAttribute
  2
DATE
 70
     0
280
     0
  0
ATTRIB
  5
5059
330
5051
100
AcDbEntity
  8
0
100
AcDbText
 10
155.129767059019
 20
923.3304647314165
 30
0.0
 40
2.122835657142857
  1
2/9/22
  7
ROMANS
 72
     1
 11
161.3971866182027
 21
923.3304647314165
 31
0.0
100
AcDbAttribute
  2
DATE
 70
     0
280
     0
  0
ATTRIB
  5
505A
330
5051
100
AcDbEntity
  8
0
100
AcDbText
 10
197.7019009039169
 20
935.6986785822865
 30
0.0
 40
2.122835657142857
  1

  7
ROMANS
 72
     1
 11
197.7019009039169
 21
935.6986785822865
 31
0.0
100
AcDbAttribute
  2
PROJECT
 70
     0
280
     0
  0
ATTRIB
  5
505B
330
5051
100
AcDbEntity
  8
0
100
AcDbText
 10
207.6031866182026
 20
929.5145716568514
 30
0.0
 40
2.122835657142857
  1

  7
ROMANS
 72
     1
 11
207.6031866182026
 21
929.5145716568514
 31
0.0
100
AcDbAttribute
  2
PURCHASER
 70
     0
280
     0
  0
ATTRIB
  5
505C
330
5051
100
AcDbEntity
  8
0
100
AcDbText
 10
197.6159011651414
 20
923.3304647314167
 30
0.0
 40
2.122835657142857
  1
PS-
  7
ROMANS
 72
     1
 11
201.0023294753455
 21
923.3304647314167
 31
0.0
100
AcDbAttribute
  2
MODEL
 70
     0
280
     0
  0
ATTRIB
  5
505D
330
5051
100
AcDbEntity
  8
0
100
AcDbText
 10
237.3070437610597
 20
923.3304647314165
 30
0.0
 40
2.122835657142857
  1

  7
ROMANS
 72
     1
 11
237.3070437610597
 21
923.3304647314165
 31
0.0
100
AcDbAttribute
  2
QTY
 70
     0
280
     0
  0
ATTRIB
  5
505E
330
5051
100
AcDbEntity
  8
0
100
AcDbText
 10
276.9121866182026
 20
935.6978755558062
 30
0.0
 40
2.122835657142857
  1

  7
ROMANS
 72
     1
 11
276.9121866182026
 21
935.6978755558062
 31
0.0
100
AcDbAttribute
  2
REP
 70
     0
280
     0
  0
ATTRIB
  5
505F
330
5051
100
AcDbEntity
  8
0
100
AcDbText
 10
276.9531898017846
 20
926.0806003048539
 30
0.0
 40
4.146163392857142
  1

  7
ROMANS
 72
     1
 11
276.9531898017846
 21
926.0806003048539
 31
0.0
100
AcDbAttribute
  2
L010000
 70
     0
280
     0
  0
SEQEND
  5
5060
330
5051
100
AcDbEntity
  8
0
 62
     7
  0
LINE
  5
50EB
330
18
100
AcDbEntity
  8
0
100
AcDbLine
 10
284.8590194181044
 20
1022.332101743013
 30
0.0
 11
282.8902694181046
 21
1022.332101743013
 31
0.0
  0
LINE
  5
50EC
330
18
100
AcDbEntity
  8
0
100
AcDbLine
 10
284.8590194181044
 20
1024.582101743013
 30
0.0
 11
282.8902694181046
 21
1024.582101743013
 31
0.0
  0
LINE
  5
50ED
330
18
100
AcDbEntity
  8
0
100
AcDbLine
 10
284.8590194181044
 20
1014.332101743013
 30
0.0
 11
282.8902694181045
 21
1014.332101743013
 31
0.0
  0
LINE
  5
50EE
330
18
100
AcDbEntity
  8
0
100
AcDbLine
 10
284.8590194181044
 20
1016.582101743013
 30
0.0
 11
282.8902694181045
 21
1016.582101743013
 31
0.0
  0
LINE
  5
50EF
330
18
100
AcDbEntity
  8
0
100
AcDbLine
 10
281.2460754202366
 20
1006.332101743013
 30
0.0
 11
256.9982376130073
 21
1006.332101743014
 31
0.0
  0
LINE
  5
50F0
330
18
100
AcDbEntity
  8
0
100
AcDbLine
 10
284.8590194181044
 20
1008.582101743013
 30
0.0
 11
282.8902694181045
 21
1008.582101743013
 31
0.0
  0
LINE
  5
50F1
330
18
100
AcDbEntity
  8
0
100
AcDbLine
 10
284.8590194181044
 20
998.3321017430135
 30
0.0
 11
253.3852936151394
 21
998.3321017430139
 31
0.0
  0
LINE
  5
50F2
330
18
100
AcDbEntity
  8
0
100
AcDbLine
 10
284.8590194181044
 20
1000.582101743013
 30
0.0
 11
282.8902694181046
 21
1000.582101743013
 31
0.0
  0
LINE
  5
50F3
330
18
100
AcDbEntity
  8
0
100
AcDbLine
 10
284.8590194181044
 20
990.3321017430135
 30
0.0
 11
253.3852936151394
 21
990.3321017430139
 31
0.0
  0
LINE
  5
50F4
330
18
100
AcDbEntity
  8
0
100
AcDbLine
 10
284.8590194181044
 20
992.5821017430134
 30
0.0
 11
253.3852936151394
 21
992.582101743014
 31
0.0
  0
LINE
  5
50F5
330
18
100
AcDbEntity
  8
0
100
AcDbLine
 10
284.8590194181044
 20
982.3321017430135
 30
0.0
 11
253.3852936151394
 21
982.3321017430139
 31
0.0
  0
LINE
  5
50F6
330
18
100
AcDbEntity
  8
0
100
AcDbLine
 10
284.8590194181044
 20
984.5821017430134
 30
0.0
 11
253.3852936151394
 21
984.5821017430139
 31
0.0
  0
LWPOLYLINE
  5
50F7
330
18
100
AcDbEntity
  8
0
  6
HIDDEN
100
AcDbPolyline
 90
        5
 70
     0
 43
0.0
 10
156.0749147363931
 20
1022.342831926473
 10
165.1292815108593
 20
1022.342831926473
 10
165.1292815108593
 20
1024.592831926473
 10
154.1292815108593
 20
1024.592831926473
 10
154.1292815108594
 20
1024.556810804012
  0
LWPOLYLINE
  5
50F8
330
18
100
AcDbEntity
  8
0
  6
Continuous
100
AcDbPolyline
 90
        3
 70
     0
 43
0.0
 10
154.1292815108594
 20
1024.556810804012
 10
154.1292815108594
 20
1022.342831926473
 10
156.0749147363931
 20
1022.342831926473
  0
LWPOLYLINE
  5
50F9
330
18
100
AcDbEntity
  8
0
  6
HIDDEN
100
AcDbPolyline
 90
        5
 70
     0
 43
0.0
 10
165.5944156278282
 20
1014.353562109934
 10
174.6487824022944
 20
1014.353562109934
 10
174.6487824022944
 20
1016.603562109934
 10
163.6487824022944
 20
1016.603562109934
 10
163.6487824022945
 20
1016.567540987472
  0
LWPOLYLINE
  5
50FA
330
18
100
AcDbEntity
  8
0
  6
Continuous
100
AcDbPolyline
 90
        3
 70
     0
 43
0.0
 10
163.6487824022945
 20
1016.567540987472
 10
163.6487824022945
 20
1014.353562109934
 10
165.5944156278282
 20
1014.353562109934
  0
LWPOLYLINE
  5
50FB
330
18
100
AcDbEntity
  8
0
  6
HIDDEN
100
AcDbPolyline
 90
        5
 70
     0
 43
0.0
 10
175.1139165192633
 20
1006.364292293394
 10
184.1682832937295
 20
1006.364292293394
 10
184.1682832937295
 20
1008.614292293394
 10
173.1682832937295
 20
1008.614292293394
 10
173.1682832937296
 20
1008.578271170933
  0
LWPOLYLINE
  5
50FC
330
18
100
AcDbEntity
  8
0
  6
Continuous
100
AcDbPolyline
 90
        3
 70
     0
 43
0.0
 10
173.1682832937296
 20
1008.578271170933
 10
173.1682832937296
 20
1006.364292293394
 10
175.1139165192633
 20
1006.364292293394
  0
LWPOLYLINE
  5
50FD
330
18
100
AcDbEntity
  8
0
  6
HIDDEN
100
AcDbPolyline
 90
        5
 70
     0
 43
0.0
 10
184.6334174106984
 20
998.3750224768545
 10
193.6877841851646
 20
998.3750224768545
 10
193.6877841851646
 20
1000.625022476855
 10
182.6877841851646
 20
1000.625022476855
 10
182.6877841851646
 20
1000.589001354393
  0
LWPOLYLINE
  5
50FE
330
18
100
AcDbEntity
  8
0
  6
Continuous
100
AcDbPolyline
 90
        3
 70
     0
 43
0.0
 10
182.6877841851646
 20
1000.589001354393
 10
182.6877841851646
 20
998.3750224768545
 10
184.6334174106984
 20
998.3750224768545
  0
LWPOLYLINE
  5
50FF
330
18
100
AcDbEntity
  8
0
  6
HIDDEN
100
AcDbPolyline
 90
        5
 70
     0
 43
0.0
 10
194.1529183021335
 20
990.385752660315
 10
203.2072850765997
 20
990.385752660315
 10
203.2072850765997
 20
992.6357526603151
 10
192.2072850765997
 20
992.6357526603151
 10
192.2072850765997
 20
992.5997315378536
  0
LWPOLYLINE
  5
5100
330
18
100
AcDbEntity
  8
0
  6
Continuous
100
AcDbPolyline
 90
        3
 70
     0
 43
0.0
 10
192.2072850765997
 20
992.5997315378536
 10
192.2072850765997
 20
990.385752660315
 10
194.1529183021335
 20
990.385752660315
  0
LWPOLYLINE
  5
5101
330
18
100
AcDbEntity
  8
0
  6
HIDDEN
100
AcDbPolyline
 90
        5
 70
     0
 43
0.0
 10
203.6724191935686
 20
982.3964828437754
 10
212.7267859680348
 20
982.3964828437754
 10
212.7267859680348
 20
984.6464828437754
 10
201.7267859680348
 20
984.6464828437754
 10
201.7267859680349
 20
984.6104617213139
  0
LWPOLYLINE
  5
5102
330
18
100
AcDbEntity
  8
0
  6
Continuous
100
AcDbPolyline
 90
        3
 70
     0
 43
0.0
 10
201.7267859680349
 20
984.6104617213139
 10
201.7267859680349
 20
982.3964828437754
 10
203.6724191935686
 20
982.3964828437754
  0
MTEXT
  5
5194
330
18
100
AcDbEntity
  8
0
100
AcDbMText
 10
300.7939093743317
 20
1006.300769149274
 30
0.0
 40
2.0625
 41
0.0
 46
0.0
 71
     5
 72
     1
  1
\A1;VERTICAL\PHEIGHT\P\P \P\P \PMAX 15'
  7
ROMANS
 73
     1
 44
1.0
  0
LINE
  5
5195
330
18
100
AcDbEntity
  8
0
100
AcDbLine
 10
292.993398481761
 20
993.8748032234872
 30
0.0
 11
308.6163814778863
 21
993.8748032234872
 31
0.0
  0
LINE
  5
5196
330
18
100
AcDbEntity
  8
0
100
AcDbLine
 10
308.6163814778863
 20
993.8748032234872
 30
0.0
 11
308.6163814778863
 21
1018.758329786403
 31
0.0
  0
LINE
  5
5197
330
18
100
AcDbEntity
  8
0
100
AcDbLine
 10
308.6163814778863
 20
1018.758329786403
 30
0.0
 11
292.993398481761
 21
1018.758329786403
 31
0.0
  0
LINE
  5
5198
330
18
100
AcDbEntity
  8
0
100
AcDbLine
 10
292.993398481761
 20
1018.758329786403
 30
0.0
 11
292.993398481761
 21
993.8748032234872
 31
0.0
  0
LINE
  5
5199
330
18
100
AcDbEntity
  8
0
100
AcDbLine
 10
292.993398481761
 20
998.474485134718
 30
0.0
 11
308.6163814778863
 21
998.474485134718
 31
0.0
  0
LINE
  5
519A
330
18
100
AcDbEntity
  8
0
100
AcDbLine
 10
292.993398481761
 20
1012.047318169571
 30
0.0
 11
308.6163814778863
 21
1012.047318169571
 31
0.0
  0
LINE
  5
519B
330
18
100
AcDbEntity
  8
0
100
AcDbLine
 10
287.8590194181044
 20
976.5821017430138
 30
0.0
 11
303.0548899798237
 21
976.5821017430138
 31
0.0
  0
LINE
  5
519C
330
18
100
AcDbEntity
  8
0
100
AcDbLine
 10
287.8590194181044
 20
1032.582101743013
 30
0.0
 11
303.0548899798237
 21
1032.582101743013
 31
0.0
  0
LINE
  5
519D
330
18
100
AcDbEntity
  8
0
100
AcDbLine
 10
300.8048899798236
 20
978.8321017430137
 30
0.0
 11
300.8048899798236
 21
993.8748032234872
 31
0.0
  0
LINE
  5
519E
330
18
100
AcDbEntity
  8
0
100
AcDbLine
 10
300.8048899798236
 20
1030.332101743013
 30
0.0
 11
300.8048899798236
 21
1018.758329786403
 31
0.0
  0
SOLID
  5
519F
330
18
100
AcDbEntity
  8
0
100
AcDbTrace
 10
300.4298899798237
 20
978.8321017430137
 30
0.0
 11
301.1798899798237
 21
978.8321017430137
 31
0.0
 12
300.8048899798236
 22
976.5821017430138
 32
0.0
 13
300.8048899798236
 23
976.5821017430138
 33
0.0
  0
SOLID
  5
51A0
330
18
100
AcDbEntity
  8
0
100
AcDbTrace
 10
300.4298899798237
 20
1030.332101743013
 30
0.0
 11
301.1798899798237
 21
1030.332101743013
 31
0.0
 12
300.8048899798236
 22
1032.582101743013
 32
0.0
 13
300.8048899798236
 23
1032.582101743013
 33
0.0
  0
TEXT
  5
5A23
330
18
100
AcDbEntity
  8
0
100
AcDbText
 10
-3.233934181804784
 20
926.5984971123691
 30
0.0
 40
1.723953068446852
  1
Ph: (423) 586-2265 Fax: (423) 586-2091
  7
ROMANS
100
AcDbText
  0
TEXT
  5
5A24
330
18
100
AcDbEntity
  8
0
100
AcDbText
 10
-4.19957011806861
 20
929.3896592231877
 30
0.0
 40
1.723953068446852
  1
P.O. BOX 2279 Morristown, TN 37816-2279
  7
ROMANS
100
AcDbText
  0
POLYLINE
  5
5A25
330
18
100
AcDbEntity
  8
0
100
AcDb2dPolyline
 66
     1
 10
0.0
 20
0.0
 30
0.0
1001
ACAD
1000
ASC_BOUNDS
1002
{
1070
    19
1002
}
  0
VERTEX
  5
5A26
330
5A25
100
AcDbEntity
  8
0
100
AcDbVertex
100
AcDb2dVertex
 10
-10.6318205303664
 20
930.0933187136966
 30
0.0
  0
VERTEX
  5
5A27
330
5A25
100
AcDbEntity
  8
0
100
AcDbVertex
100
AcDb2dVertex
 10
-10.35607839240656
 20
930.2338183515281
 30
0.0
1001
ACAD
1000
ASC_BOUNDS
1002
{
1070
    19
1002
}
  0
VERTEX
  5
5A28
330
5A25
100
AcDbEntity
  8
0
100
AcDbVertex
100
AcDb2dVertex
 10
-8.501066736433282
 20
926.5217801768894
 30
0.0
1001
ACAD
1000
ASC_BOUNDS
1002
{
1070
    19
1002
}
  0
VERTEX
  5
5A29
330
5A25
100
AcDbEntity
  8
0
100
AcDbVertex
100
AcDb2dVertex
 10
-9.097120809469702
 20
926.5255411034376
 30
0.0
  0
VERTEX
  5
5A2A
330
5A25
100
AcDbEntity
  8
0
100
AcDbVertex
100
AcDb2dVertex
 10
-10.82966466511729
 20
929.9925106562653
 30
0.0
  0
SEQEND
  5
5A2B
330
5A25
100
AcDbEntity
  8
0
  0
TEXT
  5
5A2C
330
18
100
AcDbEntity
  8
0
100
AcDbText
 10
-10.33090748464912
 20
932.3218383858874
 30
0.0
 40
2.817952220857017
  1
Precision Ladders, LLC
  7
STYLE1
100
AcDbText
  0
CIRCLE
  5
5A2D
330
18
100
AcDbEntity
  8
0
100
AcDbCircle
 10
-12.50978475229767
 20
931.9086888050433
 30
0.0
 40
7.728008003838435
1001
ACAD
1000
ASC_BOUNDS
1002
{
1070
    19
1002
}
  0
INSERT
  5
5A2E
330
18
100
AcDbEntity
  8
0
100
AcDbBlockReference
  2
*X9
 10
10.64525310197088
 20
1105.315318914084
 30
0.0
 41
0.6252948760284945
 42
0.6252948760285335
 43
0.6252948760284961
1001
ACAD
1000
HATCH
1002
{
1070
    19
1000
ANSI31
1040
0.8843871093750001
1040
0.0
1002
}
  0
LWPOLYLINE
  5
5A2F
330
18
100
AcDbEntity
  8
0
100
AcDbPolyline
 90
        4
 70
     1
 43
0.0
 10
-17.63916313839771
 20
935.8556651816293
 10
-17.63916313839771
 20
936.4151597710225
 10
-11.68054576136001
 20
936.4151597710225
 10
-11.68054576136001
 20
935.8556651816293
1001
ACAD
1000
ASC_BOUNDS
1002
{
1070
    19
1005
0
1005
0
1002
}
  0
LINE
  5
5A30
330
18
100
AcDbEntity
  8
0
100
AcDbLine
 10
-17.43125019251036
 20
935.7952786667508
 30
0.0
 11
-14.95469921716844
 21
930.9347737051258
 31
0.0
1001
ACAD
1000
ASC_BOUNDS
1002
{
1070
    19
1002
}
  0
LWPOLYLINE
  5
5A31
330
18
100
AcDbEntity
  8
0
100
AcDbPolyline
 90
        4
 70
     0
 43
0.0
 10
-17.55718210715296
 20
935.8532117989934
 10
-14.93483213080117
 20
930.7065601862941
 10
-14.94679645070671
 20
930.7004640608164
 10
-17.5691464270585
 20
935.8471156735156
1001
ACAD
1000
ASC_BOUNDS
1002
{
1070
    19
1002
}
  0
LINE
  5
5A32
330
18
100
AcDbEntity
  8
0
100
AcDbLine
 10
-17.50602719191998
 20
935.7571778825146
 30
0.0
 11
-17.43125019251036
 21
935.7952786667508
 31
0.0
1001
ACAD
1000
ASC_BOUNDS
1002
{
1070
    19
1002
}
  0
LINE
  5
5A33
330
18
100
AcDbEntity
  8
0
100
AcDbLine
 10
-17.43125019251036
 20
935.7952786667508
 30
0.0
 11
-17.31273498401909
 21
935.8556651816293
 31
0.0
1001
ACAD
1000
ASC_BOUNDS
1002
{
1070
    19
1002
}
  0
LINE
  5
5A34
330
18
100
AcDbEntity
  8
0
100
AcDbLine
 10
-17.43125019251036
 20
935.7952786667508
 30
0.0
 11
-17.27884705556624
 21
935.4961706691124
 31
0.0
1001
ACAD
1000
ASC_BOUNDS
1002
{
1070
    19
1002
}
  0
LINE
  5
5A35
330
18
100
AcDbEntity
  8
0
100
AcDbLine
 10
-15.10202026347202
 20
933.8370260575761
 30
0.0
 11
-15.67864988864909
 21
932.6655671682628
 31
0.0
1001
ACAD
1000
ASC_BOUNDS
1002
{
1070
    19
1005
0
1002
}
  0
LWPOLYLINE
  5
5A36
330
18
100
AcDbEntity
  8
0
100
AcDbPolyline
 90
        2
 70
     0
 43
0.0
 10
-15.23729155175467
 20
933.8445249750501
 10
-15.79037348087749
 20
932.7209046924631
1001
ACAD
1000
ASC_BOUNDS
1002
{
1070
    19
1005
0
1002
}
  0
LINE
  5
5A37
330
18
100
AcDbEntity
  8
0
100
AcDbLine
 10
-16.33173483516438
 20
935.8556651816293
 30
0.0
 11
-15.2715478778598
 21
933.7749311214238
 31
0.0
1001
ACAD
1000
ASC_BOUNDS
1002
{
1070
    19
1002
}
  0
LINE
  5
5A38
330
18
100
AcDbEntity
  8
0
100
AcDbLine
 10
-16.42592515378793
 20
935.8556651816293
 30
0.0
 11
-15.31783003122199
 21
933.6809060529821
 31
0.0
1001
ACAD
1000
ASC_BOUNDS
1002
{
1070
    19
1002
}
  0
LINE
  5
5A39
330
18
100
AcDbEntity
  8
0
100
AcDbLine
 10
-16.52275811148743
 20
935.1830356537345
 30
0.0
 11
-15.53381341357877
 21
933.2421224002553
 31
0.0
1001
ACAD
1000
ASC_BOUNDS
1002
{
1070
    19
1002
}
  0
LINE
  5
5A3A
330
18
100
AcDbEntity
  8
0
100
AcDbLine
 10
-14.60376905183974
 20
930.6579870876547
 30
0.0
 11
-10.82966466511729
 21
929.9925106562653
 31
0.0
1001
ACAD
1000
ASC_BOUNDS
1002
{
1070
    19
1002
}
  0
POLYLINE
  5
5A3B
330
18
100
AcDbEntity
  8
0
100
AcDb2dPolyline
 66
     1
 10
0.0
 20
0.0
 30
0.0
1001
ACAD
1000
ASC_BOUNDS
1002
{
1070
    19
1002
}
  0
VERTEX
  5
5A3C
330
5A3B
100
AcDbEntity
  8
0
100
AcDbVertex
100
AcDb2dVertex
 10
-14.51318139963758
 20
931.0399845969214
 30
0.0
  0
VERTEX
  5
5A3D
330
5A3B
100
AcDbEntity
  8
0
100
AcDbVertex
100
AcDb2dVertex
 10
-14.48111155424088
 20
931.176078671954
 30
0.0
1001
ACAD
1000
ASC_BOUNDS
1002
{
1070
    19
1002
}
  0
VERTEX
  5
5A3E
330
5A3B
100
AcDbEntity
  8
0
100
AcDbVertex
100
AcDb2dVertex
 10
-10.72338365712588
 20
930.5134898575317
 30
0.0
1001
ACAD
1000
ASC_BOUNDS
1002
{
1070
    19
1002
}
  0
VERTEX
  5
5A3F
330
5A3B
100
AcDbEntity
  8
0
100
AcDbVertex
100
AcDb2dVertex
 10
-10.78924939575889
 20
930.1906223899347
 30
0.0
  0
SEQEND
  5
5A40
330
5A3B
100
AcDbEntity
  8
0
  0
LINE
  5
5A41
330
18
100
AcDbEntity
  8
0
100
AcDbLine
 10
-15.24714932522309
 20
933.5421873568524
 30
0.0
 11
-14.16344496834906
 21
931.4152978011899
 31
0.0
1001
ACAD
1000
ASC_BOUNDS
1002
{
1070
    19
1005
0
1002
}
  0
LWPOLYLINE
  5
5A42
330
18
100
AcDbEntity
  8
0
100
AcDbPolyline
 90
        2
 70
     0
 43
0.0
 10
-15.20086717186094
 20
933.6362124252939
 10
-14.09116377896643
 20
931.4582968884044
1001
ACAD
1000
ASC_BOUNDS
1002
{
1070
    19
1002
}
  0
LWPOLYLINE
  5
5A43
330
18
100
AcDbEntity
  8
0
100
AcDbPolyline
 90
        3
 70
     0
 43
0.0
 10
-15.78936901229192
 20
932.5814319045859
 10
-15.58822084993862
 20
932.679538418496
 10
-15.63071800118159
 20
932.7629437739794
1001
ACAD
1000
ASC_BOUNDS
1002
{
1070
    19
1002
}
  0
CIRCLE
  5
5A44
330
18
100
AcDbEntity
  8
0
100
AcDbCircle
 10
-15.70961069680799
 20
932.7422079263312
 30
0.0
 40
0.0209810471022454
1001
ACAD
1000
ASC_BOUNDS
1002
{
1070
    19
1002
}
  0
LINE
  5
5A45
330
18
100
AcDbEntity
  8
0
100
AcDbLine
 10
-15.71977158969579
 20
932.8643368184168
 30
0.0
 11
-15.89097110358797
 21
932.7808372363451
 31
0.0
1001
ACAD
1000
ASC_BOUNDS
1002
{
1070
    19
1002
}
  0
LINE
  5
5A46
330
18
100
AcDbEntity
  8
0
100
AcDbLine
 10
-15.91828043094308
 20
932.8225423945395
 30
0.0
 11
-15.76587729399896
 21
932.5234343969011
 31
0.0
1001
ACAD
1000
ASC_BOUNDS
1002
{
1070
    19
1002
}
  0
LINE
  5
5A47
330
18
100
AcDbEntity
  8
0
100
AcDbLine
 10
-15.67873785011297
 20
932.6654433158736
 30
0.0
 11
-15.79058930907675
 21
932.7205219303507
 31
0.0
1001
ACAD
1000
ASC_BOUNDS
1002
{
1070
    19
1002
}
  0
LWPOLYLINE
  5
5A48
330
18
100
AcDbEntity
  8
0
100
AcDbPolyline
 90
        2
 70
     1
 43
0.0
 10
-15.68862964970574
 20
932.7422079263312
 42
-1.0
 10
-15.73059174391022
 20
932.7422079263312
 42
-1.0
1001
ACAD
1000
ASC_BOUNDS
1002
{
1070
    19
1002
}
  0
LINE
  5
5A49
330
18
100
AcDbEntity
  8
0
100
AcDbLine
 10
-14.09056367300255
 20
931.4586574684453
 30
0.0
 11
-14.16250074304468
 21
931.4154333160088
 31
0.0
1001
ACAD
1000
ASC_BOUNDS
1002
{
1070
    19
1002
}
  0
LINE
  5
5A4A
330
18
100
AcDbEntity
  8
0
100
AcDbLine
 10
-14.66905554464197
 20
931.080316425765
 30
0.0
 11
-15.03124119133891
 21
930.8957736213313
 31
0.0
1001
ACAD
1000
ASC_BOUNDS
1002
{
1070
    19
1002
}
  0
POLYLINE
  5
5A4B
330
18
100
AcDbEntity
  8
0
100
AcDb2dPolyline
 66
     1
 10
0.0
 20
0.0
 30
0.0
1001
ACAD
1000
ASC_BOUNDS
1002
{
1070
    19
1002
}
  0
VERTEX
  5
5A4C
330
5A4B
100
AcDbEntity
  8
0
100
AcDbVertex
100
AcDb2dVertex
 10
-14.60321989980438
 20
930.6578902573344
 30
0.0
  0
VERTEX
  5
5A4D
330
5A4B
100
AcDbEntity
  8
0
100
AcDbVertex
100
AcDb2dVertex
 10
-14.52828306008829
 20
930.9758980232237
 30
0.0
1001
ACAD
1000
ASC_BOUNDS
1002
{
1070
    19
1002
}
  0
SEQEND
  5
5A4E
330
5A4B
100
AcDbEntity
  8
0
  0
LINE
  5
5A4F
330
18
100
AcDbEntity
  8
0
100
AcDbLine
 10
-15.46313270757987
 20
933.1034037041254
 30
0.0
 11
-14.77897023987608
 21
931.7606592575375
 31
0.0
1001
ACAD
1000
ASC_BOUNDS
1002
{
1070
    19
1002
}
  0
LINE
  5
5A50
330
18
100
AcDbEntity
  8
0
100
AcDbLine
 10
-14.73886280605463
 20
931.6819439865708
 30
0.0
 11
-14.48111155424088
 21
931.176078671954
 31
0.0
1001
ACAD
1000
ASC_BOUNDS
1002
{
1070
    19
1002
}
  0
LWPOLYLINE
  5
5A51
330
18
100
AcDbEntity
  8
0
100
AcDbPolyline
 90
        4
 70
     0
 43
0.0
 10
-14.38679990105071
 20
931.8536565385663
 10
-14.96649288204496
 20
931.5709213803724
 10
-15.00459366628098
 20
931.6456983797822
 10
-14.43001090929788
 20
931.9384629173057
1001
ACAD
1000
ASC_BOUNDS
1002
{
1070
    19
1005
0
1002
}
  0
LWPOLYLINE
  5
5A52
330
18
100
AcDbEntity
  8
0
100
AcDbPolyline
 90
        5
 70
     0
 43
0.0
 10
-14.48111155421422
 20
931.1760786720705
 10
-14.46600315039886
 20
931.1418850164995
 10
-14.27985442394463
 20
930.7658127007913
 10
-14.40521186251401
 20
930.7037631253066
 10
-14.56310800932803
 20
931.0529029130202
1001
ACAD
1000
ASC_BOUNDS
1002
{
1070
    19
1002
}
  0
POLYLINE
  5
5A53
330
18
100
AcDbEntity
  8
0
100
AcDb2dPolyline
 66
     1
 10
0.0
 20
0.0
 30
0.0
 70
     1
1001
ACAD
1000
ASC_BOUNDS
1002
{
1070
    19
1002
}
  0
VERTEX
  5
5A54
330
5A53
100
AcDbEntity
  8
0
100
AcDbVertex
100
AcDb2dVertex
 10
-14.95282062284946
 20
931.152061178022
 30
0.0
1001
ACAD
1000
ASC_BOUNDS
1002
{
1070
    19
1002
}
  0
VERTEX
  5
5A55
330
5A53
100
AcDbEntity
  8
0
100
AcDbVertex
100
AcDb2dVertex
 10
-14.92688326672922
 20
931.2766280628963
 30
0.0
  0
VERTEX
  5
5A56
330
5A53
100
AcDbEntity
  8
0
100
AcDbVertex
100
AcDb2dVertex
 10
-14.89077486046144
 20
931.2669506177812
 30
0.0
  0
VERTEX
  5
5A57
330
5A53
100
AcDbEntity
  8
0
100
AcDbVertex
100
AcDb2dVertex
 10
-14.48111155421422
 20
931.1760786720705
 30
0.0
  0
VERTEX
  5
5A58
330
5A53
100
AcDbEntity
  8
0
100
AcDbVertex
100
AcDb2dVertex
 10
-14.51140220278444
 20
931.0395242366549
 30
0.0
  0
VERTEX
  5
5A59
330
5A53
100
AcDbEntity
  8
0
100
AcDbVertex
100
AcDb2dVertex
 10
-14.91764456804455
 20
931.1446378688369
 30
0.0
  0
SEQEND
  5
5A5A
330
5A53
100
AcDbEntity
  8
0
  0
LWPOLYLINE
  5
5A5B
330
18
100
AcDbEntity
  8
0
100
AcDbPolyline
 90
        5
 70
     0
 43
0.0
 10
-10.82966466511729
 20
929.9925106562653
 10
-10.84624468337696
 20
930.0260154759435
 10
-11.04855980184654
 20
930.3936434507242
 10
-10.92601714358635
 20
930.4610818235472
 10
-10.75309827054347
 20
930.1191332193843
1001
ACAD
1000
ASC_BOUNDS
1002
{
1070
    19
1002
}
  0
LINE
  5
5A5C
330
18
100
AcDbEntity
  8
0
100
AcDbLine
 10
-10.80172197976719
 20
930.1294829918694
 30
0.0
 11
-10.82966466511729
 21
929.9925106562653
 31
0.0
1001
ACAD
1000
ASC_BOUNDS
1002
{
1070
    19
1002
}
  0
POLYLINE
  5
5A5D
330
18
100
AcDbEntity
  8
0
100
AcDb2dPolyline
 66
     1
 10
0.0
 20
0.0
 30
0.0
 70
     1
1001
ACAD
1000
ASC_BOUNDS
1002
{
1070
    19
1002
}
  0
VERTEX
  5
5A5E
330
5A5D
100
AcDbEntity
  8
0
100
AcDbVertex
100
AcDb2dVertex
 10
-10.35944486099872
 20
930.0370035912974
 30
0.0
1001
ACAD
1000
ASC_BOUNDS
1002
{
1070
    19
1002
}
  0
VERTEX
  5
5A5F
330
5A5D
100
AcDbEntity
  8
0
100
AcDbVertex
100
AcDb2dVertex
 10
-10.37994465947683
 20
929.9114272658529
 30
0.0
  0
VERTEX
  5
5A60
330
5A5D
100
AcDbEntity
  8
0
100
AcDbVertex
100
AcDb2dVertex
 10
-10.41643949077616
 20
929.9195264778882
 30
0.0
  0
VERTEX
  5
5A61
330
5A5D
100
AcDbEntity
  8
0
100
AcDbVertex
100
AcDb2dVertex
 10
-10.82966466511729
 20
929.9925106562653
 30
0.0
  0
VERTEX
  5
5A62
330
5A5D
100
AcDbEntity
  8
0
100
AcDbVertex
100
AcDb2dVertex
 10
-10.80533660565824
 20
930.1302523810457
 30
0.0
  0
VERTEX
  5
5A63
330
5A5D
100
AcDbEntity
  8
0
100
AcDbVertex
100
AcDb2dVertex
 10
-10.39491026802094
 20
930.0428913120487
 30
0.0
  0
SEQEND
  5
5A64
330
5A5D
100
AcDbEntity
  8
0
  0
LINE
  5
5A65
330
18
100
AcDbEntity
  8
0
100
AcDbLine
 10
-10.72338365712588
 20
930.5134898575317
 30
0.0
 11
-10.78924939575889
 21
930.1906223899347
 31
0.0
1001
ACAD
1000
ASC_BOUNDS
1002
{
1070
    19
1002
}
  0
LINE
  5
5A66
330
18
100
AcDbEntity
  8
0
100
AcDbLine
 10
-10.78924939575889
 20
930.1906223899347
 30
0.0
 11
-10.75309827054347
 21
930.1191332193843
 31
0.0
1001
ACAD
1000
ASC_BOUNDS
1002
{
1070
    19
1002
}
  0
LINE
  5
5A67
330
18
100
AcDbEntity
  8
0
100
AcDbLine
 10
-10.75309827054347
 20
930.1191332193843
 30
0.0
 11
-10.63182053036638
 21
930.0933187136966
 31
0.0
  0
LINE
  5
5A68
330
18
100
AcDbEntity
  8
0
100
AcDbLine
 10
-10.63182053036638
 20
930.0933187136966
 30
0.0
 11
-10.35607839240656
 21
930.2338183515281
 31
0.0
1001
ACAD
1000
ASC_BOUNDS
1002
{
1070
    19
1002
}
  0
LINE
  5
5A69
330
18
100
AcDbEntity
  8
0
100
AcDbLine
 10
-16.86547997403128
 20
935.8556651816293
 30
0.0
 11
-16.55886631927364
 21
935.2539020016706
 31
0.0
1001
ACAD
1000
ASC_BOUNDS
1002
{
1070
    19
1002
}
  0
LWPOLYLINE
  5
5A6A
330
18
100
AcDbEntity
  8
0
100
AcDbPolyline
 90
        4
 70
     0
 43
0.0
 10
-16.2068034142697
 20
935.4256145536663
 10
-16.78424169605503
 20
935.143979085754
 10
-16.74745175333885
 20
935.0685485248716
 10
-16.17379878090921
 20
935.3608393135026
1001
ACAD
1000
ASC_BOUNDS
1002
{
1070
    19
1002
}
  0
LINE
  5
5A6B
330
18
100
AcDbEntity
  8
0
100
AcDbLine
 10
-14.33102529321198
 20
935.8556651816293
 30
0.0
 11
-15.04758352756587
 21
934.560547068146
 31
0.0
1001
ACAD
1000
ASC_BOUNDS
1002
{
1070
    19
1002
}
  0
LINE
  5
5A6C
330
18
100
AcDbEntity
  8
0
100
AcDbLine
 10
-14.49088041778763
 20
935.8556651816293
 30
0.0
 11
-15.02475721967326
 21
934.8907282325562
 31
0.0
1001
ACAD
1000
ASC_BOUNDS
1002
{
1070
    19
1002
}
  0
CIRCLE
  5
5A6D
330
18
100
AcDbEntity
  8
0
100
AcDbCircle
 10
-15.16404364676436
 20
933.8711950216923
 30
0.0
 40
0.0209810471022454
1001
ACAD
1000
ASC_BOUNDS
1002
{
1070
    19
1002
}
  0
LWPOLYLINE
  5
5A6E
330
18
100
AcDbEntity
  8
0
100
AcDbPolyline
 90
        2
 70
     1
 43
0.0
 10
-15.14306259966211
 20
933.8711950216923
 42
-1.0
 10
-15.1850246938666
 20
933.8711950216923
 42
-1.0
1001
ACAD
1000
ASC_BOUNDS
1002
{
1070
    19
1002
}
  0
LINE
  5
5A6F
330
18
100
AcDbEntity
  8
0
100
AcDbLine
 10
-15.097751777736
 20
933.8348663608
 30
0.0
 11
-15.10308333547038
 21
933.8348663608
 31
0.0
  0
LINE
  5
5A70
330
18
100
AcDbEntity
  8
0
100
AcDbLine
 10
-14.95804854494967
 20
935.8556651816293
 30
0.0
 11
-15.09841868785427
 21
933.8252195462365
 31
0.0
1001
ACAD
1000
ASC_BOUNDS
1002
{
1070
    19
1005
0
1002
}
  0
LWPOLYLINE
  5
5A71
330
18
100
AcDbEntity
  8
0
100
AcDbPolyline
 90
        3
 70
     0
 43
0.0
 10
-15.09825604483056
 20
935.8556651816293
 10
-15.23795927761686
 20
933.8348663608
 10
-15.09808563026856
 20
933.8348663608
1001
ACAD
1000
ASC_BOUNDS
1002
{
1070
    19
1005
0
1002
}
  0
TEXT
  5
5A72
330
18
100
AcDbEntity
  8
0
100
AcDbText
 10
4.618534143008471
 20
923.48318184768
 30
0.0
 40
1.98254602871388
  1
www.PrecisionLadders.com
  7
ROMANS
100
AcDbText
  0
LWPOLYLINE
  5
5A73
330
18
100
AcDbEntity
  8
0
100
AcDbPolyline
 90
        9
 70
     0
 43
0.0
 10
-8.696240115980774
 20
926.4454727034149
 10
-8.695975352732247
 20
926.4874339623386
 10
-8.821859129502877
 20
926.4882282520842
 10
-8.905781647349972
 20
926.4887577785811
 10
-8.906046410598518
 20
926.4467965196576
 42
0.4142135623730939
 10
-8.892147578706849
 20
926.4327211789336
 10
-8.710315456704821
 20
926.4315738715232
 42
0.4142135623730989
 10
-8.696240115980792
 20
926.4454727034149
 42
-0.4142135623730944
 10
-8.710315456704821
 20
926.4315738715232
1001
ACAD
1000
ASC_BOUNDS
1002
{
1070
    19
1002
}
  0
LINE
  5
5A74
330
18
100
AcDbEntity
  8
0
100
AcDbLine
 10
-8.760629285604895
 20
926.523417940519
 30
0.0
 11
-8.761126148597282
 21
926.4878450447701
 31
0.0
1001
ACAD
1000
ASC_BOUNDS
1002
{
1070
    19
1002
}
  0
LINE
  5
5A75
330
18
100
AcDbEntity
  8
0
100
AcDbLine
 10
-8.837558260298068
 20
926.523903339808
 30
0.0
 11
-8.760629285604895
 21
926.523417940519
 31
0.0
1001
ACAD
1000
ASC_BOUNDS
1002
{
1070
    19
1002
}
  0
LINE
  5
5A76
330
18
100
AcDbEntity
  8
0
100
AcDbLine
 10
-8.837754427760792
 20
926.4928135501893
 30
0.0
 11
-8.837558260298068
 21
926.523903339808
 31
0.0
1001
ACAD
1000
ASC_BOUNDS
1002
{
1070
    19
1002
}
  0
TEXT
  5
5A78
330
18
100
AcDbEntity
  8
0
100
AcDbText
 10
60.92785313687852
 20
926.5350453137868
 30
0.0
 40
1.337655
  1
CHECKED BY:
  7
ROMANS
100
AcDbText
  0
TEXT
  5
5A79
330
18
100
AcDbEntity
  8
0
100
AcDbText
 10
60.92785313687852
 20
939.0047081766784
 30
0.0
 40
1.337655
  1
DWG. CHECK
  7
ROMANS
100
AcDbText
  0
TEXT
  5
5A7A
330
18
100
AcDbEntity
  8
0
100
AcDbText
 10
60.92785313687852
 20
932.7698767452327
 30
0.0
 40
1.337655
  1
BUILT BY:
  7
ROMANS
100
AcDbText
  0
TEXT
  5
5A7B
330
18
100
AcDbEntity
  8
0
100
AcDbText
 10
99.04962068059637
 20
926.5350453137868
 30
0.0
 40
1.337655
  1
DRAWN BY:
  7
ROMANS
100
AcDbText
  0
TEXT
  5
5A7C
330
18
100
AcDbEntity
  8
0
100
AcDbText
 10
99.04962068059637
 20
932.7698767452327
 30
0.0
 40
1.337655
  1
PURCHASE ORDER
  7
ROMANS
100
AcDbText
  0
TEXT
  5
5A7D
330
18
100
AcDbEntity
  8
0
100
AcDbText
 10
99.04962068059637
 20
939.0047081766784
 30
0.0
 40
1.337655
  1
ARCH'T OR ENG'R.
  7
ROMANS
100
AcDbText
  0
TEXT
  5
5A7E
330
18
100
AcDbEntity
  8
0
100
AcDbText
 10
245.6289474048736
 20
932.262363231111
 30
0.0
 40
1.337655
  1
SERIAL#
  7
ROMANS
100
AcDbText
  0
TEXT
  5
5A7F
330
18
100
AcDbEntity
  8
0
100
AcDbText
 10
245.4596206805964
 20
939.0047081766784
 30
0.0
 40
1.337655
  1
PRECISION REP
  7
ROMANS
100
AcDbText
  0
TEXT
  5
5A80
330
18
100
AcDbEntity
  8
0
100
AcDbText
 10
152.2896206805964
 20
926.5350453137868
 30
0.0
 40
1.337655
  1
DATE
  7
ROMANS
100
AcDbText
  0
TEXT
  5
5A81
330
18
100
AcDbEntity
  8
0
100
AcDbText
 10
172.2546206805963
 20
926.5350453137868
 30
0.0
 40
1.337655
  1
MODEL#
  7
ROMANS
100
AcDbText
  0
TEXT
  5
5A82
330
18
100
AcDbEntity
  8
0
100
AcDbText
 10
152.2896206805964
 20
939.0047081766784
 30
0.0
 40
1.337655
  1
PROJECT
  7
ROMANS
100
AcDbText
  0
TEXT
  5
5A83
330
18
100
AcDbEntity
  8
0
100
AcDbText
 10
152.2896206805964
 20
932.7698767452327
 30
0.0
 40
1.337655
  1
WORK ORDER
  7
ROMANS
100
AcDbText
  0
TEXT
  5
5A84
330
18
100
AcDbEntity
  8
0
100
AcDbText
 10
172.2546206805963
 20
932.7698767452327
 30
0.0
 40
1.337655
  1
PURCHASER
  7
ROMANS
100
AcDbText
  0
TEXT
  5
5A85
330
18
100
AcDbEntity
  8
0
100
AcDbText
 10
232.1496206805964
 20
926.5350453137868
 30
0.0
 40
1.337655
  1
QTY.
  7
ROMANS
100
AcDbText
  0
LINE
  5
5A86
330
18
100
AcDbEntity
  8
0
100
AcDbLine
 10
60.42872813687849
 20
928.5315453137869
 30
0.0
 11
244.9604956805964
 21
928.5315453137869
 31
0.0
  0
LINE
  5
5A87
330
18
100
AcDbEntity
  8
0
100
AcDbLine
 10
311.5104956805964
 20
922.2967138823412
 30
0.0
 11
311.5104956805964
 21
1179.421713882341
 31
0.0
  0
LINE
  5
5A88
330
18
100
AcDbEntity
  8
0
100
AcDbLine
 10
311.5104956805964
 20
1179.421713882341
 30
0.0
 11
-21.23950431940368
 21
1179.421713882341
 31
0.0
  0
LINE
  5
5A89
330
18
100
AcDbEntity
  8
0
100
AcDbLine
 10
-21.23950431940368
 20
1179.421713882341
 30
0.0
 11
-21.23950431940368
 21
922.2967138823412
 31
0.0
  0
LINE
  5
5A8A
330
18
100
AcDbEntity
  8
0
100
AcDbLine
 10
-21.23950431940368
 20
922.2967138823412
 30
0.0
 11
311.5104956805964
 21
922.2967138823412
 31
0.0
  0
LINE
  5
5A8B
330
18
100
AcDbEntity
  8
0
100
AcDbLine
 10
60.42872813687849
 20
922.2967138823412
 30
0.0
 11
60.42872813687849
 21
941.0012081766785
 31
0.0
  0
LINE
  5
5A8C
330
18
100
AcDbEntity
  8
0
100
AcDbLine
 10
98.55049568059634
 20
922.2967138823412
 30
0.0
 11
98.55049568059634
 21
941.0012081766785
 31
0.0
  0
LINE
  5
5A8D
330
18
100
AcDbEntity
  8
0
100
AcDbLine
 10
151.7904956805964
 20
922.2967138823412
 30
0.0
 11
151.7904956805964
 21
941.0012081766785
 31
0.0
  0
LINE
  5
5A8E
330
18
100
AcDbEntity
  8
0
100
AcDbLine
 10
171.7554956805964
 20
922.2967138823412
 30
0.0
 11
171.7554956805964
 21
934.7663767452328
 31
0.0
  0
LINE
  5
5A8F
330
18
100
AcDbEntity
  8
0
100
AcDbLine
 10
244.9604956805964
 20
922.2967138823412
 30
0.0
 11
244.9604956805964
 21
941.0012081766785
 31
0.0
  0
LINE
  5
5A90
330
18
100
AcDbEntity
  8
0
100
AcDbLine
 10
231.6504956805964
 20
922.2967138823412
 30
0.0
 11
231.6504956805964
 21
928.5315453137869
 31
0.0
  0
LINE
  5
5A91
330
18
100
AcDbEntity
  8
0
100
AcDbLine
 10
-21.23950431940368
 20
941.0012081766785
 30
0.0
 11
311.5104956805964
 21
941.0012081766785
 31
0.0
  0
LINE
  5
5A92
330
18
100
AcDbEntity
  8
0
100
AcDbLine
 10
60.42872813687849
 20
934.7663767452328
 30
0.0
 11
311.5104956805964
 21
934.7663767452328
 31
0.0
  0
LINE
  5
5AA1
330
18
100
AcDbEntity
  8
0
100
AcDbLine
 10
154.1292815108594
 20
1023.380567983892
 30
0.0
 11
154.1292815108593
 21
1032.582101743013
 31
0.0
  0
LINE
  5
5AA2
330
18
100
AcDbEntity
  8
0
100
AcDbLine
 10
154.1292815108593
 20
1032.582101743013
 30
0.0
 11
155.6097806194243
 21
1032.582101743013
 31
0.0
  0
LINE
  5
5AA3
330
18
100
AcDbEntity
  8
0
100
AcDbLine
 10
154.1292815108593
 20
1032.582101743013
 30
0.0
 11
153.8792815108593
 21
1032.582101743013
 31
0.0
  0
LINE
  5
5AA5
330
18
100
AcDbEntity
  8
0
100
AcDbLine
 10
153.8792815108593
 20
1023.380567983892
 30
0.0
 11
154.1292815108594
 21
1023.380567983892
 31
0.0
  0
LINE
  5
5AA6
330
18
100
AcDbEntity
  8
0
100
AcDbLine
 10
85.87928151085931
 20
1023.332101743013
 30
0.0
 11
153.8792815108593
 21
1023.332101743013
 31
0.0
  0
LINE
  5
5AA7
102
{ACAD_REACTORS
330
5EBC
102
}
330
18
100
AcDbEntity
  8
0
100
AcDbLine
 10
85.87928151085931
 20
1031.332101743013
 30
0.0
 11
153.8792815108593
 21
1031.332101743013
 31
0.0
  0
LINE
  5
5AAF
330
18
100
AcDbEntity
  8
0
100
AcDbLine
 10
153.8792815108594
 20
1023.380567983892
 30
0.0
 11
153.8792815108593
 21
1032.582101743013
 31
0.0
  0
LINE
  5
5AB0
330
18
100
AcDbEntity
  8
0
100
AcDbLine
 10
214.6097806194241
 20
983.0661739069297
 30
0.0
 11
213.8437940316024
 21
983.7090304595738
 31
0.0
  0
LINE
  5
5AB1
330
18
100
AcDbEntity
  8
0
100
AcDbLine
 10
155.6097806194243
 20
1032.582101743013
 30
0.0
 11
156.375767207246
 21
1031.939245190369
 31
0.0
  0
LINE
  5
5AB4
330
18
100
AcDbEntity
  8
0
100
AcDbLine
 10
212.3437940316025
 20
984.6415335090034
 30
0.0
 11
212.3437940316025
 21
984.6464828437754
 31
0.0
  0
LINE
  5
5AD3
102
{ACAD_REACTORS
330
5EBC
102
}
330
18
100
AcDbEntity
  8
0
100
AcDbLine
 10
120.6955315108618
 20
1032.582101743013
 30
0.0
 11
152.1917815108592
 21
1032.582101743013
 31
0.0
  0
TEXT
  5
5AD4
330
18
100
AcDbEntity
  8
0
100
AcDbText
 10
94.79834712076323
 20
1033.86557471147
 30
0.0
 40
2.210999999999999
  1
TOE BOARDS
  7
ROMANS
 72
     4
 11
105.2742756921918
 21
1034.97107471147
 31
0.0
100
AcDbText
  0
LEADER
  5
5ADE
330
18
100
AcDbEntity
  8
0
100
AcDbLeader
  3
STANDARD
 73
     0
 40
2.25
 41
21.53571428571428
 76
     3
 10
91.43465635636697
 20
1032.582101743013
 30
0.0
 10
91.43465635636697
 20
1042.641426550382
 30
0.0
 10
94.60564062292519
 20
1042.641426550382
 30
0.0
340
5ADF
213
0.0
223
-1.125
233
0.0
1001
ACAD
1000
DSTYLE
1002
{
1070
   147
1040
0.0625
1070
    77
1070
     0
1002
}
  0
MTEXT
  5
5ADF
102
{ACAD_REACTORS
330
5ADE
102
}
330
18
100
AcDbEntity
  8
0
100
AcDbMText
 10
95.3556406229252
 20
1043.766426550382
 30
0.0
 40
2.25
 41
0.0
 46
0.0
 71
     1
 72
     1
  1
BAR GRATING
  7
ROMANS
 73
     1
 44
1.0
  0
LINE
  5
5AE1
330
18
100
AcDbEntity
  8
0
100
AcDbLine
 10
214.6097806194242
 20
976.8321017430135
 30
0.0
 11
209.891328772746
 21
976.8321017430134
 31
0.0
  0
LINE
  5
5AE2
330
18
100
AcDbEntity
  8
0
100
AcDbLine
 10
85.62928151085918
 20
1023.706944455719
 30
0.0
 11
29.47834500304077
 21
976.5821017430134
 31
0.0
  0
LINE
  5
5AE3
330
18
100
AcDbEntity
  8
0
100
AcDbLine
 10
85.62928151085918
 20
1023.380567983892
 30
0.0
 11
29.86723424897252
 21
976.5821017430132
 31
0.0
  0
LINE
  5
5AE4
330
18
100
AcDbEntity
  8
0
100
AcDbLine
 10
84.53767164822613
 20
1032.582101743013
 30
0.0
 11
25.1487824022945
 21
982.7397974351029
 31
0.0
  0
LINE
  5
5AE5
330
18
100
AcDbEntity
  8
0
100
AcDbLine
 10
84.14878240229427
 20
1032.582101743013
 30
0.0
 11
25.1487824022945
 21
983.0661739069299
 31
0.0
  0
LINE
  5
5AE6
330
18
100
AcDbEntity
  8
0
100
AcDbLine
 10
25.14878240229439
 20
976.5821017430134
 30
0.0
 11
29.86723424897263
 21
976.5821017430134
 31
0.0
  0
LINE
  5
5AE7
330
18
100
AcDbEntity
  8
0
100
AcDbLine
 10
25.14878240229439
 20
976.8321017430135
 30
0.0
 11
29.86723424897263
 21
976.8321017430134
 31
0.0
  0
LINE
  5
5AE8
330
18
100
AcDbEntity
  8
0
100
AcDbLine
 10
25.1487824022945
 20
983.0661739069297
 30
0.0
 11
25.14878240229439
 21
976.5821017430134
 31
0.0
  0
LWPOLYLINE
  5
5AE9
330
18
100
AcDbEntity
  8
0
  6
HIDDEN
100
AcDbPolyline
 90
        5
 70
     0
 43
0.0
 10
83.68364828532543
 20
1022.342831926473
 10
74.62928151085924
 20
1022.342831926473
 10
74.62928151085924
 20
1024.592831926473
 10
85.62928151085925
 20
1024.592831926473
 10
85.62928151085918
 20
1024.556810804012
  0
LWPOLYLINE
  5
5AEA
330
18
100
AcDbEntity
  8
0
  6
Continuous
100
AcDbPolyline
 90
        3
 70
     0
 43
0.0
 10
85.62928151085918
 20
1024.556810804012
 10
85.62928151085918
 20
1022.342831926473
 10
83.68364828532543
 20
1022.342831926473
  0
LWPOLYLINE
  5
5AEB
330
18
100
AcDbEntity
  8
0
  6
HIDDEN
100
AcDbPolyline
 90
        5
 70
     0
 43
0.0
 10
74.16414739389034
 20
1014.353562109934
 10
65.10978061942416
 20
1014.353562109934
 10
65.10978061942416
 20
1016.603562109934
 10
76.10978061942415
 20
1016.603562109934
 10
76.1097806194241
 20
1016.567540987472
  0
LWPOLYLINE
  5
5AEC
330
18
100
AcDbEntity
  8
0
  6
Continuous
100
AcDbPolyline
 90
        3
 70
     0
 43
0.0
 10
76.1097806194241
 20
1016.567540987472
 10
76.1097806194241
 20
1014.353562109934
 10
74.16414739389034
 20
1014.353562109934
  0
LWPOLYLINE
  5
5AED
330
18
100
AcDbEntity
  8
0
  6
HIDDEN
100
AcDbPolyline
 90
        5
 70
     0
 43
0.0
 10
64.64464650245526
 20
1006.364292293394
 10
55.59027972798907
 20
1006.364292293394
 10
55.59027972798907
 20
1008.614292293394
 10
66.59027972798907
 20
1008.614292293394
 10
66.59027972798901
 20
1008.578271170933
  0
LWPOLYLINE
  5
5AEE
330
18
100
AcDbEntity
  8
0
  6
Continuous
100
AcDbPolyline
 90
        3
 70
     0
 43
0.0
 10
66.59027972798901
 20
1008.578271170933
 10
66.59027972798901
 20
1006.364292293394
 10
64.64464650245526
 20
1006.364292293394
  0
LWPOLYLINE
  5
5AEF
330
18
100
AcDbEntity
  8
0
  6
HIDDEN
100
AcDbPolyline
 90
        5
 70
     0
 43
0.0
 10
55.12514561102017
 20
998.3750224768545
 10
46.07077883655398
 20
998.3750224768545
 10
46.07077883655398
 20
1000.625022476855
 10
57.07077883655398
 20
1000.625022476855
 10
57.07077883655393
 20
1000.589001354393
  0
LWPOLYLINE
  5
5AF0
330
18
100
AcDbEntity
  8
0
  6
Continuous
100
AcDbPolyline
 90
        3
 70
     0
 43
0.0
 10
57.07077883655393
 20
1000.589001354393
 10
57.07077883655393
 20
998.3750224768545
 10
55.12514561102017
 20
998.3750224768545
  0
LWPOLYLINE
  5
5AF1
330
18
100
AcDbEntity
  8
0
  6
HIDDEN
100
AcDbPolyline
 90
        5
 70
     0
 43
0.0
 10
45.60564471958509
 20
990.385752660315
 10
36.5512779451189
 20
990.385752660315
 10
36.5512779451189
 20
992.6357526603151
 10
47.55127794511889
 20
992.6357526603151
 10
47.55127794511884
 20
992.5997315378536
  0
LWPOLYLINE
  5
5AF2
330
18
100
AcDbEntity
  8
0
  6
Continuous
100
AcDbPolyline
 90
        3
 70
     0
 43
0.0
 10
47.55127794511884
 20
992.5997315378536
 10
47.55127794511884
 20
990.385752660315
 10
45.60564471958509
 20
990.385752660315
  0
LWPOLYLINE
  5
5AF3
330
18
100
AcDbEntity
  8
0
  6
HIDDEN
100
AcDbPolyline
 90
        5
 70
     0
 43
0.0
 10
36.08614382815
 20
982.3964828437754
 10
27.03177705368381
 20
982.3964828437754
 10
27.03177705368381
 20
984.6464828437754
 10
38.03177705368381
 20
984.6464828437754
 10
38.03177705368375
 20
984.6104617213139
  0
LWPOLYLINE
  5
5AF4
330
18
100
AcDbEntity
  8
0
  6
Continuous
100
AcDbPolyline
 90
        3
 70
     0
 43
0.0
 10
38.03177705368375
 20
984.6104617213139
 10
38.03177705368375
 20
982.3964828437754
 10
36.08614382815
 20
982.3964828437754
  0
LINE
  5
5AF5
330
18
100
AcDbEntity
  8
0
100
AcDbLine
 10
85.62928151085918
 20
1023.380567983892
 30
0.0
 11
85.6292815108593
 21
1032.582101743013
 31
0.0
  0
LINE
  5
5AF6
330
18
100
AcDbEntity
  8
0
100
AcDbLine
 10
85.6292815108593
 20
1032.582101743013
 30
0.0
 11
84.14878240229427
 21
1032.582101743013
 31
0.0
  0
LINE
  5
5AF7
330
18
100
AcDbEntity
  8
0
100
AcDbLine
 10
85.6292815108593
 20
1032.582101743013
 30
0.0
 11
85.87928151085931
 21
1032.582101743013
 31
0.0
  0
LINE
  5
5AF8
330
18
100
AcDbEntity
  8
0
100
AcDbLine
 10
85.87928151085931
 20
1023.380567983892
 30
0.0
 11
85.62928151085918
 21
1023.380567983892
 31
0.0
  0
LINE
  5
5AFA
330
18
100
AcDbEntity
  8
0
100
AcDbLine
 10
84.14878240229427
 20
1032.582101743013
 30
0.0
 11
83.38279581447261
 21
1031.939245190369
 31
0.0
  0
LINE
  5
5AFB
330
18
100
AcDbEntity
  8
0
100
AcDbLine
 10
83.38279581447261
 20
1031.939245190369
 30
0.0
 11
83.38279581447265
 21
1073.939245190369
 31
0.0
  0
LINE
  5
5AFD
330
18
100
AcDbEntity
  8
0
100
AcDbLine
 10
27.03177705368319
 20
984.6464828437754
 30
0.0
 11
27.0317770536832
 21
1026.646482843776
 31
0.0
  0
LINE
  5
5AFE
330
18
100
AcDbEntity
  8
0
100
AcDbLine
 10
27.41476899011613
 20
984.6415335090034
 30
0.0
 11
27.41476899011613
 21
984.6464828437754
 31
0.0
  0
LINE
  5
5B00
330
18
100
AcDbEntity
  8
0
100
AcDbLine
 10
84.14878240229452
 20
1066.582101743013
 30
0.0
 11
56.05103643407788
 21
1043.000983747779
 31
0.0
  0
LINE
  5
5B08
330
18
100
AcDbEntity
  8
0
100
AcDbLine
 10
54.36353643407793
 20
1007.584744286367
 30
0.0
 11
54.36353643407787
 21
1047.381703101534
 31
0.0
  0
LEADER
  5
5B39
330
18
100
AcDbEntity
  8
0
100
AcDbLeader
  3
STANDARD
 73
     0
 40
6.428571428571428
 41
24.85714285714285
 76
     3
 10
25.14878240229439
 20
976.5821017430132
 30
0.0
 10
19.18233297170172
 20
970.785582220944
 30
0.0
 10
16.12413099787591
 20
970.785582220944
 30
0.0
340
5B3A
213
0.0
223
1.125
233
0.0
1001
ACAD
1000
DSTYLE
1002
{
1070
   147
1040
0.0625
1070
    77
1070
     0
1002
}
  0
MTEXT
  5
5B3A
102
{ACAD_REACTORS
330
5B39
102
}
330
18
100
AcDbEntity
  8
0
100
AcDbMText
 10
15.37413099787591
 20
969.660582220944
 30
0.0
 40
2.25
 41
0.0
 46
0.0
 71
     6
 72
     1
  1
4" FLAT BAR\PFOR MOUNTING
  7
ROMANS
 73
     1
 44
1.0
  0
ARC
  5
5B5E
330
18
100
AcDbEntity
  8
0
100
AcDbCircle
 10
29.86723424897263
 20
976.5821017430132
 30
0.0
 40
27.46796403396289
100
AcDbArc
 50
4.694617072447027
 51
14.6164703711661
  0
ARC
  5
5B5F
330
18
100
AcDbEntity
  8
0
100
AcDbCircle
 10
29.86723424897263
 20
976.5821017430132
 30
0.0
 40
27.46796403396289
100
AcDbArc
 50
25.58040711479429
 51
35.31053966446071
  0
SOLID
  5
5B60
330
18
100
AcDbEntity
  8
0
100
AcDbTrace
 10
57.61773081979811
 20
978.8455726099815
 30
0.0
 11
56.86836013122126
 21
978.8148550075062
 31
0.0
 12
57.33519828293544
 22
976.5821017430132
 32
0.0
 13
57.33519828293544
 23
976.5821017430132
 33
0.0
  0
SOLID
  5
5B61
330
18
100
AcDbEntity
  8
0
100
AcDbTrace
 10
51.98507459737834
 20
992.2296933906624
 30
0.0
 11
52.57882950616772
 21
992.6879019766673
 31
0.0
 12
50.90732629375856
 22
994.2400624100329
 32
0.0
 13
50.90732629375856
 23
994.2400624100329
 33
0.0
  0
MTEXT
  5
5B62
330
18
100
AcDbEntity
  8
0
100
AcDbMText
 10
70.12122892825437
 20
985.9778602704986
 30
0.0
 40
2.25
 41
0.0
 46
0.0
 71
     5
 72
     1
  1
\A1;30%%D-45%%D (AVAILABLE RANGE)
  7
ROMANS
 73
     1
 44
1.0
  0
DIMENSION
  5
5B63
330
18
100
AcDbEntity
  8
0
100
AcDbDimension
  2
*D10
 10
163.2314362651607
 20
1008.614292293394
 30
0.0
 11
160.2887417336321
 21
995.6727427629717
 31
0.0
 70
   160
  1
6-1/2" MIN.\P9-1/2" MAX.
 71
     5
 42
7.989269816539604
 73
     0
 74
     0
 75
     0
  3
STANDARD$0
100
AcDbAlignedDimension
 13
182.6877841851646
 23
1000.625022476855
 33
0.0
 14
173.1682832937295
 24
1008.614292293394
 34
0.0
 50
90.0
100
AcDbRotatedDimension
1001
ACAD
1000
DSTYLE
1002
{
1070
   279
1070
     1
1002
}
  0
LEADER
  5
5B86
330
18
100
AcDbEntity
  8
0
100
AcDbLeader
  3
STANDARD
 73
     0
 40
7.607142857142859
 41
38.35714285714284
 76
     3
 10
260.0278110814027
 20
1032.582101743014
 30
0.0
 10
260.0278110814027
 20
1041.056154544002
 30
0.0
 10
247.9194025920879
 20
1041.056154544002
 30
0.0
340
5B87
213
0.0
223
1.125
233
0.0
1001
ACAD
1000
DSTYLE
1002
{
1070
   147
1040
0.0625
1070
    77
1070
     0
1002
}
  0
MTEXT
  5
5B87
102
{ACAD_REACTORS
330
5B86
102
}
330
18
100
AcDbEntity
  8
0
100
AcDbMText
 10
247.1694025920879
 20
1039.931154544002
 30
0.0
 40
2.25
 41
0.0
 46
0.0
 71
     9
 72
     1
  1
1/4" MOUNTING PLATE\P(DIMENSIONS VARY)
  7
ROMANS
 73
     1
 44
1.0
  0
ARC
  5
5D2D
330
18
100
AcDbEntity
  8
0
 62
     7
100
AcDbCircle
 10
252.2602936151394
 20
1073.094403683631
 30
0.0
 40
0.8448415067378828
100
AcDbArc
 50
2.912795456034996
 51
177.0872045439977
  0
LINE
  5
5D2E
330
18
100
AcDbEntity
  8
0
 62
     7
100
AcDbLine
 10
251.4165436151392
 20
1073.137335129063
 30
0.0
 11
251.4165436151392
 21
983.7551915241126
 31
0.0
  0
LINE
  5
5D2F
330
18
100
AcDbEntity
  8
0
 62
     7
100
AcDbLine
 10
253.1040436151392
 20
1073.137335129069
 30
0.0
 11
253.1040436151392
 21
983.7551915241125
 31
0.0
  0
ARC
  5
5D30
330
18
100
AcDbEntity
  8
0
 62
     7
100
AcDbCircle
 10
254.8540436151382
 20
1000.673579209152
 30
0.0
 40
0.5
100
AcDbArc
 50
270.0
 51
0.0
  0
ARC
  5
5D31
330
18
100
AcDbEntity
  8
0
 62
     7
100
AcDbCircle
 10
255.354043615138
 20
1000.173579209152
 30
0.0
 40
1.5
100
AcDbArc
 50
270.0
 51
288.8394795313807
  0
LINE
  5
5D32
330
18
100
AcDbEntity
  8
0
 62
     7
100
AcDbLine
 10
255.354043615138
 20
998.6735792091518
 30
0.0
 11
253.1040436151393
 21
998.6735792091517
 31
0.0
  0
LINE
  5
5D33
330
18
100
AcDbEntity
  8
0
 62
     7
100
AcDbLine
 10
254.8540436151382
 20
1000.173579209152
 30
0.0
 11
253.1040436151393
 21
1000.173579209152
 31
0.0
  0
LINE
  5
5D34
330
18
100
AcDbEntity
  8
0
 62
     7
100
AcDbLine
 10
255.3540436151392
 20
999.517329209152
 30
0.0
 11
255.3540436151392
 21
1009.829829209152
 31
0.0
  0
LINE
  5
5D35
330
18
100
AcDbEntity
  8
0
 62
     7
100
AcDbLine
 10
257.0415436151392
 20
999.517329209152
 30
0.0
 11
257.0415436151392
 21
1009.829829209152
 31
0.0
  0
ARC
  5
5D38
330
18
100
AcDbEntity
  8
0
 62
     7
100
AcDbCircle
 10
254.8540436151394
 20
1053.439245190369
 30
0.0
 40
0.5
100
AcDbArc
 50
0.0
 51
90.0
  0
LINE
  5
5D39
330
18
100
AcDbEntity
  8
0
 62
     7
100
AcDbLine
 10
255.3540436151392
 20
1055.439245190369
 30
0.0
 11
253.1040436151393
 21
1055.439245190369
 31
0.0
  0
LINE
  5
5D3A
330
18
100
AcDbEntity
  8
0
 62
     7
100
AcDbLine
 10
254.8540436151394
 20
1053.939245190369
 30
0.0
 11
253.1040436151394
 21
1053.939245190369
 31
0.0
  0
LINE
  5
5D3B
330
18
100
AcDbEntity
  8
0
 62
     7
100
AcDbLine
 10
255.3540436151391
 20
1009.829829209152
 30
0.0
 11
255.3540436151392
 21
1065.095495190369
 31
0.0
  0
LINE
  5
5D3C
330
18
100
AcDbEntity
  8
0
 62
     7
100
AcDbLine
 10
257.0415436151391
 20
1009.829829209152
 30
0.0
 11
257.0415436151392
 21
1065.095495190369
 31
0.0
  0
ARC
  5
5D3D
330
18
100
AcDbEntity
  8
0
 62
     7
100
AcDbCircle
 10
256.1977936151388
 20
1065.095495190369
 30
0.0
 40
0.84375
100
AcDbArc
 50
0.0
 51
180.0
  0
ARC
  5
5D3E
330
18
100
AcDbEntity
  8
0
 62
     7
100
AcDbCircle
 10
256.1977936151392
 20
1009.829829209152
 30
0.0
 40
0.84375
100
AcDbArc
 50
0.0
 51
180.0
  0
ARC
  5
5D3F
330
18
100
AcDbEntity
  8
0
 62
     7
100
AcDbCircle
 10
256.1977936151392
 20
999.517329209152
 30
0.0
 40
0.84375
100
AcDbArc
 50
180.0
 51
0.0
  0
DIMENSION
  5
5D40
330
18
100
AcDbEntity
  8
0
 62
     7
100
AcDbDimension
  2
*D11
 10
253.1040436151393
 20
1079.504118390075
 30
0.0
 11
241.8540436151393
 21
1079.504118390075
 31
0.0
 70
    32
 71
     5
 42
2.249999999999488
 73
     0
 74
     0
 75
     0
  3
STANDARD$0
100
AcDbAlignedDimension
 13
255.3540436151388
 23
1065.095495190369
 33
0.0
 14
253.1040436151393
 24
1073.137335129069
 34
0.0
100
AcDbRotatedDimension
  0
LINE
  5
5D70
330
18
100
AcDbEntity
  8
0
100
AcDbLine
 10
28.71927705368319
 20
986.0627223051888
 30
0.0
 11
28.71927705368318
 21
1025.859681120357
 31
0.0
  0
LINE
  5
5D71
330
18
100
AcDbEntity
  8
0
100
AcDbLine
 10
84.7630681732444
 20
1064.894601743013
 30
0.0
 11
56.05103643407788
 21
1040.797942562947
 31
0.0
  0
LINE
  5
5D72
330
18
100
AcDbEntity
  8
0
100
AcDbLine
 10
81.69529581447262
 20
1049.319964544124
 30
0.0
 11
56.0510364340779
 21
1027.797942562947
 31
0.0
  0
LINE
  5
5D73
330
18
100
AcDbEntity
  8
0
100
AcDbLine
 10
56.05103643407793
 20
1009.000983747779
 30
0.0
 11
56.05103643407788
 21
1048.797942562947
 31
0.0
  0
LINE
  5
5D74
330
18
100
AcDbEntity
  8
0
100
AcDbLine
 10
81.69529581447262
 20
1030.523005728956
 30
0.0
 11
81.69529581447262
 21
1070.319964544124
 31
0.0
  0
LINE
  5
5D88
330
18
100
AcDbEntity
  8
0
100
AcDbLine
 10
83.38279581447265
 20
1073.939245190369
 30
0.0
 11
27.0317770536832
 21
1026.646482843776
 31
0.0
  0
LINE
  5
5D89
330
18
100
AcDbEntity
  8
0
100
AcDbLine
 10
81.69529581447262
 20
1070.319964544124
 30
0.0
 11
28.71927705368317
 21
1025.859681120357
 31
0.0
  0
LINE
  5
5D8A
330
18
100
AcDbEntity
  8
0
 62
     7
100
AcDbLine
 10
27.0317770536832
 20
1026.646482843776
 30
0.0
 11
28.71927705368318
 21
1025.859681120357
 31
0.0
  0
LINE
  5
5D8B
330
18
100
AcDbEntity
  8
0
 62
     7
100
AcDbLine
 10
81.69529581447262
 20
1070.319964544124
 30
0.0
 11
83.38279581447265
 21
1073.939245190369
 31
0.0
  0
LINE
  5
5DC2
330
18
100
AcDbEntity
  8
0
100
AcDbLine
 10
54.3635364340779
 20
1026.381703101533
 30
0.0
 11
28.71927705368318
 21
1004.859681120357
 31
0.0
  0
LINE
  5
5DC3
330
18
100
AcDbEntity
  8
0
100
AcDbLine
 10
81.69529581447262
 20
1051.523005728954
 30
0.0
 11
56.05103643407789
 21
1030.000983747778
 31
0.0
  0
LINE
  5
5DC4
330
18
100
AcDbEntity
  8
0
100
AcDbLine
 10
54.36353643407788
 20
1039.381703101533
 30
0.0
 11
19.21927705368308
 21
1009.886777485734
 31
0.0
  0
LINE
  5
5DC5
330
18
100
AcDbEntity
  8
0
100
AcDbLine
 10
54.36353643407789
 20
1041.584744286365
 30
0.0
 11
17.53177705368319
 21
1010.673579209152
 31
0.0
  0
LINE
  5
5E3B
330
18
100
AcDbEntity
  8
0
100
AcDbLine
 10
85.87928151085931
 20
1031.332101743013
 30
0.0
 11
85.87928151085931
 21
1072.894601743013
 31
0.0
  0
LINE
  5
5E3C
102
{ACAD_REACTORS
330
5EBC
102
}
330
18
100
AcDbEntity
  8
0
100
AcDbLine
 10
87.56678151085935
 20
1031.332101743013
 30
0.0
 11
87.56678151085926
 21
1051.974990313256
 31
0.0
  0
LINE
  5
5E3D
330
18
100
AcDbEntity
  8
0
100
AcDbLine
 10
87.56678151085923
 20
1053.529213172768
 30
0.0
 11
87.56678151085941
 21
1072.050851743013
 31
0.0
  0
LWPOLYLINE
  5
5E3F
330
18
100
AcDbEntity
  8
0
100
AcDbPolyline
 90
        8
 70
     1
 43
0.0
 10
87.56678151085925
 20
1074.582101743013
 10
91.12928151085927
 20
1074.582101743013
 10
91.12928151085927
 20
1072.894601743013
 10
88.41053151085947
 20
1072.894601743013
 42
0.4142135623730951
 10
87.56678151085948
 20
1072.050851743013
 10
87.56678151085925
 20
1069.332101743013
 10
85.87928151085927
 20
1069.332101743013
 10
85.87928151085924
 20
1072.894601743013
 42
-0.4142135623730951
  0
LINE
  5
5E40
330
18
100
AcDbEntity
  8
0
100
AcDbLine
 10
89.02832537675726
 20
1051.922101743012
 30
0.0
 11
117.3047645318039
 21
1051.922101743014
 31
0.0
  0
LINE
  5
5E41
330
18
100
AcDbEntity
  8
0
100
AcDbLine
 10
89.0283253767572
 20
1053.582101743012
 30
0.0
 11
117.3047645318039
 21
1053.582101743014
 31
0.0
  0
ARC
  5
5E42
330
18
100
AcDbEntity
  8
0
100
AcDbCircle
 10
87.85832537675725
 20
1052.752101743012
 30
0.0
 40
0.8299999999999982
100
AcDbArc
 50
90.00000000000325
 51
270.0000000000033
  0
LWPOLYLINE
  5
5E43
330
18
100
AcDbEntity
  8
0
100
AcDbPolyline
 90
        2
 70
     0
 43
0.0
 10
89.02832537675726
 20
1051.922101743012
 10
89.0283253767572
 20
1053.582101743012
  0
LINE
  5
5E44
330
18
100
AcDbEntity
  8
0
100
AcDbLine
 10
87.8583253767573
 20
1051.922101743012
 30
0.0
 11
89.02832537675726
 21
1051.922101743012
 31
0.0
  0
LINE
  5
5E46
330
18
100
AcDbEntity
  8
0
100
AcDbLine
 10
119.035531510859
 20
1071.579456905642
 30
0.0
 11
119.0355315108604
 21
1053.364017092714
 31
0.0
  0
LINE
  5
5E47
102
{ACAD_REACTORS
330
5EBC
102
}
330
18
100
AcDbEntity
  8
0
100
AcDbLine
 10
119.0355315108605
 20
1052.140186393311
 30
0.0
 11
119.0355315108619
 21
1031.332101743013
 31
0.0
  0
LINE
  5
5E48
330
18
100
AcDbEntity
  8
0
100
AcDbLine
 10
120.6955315108591
 20
1071.579456905642
 30
0.0
 11
120.6955315108605
 21
1053.447225336157
 31
0.0
  0
LINE
  5
5E49
102
{ACAD_REACTORS
330
5EBC
102
}
330
18
100
AcDbEntity
  8
0
100
AcDbLine
 10
120.6955315108606
 20
1052.056978149867
 30
0.0
 11
120.6955315108619
 21
1031.332101743013
 31
0.0
  0
ARC
  5
5E4A
330
18
100
AcDbEntity
  8
0
100
AcDbCircle
 10
119.8655315108589
 20
1072.749456905642
 30
0.0
 40
0.8299999999999982
100
AcDbArc
 50
0.0
 51
180.0
  0
LWPOLYLINE
  5
5E4B
330
18
100
AcDbEntity
  8
0
100
AcDbPolyline
 90
        2
 70
     0
 43
0.0
 10
119.035531510859
 20
1071.579456905642
 10
120.6955315108591
 20
1071.579456905642
  0
LINE
  5
5E4C
330
18
100
AcDbEntity
  8
0
100
AcDbLine
 10
119.035531510859
 20
1072.749456905641
 30
0.0
 11
119.035531510859
 21
1071.579456905642
 31
0.0
  0
LINE
  5
5E4D
330
18
100
AcDbEntity
  8
0
100
AcDbLine
 10
120.6955315108589
 20
1072.749456905642
 30
0.0
 11
120.6955315108591
 21
1071.579456905642
 31
0.0
  0
ARC
  5
5E4E
330
18
100
AcDbEntity
  8
0
100
AcDbCircle
 10
118.4747645318039
 20
1052.752101743013
 30
0.0
 40
0.8299999999999982
100
AcDbArc
 50
270.0
 51
90.0
  0
LWPOLYLINE
  5
5E4F
330
18
100
AcDbEntity
  8
0
100
AcDbPolyline
 90
        2
 70
     0
 43
0.0
 10
117.3047645318039
 20
1051.922101743013
 10
117.3047645318039
 20
1053.582101743013
  0
LINE
  5
5E50
330
18
100
AcDbEntity
  8
0
100
AcDbLine
 10
118.4747645318039
 20
1051.922101743013
 30
0.0
 11
117.3047645318039
 21
1051.922101743013
 31
0.0
  0
LINE
  5
5E51
330
18
100
AcDbEntity
  8
0
100
AcDbLine
 10
118.4747645318039
 20
1053.582101743013
 30
0.0
 11
117.3047645318039
 21
1053.582101743013
 31
0.0
  0
LINE
  5
5E52
330
18
100
AcDbEntity
  8
0
100
AcDbLine
 10
153.8792815108593
 20
1031.332101743013
 30
0.0
 11
153.8792815108593
 21
1069.332101743013
 31
0.0
  0
LINE
  5
5E54
102
{ACAD_REACTORS
330
5EBC
102
}
330
18
100
AcDbEntity
  8
0
100
AcDbLine
 10
152.1917815108592
 20
1031.332101743013
 30
0.0
 11
152.1917815108593
 21
1051.974990313256
 31
0.0
  0
LWPOLYLINE
  5
5E56
330
18
100
AcDbEntity
  8
0
100
AcDbPolyline
 90
        8
 70
     1
 43
0.0
 10
152.1917815108593
 20
1074.582101743013
 10
148.6292815108593
 20
1074.582101743013
 10
148.6292815108593
 20
1072.894601743013
 10
151.3480315108591
 20
1072.894601743013
 42
-0.4142135623730951
 10
152.1917815108591
 20
1072.050851743013
 10
152.1917815108593
 20
1069.332101743013
 10
153.8792815108593
 20
1069.332101743013
 10
153.8792815108593
 20
1072.894601743013
 42
0.4142135623730951
  0
LINE
  5
5E57
330
18
100
AcDbEntity
  8
0
 62
     7
100
AcDbLine
 10
91.12928151085927
 20
1074.582101743013
 30
0.0
 11
148.6292815108593
 21
1074.582101743013
 31
0.0
  0
LINE
  5
5E58
330
18
100
AcDbEntity
  8
0
 62
     7
100
AcDbLine
 10
148.6292815108593
 20
1072.894601743013
 30
0.0
 11
120.682741995486
 21
1072.894601743013
 31
0.0
  0
LINE
  5
5E5A
330
18
100
AcDbEntity
  8
0
100
AcDbLine
 10
150.7302376449613
 20
1051.922101743012
 30
0.0
 11
122.4537984899146
 21
1051.922101743014
 31
0.0
  0
LINE
  5
5E5B
330
18
100
AcDbEntity
  8
0
100
AcDbLine
 10
150.7302376449614
 20
1053.582101743012
 30
0.0
 11
122.4537984899146
 21
1053.582101743014
 31
0.0
  0
ARC
  5
5E5C
330
18
100
AcDbEntity
  8
0
100
AcDbCircle
 10
151.9002376449613
 20
1052.752101743012
 30
0.0
 40
0.8299999999999982
100
AcDbArc
 50
269.9999999999968
 51
89.99999999999674
  0
LWPOLYLINE
  5
5E5D
330
18
100
AcDbEntity
  8
0
100
AcDbPolyline
 90
        2
 70
     0
 43
0.0
 10
150.7302376449613
 20
1051.922101743012
 10
150.7302376449614
 20
1053.582101743012
  0
LINE
  5
5E5E
330
18
100
AcDbEntity
  8
0
100
AcDbLine
 10
151.9002376449613
 20
1051.922101743012
 30
0.0
 11
150.7302376449613
 21
1051.922101743012
 31
0.0
  0
LINE
  5
5E5F
330
18
100
AcDbEntity
  8
0
100
AcDbLine
 10
151.9002376449614
 20
1053.582101743012
 30
0.0
 11
150.7302376449614
 21
1053.582101743012
 31
0.0
  0
ARC
  5
5E60
330
18
100
AcDbEntity
  8
0
100
AcDbCircle
 10
121.2837984899147
 20
1052.752101743013
 30
0.0
 40
0.8299999999999982
100
AcDbArc
 50
90.0
 51
270.0
  0
LWPOLYLINE
  5
5E61
330
18
100
AcDbEntity
  8
0
100
AcDbPolyline
 90
        2
 70
     0
 43
0.0
 10
122.4537984899146
 20
1051.922101743013
 10
122.4537984899146
 20
1053.582101743013
  0
LINE
  5
5E62
330
18
100
AcDbEntity
  8
0
100
AcDbLine
 10
121.2837984899147
 20
1051.922101743013
 30
0.0
 11
122.4537984899146
 21
1051.922101743013
 31
0.0
  0
LINE
  5
5E63
330
18
100
AcDbEntity
  8
0
100
AcDbLine
 10
121.2837984899146
 20
1053.582101743013
 30
0.0
 11
122.4537984899146
 21
1053.582101743013
 31
0.0
  0
LINE
  5
5E64
330
18
100
AcDbEntity
  8
0
 62
     7
100
AcDbLine
 10
119.0483210262319
 20
1072.894601743013
 30
0.0
 11
91.12928151085927
 21
1072.894601743013
 31
0.0
  0
LINE
  5
5E6A
330
18
100
AcDbEntity
  8
0
100
AcDbLine
 10
156.375767207246
 20
1031.939245190369
 30
0.0
 11
156.3757672072459
 21
1073.939245190369
 31
0.0
  0
LINE
  5
5E6B
330
18
100
AcDbEntity
  8
0
100
AcDbLine
 10
158.063267207246
 20
1030.523005728956
 30
0.0
 11
158.063267207246
 21
1070.319964544124
 31
0.0
  0
LINE
  5
5E7B
330
18
100
AcDbEntity
  8
0
 62
     7
100
AcDbLine
 10
158.063267207246
 20
1070.319964544124
 30
0.0
 11
156.3757672072459
 21
1073.939245190369
 31
0.0
  0
HATCH
  5
5EBC
330
18
100
AcDbEntity
  8
0
 62
     7
100
AcDbHatch
 10
0.0
 20
0.0
 30
0.0
210
0.0
220
0.0
230
1.0
  2
ANSI31
 70
     0
 71
     1
 91
        2
 92
        7
 72
     0
 73
     1
 93
        4
 10
120.6955315108618
 20
1032.582101743013
 10
120.6955315108619
 20
1031.332101743013
 10
152.1917815108592
 20
1031.332101743013
 10
152.1917815108593
 20
1032.582101743013
 97
        4
330
5AD3
330
5E49
330
5AA7
330
5E54
 92
        7
 72
     0
 73
     1
 93
        4
 10
119.0355315108619
 20
1031.332101743013
 10
119.0355315108618
 20
1032.582101743013
 10
87.56678151085935
 20
1032.582101743013
 10
87.56678151085935
 20
1031.332101743013
 97
        4
330
4E7E
330
5E3C
330
5AA7
330
5E47
 75
     0
 76
     1
 52
0.0
 41
1.0
 77
     0
 78
     1
 53
45.0
 43
4.147518410129123
 44
0.0
 45
-0.0883883476483184
 46
0.0883883476483185
 79
     0
 47
0.0619151830623769
 98
        2
 10
122.5755034803005
 20
1032.058562386739
 10
109.9961719782291
 20
1031.625156420297
1001
ACAD
1010
0.0
1020
0.0
1030
0.0
  0
LINE
  5
5ECA
330
18
100
AcDbEntity
  8
0
100
AcDbLine
 10
255.3540436151391
 20
1032.582101743013
 30
0.0
 11
253.3852936151394
 21
1032.582101743014
 31
0.0
  0
LINE
  5
5ECB
330
18
100
AcDbEntity
  8
0
100
AcDbLine
 10
255.3540436151391
 20
1022.332101743014
 30
0.0
 11
253.3852936151394
 21
1022.332101743014
 31
0.0
  0
LINE
  5
5ECC
330
18
100
AcDbEntity
  8
0
100
AcDbLine
 10
255.3540436151391
 20
1024.582101743014
 30
0.0
 11
253.3852936151394
 21
1024.582101743014
 31
0.0
  0
LINE
  5
5ECD
330
18
100
AcDbEntity
  8
0
100
AcDbLine
 10
255.3540436151391
 20
1016.582101743013
 30
0.0
 11
253.3852936151394
 21
1016.582101743014
 31
0.0
  0
LINE
  5
5ECE
330
18
100
AcDbEntity
  8
0
100
AcDbLine
 10
255.3540436151391
 20
1014.332101743014
 30
0.0
 11
253.3852936151394
 21
1014.332101743014
 31
0.0
  0
LINE
  5
5ED0
330
18
100
AcDbEntity
  8
0
100
AcDbLine
 10
255.3540436151391
 20
1008.582101743014
 30
0.0
 11
253.3852936151394
 21
1008.582101743014
 31
0.0
  0
LINE
  5
5ED1
330
18
100
AcDbEntity
  8
0
100
AcDbLine
 10
253.3852936151394
 20
1032.582101743013
 30
0.0
 11
253.3852936151394
 21
1000.173579209152
 31
0.0
  0
ARC
  5
5ED2
330
18
100
AcDbEntity
  8
0
 62
     7
100
AcDbCircle
 10
283.3902694181056
 20
1000.673579209152
 30
0.0
 40
0.5
100
AcDbArc
 50
180.0
 51
270.0
  0
ARC
  5
5ED3
330
18
100
AcDbEntity
  8
0
 62
     7
100
AcDbCircle
 10
282.8902694181057
 20
1000.173579209152
 30
0.0
 40
1.5
100
AcDbArc
 50
251.1605204686208
 51
270.0
  0
LINE
  5
5ED4
330
18
100
AcDbEntity
  8
0
 62
     7
100
AcDbLine
 10
282.8902694181057
 20
998.6735792091518
 30
0.0
 11
285.1402694181045
 21
998.6735792091517
 31
0.0
  0
LINE
  5
5ED5
330
18
100
AcDbEntity
  8
0
 62
     7
100
AcDbLine
 10
283.3902694181056
 20
1000.173579209152
 30
0.0
 11
285.1402694181045
 21
1000.173579209152
 31
0.0
  0
LINE
  5
5ED6
330
18
100
AcDbEntity
  8
0
 62
     7
100
AcDbLine
 10
282.8902694181046
 20
999.517329209152
 30
0.0
 11
282.8902694181046
 21
1009.829829209152
 31
0.0
  0
LINE
  5
5ED7
330
18
100
AcDbEntity
  8
0
 62
     7
100
AcDbLine
 10
281.2027694181046
 20
999.517329209152
 30
0.0
 11
281.2027694181046
 21
1009.829829209152
 31
0.0
  0
ARC
  5
5EDA
330
18
100
AcDbEntity
  8
0
 62
     7
100
AcDbCircle
 10
283.3902694181045
 20
1053.439245190369
 30
0.0
 40
0.5
100
AcDbArc
 50
90.0
 51
180.0
  0
LINE
  5
5EDB
330
18
100
AcDbEntity
  8
0
 62
     7
100
AcDbLine
 10
282.8902694181047
 20
1055.439245190369
 30
0.0
 11
285.1402694181046
 21
1055.439245190369
 31
0.0
  0
LINE
  5
5EDC
330
18
100
AcDbEntity
  8
0
 62
     7
100
AcDbLine
 10
283.3902694181045
 20
1053.939245190369
 30
0.0
 11
285.1402694181045
 21
1053.939245190369
 31
0.0
  0
LINE
  5
5EDD
330
18
100
AcDbEntity
  8
0
 62
     7
100
AcDbLine
 10
282.8902694181045
 20
1009.829829209152
 30
0.0
 11
282.8902694181047
 21
1065.095495190369
 31
0.0
  0
LINE
  5
5EDE
330
18
100
AcDbEntity
  8
0
 62
     7
100
AcDbLine
 10
281.2027694181045
 20
1009.829829209152
 30
0.0
 11
281.2027694181047
 21
1065.095495190369
 31
0.0
  0
ARC
  5
5EDF
330
18
100
AcDbEntity
  8
0
 62
     7
100
AcDbCircle
 10
282.0465194181051
 20
1065.095495190369
 30
0.0
 40
0.84375
100
AcDbArc
 50
0.000000000000007
 51
180.0
  0
ARC
  5
5EE0
330
18
100
AcDbEntity
  8
0
 62
     7
100
AcDbCircle
 10
282.0465194181046
 20
1009.829829209152
 30
0.0
 40
0.84375
100
AcDbArc
 50
0.0
 51
180.0
  0
ARC
  5
5EE1
330
18
100
AcDbEntity
  8
0
 62
     7
100
AcDbCircle
 10
282.0465194181046
 20
999.517329209152
 30
0.0
 40
0.84375
100
AcDbArc
 50
180.0
 51
0.0
  0
ARC
  5
5EE2
330
18
100
AcDbEntity
  8
0
 62
     7
100
AcDbCircle
 10
285.9840194181044
 20
1073.094403683631
 30
0.0
 40
0.8448415067378828
100
AcDbArc
 50
2.912795456002473
 51
177.0872045439649
  0
LINE
  5
5EE3
330
18
100
AcDbEntity
  8
0
 62
     7
100
AcDbLine
 10
286.8277694181045
 20
1073.137335129063
 30
0.0
 11
286.8277694181046
 21
983.7551915241126
 31
0.0
  0
LINE
  5
5EE4
330
18
100
AcDbEntity
  8
0
 62
     7
100
AcDbLine
 10
285.1402694181045
 20
1073.137335129069
 30
0.0
 11
285.1402694181046
 21
983.7551915241125
 31
0.0
  0
LINE
  5
5EE5
330
18
100
AcDbEntity
  8
0
100
AcDbLine
 10
281.2027694181046
 20
1008.582101743013
 30
0.0
 11
257.0415436151392
 21
1008.582101743014
 31
0.0
  0
LINE
  5
5EE6
330
18
100
AcDbEntity
  8
0
100
AcDbLine
 10
284.8590194181043
 20
1032.582101743013
 30
0.0
 11
284.8590194181043
 21
1000.173579209152
 31
0.0
  0
LINE
  5
5EE7
330
18
100
AcDbEntity
  8
0
100
AcDbLine
 10
281.2027694181046
 20
1016.582101743013
 30
0.0
 11
257.0415436151392
 21
1016.582101743013
 31
0.0
  0
LINE
  5
5EE8
330
18
100
AcDbEntity
  8
0
100
AcDbLine
 10
281.2027694181046
 20
1014.332101743013
 30
0.0
 11
257.0415436151392
 21
1014.332101743014
 31
0.0
  0
LINE
  5
5EE9
330
18
100
AcDbEntity
  8
0
100
AcDbLine
 10
281.2027694181046
 20
1024.582101743013
 30
0.0
 11
257.0415436151392
 21
1024.582101743014
 31
0.0
  0
LINE
  5
5EEA
330
18
100
AcDbEntity
  8
0
100
AcDbLine
 10
281.2027694181046
 20
1022.332101743013
 30
0.0
 11
257.0415436151392
 21
1022.332101743014
 31
0.0
  0
LINE
  5
5EEB
330
18
100
AcDbEntity
  8
0
100
AcDbLine
 10
281.2027694181046
 20
1032.582101743013
 30
0.0
 11
257.0415436151392
 21
1032.582101743013
 31
0.0
  0
LINE
  5
5EEC
330
18
100
AcDbEntity
  8
0
100
AcDbLine
 10
286.8277694181046
 20
1032.582101743013
 30
0.0
 11
287.1090194181044
 21
1032.582101743013
 31
0.0
  0
LINE
  5
5EED
330
18
100
AcDbEntity
  8
0
100
AcDbLine
 10
251.4165436151392
 20
1032.582101743013
 30
0.0
 11
251.1352936151394
 21
1032.582101743013
 31
0.0
  0
LINE
  5
5F15
330
18
100
AcDbEntity
  8
0
100
AcDbLine
 10
152.1917815108593
 20
1053.529213172768
 30
0.0
 11
152.1917815108594
 21
1069.332101743013
 31
0.0
  0
DIMENSION
  5
5F20
330
18
100
AcDbEntity
  8
0
 62
     7
100
AcDbDimension
  2
*D12
 10
300.8048899798236
 20
1074.582101743013
 30
0.0
 11
300.8048899798235
 21
1053.582101743013
 31
0.0
 70
    32
 71
     5
 42
41.99999999999954
 73
     0
 74
     0
 75
     0
  3
STANDARD$0
100
AcDbAlignedDimension
 13
287.1090194181044
 23
1032.582101743013
 33
0.0
 14
285.9840194181053
 24
1074.582101743013
 34
0.0
 50
90.0
100
AcDbRotatedDimension
  0
ARC
  5
5F64
330
18
100
AcDbEntity
  8
0
 62
     7
100
AcDbCircle
 10
252.2602936151394
 20
1073.737260236275
 30
0.0
 40
0.8448415067378828
100
AcDbArc
 50
2.912795456034996
 51
177.0872045439977
  0
ARC
  5
5F65
330
18
100
AcDbEntity
  8
0
 62
     7
100
AcDbCircle
 10
285.9840194181044
 20
1073.737260236275
 30
0.0
 40
0.8448415067378828
100
AcDbArc
 50
2.91279545600247
 51
177.0872045439649
  0
LINE
  5
5F66
330
18
100
AcDbEntity
  8
0
 62
     7
100
AcDbLine
 10
286.8277694181042
 20
1073.780191681712
 30
0.0
 11
286.8277694181042
 21
1073.137335129068
 31
0.0
  0
LINE
  5
5F67
330
18
100
AcDbEntity
  8
0
 62
     7
100
AcDbLine
 10
285.1402694181045
 20
1073.780191681713
 30
0.0
 11
285.1402694181045
 21
1073.137335129069
 31
0.0
  0
LINE
  5
5F68
330
18
100
AcDbEntity
  8
0
 62
     7
100
AcDbLine
 10
251.4165436151395
 20
1073.780191681712
 30
0.0
 11
251.4165436151395
 21
1073.137335129068
 31
0.0
  0
LINE
  5
5F69
330
18
100
AcDbEntity
  8
0
 62
     7
100
AcDbLine
 10
253.1040436151393
 20
1073.780191681713
 30
0.0
 11
253.1040436151392
 21
1073.137335129069
 31
0.0
  0
TEXT
  5
5F74
330
18
100
AcDbEntity
  8
0
100
AcDbText
 10
-14.37785755015215
 20
943.5233881133699
 30
0.0
 40
2.2565466
  1
OSHA 1910.25 & 29
  7
ROMANS
100
AcDbText
  0
LINE
  5
5FA1
330
18
100
AcDbEntity
  8
0
 62
     7
100
AcDbLine
 10
87.85832537675725
 20
1053.582101743012
 30
0.0
 11
89.0283253767572
 21
1053.582101743012
 31
0.0
  0
DIMENSION
  5
5FC3
330
18
100
AcDbEntity
  8
0
 62
     7
100
AcDbDimension
  2
*D13
 10
85.87928151085924
 20
1080.829478782274
 30
0.0
 11
119.8792815108593
 21
1080.829478782274
 31
0.0
 70
    32
  1
30" MIN.
 71
     5
 42
68.00000000000011
 73
     0
 74
     0
 75
     0
  3
STANDARD$0
100
AcDbAlignedDimension
 13
153.8792815108593
 23
1072.894601743013
 33
0.0
 14
85.87928151085924
 24
1072.894601743012
 34
0.0
100
AcDbRotatedDimension
  0
CIRCLE
  5
6019
330
18
100
AcDbEntity
  8
0
  6
HIDDEN
 62
     7
100
AcDbCircle
 10
27.87570086901167
 20
999.517329209152
 30
0.0
 40
0.84375
  0
LINE
  5
601A
330
18
100
AcDbEntity
  8
0
 62
     7
100
AcDbLine
 10
27.87570086901167
 20
998.673579209152
 30
0.0
 11
22.71945086901167
 21
998.673579209152
 31
0.0
  0
LINE
  5
601B
330
18
100
AcDbEntity
  8
0
 62
     7
100
AcDbLine
 10
27.87765222891301
 20
1000.361076952672
 30
0.0
 11
22.72140222891301
 21
1000.361076952672
 31
0.0
  0
LINE
  5
601C
330
18
100
AcDbEntity
  8
0
 62
     7
100
AcDbLine
 10
22.71945086901167
 20
998.673579209152
 30
0.0
 11
22.72140222891301
 21
1000.361076952672
 31
0.0
  0
LINE
  5
601D
330
18
100
AcDbEntity
  8
0
 62
     7
100
AcDbLine
 10
22.72140222891301
 20
1000.361076952672
 30
0.0
 11
19.21927705368308
 21
1000.361076952672
 31
0.0
  0
LINE
  5
601E
330
18
100
AcDbEntity
  8
0
 62
     7
100
AcDbLine
 10
17.53177705368319
 20
998.6735792091522
 30
0.0
 11
22.71945086901167
 21
998.673579209152
 31
0.0
  0
LINE
  5
601F
330
18
100
AcDbEntity
  8
0
 62
     7
100
AcDbLine
 10
251.1352936151394
 20
976.5821017430134
 30
0.0
 11
249.1352936151394
 21
976.5821017430134
 31
0.0
  0
LINE
  5
6020
330
18
100
AcDbEntity
  8
0
 62
     7
100
AcDbLine
 10
249.1352936151394
 20
976.5821017430134
 30
0.0
 11
249.1352936151394
 21
976.8321017430135
 31
0.0
  0
LINE
  5
6021
330
18
100
AcDbEntity
  8
0
 62
     7
100
AcDbLine
 10
249.1352936151394
 20
976.8321017430135
 30
0.0
 11
251.1352936151394
 21
976.8321017430135
 31
0.0
  0
LINE
  5
6022
330
18
100
AcDbEntity
  8
0
 62
     7
100
AcDbLine
 10
250.1352936151394
 20
975.8556246743125
 30
0.0
 11
250.1352936151394
 21
977.4788106271087
 31
0.0
  0
LINE
  5
6023
330
18
100
AcDbEntity
  8
0
 62
     7
100
AcDbLine
 10
287.1090194181044
 20
976.5821017430138
 30
0.0
 11
289.1090194181044
 21
976.5821017430138
 31
0.0
  0
LINE
  5
6024
330
18
100
AcDbEntity
  8
0
 62
     7
100
AcDbLine
 10
289.1090194181044
 20
976.5821017430138
 30
0.0
 11
289.1090194181044
 21
976.8321017430137
 31
0.0
  0
LINE
  5
6025
330
18
100
AcDbEntity
  8
0
 62
     7
100
AcDbLine
 10
289.1090194181044
 20
976.8321017430137
 30
0.0
 11
287.1090194181044
 21
976.8321017430137
 31
0.0
  0
LINE
  5
6026
330
18
100
AcDbEntity
  8
0
 62
     7
100
AcDbLine
 10
288.1090194181044
 20
975.8556246743127
 30
0.0
 11
288.1090194181044
 21
977.4788106271088
 31
0.0
  0
ARC
  5
6027
330
18
100
AcDbEntity
  8
0
 62
     7
100
AcDbCircle
 10
96.19178151085931
 20
1056.269601743013
 30
0.0
 40
1.6875
100
AcDbArc
 50
270.0
 51
0.0
  0
ARC
  5
6028
330
18
100
AcDbEntity
  8
0
 62
     7
100
AcDbCircle
 10
95.34803151085885
 20
1057.113351743013
 30
0.0
 40
0.84375
100
AcDbArc
 50
270.0
 51
0.0
  0
LINE
  5
6029
330
18
100
AcDbEntity
  8
0
 62
     7
100
AcDbLine
 10
97.8792815108593
 20
1056.269601743013
 30
0.0
 11
97.8792815108593
 21
1064.894601743013
 31
0.0
  0
ARC
  5
602A
330
18
100
AcDbEntity
  8
0
 62
     7
100
AcDbCircle
 10
96.19178151085931
 20
1064.894601743013
 30
0.0
 40
1.6875
100
AcDbArc
 50
0.0
 51
90.0
  0
LINE
  5
602B
330
18
100
AcDbEntity
  8
0
 62
     7
100
AcDbLine
 10
96.19178151085884
 20
1057.113351743013
 30
0.0
 11
96.19178151085931
 21
1064.050851743013
 31
0.0
  0
ARC
  5
602C
330
18
100
AcDbEntity
  8
0
 62
     7
100
AcDbCircle
 10
95.34803151085929
 20
1064.050851743013
 30
0.0
 40
0.84375
100
AcDbArc
 50
0.0
 51
90.0
  0
LINE
  5
602D
330
18
100
AcDbEntity
  8
0
 62
     7
100
AcDbLine
 10
96.19178151085931
 20
1066.582101743013
 30
0.0
 11
89.87928151085929
 21
1066.582101743013
 31
0.0
  0
LINE
  5
602E
330
18
100
AcDbEntity
  8
0
 62
     7
100
AcDbLine
 10
95.34803151085929
 20
1064.894601743013
 30
0.0
 11
89.87928151085929
 21
1064.894601743013
 31
0.0
  0
LINE
  5
602F
330
18
100
AcDbEntity
  8
0
 62
     7
100
AcDbLine
 10
89.87928151085929
 20
1066.582101743013
 30
0.0
 11
89.87928151085929
 21
1064.894601743013
 31
0.0
  0
LINE
  5
6030
330
18
100
AcDbEntity
  8
0
 62
     7
100
AcDbLine
 10
87.69529581447264
 20
1056.269601743013
 30
0.0
 11
87.69529581447264
 21
1054.582101743013
 31
0.0
  0
LINE
  5
6031
330
18
100
AcDbEntity
  8
0
 62
     7
100
AcDbLine
 10
95.34803151085885
 20
1056.269601743013
 30
0.0
 11
91.8792815108593
 21
1056.269601743013
 31
0.0
  0
LINE
  5
6032
330
18
100
AcDbEntity
  8
0
 62
     7
100
AcDbLine
 10
91.8792815108593
 20
1054.582101743013
 30
0.0
 11
96.19178151085931
 21
1054.582101743013
 31
0.0
  0
LINE
  5
6033
330
18
100
AcDbEntity
  8
0
 62
     7
100
AcDbLine
 10
87.69529581447264
 20
1056.269601743013
 30
0.0
 11
82.53904581447264
 21
1056.269601743013
 31
0.0
  0
CIRCLE
  5
6034
330
18
100
AcDbEntity
  8
0
  6
HIDDEN
 62
     7
100
AcDbCircle
 10
82.53904581447264
 20
1055.425851743013
 30
0.0
 40
0.84375
  0
LINE
  5
6035
330
18
100
AcDbEntity
  8
0
 62
     7
100
AcDbLine
 10
82.53904581447264
 20
1054.582101743013
 30
0.0
 11
87.69529581447251
 21
1054.582101743013
 31
0.0
  0
TEXT
  5
6036
330
18
100
AcDbEntity
  8
0
100
AcDbText
 10
95.79785691286758
 20
1108.730265436597
 30
0.0
 40
2.118351925305
  1
UNIFORM RISER HEIGHTS AND
  7
ROMANS
100
AcDbText
  0
TEXT
  5
6037
330
18
100
AcDbEntity
  8
0
100
AcDbText
 10
91.62231876772727
 20
1105.300552795628
 30
0.0
 40
2.118351925305
  1
TREAD DEPTHS BETWEEN LANDINGS
  7
ROMANS
100
AcDbText
  0
LWPOLYLINE
  5
6038
330
18
100
AcDbEntity
  8
0
 62
     7
100
AcDbPolyline
 90
        4
 70
     1
 43
0.0
 10
152.456363861272
 20
1101.932565883078
 10
89.87467810210489
 20
1101.932565883078
 10
89.87467810210489
 20
1114.103888955981
 10
152.456363861272
 20
1114.103888955981
  0
LINE
  5
612C
330
18
100
AcDbEntity
  8
0
 62
     7
100
AcDbLine
 10
89.87928151085929
 20
1066.582101743013
 30
0.0
 11
84.14878240229452
 21
1066.582101743013
 31
0.0
  0
LINE
  5
612E
330
18
100
AcDbEntity
  8
0
 62
     7
100
AcDbLine
 10
89.87928151085929
 20
1064.894601743013
 30
0.0
 11
84.76306817324426
 21
1064.894601743013
 31
0.0
  0
LINE
  5
612F
330
18
100
AcDbEntity
  8
0
 62
     7
100
AcDbLine
 10
84.14878240229452
 20
1066.582101743013
 30
0.0
 11
84.76306817324426
 21
1064.894601743013
 31
0.0
  0
LINE
  5
6130
330
18
100
AcDbEntity
  8
0
 62
     7
100
AcDbLine
 10
91.8792815108593
 20
1054.582101743013
 30
0.0
 11
91.8792815108593
 21
1056.269601743013
 31
0.0
  0
LINE
  5
6131
330
18
100
AcDbEntity
  8
0
 62
     7
100
AcDbLine
 10
91.8792815108593
 20
1056.269601743013
 30
0.0
 11
87.69529581447264
 21
1056.269601743013
 31
0.0
  0
LINE
  5
6132
330
18
100
AcDbEntity
  8
0
 62
     7
100
AcDbLine
 10
87.69529581447264
 20
1054.582101743013
 30
0.0
 11
91.8792815108593
 21
1054.582101743013
 31
0.0
  0
ARC
  5
6149
330
18
100
AcDbEntity
  8
0
 62
     7
100
AcDbCircle
 10
143.5667815108593
 20
1056.269601743013
 30
0.0
 40
1.6875
100
AcDbArc
 50
180.0
 51
270.0
  0
ARC
  5
614A
330
18
100
AcDbEntity
  8
0
 62
     7
100
AcDbCircle
 10
144.4105315108597
 20
1057.113351743013
 30
0.0
 40
0.84375
100
AcDbArc
 50
180.0
 51
270.0
  0
LINE
  5
614B
330
18
100
AcDbEntity
  8
0
 62
     7
100
AcDbLine
 10
141.8792815108593
 20
1056.269601743013
 30
0.0
 11
141.8792815108593
 21
1064.894601743013
 31
0.0
  0
ARC
  5
614C
330
18
100
AcDbEntity
  8
0
 62
     7
100
AcDbCircle
 10
143.5667815108593
 20
1064.894601743013
 30
0.0
 40
1.6875
100
AcDbArc
 50
90.0
 51
180.0
  0
LINE
  5
614D
330
18
100
AcDbEntity
  8
0
 62
     7
100
AcDbLine
 10
143.5667815108597
 20
1057.113351743013
 30
0.0
 11
143.5667815108593
 21
1064.050851743013
 31
0.0
  0
ARC
  5
614E
330
18
100
AcDbEntity
  8
0
 62
     7
100
AcDbCircle
 10
144.4105315108593
 20
1064.050851743013
 30
0.0
 40
0.84375
100
AcDbArc
 50
90.0
 51
180.0
  0
LINE
  5
614F
330
18
100
AcDbEntity
  8
0
 62
     7
100
AcDbLine
 10
143.5667815108593
 20
1066.582101743013
 30
0.0
 11
149.8792815108593
 21
1066.582101743013
 31
0.0
  0
LINE
  5
6150
330
18
100
AcDbEntity
  8
0
 62
     7
100
AcDbLine
 10
144.4105315108593
 20
1064.894601743013
 30
0.0
 11
149.8792815108593
 21
1064.894601743013
 31
0.0
  0
LINE
  5
6151
330
18
100
AcDbEntity
  8
0
 62
     7
100
AcDbLine
 10
149.8792815108593
 20
1066.582101743013
 30
0.0
 11
149.8792815108593
 21
1064.894601743013
 31
0.0
  0
LINE
  5
6152
330
18
100
AcDbEntity
  8
0
 62
     7
100
AcDbLine
 10
152.063267207246
 20
1056.269601743013
 30
0.0
 11
152.063267207246
 21
1054.582101743013
 31
0.0
  0
LINE
  5
6153
330
18
100
AcDbEntity
  8
0
 62
     7
100
AcDbLine
 10
144.4105315108597
 20
1056.269601743013
 30
0.0
 11
147.8792815108593
 21
1056.269601743013
 31
0.0
  0
LINE
  5
6154
330
18
100
AcDbEntity
  8
0
 62
     7
100
AcDbLine
 10
147.8792815108593
 20
1054.582101743013
 30
0.0
 11
143.5667815108593
 21
1054.582101743013
 31
0.0
  0
LINE
  5
6155
330
18
100
AcDbEntity
  8
0
 62
     7
100
AcDbLine
 10
152.063267207246
 20
1056.269601743013
 30
0.0
 11
157.219517207246
 21
1056.269601743013
 31
0.0
  0
CIRCLE
  5
6156
330
18
100
AcDbEntity
  8
0
  6
HIDDEN
 62
     7
100
AcDbCircle
 10
157.219517207246
 20
1055.425851743013
 30
0.0
 40
0.84375
  0
LINE
  5
6157
330
18
100
AcDbEntity
  8
0
 62
     7
100
AcDbLine
 10
157.219517207246
 20
1054.582101743013
 30
0.0
 11
152.0632672072461
 21
1054.582101743013
 31
0.0
  0
LINE
  5
615C
330
18
100
AcDbEntity
  8
0
 62
     7
100
AcDbLine
 10
149.8792815108593
 20
1066.582101743013
 30
0.0
 11
155.6097806194241
 21
1066.582101743013
 31
0.0
  0
LINE
  5
615D
330
18
100
AcDbEntity
  8
0
 62
     7
100
AcDbLine
 10
149.8792815108593
 20
1064.894601743013
 30
0.0
 11
154.9954948484743
 21
1064.894601743013
 31
0.0
  0
LINE
  5
615E
330
18
100
AcDbEntity
  8
0
 62
     7
100
AcDbLine
 10
155.6097806194241
 20
1066.582101743013
 30
0.0
 11
154.9954948484743
 21
1064.894601743013
 31
0.0
  0
LINE
  5
615F
330
18
100
AcDbEntity
  8
0
 62
     7
100
AcDbLine
 10
147.8792815108593
 20
1054.582101743013
 30
0.0
 11
147.8792815108593
 21
1056.269601743013
 31
0.0
  0
LINE
  5
6160
330
18
100
AcDbEntity
  8
0
 62
     7
100
AcDbLine
 10
147.8792815108593
 20
1056.269601743013
 30
0.0
 11
152.063267207246
 21
1056.269601743013
 31
0.0
  0
LINE
  5
6161
330
18
100
AcDbEntity
  8
0
 62
     7
100
AcDbLine
 10
152.063267207246
 20
1054.582101743013
 30
0.0
 11
147.8792815108593
 21
1054.582101743013
 31
0.0
  0
DIMENSION
  5
6179
330
18
100
AcDbEntity
  8
0
 62
     7
100
AcDbDimension
  2
*D18
 10
203.2072850765997
 20
1007.404696476783
 30
0.0
 11
194.2072850765997
 21
1007.404696476783
 31
0.0
 70
    32
  1
<>\PMIN.
 71
     5
 42
9.519500891435086
 73
     0
 74
     0
 75
     0
  3
STANDARD$0
100
AcDbAlignedDimension
 13
212.7267859680348
 23
984.646482843776
 33
0.0
 14
203.2072850765997
 24
992.6357526603155
 34
0.0
100
AcDbRotatedDimension
  0
DIMENSION
  5
6191
330
18
100
AcDbEntity
  8
0
 62
     7
100
AcDbDimension
  2
*D19
 10
281.2027694181046
 20
1048.821313246932
 30
0.0
 11
269.1221565166219
 21
1048.821313246932
 31
0.0
 70
    32
  1
24" MIN.
 71
     5
 42
24.16122580296542
 73
     0
 74
     0
 75
     0
  3
STANDARD$0
100
AcDbAlignedDimension
 13
257.0415436151392
 23
1049.138846167917
 33
0.0
 14
281.2027694181046
 24
1049.138846167917
 34
0.0
100
AcDbRotatedDimension
  0
LINE
  5
62B3
330
18
100
AcDbEntity
  8
0
100
AcDbLine
 10
17.5317770536832
 20
998.6735792091522
 30
0.0
 11
17.53177705368319
 21
1010.673579209152
 31
0.0
  0
LINE
  5
62B4
330
18
100
AcDbEntity
  8
0
100
AcDbLine
 10
19.21927705368308
 20
1000.361076952672
 30
0.0
 11
19.21927705368308
 21
1009.886777485734
 31
0.0
  0
LINE
  5
62B7
330
18
100
AcDbEntity
  8
0
 62
     7
100
AcDbLine
 10
19.21927705368308
 20
1009.886777485734
 30
0.0
 11
17.53177705368319
 21
1010.673579209152
 31
0.0
  0
LINE
  5
62B8
330
18
100
AcDbEntity
  8
0
100
AcDbLine
 10
54.3635364340779
 20
1028.584744286365
 30
0.0
 11
28.71927705368318
 21
1007.062722305189
 31
0.0
  0
DIMENSION
  5
62B9
330
18
100
AcDbEntity
  8
0
 62
     7
100
AcDbDimension
  2
*D20
 10
10.9547215577777
 20
1010.673579209152
 30
0.0
 11
10.95472155777754
 21
1004.673579209152
 31
0.0
 70
    32
 71
     5
 42
11.99999999999988
 73
     0
 74
     0
 75
     0
  3
STANDARD$0
100
AcDbAlignedDimension
 13
17.5317770536832
 23
998.6735792091522
 33
0.0
 14
17.53177705368319
 24
1010.673579209152
 34
0.0
 50
90.0
100
AcDbRotatedDimension
  0
LINE
  5
62C7
330
18
100
AcDbEntity
  8
0
 62
     7
100
AcDbLine
 10
17.5317770536832
 20
998.6735792091522
 30
0.0
 11
19.21927705368308
 21
1000.361076952672
 31
0.0
  0
DIMENSION
  5
62C8
330
18
100
AcDbEntity
  8
0
 62
     7
100
AcDbDimension
  2
*D21
 10
-0.93971685994552
 20
1018.646482843776
 30
0.0
 11
-0.9397168599456849
 21
1001.646482843776
 31
0.0
 70
    32
 71
     5
 42
33.99999999999955
 73
     0
 74
     0
 75
     0
  3
STANDARD$0
100
AcDbAlignedDimension
 13
27.03177705368381
 23
984.646482843776
 33
0.0
 14
27.0317770536832
 24
1018.646482843776
 34
0.0
 50
90.0
100
AcDbRotatedDimension
  0
DIMENSION
  5
62D6
330
18
100
AcDbEntity
  8
0
 62
     7
100
AcDbDimension
  2
*D22
 10
-10.91197173277987
 20
1026.646482843776
 30
0.0
 11
-10.91197173278004
 21
1005.646482843776
 31
0.0
 70
    32
 71
     5
 42
41.99999999999954
 73
     0
 74
     0
 75
     0
  3
STANDARD$0
100
AcDbAlignedDimension
 13
27.03177705368381
 23
984.646482843776
 33
0.0
 14
27.03177705368303
 24
1026.646482843776
 34
0.0
 50
90.0
100
AcDbRotatedDimension
  0
DIMENSION
  5
62E4
330
18
100
AcDbEntity
  8
0
 62
     7
100
AcDbDimension
  2
*D23
 10
17.53177705368319
 20
979.2992908713358
 30
0.0
 11
3.281777053683192
 21
979.2992908713358
 31
0.0
 70
    32
  1
TREAD DEPTH
 71
     5
 42
9.500000000000618
 73
     0
 74
     0
 75
     0
  3
STANDARD$0
100
AcDbAlignedDimension
 13
27.03177705368381
 23
982.3964828437754
 33
0.0
 14
17.53177705368319
 24
998.6735792091522
 34
0.0
100
AcDbRotatedDimension
  0
LINE
  5
62FC
330
18
100
AcDbEntity
  8
0
100
AcDbLine
 10
212.7267859680354
 20
984.6464828437754
 30
0.0
 11
212.7267859680354
 21
1026.646482843776
 31
0.0
  0
LINE
  5
62FD
330
18
100
AcDbEntity
  8
0
100
AcDbLine
 10
222.2267859680354
 20
998.6735792091522
 30
0.0
 11
222.2267859680354
 21
1010.673579209152
 31
0.0
  0
LINE
  5
62FE
330
18
100
AcDbEntity
  8
0
100
AcDbLine
 10
220.5392859680355
 20
1000.361076952672
 30
0.0
 11
220.5392859680355
 21
1009.886777485734
 31
0.0
  0
LINE
  5
62FF
330
18
100
AcDbEntity
  8
0
100
AcDbLine
 10
211.0392859680354
 20
986.0627223051888
 30
0.0
 11
211.0392859680354
 21
1025.859681120357
 31
0.0
  0
LINE
  5
6300
330
18
100
AcDbEntity
  8
0
100
AcDbLine
 10
155.6097806194241
 20
1066.582101743013
 30
0.0
 11
183.7075265876407
 21
1043.000983747779
 31
0.0
  0
LINE
  5
6301
330
18
100
AcDbEntity
  8
0
100
AcDbLine
 10
185.3950265876407
 20
1041.584744286365
 30
0.0
 11
222.2267859680354
 21
1010.673579209152
 31
0.0
  0
LINE
  5
6302
330
18
100
AcDbEntity
  8
0
100
AcDbLine
 10
154.9954948484742
 20
1064.894601743013
 30
0.0
 11
183.7075265876407
 21
1040.797942562947
 31
0.0
  0
LINE
  5
6303
330
18
100
AcDbEntity
  8
0
100
AcDbLine
 10
185.3950265876407
 20
1039.381703101533
 30
0.0
 11
220.5392859680355
 21
1009.886777485734
 31
0.0
  0
LINE
  5
6304
330
18
100
AcDbEntity
  8
0
100
AcDbLine
 10
158.063267207246
 20
1051.523005728954
 30
0.0
 11
183.7075265876407
 21
1030.000983747778
 31
0.0
  0
LINE
  5
6305
330
18
100
AcDbEntity
  8
0
100
AcDbLine
 10
185.3950265876407
 20
1028.584744286365
 30
0.0
 11
211.0392859680354
 21
1007.062722305189
 31
0.0
  0
LINE
  5
6306
330
18
100
AcDbEntity
  8
0
100
AcDbLine
 10
158.063267207246
 20
1049.319964544124
 30
0.0
 11
183.7075265876407
 21
1027.797942562947
 31
0.0
  0
LINE
  5
6307
330
18
100
AcDbEntity
  8
0
100
AcDbLine
 10
185.3950265876407
 20
1026.381703101533
 30
0.0
 11
211.0392859680354
 21
1004.859681120357
 31
0.0
  0
LINE
  5
6308
330
18
100
AcDbEntity
  8
0
100
AcDbLine
 10
185.3950265876406
 20
1007.584744286367
 30
0.0
 11
185.3950265876407
 21
1047.381703101534
 31
0.0
  0
LINE
  5
6309
330
18
100
AcDbEntity
  8
0
100
AcDbLine
 10
183.7075265876406
 20
1009.000983747779
 30
0.0
 11
183.7075265876407
 21
1048.797942562947
 31
0.0
  0
LINE
  5
630A
330
18
100
AcDbEntity
  8
0
100
AcDbLine
 10
156.3757672072459
 20
1073.939245190369
 30
0.0
 11
212.7267859680354
 21
1026.646482843776
 31
0.0
  0
LINE
  5
630B
330
18
100
AcDbEntity
  8
0
100
AcDbLine
 10
158.063267207246
 20
1070.319964544124
 30
0.0
 11
211.0392859680354
 21
1025.859681120357
 31
0.0
  0
LINE
  5
630C
330
18
100
AcDbEntity
  8
0
 62
     7
100
AcDbLine
 10
212.7267859680354
 20
1026.646482843776
 30
0.0
 11
211.0392859680354
 21
1025.859681120357
 31
0.0
  0
CIRCLE
  5
630D
330
18
100
AcDbEntity
  8
0
  6
HIDDEN
 62
     7
100
AcDbCircle
 10
211.8828621527069
 20
999.517329209152
 30
0.0
 40
0.84375
  0
LINE
  5
630E
330
18
100
AcDbEntity
  8
0
 62
     7
100
AcDbLine
 10
211.8828621527069
 20
998.673579209152
 30
0.0
 11
217.0391121527069
 21
998.673579209152
 31
0.0
  0
LINE
  5
630F
330
18
100
AcDbEntity
  8
0
 62
     7
100
AcDbLine
 10
211.8809107928056
 20
1000.361076952672
 30
0.0
 11
217.0371607928056
 21
1000.361076952672
 31
0.0
  0
LINE
  5
6310
330
18
100
AcDbEntity
  8
0
 62
     7
100
AcDbLine
 10
217.0391121527069
 20
998.673579209152
 30
0.0
 11
217.0371607928056
 21
1000.361076952672
 31
0.0
  0
LINE
  5
6311
330
18
100
AcDbEntity
  8
0
 62
     7
100
AcDbLine
 10
217.0371607928056
 20
1000.361076952672
 30
0.0
 11
220.5392859680355
 21
1000.361076952672
 31
0.0
  0
LINE
  5
6312
330
18
100
AcDbEntity
  8
0
 62
     7
100
AcDbLine
 10
222.2267859680354
 20
998.6735792091522
 30
0.0
 11
217.0391121527069
 21
998.673579209152
 31
0.0
  0
LINE
  5
6313
330
18
100
AcDbEntity
  8
0
 62
     7
100
AcDbLine
 10
220.5392859680355
 20
1009.886777485734
 30
0.0
 11
222.2267859680354
 21
1010.673579209152
 31
0.0
  0
LINE
  5
6314
330
18
100
AcDbEntity
  8
0
 62
     7
100
AcDbLine
 10
222.2267859680354
 20
998.6735792091522
 30
0.0
 11
220.5392859680355
 21
1000.361076952672
 31
0.0
  0
LINE
  5
6316
330
18
100
AcDbEntity
  8
0
100
AcDbLine
 10
281.2027694181046
 20
1000.582101743013
 30
0.0
 11
257.0415436151391
 21
1000.582101743013
 31
0.0
  0
LINE
  5
6317
330
18
100
AcDbEntity
  8
0
100
AcDbLine
 10
284.8590194181042
 20
998.6735792091515
 30
0.0
 11
284.8590194181044
 21
976.5821017430134
 31
0.0
  0
LINE
  5
6318
330
18
100
AcDbEntity
  8
0
100
AcDbLine
 10
255.3540436151391
 20
1000.582101743013
 30
0.0
 11
253.3852936151394
 21
1000.582101743014
 31
0.0
  0
LINE
  5
6319
330
18
100
AcDbEntity
  8
0
100
AcDbLine
 10
253.3852936151393
 20
998.6735792091515
 30
0.0
 11
253.3852936151394
 21
976.5821017430134
 31
0.0
  0
LINE
  5
631A
330
18
100
AcDbEntity
  8
0
100
AcDbLine
 10
284.8590194181043
 20
1006.332101743013
 30
0.0
 11
282.8902694181045
 21
1006.332101743013
 31
0.0
  0
LINE
  5
631B
330
18
100
AcDbEntity
  8
0
100
AcDbLine
 10
255.3540436151391
 20
1006.332101743014
 30
0.0
 11
253.3852936151394
 21
1006.332101743014
 31
0.0
  0
ENDSEC
  0
SECTION
  2
OBJECTS
  0
DICTIONARY
  5
C
330
0
100
AcDbDictionary
281
     1
  3
ACAD_COLOR
350
5159
  3
ACAD_GROUP
350
D
  3
ACAD_LAYOUT
350
4B89
  3
ACAD_MATERIAL
350
5144
  3
ACAD_MLINESTYLE
350
E
  3
ACAD_PLOTSETTINGS
350
4B8A
  3
ACAD_PLOTSTYLENAME
350
4B87
  3
ACAD_TABLESTYLE
350
515A
  3
ACAD_VISUALSTYLE
350
5148
  3
AcadDim
350
5AE0
  3
AcDbVariableDictionary
350
515C
  0
DICTIONARY
  5
5BB9
330
8
100
AcDbDictionary
280
     1
281
     1
  0
DICTIONARY
  5
51A2
330
18
100
AcDbDictionary
280
     1
281
     1
  3
ACAD_SORTENTS
360
51A3
  0
DICTIONARY
  5
59FF
330
4F82
100
AcDbDictionary
280
     1
281
     1
  0
DICTIONARY
  5
5159
102
{ACAD_REACTORS
330
C
102
}
330
C
100
AcDbDictionary
281
     1
  0
DICTIONARY
  5
D
102
{ACAD_REACTORS
330
C
102
}
330
C
100
AcDbDictionary
281
     1
  0
DICTIONARY
  5
4B89
102
{ACAD_REACTORS
330
C
102
}
330
C
100
AcDbDictionary
281
     1
  3
Layout1
350
4B8C
  3
Model
350
4B8B
  0
DICTIONARY
  5
5144
102
{ACAD_REACTORS
330
C
102
}
330
C
100
AcDbDictionary
281
     1
  3
ByBlock
350
5146
  3
ByLayer
350
5145
  3
Global
350
5147
  0
DICTIONARY
  5
E
102
{ACAD_REACTORS
330
C
102
}
330
C
100
AcDbDictionary
281
     1
  3
STANDARD
350
1B
  0
DICTIONARY
  5
4B8A
102
{ACAD_REACTORS
330
C
102
}
330
C
100
AcDbDictionary
281
     1
  0
ACDBDICTIONARYWDFLT
  5
4B87
102
{ACAD_REACTORS
330
C
102
}
330
C
100
AcDbDictionary
281
     1
  3
Normal
350
4B88
100
AcDbDictionaryWithDefault
340
4B88
  0
DICTIONARY
  5
515A
102
{ACAD_REACTORS
330
C
102
}
330
C
100
AcDbDictionary
281
     1
  3
Standard
350
515B
  0
DICTIONARY
  5
5148
102
{ACAD_REACTORS
330
C
102
}
330
C
100
AcDbDictionary
281
     1
  3
2dWireframe
350
514E
  3
3D Hidden
350
5150
  3
3dWireframe
350
514F
  3
Basic
350
514D
  3
Brighten
350
5154
  3
ColorChange
350
5158
  3
Conceptual
350
5151
  3
Dim
350
5153
  3
Facepattern
350
5157
  3
Flat
350
5149
  3
FlatWithEdges
350
514A
  3
Gouraud
350
514B
  3
GouraudWithEdges
350
514C
  3
Linepattern
350
5156
  3
Realistic
350
5152
  3
Thicken
350
5155
  0
XRECORD
  5
5AE0
102
{ACAD_REACTORS
330
C
102
}
330
C
100
AcDbXrecord
280
     1
 90
   990106
  3

 60
     0
 61
     0
 62
     1
 63
     3
 64
     0
 65
     0
 66
     0
 67
     3
 68
     1
 69
     0
 70
     0
 71
     0
 72
     0
 40
0.0
170
     0
340
5B87
  0
DICTIONARY
  5
515C
102
{ACAD_REACTORS
330
C
102
}
330
C
100
AcDbDictionary
281
     1
  3
CTABLESTYLE
350
515D
  3
DIMASSOC
350
5BCD
  3
INDEXCTL
350
5BCC
  3
SORTENTS
350
5BCB
  0
SORTENTSTABLE
  5
51A3
102
{ACAD_REACTORS
330
51A2
102
}
330
51A2
100
AcDbSortentsTable
330
18
331
35B4
  5
35B9
331
35BC
  5
35C1
331
3F3B
  5
45F1
331
1D1F
  5
1D23
331
3F73
  5
45F3
331
62B4
  5
5D39
331
5ED0
  5
5A6F
331
5F67
  5
601D
331
50EB
  5
5A52
331
6303
  5
6307
331
5EE0
  5
5F64
331
50F3
  5
5AAF
331
4D75
  5
4EC0
331
4A3E
  5
4DB8
331
5E51
  5
5E75
331
601E
  5
6028
331
5A76
  5
5433
331
731
  5
731
331
5A7E
  5
5A23
331
5A47
  5
51A1
331
739
  5
739
331
5E61
  5
5E8C
331
5D72
  5
5D71
331
5AE5
  5
5B00
331
5A86
  5
5A3B
331
5A4F
  5
5419
331
5D8A
  5
5E5E
331
5AED
  5
5B61
331
5A8E
  5
5A48
331
45F3
  5
45F8
331
3595
  5
359A
331
45FB
  5
4914
331
359D
  5
35A3
331
FD9
  5
1053
331
35A5
  5
35AA
331
35AD
  5
35B3
331
630B
  5
630F
331
5EE8
  5
5A67
331
50FB
  5
5ADF
331
614B
  5
6152
331
6026
  5
6030
331
6313
  5
6318
331
519A
  5
5AEE
331
4DAD
  5
509F
331
6153
  5
615A
331
602E
  5
6038
331
5F20
  5
600D
331
62E4
  5
62FF
331
6036
  5
6131
331
5DC2
  5
5D72
331
5AF5
  5
5D30
331
5D33
  5
5DB5
331
5AFD
  5
5D37
331
5A67
  5
5424
331
5AA6
  5
50F2
331
5E42
  5
5E67
331
5D3B
  5
5DBB
331
5A6F
  5
542C
331
5A30
  5
50FE
331
5E4A
  5
5E6E
331
C6A
  5
C6A
331
35B5
  5
35BA
331
1BC0
  5
1D1D
331
35BD
  5
3600
331
3F3C
  5
45F2
331
1D20
  5
210A
331
3F74
  5
45F4
331
612C
  5
6134
331
5ED1
  5
C6E
331
62FC
  5
6300
331
5F68
  5
601E
331
50EC
  5
5A5C
331
6304
  5
6308
331
5EE1
  5
5F65
331
5A38
  5
5197
331
50F4
  5
5AB0
331
4D76
  5
4EC1
331
4A3F
  5
4E5F
331
601F
  5
6029
331
5E52
  5
5E76
331
5E5A
  5
5E7D
331
5ADE
  5
5AF8
331
5A7F
  5
5A24
331
5A48
  5
5415
331
5E62
  5
5EE1
331
5D73
  5
5D74
331
5AE6
  5
5B05
331
5A87
  5
5A41
331
5A50
  5
541A
331
5E6A
  5
5EE5
331
5D8B
  5
5E60
331
5AEE
  5
5B62
331
5A8F
  5
5A49
331
45F4
  5
45F9
331
3596
  5
359B
331
45FC
  5
4A2B
331
359E
  5
35A4
331
1AD1
  5
1B1A
331
FDA
  5
108A
331
35A6
  5
35AB
331
1052
  5
162A
331
35AE
  5
35B4
331
630C
  5
6310
331
5EE9
  5
5A5D
331
50FC
  5
5AE1
331
614C
  5
6153
331
6027
  5
6031
331
6314
  5
6319
331
519B
  5
4D7A
331
6154
  5
615F
331
602F
  5
6039
331
615C
  5
6191
331
6037
  5
6132
331
5DC3
  5
5D41
331
5AF6
  5
5D31
331
9AA
  5
9AA
331
5E3B
  5
5E61
331
5D34
  5
5DB6
331
5AFE
  5
5D3B
331
5A68
  5
5425
331
5AA7
  5
50F1
331
5E43
  5
5E68
331
5D3C
  5
5E54
331
5AAF
  5
5AF0
331
5A31
  5
50FF
331
5E4B
  5
5E6F
331
2368
  5
3591
331
108A
  5
17F5
331
4914
  5
4D75
331
35B6
  5
35BB
331
1BC1
  5
1D1E
331
162A
  5
1AD1
331
35BE
  5
37AF
331
1D21
  5
210B
331
4E6E
  5
50EB
331
5ECA
  5
4B92
331
5ED2
  5
5EE8
331
4E7E
  5
50EF
331
5F69
  5
601F
331
62FD
  5
6301
331
5EDA
  5
5F06
331
50ED
  5
5A66
331
5A70
  5
542D
331
6305
  5
6309
331
5EE2
  5
5F74
331
5A39
  5
5198
331
50F5
  5
5AB1
331
5A78
  5
5434
331
5A41
  5
519B
331
5E5B
  5
5E7E
331
5ADF
  5
5AFA
331
5A80
  5
5A25
331
5A49
  5
5416
331
5E63
  5
5EE4
331
5B5E
  5
5D8A
331
5D74
  5
5D36
331
5AE7
  5
5B08
331
5A88
  5
5A42
331
5A51
  5
541B
331
5E6B
  5
5EE6
331
5AEF
  5
5B63
331
45F5
  5
45FA
331
3597
  5
359C
331
1AD2
  5
1B1B
331
FDB
  5
108B
331
35A7
  5
35AC
331
30A8
  5
3595
331
1B1A
  5
1BC0
331
1053
  5
163B
331
37BE
  5
3F74
331
35AF
  5
35B5
331
4A40
  5
4E60
331
6020
  5
602A
331
5FA1
  5
6021
331
630D
  5
6311
331
5194
  5
5AE8
331
5EEA
  5
5A53
331
50FD
  5
5AE2
331
614D
  5
6154
331
6028
  5
6032
331
62D6
  5
62FE
331
519C
  5
4D7F
331
6155
  5
6160
331
6030
  5
6043
331
615D
  5
62B3
331
5A90
  5
5A4A
331
6038
  5
6133
331
5D2D
  5
5DAF
331
5DC4
  5
5D40
331
5AF7
  5
5D32
331
9AB
  5
9AB
331
5E7B
  5
5EE7
331
5E3C
  5
5E62
331
5D35
  5
5DB7
331
5B86
  5
5DAB
331
5A69
  5
5426
331
5E44
  5
5E69
331
5D3D
  5
5E56
331
5AB0
  5
5AF4
331
5A32
  5
5100
331
5E4C
  5
5E70
331
108B
  5
17FB
331
C6C
  5
C6C
331
35B7
  5
35BC
331
389E
  5
45F0
331
35BF
  5
37B0
331
163B
  5
1AD2
331
1D22
  5
2142
331
ECC
  5
F0D
331
5ECB
  5
5A5B
331
4E6F
  5
50EC
331
612E
  5
6135
331
62B7
  5
62D6
331
5ED3
  5
5EE9
331
62FE
  5
6302
331
5EDB
  5
5F20
331
50EE
  5
5A69
331
5A71
  5
542E
331
6019
  5
6023
331
5A3A
  5
5199
331
6306
  5
630A
331
62C7
  5
62FC
331
50F6
  5
5AB2
331
5EE3
  5
5FA1
331
5E54
  5
5E77
331
5A79
  5
5435
331
5A42
  5
519C
331
5E5C
  5
5E7F
331
5A81
  5
5A2C
331
5A4A
  5
5417
331
5E64
  5
5E7C
331
5B5F
  5
5D8B
331
5AE8
  5
5B17
331
5A89
  5
5A43
331
5A52
  5
541C
331
87C
  5
87C
331
3590
  5
3597
331
210A
  5
225B
331
F0C
  5
FD5
331
45F6
  5
45FB
331
3598
  5
359D
331
2142
  5
2C6B
331
17FB
  5
1AD4
331
37AF
  5
3F3B
331
35A0
  5
35A5
331
1AD3
  5
1B1C
331
35A8
  5
35AD
331
1B1B
  5
1BC1
331
4A41
  5
4E61
331
6021
  5
602B
331
630E
  5
6312
331
5195
  5
5AE9
331
5EEB
  5
4A3F
331
50FE
  5
5AE3
331
614E
  5
6155
331
6029
  5
6033
331
6316
  5
5A72
331
519D
  5
4D84
331
4E58
  5
50E8
331
6156
  5
6161
331
6031
  5
6044
331
5AF0
  5
5B86
331
615E
  5
62B4
331
5A91
  5
5A4B
331
5D2E
  5
5DB0
331
5DC5
  5
5D3E
331
5AF8
  5
5D33
331
5AA1
  5
5AEF
331
5A23
  5
50F7
331
5E3D
  5
5E63
331
5B87
  5
5DAC
331
5B00
  5
5D3D
331
5A6A
  5
5427
331
5D3E
  5
5E57
331
5EBC
  5
50EE
331
5AB1
  5
5AF5
331
5A33
  5
5101
331
5E4D
  5
5E71
331
35B0
  5
35B6
331
35B8
  5
35BD
331
35C0
  5
37B1
331
1D1B
  5
1D1F
331
1D23
  5
2143
331
ECD
  5
F0E
331
5ECC
  5
5A65
331
612F
  5
614C
331
5ED4
  5
5EEA
331
62B8
  5
5D70
331
4E80
  5
50F3
331
62FF
  5
6303
331
5EDC
  5
5F5F
331
50EF
  5
5A6C
331
4EC0
  5
50F5
331
5B08
  5
5D73
331
5A72
  5
542F
331
601A
  5
6024
331
5A3B
  5
519A
331
6307
  5
630B
331
50F7
  5
5AB3
331
5EE4
  5
5FC3
331
5A7A
  5
5436
331
5A43
  5
519D
331
5E5D
  5
5E80
331
5A82
  5
5A2D
331
5AE1
  5
509B
331
5A4B
  5
5418
331
5B60
  5
5DA7
331
5AE9
  5
5B39
331
5A8A
  5
5A44
331
5A53
  5
541D
331
87D
  5
87D
331
3600
  5
389E
331
3591
  5
3598
331
210B
  5
2368
331
F0D
  5
FD6
331
45F7
  5
45FC
331
3599
  5
359E
331
2143
  5
3584
331
FD5
  5
FD9
331
37B0
  5
3F3C
331
35A1
  5
35A6
331
225B
  5
3590
331
1AD4
  5
1BBE
331
48C7
  5
4A3A
331
35A9
  5
35AE
331
1B1C
  5
1D1B
331
62C8
  5
62FD
331
6022
  5
602C
331
630F
  5
6313
331
5196
  5
5AEA
331
5EEC
  5
4A3D
331
50FF
  5
5AE4
331
614F
  5
6156
331
602A
  5
6034
331
5FC3
  5
6022
331
519E
  5
4D85
331
4E59
  5
50E9
331
6317
  5
ECD
331
6157
  5
6179
331
6032
  5
6045
331
5AF1
  5
5B87
331
5A92
  5
5A4F
331
615F
  5
62B7
331
5A5B
  5
541E
331
5D2F
  5
5DB1
331
5AA2
  5
5AF1
331
5A24
  5
50F8
331
5A6B
  5
5428
331
5A2C
  5
50FA
331
A3D
  5
A3D
331
5E46
  5
5E6A
331
5D3F
  5
5E59
331
5A34
  5
5102
331
5E4E
  5
5E72
331
35B1
  5
35B7
331
35B9
  5
35BE
331
2C6B
  5
3592
331
C76
  5
ECE
331
35C1
  5
37BE
331
1D1C
  5
1D20
331
ECE
  5
F0F
331
5ECD
  5
5A6B
331
6130
  5
614D
331
5F64
  5
600E
331
62B9
  5
62E4
331
5ED5
  5
5EEB
331
4E81
  5
50F4
331
4A2B
  5
4D76
331
6300
  5
6304
331
5EDD
  5
5F60
331
50F0
  5
5A6D
331
4EC1
  5
50F6
331
601B
  5
6025
331
5A73
  5
5430
331
5F74
  5
6020
331
5EE5
  5
5A6E
331
5E56
  5
5E79
331
5B39
  5
5D88
331
5A7B
  5
5437
331
5A44
  5
519E
331
5E5E
  5
5E81
331
5AE2
  5
5AFB
331
5A83
  5
5A2E
331
5B61
  5
5DA8
331
5AEA
  5
5B3A
331
5A8B
  5
5A45
331
8CE
  5
8CE
331
45F0
  5
45F5
331
3592
  5
3599
331
17F5
  5
1AD3
331
F0E
  5
FD7
331
45F8
  5
48C7
331
359A
  5
35A0
331
FD6
  5
FDA
331
37B1
  5
3F73
331
35A2
  5
35A7
331
48C8
  5
4A3C
331
35AA
  5
35AF
331
6308
  5
630C
331
50F8
  5
5AB4
331
4D7A
  5
5051
331
6023
  5
602D
331
6310
  5
6314
331
5197
  5
5AEB
331
5EED
  5
4A3B
331
5100
  5
5AE5
331
6150
  5
6157
331
602B
  5
6035
331
5F15
  5
5E78
331
6318
  5
5AA7
331
519F
  5
4D86
331
4E5A
  5
50EA
331
6033
  5
6046
331
5051
  5
5A50
331
5AF2
  5
5D2D
331
5A5C
  5
541F
331
5D30
  5
5DB2
331
5AFA
  5
5D34
331
5AA3
  5
5AF2
331
5A25
  5
50F9
331
5E3F
  5
5E64
331
5D38
  5
5DB8
331
5A6C
  5
5429
331
5A2D
  5
50FB
331
A3E
  5
A3E
331
5E47
  5
5E6B
331
5A35
  5
5194
331
5E4F
  5
5E73
331
35BA
  5
35BF
331
1D1D
  5
1D21
331
6160
  5
62B8
331
5ECE
  5
5A68
331
6131
  5
614E
331
5F65
  5
600F
331
5ED6
  5
5EEC
331
6301
  5
6305
331
5EDE
  5
5F61
331
50F1
  5
5A70
331
5D40
  5
5E5B
331
601C
  5
6026
331
5A74
  5
5431
331
5AD3
  5
50F0
331
5EE6
  5
ECC
331
5E57
  5
5E7A
331
5B3A
  5
5D89
331
5A7C
  5
54B5
331
5A45
  5
519F
331
5E5F
  5
5E82
331
5D70
  5
5D3A
331
5AE3
  5
5AFD
331
5A84
  5
5A2F
331
5D88
  5
5E5C
331
5B62
  5
5DA9
331
5AEB
  5
5B5E
331
5A8C
  5
5A46
331
8CF
  5
8CF
331
A58
  5
A58
331
45F1
  5
45F6
331
F0F
  5
FD8
331
45F9
  5
48C8
331
359B
  5
35A1
331
FD7
  5
FDB
331
35A3
  5
35A8
331
48C9
  5
4A3E
331
35AB
  5
35B0
331
6309
  5
630D
331
50F9
  5
5AB8
331
4D7B
  5
5097
331
6149
  5
6150
331
6024
  5
602E
331
6311
  5
6316
331
5198
  5
5AEC
331
5101
  5
5AE6
331
4DAB
  5
509A
331
6151
  5
6158
331
602C
  5
6036
331
51A0
  5
4DB4
331
6319
  5
C76
331
6034
  5
612F
331
5AF3
  5
5D2E
331
5A5D
  5
5420
331
5D31
  5
5DB3
331
5AFB
  5
5D35
331
5A65
  5
5421
331
5E40
  5
5E65
331
5D39
  5
5DB9
331
5A6D
  5
542A
331
5A2E
  5
50FC
331
5E48
  5
5E6C
331
5AB4
  5
5AF6
331
5A36
  5
5195
331
A57
  5
A57
331
35B3
  5
35B8
331
1BBE
  5
1D1C
331
35BB
  5
35C0
331
D20
  5
F0C
331
1D1E
  5
1D22
331
3584
  5
3596
331
6161
  5
62B9
331
62B3
  5
5D38
331
6179
  5
62C7
331
6132
  5
614F
331
5F66
  5
601C
331
5ED7
  5
5EED
331
6302
  5
6306
331
5EDF
  5
5F62
331
50F2
  5
5A71
331
5E50
  5
5E74
331
5AD4
  5
5AF7
331
601D
  5
6027
331
5A75
  5
5432
331
5EE7
  5
5A6A
331
5E58
  5
5E7B
331
5A7D
  5
54B6
331
5A46
  5
51A0
331
5E60
  5
5E83
331
5D71
  5
5D3F
331
5AE4
  5
5AFE
331
5A85
  5
5A30
331
5D89
  5
5E5D
331
5B63
  5
5DAA
331
5AEC
  5
5B5F
331
5A8D
  5
5A47
331
45F2
  5
45F7
331
45FA
  5
48C9
331
359C
  5
35A2
331
FD8
  5
1052
331
35A4
  5
35A9
331
35AC
  5
35B1
331
630A
  5
630E
331
50FA
  5
5ADE
331
6191
  5
62C8
331
614A
  5
6151
331
6025
  5
602F
331
6312
  5
6317
331
5199
  5
5AED
331
5102
  5
5AE7
331
6152
  5
6159
331
602D
  5
6037
331
6035
  5
6130
331
5AF4
  5
5D2F
331
5D32
  5
5DB4
331
5AA5
  5
5AF3
331
5A66
  5
5422
331
5E41
  5
5E66
331
5D3A
  5
5DBA
331
5A6E
  5
542B
331
5A2F
  5
50FD
331
5E49
  5
5E6D
331
5A37
  5
5196
  0
LAYOUT
  5
4B8C
102
{ACAD_REACTORS
330
4B89
102
}
330
4B89
100
AcDbPlotSettings
  1

  2
HP LaserJet 2100 Series PCL 6
  4

  6

 40
0.0
 41
0.0
 42
0.0
 43
0.0
 44
0.0
 45
0.0
 46
0.0
 47
0.0
 48
0.0
 49
0.0
140
0.0
141
0.0
142
1.0
143
1.0
 70
   688
 72
     0
 73
     0
 74
     5
  7
acad.ctb
 75
    16
147
1.0
 76
     0
 77
     2
 78
   300
148
0.0
149
0.0
100
AcDbLayout
  1
Layout1
 70
     1
 71
     1
 10
0.0
 20
0.0
 11
12.0
 21
9.0
 12
0.0
 22
0.0
 32
0.0
 14
1.000000000000000E+20
 24
1.000000000000000E+20
 34
1.000000000000000E+20
 15
-1.000000000000000E+20
 25
-1.000000000000000E+20
 35
-1.000000000000000E+20
146
0.0
 13
0.0
 23
0.0
 33
0.0
 16
1.0
 26
0.0
 36
0.0
 17
0.0
 27
1.0
 37
0.0
 76
     0
330
15
  0
LAYOUT
  5
4B8B
102
{ACAD_REACTORS
330
4B89
102
}
330
4B89
100
AcDbPlotSettings
  1

  2
PDF Pro 10
  4
Letter
  6

 40
3.174999952316284
 41
3.174999952316284
 42
3.175003051757812
 43
3.17498779296875
 44
215.8999938964844
 45
279.3999938964844
 46
0.0
 47
0.9620460427834466
 48
0.0
 49
0.0
140
0.0
141
0.0
142
1.0
143
31.17410531291056
 70
  3764
 72
     0
 73
     1
 74
     1
  7
acad.ctb
 75
     0
147
0.03207790536288
 76
     0
 77
     2
 78
   300
148
539.6121562644256
149
-23425.23555808746
100
AcDbLayout
  1
Model
 70
     1
 71
     0
 10
0.0
 20
0.0
 11
12.0
 21
9.0
 12
0.0
 22
0.0
 32
0.0
 14
0.0
 24
0.0
 34
0.0
 15
0.0
 25
0.0
 35
0.0
146
0.0
 13
0.0
 23
0.0
 33
0.0
 16
1.0
 26
0.0
 36
0.0
 17
0.0
 27
1.0
 37
0.0
 76
     0
330
18
331
5142
1001
ACAD_PSEXT
1000
PDF Pro 10
1000
Visage PDF
1000
VSP1:
1000

1070
     0
  0
MATERIAL
  5
5146
102
{ACAD_REACTORS
330
5144
102
}
330
5144
100
AcDbMaterial
  1
ByBlock
  0
MATERIAL
  5
5145
102
{ACAD_REACTORS
330
5144
102
}
330
5144
100
AcDbMaterial
  1
ByLayer
  0
MATERIAL
  5
5147
102
{ACAD_REACTORS
330
5144
102
}
330
5144
100
AcDbMaterial
  1
Global
  0
MLINESTYLE
  5
1B
102
{ACAD_REACTORS
330
E
102
}
330
E
100
AcDbMlineStyle
  2
STANDARD
 70
     0
  3

 62
     0
 51
90.0
 52
90.0
 71
     2
 49
0.5
 62
   256
  6
BYLAYER
 49
-0.5
 62
   256
  6
BYLAYER
  0
ACDBPLACEHOLDER
  5
4B88
102
{ACAD_REACTORS
330
4B87
102
}
330
4B87
  0
TABLESTYLE
  5
515B
102
{ACAD_REACTORS
330
515A
102
}
330
515A
100
AcDbTableStyle
  3
Standard
 70
     0
 71
     0
 40
0.06
 41
0.06
280
     0
281
     0
  7
STANDARD
140
0.18
170
     2
 62
     0
 63
     7
283
     0
 90
      512
 91
        0
  1

274
    -2
284
     1
 64
     0
275
    -2
285
     1
 65
     0
276
    -2
286
     1
 66
     0
277
    -2
287
     1
 67
     0
278
    -2
288
     1
 68
     0
279
    -2
289
     1
 69
     0
  7
STANDARD
140
0.25
170
     5
 62
     0
 63
     7
283
     0
 90
      512
 91
        0
  1

274
    -2
284
     1
 64
     0
275
    -2
285
     1
 65
     0
276
    -2
286
     1
 66
     0
277
    -2
287
     1
 67
     0
278
    -2
288
     1
 68
     0
279
    -2
289
     1
 69
     0
  7
STANDARD
140
0.18
170
     5
 62
     0
 63
     7
283
     0
 90
      512
 91
        0
  1

274
    -2
284
     1
 64
     0
275
    -2
285
     1
 65
     0
276
    -2
286
     1
 66
     0
277
    -2
287
     1
 67
     0
278
    -2
288
     1
 68
     0
279
    -2
289
     1
 69
     0
  0
VISUALSTYLE
  5
514E
102
{ACAD_REACTORS
330
5148
102
}
330
5148
100
AcDbVisualStyle
  2
2dWireframe
 70
     4
 71
     0
 72
     2
 73
     0
 90
        0
 40
-0.6
 41
-30.0
 62
     5
 63
     7
 74
     1
 91
        4
 64
     7
 65
   257
 75
     1
175
     1
 42
1.0
 92
        0
 66
   257
 43
1.0
 76
     1
 77
     6
 78
     2
 67
     7
 79
     5
170
     0
171
     0
290
     0
174
     0
 93
        1
 44
0.0
173
     0
291
     0
 45
0.0
  0
VISUALSTYLE
  5
5150
102
{ACAD_REACTORS
330
5148
102
}
330
5148
100
AcDbVisualStyle
  2
3D Hidden
 70
     6
 71
     1
 72
     2
 73
     2
 90
        0
 40
-0.6
 41
-30.0
 62
     5
 63
     7
 74
     2
 91
        2
 64
     7
 65
   257
 75
     2
175
     1
 42
40.0
 92
        0
 66
   257
 43
1.0
 76
     1
 77
     6
 78
     2
 67
     7
 79
     3
170
     0
171
     0
290
     0
174
     0
 93
        1
 44
0.0
173
     0
291
     0
 45
0.0
  0
VISUALSTYLE
  5
514F
102
{ACAD_REACTORS
330
5148
102
}
330
5148
100
AcDbVisualStyle
  2
3dWireframe
 70
     5
 71
     0
 72
     2
 73
     0
 90
        0
 40
-0.6
 41
-30.0
 62
     5
 63
     7
 74
     1
 91
        4
 64
     7
 65
   257
 75
     1
175
     1
 42
1.0
 92
        0
 66
   257
 43
1.0
 76
     1
 77
     6
 78
     2
 67
     7
 79
     5
170
     0
171
     0
290
     0
174
     0
 93
        1
 44
0.0
173
     0
291
     0
 45
0.0
  0
VISUALSTYLE
  5
514D
102
{ACAD_REACTORS
330
5148
102
}
330
5148
100
AcDbVisualStyle
  2
Basic
 70
     7
 71
     1
 72
     0
 73
     1
 90
        0
 40
-0.6
 41
-30.0
 62
     5
 63
     7
 74
     0
 91
        4
 64
     7
 65
   257
 75
     1
175
     1
 42
1.0
 92
        8
 66
     7
 43
1.0
 76
     1
 77
     6
 78
     2
 67
     7
 79
     5
170
     0
171
     0
290
     0
174
     0
 93
        1
 44
0.0
173
     0
291
     1
 45
0.0
  0
VISUALSTYLE
  5
5154
102
{ACAD_REACTORS
330
5148
102
}
330
5148
100
AcDbVisualStyle
  2
Brighten
 70
    12
 71
     2
 72
     2
 73
     0
 90
        0
 40
-0.6
 41
-30.0
 62
     5
 63
     7
 74
     1
 91
        4
 64
     7
 65
   257
 75
     1
175
     1
 42
1.0
 92
        8
 66
     7
 43
1.0
 76
     1
 77
     6
 78
     2
 67
     7
 79
     5
170
     0
171
     0
290
     0
174
     0
 93
        1
 44
50.0
173
     0
291
     1
 45
0.0
  0
VISUALSTYLE
  5
5158
102
{ACAD_REACTORS
330
5148
102
}
330
5148
100
AcDbVisualStyle
  2
ColorChange
 70
    16
 71
     2
 72
     2
 73
     3
 90
        0
 40
-0.6
 41
-30.0
 62
     5
 63
     8
 74
     1
 91
        4
 64
     7
 65
   257
 75
     1
175
     1
 42
1.0
 92
        8
 66
     8
 43
1.0
 76
     1
 77
     6
 78
     2
 67
     7
 79
     5
170
     0
171
     0
290
     0
174
     0
 93
        1
 44
0.0
173
     0
291
     1
 45
0.0
  0
VISUALSTYLE
  5
5151
102
{ACAD_REACTORS
330
5148
102
}
330
5148
100
AcDbVisualStyle
  2
Conceptual
 70
     9
 71
     3
 72
     2
 73
     0
 90
        0
 40
-0.6
 41
-30.0
 62
     5
 63
     7
 74
     2
 91
        2
 64
     7
 65
   257
 75
     1
175
     1
 42
40.0
 92
        8
 66
     7
 43
1.0
 76
     1
 77
     6
 78
     2
 67
     7
 79
     3
170
     0
171
     0
290
     0
174
     0
 93
        1
 44
0.0
173
     0
291
     0
 45
0.0
  0
VISUALSTYLE
  5
5153
102
{ACAD_REACTORS
330
5148
102
}
330
5148
100
AcDbVisualStyle
  2
Dim
 70
    11
 71
     2
 72
     2
 73
     0
 90
        0
 40
-0.6
 41
-30.0
 62
     5
 63
     7
 74
     1
 91
        4
 64
     7
 65
   257
 75
     1
175
     1
 42
1.0
 92
        8
 66
     7
 43
1.0
 76
     1
 77
     6
 78
     2
 67
     7
 79
     5
170
     0
171
     0
290
     0
174
     0
 93
        1
 44
-50.0
173
     0
291
     1
 45
0.0
  0
VISUALSTYLE
  5
5157
102
{ACAD_REACTORS
330
5148
102
}
330
5148
100
AcDbVisualStyle
  2
Facepattern
 70
    15
 71
     2
 72
     2
 73
     0
 90
        0
 40
-0.6
 41
-30.0
 62
     5
 63
     7
 74
     1
 91
        4
 64
     7
 65
   257
 75
     1
175
     1
 42
1.0
 92
        8
 66
     7
 43
1.0
 76
     1
 77
     6
 78
     2
 67
     7
 79
     5
170
     0
171
     0
290
     0
174
     0
 93
        1
 44
0.0
173
     0
291
     1
 45
0.0
  0
VISUALSTYLE
  5
5149
102
{ACAD_REACTORS
330
5148
102
}
330
5148
100
AcDbVisualStyle
  2
Flat
 70
     0
 71
     2
 72
     1
 73
     1
 90
        2
 40
-0.6
 41
30.0
 62
     5
 63
     7
 74
     0
 91
        4
 64
     7
 65
   257
 75
     1
175
     1
 42
1.0
 92
        8
 66
     7
 43
1.0
 76
     1
 77
     6
 78
     2
 67
     7
 79
     5
170
     0
171
     0
290
     0
174
     0
 93
       13
 44
0.0
173
     0
291
     1
 45
0.0
  0
VISUALSTYLE
  5
514A
102
{ACAD_REACTORS
330
5148
102
}
330
5148
100
AcDbVisualStyle
  2
FlatWithEdges
 70
     1
 71
     2
 72
     1
 73
     1
 90
        2
 40
-0.6
 41
30.0
 62
     5
 63
     7
 74
     1
 91
        4
 64
     7
 65
   257
 75
     1
175
     1
 42
1.0
 92
        0
 66
   257
 43
1.0
 76
     1
 77
     6
 78
     2
 67
     7
 79
     5
170
     0
171
     0
290
     0
174
     0
 93
       13
 44
0.0
173
     0
291
     1
 45
0.0
  0
VISUALSTYLE
  5
514B
102
{ACAD_REACTORS
330
5148
102
}
330
5148
100
AcDbVisualStyle
  2
Gouraud
 70
     2
 71
     2
 72
     2
 73
     1
 90
        2
 40
-0.6
 41
30.0
 62
     5
 63
     7
 74
     0
 91
        4
 64
     7
 65
   257
 75
     1
175
     1
 42
1.0
 92
        0
 66
     7
 43
1.0
 76
     1
 77
     6
 78
     2
 67
     7
 79
     5
170
     0
171
     0
290
     0
174
     0
 93
       13
 44
0.0
173
     0
291
     1
 45
0.0
  0
VISUALSTYLE
  5
514C
102
{ACAD_REACTORS
330
5148
102
}
330
5148
100
AcDbVisualStyle
  2
GouraudWithEdges
 70
     3
 71
     2
 72
     2
 73
     1
 90
        2
 40
-0.6
 41
30.0
 62
     5
 63
     7
 74
     1
 91
        4
 64
     7
 65
   257
 75
     1
175
     1
 42
1.0
 92
        0
 66
   257
 43
1.0
 76
     1
 77
     6
 78
     2
 67
     7
 79
     5
170
     0
171
     0
290
     0
174
     0
 93
       13
 44
0.0
173
     0
291
     1
 45
0.0
  0
VISUALSTYLE
  5
5156
102
{ACAD_REACTORS
330
5148
102
}
330
5148
100
AcDbVisualStyle
  2
Linepattern
 70
    14
 71
     2
 72
     2
 73
     0
 90
        0
 40
-0.6
 41
-30.0
 62
     5
 63
     7
 74
     1
 91
        4
 64
     7
 65
   257
 75
     7
175
     7
 42
1.0
 92
        8
 66
     7
 43
1.0
 76
     1
 77
     6
 78
     2
 67
     7
 79
     5
170
     0
171
     0
290
     0
174
     0
 93
        1
 44
0.0
173
     0
291
     1
 45
0.0
  0
VISUALSTYLE
  5
5152
102
{ACAD_REACTORS
330
5148
102
}
330
5148
100
AcDbVisualStyle
  2
Realistic
 70
     8
 71
     2
 72
     2
 73
     0
 90
        0
 40
-0.6
 41
-30.0
 62
     5
 63
     7
 74
     1
 91
        0
 64
     7
 65
   257
 75
     1
175
     1
 42
1.0
 92
        8
 66
     8
 43
1.0
 76
     1
 77
     6
 78
     2
 67
     7
 79
     5
170
     0
171
     0
290
     0
174
     0
 93
       13
 44
0.0
173
     0
291
     0
 45
0.0
  0
VISUALSTYLE
  5
5155
102
{ACAD_REACTORS
330
5148
102
}
330
5148
100
AcDbVisualStyle
  2
Thicken
 70
    13
 71
     2
 72
     2
 73
     0
 90
        0
 40
-0.6
 41
-30.0
 62
     5
 63
     7
 74
     1
 91
        4
 64
     7
 65
   257
 75
     1
175
     1
 42
1.0
 92
       12
 66
     7
 43
1.0
 76
     1
 77
     6
 78
     2
 67
     7
 79
     5
170
     0
171
     0
290
     0
174
     0
 93
        1
 44
0.0
173
     0
291
     1
 45
0.0
  0
DICTIONARYVAR
  5
515D
102
{ACAD_REACTORS
330
515C
102
}
330
515C
100
DictionaryVariables
280
     0
  1
STANDARD
  0
DICTIONARYVAR
  5
5BCD
102
{ACAD_REACTORS
330
515C
102
}
330
515C
100
DictionaryVariables
280
     0
  1
1
  0
DICTIONARYVAR
  5
5BCC
102
{ACAD_REACTORS
330
515C
102
}
330
515C
100
DictionaryVariables
280
     0
  1
0
  0
DICTIONARYVAR
  5
5BCB
102
{ACAD_REACTORS
330
515C
102
}
330
515C
100
DictionaryVariables
280
     0
  1
127
  0
ENDSEC
  0
EOF
