  0
SECTION
  2
HEADER
  9
$ACADVER
  1
AC1021
  9
$ACADMAINTVER
 70
     1
  9
$DWGCODEPAGE
  3
ANSI_1252
  9
$LASTSAVEDBY
  1
Don.McKinney
  9
$INSBASE
 10
0.0
 20
0.0
 30
0.0
  9
$EXTMIN
 10
566.5686865676129
 20
-289.0610999030355
 30
-0.000000000000013
  9
$EXTMAX
 10
1061.494242612212
 20
69.87923518779587
 30
0.0000000000000023
  9
$LIMMIN
 10
0.0
 20
0.0
  9
$LIMMAX
 10
12.0
 20
9.0
  9
$ORTHOMODE
 70
     1
  9
$REGENMODE
 70
     1
  9
$FILLMODE
 70
     1
  9
$QTEXTMODE
 70
     0
  9
$MIRRTEXT
 70
     0
  9
$LTSCALE
 40
1.0
  9
$ATTMODE
 70
     1
  9
$TEXTSIZE
 40
3.0954
  9
$TRACEWID
 40
0.05
  9
$TEXTSTYLE
  7
ROMANS
  9
$CLAYER
  8
0
  9
$CELTYPE
  6
BYLAYER
  9
$CECOLOR
 62
   256
  9
$CELTSCALE
 40
1.0
  9
$DISPSILH
 70
     0
  9
$DIMSCALE
 40
40.0
  9
$DIMASZ
 40
0.0625
  9
$DIMEXO
 40
0.0625
  9
$DIMDLI
 40
0.375
  9
$DIMRND
 40
0.0
  9
$DIMDLE
 40
0.0
  9
$DIMEXE
 40
0.0625
  9
$DIMTP
 40
0.0
  9
$DIMTM
 40
0.0
  9
$DIMTXT
 40
0.0804
  9
$DIMCEN
 40
0.0625
  9
$DIMTSZ
 40
0.0
  9
$DIMTOL
 70
     0
  9
$DIMLIM
 70
     0
  9
$DIMTIH
 70
     1
  9
$DIMTOH
 70
     1
  9
$DIMSE1
 70
     0
  9
$DIMSE2
 70
     0
  9
$DIMTAD
 70
     0
  9
$DIMZIN
 70
     3
  9
$DIMBLK
  1

  9
$DIMASO
 70
     1
  9
$DIMSHO
 70
     1
  9
$DIMPOST
  1

  9
$DIMAPOST
  1

  9
$DIMALT
 70
     0
  9
$DIMALTD
 70
     2
  9
$DIMALTF
 40
25.4
  9
$DIMLFAC
 40
1.0
  9
$DIMTOFL
 70
     0
  9
$DIMTVP
 40
0.0
  9
$DIMTIX
 70
     0
  9
$DIMSOXD
 70
     0
  9
$DIMSAH
 70
     0
  9
$DIMBLK1
  1

  9
$DIMBLK2
  1

  9
$DIMSTYLE
  2
STANDARD
  9
$DIMCLRD
 70
     0
  9
$DIMCLRE
 70
     0
  9
$DIMCLRT
 70
     0
  9
$DIMTFAC
 40
1.0
  9
$DIMGAP
 40
0.0625
  9
$DIMJUST
 70
     0
  9
$DIMSD1
 70
     0
  9
$DIMSD2
 70
     0
  9
$DIMTOLJ
 70
     1
  9
$DIMTZIN
 70
     3
  9
$DIMALTZ
 70
     0
  9
$DIMALTTZ
 70
     0
  9
$DIMUPT
 70
     0
  9
$DIMDEC
 70
     4
  9
$DIMTDEC
 70
     4
  9
$DIMALTU
 70
     2
  9
$DIMALTTD
 70
     2
  9
$DIMTXSTY
  7
ROMANS
  9
$DIMAUNIT
 70
     0
  9
$DIMADEC
 70
     0
  9
$DIMALTRND
 40
0.0
  9
$DIMAZIN
 70
     0
  9
$DIMDSEP
 70
    46
  9
$DIMATFIT
 70
     3
  9
$DIMFRAC
 70
     2
  9
$DIMLDRBLK
  1

  9
$DIMLUNIT
 70
     4
  9
$DIMLWD
 70
    -2
  9
$DIMLWE
 70
    -2
  9
$DIMTMOVE
 70
     2
  9
$DIMFXL
 40
1.0
  9
$DIMFXLON
 70
     0
  9
$DIMJOGANG
 40
0.7853981633974483
  9
$DIMTFILL
 70
     0
  9
$DIMTFILLCLR
 70
     0
  9
$DIMARCSYM
 70
     0
  9
$DIMLTYPE
  6

  9
$DIMLTEX1
  6

  9
$DIMLTEX2
  6

  9
$LUNITS
 70
     4
  9
$LUPREC
 70
     4
  9
$SKETCHINC
 40
0.1
  9
$FILLETRAD
 40
0.0
  9
$AUNITS
 70
     0
  9
$AUPREC
 70
     0
  9
$MENU
  1
acad
  9
$ELEVATION
 40
0.0
  9
$PELEVATION
 40
0.0
  9
$THICKNESS
 40
0.0
  9
$LIMCHECK
 70
     0
  9
$CHAMFERA
 40
0.0
  9
$CHAMFERB
 40
0.0
  9
$CHAMFERC
 40
0.0
  9
$CHAMFERD
 40
0.0
  9
$SKPOLY
 70
     0
  9
$TDCREATE
 40
2450687.337153472
  9
$TDUCREATE
 40
2450687.503820139
  9
$TDUPDATE
 40
2458618.438823796
  9
$TDUUPDATE
 40
2458618.605490463
  9
$TDINDWG
 40
0.3028029282
  9
$TDUSRTIMER
 40
0.3028029282
  9
$USRTIMER
 70
     1
  9
$ANGBASE
 50
0.0
  9
$ANGDIR
 70
     0
  9
$PDMODE
 70
    33
  9
$PDSIZE
 40
0.0
  9
$PLINEWID
 40
0.0
  9
$SPLFRAME
 70
     0
  9
$SPLINETYPE
 70
     6
  9
$SPLINESEGS
 70
     8
  9
$HANDSEED
  5
18D8
  9
$SURFTAB1
 70
     6
  9
$SURFTAB2
 70
     6
  9
$SURFTYPE
 70
     6
  9
$SURFU
 70
     6
  9
$SURFV
 70
     6
  9
$UCSBASE
  2

  9
$UCSNAME
  2

  9
$UCSORG
 10
0.0
 20
0.0
 30
0.0
  9
$UCSXDIR
 10
1.0
 20
0.0
 30
0.0
  9
$UCSYDIR
 10
0.0
 20
1.0
 30
0.0
  9
$UCSORTHOREF
  2

  9
$UCSORTHOVIEW
 70
     0
  9
$UCSORGTOP
 10
0.0
 20
0.0
 30
0.0
  9
$UCSORGBOTTOM
 10
0.0
 20
0.0
 30
0.0
  9
$UCSORGLEFT
 10
0.0
 20
0.0
 30
0.0
  9
$UCSORGRIGHT
 10
0.0
 20
0.0
 30
0.0
  9
$UCSORGFRONT
 10
0.0
 20
0.0
 30
0.0
  9
$UCSORGBACK
 10
0.0
 20
0.0
 30
0.0
  9
$PUCSBASE
  2

  9
$PUCSNAME
  2

  9
$PUCSORG
 10
0.0
 20
0.0
 30
0.0
  9
$PUCSXDIR
 10
1.0
 20
0.0
 30
0.0
  9
$PUCSYDIR
 10
0.0
 20
1.0
 30
0.0
  9
$PUCSORTHOREF
  2

  9
$PUCSORTHOVIEW
 70
     0
  9
$PUCSORGTOP
 10
0.0
 20
0.0
 30
0.0
  9
$PUCSORGBOTTOM
 10
0.0
 20
0.0
 30
0.0
  9
$PUCSORGLEFT
 10
0.0
 20
0.0
 30
0.0
  9
$PUCSORGRIGHT
 10
0.0
 20
0.0
 30
0.0
  9
$PUCSORGFRONT
 10
0.0
 20
0.0
 30
0.0
  9
$PUCSORGBACK
 10
0.0
 20
0.0
 30
0.0
  9
$USERI1
 70
     0
  9
$USERI2
 70
     0
  9
$USERI3
 70
     0
  9
$USERI4
 70
     0
  9
$USERI5
 70
     0
  9
$USERR1
 40
0.0
  9
$USERR2
 40
0.0
  9
$USERR3
 40
0.0
  9
$USERR4
 40
0.0
  9
$USERR5
 40
0.0
  9
$WORLDVIEW
 70
     1
  9
$SHADEDGE
 70
     3
  9
$SHADEDIF
 70
    70
  9
$TILEMODE
 70
     1
  9
$MAXACTVP
 70
    16
  9
$PINSBASE
 10
0.0
 20
0.0
 30
0.0
  9
$PLIMCHECK
 70
     0
  9
$PEXTMIN
 10
1.000000000000000E+20
 20
1.000000000000000E+20
 30
1.000000000000000E+20
  9
$PEXTMAX
 10
-1.000000000000000E+20
 20
-1.000000000000000E+20
 30
-1.000000000000000E+20
  9
$PLIMMIN
 10
0.0
 20
0.0
  9
$PLIMMAX
 10
12.0
 20
9.0
  9
$UNITMODE
 70
     0
  9
$VISRETAIN
 70
     0
  9
$PLINEGEN
 70
     0
  9
$PSLTSCALE
 70
     1
  9
$TREEDEPTH
 70
  3020
  9
$CMLSTYLE
  2
STANDARD
  9
$CMLJUST
 70
     0
  9
$CMLSCALE
 40
1.0
  9
$PROXYGRAPHICS
 70
     1
  9
$MEASUREMENT
 70
     0
  9
$CELWEIGHT
370
    -1
  9
$ENDCAPS
280
     0
  9
$JOINSTYLE
280
     0
  9
$LWDISPLAY
290
     0
  9
$INSUNITS
 70
     0
  9
$HYPERLINKBASE
  1

  9
$STYLESHEET
  1
acad.ctb
  9
$XEDIT
290
     1
  9
$CEPSNTYPE
380
     0
  9
$PSTYLEMODE
290
     1
  9
$FINGERPRINTGUID
  2
{0ADC0F84-C4BF-11D6-8737-0010B50CF566}
  9
$VERSIONGUID
  2
{6534DF42-6BFE-4EB3-8242-CF8A88303808}
  9
$EXTNAMES
290
     1
  9
$PSVPSCALE
 40
0.0
  9
$OLESTARTUP
290
     0
  9
$SORTENTS
280
   127
  9
$INDEXCTL
280
     0
  9
$HIDETEXT
280
     0
  9
$XCLIPFRAME
290
     0
  9
$HALOGAP
280
     0
  9
$OBSCOLOR
 70
   257
  9
$OBSLTYPE
280
     0
  9
$INTERSECTIONDISPLAY
280
     0
  9
$INTERSECTIONCOLOR
 70
   257
  9
$DIMASSOC
280
     1
  9
$PROJECTNAME
  1

  9
$CAMERADISPLAY
290
     0
  9
$LENSLENGTH
 40
50.0
  9
$CAMERAHEIGHT
 40
0.0
  9
$STEPSPERSEC
 40
2.0
  9
$STEPSIZE
 40
6.0
  9
$3DDWFPREC
 40
2.0
  9
$PSOLWIDTH
 40
0.25
  9
$PSOLHEIGHT
 40
4.0
  9
$LOFTANG1
 40
1.570796326794896
  9
$LOFTANG2
 40
1.570796326794896
  9
$LOFTMAG1
 40
0.0
  9
$LOFTMAG2
 40
0.0
  9
$LOFTPARAM
 70
     7
  9
$LOFTNORMALS
280
     1
  9
$LATITUDE
 40
37.795
  9
$LONGITUDE
 40
-122.394
  9
$NORTHDIRECTION
 40
0.0
  9
$TIMEZONE
 70
 -8000
  9
$LIGHTGLYPHDISPLAY
280
     1
  9
$TILEMODELIGHTSYNCH
280
     1
  9
$CMATERIAL
347
11D3
  9
$SOLIDHIST
280
     1
  9
$SHOWHIST
280
     1
  9
$DWFFRAME
280
     2
  9
$DGNFRAME
280
     0
  9
$REALWORLDSCALE
290
     1
  9
$INTERFERECOLOR
 62
     1
  9
$INTERFEREOBJVS
345
11E0
  9
$INTERFEREVPVS
346
11DD
  9
$CSHADOW
280
     0
  9
$SHADOWPLANELOCATION
 40
0.0
  0
ENDSEC
  0
SECTION
  2
CLASSES
  0
CLASS
  1
ACDBDICTIONARYWDFLT
  2
AcDbDictionaryWithDefault
  3
ObjectDBX Classes
 90
        0
 91
        1
280
     0
281
     0
  0
CLASS
  1
MATERIAL
  2
AcDbMaterial
  3
ObjectDBX Classes
 90
     1024
 91
        3
280
     0
281
     0
  0
CLASS
  1
VISUALSTYLE
  2
AcDbVisualStyle
  3
ObjectDBX Classes
 90
     4095
 91
       16
280
     0
281
     0
  0
CLASS
  1
TABLESTYLE
  2
AcDbTableStyle
  3
ObjectDBX Classes
 90
     4095
 91
        1
280
     0
281
     0
  0
CLASS
  1
SORTENTSTABLE
  2
AcDbSortentsTable
  3
ObjectDBX Classes
 90
        0
 91
        3
280
     0
281
     0
  0
CLASS
  1
DICTIONARYVAR
  2
AcDbDictionaryVar
  3
ObjectDBX Classes
 90
        0
 91
        4
280
     0
281
     0
  0
CLASS
  1
EXACXREFPANELOBJECT
  2
ExAcXREFPanelObject
  3
EXAC_ESW
 90
     1025
 91
        0
280
     0
281
     0
  0
CLASS
  1
NPOCOLLECTION
  2
AcDbImpNonPersistentObjectsCollection
  3
ObjectDBX Classes
 90
     1153
 91
        0
280
     0
281
     0
  0
CLASS
  1
EXACTERMXREFMAP
  2
ExAcTermXrefMap
  3
EXAC_SERVICE
 90
     1025
 91
        0
280
     0
281
     0
  0
ENDSEC
  0
SECTION
  2
TABLES
  0
TABLE
  2
VPORT
  5
4E6
102
{ACAD_XDICTIONARY
360
1347
102
}
330
0
100
AcDbSymbolTable
 70
     1
  0
VPORT
  5
11D0
330
4E6
100
AcDbSymbolTableRecord
100
AcDbViewportTableRecord
  2
*Active
 70
     0
 10
0.0
 20
0.0
 11
1.0
 21
1.0
 12
814.0471145936139
 22
-109.3277977622872
 13
0.0
 23
0.0
 14
1.0
 24
1.0
 15
0.0
 25
0.0
 16
0.0
 26
0.0
 36
1.0
 17
0.0
 27
0.0
 37
0.0
 40
362.0025062769973
 41
2.150421179302045
 42
50.0
 43
0.0
 44
0.0
 50
0.0
 51
0.0
 71
     0
 72
   100
 73
     1
 74
     0
 75
     0
 76
     0
 77
     0
 78
     0
281
     0
 65
     1
110
0.0
120
0.0
130
0.0
111
1.0
121
0.0
131
0.0
112
0.0
122
1.0
132
0.0
 79
     0
146
0.0
348
11DC
 60
     3
 61
     5
292
     1
282
     1
141
0.0
142
0.0
 63
   250
421
  3355443
  0
ENDTAB
  0
TABLE
  2
LTYPE
  5
4E3
330
0
100
AcDbSymbolTable
 70
     1
  0
LTYPE
  5
4F0
330
4E3
100
AcDbSymbolTableRecord
100
AcDbLinetypeTableRecord
  2
BYBLOCK
 70
     0
  3

 72
    65
 73
     0
 40
0.0
  0
LTYPE
  5
4F1
330
4E3
100
AcDbSymbolTableRecord
100
AcDbLinetypeTableRecord
  2
BYLAYER
 70
     0
  3

 72
    65
 73
     0
 40
0.0
  0
LTYPE
  5
4F2
330
4E3
100
AcDbSymbolTableRecord
100
AcDbLinetypeTableRecord
  2
CONTINUOUS
 70
     0
  3
Solid line
 72
    65
 73
     0
 40
0.0
  0
ENDTAB
  0
TABLE
  2
LAYER
  5
4E0
330
0
100
AcDbSymbolTable
 70
     2
  0
LAYER
  5
4ED
330
4E0
100
AcDbSymbolTableRecord
100
AcDbLayerTableRecord
  2
0
 70
     0
 62
     7
  6
CONTINUOUS
370
    -3
390
C83
347
11D5
  0
LAYER
  5
525
330
4E0
100
AcDbSymbolTableRecord
100
AcDbLayerTableRecord
  2
DEFPOINTS
 70
     0
 62
     7
  6
CONTINUOUS
290
     0
370
    -3
390
C83
347
11D5
  0
ENDTAB
  0
TABLE
  2
STYLE
  5
4E1
330
0
100
AcDbSymbolTable
 70
     6
  0
STYLE
  5
4EE
330
4E1
100
AcDbSymbolTableRecord
100
AcDbTextStyleTableRecord
  2
STANDARD
 70
     0
 40
0.0
 41
1.0
 50
0.0
 71
     0
 42
0.2
  3
txt
  4

  0
STYLE
  5
51A
330
4E1
100
AcDbSymbolTableRecord
100
AcDbTextStyleTableRecord
  2
ROMANS
 70
     0
 40
0.0
 41
1.0
 50
0.0
 71
     0
 42
3.0954
  3
romans
  4

  0
STYLE
  5
51B
330
4E1
100
AcDbSymbolTableRecord
100
AcDbTextStyleTableRecord
  2
ROMANC
 70
     0
 40
3.5375
 41
1.0
 50
0.0
 71
     0
 42
3.0954
  3
romanc
  4

  0
STYLE
  5
15D7
330
4E1
100
AcDbSymbolTableRecord
100
AcDbTextStyleTableRecord
  2
CAT_BORDER$0$ROMANS
 70
     0
 40
0.0
 41
1.0
 50
0.0
 71
     0
 42
1.768799999999999
  3
romans
  4

  0
STYLE
  5
15D8
330
4E1
100
AcDbSymbolTableRecord
100
AcDbTextStyleTableRecord
  2
CAT_BORDER$0$STYLE1
 70
     0
 40
0.0
 41
1.0
 50
0.0
 71
     0
 42
3.0954
  3
C:\Program Files\AutoCAD LT\romanc.shx
  4

  0
ENDTAB
  0
TABLE
  2
VIEW
  5
4E4
330
0
100
AcDbSymbolTable
 70
     0
  0
ENDTAB
  0
TABLE
  2
UCS
  5
4E5
330
0
100
AcDbSymbolTable
 70
     0
  0
ENDTAB
  0
TABLE
  2
APPID
  5
4E7
330
0
100
AcDbSymbolTable
 70
     3
  0
APPID
  5
4EF
330
4E7
100
AcDbSymbolTableRecord
100
AcDbRegAppTableRecord
  2
ACAD
 70
     0
  0
APPID
  5
1236
330
4E7
100
AcDbSymbolTableRecord
100
AcDbRegAppTableRecord
  2
ACAD_PSEXT
 70
     0
  0
APPID
  5
1306
330
4E7
100
AcDbSymbolTableRecord
100
AcDbRegAppTableRecord
  2
ACAD_EXEMPT_FROM_CAD_STANDARDS
 70
     0
  0
ENDTAB
  0
TABLE
  2
DIMSTYLE
  5
4E8
330
0
100
AcDbSymbolTable
 70
     3
100
AcDbDimStyleTable
 71
     2
340
524
340
E83
  0
DIMSTYLE
105
524
102
{ACAD_REACTORS
330
E89
102
}
330
4E8
100
AcDbSymbolTableRecord
100
AcDbDimStyleTableRecord
  2
STANDARD
 70
     0
 40
38.0
 41
0.0625
 43
0.375
 44
0.0625
 78
     3
140
0.0804
141
0.0625
147
0.0625
276
     2
277
     4
279
     2
284
     3
340
51A
  0
DIMSTYLE
105
E83
102
{ACAD_REACTORS
330
360
330
3AA
330
453
330
465
330
462
330
E93
330
3AC
330
373
330
E8E
330
E96
330
E8D
330
ECB
330
ECC
330
EA5
330
EA4
330
3B4
330
EDE
330
E84
330
EA6
330
45E
330
17B7
330
1864
102
}
330
4E8
100
AcDbSymbolTableRecord
100
AcDbDimStyleTableRecord
  2
STANDARD$0
 70
     0
 40
28.0
 41
0.0625
 43
0.375
 44
0.0625
 78
     3
140
0.08203125
141
0.0625
147
0.0625
273
     4
276
     2
277
     4
279
     2
284
     3
285
     3
286
     3
340
51A
  0
ENDTAB
  0
TABLE
  2
BLOCK_RECORD
  5
4DF
330
0
100
AcDbSymbolTable
 70
    28
  0
BLOCK_RECORD
  5
4F6
102
{ACAD_XDICTIONARY
360
11F7
102
}
330
4DF
100
AcDbSymbolTableRecord
100
AcDbBlockTableRecord
  2
*MODEL_SPACE
340
C86
 70
     0
280
     1
281
     0
  0
BLOCK_RECORD
  5
4F3
330
4DF
100
AcDbSymbolTableRecord
100
AcDbBlockTableRecord
  2
*PAPER_SPACE
340
C87
 70
     0
280
     1
281
     0
  0
BLOCK_RECORD
  5
519
330
4DF
100
AcDbSymbolTableRecord
100
AcDbBlockTableRecord
  2
LINETYPE
340
0
102
{BLKREFS
331
4D8
102
}
 70
     0
280
     1
281
     0
  0
BLOCK_RECORD
  5
B35
330
4DF
100
AcDbSymbolTableRecord
100
AcDbBlockTableRecord
  2
BORDER-T
340
0
102
{BLKREFS
331
1364
331
16D7
102
}
 70
     0
280
     1
281
     0
  0
BLOCK_RECORD
  5
B9B
330
4DF
100
AcDbSymbolTableRecord
100
AcDbBlockTableRecord
  2
*D2
340
0
 70
     0
280
     1
281
     0
  0
BLOCK_RECORD
  5
BA8
330
4DF
100
AcDbSymbolTableRecord
100
AcDbBlockTableRecord
  2
*D3
340
0
 70
     0
280
     1
281
     0
  0
BLOCK_RECORD
  5
BB5
330
4DF
100
AcDbSymbolTableRecord
100
AcDbBlockTableRecord
  2
*D4
340
0
 70
     0
280
     1
281
     0
  0
BLOCK_RECORD
  5
CA2
330
4DF
100
AcDbSymbolTableRecord
100
AcDbBlockTableRecord
  2
*D5
340
0
 70
     0
280
     1
281
     0
  0
BLOCK_RECORD
  5
D8E
330
4DF
100
AcDbSymbolTableRecord
100
AcDbBlockTableRecord
  2
*D6
340
0
 70
     0
280
     1
281
     0
  0
BLOCK_RECORD
  5
DA5
330
4DF
100
AcDbSymbolTableRecord
100
AcDbBlockTableRecord
  2
*D7
340
0
 70
     0
280
     1
281
     0
  0
BLOCK_RECORD
  5
EF7
330
4DF
100
AcDbSymbolTableRecord
100
AcDbBlockTableRecord
  2
*D8
340
0
 70
     0
280
     1
281
     0
  0
BLOCK_RECORD
  5
F04
330
4DF
100
AcDbSymbolTableRecord
100
AcDbBlockTableRecord
  2
*D9
340
0
 70
     0
280
     1
281
     0
  0
BLOCK_RECORD
  5
F11
330
4DF
100
AcDbSymbolTableRecord
100
AcDbBlockTableRecord
  2
*D10
340
0
 70
     0
280
     1
281
     0
  0
BLOCK_RECORD
  5
F1E
330
4DF
100
AcDbSymbolTableRecord
100
AcDbBlockTableRecord
  2
*D11
340
0
 70
     0
280
     1
281
     0
  0
BLOCK_RECORD
  5
F2B
330
4DF
100
AcDbSymbolTableRecord
100
AcDbBlockTableRecord
  2
*D12
340
0
 70
     0
280
     1
281
     0
  0
BLOCK_RECORD
  5
F38
330
4DF
100
AcDbSymbolTableRecord
100
AcDbBlockTableRecord
  2
*D13
340
0
 70
     0
280
     1
281
     0
  0
BLOCK_RECORD
  5
F45
330
4DF
100
AcDbSymbolTableRecord
100
AcDbBlockTableRecord
  2
*D14
340
0
 70
     0
280
     1
281
     0
  0
BLOCK_RECORD
  5
F52
330
4DF
100
AcDbSymbolTableRecord
100
AcDbBlockTableRecord
  2
*D15
340
0
 70
     0
280
     1
281
     0
  0
BLOCK_RECORD
  5
F5F
330
4DF
100
AcDbSymbolTableRecord
100
AcDbBlockTableRecord
  2
*D16
340
0
 70
     0
280
     1
281
     0
  0
BLOCK_RECORD
  5
F6C
330
4DF
100
AcDbSymbolTableRecord
100
AcDbBlockTableRecord
  2
*D17
340
0
 70
     0
280
     1
281
     0
  0
BLOCK_RECORD
  5
F79
330
4DF
100
AcDbSymbolTableRecord
100
AcDbBlockTableRecord
  2
*D18
340
0
 70
     0
280
     1
281
     0
  0
BLOCK_RECORD
  5
1063
330
4DF
100
AcDbSymbolTableRecord
100
AcDbBlockTableRecord
  2
*D19
340
0
 70
     0
280
     1
281
     0
  0
BLOCK_RECORD
  5
118B
330
4DF
100
AcDbSymbolTableRecord
100
AcDbBlockTableRecord
  2
*D20
340
0
 70
     0
280
     1
281
     0
  0
BLOCK_RECORD
  5
1198
330
4DF
100
AcDbSymbolTableRecord
100
AcDbBlockTableRecord
  2
*D21
340
0
 70
     0
280
     1
281
     0
  0
BLOCK_RECORD
  5
124D
102
{ACAD_XDICTIONARY
360
1256
102
}
330
4DF
100
AcDbSymbolTableRecord
100
AcDbBlockTableRecord
  2
A$C18BE6784
340
0
 70
     0
280
     1
281
     0
  0
BLOCK_RECORD
  5
1363
102
{ACAD_XDICTIONARY
360
1374
102
}
330
4DF
100
AcDbSymbolTableRecord
100
AcDbBlockTableRecord
  2
A$C00294823
340
0
 70
     0
280
     1
281
     0
  0
BLOCK_RECORD
  5
138A
330
4DF
100
AcDbSymbolTableRecord
100
AcDbBlockTableRecord
  2
*X24
340
0
102
{BLKREFS
331
1672
102
}
 70
     0
280
     1
281
     0
  0
BLOCK_RECORD
  5
17B8
330
4DF
100
AcDbSymbolTableRecord
100
AcDbBlockTableRecord
  2
*D25
340
0
 70
     0
280
     1
281
     0
  0
BLOCK_RECORD
  5
1865
330
4DF
100
AcDbSymbolTableRecord
100
AcDbBlockTableRecord
  2
*D26
340
0
 70
     0
280
     1
281
     0
  0
ENDTAB
  0
ENDSEC
  0
SECTION
  2
BLOCKS
  0
BLOCK
  5
528
330
4F6
100
AcDbEntity
  8
0
100
AcDbBlockBegin
  2
*MODEL_SPACE
 70
     0
 10
0.0
 20
0.0
 30
0.0
  3
*MODEL_SPACE
  1

  0
ENDBLK
  5
529
330
4F6
100
AcDbEntity
  8
0
100
AcDbBlockEnd
  0
BLOCK
  5
526
330
4F3
100
AcDbEntity
 67
     1
  8
0
100
AcDbBlockBegin
  2
*PAPER_SPACE
 70
     0
 10
0.0
 20
0.0
 30
0.0
  3
*PAPER_SPACE
  1

  0
ENDBLK
  5
527
330
4F3
100
AcDbEntity
 67
     1
  8
0
100
AcDbBlockEnd
  0
BLOCK
  5
263
330
519
100
AcDbEntity
  8
0
100
AcDbBlockBegin
  2
LINETYPE
 70
     0
 10
0.0
 20
0.0
 30
0.0
  3
LINETYPE
  1

  0
ENDBLK
  5
264
330
519
100
AcDbEntity
  8
0
100
AcDbBlockEnd
  0
BLOCK
  5
B44
330
B35
100
AcDbEntity
  8
0
100
AcDbBlockBegin
  2
BORDER-T
 70
     2
 10
0.0
 20
0.0
 30
0.0
  3
BORDER-T
  1

  0
ATTDEF
  5
B36
330
B35
100
AcDbEntity
  8
0
 62
     5
100
AcDbText
 10
1.270598029493498
 20
16.95296065185261
 30
0.0
 40
2.25
  1

  7
ROMANS
100
AcDbAttributeDefinition
  3
SCALE
  2
SCALE
 70
     0
280
     0
  0
ATTDEF
  5
B37
330
B35
100
AcDbEntity
  8
0
100
AcDbText
 10
261.9539163537752
 20
16.97014926946124
 30
0.0
 40
1.7518359375
  1

  7
ROMANS
 72
     4
 11
267.5431072019895
 21
17.84606723821125
 31
0.0
100
AcDbAttributeDefinition
  3
SAVED AS
  2
SAVEDAS
 70
     0
280
     0
  0
ATTDEF
  5
B38
330
B35
100
AcDbEntity
  8
0
 62
     5
100
AcDbText
 10
66.39640383685495
 20
12.89673285282586
 30
0.0
 40
1.248161764705882
  1

 50
90.0
  7
ROMANS
 72
     4
 11
65.77232295450201
 21
13.4910955979239
 31
0.0
100
AcDbAttributeDefinition
  3
WORK ORDER (X)
  2
X
 70
     0
280
     0
  0
ATTDEF
  5
B39
330
B35
100
AcDbEntity
  8
0
100
AcDbText
 10
112.9846649640199
 20
11.16830391662092
 30
0.0
 40
1.769029714285714
  1

  7
ROMANS
 72
     1
 11
120.7768196578975
 21
11.16830391662092
 31
0.0
100
AcDbAttributeDefinition
  3
ARCHITECT OR ENGINEER
  2
ARCHORENG
 70
     0
280
     0
  0
ATTDEF
  5
B3A
330
B35
100
AcDbEntity
  8
0
100
AcDbText
 10
109.4466055354485
 20
6.014881478758579
 30
0.0
 40
1.769029714285714
  1

  7
ROMANS
 72
     1
 11
120.7768196578975
 21
6.014881478758579
 31
0.0
100
AcDbAttributeDefinition
  3
PURCHASE ORDER
  2
PURCHASEORDER
 70
     0
280
     0
  0
ATTDEF
  5
B3B
330
B35
100
AcDbEntity
  8
0
100
AcDbText
 10
114.5430959027954
 20
0.8614590408961362
 30
0.0
 40
1.769029714285714
  1
JEB
  7
ROMANS
 72
     1
 11
120.7768196578975
 21
0.8614590408961362
 31
0.0
100
AcDbAttributeDefinition
  3
WHO ARE YOU?
  2
DRAWNBY
 70
     0
280
     0
  0
ATTDEF
  5
B3C
330
B35
100
AcDbEntity
  8
0
100
AcDbText
 10
147.829646841571
 20
6.014881478758579
 30
0.0
 40
1.769029714285714
  1

  7
ROMANS
 72
     1
 11
151.0307482293261
 21
6.014881478758579
 31
0.0
100
AcDbAttributeDefinition
  3
WORK ORDER DATE?
  2
DATE
 70
     0
280
     0
  0
ATTDEF
  5
B3D
330
B35
100
AcDbEntity
  8
0
100
AcDbText
 10
147.829646841571
 20
0.8614590408961362
 30
0.0
 40
1.769029714285714
  1

  7
ROMANS
 72
     1
 11
151.0307482293261
 21
0.8614590408961362
 31
0.0
100
AcDbAttributeDefinition
  3
WHAT IS TODAY'S DATE?
  2
DATE
 70
     0
280
     0
  0
ATTDEF
  5
B3E
330
B35
100
AcDbEntity
  8
0
100
AcDbText
 10
175.430030841571
 20
11.16830391662092
 30
0.0
 40
1.769029714285714
  1

  7
ROMANS
 72
     1
 11
181.2846768007546
 21
11.16830391662092
 31
0.0
100
AcDbAttributeDefinition
  3
PROJECT
  2
PROJECT
 70
     0
280
     0
  0
ATTDEF
  5
B3F
330
B35
100
AcDbEntity
  8
0
100
AcDbText
 10
181.7014737803464
 20
6.014881478758579
 30
0.0
 40
1.769029714285714
  1

  7
ROMANS
 72
     1
 11
189.535748229326
 21
6.014881478758579
 31
0.0
100
AcDbAttributeDefinition
  3
PURCHASER
  2
PURCHASER
 70
     0
280
     0
  0
ATTDEF
  5
B40
330
B35
100
AcDbEntity
  8
0
100
AcDbText
 10
179.5703399027954
 20
0.8614590408962374
 30
0.0
 40
1.769029714285714
  1

  7
ROMANS
 72
     1
 11
184.0350339436118
 21
0.8614590408962374
 31
0.0
100
AcDbAttributeDefinition
  3
MODEL #
  2
MODEL
 70
     0
280
     0
  0
ATTDEF
  5
B41
330
B35
100
AcDbEntity
  8
0
100
AcDbText
 10
211.8460167191219
 20
0.8614590408961362
 30
0.0
 40
1.769029714285714
  1
1
  7
ROMANS
 72
     1
 11
214.2889625150403
 21
0.8614590408961362
 31
0.0
100
AcDbAttributeDefinition
  3
QUANTITY
  2
QTY
 70
     0
280
     0
  0
ATTDEF
  5
B42
330
B35
100
AcDbEntity
  8
0
100
AcDbText
 10
244.6818234129996
 20
11.16763472788734
 30
0.0
 40
1.769029714285714
  1

  7
ROMANS
 72
     1
 11
247.2932482293261
 21
11.16763472788734
 31
0.0
100
AcDbAttributeDefinition
  3
PRECISION REP
  2
REP
 70
     0
280
     0
  0
ATTDEF
  5
B43
330
B35
100
AcDbEntity
  8
0
100
AcDbText
 10
235.9748273066308
 20
3.153238685427304
 30
0.0
 40
3.455136160714285
  1

  7
ROMANS
 72
     1
 11
247.3274175489777
 21
3.153238685427304
 31
0.0
100
AcDbAttributeDefinition
  3
SERIAL #
  2
L010000
 70
     0
280
     0
  0
ENDBLK
  5
B45
330
B35
100
AcDbEntity
  8
0
100
AcDbBlockEnd
  0
BLOCK
  5
B9C
330
B9B
100
AcDbEntity
  8
0
100
AcDbBlockBegin
  2
*D2
 70
     1
 10
0.0
 20
0.0
 30
0.0
  3
*D2
  1

  0
LINE
  5
1735
330
B9B
100
AcDbEntity
  8
0
 62
     0
370
    -2
100
AcDbLine
 10
735.1151905559182
 20
-26.71121339121524
 30
0.0
 11
771.5605319855521
 21
-26.71121339121525
 31
0.0
  0
LINE
  5
1736
330
B9B
100
AcDbEntity
  8
0
 62
     0
370
    -2
100
AcDbLine
 10
735.1151905559182
 20
-74.71121339121523
 30
0.0
 11
771.5605319855521
 21
-74.71121339121525
 31
0.0
  0
LINE
  5
1737
330
B9B
100
AcDbEntity
  8
0
 62
     0
370
    -2
100
AcDbLine
 10
769.0605319855522
 20
-29.21121339121525
 30
0.0
 11
769.0605319855522
 21
-46.25808839121525
 31
0.0
  0
LINE
  5
1738
330
B9B
100
AcDbEntity
  8
0
 62
     0
370
    -2
100
AcDbLine
 10
769.0605319855522
 20
-72.21121339121525
 30
0.0
 11
769.0605319855522
 21
-55.16433839121525
 31
0.0
  0
SOLID
  5
1739
330
B9B
100
AcDbEntity
  8
0
 62
     0
100
AcDbTrace
 10
768.6438653188855
 20
-29.21121339121525
 30
0.0
 11
769.4771986522188
 21
-29.21121339121525
 31
0.0
 12
769.0605319855522
 22
-26.71121339121525
 32
0.0
 13
769.0605319855522
 23
-26.71121339121525
 33
0.0
  0
SOLID
  5
173A
330
B9B
100
AcDbEntity
  8
0
 62
     0
100
AcDbTrace
 10
768.6438653188855
 20
-72.21121339121525
 30
0.0
 11
769.4771986522188
 21
-72.21121339121525
 31
0.0
 12
769.0605319855522
 22
-74.71121339121525
 32
0.0
 13
769.0605319855522
 23
-74.71121339121525
 33
0.0
  0
MTEXT
  5
173B
330
B9B
100
AcDbEntity
  8
0
 62
     0
100
AcDbMText
 10
769.0605319855522
 20
-50.71121339121513
 30
0.0
 40
3.28125
 41
0.0
 46
0.0
 71
     5
 72
     1
  1
\A1;4' TYP
  7
ROMANS
 73
     1
 44
1.0
  0
POINT
  5
173C
330
B9B
100
AcDbEntity
  8
DEFPOINTS
 62
     0
100
AcDbPoint
 10
732.6151905559182
 20
-26.71121339121524
 30
0.0
  0
POINT
  5
173D
330
B9B
100
AcDbEntity
  8
DEFPOINTS
 62
     0
100
AcDbPoint
 10
732.6151905559181
 20
-74.71121339121523
 30
0.0
  0
POINT
  5
173E
330
B9B
100
AcDbEntity
  8
DEFPOINTS
 62
     0
100
AcDbPoint
 10
769.0605319855522
 20
-74.71121339121525
 30
0.0
  0
ENDBLK
  5
BA7
330
B9B
100
AcDbEntity
  8
0
100
AcDbBlockEnd
  0
BLOCK
  5
BA9
330
BA8
100
AcDbEntity
  8
0
100
AcDbBlockBegin
  2
*D3
 70
     1
 10
0.0
 20
0.0
 30
0.0
  3
*D3
  1

  0
LINE
  5
16EF
330
BA8
100
AcDbEntity
  8
0
 62
     0
370
    -2
100
AcDbLine
 10
765.8651905559183
 20
-131.7112133912152
 30
0.0
 11
782.0625547234158
 21
-131.7112133912152
 31
0.0
  0
LINE
  5
16F0
330
BA8
100
AcDbEntity
  8
0
 62
     0
370
    -2
100
AcDbLine
 10
761.8651905559182
 20
-83.7112133912152
 30
0.0
 11
782.0625547234158
 21
-83.7112133912152
 31
0.0
  0
LINE
  5
16F1
330
BA8
100
AcDbEntity
  8
0
 62
     0
370
    -2
100
AcDbLine
 10
779.5625547234158
 20
-129.2112133912152
 30
0.0
 11
779.5625547234158
 21
-112.1643383912152
 31
0.0
  0
LINE
  5
16F2
330
BA8
100
AcDbEntity
  8
0
 62
     0
370
    -2
100
AcDbLine
 10
779.5625547234158
 20
-86.2112133912152
 30
0.0
 11
779.5625547234158
 21
-103.2580883912152
 31
0.0
  0
SOLID
  5
16F3
330
BA8
100
AcDbEntity
  8
0
 62
     0
100
AcDbTrace
 10
779.1458880567492
 20
-129.2112133912152
 30
0.0
 11
779.9792213900824
 21
-129.2112133912152
 31
0.0
 12
779.5625547234158
 22
-131.7112133912152
 32
0.0
 13
779.5625547234158
 23
-131.7112133912152
 33
0.0
  0
SOLID
  5
16F4
330
BA8
100
AcDbEntity
  8
0
 62
     0
100
AcDbTrace
 10
779.1458880567492
 20
-86.2112133912152
 30
0.0
 11
779.9792213900824
 21
-86.2112133912152
 31
0.0
 12
779.5625547234158
 22
-83.7112133912152
 32
0.0
 13
779.5625547234158
 23
-83.7112133912152
 33
0.0
  0
MTEXT
  5
16F5
330
BA8
100
AcDbEntity
  8
0
 62
     0
100
AcDbMText
 10
779.5625547234158
 20
-107.7112133912151
 30
0.0
 40
3.28125
 41
0.0
 46
0.0
 71
     5
 72
     1
  1
\A1;4' TYP
  7
ROMANS
 73
     1
 44
1.0
  0
POINT
  5
16F6
330
BA8
100
AcDbEntity
  8
DEFPOINTS
 62
     0
100
AcDbPoint
 10
763.3651905559182
 20
-131.7112133912152
 30
0.0
  0
POINT
  5
16F7
330
BA8
100
AcDbEntity
  8
DEFPOINTS
 62
     0
100
AcDbPoint
 10
759.3651905559181
 20
-83.7112133912152
 30
0.0
  0
POINT
  5
16F8
330
BA8
100
AcDbEntity
  8
DEFPOINTS
 62
     0
100
AcDbPoint
 10
779.5625547234158
 20
-83.7112133912152
 30
0.0
  0
ENDBLK
  5
BB4
330
BA8
100
AcDbEntity
  8
0
100
AcDbBlockEnd
  0
BLOCK
  5
BB6
330
BB5
100
AcDbEntity
  8
0
100
AcDbBlockBegin
  2
*D4
 70
     1
 10
0.0
 20
0.0
 30
0.0
  3
*D4
  1

  0
LINE
  5
1703
330
BB5
100
AcDbEntity
  8
0
 62
     0
370
    -2
100
AcDbLine
 10
750.6151905559181
 20
-221.7112133912152
 30
0.0
 11
782.0625547234158
 21
-221.7112133912152
 31
0.0
  0
LINE
  5
1704
330
BB5
100
AcDbEntity
  8
0
 62
     0
370
    -2
100
AcDbLine
 10
765.8651905559183
 20
-131.7112133912152
 30
0.0
 11
782.0625547234158
 21
-131.7112133912152
 31
0.0
  0
LINE
  5
1705
330
BB5
100
AcDbEntity
  8
0
 62
     0
370
    -2
100
AcDbLine
 10
779.5625547234158
 20
-219.2112133912152
 30
0.0
 11
779.5625547234158
 21
-181.1643383912152
 31
0.0
  0
LINE
  5
1706
330
BB5
100
AcDbEntity
  8
0
 62
     0
370
    -2
100
AcDbLine
 10
779.5625547234158
 20
-134.2112133912152
 30
0.0
 11
779.5625547234158
 21
-172.2580883912152
 31
0.0
  0
SOLID
  5
1707
330
BB5
100
AcDbEntity
  8
0
 62
     0
100
AcDbTrace
 10
779.1458880567492
 20
-219.2112133912152
 30
0.0
 11
779.9792213900824
 21
-219.2112133912152
 31
0.0
 12
779.5625547234158
 22
-221.7112133912152
 32
0.0
 13
779.5625547234158
 23
-221.7112133912152
 33
0.0
  0
SOLID
  5
1708
330
BB5
100
AcDbEntity
  8
0
 62
     0
100
AcDbTrace
 10
779.1458880567492
 20
-134.2112133912152
 30
0.0
 11
779.9792213900824
 21
-134.2112133912152
 31
0.0
 12
779.5625547234158
 22
-131.7112133912152
 32
0.0
 13
779.5625547234158
 23
-131.7112133912152
 33
0.0
  0
MTEXT
  5
1709
330
BB5
100
AcDbEntity
  8
0
 62
     0
100
AcDbMText
 10
779.5625547234158
 20
-176.7112133912151
 30
0.0
 40
3.28125
 41
0.0
 46
0.0
 71
     5
 72
     1
  1
\A1;7'-6"
  7
ROMANS
 73
     1
 44
1.0
  0
POINT
  5
170A
330
BB5
100
AcDbEntity
  8
DEFPOINTS
 62
     0
100
AcDbPoint
 10
748.1151905559181
 20
-221.7112133912152
 30
0.0
  0
POINT
  5
170B
330
BB5
100
AcDbEntity
  8
DEFPOINTS
 62
     0
100
AcDbPoint
 10
763.3651905559182
 20
-131.7112133912152
 30
0.0
  0
POINT
  5
170C
330
BB5
100
AcDbEntity
  8
DEFPOINTS
 62
     0
100
AcDbPoint
 10
779.5625547234158
 20
-131.7112133912152
 30
0.0
  0
ENDBLK
  5
BC1
330
BB5
100
AcDbEntity
  8
0
100
AcDbBlockEnd
  0
BLOCK
  5
CAD
330
CA2
100
AcDbEntity
  8
0
100
AcDbBlockBegin
  2
*D5
 70
     1
 10
0.0
 20
0.0
 30
0.0
  3
*D5
  1

  0
LINE
  5
170D
330
CA2
100
AcDbEntity
  8
0
 62
     0
370
    -2
100
AcDbLine
 10
868.5815378899544
 20
-224.2112133912152
 30
0.0
 11
868.5815378899544
 21
-230.7872657013813
 31
0.0
  0
LINE
  5
170E
330
CA2
100
AcDbEntity
  8
0
 62
     0
370
    -2
100
AcDbLine
 10
842.5815378899544
 20
-224.2112133912153
 30
0.0
 11
842.5815378899544
 21
-230.7872657013813
 31
0.0
  0
LINE
  5
170F
330
CA2
100
AcDbEntity
  8
0
 62
     0
370
    -2
100
AcDbLine
 10
866.0815378899544
 20
-228.2872657013813
 30
0.0
 11
861.9096628899544
 21
-228.2872657013813
 31
0.0
  0
LINE
  5
1710
330
CA2
100
AcDbEntity
  8
0
 62
     0
370
    -2
100
AcDbLine
 10
845.0815378899545
 20
-228.2872657013813
 30
0.0
 11
849.2534128899544
 21
-228.2872657013813
 31
0.0
  0
SOLID
  5
1711
330
CA2
100
AcDbEntity
  8
0
 62
     0
100
AcDbTrace
 10
866.0815378899544
 20
-227.8705990347146
 30
0.0
 11
866.0815378899544
 21
-228.7039323680479
 31
0.0
 12
868.5815378899544
 22
-228.2872657013813
 32
0.0
 13
868.5815378899544
 23
-228.2872657013813
 33
0.0
  0
SOLID
  5
1712
330
CA2
100
AcDbEntity
  8
0
 62
     0
100
AcDbTrace
 10
845.0815378899545
 20
-227.8705990347146
 30
0.0
 11
845.0815378899545
 21
-228.7039323680479
 31
0.0
 12
842.5815378899544
 22
-228.2872657013813
 32
0.0
 13
842.5815378899544
 23
-228.2872657013813
 33
0.0
  0
MTEXT
  5
1713
330
CA2
100
AcDbEntity
  8
0
 62
     0
100
AcDbMText
 10
855.5815378899545
 20
-228.2872657013813
 30
0.0
 40
3.28125
 41
0.0
 46
0.0
 71
     5
 72
     1
  1
\A1;26"
  7
ROMANS
 73
     1
 44
1.0
  0
POINT
  5
1714
330
CA2
100
AcDbEntity
  8
DEFPOINTS
 62
     0
100
AcDbPoint
 10
868.5815378899544
 20
-221.7112133912152
 30
0.0
  0
POINT
  5
1715
330
CA2
100
AcDbEntity
  8
DEFPOINTS
 62
     0
100
AcDbPoint
 10
842.5815378899544
 20
-221.7112133912153
 30
0.0
  0
POINT
  5
1716
330
CA2
100
AcDbEntity
  8
DEFPOINTS
 62
     0
100
AcDbPoint
 10
842.5815378899544
 20
-228.2872657013813
 30
0.0
  0
ENDBLK
  5
CAE
330
CA2
100
AcDbEntity
  8
0
100
AcDbBlockEnd
  0
BLOCK
  5
D99
330
D8E
100
AcDbEntity
  8
0
100
AcDbBlockBegin
  2
*D6
 70
     1
 10
0.0
 20
0.0
 30
0.0
  3
*D6
  1

  0
LINE
  5
1721
330
D8E
100
AcDbEntity
  8
0
 62
     0
370
    -2
100
AcDbLine
 10
609.9810572498751
 20
-13.71121339121524
 30
0.0
 11
593.2680454331299
 21
-13.71121339121523
 31
0.0
  0
LINE
  5
1722
330
D8E
100
AcDbEntity
  8
0
 62
     0
370
    -2
100
AcDbLine
 10
608.9810572498751
 20
28.28878660878482
 30
0.0
 11
593.2680454331299
 21
28.28878660878482
 31
0.0
  0
LINE
  5
1723
330
D8E
100
AcDbEntity
  8
0
 62
     0
370
    -2
100
AcDbLine
 10
595.7680454331299
 20
-11.21121339121523
 30
0.0
 11
595.7680454331299
 21
2.835661608784794
 31
0.0
  0
LINE
  5
1724
330
D8E
100
AcDbEntity
  8
0
 62
     0
370
    -2
100
AcDbLine
 10
595.7680454331299
 20
25.78878660878482
 30
0.0
 11
595.7680454331299
 21
11.74191160878479
 31
0.0
  0
SOLID
  5
1725
330
D8E
100
AcDbEntity
  8
0
 62
     0
100
AcDbTrace
 10
595.3513787664633
 20
-11.21121339121523
 30
0.0
 11
596.1847120997965
 21
-11.21121339121523
 31
0.0
 12
595.7680454331299
 22
-13.71121339121523
 32
0.0
 13
595.7680454331299
 23
-13.71121339121523
 33
0.0
  0
SOLID
  5
1726
330
D8E
100
AcDbEntity
  8
0
 62
     0
100
AcDbTrace
 10
595.3513787664633
 20
25.78878660878482
 30
0.0
 11
596.1847120997965
 21
25.78878660878482
 31
0.0
 12
595.7680454331299
 22
28.28878660878482
 32
0.0
 13
595.7680454331299
 23
28.28878660878482
 33
0.0
  0
MTEXT
  5
1727
330
D8E
100
AcDbEntity
  8
0
 62
     0
100
AcDbMText
 10
595.7680454331299
 20
7.28878660878489
 30
0.0
 40
3.28125
 41
0.0
 46
0.0
 71
     5
 72
     1
  1
\A1;42"
  7
ROMANS
 73
     1
 44
1.0
  0
POINT
  5
1728
330
D8E
100
AcDbEntity
  8
DEFPOINTS
 62
     0
100
AcDbPoint
 10
612.4810572498751
 20
-13.71121339121524
 30
0.0
  0
POINT
  5
1729
330
D8E
100
AcDbEntity
  8
DEFPOINTS
 62
     0
100
AcDbPoint
 10
611.481057249875
 20
28.28878660878482
 30
0.0
  0
POINT
  5
172A
330
D8E
100
AcDbEntity
  8
DEFPOINTS
 62
     0
100
AcDbPoint
 10
595.7680454331299
 20
28.28878660878482
 30
0.0
  0
ENDBLK
  5
D9A
330
D8E
100
AcDbEntity
  8
0
100
AcDbBlockEnd
  0
BLOCK
  5
DB0
330
DA5
100
AcDbEntity
  8
0
100
AcDbBlockBegin
  2
*D7
 70
     1
 10
0.0
 20
0.0
 30
0.0
  3
*D7
  1

  0
LINE
  5
173F
330
DA5
100
AcDbEntity
  8
0
 62
     0
370
    -2
100
AcDbLine
 10
611.481057249875
 20
-52.83621339121523
 30
0.0
 11
611.481057249875
 21
-57.9846945280423
 31
0.0
  0
LINE
  5
1740
330
DA5
100
AcDbEntity
  8
0
 62
     0
370
    -2
100
AcDbLine
 10
637.4810572498749
 20
-52.83621339121523
 30
0.0
 11
637.4810572498749
 21
-57.9846945280423
 31
0.0
  0
LINE
  5
1741
330
DA5
100
AcDbEntity
  8
0
 62
     0
370
    -2
100
AcDbLine
 10
613.9810572498751
 20
-55.4846945280423
 30
0.0
 11
618.1529322498749
 21
-55.4846945280423
 31
0.0
  0
LINE
  5
1742
330
DA5
100
AcDbEntity
  8
0
 62
     0
370
    -2
100
AcDbLine
 10
634.981057249875
 20
-55.4846945280423
 30
0.0
 11
630.809182249875
 21
-55.4846945280423
 31
0.0
  0
SOLID
  5
1743
330
DA5
100
AcDbEntity
  8
0
 62
     0
100
AcDbTrace
 10
613.9810572498751
 20
-55.06802786137563
 30
0.0
 11
613.9810572498751
 21
-55.90136119470896
 31
0.0
 12
611.481057249875
 22
-55.4846945280423
 32
0.0
 13
611.481057249875
 23
-55.4846945280423
 33
0.0
  0
SOLID
  5
1744
330
DA5
100
AcDbEntity
  8
0
 62
     0
100
AcDbTrace
 10
634.981057249875
 20
-55.06802786137563
 30
0.0
 11
634.981057249875
 21
-55.90136119470896
 31
0.0
 12
637.4810572498749
 22
-55.4846945280423
 32
0.0
 13
637.4810572498749
 23
-55.4846945280423
 33
0.0
  0
MTEXT
  5
1745
330
DA5
100
AcDbEntity
  8
0
 62
     0
100
AcDbMText
 10
624.4810572498749
 20
-55.4846945280423
 30
0.0
 40
3.28125
 41
0.0
 46
0.0
 71
     5
 72
     1
  1
\A1;26"
  7
ROMANS
 73
     1
 44
1.0
  0
POINT
  5
1746
330
DA5
100
AcDbEntity
  8
DEFPOINTS
 62
     0
100
AcDbPoint
 10
611.481057249875
 20
-50.33621339121523
 30
0.0
  0
POINT
  5
1747
330
DA5
100
AcDbEntity
  8
DEFPOINTS
 62
     0
100
AcDbPoint
 10
637.4810572498749
 20
-50.33621339121523
 30
0.0
  0
POINT
  5
1748
330
DA5
100
AcDbEntity
  8
DEFPOINTS
 62
     0
100
AcDbPoint
 10
637.4810572498749
 20
-55.4846945280423
 30
0.0
  0
ENDBLK
  5
DB1
330
DA5
100
AcDbEntity
  8
0
100
AcDbBlockEnd
  0
BLOCK
  5
F02
330
EF7
100
AcDbEntity
  8
0
100
AcDbBlockBegin
  2
*D8
 70
     1
 10
0.0
 20
0.0
 30
0.0
  3
*D8
  1

  0
LINE
  5
1749
330
EF7
100
AcDbEntity
  8
0
 62
     0
370
    -2
100
AcDbLine
 10
982.9507068571533
 20
-48.99725372340373
 30
0.0
 11
1029.497409152491
 21
-48.99725372340373
 31
0.0
  0
LINE
  5
174A
330
EF7
100
AcDbEntity
  8
0
 62
     0
370
    -2
100
AcDbLine
 10
1010.123558419653
 20
8.424621276596269
 30
0.0
 11
1029.497409152491
 21
8.424621276596262
 31
0.0
  0
LINE
  5
174B
330
EF7
100
AcDbEntity
  8
0
 62
     0
370
    -2
100
AcDbLine
 10
1026.997409152491
 20
-46.49725372340373
 30
0.0
 11
1026.997409152491
 21
-24.73944122340374
 31
0.0
  0
LINE
  5
174C
330
EF7
100
AcDbEntity
  8
0
 62
     0
370
    -2
100
AcDbLine
 10
1026.997409152491
 20
5.924621276596263
 30
0.0
 11
1026.997409152491
 21
-15.83319122340373
 31
0.0
  0
SOLID
  5
174D
330
EF7
100
AcDbEntity
  8
0
 62
     0
100
AcDbTrace
 10
1026.580742485824
 20
-46.49725372340373
 30
0.0
 11
1027.414075819158
 21
-46.49725372340373
 31
0.0
 12
1026.997409152491
 22
-48.99725372340373
 32
0.0
 13
1026.997409152491
 23
-48.99725372340373
 33
0.0
  0
SOLID
  5
174E
330
EF7
100
AcDbEntity
  8
0
 62
     0
100
AcDbTrace
 10
1026.580742485824
 20
5.924621276596263
 30
0.0
 11
1027.414075819158
 21
5.924621276596263
 31
0.0
 12
1026.997409152491
 22
8.424621276596264
 32
0.0
 13
1026.997409152491
 23
8.424621276596264
 33
0.0
  0
MTEXT
  5
174F
330
EF7
100
AcDbEntity
  8
0
 62
     0
100
AcDbMText
 10
1026.997409152491
 20
-20.28631622340357
 30
0.0
 40
3.28125
 41
0.0
 46
0.0
 71
     5
 72
     1
  1
\A1;28"
  7
ROMANS
 73
     1
 44
1.0
  0
POINT
  5
1750
330
EF7
100
AcDbEntity
  8
DEFPOINTS
 62
     0
100
AcDbPoint
 10
980.4507068571533
 20
-48.99725372340373
 30
0.0
  0
POINT
  5
1751
330
EF7
100
AcDbEntity
  8
DEFPOINTS
 62
     0
100
AcDbPoint
 10
1007.623558419654
 20
8.424621276596269
 30
0.0
  0
POINT
  5
1752
330
EF7
100
AcDbEntity
  8
DEFPOINTS
 62
     0
100
AcDbPoint
 10
1026.997409152491
 20
8.424621276596264
 30
0.0
  0
ENDBLK
  5
F03
330
EF7
100
AcDbEntity
  8
0
100
AcDbBlockEnd
  0
BLOCK
  5
F0F
330
F04
100
AcDbEntity
  8
0
100
AcDbBlockBegin
  2
*D9
 70
     1
 10
0.0
 20
0.0
 30
0.0
  3
*D9
  1

  0
LINE
  5
1753
330
F04
100
AcDbEntity
  8
0
 62
     0
370
    -2
100
AcDbLine
 10
1017.958644568544
 20
-172.4396202441539
 30
0.0
 11
1026.998040784945
 21
-167.2207224053028
 31
0.0
  0
LINE
  5
1754
330
F04
100
AcDbEntity
  8
0
 62
     0
370
    -2
100
AcDbLine
 10
1017.958644568544
 20
-190.7386593066538
 30
0.0
 11
1026.998040784945
 21
-185.5197614678028
 31
0.0
  0
LINE
  5
1755
330
F04
100
AcDbEntity
  8
0
 62
     0
370
    -2
100
AcDbLine
 10
1024.498040784945
 20
-171.1640980782769
 30
0.0
 11
1024.498040784945
 21
-174.5737901534105
 31
0.0
  0
LINE
  5
1756
330
F04
100
AcDbEntity
  8
0
 62
     0
370
    -2
100
AcDbLine
 10
1024.498040784945
 20
-184.4631371407768
 30
0.0
 11
1024.498040784945
 21
-183.4800401534105
 31
0.0
  0
MTEXT
  5
1757
330
F04
100
AcDbEntity
  8
0
 62
     0
100
AcDbMText
 10
1025.549263319346
 20
-179.0269151534103
 30
0.0
 40
3.28125
 41
0.0
 46
0.0
 71
     5
 72
     1
  1
\A1;3"
  7
ROMANS
 73
     1
 44
1.0
  0
SOLID
  5
1758
330
F04
100
AcDbEntity
  8
0
 62
     0
100
AcDbTrace
 10
1024.081374118279
 20
-171.1640980782769
 30
0.0
 11
1024.914707451612
 21
-171.1640980782769
 31
0.0
 12
1024.498040784945
 22
-168.6640980782769
 32
0.0
 13
1024.498040784945
 23
-168.6640980782769
 33
0.0
  0
SOLID
  5
1759
330
F04
100
AcDbEntity
  8
0
 62
     0
100
AcDbTrace
 10
1024.081374118279
 20
-184.4631371407768
 30
0.0
 11
1024.914707451612
 21
-184.4631371407768
 31
0.0
 12
1024.498040784945
 22
-186.9631371407768
 32
0.0
 13
1024.498040784945
 23
-186.9631371407768
 33
0.0
  0
POINT
  5
175A
330
F04
100
AcDbEntity
  8
DEFPOINTS
 62
     0
100
AcDbPoint
 10
1015.458644568544
 20
-173.8829959171279
 30
0.0
  0
POINT
  5
175B
330
F04
100
AcDbEntity
  8
DEFPOINTS
 62
     0
100
AcDbPoint
 10
1015.458644568544
 20
-192.1820349796279
 30
0.0
  0
POINT
  5
175C
330
F04
100
AcDbEntity
  8
DEFPOINTS
 62
     0
100
AcDbPoint
 10
1024.498040784945
 20
-186.9631371407768
 30
0.0
  0
ENDBLK
  5
F10
330
F04
100
AcDbEntity
  8
0
100
AcDbBlockEnd
  0
BLOCK
  5
F1C
330
F11
100
AcDbEntity
  8
0
100
AcDbBlockBegin
  2
*D10
 70
     1
 10
0.0
 20
0.0
 30
0.0
  3
*D10
  1

  0
LINE
  5
175D
330
F11
100
AcDbEntity
  8
0
 62
     0
370
    -2
100
AcDbLine
 10
950.7482944055881
 20
-182.1069669896385
 30
0.0
 11
950.7482944055881
 21
-187.563321260937
 31
0.0
  0
LINE
  5
175E
330
F11
100
AcDbEntity
  8
0
 62
     0
370
    -2
100
AcDbLine
 10
949.4276750145074
 20
-181.344507028701
 30
0.0
 11
949.4276750145074
 21
-186.8008612999996
 31
0.0
  0
LINE
  5
175F
330
F11
100
AcDbEntity
  8
0
 62
     0
370
    -2
100
AcDbLine
 10
952.9133579150494
 20
-185.9265699149889
 30
0.0
 11
955.0784214245105
 21
-187.1765699149889
 31
0.0
  0
LINE
  5
1760
330
F11
100
AcDbEntity
  8
0
 62
     0
370
    -2
100
AcDbLine
 10
947.2626115050463
 20
-182.6641099540515
 30
0.0
 11
945.0975479955852
 21
-181.4141099540515
 31
0.0
  0
MTEXT
  5
1761
330
F11
100
AcDbEntity
  8
0
 62
     0
100
AcDbMText
 10
936.7527608899788
 20
-180.3051478963531
 30
0.0
 40
3.28125
 41
0.0
 46
0.0
 71
     5
 72
     1
  1
\A1;1/4"
  7
ROMANS
 73
     1
 44
1.0
  0
SOLID
  5
1762
330
F11
100
AcDbEntity
  8
0
 62
     0
100
AcDbTrace
 10
953.1216912483827
 20
-185.5657259967453
 30
0.0
 11
952.7050245817159
 21
-186.2874138332324
 31
0.0
 12
950.7482944055881
 22
-184.676569914989
 32
0.0
 13
950.7482944055881
 23
-184.676569914989
 33
0.0
  0
SOLID
  5
1763
330
F11
100
AcDbEntity
  8
0
 62
     0
100
AcDbTrace
 10
947.4709448383796
 20
-182.3032660358079
 30
0.0
 11
947.0542781717128
 21
-183.024953872295
 31
0.0
 12
949.4276750145074
 22
-183.9141099540514
 32
0.0
 13
949.4276750145074
 23
-183.9141099540514
 33
0.0
  0
POINT
  5
1764
330
F11
100
AcDbEntity
  8
DEFPOINTS
 62
     0
100
AcDbPoint
 10
950.7482944055881
 20
-179.2202156436904
 30
0.0
  0
POINT
  5
1765
330
F11
100
AcDbEntity
  8
DEFPOINTS
 62
     0
100
AcDbPoint
 10
949.4276750145072
 20
-178.4577556827528
 30
0.0
  0
POINT
  5
1766
330
F11
100
AcDbEntity
  8
DEFPOINTS
 62
     0
100
AcDbPoint
 10
949.4276750145074
 20
-183.9141099540514
 30
0.0
  0
ENDBLK
  5
F1D
330
F11
100
AcDbEntity
  8
0
100
AcDbBlockEnd
  0
BLOCK
  5
F29
330
F1E
100
AcDbEntity
  8
0
100
AcDbBlockBegin
  2
*D11
 70
     1
 10
0.0
 20
0.0
 30
0.0
  3
*D11
  1

  0
LINE
  5
1767
330
F1E
100
AcDbEntity
  8
0
 62
     0
370
    -2
100
AcDbLine
 10
968.0575852717986
 20
-146.515981572279
 30
0.0
 11
962.4710000683972
 21
-143.2905651012444
 31
0.0
  0
LINE
  5
1768
330
F1E
100
AcDbEntity
  8
0
 62
     0
370
    -2
100
AcDbLine
 10
946.9276750145072
 20
-158.7153409472788
 30
0.0
 11
941.3410898111058
 21
-155.4899244762442
 31
0.0
  0
LINE
  5
1769
330
F1E
100
AcDbEntity
  8
0
 62
     0
370
    -2
100
AcDbLine
 10
967.1360635778583
 20
-143.4839407742184
 30
0.0
 11
969.3011270873194
 21
-142.2339407742184
 31
0.0
  0
LINE
  5
176A
330
F1E
100
AcDbEntity
  8
0
 62
     0
370
    -2
100
AcDbLine
 10
941.6760263016447
 20
-158.1833001492183
 30
0.0
 11
939.5109627921836
 21
-159.4333001492183
 31
0.0
  0
MTEXT
  5
176B
330
F1E
100
AcDbEntity
  8
0
 62
     0
100
AcDbMText
 10
950.6464670134237
 20
-149.9942887681565
 30
0.0
 40
3.28125
 41
0.0
 46
0.0
 71
     5
 72
     1
  1
\A1;4-1/2"
  7
ROMANS
 73
     1
 44
1.0
  0
SOLID
  5
176C
330
F1E
100
AcDbEntity
  8
0
 62
     0
100
AcDbTrace
 10
966.927730244525
 20
-143.1230968559749
 30
0.0
 11
967.3443969111916
 21
-143.8447846924618
 31
0.0
 12
964.9710000683972
 22
-144.7339407742184
 32
0.0
 13
964.9710000683972
 23
-144.7339407742184
 33
0.0
  0
SOLID
  5
176D
330
F1E
100
AcDbEntity
  8
0
 62
     0
100
AcDbTrace
 10
941.4676929683114
 20
-157.8224562309748
 30
0.0
 11
941.884359634978
 21
-158.5441440674617
 31
0.0
 12
943.8410898111058
 22
-156.9333001492183
 32
0.0
 13
943.8410898111058
 23
-156.9333001492183
 33
0.0
  0
POINT
  5
176E
330
F1E
100
AcDbEntity
  8
DEFPOINTS
 62
     0
100
AcDbPoint
 10
970.5575852717986
 20
-147.959357245253
 30
0.0
  0
POINT
  5
176F
330
F1E
100
AcDbEntity
  8
DEFPOINTS
 62
     0
100
AcDbPoint
 10
949.4276750145072
 20
-160.1587166202529
 30
0.0
  0
POINT
  5
1770
330
F1E
100
AcDbEntity
  8
DEFPOINTS
 62
     0
100
AcDbPoint
 10
943.8410898111058
 20
-156.9333001492183
 30
0.0
  0
ENDBLK
  5
F2A
330
F1E
100
AcDbEntity
  8
0
100
AcDbBlockEnd
  0
BLOCK
  5
F36
330
F2B
100
AcDbEntity
  8
0
100
AcDbBlockBegin
  2
*D12
 70
     1
 10
0.0
 20
0.0
 30
0.0
  3
*D12
  1

  0
LINE
  5
1771
330
F2B
100
AcDbEntity
  8
0
 62
     0
370
    -2
100
AcDbLine
 10
973.0575852717988
 20
-146.5159815722789
 30
0.0
 11
982.0969814882001
 21
-141.2970837334277
 31
0.0
  0
LINE
  5
1772
330
F2B
100
AcDbEntity
  8
0
 62
     0
370
    -2
100
AcDbLine
 10
1017.958644568544
 20
-172.4396202441537
 30
0.0
 11
1026.998040784945
 21
-167.2207224053027
 31
0.0
  0
LINE
  5
1773
330
F2B
100
AcDbEntity
  8
0
 62
     0
370
    -2
100
AcDbLine
 10
981.7620449976612
 20
-143.9904594064017
 30
0.0
 11
993.3872570987283
 21
-150.7022787423391
 31
0.0
  0
LINE
  5
1774
330
F2B
100
AcDbEntity
  8
0
 62
     0
370
    -2
100
AcDbLine
 10
1022.332977275484
 20
-167.4140980782767
 30
0.0
 11
1010.707765174417
 21
-160.7022787423391
 31
0.0
  0
SOLID
  5
1775
330
F2B
100
AcDbEntity
  8
0
 62
     0
100
AcDbTrace
 10
981.9703783309945
 20
-143.6296154881582
 30
0.0
 11
981.5537116643278
 21
-144.3513033246453
 31
0.0
 12
979.5969814882001
 22
-142.7404594064018
 32
0.0
 13
979.5969814882001
 23
-142.7404594064018
 33
0.0
  0
SOLID
  5
1776
330
F2B
100
AcDbEntity
  8
0
 62
     0
100
AcDbTrace
 10
1022.541310608817
 20
-167.0532541600332
 30
0.0
 11
1022.124643942151
 21
-167.7749419965202
 31
0.0
 12
1024.498040784945
 22
-168.6640980782767
 32
0.0
 13
1024.498040784945
 23
-168.6640980782767
 33
0.0
  0
MTEXT
  5
1777
330
F2B
100
AcDbEntity
  8
0
 62
     0
100
AcDbMText
 10
1002.047511136572
 20
-155.7022787423392
 30
0.0
 40
3.28125
 41
0.0
 46
0.0
 71
     5
 72
     1
  1
\A1;8-1/2"
  7
ROMANS
 73
     1
 44
1.0
  0
POINT
  5
1778
330
F2B
100
AcDbEntity
  8
DEFPOINTS
 62
     0
100
AcDbPoint
 10
970.5575852717986
 20
-147.959357245253
 30
0.0
  0
POINT
  5
1779
330
F2B
100
AcDbEntity
  8
DEFPOINTS
 62
     0
100
AcDbPoint
 10
1015.458644568544
 20
-173.8829959171278
 30
0.0
  0
POINT
  5
177A
330
F2B
100
AcDbEntity
  8
DEFPOINTS
 62
     0
100
AcDbPoint
 10
1024.498040784945
 20
-168.6640980782767
 30
0.0
  0
ENDBLK
  5
F37
330
F2B
100
AcDbEntity
  8
0
100
AcDbBlockEnd
  0
BLOCK
  5
F43
330
F38
100
AcDbEntity
  8
0
100
AcDbBlockBegin
  2
*D13
 70
     1
 10
0.0
 20
0.0
 30
0.0
  3
*D13
  1

  0
LINE
  5
177B
330
F38
100
AcDbEntity
  8
0
 62
     0
370
    -2
100
AcDbLine
 10
1014.801292794653
 20
-25.34979278590373
 30
0.0
 11
1014.801292794653
 21
-79.97285992182717
 31
0.0
  0
LINE
  5
177C
330
F38
100
AcDbEntity
  8
0
 62
     0
370
    -2
100
AcDbLine
 10
946.1001209196536
 20
-25.34979278590373
 30
0.0
 11
946.1001209196536
 21
-79.97285992182717
 31
0.0
  0
LINE
  5
177D
330
F38
100
AcDbEntity
  8
0
 62
     0
370
    -2
100
AcDbLine
 10
1012.301292794653
 20
-77.47285992182717
 30
0.0
 11
993.6538318571535
 21
-77.47285992182717
 31
0.0
  0
LINE
  5
177E
330
F38
100
AcDbEntity
  8
0
 62
     0
370
    -2
100
AcDbLine
 10
948.6001209196535
 20
-77.47285992182717
 30
0.0
 11
967.2475818571536
 21
-77.47285992182717
 31
0.0
  0
SOLID
  5
177F
330
F38
100
AcDbEntity
  8
0
 62
     0
100
AcDbTrace
 10
1012.301292794653
 20
-77.0561932551605
 30
0.0
 11
1012.301292794653
 21
-77.88952658849384
 31
0.0
 12
1014.801292794653
 22
-77.47285992182717
 32
0.0
 13
1014.801292794653
 23
-77.47285992182717
 33
0.0
  0
SOLID
  5
1780
330
F38
100
AcDbEntity
  8
0
 62
     0
100
AcDbTrace
 10
948.6001209196535
 20
-77.0561932551605
 30
0.0
 11
948.6001209196535
 21
-77.88952658849384
 31
0.0
 12
946.1001209196536
 22
-77.47285992182717
 32
0.0
 13
946.1001209196536
 23
-77.47285992182717
 33
0.0
  0
MTEXT
  5
1781
330
F38
100
AcDbEntity
  8
0
 62
     0
100
AcDbMText
 10
980.4507068571536
 20
-77.47285992182717
 30
0.0
 40
3.28125
 41
0.0
 46
0.0
 71
     5
 72
     1
  1
\A1;33-1/2"
  7
ROMANS
 73
     1
 44
1.0
  0
POINT
  5
1782
330
F38
100
AcDbEntity
  8
DEFPOINTS
 62
     0
100
AcDbPoint
 10
1014.801292794653
 20
-22.84979278590373
 30
0.0
  0
POINT
  5
1783
330
F38
100
AcDbEntity
  8
DEFPOINTS
 62
     0
100
AcDbPoint
 10
946.1001209196536
 20
-22.84979278590373
 30
0.0
  0
POINT
  5
1784
330
F38
100
AcDbEntity
  8
DEFPOINTS
 62
     0
100
AcDbPoint
 10
946.1001209196536
 20
-77.47285992182717
 30
0.0
  0
ENDBLK
  5
F44
330
F38
100
AcDbEntity
  8
0
100
AcDbBlockEnd
  0
BLOCK
  5
F50
330
F45
100
AcDbEntity
  8
0
100
AcDbBlockBegin
  2
*D14
 70
     1
 10
0.0
 20
0.0
 30
0.0
  3
*D14
  1

  0
LINE
  5
1785
330
F45
100
AcDbEntity
  8
0
 62
     0
370
    -2
100
AcDbLine
 10
1011.859565054724
 20
-20.08839552583307
 30
0.0
 11
1011.859565054724
 21
-70.4671400760591
 31
0.0
  0
LINE
  5
1786
330
F45
100
AcDbEntity
  8
0
 62
     0
370
    -2
100
AcDbLine
 10
949.0418486595826
 20
-20.08839552583307
 30
0.0
 11
949.0418486595826
 21
-70.4671400760591
 31
0.0
  0
LINE
  5
1787
330
F45
100
AcDbEntity
  8
0
 62
     0
370
    -2
100
AcDbLine
 10
1009.359565054724
 20
-67.9671400760591
 30
0.0
 11
993.6538318571534
 21
-67.9671400760591
 31
0.0
  0
LINE
  5
1788
330
F45
100
AcDbEntity
  8
0
 62
     0
370
    -2
100
AcDbLine
 10
951.5418486595827
 20
-67.9671400760591
 30
0.0
 11
967.2475818571534
 21
-67.9671400760591
 31
0.0
  0
SOLID
  5
1789
330
F45
100
AcDbEntity
  8
0
 62
     0
100
AcDbTrace
 10
1009.359565054724
 20
-67.55047340939242
 30
0.0
 11
1009.359565054724
 21
-68.38380674272577
 31
0.0
 12
1011.859565054724
 22
-67.9671400760591
 32
0.0
 13
1011.859565054724
 23
-67.9671400760591
 33
0.0
  0
SOLID
  5
178A
330
F45
100
AcDbEntity
  8
0
 62
     0
100
AcDbTrace
 10
951.5418486595827
 20
-67.55047340939242
 30
0.0
 11
951.5418486595827
 21
-68.38380674272577
 31
0.0
 12
949.0418486595826
 22
-67.9671400760591
 32
0.0
 13
949.0418486595826
 23
-67.9671400760591
 33
0.0
  0
MTEXT
  5
178B
330
F45
100
AcDbEntity
  8
0
 62
     0
100
AcDbMText
 10
980.4507068571533
 20
-67.9671400760591
 30
0.0
 40
3.28125
 41
0.0
 46
0.0
 71
     5
 72
     1
  1
\A1;29-1/2"
  7
ROMANS
 73
     1
 44
1.0
  0
POINT
  5
178C
330
F45
100
AcDbEntity
  8
DEFPOINTS
 62
     0
100
AcDbPoint
 10
1011.859565054724
 20
-17.58839552583306
 30
0.0
  0
POINT
  5
178D
330
F45
100
AcDbEntity
  8
DEFPOINTS
 62
     0
100
AcDbPoint
 10
949.0418486595826
 20
-17.58839552583306
 30
0.0
  0
POINT
  5
178E
330
F45
100
AcDbEntity
  8
DEFPOINTS
 62
     0
100
AcDbPoint
 10
949.0418486595826
 20
-67.9671400760591
 30
0.0
  0
ENDBLK
  5
F51
330
F45
100
AcDbEntity
  8
0
100
AcDbBlockEnd
  0
BLOCK
  5
F5D
330
F52
100
AcDbEntity
  8
0
100
AcDbBlockBegin
  2
*D15
 70
     1
 10
0.0
 20
0.0
 30
0.0
  3
*D15
  1

  0
LINE
  5
178F
330
F52
100
AcDbEntity
  8
0
 62
     0
370
    -2
100
AcDbLine
 10
982.9507068571533
 20
-48.99725372340373
 30
0.0
 11
1029.497409152491
 21
-48.99725372340373
 31
0.0
  0
LINE
  5
1790
330
F52
100
AcDbEntity
  8
0
 62
     0
370
    -2
100
AcDbLine
 10
982.9507068571535
 20
-57.20037872340377
 30
0.0
 11
1029.497409152491
 21
-57.20037872340377
 31
0.0
  0
LINE
  5
1791
330
F52
100
AcDbEntity
  8
0
 62
     0
370
    -2
100
AcDbLine
 10
1026.997409152491
 20
-46.49725372340373
 30
0.0
 11
1026.997409152491
 21
-43.99725372340373
 31
0.0
  0
LINE
  5
1792
330
F52
100
AcDbEntity
  8
0
 62
     0
370
    -2
100
AcDbLine
 10
1026.997409152491
 20
-59.70037872340377
 30
0.0
 11
1026.997409152491
 21
-62.20037872340377
 31
0.0
  0
MTEXT
  5
1793
330
F52
100
AcDbEntity
  8
0
 62
     0
100
AcDbMText
 10
1027.331336126073
 20
-53.50143211989202
 30
0.0
 40
3.28125
 41
0.0
 46
0.0
 71
     5
 72
     1
  1
\A1;4"
  7
ROMANS
 73
     1
 44
1.0
  0
SOLID
  5
1794
330
F52
100
AcDbEntity
  8
0
 62
     0
100
AcDbTrace
 10
1026.580742485824
 20
-46.49725372340373
 30
0.0
 11
1027.414075819158
 21
-46.49725372340373
 31
0.0
 12
1026.997409152491
 22
-48.99725372340373
 32
0.0
 13
1026.997409152491
 23
-48.99725372340373
 33
0.0
  0
SOLID
  5
1795
330
F52
100
AcDbEntity
  8
0
 62
     0
100
AcDbTrace
 10
1026.580742485824
 20
-59.70037872340377
 30
0.0
 11
1027.414075819158
 21
-59.70037872340377
 31
0.0
 12
1026.997409152491
 22
-57.20037872340377
 32
0.0
 13
1026.997409152491
 23
-57.20037872340377
 33
0.0
  0
POINT
  5
1796
330
F52
100
AcDbEntity
  8
DEFPOINTS
 62
     0
100
AcDbPoint
 10
980.4507068571533
 20
-48.99725372340373
 30
0.0
  0
POINT
  5
1797
330
F52
100
AcDbEntity
  8
DEFPOINTS
 62
     0
100
AcDbPoint
 10
980.4507068571536
 20
-57.20037872340377
 30
0.0
  0
POINT
  5
1798
330
F52
100
AcDbEntity
  8
DEFPOINTS
 62
     0
100
AcDbPoint
 10
1026.997409152491
 20
-57.20037872340377
 30
0.0
  0
ENDBLK
  5
F5E
330
F52
100
AcDbEntity
  8
0
100
AcDbBlockEnd
  0
BLOCK
  5
F6A
330
F5F
100
AcDbEntity
  8
0
100
AcDbBlockBegin
  2
*D16
 70
     1
 10
0.0
 20
0.0
 30
0.0
  3
*D16
  1

  0
LINE
  5
1799
330
F5F
100
AcDbEntity
  8
0
 62
     0
370
    -2
100
AcDbLine
 10
1003.521995919653
 20
25.2800900265962
 30
0.0
 11
1003.521995919653
 21
34.0899000438811
 31
0.0
  0
LINE
  5
179A
330
F5F
100
AcDbEntity
  8
0
 62
     0
370
    -2
100
AcDbLine
 10
957.3794177946536
 20
25.2800900265962
 30
0.0
 11
957.3794177946536
 21
34.0899000438811
 31
0.0
  0
LINE
  5
179B
330
F5F
100
AcDbEntity
  8
0
 62
     0
370
    -2
100
AcDbLine
 10
1001.021995919654
 20
31.5899000438811
 30
0.0
 11
993.6538318571535
 21
31.5899000438811
 31
0.0
  0
LINE
  5
179C
330
F5F
100
AcDbEntity
  8
0
 62
     0
370
    -2
100
AcDbLine
 10
959.8794177946535
 20
31.5899000438811
 30
0.0
 11
967.2475818571536
 21
31.5899000438811
 31
0.0
  0
SOLID
  5
179D
330
F5F
100
AcDbEntity
  8
0
 62
     0
100
AcDbTrace
 10
1001.021995919654
 20
32.00656671054776
 30
0.0
 11
1001.021995919654
 21
31.17323337721443
 31
0.0
 12
1003.521995919653
 22
31.5899000438811
 32
0.0
 13
1003.521995919653
 23
31.5899000438811
 33
0.0
  0
SOLID
  5
179E
330
F5F
100
AcDbEntity
  8
0
 62
     0
100
AcDbTrace
 10
959.8794177946535
 20
32.00656671054776
 30
0.0
 11
959.8794177946535
 21
31.17323337721443
 31
0.0
 12
957.3794177946536
 22
31.5899000438811
 32
0.0
 13
957.3794177946536
 23
31.5899000438811
 33
0.0
  0
MTEXT
  5
179F
330
F5F
100
AcDbEntity
  8
0
 62
     0
100
AcDbMText
 10
980.4507068571536
 20
31.5899000438811
 30
0.0
 40
3.28125
 41
0.0
 46
0.0
 71
     5
 72
     1
  1
\A1;22-1/8"
  7
ROMANS
 73
     1
 44
1.0
  0
POINT
  5
17A0
330
F5F
100
AcDbEntity
  8
DEFPOINTS
 62
     0
100
AcDbPoint
 10
1003.521995919653
 20
22.7800900265962
 30
0.0
  0
POINT
  5
17A1
330
F5F
100
AcDbEntity
  8
DEFPOINTS
 62
     0
100
AcDbPoint
 10
957.3794177946536
 20
22.7800900265962
 30
0.0
  0
POINT
  5
17A2
330
F5F
100
AcDbEntity
  8
DEFPOINTS
 62
     0
100
AcDbPoint
 10
957.3794177946536
 20
31.5899000438811
 30
0.0
  0
ENDBLK
  5
F6B
330
F5F
100
AcDbEntity
  8
0
100
AcDbBlockEnd
  0
BLOCK
  5
F77
330
F6C
100
AcDbEntity
  8
0
100
AcDbBlockBegin
  2
*D17
 70
     1
 10
0.0
 20
0.0
 30
0.0
  3
*D17
  1

  0
LINE
  5
17A3
330
F6C
100
AcDbEntity
  8
0
 62
     0
370
    -2
100
AcDbLine
 10
1005.060081857154
 20
2.848449401596198
 30
0.0
 11
1005.060081857154
 21
-3.927101934193998
 31
0.0
  0
LINE
  5
17A4
330
F6C
100
AcDbEntity
  8
0
 62
     0
370
    -2
100
AcDbLine
 10
955.8413318571536
 20
2.848449401596198
 30
0.0
 11
955.8413318571536
 21
-3.927101934193998
 31
0.0
  0
LINE
  5
17A5
330
F6C
100
AcDbEntity
  8
0
 62
     0
370
    -2
100
AcDbLine
 10
1002.560081857153
 20
-1.427101934193998
 30
0.0
 11
986.7788318571536
 21
-1.427101934193998
 31
0.0
  0
LINE
  5
17A6
330
F6C
100
AcDbEntity
  8
0
 62
     0
370
    -2
100
AcDbLine
 10
958.3413318571535
 20
-1.427101934193998
 30
0.0
 11
974.1225818571535
 21
-1.427101934193998
 31
0.0
  0
SOLID
  5
17A7
330
F6C
100
AcDbEntity
  8
0
 62
     0
100
AcDbTrace
 10
1002.560081857153
 20
-1.010435267527332
 30
0.0
 11
1002.560081857153
 21
-1.843768600860665
 31
0.0
 12
1005.060081857154
 22
-1.427101934193998
 32
0.0
 13
1005.060081857154
 23
-1.427101934193998
 33
0.0
  0
SOLID
  5
17A8
330
F6C
100
AcDbEntity
  8
0
 62
     0
100
AcDbTrace
 10
958.3413318571535
 20
-1.010435267527332
 30
0.0
 11
958.3413318571535
 21
-1.843768600860665
 31
0.0
 12
955.8413318571536
 22
-1.427101934193998
 32
0.0
 13
955.8413318571536
 23
-1.427101934193998
 33
0.0
  0
MTEXT
  5
17A9
330
F6C
100
AcDbEntity
  8
0
 62
     0
100
AcDbMText
 10
980.4507068571536
 20
-1.427101934193998
 30
0.0
 40
3.28125
 41
0.0
 46
0.0
 71
     5
 72
     1
  1
\A1;24"
  7
ROMANS
 73
     1
 44
1.0
  0
POINT
  5
17AA
330
F6C
100
AcDbEntity
  8
DEFPOINTS
 62
     0
100
AcDbPoint
 10
1005.060081857154
 20
5.348449401596198
 30
0.0
  0
POINT
  5
17AB
330
F6C
100
AcDbEntity
  8
DEFPOINTS
 62
     0
100
AcDbPoint
 10
955.8413318571536
 20
5.348449401596198
 30
0.0
  0
POINT
  5
17AC
330
F6C
100
AcDbEntity
  8
DEFPOINTS
 62
     0
100
AcDbPoint
 10
955.8413318571536
 20
-1.427101934193998
 30
0.0
  0
ENDBLK
  5
F78
330
F6C
100
AcDbEntity
  8
0
100
AcDbBlockEnd
  0
BLOCK
  5
F84
330
F79
100
AcDbEntity
  8
0
100
AcDbBlockBegin
  2
*D18
 70
     1
 10
0.0
 20
0.0
 30
0.0
  3
*D18
  1

  0
LINE
  5
17AD
330
F79
100
AcDbEntity
  8
0
 62
     0
370
    -2
100
AcDbLine
 10
1010.123558419653
 20
8.424621276596269
 30
0.0
 11
1029.497409152491
 21
8.424621276596262
 31
0.0
  0
LINE
  5
17AE
330
F79
100
AcDbEntity
  8
0
 62
     0
370
    -2
100
AcDbLine
 10
1010.123558419653
 20
22.7800900265962
 30
0.0
 11
1029.497409152491
 21
22.7800900265962
 31
0.0
  0
LINE
  5
17AF
330
F79
100
AcDbEntity
  8
0
 62
     0
370
    -2
100
AcDbLine
 10
1026.997409152491
 20
10.92462127659626
 30
0.0
 11
1026.997409152491
 21
11.19698539698652
 31
0.0
  0
LINE
  5
17B0
330
F79
100
AcDbEntity
  8
0
 62
     0
370
    -2
100
AcDbLine
 10
1026.997409152491
 20
20.2800900265962
 30
0.0
 11
1026.997409152491
 21
20.10323539698652
 31
0.0
  0
MTEXT
  5
17B1
330
F79
100
AcDbEntity
  8
0
 62
     0
100
AcDbMText
 10
1027.761326639557
 20
15.65011039698668
 30
0.0
 40
3.28125
 41
0.0
 46
0.0
 71
     5
 72
     1
  1
\A1;7"
  7
ROMANS
 73
     1
 44
1.0
  0
SOLID
  5
17B2
330
F79
100
AcDbEntity
  8
0
 62
     0
100
AcDbTrace
 10
1026.580742485824
 20
10.92462127659626
 30
0.0
 11
1027.414075819158
 21
10.92462127659626
 31
0.0
 12
1026.997409152491
 22
8.424621276596264
 32
0.0
 13
1026.997409152491
 23
8.424621276596264
 33
0.0
  0
SOLID
  5
17B3
330
F79
100
AcDbEntity
  8
0
 62
     0
100
AcDbTrace
 10
1026.580742485824
 20
20.2800900265962
 30
0.0
 11
1027.414075819158
 21
20.2800900265962
 31
0.0
 12
1026.997409152491
 22
22.7800900265962
 32
0.0
 13
1026.997409152491
 23
22.7800900265962
 33
0.0
  0
POINT
  5
17B4
330
F79
100
AcDbEntity
  8
DEFPOINTS
 62
     0
100
AcDbPoint
 10
1007.623558419654
 20
8.424621276596269
 30
0.0
  0
POINT
  5
17B5
330
F79
100
AcDbEntity
  8
DEFPOINTS
 62
     0
100
AcDbPoint
 10
1007.623558419654
 20
22.7800900265962
 30
0.0
  0
POINT
  5
17B6
330
F79
100
AcDbEntity
  8
DEFPOINTS
 62
     0
100
AcDbPoint
 10
1026.997409152491
 20
22.7800900265962
 30
0.0
  0
ENDBLK
  5
F85
330
F79
100
AcDbEntity
  8
0
100
AcDbBlockEnd
  0
BLOCK
  5
106D
330
1063
100
AcDbEntity
  8
0
100
AcDbBlockBegin
  2
*D19
 70
     1
 10
0.0
 20
0.0
 30
0.0
  3
*D19
  1

  0
LINE
  5
16F9
330
1063
100
AcDbEntity
  8
0
 62
     0
370
    -2
100
AcDbLine
 10
870.0815378899545
 20
-145.7112133912152
 30
0.0
 11
884.9600946400691
 21
-145.7112133912152
 31
0.0
  0
LINE
  5
16FA
330
1063
100
AcDbEntity
  8
0
 62
     0
370
    -2
100
AcDbLine
 10
870.0815378899545
 20
-157.7112133912152
 30
0.0
 11
884.9600946400691
 21
-157.7112133912152
 31
0.0
  0
LINE
  5
16FB
330
1063
100
AcDbEntity
  8
0
 62
     0
370
    -2
100
AcDbLine
 10
882.4600946400691
 20
-143.2112133912152
 30
0.0
 11
882.4600946400691
 21
-140.7112133912152
 31
0.0
  0
LINE
  5
16FC
330
1063
100
AcDbEntity
  8
0
 62
     0
370
    -2
100
AcDbLine
 10
882.4600946400691
 20
-160.2112133912152
 30
0.0
 11
882.4600946400691
 21
-162.7112133912152
 31
0.0
  0
MTEXT
  5
16FD
330
1063
100
AcDbEntity
  8
0
 62
     0
100
AcDbMText
 10
882.4130858926293
 20
-151.8904077947038
 30
0.0
 40
3.28125
 41
0.0
 46
0.0
 71
     5
 72
     1
  1
\A1;12" TYP
  7
ROMANS
 73
     1
 44
1.0
  0
SOLID
  5
16FE
330
1063
100
AcDbEntity
  8
0
 62
     0
100
AcDbTrace
 10
882.0434279734026
 20
-143.2112133912152
 30
0.0
 11
882.8767613067357
 21
-143.2112133912152
 31
0.0
 12
882.4600946400691
 22
-145.7112133912152
 32
0.0
 13
882.4600946400691
 23
-145.7112133912152
 33
0.0
  0
SOLID
  5
16FF
330
1063
100
AcDbEntity
  8
0
 62
     0
100
AcDbTrace
 10
882.0434279734026
 20
-160.2112133912152
 30
0.0
 11
882.8767613067357
 21
-160.2112133912152
 31
0.0
 12
882.4600946400691
 22
-157.7112133912152
 32
0.0
 13
882.4600946400691
 23
-157.7112133912152
 33
0.0
  0
POINT
  5
1700
330
1063
100
AcDbEntity
  8
DEFPOINTS
 62
     0
100
AcDbPoint
 10
867.5815378899544
 20
-145.7112133912152
 30
0.0
  0
POINT
  5
1701
330
1063
100
AcDbEntity
  8
DEFPOINTS
 62
     0
100
AcDbPoint
 10
867.5815378899544
 20
-157.7112133912152
 30
0.0
  0
POINT
  5
1702
330
1063
100
AcDbEntity
  8
DEFPOINTS
 62
     0
100
AcDbPoint
 10
882.4600946400691
 20
-157.7112133912152
 30
0.0
  0
ENDBLK
  5
106E
330
1063
100
AcDbEntity
  8
0
100
AcDbBlockEnd
  0
BLOCK
  5
1196
330
118B
100
AcDbEntity
  8
0
100
AcDbBlockBegin
  2
*D20
 70
     1
 10
0.0
 20
0.0
 30
0.0
  3
*D20
  1

  0
LINE
  5
1717
330
118B
100
AcDbEntity
  8
0
 62
     0
370
    -2
100
AcDbLine
 10
870.0815378899545
 20
-13.71121339121524
 30
0.0
 11
905.3481497858198
 21
-13.71121339121525
 31
0.0
  0
LINE
  5
1718
330
118B
100
AcDbEntity
  8
0
 62
     0
370
    -2
100
AcDbLine
 10
873.4062008603119
 20
28.28878660878478
 30
0.0
 11
905.3481497858198
 21
28.28878660878478
 31
0.0
  0
LINE
  5
1719
330
118B
100
AcDbEntity
  8
0
 62
     0
370
    -2
100
AcDbLine
 10
902.84814978582
 20
-11.21121339121525
 30
0.0
 11
902.84814978582
 21
2.835661608784765
 31
0.0
  0
LINE
  5
171A
330
118B
100
AcDbEntity
  8
0
 62
     0
370
    -2
100
AcDbLine
 10
902.84814978582
 20
25.78878660878478
 30
0.0
 11
902.84814978582
 21
11.74191160878476
 31
0.0
  0
SOLID
  5
171B
330
118B
100
AcDbEntity
  8
0
 62
     0
100
AcDbTrace
 10
902.4314831191533
 20
-11.21121339121525
 30
0.0
 11
903.2648164524866
 21
-11.21121339121525
 31
0.0
 12
902.84814978582
 22
-13.71121339121525
 32
0.0
 13
902.84814978582
 23
-13.71121339121525
 33
0.0
  0
SOLID
  5
171C
330
118B
100
AcDbEntity
  8
0
 62
     0
100
AcDbTrace
 10
902.4314831191533
 20
25.78878660878478
 30
0.0
 11
903.2648164524866
 21
25.78878660878478
 31
0.0
 12
902.84814978582
 22
28.28878660878478
 32
0.0
 13
902.84814978582
 23
28.28878660878478
 33
0.0
  0
MTEXT
  5
171D
330
118B
100
AcDbEntity
  8
0
 62
     0
100
AcDbMText
 10
902.84814978582
 20
7.288786608784909
 30
0.0
 40
3.28125
 41
0.0
 46
0.0
 71
     5
 72
     1
  1
\A1;42"
  7
ROMANS
 73
     1
 44
1.0
  0
POINT
  5
171E
330
118B
100
AcDbEntity
  8
DEFPOINTS
 62
     0
100
AcDbPoint
 10
867.5815378899544
 20
-13.71121339121524
 30
0.0
  0
POINT
  5
171F
330
118B
100
AcDbEntity
  8
DEFPOINTS
 62
     0
100
AcDbPoint
 10
870.9062008603119
 20
28.28878660878479
 30
0.0
  0
POINT
  5
1720
330
118B
100
AcDbEntity
  8
DEFPOINTS
 62
     0
100
AcDbPoint
 10
902.84814978582
 20
28.28878660878478
 30
0.0
  0
ENDBLK
  5
1197
330
118B
100
AcDbEntity
  8
0
100
AcDbBlockEnd
  0
BLOCK
  5
11A3
330
1198
100
AcDbEntity
  8
0
100
AcDbBlockBegin
  2
*D21
 70
     1
 10
0.0
 20
0.0
 30
0.0
  3
*D21
  1

  0
LINE
  5
172B
330
1198
100
AcDbEntity
  8
0
 62
     0
370
    -2
100
AcDbLine
 10
870.0815378899545
 20
-13.71121339121524
 30
0.0
 11
884.9600946400691
 21
-13.71121339121524
 31
0.0
  0
LINE
  5
172C
330
1198
100
AcDbEntity
  8
0
 62
     0
370
    -2
100
AcDbLine
 10
873.156200860312
 20
-19.71121339121524
 30
0.0
 11
884.9600946400691
 21
-19.71121339121524
 31
0.0
  0
LINE
  5
172D
330
1198
100
AcDbEntity
  8
0
 62
     0
370
    -2
100
AcDbLine
 10
882.4600946400691
 20
-11.21121339121524
 30
0.0
 11
882.4600946400691
 21
-8.711213391215244
 31
0.0
  0
LINE
  5
172E
330
1198
100
AcDbEntity
  8
0
 62
     0
370
    -2
100
AcDbLine
 10
882.4600946400691
 20
-22.21121339121524
 30
0.0
 11
882.4600946400691
 21
-24.71121339121524
 31
0.0
  0
MTEXT
  5
172F
330
1198
100
AcDbEntity
  8
0
 62
     0
100
AcDbMText
 10
883.826026204799
 20
-16.94564927221886
 30
0.0
 40
3.28125
 41
0.0
 46
0.0
 71
     5
 72
     1
  1
\A1;6"
  7
ROMANS
 73
     1
 44
1.0
  0
SOLID
  5
1730
330
1198
100
AcDbEntity
  8
0
 62
     0
100
AcDbTrace
 10
882.0434279734026
 20
-11.21121339121524
 30
0.0
 11
882.8767613067357
 21
-11.21121339121524
 31
0.0
 12
882.4600946400691
 22
-13.71121339121524
 32
0.0
 13
882.4600946400691
 23
-13.71121339121524
 33
0.0
  0
SOLID
  5
1731
330
1198
100
AcDbEntity
  8
0
 62
     0
100
AcDbTrace
 10
882.0434279734026
 20
-22.21121339121524
 30
0.0
 11
882.8767613067357
 21
-22.21121339121524
 31
0.0
 12
882.4600946400691
 22
-19.71121339121524
 32
0.0
 13
882.4600946400691
 23
-19.71121339121524
 33
0.0
  0
POINT
  5
1732
330
1198
100
AcDbEntity
  8
DEFPOINTS
 62
     0
100
AcDbPoint
 10
867.5815378899544
 20
-13.71121339121524
 30
0.0
  0
POINT
  5
1733
330
1198
100
AcDbEntity
  8
DEFPOINTS
 62
     0
100
AcDbPoint
 10
870.6562008603119
 20
-19.71121339121524
 30
0.0
  0
POINT
  5
1734
330
1198
100
AcDbEntity
  8
DEFPOINTS
 62
     0
100
AcDbPoint
 10
882.4600946400691
 20
-19.71121339121524
 30
0.0
  0
ENDBLK
  5
11A4
330
1198
100
AcDbEntity
  8
0
100
AcDbBlockEnd
  0
BLOCK
  5
1258
330
124D
100
AcDbEntity
  8
0
100
AcDbBlockBegin
  2
A$C18BE6784
 70
     0
 10
0.0
 20
0.0
 30
0.0
  3
A$C18BE6784
  1

  0
TEXT
  5
124E
330
124D
100
AcDbEntity
  8
0
100
AcDbText
 10
333.0917172637234
 20
3.265304259750614
 30
0.0
 40
2.671875
  1
LADDER RATED AT 1,500 LBS
  7
ROMANS
100
AcDbText
  0
TEXT
  5
124F
330
124D
100
AcDbEntity
  8
0
100
AcDbText
 10
210.1736002157133
 20
4.866814408482063
 30
0.0
 40
2.671875
  1
INDIVIDUAL TREAD TESTED AT 
  7
ROMANS
100
AcDbText
  0
TEXT
  5
1250
330
124D
100
AcDbEntity
  8
0
100
AcDbText
 10
210.1736002157133
 20
1.026460025756641
 30
0.0
 40
2.671875
  1
3,000 LBS WITHOUT FAIL
  7
ROMANS
100
AcDbText
  0
TEXT
  5
1251
330
124D
100
AcDbEntity
  8
0
100
AcDbText
 10
19.77899148873324
 20
4.981936793818583
 30
0.0
 40
2.671875
  1
LADDERS MANUFACTURED BY PRECISION LADDERS, LLC
  7
ROMANS
100
AcDbText
  0
TEXT
  5
1252
330
124D
100
AcDbEntity
  8
0
100
AcDbText
 10
19.77899148873324
 20
0.9831143687693426
 30
0.0
 40
2.671875
  1
COMPLY WITH OSHA 1910.27 AND ANSI 14.3
  7
ROMANS
100
AcDbText
  0
LINE
  5
1253
330
124D
100
AcDbEntity
  8
0
 62
     1
100
AcDbLine
 10
415.9375005884102
 20
8.757492746276504
 30
0.0
 11
0.0000005884102379
 21
8.757492746276803
 31
0.0
  0
LINE
  5
1254
330
124D
100
AcDbEntity
  8
0
 62
     1
100
AcDbLine
 10
158.4678446581418
 20
8.757492746276689
 30
0.0
 11
158.4678446581418
 21
-0.0000003135488313
 31
0.0
  0
LINE
  5
1255
330
124D
100
AcDbEntity
  8
0
 62
     1
100
AcDbLine
 10
306.6229060592295
 20
8.757492746276575
 30
0.0
 11
306.6229060592295
 21
0.0074927462767818
 31
0.0
  0
ENDBLK
  5
1259
330
124D
100
AcDbEntity
  8
0
100
AcDbBlockEnd
  0
BLOCK
  5
1376
330
1363
100
AcDbEntity
  8
0
100
AcDbBlockBegin
  2
A$C00294823
 70
     0
 10
0.0
 20
0.0
 30
0.0
  3
A$C00294823
  1

  0
INSERT
  5
1364
330
1363
100
AcDbEntity
  8
0
100
AcDbBlockReference
 66
     1
  2
BORDER-T
 10
-192.7629129657985
 20
-0.4425695963140655
 30
0.0
 41
1.62839531250006
 42
1.628395312500011
 43
1.6283953125
  0
ATTRIB
  5
1365
330
1364
100
AcDbEntity
  8
0
 62
     5
100
AcDbText
 10
-190.6938770904996
 20
27.1635520621597
 30
0.0
 40
3.663889453125
  1

  7
ROMANS
100
AcDbAttribute
  2
SCALE
 70
     0
280
     0
  0
ATTRIB
  5
1366
330
1364
100
AcDbEntity
  8
0
100
AcDbText
 10
236.0430090669801
 20
36.22553562131485
 30
0.0
 40
2.852681428894043
  1
FL-09
  7
ROMANS
 72
     4
 11
242.9030286936063
 21
37.65187633576187
 31
0.0
100
AcDbAttribute
  2
SAVEDAS
 70
     0
280
     0
  0
ATTRIB
  5
1367
330
1364
100
AcDbEntity
  8
0
 62
     5
100
AcDbText
 10
-85.65957057445098
 20
21.52626723583459
 30
0.0
 40
2.032500766888786
  1

 50
90.0
  7
ROMANS
 72
     4
 11
-85.65957057445098
 21
21.52626723583459
 31
0.0
100
AcDbAttribute
  2
X
 70
     0
280
     0
  0
ATTRIB
  5
1368
330
1364
100
AcDbEntity
  8
0
100
AcDbText
 10
3.90949402377987
 20
17.74384415008684
 30
0.0
 40
2.880679694416071
  1

  7
ROMANS
 72
     1
 11
3.90949402377987
 21
17.74384415008684
 31
0.0
100
AcDbAttribute
  2
ARCHORENG
 70
     0
280
     0
  0
ATTRIB
  5
1369
330
1364
100
AcDbEntity
  8
0
100
AcDbText
 10
3.90949402377987
 20
9.352035208939483
 30
0.0
 40
2.880679694416071
  1

  7
ROMANS
 72
     1
 11
3.90949402377987
 21
9.352035208939483
 31
0.0
100
AcDbAttribute
  2
PURCHASEORDER
 70
     0
280
     0
  0
ATTRIB
  5
136A
330
1364
100
AcDbEntity
  8
0
100
AcDbText
 10
-0.5487007413878598
 20
0.9602262677919526
 30
0.0
 40
2.880679694416071
  1
DNH
  7
ROMANS
 72
     1
 11
3.90949402377987
 21
0.9602262677919526
 31
0.0
100
AcDbAttribute
  2
DRAWNBY
 70
     0
280
     0
  0
ATTRIB
  5
136B
330
1364
100
AcDbEntity
  8
0
100
AcDbText
 10
53.17484949420395
 20
9.352035208939483
 30
0.0
 40
2.880679694416071
  1

  7
ROMANS
 72
     1
 11
53.17484949420395
 21
9.352035208939483
 31
0.0
100
AcDbAttribute
  2
REV
 70
     0
280
     0
  0
ATTRIB
  5
136C
330
1364
100
AcDbEntity
  8
0
100
AcDbText
 10
43.09247056374771
 20
0.9602262677919526
 30
0.0
 40
2.880679694416071
  1
10/2/15
  7
ROMANS
 72
     1
 11
53.17484949420395
 21
0.9602262677919526
 31
0.0
100
AcDbAttribute
  2
DATE
 70
     0
280
     0
  0
ATTRIB
  5
136D
330
1364
100
AcDbEntity
  8
0
100
AcDbText
 10
102.440204964628
 20
17.74384415008684
 30
0.0
 40
2.880679694416071
  1

  7
ROMANS
 72
     1
 11
102.440204964628
 21
17.74384415008684
 31
0.0
100
AcDbAttribute
  2
PROJECT
 70
     0
280
     0
  0
ATTRIB
  5
136E
330
1364
100
AcDbEntity
  8
0
100
AcDbText
 10
115.8762110020163
 20
9.352035208939483
 30
0.0
 40
2.880679694416071
  1

  7
ROMANS
 72
     1
 11
115.8762110020163
 21
9.352035208939483
 31
0.0
100
AcDbAttribute
  2
PURCHASER
 70
     0
280
     0
  0
ATTRIB
  5
136F
330
1364
100
AcDbEntity
  8
0
100
AcDbText
 10
102.735029325677
 20
0.960226267792116
 30
0.0
 40
2.880679694416071
  1
FL-
  7
ROMANS
 72
     1
 11
106.9188736437574
 21
0.960226267792116
 31
0.0
100
AcDbAttribute
  2
MODEL
 70
     0
280
     0
  0
ATTRIB
  5
1370
330
1364
100
AcDbEntity
  8
0
100
AcDbText
 10
156.1842291141815
 20
0.9602262677919526
 30
0.0
 40
2.880679694416071
  1

  7
ROMANS
 72
     1
 11
156.1842291141815
 21
0.9602262677919526
 31
0.0
100
AcDbAttribute
  2
QTY
 70
     0
280
     0
  0
ATTRIB
  5
1371
330
1364
100
AcDbEntity
  8
0
100
AcDbText
 10
209.9282532637351
 20
17.74275444628992
 30
0.0
 40
2.880679694416071
  1

  7
ROMANS
 72
     1
 11
209.9282532637351
 21
17.74275444628992
 31
0.0
100
AcDbAttribute
  2
REP
 70
     0
280
     0
  0
ATTRIB
  5
1372
330
1364
100
AcDbEntity
  8
0
100
AcDbText
 10
209.9838944236871
 20
4.692149498229412
 30
0.0
 40
5.626327528156389
  1

  7
ROMANS
 72
     1
 11
209.9838944236871
 21
4.692149498229412
 31
0.0
100
AcDbAttribute
  2
L010000
 70
     0
280
     0
  0
SEQEND
  5
1373
330
1364
100
AcDbEntity
  8
0
  0
ENDBLK
  5
1377
330
1363
100
AcDbEntity
  8
0
100
AcDbBlockEnd
  0
BLOCK
  5
138B
330
138A
100
AcDbEntity
  8
0
100
AcDbBlockBegin
  2
*X24
 70
     1
 10
0.0
 20
0.0
 30
0.0
  3
*X24
  1

  0
LINE
  5
138C
330
138A
100
AcDbEntity
  8
0
 62
     0
100
AcDbLine
 10
-39.38783740946116
 20
-279.4947837961181
 30
0.0
 11
-38.65407559127778
 21
-278.7610219779348
 31
0.0
  0
LINE
  5
138D
330
138A
100
AcDbEntity
  8
0
 62
     0
100
AcDbLine
 10
-39.50054631068232
 20
-279.4749101758668
 30
0.0
 11
-38.76678449249896
 21
-278.7411483576835
 31
0.0
  0
LINE
  5
138E
330
138A
100
AcDbEntity
  8
0
 62
     0
100
AcDbLine
 10
-39.61325521190351
 20
-279.4550365556156
 30
0.0
 11
-38.87949339372014
 21
-278.7212747374322
 31
0.0
  0
LINE
  5
138F
330
138A
100
AcDbEntity
  8
0
 62
     0
100
AcDbLine
 10
-39.7259641131247
 20
-279.4351629353642
 30
0.0
 11
-38.99220229494132
 21
-278.7014011171809
 31
0.0
  0
LINE
  5
1390
330
138A
100
AcDbEntity
  8
0
 62
     0
100
AcDbLine
 10
-39.83867301434587
 20
-279.415289315113
 30
0.0
 11
-39.1049111961625
 21
-278.6815274969296
 31
0.0
  0
LINE
  5
1391
330
138A
100
AcDbEntity
  8
0
 62
     0
100
AcDbLine
 10
-39.95138191556705
 20
-279.3954156948617
 30
0.0
 11
-39.21762009738368
 21
-278.6616538766783
 31
0.0
  0
LINE
  5
1392
330
138A
100
AcDbEntity
  8
0
 62
     0
100
AcDbLine
 10
-40.06409081678821
 20
-279.3755420746104
 30
0.0
 11
-39.33032899860484
 21
-278.641780256427
 31
0.0
  0
LINE
  5
1393
330
138A
100
AcDbEntity
  8
0
 62
     0
100
AcDbLine
 10
-40.1767997180094
 20
-279.3556684543591
 30
0.0
 11
-40.06372011526283
 21
-279.2425888516125
 31
0.0
  0
LINE
  5
1394
330
138A
100
AcDbEntity
  8
0
 62
     0
100
AcDbLine
 10
-39.89688315430998
 20
-279.0757518906596
 30
0.0
 11
-39.44303789982602
 21
-278.6219066361756
 31
0.0
  0
LINE
  5
1395
330
138A
100
AcDbEntity
  8
0
 62
     0
100
AcDbLine
 10
-40.06372011526283
 20
-279.2425888516125
 30
0.0
 11
-39.89688315430998
 21
-279.0757518906597
 31
0.0
  0
LINE
  5
1396
330
138A
100
AcDbEntity
  8
0
 62
     0
100
AcDbLine
 10
-40.28950861923056
 20
-279.3357948341077
 30
0.0
 11
-40.10500766087813
 21
-279.1512938757553
 31
0.0
  0
LINE
  5
1397
330
138A
100
AcDbEntity
  8
0
 62
     0
100
AcDbLine
 10
-39.94078059974761
 20
-278.9870668146248
 30
0.0
 11
-39.5557468010472
 21
-278.6020330159244
 31
0.0
  0
LINE
  5
1398
330
138A
100
AcDbEntity
  8
0
 62
     0
100
AcDbLine
 10
-40.10500766087811
 20
-279.1512938757553
 30
0.0
 11
-39.9407805997476
 21
-278.9870668146248
 31
0.0
  0
LINE
  5
1399
330
138A
100
AcDbEntity
  8
0
 62
     0
100
AcDbLine
 10
-40.36990717715883
 20
-279.2836108705636
 30
0.0
 11
-40.1462952064934
 21
-279.0599988998982
 31
0.0
  0
LINE
  5
139A
330
138A
100
AcDbEntity
  8
0
 62
     0
100
AcDbLine
 10
-39.98467804518519
 20
-278.8983817385899
 30
0.0
 11
-39.66845570226838
 21
-278.5821593956731
 31
0.0
  0
LINE
  5
139B
330
138A
100
AcDbEntity
  8
0
 62
     0
100
AcDbLine
 10
-40.14629520649338
 20
-279.0599988998981
 30
0.0
 11
-39.98467804518524
 21
-278.89838173859
 31
0.0
  0
LINE
  5
139C
330
138A
100
AcDbEntity
  8
0
 62
     0
100
AcDbLine
 10
-40.32903303677044
 20
-279.1101542087027
 30
0.0
 11
-40.18758275210868
 21
-278.968703924041
 31
0.0
  0
LINE
  5
139D
330
138A
100
AcDbEntity
  8
0
 62
     0
100
AcDbLine
 10
-40.02857549062279
 20
-278.8096966625551
 30
0.0
 11
-39.78116460348956
 21
-278.5622857754218
 31
0.0
  0
LINE
  5
139E
330
138A
100
AcDbEntity
  8
0
 62
     0
100
AcDbLine
 10
-40.18758275210866
 20
-278.9687039240409
 30
0.0
 11
-40.02857549062286
 21
-278.8096966625551
 31
0.0
  0
LINE
  5
139F
330
138A
100
AcDbEntity
  8
0
 62
     0
100
AcDbLine
 10
-40.28815889638206
 20
-278.9366975468419
 30
0.0
 11
-40.22887029772395
 21
-278.8774089481838
 31
0.0
  0
LINE
  5
13A0
330
138A
100
AcDbEntity
  8
0
 62
     0
100
AcDbLine
 10
-40.07247293606041
 20
-278.7210115865202
 30
0.0
 11
-39.89387350471074
 21
-278.5424121551705
 31
0.0
  0
LINE
  5
13A1
330
138A
100
AcDbEntity
  8
0
 62
     0
100
AcDbLine
 10
-40.22887029772394
 20
-278.8774089481837
 30
0.0
 11
-40.07247293606049
 21
-278.7210115865203
 31
0.0
  0
LINE
  5
13A2
330
138A
100
AcDbEntity
  8
0
 62
     0
100
AcDbLine
 10
-40.27015784333923
 20
-278.7861139723266
 30
0.0
 11
-40.11637038149812
 21
-278.6323265104854
 31
0.0
  0
LINE
  5
13A3
330
138A
100
AcDbEntity
  8
0
 62
     0
100
AcDbLine
 10
-40.116370381498
 20
-278.6323265104853
 30
0.0
 11
-40.00658240593192
 21
-278.5225385349192
 31
0.0
  0
LINE
  5
13A4
330
138A
100
AcDbEntity
  8
0
 62
     0
100
AcDbLine
 10
-40.31144538895452
 20
-278.6948189964694
 30
0.0
 11
-40.30692854477254
 21
-278.6903021522874
 31
0.0
  0
LINE
  5
13A5
330
138A
100
AcDbEntity
  8
0
 62
     0
100
AcDbLine
 10
-39.69215944246978
 20
-278.0755330499846
 30
0.0
 11
-39.59237083622737
 21
-277.9757444437422
 31
0.0
  0
LINE
  5
13A6
330
138A
100
AcDbEntity
  8
0
 62
     0
100
AcDbLine
 10
-40.30692854477248
 20
-278.6903021522873
 30
0.0
 11
-40.20641061560525
 21
-278.5897842231201
 31
0.0
  0
LINE
  5
13A7
330
138A
100
AcDbEntity
  8
0
 62
     0
100
AcDbLine
 10
-40.16017812122486
 20
-278.5435517287397
 30
0.0
 11
-40.11929130715309
 21
-278.5026649146679
 31
0.0
  0
LINE
  5
13A8
330
138A
100
AcDbEntity
  8
0
 62
     0
100
AcDbLine
 10
-40.20466276288202
 20
-278.5880363703969
 30
0.0
 11
-40.16017812122502
 21
-278.5435517287398
 31
0.0
  0
LINE
  5
13A9
330
138A
100
AcDbEntity
  8
0
 62
     0
100
AcDbLine
 10
-40.41225758634928
 20
-278.6630486723916
 30
0.0
 11
-40.23018407840633
 21
-278.4809751644487
 31
0.0
  0
LINE
  5
13AA
330
138A
100
AcDbEntity
  8
0
 62
     0
100
AcDbLine
 10
-39.73691136690469
 20
-277.987702452947
 30
0.0
 11
-39.6371227606623
 21
-277.8879138467047
 31
0.0
  0
LINE
  5
13AB
330
138A
100
AcDbEntity
  8
0
 62
     0
100
AcDbLine
 10
-40.23018407840633
 20
-278.4809751644486
 30
0.0
 11
-40.20259152936932
 21
-278.4533826154117
 31
0.0
  0
LINE
  5
13AC
330
138A
100
AcDbEntity
  8
0
 62
     0
100
AcDbLine
 10
-40.57051962558798
 20
-278.6887281901577
 30
0.0
 11
-40.51758662792604
 21
-278.6357951924959
 31
0.0
  0
LINE
  5
13AD
330
138A
100
AcDbEntity
  8
0
 62
     0
100
AcDbLine
 10
-39.78166329133961
 20
-277.8998718559094
 30
0.0
 11
-39.68187468509722
 21
-277.8000832496671
 31
0.0
  0
LINE
  5
13AE
330
138A
100
AcDbEntity
  8
0
 62
     0
100
AcDbLine
 10
-40.51758662792603
 20
-278.6357951924959
 30
0.0
 11
-40.33869630383812
 21
-278.456904868408
 31
0.0
  0
LINE
  5
13AF
330
138A
100
AcDbEntity
  8
0
 62
     0
100
AcDbLine
 10
-40.33869630383812
 20
-278.456904868408
 30
0.0
 11
-40.24734345380425
 21
-278.3655520183742
 31
0.0
  0
LINE
  5
13B0
330
138A
100
AcDbEntity
  8
0
 62
     0
100
AcDbLine
 10
-40.84083440815077
 20
-278.8264604512481
 30
0.0
 11
-40.62291566950281
 21
-278.6085417126002
 31
0.0
  0
LINE
  5
13B1
330
138A
100
AcDbEntity
  8
0
 62
     0
100
AcDbLine
 10
-39.82641521577454
 20
-277.812041258872
 30
0.0
 11
-39.72662660953214
 21
-277.7122526526295
 31
0.0
  0
LINE
  5
13B2
330
138A
100
AcDbEntity
  8
0
 62
     0
100
AcDbLine
 10
-40.62291566950278
 20
-278.6085417126002
 30
0.0
 11
-40.44720852926992
 21
-278.4328345723673
 31
0.0
  0
LINE
  5
13B3
330
138A
100
AcDbEntity
  8
0
 62
     0
100
AcDbLine
 10
-40.44720852926991
 20
-278.4328345723673
 30
0.0
 11
-40.29209537823916
 21
-278.2777214213366
 31
0.0
  0
LINE
  5
13B4
330
138A
100
AcDbEntity
  8
0
 62
     0
100
AcDbLine
 10
-41.07098574326527
 20
-278.9240292648902
 30
0.0
 11
-40.96884180887604
 21
-278.821885330501
 31
0.0
  0
LINE
  5
13B5
330
138A
100
AcDbEntity
  8
0
 62
     0
100
AcDbLine
 10
-39.87116714020946
 20
-277.7242106618344
 30
0.0
 11
-39.77137853396706
 21
-277.624422055592
 31
0.0
  0
LINE
  5
13B6
330
138A
100
AcDbEntity
  8
0
 62
     0
100
AcDbLine
 10
-40.96884180887601
 20
-278.8218853305009
 30
0.0
 11
-40.72824471107957
 21
-278.5812882327045
 31
0.0
  0
LINE
  5
13B7
330
138A
100
AcDbEntity
  8
0
 62
     0
100
AcDbLine
 10
-40.55572075470169
 20
-278.4087642763266
 30
0.0
 11
-40.33684730267409
 21
-278.189890824299
 31
0.0
  0
LINE
  5
13B8
330
138A
100
AcDbEntity
  8
0
 62
     0
100
AcDbLine
 10
-40.72824471107958
 20
-278.5812882327045
 30
0.0
 11
-40.55572075470172
 21
-278.4087642763266
 31
0.0
  0
LINE
  5
13B9
330
138A
100
AcDbEntity
  8
0
 62
     0
100
AcDbLine
 10
-41.11573766770019
 20
-278.8361986678526
 30
0.0
 11
-41.01359373331094
 21
-278.7340547334634
 31
0.0
  0
LINE
  5
13BA
330
138A
100
AcDbEntity
  8
0
 62
     0
100
AcDbLine
 10
-39.91591906464438
 20
-277.6363800647968
 30
0.0
 11
-39.81613045840198
 21
-277.5365914585544
 31
0.0
  0
LINE
  5
13BB
330
138A
100
AcDbEntity
  8
0
 62
     0
100
AcDbLine
 10
-41.01359373331097
 20
-278.7340547334634
 30
0.0
 11
-40.83357375265634
 21
-278.5540347528088
 31
0.0
  0
LINE
  5
13BC
330
138A
100
AcDbEntity
  8
0
 62
     0
100
AcDbLine
 10
-40.66423298013347
 20
-278.3846939802859
 30
0.0
 11
-40.38159922710902
 21
-278.1020602272615
 31
0.0
  0
LINE
  5
13BD
330
138A
100
AcDbEntity
  8
0
 62
     0
100
AcDbLine
 10
-40.83357375265634
 20
-278.5540347528088
 30
0.0
 11
-40.66423298013349
 21
-278.384693980286
 31
0.0
  0
LINE
  5
13BE
330
138A
100
AcDbEntity
  8
0
 62
     0
100
AcDbLine
 10
-41.16048959213512
 20
-278.7483680708151
 30
0.0
 11
-41.05834565774588
 21
-278.6462241364259
 31
0.0
  0
LINE
  5
13BF
330
138A
100
AcDbEntity
  8
0
 62
     0
100
AcDbLine
 10
-39.96067098907931
 20
-277.5485494677593
 30
0.0
 11
-39.86088238283691
 21
-277.4487608615169
 31
0.0
  0
LINE
  5
13C0
330
138A
100
AcDbEntity
  8
0
 62
     0
100
AcDbLine
 10
-41.05834565774586
 20
-278.6462241364258
 30
0.0
 11
-40.93646758632097
 21
-278.524346065001
 31
0.0
  0
LINE
  5
13C1
330
138A
100
AcDbEntity
  8
0
 62
     0
100
AcDbLine
 10
-40.77274520556526
 20
-278.3606236842452
 30
0.0
 11
-40.42635115154395
 21
-278.0142296302239
 31
0.0
  0
LINE
  5
13C2
330
138A
100
AcDbEntity
  8
0
 62
     0
100
AcDbLine
 10
-40.93646758632099
 20
-278.524346065001
 30
0.0
 11
-40.77274520556528
 21
-278.3606236842453
 31
0.0
  0
LINE
  5
13C3
330
138A
100
AcDbEntity
  8
0
 62
     0
100
AcDbLine
 10
-41.20524151657004
 20
-278.6605374737775
 30
0.0
 11
-41.10309758218079
 21
-278.5583935393883
 31
0.0
  0
LINE
  5
13C4
330
138A
100
AcDbEntity
  8
0
 62
     0
100
AcDbLine
 10
-40.00542291351423
 20
-277.4607188707217
 30
0.0
 11
-39.90563430727183
 21
-277.3609302644794
 31
0.0
  0
LINE
  5
13C5
330
138A
100
AcDbEntity
  8
0
 62
     0
100
AcDbLine
 10
-41.10309758218081
 20
-278.5583935393883
 30
0.0
 11
-40.90160135388338
 21
-278.3568973110909
 31
0.0
  0
LINE
  5
13C6
330
138A
100
AcDbEntity
  8
0
 62
     0
100
AcDbLine
 10
-40.87969543086212
 20
-278.3349913880696
 30
0.0
 11
-40.47110307597886
 21
-277.9263990331864
 31
0.0
  0
LINE
  5
13C7
330
138A
100
AcDbEntity
  8
0
 62
     0
100
AcDbLine
 10
-40.9016013538834
 20
-278.3568973110909
 30
0.0
 11
-40.87969543086214
 21
-278.3349913880696
 31
0.0
  0
LINE
  5
13C8
330
138A
100
AcDbEntity
  8
0
 62
     0
100
AcDbLine
 10
-41.24999344100497
 20
-278.57270687674
 30
0.0
 11
-41.14784950661573
 21
-278.4705629423507
 31
0.0
  0
LINE
  5
13C9
330
138A
100
AcDbEntity
  8
0
 62
     0
100
AcDbLine
 10
-40.05017483794916
 20
-277.3728882736842
 30
0.0
 11
-39.95038623170675
 21
-277.2730996674417
 31
0.0
  0
LINE
  5
13CA
330
138A
100
AcDbEntity
  8
0
 62
     0
100
AcDbLine
 10
-41.14784950661571
 20
-278.4705629423507
 30
0.0
 11
-40.51585500041379
 21
-277.8385684361488
 31
0.0
  0
LINE
  5
13CB
330
138A
100
AcDbEntity
  8
0
 62
     0
100
AcDbLine
 10
-40.13520989857035
 20
-277.4579233343053
 30
0.0
 11
-40.05017483794913
 21
-277.3728882736842
 31
0.0
  0
LINE
  5
13CC
330
138A
100
AcDbEntity
  8
0
 62
     0
100
AcDbLine
 10
-41.29474536543989
 20
-278.4848762797024
 30
0.0
 11
-41.19260143105066
 21
-278.3827323453132
 31
0.0
  0
LINE
  5
13CD
330
138A
100
AcDbEntity
  8
0
 62
     0
100
AcDbLine
 10
-40.09492676238408
 20
-277.2850576766466
 30
0.0
 11
-39.99513815614167
 21
-277.1852690704042
 31
0.0
  0
LINE
  5
13CE
330
138A
100
AcDbEntity
  8
0
 62
     0
100
AcDbLine
 10
-41.19260143105065
 20
-278.3827323453131
 30
0.0
 11
-40.56060692484869
 21
-277.7507378391113
 31
0.0
  0
LINE
  5
13CF
330
138A
100
AcDbEntity
  8
0
 62
     0
100
AcDbLine
 10
-40.39402495983168
 20
-277.5841558740942
 30
0.0
 11
-40.09492676238404
 21
-277.2850576766466
 31
0.0
  0
LINE
  5
13D0
330
138A
100
AcDbEntity
  8
0
 62
     0
100
AcDbLine
 10
-41.3394972898748
 20
-278.3970456826649
 30
0.0
 11
-41.23735335548558
 21
-278.2949017482756
 31
0.0
  0
LINE
  5
13D1
330
138A
100
AcDbEntity
  8
0
 62
     0
100
AcDbLine
 10
-40.13967868681899
 20
-277.197227079609
 30
0.0
 11
-40.0398900805766
 21
-277.0974384733666
 31
0.0
  0
LINE
  5
13D2
330
138A
100
AcDbEntity
  8
0
 62
     0
100
AcDbLine
 10
-41.23735335548557
 20
-278.2949017482756
 30
0.0
 11
-40.65284002109301
 21
-277.7103884138831
 31
0.0
  0
LINE
  5
13D3
330
138A
100
AcDbEntity
  8
0
 62
     0
100
AcDbLine
 10
-40.65284002109302
 20
-277.710388413883
 30
0.0
 11
-40.33209807941335
 21
-277.3896464722034
 31
0.0
  0
LINE
  5
13D4
330
138A
100
AcDbEntity
  8
0
 62
     0
100
AcDbLine
 10
-41.38424921430973
 20
-278.3092150856273
 30
0.0
 11
-41.28210527992051
 21
-278.2070711512381
 31
0.0
  0
LINE
  5
13D5
330
138A
100
AcDbEntity
  8
0
 62
     0
100
AcDbLine
 10
-40.18443061125393
 20
-277.1093964825715
 30
0.0
 11
-40.08464200501151
 21
-277.0096078763291
 31
0.0
  0
LINE
  5
13D6
330
138A
100
AcDbEntity
  8
0
 62
     0
100
AcDbLine
 10
-41.2821052799205
 20
-278.2070711512381
 30
0.0
 11
-40.91165508235433
 21
-277.8366209536719
 31
0.0
  0
LINE
  5
13D7
330
138A
100
AcDbEntity
  8
0
 62
     0
100
AcDbLine
 10
-40.91165508235427
 20
-277.8366209536719
 30
0.0
 11
-40.60241286197611
 21
-277.5273787332937
 31
0.0
  0
LINE
  5
13D8
330
138A
100
AcDbEntity
  8
0
 62
     0
100
AcDbLine
 10
-41.42900113874467
 20
-278.2213844885897
 30
0.0
 11
-41.32685720435543
 21
-278.1192405542005
 31
0.0
  0
LINE
  5
13D9
330
138A
100
AcDbEntity
  8
0
 62
     0
100
AcDbLine
 10
-40.22918253568884
 20
-277.0215658855339
 30
0.0
 11
-40.12939392944644
 21
-276.9217772792915
 31
0.0
  0
LINE
  5
13DA
330
138A
100
AcDbEntity
  8
0
 62
     0
100
AcDbLine
 10
-41.32685720435541
 20
-278.1192405542005
 30
0.0
 11
-40.99595323982196
 21
-277.788336589667
 31
0.0
  0
LINE
  5
13DB
330
138A
100
AcDbEntity
  8
0
 62
     0
100
AcDbLine
 10
-40.87272764453877
 20
-277.6651109943838
 30
0.0
 11
-40.69486269815346
 21
-277.4872460479985
 31
0.0
  0
LINE
  5
13DC
330
138A
100
AcDbEntity
  8
0
 62
     0
100
AcDbLine
 10
-40.99595323982194
 20
-277.788336589667
 30
0.0
 11
-40.87272764453897
 21
-277.665110994384
 31
0.0
  0
LINE
  5
13DD
330
138A
100
AcDbEntity
  8
0
 62
     0
100
AcDbLine
 10
-41.47375306317957
 20
-278.1335538915521
 30
0.0
 11
-41.37160912879036
 21
-278.031409957163
 31
0.0
  0
LINE
  5
13DE
330
138A
100
AcDbEntity
  8
0
 62
     0
100
AcDbLine
 10
-40.27393446012377
 20
-276.9337352884964
 30
0.0
 11
-40.17414585388136
 21
-276.833946682254
 31
0.0
  0
LINE
  5
13DF
330
138A
100
AcDbEntity
  8
0
 62
     0
100
AcDbLine
 10
-41.37160912879035
 20
-278.0314099571629
 30
0.0
 11
-40.73961462258838
 21
-277.399415450961
 31
0.0
  0
LINE
  5
13E0
330
138A
100
AcDbEntity
  8
0
 62
     0
100
AcDbLine
 10
-41.51850498761451
 20
-278.0457232945146
 30
0.0
 11
-41.41636105322528
 21
-277.9435793601255
 31
0.0
  0
LINE
  5
13E1
330
138A
100
AcDbEntity
  8
0
 62
     0
100
AcDbLine
 10
-40.3186863845587
 20
-276.8459046914588
 30
0.0
 11
-40.21889777831629
 21
-276.7461160852164
 31
0.0
  0
LINE
  5
13E2
330
138A
100
AcDbEntity
  8
0
 62
     0
100
AcDbLine
 10
-41.41636105322527
 20
-277.9435793601254
 30
0.0
 11
-40.78436654702331
 21
-277.3115848539234
 31
0.0
  0
LINE
  5
13E3
330
138A
100
AcDbEntity
  8
0
 62
     0
100
AcDbLine
 10
-41.56325691204942
 20
-277.9578926974771
 30
0.0
 11
-41.46111297766021
 21
-277.8557487630879
 31
0.0
  0
LINE
  5
13E4
330
138A
100
AcDbEntity
  8
0
 62
     0
100
AcDbLine
 10
-40.36343830899361
 20
-276.7580740944213
 30
0.0
 11
-40.2636497027512
 21
-276.6582854881789
 31
0.0
  0
LINE
  5
13E5
330
138A
100
AcDbEntity
  8
0
 62
     0
100
AcDbLine
 10
-41.4611129776602
 20
-277.8557487630878
 30
0.0
 11
-40.82911847145823
 21
-277.2237542568859
 31
0.0
  0
LINE
  5
13E6
330
138A
100
AcDbEntity
  8
0
 62
     0
100
AcDbLine
 10
-41.60800883648435
 20
-277.8700621004395
 30
0.0
 11
-41.50586490209513
 21
-277.7679181660503
 31
0.0
  0
LINE
  5
13E7
330
138A
100
AcDbEntity
  8
0
 62
     0
100
AcDbLine
 10
-40.40819023342854
 20
-276.6702434973837
 30
0.0
 11
-40.30840162718615
 21
-276.5704548911414
 31
0.0
  0
LINE
  5
13E8
330
138A
100
AcDbEntity
  8
0
 62
     0
100
AcDbLine
 10
-41.50586490209512
 20
-277.7679181660503
 30
0.0
 11
-40.87387039589315
 21
-277.1359236598483
 31
0.0
  0
LINE
  5
13E9
330
138A
100
AcDbEntity
  8
0
 62
     0
100
AcDbLine
 10
-41.65276076091928
 20
-277.782231503402
 30
0.0
 11
-41.55061682653006
 21
-277.6800875690128
 31
0.0
  0
LINE
  5
13EA
330
138A
100
AcDbEntity
  8
0
 62
     0
100
AcDbLine
 10
-40.45294215786347
 20
-276.5824129003462
 30
0.0
 11
-40.35315355162107
 21
-276.4826242941037
 31
0.0
  0
LINE
  5
13EB
330
138A
100
AcDbEntity
  8
0
 62
     0
100
AcDbLine
 10
-41.55061682653004
 20
-277.6800875690128
 30
0.0
 11
-40.91862232032808
 21
-277.0480930628108
 31
0.0
  0
LINE
  5
13EC
330
138A
100
AcDbEntity
  8
0
 62
     0
100
AcDbLine
 10
-41.6975126853542
 20
-277.6944009063644
 30
0.0
 11
-41.59536875096497
 21
-277.5922569719752
 31
0.0
  0
LINE
  5
13ED
330
138A
100
AcDbEntity
  8
0
 62
     0
100
AcDbLine
 10
-40.49769408229838
 20
-276.4945823033086
 30
0.0
 11
-40.39790547605599
 21
-276.3947936970662
 31
0.0
  0
LINE
  5
13EE
330
138A
100
AcDbEntity
  8
0
 62
     0
100
AcDbLine
 10
-41.59536875096496
 20
-277.5922569719751
 30
0.0
 11
-40.963374244763
 21
-276.9602624657732
 31
0.0
  0
LINE
  5
13EF
330
138A
100
AcDbEntity
  8
0
 62
     0
100
AcDbLine
 10
-41.74226460978912
 20
-277.6065703093268
 30
0.0
 11
-41.6401206753999
 21
-277.5044263749377
 31
0.0
  0
LINE
  5
13F0
330
138A
100
AcDbEntity
  8
0
 62
     0
100
AcDbLine
 10
-40.54244600673332
 20
-276.4067517062711
 30
0.0
 11
-40.44265740049091
 21
-276.3069631000287
 31
0.0
  0
LINE
  5
13F1
330
138A
100
AcDbEntity
  8
0
 62
     0
100
AcDbLine
 10
-41.64012067539989
 20
-277.5044263749376
 30
0.0
 11
-41.00812616919793
 21
-276.8724318687357
 31
0.0
  0
LINE
  5
13F2
330
138A
100
AcDbEntity
  8
0
 62
     0
100
AcDbLine
 10
-41.78701653422404
 20
-277.5187397122893
 30
0.0
 11
-41.68487259983481
 21
-277.4165957779001
 31
0.0
  0
LINE
  5
13F3
330
138A
100
AcDbEntity
  8
0
 62
     0
100
AcDbLine
 10
-40.58719793116824
 20
-276.3189211092335
 30
0.0
 11
-40.48740932492584
 21
-276.2191325029911
 31
0.0
  0
LINE
  5
13F4
330
138A
100
AcDbEntity
  8
0
 62
     0
100
AcDbLine
 10
-41.68487259983482
 20
-277.4165957779001
 30
0.0
 11
-41.05287809363285
 21
-276.7846012716981
 31
0.0
  0
LINE
  5
13F5
330
138A
100
AcDbEntity
  8
0
 62
     0
100
AcDbLine
 10
-41.83176845865896
 20
-277.4309091152518
 30
0.0
 11
-41.72962452426975
 21
-277.3287651808626
 31
0.0
  0
LINE
  5
13F6
330
138A
100
AcDbEntity
  8
0
 62
     0
100
AcDbLine
 10
-40.63194985560315
 20
-276.2310905121959
 30
0.0
 11
-40.53216124936076
 21
-276.1313019059535
 31
0.0
  0
LINE
  5
13F7
330
138A
100
AcDbEntity
  8
0
 62
     0
100
AcDbLine
 10
-41.72962452426975
 20
-277.3287651808625
 30
0.0
 11
-41.09763001806778
 21
-276.6967706746606
 31
0.0
  0
LINE
  5
13F8
330
138A
100
AcDbEntity
  8
0
 62
     0
100
AcDbLine
 10
-41.8765203830939
 20
-277.3430785182142
 30
0.0
 11
-41.77437644870467
 21
-277.240934583825
 31
0.0
  0
LINE
  5
13F9
330
138A
100
AcDbEntity
  8
0
 62
     0
100
AcDbLine
 10
-40.67670178003808
 20
-276.1432599151584
 30
0.0
 11
-40.57691317379568
 21
-276.043471308916
 31
0.0
  0
LINE
  5
13FA
330
138A
100
AcDbEntity
  8
0
 62
     0
100
AcDbLine
 10
-41.77437644870467
 20
-277.240934583825
 30
0.0
 11
-41.1423819425027
 21
-276.608940077623
 31
0.0
  0
LINE
  5
13FB
330
138A
100
AcDbEntity
  8
0
 62
     0
100
AcDbLine
 10
-41.92127230752881
 20
-277.2552479211766
 30
0.0
 11
-41.8191283731396
 21
-277.1531039867875
 31
0.0
  0
LINE
  5
13FC
330
138A
100
AcDbEntity
  8
0
 62
     0
100
AcDbLine
 10
-40.72145370447301
 20
-276.0554293181209
 30
0.0
 11
-40.6216650982306
 21
-275.9556407118785
 31
0.0
  0
LINE
  5
13FD
330
138A
100
AcDbEntity
  8
0
 62
     0
100
AcDbLine
 10
-41.81912837313959
 20
-277.1531039867874
 30
0.0
 11
-41.18713386693762
 21
-276.5211094805855
 31
0.0
  0
LINE
  5
13FE
330
138A
100
AcDbEntity
  8
0
 62
     0
100
AcDbLine
 10
-41.96602423196374
 20
-277.1674173241391
 30
0.0
 11
-41.86388029757452
 21
-277.0652733897499
 31
0.0
  0
LINE
  5
13FF
330
138A
100
AcDbEntity
  8
0
 62
     0
100
AcDbLine
 10
-35.8061910555824
 20
-271.0075841477578
 30
0.0
 11
-35.70443277119299
 21
-270.9058258633683
 31
0.0
  0
LINE
  5
1400
330
138A
100
AcDbEntity
  8
0
 62
     0
100
AcDbLine
 10
-41.86388029757451
 20
-277.0652733897498
 30
0.0
 11
-41.23188579137255
 21
-276.4332788835479
 31
0.0
  0
LINE
  5
1401
330
138A
100
AcDbEntity
  8
0
 62
     0
100
AcDbLine
 10
-40.76620562890794
 20
-275.9675987210833
 30
0.0
 11
-40.66641702266553
 21
-275.8678101148409
 31
0.0
  0
LINE
  5
1402
330
138A
100
AcDbEntity
  8
0
 62
     0
100
AcDbLine
 10
-42.01077615639866
 20
-277.0795867271015
 30
0.0
 11
-41.90863222200944
 21
-276.9774427927123
 31
0.0
  0
LINE
  5
1403
330
138A
100
AcDbEntity
  8
0
 62
     0
100
AcDbLine
 10
-35.93877357705487
 20
-271.0075841477578
 30
0.0
 11
-35.70443277119299
 21
-270.7732433418959
 31
0.0
  0
LINE
  5
1404
330
138A
100
AcDbEntity
  8
0
 62
     0
100
AcDbLine
 10
-41.90863222200944
 20
-276.9774427927123
 30
0.0
 11
-41.27663771580747
 21
-276.3454482865104
 31
0.0
  0
LINE
  5
1405
330
138A
100
AcDbEntity
  8
0
 62
     0
100
AcDbLine
 10
-40.81095755334286
 20
-275.8797681240458
 30
0.0
 11
-40.71116894710044
 21
-275.7799795178034
 31
0.0
  0
LINE
  5
1406
330
138A
100
AcDbEntity
  8
0
 62
     0
100
AcDbLine
 10
-42.05552808083359
 20
-276.991756130064
 30
0.0
 11
-41.95338414644437
 21
-276.8896121956748
 31
0.0
  0
LINE
  5
1407
330
138A
100
AcDbEntity
  8
0
 62
     0
100
AcDbLine
 10
-36.07135609852736
 20
-271.0075841477578
 30
0.0
 11
-35.70443277119299
 21
-270.6406608204234
 31
0.0
  0
LINE
  5
1408
330
138A
100
AcDbEntity
  8
0
 62
     0
100
AcDbLine
 10
-41.95338414644437
 20
-276.8896121956748
 30
0.0
 11
-41.32138964024239
 21
-276.2576176894728
 31
0.0
  0
LINE
  5
1409
330
138A
100
AcDbEntity
  8
0
 62
     0
100
AcDbLine
 10
-40.85570947777777
 20
-275.7919375270082
 30
0.0
 11
-40.75592087153537
 21
-275.6921489207658
 31
0.0
  0
LINE
  5
140A
330
138A
100
AcDbEntity
  8
0
 62
     0
100
AcDbLine
 10
-42.10028000526851
 20
-276.9039255330264
 30
0.0
 11
-41.99813607087929
 21
-276.8017815986373
 31
0.0
  0
LINE
  5
140B
330
138A
100
AcDbEntity
  8
0
 62
     0
100
AcDbLine
 10
-36.20393861999985
 20
-271.0075841477578
 30
0.0
 11
-35.70443277119299
 21
-270.5080782989509
 31
0.0
  0
LINE
  5
140C
330
138A
100
AcDbEntity
  8
0
 62
     0
100
AcDbLine
 10
-41.99813607087929
 20
-276.8017815986372
 30
0.0
 11
-41.36614156467731
 21
-276.1697870924352
 31
0.0
  0
LINE
  5
140D
330
138A
100
AcDbEntity
  8
0
 62
     0
100
AcDbLine
 10
-40.90046140221271
 20
-275.7041069299706
 30
0.0
 11
-40.80067279597029
 21
-275.6043183237283
 31
0.0
  0
LINE
  5
140E
330
138A
100
AcDbEntity
  8
0
 62
     0
100
AcDbLine
 10
-42.14503192970343
 20
-276.8160949359889
 30
0.0
 11
-42.04288799531422
 21
-276.7139510015997
 31
0.0
  0
LINE
  5
140F
330
138A
100
AcDbEntity
  8
0
 62
     0
100
AcDbLine
 10
-36.33652114147233
 20
-271.0075841477578
 30
0.0
 11
-35.70443277119299
 21
-270.3754957774785
 31
0.0
  0
LINE
  5
1410
330
138A
100
AcDbEntity
  8
0
 62
     0
100
AcDbLine
 10
-42.04288799531422
 20
-276.7139510015996
 30
0.0
 11
-41.41089348911224
 21
-276.0819564953977
 31
0.0
  0
LINE
  5
1411
330
138A
100
AcDbEntity
  8
0
 62
     0
100
AcDbLine
 10
-40.94521332664762
 20
-275.6162763329331
 30
0.0
 11
-40.84542472040522
 21
-275.5164877266907
 31
0.0
  0
LINE
  5
1412
330
138A
100
AcDbEntity
  8
0
 62
     0
100
AcDbLine
 10
-42.18978385413836
 20
-276.7282643389513
 30
0.0
 11
-42.08763991974914
 21
-276.6261204045621
 31
0.0
  0
LINE
  5
1413
330
138A
100
AcDbEntity
  8
0
 62
     0
100
AcDbLine
 10
-36.46910366294478
 20
-271.0075841477578
 30
0.0
 11
-35.70443277119299
 21
-270.242913256006
 31
0.0
  0
LINE
  5
1414
330
138A
100
AcDbEntity
  8
0
 62
     0
100
AcDbLine
 10
-42.08763991974914
 20
-276.6261204045621
 30
0.0
 11
-41.45564541354717
 21
-275.9941258983601
 31
0.0
  0
LINE
  5
1415
330
138A
100
AcDbEntity
  8
0
 62
     0
100
AcDbLine
 10
-40.98996525108254
 20
-275.5284457358955
 30
0.0
 11
-40.89017664484013
 21
-275.4286571296531
 31
0.0
  0
LINE
  5
1416
330
138A
100
AcDbEntity
  8
0
 62
     0
100
AcDbLine
 10
-42.23453577857329
 20
-276.6404337419138
 30
0.0
 11
-42.13239184418406
 21
-276.5382898075245
 31
0.0
  0
LINE
  5
1417
330
138A
100
AcDbEntity
  8
0
 62
     0
100
AcDbLine
 10
-36.60168618441726
 20
-271.0075841477578
 30
0.0
 11
-35.7069169949642
 21
-270.1128149583047
 31
0.0
  0
LINE
  5
1418
330
138A
100
AcDbEntity
  8
0
 62
     0
100
AcDbLine
 10
-42.13239184418408
 20
-276.5382898075245
 30
0.0
 11
-41.50039733798208
 21
-275.9062953013226
 31
0.0
  0
LINE
  5
1419
330
138A
100
AcDbEntity
  8
0
 62
     0
100
AcDbLine
 10
-41.03471717551747
 20
-275.4406151388579
 30
0.0
 11
-40.93492856927506
 21
-275.3408265326156
 31
0.0
  0
LINE
  5
141A
330
138A
100
AcDbEntity
  8
0
 62
     0
100
AcDbLine
 10
-42.2792877030082
 20
-276.5526031448762
 30
0.0
 11
-42.17714376861898
 21
-276.450459210487
 31
0.0
  0
LINE
  5
141B
330
138A
100
AcDbEntity
  8
0
 62
     0
100
AcDbLine
 10
-36.73426870588975
 20
-271.0075841477578
 30
0.0
 11
-35.83949951643669
 21
-270.1128149583047
 31
0.0
  0
LINE
  5
141C
330
138A
100
AcDbEntity
  8
0
 62
     0
100
AcDbLine
 10
-42.17714376861898
 20
-276.450459210487
 30
0.0
 11
-41.54514926241701
 21
-275.818464704285
 31
0.0
  0
LINE
  5
141D
330
138A
100
AcDbEntity
  8
0
 62
     0
100
AcDbLine
 10
-41.0794690999524
 20
-275.3527845418204
 30
0.0
 11
-40.97968049370998
 21
-275.2529959355781
 31
0.0
  0
LINE
  5
141E
330
138A
100
AcDbEntity
  8
0
 62
     0
100
AcDbLine
 10
-42.32403962744313
 20
-276.4647725478386
 30
0.0
 11
-42.22189569305391
 21
-276.3626286134495
 31
0.0
  0
LINE
  5
141F
330
138A
100
AcDbEntity
  8
0
 62
     0
100
AcDbLine
 10
-36.86685122736224
 20
-271.0075841477578
 30
0.0
 11
-35.97208203790917
 21
-270.1128149583047
 31
0.0
  0
LINE
  5
1420
330
138A
100
AcDbEntity
  8
0
 62
     0
100
AcDbLine
 10
-42.22189569305391
 20
-276.3626286134494
 30
0.0
 11
-41.58990118685194
 21
-275.7306341072474
 31
0.0
  0
LINE
  5
1421
330
138A
100
AcDbEntity
  8
0
 62
     0
100
AcDbLine
 10
-41.12422102438733
 20
-275.2649539447828
 30
0.0
 11
-41.02443241814492
 21
-275.1651653385405
 31
0.0
  0
LINE
  5
1422
330
138A
100
AcDbEntity
  8
0
 62
     0
100
AcDbLine
 10
-42.36879155187804
 20
-276.3769419508011
 30
0.0
 11
-42.2684645752521
 21
-276.2766149741751
 31
0.0
  0
LINE
  5
1423
330
138A
100
AcDbEntity
  8
0
 62
     0
100
AcDbLine
 10
-36.99943374883472
 20
-271.0075841477578
 30
0.0
 11
-36.10466455938166
 21
-270.1128149583047
 31
0.0
  0
LINE
  5
1424
330
138A
100
AcDbEntity
  8
0
 62
     0
100
AcDbLine
 10
-42.26664761748884
 20
-276.2747980164119
 30
0.0
 11
-42.19792528481469
 21
-276.2060756837377
 31
0.0
  0
LINE
  5
1425
330
138A
100
AcDbEntity
  8
0
 62
     0
100
AcDbLine
 10
-41.16897294882225
 20
-275.1771233477454
 30
0.0
 11
-41.06918434257984
 21
-275.0773347415029
 31
0.0
  0
LINE
  5
1426
330
138A
100
AcDbEntity
  8
0
 62
     0
100
AcDbLine
 10
-42.1979252848146
 20
-276.2060756837377
 30
0.0
 11
-42.10043854447298
 21
-276.108588943396
 31
0.0
  0
LINE
  5
1427
330
138A
100
AcDbEntity
  8
0
 62
     0
100
AcDbLine
 10
-41.99598251496389
 20
-276.004132913887
 30
0.0
 11
-41.63465311128686
 21
-275.6428035102099
 31
0.0
  0
LINE
  5
1428
330
138A
100
AcDbEntity
  8
0
 62
     0
100
AcDbLine
 10
-42.10043854447292
 20
-276.1085889433959
 30
0.0
 11
-42.09566753742882
 21
-276.1038179363519
 31
0.0
  0
LINE
  5
1429
330
138A
100
AcDbEntity
  8
0
 62
     0
100
AcDbLine
 10
-42.09566753742871
 20
-276.1038179363518
 30
0.0
 11
-41.99598251496389
 21
-276.004132913887
 31
0.0
  0
LINE
  5
142A
330
138A
100
AcDbEntity
  8
0
 62
     0
100
AcDbLine
 10
-42.41354347631298
 20
-276.2891113537635
 30
0.0
 11
-42.31321649968703
 21
-276.1887843771376
 31
0.0
  0
LINE
  5
142B
330
138A
100
AcDbEntity
  8
0
 62
     0
100
AcDbLine
 10
-37.13201627030717
 20
-271.0075841477578
 30
0.0
 11
-36.23724708085414
 21
-270.1128149583047
 31
0.0
  0
LINE
  5
142C
330
138A
100
AcDbEntity
  8
0
 62
     0
100
AcDbLine
 10
-42.31139954192374
 20
-276.1869674193743
 30
0.0
 11
-42.1892754338011
 21
-276.0648433112517
 31
0.0
  0
LINE
  5
142D
330
138A
100
AcDbEntity
  8
0
 62
     0
100
AcDbLine
 10
-41.21372487325716
 20
-275.0892927507078
 30
0.0
 11
-41.11393626701477
 21
-274.9895041444653
 31
0.0
  0
LINE
  5
142E
330
138A
100
AcDbEntity
  8
0
 62
     0
100
AcDbLine
 10
-42.18927543380108
 20
-276.0648433112517
 30
0.0
 11
-42.14458912338753
 21
-276.0201570008381
 31
0.0
  0
LINE
  5
142F
330
138A
100
AcDbEntity
  8
0
 62
     0
100
AcDbLine
 10
-41.96714156490001
 20
-275.8427094423506
 30
0.0
 11
-41.67940503572178
 21
-275.5549729131724
 31
0.0
  0
LINE
  5
1430
330
138A
100
AcDbEntity
  8
0
 62
     0
100
AcDbLine
 10
-42.11450619999326
 20
-275.9900740774438
 30
0.0
 11
-41.96714156489998
 21
-275.8427094423506
 31
0.0
  0
LINE
  5
1431
330
138A
100
AcDbEntity
  8
0
 62
     0
100
AcDbLine
 10
-42.4582954007479
 20
-276.201280756726
 30
0.0
 11
-42.35796842412195
 21
-276.1009537801001
 31
0.0
  0
LINE
  5
1432
330
138A
100
AcDbEntity
  8
0
 62
     0
100
AcDbLine
 10
-37.26459879177965
 20
-271.0075841477578
 30
0.0
 11
-36.36982960232659
 21
-270.1128149583047
 31
0.0
  0
LINE
  5
1433
330
138A
100
AcDbEntity
  8
0
 62
     0
100
AcDbLine
 10
-42.35615146635868
 20
-276.0991368223368
 30
0.0
 11
-42.27628628029851
 21
-276.0192716362766
 31
0.0
  0
LINE
  5
1434
330
138A
100
AcDbEntity
  8
0
 62
     0
100
AcDbLine
 10
-41.2584767976921
 20
-275.0014621536702
 30
0.0
 11
-41.15868819144969
 21
-274.9016735474278
 31
0.0
  0
LINE
  5
1435
330
138A
100
AcDbEntity
  8
0
 62
     0
100
AcDbLine
 10
-42.27628628029848
 20
-276.0192716362765
 30
0.0
 11
-41.83861559237119
 21
-275.5816009483493
 31
0.0
  0
LINE
  5
1436
330
138A
100
AcDbEntity
  8
0
 62
     0
100
AcDbLine
 10
-41.83861559237118
 20
-275.5816009483492
 30
0.0
 11
-41.72415696015671
 21
-275.4671423161348
 31
0.0
  0
LINE
  5
1437
330
138A
100
AcDbEntity
  8
0
 62
     0
100
AcDbLine
 10
-42.50304732518282
 20
-276.1134501596885
 30
0.0
 11
-42.40272034855689
 21
-276.0131231830625
 31
0.0
  0
LINE
  5
1438
330
138A
100
AcDbEntity
  8
0
 62
     0
100
AcDbLine
 10
-37.39718131325214
 20
-271.0075841477578
 30
0.0
 11
-36.50241212379908
 21
-270.1128149583047
 31
0.0
  0
LINE
  5
1439
330
138A
100
AcDbEntity
  8
0
 62
     0
100
AcDbLine
 10
-42.4009033907936
 20
-276.0113062252992
 30
0.0
 11
-42.19714334742477
 21
-275.8075461819304
 31
0.0
  0
LINE
  5
143A
330
138A
100
AcDbEntity
  8
0
 62
     0
100
AcDbLine
 10
-41.30322872212701
 20
-274.9136315566326
 30
0.0
 11
-41.20344011588461
 21
-274.8138429503903
 31
0.0
  0
LINE
  5
143B
330
138A
100
AcDbEntity
  8
0
 62
     0
100
AcDbLine
 10
-42.19714334742469
 20
-275.8075461819303
 30
0.0
 11
-42.14776030776967
 21
-275.7581631422754
 31
0.0
  0
LINE
  5
143C
330
138A
100
AcDbEntity
  8
0
 62
     0
100
AcDbLine
 10
-42.14776030776969
 20
-275.7581631422754
 30
0.0
 11
-41.71008961984234
 21
-275.320492454348
 31
0.0
  0
LINE
  5
143D
330
138A
100
AcDbEntity
  8
0
 62
     0
100
AcDbLine
 10
-42.54779924961775
 20
-276.0256195626509
 30
0.0
 11
-42.44747227299181
 21
-275.925292586025
 31
0.0
  0
LINE
  5
143E
330
138A
100
AcDbEntity
  8
0
 62
     0
100
AcDbLine
 10
-37.52976383472462
 20
-271.0075841477578
 30
0.0
 11
-36.63499464527156
 21
-270.1128149583047
 31
0.0
  0
LINE
  5
143F
330
138A
100
AcDbEntity
  8
0
 62
     0
100
AcDbLine
 10
-42.44565531522854
 20
-275.9234756282617
 30
0.0
 11
-42.01923433524084
 21
-275.497054648274
 31
0.0
  0
LINE
  5
1440
330
138A
100
AcDbEntity
  8
0
 62
     0
100
AcDbLine
 10
-41.34798064656194
 20
-274.8258009595951
 30
0.0
 11
-41.24819204031953
 21
-274.7260123533527
 31
0.0
  0
LINE
  5
1441
330
138A
100
AcDbEntity
  8
0
 62
     0
100
AcDbLine
 10
-42.01923433524087
 20
-275.497054648274
 30
0.0
 11
-41.58156364731355
 21
-275.0593839603467
 31
0.0
  0
LINE
  5
1442
330
138A
100
AcDbEntity
  8
0
 62
     0
100
AcDbLine
 10
-42.59255117405266
 20
-275.9377889656133
 30
0.0
 11
-42.49040723966347
 21
-275.8356450312241
 31
0.0
  0
LINE
  5
1443
330
138A
100
AcDbEntity
  8
0
 62
     0
100
AcDbLine
 10
-37.6623463561971
 20
-271.0075841477578
 30
0.0
 11
-36.76757716674404
 21
-270.1128149583047
 31
0.0
  0
LINE
  5
1444
330
138A
100
AcDbEntity
  8
0
 62
     0
100
AcDbLine
 10
-42.49040723966347
 20
-275.8356450312241
 30
0.0
 11
-41.89070836271205
 21
-275.2359461542728
 31
0.0
  0
LINE
  5
1445
330
138A
100
AcDbEntity
  8
0
 62
     0
100
AcDbLine
 10
-41.39273257099687
 20
-274.7379703625575
 30
0.0
 11
-41.29294396475446
 21
-274.6381817563151
 31
0.0
  0
LINE
  5
1446
330
138A
100
AcDbEntity
  8
0
 62
     0
100
AcDbLine
 10
-41.89070836271203
 20
-275.2359461542727
 30
0.0
 11
-41.45303767478471
 21
-274.7982754663454
 31
0.0
  0
LINE
  5
1447
330
138A
100
AcDbEntity
  8
0
 62
     0
100
AcDbLine
 10
-42.63730309848759
 20
-275.8499583685758
 30
0.0
 11
-42.53515916409838
 21
-275.7478144341866
 31
0.0
  0
LINE
  5
1448
330
138A
100
AcDbEntity
  8
0
 62
     0
100
AcDbLine
 10
-37.79492887766956
 20
-271.0075841477578
 30
0.0
 11
-36.90015968821653
 21
-270.1128149583047
 31
0.0
  0
LINE
  5
1449
330
138A
100
AcDbEntity
  8
0
 62
     0
100
AcDbLine
 10
-42.53515916409839
 20
-275.7478144341866
 30
0.0
 11
-41.90316465789641
 21
-275.1158199279846
 31
0.0
  0
LINE
  5
144A
330
138A
100
AcDbEntity
  8
0
 62
     0
100
AcDbLine
 10
-41.76218239018321
 20
-274.9748376602715
 30
0.0
 11
-41.32451170225591
 21
-274.5371669723441
 31
0.0
  0
LINE
  5
144B
330
138A
100
AcDbEntity
  8
0
 62
     0
100
AcDbLine
 10
-42.68205502292253
 20
-275.7621277715383
 30
0.0
 11
-42.57991108853331
 21
-275.6599838371491
 31
0.0
  0
LINE
  5
144C
330
138A
100
AcDbEntity
  8
0
 62
     0
100
AcDbLine
 10
-37.92751139914204
 20
-271.0075841477578
 30
0.0
 11
-37.03274220968898
 21
-270.1128149583047
 31
0.0
  0
LINE
  5
144D
330
138A
100
AcDbEntity
  8
0
 62
     0
100
AcDbLine
 10
-42.57991108853332
 20
-275.659983837149
 30
0.0
 11
-41.94791658233133
 21
-275.027989330947
 31
0.0
  0
LINE
  5
144E
330
138A
100
AcDbEntity
  8
0
 62
     0
100
AcDbLine
 10
-41.63365641765442
 20
-274.7137291662701
 30
0.0
 11
-41.19598572972707
 21
-274.2760584783428
 31
0.0
  0
LINE
  5
144F
330
138A
100
AcDbEntity
  8
0
 62
     0
100
AcDbLine
 10
-42.72680694735743
 20
-275.6742971745007
 30
0.0
 11
-42.62466301296824
 21
-275.5721532401115
 31
0.0
  0
LINE
  5
1450
330
138A
100
AcDbEntity
  8
0
 62
     0
100
AcDbLine
 10
-38.06009392061452
 20
-271.0075841477578
 30
0.0
 11
-37.16532473116146
 21
-270.1128149583047
 31
0.0
  0
LINE
  5
1451
330
138A
100
AcDbEntity
  8
0
 62
     0
100
AcDbLine
 10
-42.62466301296824
 20
-275.5721532401115
 30
0.0
 11
-41.99266850676624
 21
-274.9401587339095
 31
0.0
  0
LINE
  5
1452
330
138A
100
AcDbEntity
  8
0
 62
     0
100
AcDbLine
 10
-41.24320808781802
 20
-274.1906983149613
 30
0.0
 11
-41.16028905131896
 21
-274.1077792784622
 31
0.0
  0
LINE
  5
1453
330
138A
100
AcDbEntity
  8
0
 62
     0
100
AcDbLine
 10
-41.52698834430164
 20
-274.4744785714449
 30
0.0
 11
-41.50513044512558
 21
-274.4526206722688
 31
0.0
  0
LINE
  5
1454
330
138A
100
AcDbEntity
  8
0
 62
     0
100
AcDbLine
 10
-41.2918472873847
 20
-274.2393375145279
 30
0.0
 11
-41.26594175883485
 21
-274.2134319859781
 31
0.0
  0
LINE
  5
1455
330
138A
100
AcDbEntity
  8
0
 62
     0
100
AcDbLine
 10
-41.50513044512556
 20
-274.4526206722688
 30
0.0
 11
-41.29184728738475
 21
-274.239337514528
 31
0.0
  0
LINE
  5
1456
330
138A
100
AcDbEntity
  8
0
 62
     0
100
AcDbLine
 10
-42.77155887179236
 20
-275.5864665774631
 30
0.0
 11
-42.66941493740316
 21
-275.484322643074
 31
0.0
  0
LINE
  5
1457
330
138A
100
AcDbEntity
  8
0
 62
     0
100
AcDbLine
 10
-38.192676442087
 20
-271.0075841477578
 30
0.0
 11
-37.29790725263395
 21
-270.1128149583047
 31
0.0
  0
LINE
  5
1458
330
138A
100
AcDbEntity
  8
0
 62
     0
100
AcDbLine
 10
-42.66941493740316
 20
-275.484322643074
 30
0.0
 11
-42.03742043120118
 21
-274.8523281368719
 31
0.0
  0
LINE
  5
1459
330
138A
100
AcDbEntity
  8
0
 62
     0
100
AcDbLine
 10
-41.39132135807054
 20
-274.2062290637413
 30
0.0
 11
-41.15044255176923
 21
-273.96535025744
 31
0.0
  0
LINE
  5
145A
330
138A
100
AcDbEntity
  8
0
 62
     0
100
AcDbLine
 10
-41.57174026873658
 20
-274.3866479744074
 30
0.0
 11
-41.47195166249413
 21
-274.2868593681649
 31
0.0
  0
LINE
  5
145B
330
138A
100
AcDbEntity
  8
0
 62
     0
100
AcDbLine
 10
-42.81631079622728
 20
-275.4986359804255
 30
0.0
 11
-42.71416686183809
 21
-275.3964920460364
 31
0.0
  0
LINE
  5
145C
330
138A
100
AcDbEntity
  8
0
 62
     0
100
AcDbLine
 10
-38.32525896355949
 20
-271.0075841477578
 30
0.0
 11
-37.43048977410643
 21
-270.1128149583047
 31
0.0
  0
LINE
  5
145D
330
138A
100
AcDbEntity
  8
0
 62
     0
100
AcDbLine
 10
-42.71416686183809
 20
-275.3964920460364
 30
0.0
 11
-42.0821723556361
 21
-274.7644975398344
 31
0.0
  0
LINE
  5
145E
330
138A
100
AcDbEntity
  8
0
 62
     0
100
AcDbLine
 10
-41.3814748585208
 20
-274.0638000427191
 30
0.0
 11
-41.1405960522195
 21
-273.8229212364178
 31
0.0
  0
LINE
  5
145F
330
138A
100
AcDbEntity
  8
0
 62
     0
100
AcDbLine
 10
-41.6164921931715
 20
-274.2988173773698
 30
0.0
 11
-41.51670358692905
 21
-274.1990287711273
 31
0.0
  0
LINE
  5
1460
330
138A
100
AcDbEntity
  8
0
 62
     0
100
AcDbLine
 10
-42.86106272066221
 20
-275.410805383388
 30
0.0
 11
-42.75891878627302
 21
-275.3086614489988
 31
0.0
  0
LINE
  5
1461
330
138A
100
AcDbEntity
  8
0
 62
     0
100
AcDbLine
 10
-38.45784148503194
 20
-271.0075841477578
 30
0.0
 11
-37.56307229557891
 21
-270.1128149583047
 31
0.0
  0
LINE
  5
1462
330
138A
100
AcDbEntity
  8
0
 62
     0
100
AcDbLine
 10
-42.75891878627301
 20
-275.3086614489988
 30
0.0
 11
-42.12692428007102
 21
-274.6766669427968
 31
0.0
  0
LINE
  5
1463
330
138A
100
AcDbEntity
  8
0
 62
     0
100
AcDbLine
 10
-41.37162835897107
 20
-273.9213710216969
 30
0.0
 11
-41.13074955266977
 21
-273.6804922153956
 31
0.0
  0
LINE
  5
1464
330
138A
100
AcDbEntity
  8
0
 62
     0
100
AcDbLine
 10
-41.66124411760642
 20
-274.2109867803322
 30
0.0
 11
-41.56145551136398
 21
-274.1111981740898
 31
0.0
  0
LINE
  5
1465
330
138A
100
AcDbEntity
  8
0
 62
     0
100
AcDbLine
 10
-42.90581464509713
 20
-275.3229747863504
 30
0.0
 11
-42.80367071070794
 21
-275.2208308519613
 31
0.0
  0
LINE
  5
1466
330
138A
100
AcDbEntity
  8
0
 62
     0
100
AcDbLine
 10
-38.59042400650442
 20
-271.0075841477578
 30
0.0
 11
-37.69565481705136
 21
-270.1128149583047
 31
0.0
  0
LINE
  5
1467
330
138A
100
AcDbEntity
  8
0
 62
     0
100
AcDbLine
 10
-42.80367071070794
 20
-275.2208308519613
 30
0.0
 11
-42.17167620450595
 21
-274.5888363457593
 31
0.0
  0
LINE
  5
1468
330
138A
100
AcDbEntity
  8
0
 62
     0
100
AcDbLine
 10
-41.36178185942134
 20
-273.7789420006746
 30
0.0
 11
-41.12090305312004
 21
-273.5380631943733
 31
0.0
  0
LINE
  5
1469
330
138A
100
AcDbEntity
  8
0
 62
     0
100
AcDbLine
 10
-41.70599604204134
 20
-274.1231561832947
 30
0.0
 11
-41.60620743579889
 21
-274.0233675770522
 31
0.0
  0
LINE
  5
146A
330
138A
100
AcDbEntity
  8
0
 62
     0
100
AcDbLine
 10
-42.95056656953206
 20
-275.2351441893129
 30
0.0
 11
-42.84842263514287
 21
-275.1330002549237
 31
0.0
  0
LINE
  5
146B
330
138A
100
AcDbEntity
  8
0
 62
     0
100
AcDbLine
 10
-38.72300652797691
 20
-271.0075841477578
 30
0.0
 11
-37.82823733852385
 21
-270.1128149583047
 31
0.0
  0
LINE
  5
146C
330
138A
100
AcDbEntity
  8
0
 62
     0
100
AcDbLine
 10
-42.84842263514287
 20
-275.1330002549237
 30
0.0
 11
-42.21642812894087
 21
-274.5010057487217
 31
0.0
  0
LINE
  5
146D
330
138A
100
AcDbEntity
  8
0
 62
     0
100
AcDbLine
 10
-41.35193535987162
 20
-273.6365129796524
 30
0.0
 11
-41.11105655357031
 21
-273.3956341733511
 31
0.0
  0
LINE
  5
146E
330
138A
100
AcDbEntity
  8
0
 62
     0
100
AcDbLine
 10
-41.75074796647627
 20
-274.0353255862571
 30
0.0
 11
-41.65095936023383
 21
-273.9355369800147
 31
0.0
  0
LINE
  5
146F
330
138A
100
AcDbEntity
  8
0
 62
     0
100
AcDbLine
 10
-42.99531849396698
 20
-275.1473135922753
 30
0.0
 11
-42.89317455957778
 21
-275.0451696578862
 31
0.0
  0
LINE
  5
1470
330
138A
100
AcDbEntity
  8
0
 62
     0
100
AcDbLine
 10
-38.85558904944939
 20
-271.0075841477578
 30
0.0
 11
-37.96081985999633
 21
-270.1128149583047
 31
0.0
  0
LINE
  5
1471
330
138A
100
AcDbEntity
  8
0
 62
     0
100
AcDbLine
 10
-42.89317455957778
 20
-275.0451696578862
 30
0.0
 11
-42.2611800533758
 21
-274.4131751516842
 31
0.0
  0
LINE
  5
1472
330
138A
100
AcDbEntity
  8
0
 62
     0
100
AcDbLine
 10
-41.34208886032189
 20
-273.4940839586302
 30
0.0
 11
-41.10121005402058
 21
-273.2532051523289
 31
0.0
  0
LINE
  5
1473
330
138A
100
AcDbEntity
  8
0
 62
     0
100
AcDbLine
 10
-41.79549989091119
 20
-273.9474949892195
 30
0.0
 11
-41.69571128466874
 21
-273.8477063829771
 31
0.0
  0
LINE
  5
1474
330
138A
100
AcDbEntity
  8
0
 62
     0
100
AcDbLine
 10
-43.0400704184019
 20
-275.0594829952378
 30
0.0
 11
-42.93792648401271
 21
-274.9573390608487
 31
0.0
  0
LINE
  5
1475
330
138A
100
AcDbEntity
  8
0
 62
     0
100
AcDbLine
 10
-38.98817157092188
 20
-271.0075841477578
 30
0.0
 11
-38.09340238146882
 21
-270.1128149583047
 31
0.0
  0
LINE
  5
1476
330
138A
100
AcDbEntity
  8
0
 62
     0
100
AcDbLine
 10
-42.93792648401271
 20
-274.9573390608486
 30
0.0
 11
-42.30593197781072
 21
-274.3253445546466
 31
0.0
  0
LINE
  5
1477
330
138A
100
AcDbEntity
  8
0
 62
     0
100
AcDbLine
 10
-41.33224236077215
 20
-273.351654937608
 30
0.0
 11
-41.09136355447085
 21
-273.1107761313067
 31
0.0
  0
LINE
  5
1478
330
138A
100
AcDbEntity
  8
0
 62
     0
100
AcDbLine
 10
-41.84025181534611
 20
-273.859664392182
 30
0.0
 11
-41.74046320910367
 21
-273.7598757859395
 31
0.0
  0
LINE
  5
1479
330
138A
100
AcDbEntity
  8
0
 62
     0
100
AcDbLine
 10
-43.08482234283682
 20
-274.9716523982002
 30
0.0
 11
-42.98267840844763
 21
-274.8695084638111
 31
0.0
  0
LINE
  5
147A
330
138A
100
AcDbEntity
  8
0
 62
     0
100
AcDbLine
 10
-39.12075409239436
 20
-271.0075841477578
 30
0.0
 11
-38.2259849029413
 21
-270.1128149583047
 31
0.0
  0
LINE
  5
147B
330
138A
100
AcDbEntity
  8
0
 62
     0
100
AcDbLine
 10
-42.98267840844764
 20
-274.8695084638111
 30
0.0
 11
-42.35068390224564
 21
-274.2375139576091
 31
0.0
  0
LINE
  5
147C
330
138A
100
AcDbEntity
  8
0
 62
     0
100
AcDbLine
 10
-41.08151705492112
 20
-272.9683471102845
 30
0.0
 11
-40.96181643366968
 21
-272.848646489033
 31
0.0
  0
LINE
  5
147D
330
138A
100
AcDbEntity
  8
0
 62
     0
100
AcDbLine
 10
-41.88500373978103
 20
-273.7718337951445
 30
0.0
 11
-41.78521513353859
 21
-273.672045188902
 31
0.0
  0
LINE
  5
147E
330
138A
100
AcDbEntity
  8
0
 62
     0
100
AcDbLine
 10
-41.32239586122242
 20
-273.2092259165858
 30
0.0
 11
-41.08151705492112
 21
-272.9683471102845
 31
0.0
  0
LINE
  5
147F
330
138A
100
AcDbEntity
  8
0
 62
     0
100
AcDbLine
 10
-43.12957426727176
 20
-274.8838218011627
 30
0.0
 11
-43.02743033288257
 21
-274.7816778667736
 31
0.0
  0
LINE
  5
1480
330
138A
100
AcDbEntity
  8
0
 62
     0
100
AcDbLine
 10
-39.25333661386681
 20
-271.0075841477578
 30
0.0
 11
-38.35856742441375
 21
-270.1128149583047
 31
0.0
  0
LINE
  5
1481
330
138A
100
AcDbEntity
  8
0
 62
     0
100
AcDbLine
 10
-43.02743033288256
 20
-274.7816778667735
 30
0.0
 11
-42.39543582668058
 21
-274.1496833605715
 31
0.0
  0
LINE
  5
1482
330
138A
100
AcDbEntity
  8
0
 62
     0
100
AcDbLine
 10
-41.07167055537138
 20
-272.8259180892623
 30
0.0
 11
-40.79761027123158
 21
-272.5518578051226
 31
0.0
  0
LINE
  5
1483
330
138A
100
AcDbEntity
  8
0
 62
     0
100
AcDbLine
 10
-41.92975566421597
 20
-273.6840031981069
 30
0.0
 11
-41.82996705797352
 21
-273.5842145918645
 31
0.0
  0
LINE
  5
1484
330
138A
100
AcDbEntity
  8
0
 62
     0
100
AcDbLine
 10
-41.3125493616727
 20
-273.0667968955636
 30
0.0
 11
-41.07167055537138
 21
-272.8259180892623
 31
0.0
  0
LINE
  5
1485
330
138A
100
AcDbEntity
  8
0
 62
     0
100
AcDbLine
 10
-43.17432619170667
 20
-274.7959912041251
 30
0.0
 11
-43.07218225731747
 21
-274.693847269736
 31
0.0
  0
LINE
  5
1486
330
138A
100
AcDbEntity
  8
0
 62
     0
100
AcDbLine
 10
-39.3859191353393
 20
-271.0075841477578
 30
0.0
 11
-38.49114994588624
 21
-270.1128149583047
 31
0.0
  0
LINE
  5
1487
330
138A
100
AcDbEntity
  8
0
 62
     0
100
AcDbLine
 10
-43.07218225731748
 20
-274.693847269736
 30
0.0
 11
-42.44018775111549
 21
-274.0618527635339
 31
0.0
  0
LINE
  5
1488
330
138A
100
AcDbEntity
  8
0
 62
     0
100
AcDbLine
 10
-41.06182405582166
 20
-272.6834890682401
 30
0.0
 11
-40.63340410879347
 21
-272.2550691212119
 31
0.0
  0
LINE
  5
1489
330
138A
100
AcDbEntity
  8
0
 62
     0
100
AcDbLine
 10
-41.97450758865088
 20
-273.5961726010693
 30
0.0
 11
-41.87471898240843
 21
-273.4963839948269
 31
0.0
  0
LINE
  5
148A
330
138A
100
AcDbEntity
  8
0
 62
     0
100
AcDbLine
 10
-41.30270286212296
 20
-272.9243678745414
 30
0.0
 11
-41.06182405582166
 21
-272.6834890682401
 31
0.0
  0
LINE
  5
148B
330
138A
100
AcDbEntity
  8
0
 62
     0
100
AcDbLine
 10
-43.2190781161416
 20
-274.7081606070876
 30
0.0
 11
-43.11693418175241
 21
-274.6060166726984
 31
0.0
  0
LINE
  5
148C
330
138A
100
AcDbEntity
  8
0
 62
     0
100
AcDbLine
 10
-39.51850165681178
 20
-271.0075841477578
 30
0.0
 11
-38.62373246735872
 21
-270.1128149583047
 31
0.0
  0
LINE
  5
148D
330
138A
100
AcDbEntity
  8
0
 62
     0
100
AcDbLine
 10
-43.11693418175241
 20
-274.6060166726984
 30
0.0
 11
-42.48493967555043
 21
-273.9740221664964
 31
0.0
  0
LINE
  5
148E
330
138A
100
AcDbEntity
  8
0
 62
     0
100
AcDbLine
 10
-41.04147028864789
 20
-272.5305527795939
 30
0.0
 11
-40.46919794635537
 21
-271.9582804373014
 31
0.0
  0
LINE
  5
148F
330
138A
100
AcDbEntity
  8
0
 62
     0
100
AcDbLine
 10
-42.0192595130858
 20
-273.5083420040318
 30
0.0
 11
-41.91947090684336
 21
-273.4085533977893
 31
0.0
  0
LINE
  5
1490
330
138A
100
AcDbEntity
  8
0
 62
     0
100
AcDbLine
 10
-41.29285636257323
 20
-272.7819388535192
 30
0.0
 11
-41.05197755627193
 21
-272.5410600472179
 31
0.0
  0
LINE
  5
1491
330
138A
100
AcDbEntity
  8
0
 62
     0
100
AcDbLine
 10
-43.26383004057651
 20
-274.62033001005
 30
0.0
 11
-43.16168610618734
 21
-274.5181860756609
 31
0.0
  0
LINE
  5
1492
330
138A
100
AcDbEntity
  8
0
 62
     0
100
AcDbLine
 10
-39.65108417828427
 20
-271.0075841477578
 30
0.0
 11
-38.7563149888312
 21
-270.1128149583047
 31
0.0
  0
LINE
  5
1493
330
138A
100
AcDbEntity
  8
0
 62
     0
100
AcDbLine
 10
-43.16168610618732
 20
-274.5181860756608
 30
0.0
 11
-42.52969159998534
 21
-273.8861915694589
 31
0.0
  0
LINE
  5
1494
330
138A
100
AcDbEntity
  8
0
 62
     0
100
AcDbLine
 10
-40.87726412620977
 20
-272.2337640956832
 30
0.0
 11
-40.30499178391731
 21
-271.6614917533908
 31
0.0
  0
LINE
  5
1495
330
138A
100
AcDbEntity
  8
0
 62
     0
100
AcDbLine
 10
-42.06401143752072
 20
-273.4205114069942
 30
0.0
 11
-41.96422283127828
 21
-273.3207228007517
 31
0.0
  0
LINE
  5
1496
330
138A
100
AcDbEntity
  8
0
 62
     0
100
AcDbLine
 10
-41.2830098630235
 20
-272.639509832497
 30
0.0
 11
-41.04213105672219
 21
-272.3986310261957
 31
0.0
  0
LINE
  5
1497
330
138A
100
AcDbEntity
  8
0
 62
     0
100
AcDbLine
 10
-43.30858196501145
 20
-274.5324994130124
 30
0.0
 11
-43.20643803062226
 21
-274.4303554786233
 31
0.0
  0
LINE
  5
1498
330
138A
100
AcDbEntity
  8
0
 62
     0
100
AcDbLine
 10
-39.78366669975674
 20
-271.0075841477578
 30
0.0
 11
-38.88889751030369
 21
-270.1128149583047
 31
0.0
  0
LINE
  5
1499
330
138A
100
AcDbEntity
  8
0
 62
     0
100
AcDbLine
 10
-43.20643803062226
 20
-274.4303554786232
 30
0.0
 11
-42.57444352442026
 21
-273.7983609724213
 31
0.0
  0
LINE
  5
149A
330
138A
100
AcDbEntity
  8
0
 62
     0
100
AcDbLine
 10
-40.71305796377171
 20
-271.9369754117727
 30
0.0
 11
-40.14078562147921
 21
-271.3647030694802
 31
0.0
  0
LINE
  5
149B
330
138A
100
AcDbEntity
  8
0
 62
     0
100
AcDbLine
 10
-42.10876336195565
 20
-273.3326808099567
 30
0.0
 11
-42.00897475571321
 21
-273.2328922037142
 31
0.0
  0
LINE
  5
149C
330
138A
100
AcDbEntity
  8
0
 62
     0
100
AcDbLine
 10
-41.27316336347377
 20
-272.4970808114748
 30
0.0
 11
-41.03228455717245
 21
-272.2562020051735
 31
0.0
  0
LINE
  5
149D
330
138A
100
AcDbEntity
  8
0
 62
     0
100
AcDbLine
 10
-43.35333388944637
 20
-274.4446688159749
 30
0.0
 11
-43.25118995505717
 21
-274.3425248815857
 31
0.0
  0
LINE
  5
149E
330
138A
100
AcDbEntity
  8
0
 62
     0
100
AcDbLine
 10
-39.9162492212292
 20
-271.0075841477578
 30
0.0
 11
-39.02148003177617
 21
-270.1128149583047
 31
0.0
  0
LINE
  5
149F
330
138A
100
AcDbEntity
  8
0
 62
     0
100
AcDbLine
 10
-43.25118995505718
 20
-274.3425248815857
 30
0.0
 11
-42.61919544885519
 21
-273.7105303753837
 31
0.0
  0
LINE
  5
14A0
330
138A
100
AcDbEntity
  8
0
 62
     0
100
AcDbLine
 10
-40.5488518013336
 20
-271.6401867278622
 30
0.0
 11
-39.97657945904111
 21
-271.0679143855696
 31
0.0
  0
LINE
  5
14A1
330
138A
100
AcDbEntity
  8
0
 62
     0
100
AcDbLine
 10
-42.15351528639057
 20
-273.2448502129191
 30
0.0
 11
-42.05372668014815
 21
-273.1450616066767
 31
0.0
  0
LINE
  5
14A2
330
138A
100
AcDbEntity
  8
0
 62
     0
100
AcDbLine
 10
-41.26331686392403
 20
-272.3546517904526
 30
0.0
 11
-41.02243805762273
 21
-272.1137729841512
 31
0.0
  0
LINE
  5
14A3
330
138A
100
AcDbEntity
  8
0
 62
     0
100
AcDbLine
 10
-43.39808581388129
 20
-274.3568382189374
 30
0.0
 11
-43.29594187949211
 21
-274.2546942845482
 31
0.0
  0
LINE
  5
14A4
330
138A
100
AcDbEntity
  8
0
 62
     0
100
AcDbLine
 10
-40.04883174270166
 20
-271.0075841477577
 30
0.0
 11
-39.15406255324862
 21
-270.1128149583047
 31
0.0
  0
LINE
  5
14A5
330
138A
100
AcDbEntity
  8
0
 62
     0
100
AcDbLine
 10
-43.29594187949211
 20
-274.2546942845482
 30
0.0
 11
-42.66394737329011
 21
-273.6226997783461
 31
0.0
  0
LINE
  5
14A6
330
138A
100
AcDbEntity
  8
0
 62
     0
100
AcDbLine
 10
-40.38464563889553
 20
-271.3433980439516
 30
0.0
 11
-40.04883174270168
 21
-271.0075841477578
 31
0.0
  0
LINE
  5
14A7
330
138A
100
AcDbEntity
  8
0
 62
     0
100
AcDbLine
 10
-42.19826721082549
 20
-273.1570196158815
 30
0.0
 11
-42.09847860458307
 21
-273.0572310096391
 31
0.0
  0
LINE
  5
14A8
330
138A
100
AcDbEntity
  8
0
 62
     0
100
AcDbLine
 10
-41.25347036437431
 20
-272.2122227694304
 30
0.0
 11
-41.01259155807299
 21
-271.971343963129
 31
0.0
  0
LINE
  5
14A9
330
138A
100
AcDbEntity
  8
0
 62
     0
100
AcDbLine
 10
-43.44283773831622
 20
-274.2690076218998
 30
0.0
 11
-43.34069380392703
 21
-274.1668636875106
 31
0.0
  0
LINE
  5
14AA
330
138A
100
AcDbEntity
  8
0
 62
     0
100
AcDbLine
 10
-40.18141426417416
 20
-271.0075841477577
 30
0.0
 11
-39.28664507472111
 21
-270.1128149583047
 31
0.0
  0
LINE
  5
14AB
330
138A
100
AcDbEntity
  8
0
 62
     0
100
AcDbLine
 10
-43.34069380392703
 20
-274.1668636875106
 30
0.0
 11
-42.70869929772504
 21
-273.5348691813086
 31
0.0
  0
LINE
  5
14AC
330
138A
100
AcDbEntity
  8
0
 62
     0
100
AcDbLine
 10
-40.22043947645742
 20
-271.046609360041
 30
0.0
 11
-40.18141426417416
 21
-271.0075841477578
 31
0.0
  0
LINE
  5
14AD
330
138A
100
AcDbEntity
  8
0
 62
     0
100
AcDbLine
 10
-42.24301913526041
 20
-273.069189018844
 30
0.0
 11
-42.14323052901799
 21
-272.9694004126015
 31
0.0
  0
LINE
  5
14AE
330
138A
100
AcDbEntity
  8
0
 62
     0
100
AcDbLine
 10
-41.24362386482458
 20
-272.0697937484081
 30
0.0
 11
-41.00274505852326
 21
-271.8289149421068
 31
0.0
  0
LINE
  5
14AF
330
138A
100
AcDbEntity
  8
0
 62
     0
100
AcDbLine
 10
-43.48758966275113
 20
-274.1811770248623
 30
0.0
 11
-43.38544572836195
 21
-274.0790330904731
 31
0.0
  0
LINE
  5
14B0
330
138A
100
AcDbEntity
  8
0
 62
     0
100
AcDbLine
 10
-40.31399678564665
 20
-271.0075841477578
 30
0.0
 11
-39.41922759619359
 21
-270.1128149583047
 31
0.0
  0
LINE
  5
14B1
330
138A
100
AcDbEntity
  8
0
 62
     0
100
AcDbLine
 10
-43.38544572836195
 20
-274.0790330904731
 30
0.0
 11
-42.75345122215997
 21
-273.447038584271
 31
0.0
  0
LINE
  5
14B2
330
138A
100
AcDbEntity
  8
0
 62
     0
100
AcDbLine
 10
-41.23377736527484
 20
-271.9273647273859
 30
0.0
 11
-40.99289855897352
 21
-271.6864859210846
 31
0.0
  0
LINE
  5
14B3
330
138A
100
AcDbEntity
  8
0
 62
     0
100
AcDbLine
 10
-42.28777105969533
 20
-272.9813584218064
 30
0.0
 11
-42.18798245345292
 21
-272.881569815564
 31
0.0
  0
LINE
  5
14B4
330
138A
100
AcDbEntity
  8
0
 62
     0
100
AcDbLine
 10
-43.53234158718605
 20
-274.0933464278247
 30
0.0
 11
-43.43019765279687
 21
-273.9912024934355
 31
0.0
  0
LINE
  5
14B5
330
138A
100
AcDbEntity
  8
0
 62
     0
100
AcDbLine
 10
-40.44657930711912
 20
-271.0075841477578
 30
0.0
 11
-39.55181011766607
 21
-270.1128149583047
 31
0.0
  0
LINE
  5
14B6
330
138A
100
AcDbEntity
  8
0
 62
     0
100
AcDbLine
 10
-43.43019765279688
 20
-273.9912024934355
 30
0.0
 11
-42.79820314659487
 21
-273.3592079872335
 31
0.0
  0
LINE
  5
14B7
330
138A
100
AcDbEntity
  8
0
 62
     0
100
AcDbLine
 10
-41.22393086572511
 20
-271.7849357063637
 30
0.0
 11
-40.9830520594238
 21
-271.5440569000624
 31
0.0
  0
LINE
  5
14B8
330
138A
100
AcDbEntity
  8
0
 62
     0
100
AcDbLine
 10
-42.33252298413026
 20
-272.8935278247689
 30
0.0
 11
-42.23273437788784
 21
-272.7937392185264
 31
0.0
  0
LINE
  5
14B9
330
138A
100
AcDbEntity
  8
0
 62
     0
100
AcDbLine
 10
-43.57709351162099
 20
-274.0055158307872
 30
0.0
 11
-43.4749495772318
 21
-273.903371896398
 31
0.0
  0
LINE
  5
14BA
330
138A
100
AcDbEntity
  8
0
 62
     0
100
AcDbLine
 10
-40.57916182859158
 20
-271.0075841477578
 30
0.0
 11
-39.68439263913856
 21
-270.1128149583047
 31
0.0
  0
LINE
  5
14BB
330
138A
100
AcDbEntity
  8
0
 62
     0
100
AcDbLine
 10
-43.4749495772318
 20
-273.903371896398
 30
0.0
 11
-42.84295507102982
 21
-273.2713773901959
 31
0.0
  0
LINE
  5
14BC
330
138A
100
AcDbEntity
  8
0
 62
     0
100
AcDbLine
 10
-41.21408436617539
 20
-271.6425066853415
 30
0.0
 11
-40.97320555987406
 21
-271.4016278790402
 31
0.0
  0
LINE
  5
14BD
330
138A
100
AcDbEntity
  8
0
 62
     0
100
AcDbLine
 10
-42.37727490856518
 20
-272.8056972277314
 30
0.0
 11
-42.27748630232276
 21
-272.705908621489
 31
0.0
  0
LINE
  5
14BE
330
138A
100
AcDbEntity
  8
0
 62
     0
100
AcDbLine
 10
-43.6218454360559
 20
-273.9176852337496
 30
0.0
 11
-43.51970150166672
 21
-273.8155412993604
 31
0.0
  0
LINE
  5
14BF
330
138A
100
AcDbEntity
  8
0
 62
     0
100
AcDbLine
 10
-40.71174435006406
 20
-271.0075841477578
 30
0.0
 11
-39.81697516061101
 21
-270.1128149583047
 31
0.0
  0
LINE
  5
14C0
330
138A
100
AcDbEntity
  8
0
 62
     0
100
AcDbLine
 10
-43.51970150166672
 20
-273.8155412993604
 30
0.0
 11
-42.88770699546473
 21
-273.1835467931584
 31
0.0
  0
LINE
  5
14C1
330
138A
100
AcDbEntity
  8
0
 62
     0
100
AcDbLine
 10
-41.20423786662565
 20
-271.5000776643193
 30
0.0
 11
-40.96335906032432
 21
-271.259198858018
 31
0.0
  0
LINE
  5
14C2
330
138A
100
AcDbEntity
  8
0
 62
     0
100
AcDbLine
 10
-42.4220268330001
 20
-272.7178666306938
 30
0.0
 11
-42.32223822675769
 21
-272.6180780244514
 31
0.0
  0
LINE
  5
14C3
330
138A
100
AcDbEntity
  8
0
 62
     0
100
AcDbLine
 10
-43.66659736049083
 20
-273.829854636712
 30
0.0
 11
-43.56445342610165
 21
-273.7277107023229
 31
0.0
  0
LINE
  5
14C4
330
138A
100
AcDbEntity
  8
0
 62
     0
100
AcDbLine
 10
-40.84432687153655
 20
-271.0075841477578
 30
0.0
 11
-39.94955768208349
 21
-270.1128149583047
 31
0.0
  0
LINE
  5
14C5
330
138A
100
AcDbEntity
  8
0
 62
     0
100
AcDbLine
 10
-43.56445342610164
 20
-273.7277107023228
 30
0.0
 11
-42.93245891989965
 21
-273.0957161961208
 31
0.0
  0
LINE
  5
14C6
330
138A
100
AcDbEntity
  8
0
 62
     0
100
AcDbLine
 10
-41.19439136707593
 20
-271.3576486432971
 30
0.0
 11
-40.95351256077459
 21
-271.1167698369958
 31
0.0
  0
LINE
  5
14C7
330
138A
100
AcDbEntity
  8
0
 62
     0
100
AcDbLine
 10
-42.46677875743502
 20
-272.6300360336562
 30
0.0
 11
-42.36699015119261
 21
-272.5302474274138
 31
0.0
  0
LINE
  5
14C8
330
138A
100
AcDbEntity
  8
0
 62
     0
100
AcDbLine
 10
-43.71134928492576
 20
-273.7420240396744
 30
0.0
 11
-43.60920535053657
 21
-273.6398801052853
 31
0.0
  0
LINE
  5
14C9
330
138A
100
AcDbEntity
  8
0
 62
     0
100
AcDbLine
 10
-40.97690939300903
 20
-271.0075841477578
 30
0.0
 11
-40.08214020355597
 21
-270.1128149583047
 31
0.0
  0
LINE
  5
14CA
330
138A
100
AcDbEntity
  8
0
 62
     0
100
AcDbLine
 10
-43.60920535053657
 20
-273.6398801052853
 30
0.0
 11
-42.97721084433458
 21
-273.0078855990833
 31
0.0
  0
LINE
  5
14CB
330
138A
100
AcDbEntity
  8
0
 62
     0
100
AcDbLine
 10
-41.1845448675262
 20
-271.2152196222749
 30
0.0
 11
-40.97690939300904
 21
-271.0075841477578
 31
0.0
  0
LINE
  5
14CC
330
138A
100
AcDbEntity
  8
0
 62
     0
100
AcDbLine
 10
-42.51153068186996
 20
-272.5422054366187
 30
0.0
 11
-42.41174207562753
 21
-272.4424168303762
 31
0.0
  0
LINE
  5
14CD
330
138A
100
AcDbEntity
  8
0
 62
     0
100
AcDbLine
 10
-43.75610120936068
 20
-273.6541934426369
 30
0.0
 11
-43.65395727497149
 21
-273.5520495082478
 31
0.0
  0
LINE
  5
14CE
330
138A
100
AcDbEntity
  8
0
 62
     0
100
AcDbLine
 10
-41.10949191448152
 20
-271.0075841477578
 30
0.0
 11
-40.21472272502846
 21
-270.1128149583047
 31
0.0
  0
LINE
  5
14CF
330
138A
100
AcDbEntity
  8
0
 62
     0
100
AcDbLine
 10
-43.65395727497149
 20
-273.5520495082478
 30
0.0
 11
-43.02196276876951
 21
-272.9200550020458
 31
0.0
  0
LINE
  5
14D0
330
138A
100
AcDbEntity
  8
0
 62
     0
100
AcDbLine
 10
-41.17469836797646
 20
-271.0727906012527
 30
0.0
 11
-41.10949191448153
 21
-271.0075841477578
 31
0.0
  0
LINE
  5
14D1
330
138A
100
AcDbEntity
  8
0
 62
     0
100
AcDbLine
 10
-42.55628260630487
 20
-272.4543748395811
 30
0.0
 11
-42.45649400006246
 21
-272.3545862333387
 31
0.0
  0
LINE
  5
14D2
330
138A
100
AcDbEntity
  8
0
 62
     0
100
AcDbLine
 10
-43.8008531337956
 20
-273.5663628455994
 30
0.0
 11
-43.69870919940642
 21
-273.4642189112102
 31
0.0
  0
LINE
  5
14D3
330
138A
100
AcDbEntity
  8
0
 62
     0
100
AcDbLine
 10
-41.242074435954
 20
-271.0075841477578
 30
0.0
 11
-40.34730524650094
 21
-270.1128149583047
 31
0.0
  0
LINE
  5
14D4
330
138A
100
AcDbEntity
  8
0
 62
     0
100
AcDbLine
 10
-43.69870919940643
 20
-273.4642189112102
 30
0.0
 11
-43.06671469320444
 21
-272.8322244050082
 31
0.0
  0
LINE
  5
14D5
330
138A
100
AcDbEntity
  8
0
 62
     0
100
AcDbLine
 10
-42.6010345307398
 20
-272.3665442425436
 30
0.0
 11
-42.50124592449738
 21
-272.2667556363012
 31
0.0
  0
LINE
  5
14D6
330
138A
100
AcDbEntity
  8
0
 62
     0
100
AcDbLine
 10
-43.84560505823052
 20
-273.4785322485618
 30
0.0
 11
-43.74346112384134
 21
-273.3763883141727
 31
0.0
  0
LINE
  5
14D7
330
138A
100
AcDbEntity
  8
0
 62
     0
100
AcDbLine
 10
-41.37465695742645
 20
-271.0075841477578
 30
0.0
 11
-40.47988776797339
 21
-270.1128149583047
 31
0.0
  0
LINE
  5
14D8
330
138A
100
AcDbEntity
  8
0
 62
     0
100
AcDbLine
 10
-43.74346112384134
 20
-273.3763883141726
 30
0.0
 11
-43.11146661763936
 21
-272.7443938079706
 31
0.0
  0
LINE
  5
14D9
330
138A
100
AcDbEntity
  8
0
 62
     0
100
AcDbLine
 10
-42.64578645517471
 20
-272.278713645506
 30
0.0
 11
-42.5459978489323
 21
-272.1789250392636
 31
0.0
  0
LINE
  5
14DA
330
138A
100
AcDbEntity
  8
0
 62
     0
100
AcDbLine
 10
-43.89035698266545
 20
-273.3907016515242
 30
0.0
 11
-43.78821304827627
 21
-273.2885577171351
 31
0.0
  0
LINE
  5
14DB
330
138A
100
AcDbEntity
  8
0
 62
     0
100
AcDbLine
 10
-41.50723947889893
 20
-271.0075841477578
 30
0.0
 11
-40.61247028944587
 21
-270.1128149583047
 31
0.0
  0
LINE
  5
14DC
330
138A
100
AcDbEntity
  8
0
 62
     0
100
AcDbLine
 10
-43.78821304827627
 20
-273.2885577171351
 30
0.0
 11
-43.15621854207427
 21
-272.6565632109331
 31
0.0
  0
LINE
  5
14DD
330
138A
100
AcDbEntity
  8
0
 62
     0
100
AcDbLine
 10
-42.69053837960965
 20
-272.1908830484685
 30
0.0
 11
-42.59074977336722
 21
-272.0910944422261
 31
0.0
  0
LINE
  5
14DE
330
138A
100
AcDbEntity
  8
0
 62
     0
100
AcDbLine
 10
-43.93510890710039
 20
-273.3028710544867
 30
0.0
 11
-43.83296497271119
 21
-273.2007271200976
 31
0.0
  0
LINE
  5
14DF
330
138A
100
AcDbEntity
  8
0
 62
     0
100
AcDbLine
 10
-41.63982200037142
 20
-271.0075841477578
 30
0.0
 11
-40.74505281091837
 21
-270.1128149583047
 31
0.0
  0
LINE
  5
14E0
330
138A
100
AcDbEntity
  8
0
 62
     0
100
AcDbLine
 10
-43.83296497271119
 20
-273.2007271200975
 30
0.0
 11
-43.2009704665092
 21
-272.5687326138955
 31
0.0
  0
LINE
  5
14E1
330
138A
100
AcDbEntity
  8
0
 62
     0
100
AcDbLine
 10
-42.73529030404456
 20
-272.1030524514309
 30
0.0
 11
-42.63550169780215
 21
-272.0032638451885
 31
0.0
  0
LINE
  5
14E2
330
138A
100
AcDbEntity
  8
0
 62
     0
100
AcDbLine
 10
-43.97986083153529
 20
-273.2150404574491
 30
0.0
 11
-43.87771689714611
 21
-273.11289652306
 31
0.0
  0
LINE
  5
14E3
330
138A
100
AcDbEntity
  8
0
 62
     0
100
AcDbLine
 10
-41.7724045218439
 20
-271.0075841477578
 30
0.0
 11
-40.87763533239084
 21
-270.1128149583047
 31
0.0
  0
LINE
  5
14E4
330
138A
100
AcDbEntity
  8
0
 62
     0
100
AcDbLine
 10
-43.87771689714612
 20
-273.11289652306
 30
0.0
 11
-43.24572239094412
 21
-272.480902016858
 31
0.0
  0
LINE
  5
14E5
330
138A
100
AcDbEntity
  8
0
 62
     0
100
AcDbLine
 10
-42.78004222847949
 20
-272.0152218543934
 30
0.0
 11
-42.68025362223707
 21
-271.9154332481509
 31
0.0
  0
LINE
  5
14E6
330
138A
100
AcDbEntity
  8
0
 62
     0
100
AcDbLine
 10
-44.02461275597022
 20
-273.1272098604116
 30
0.0
 11
-43.92246882158103
 21
-273.0250659260224
 31
0.0
  0
LINE
  5
14E7
330
138A
100
AcDbEntity
  8
0
 62
     0
100
AcDbLine
 10
-41.90498704331639
 20
-271.0075841477578
 30
0.0
 11
-41.01021785386333
 21
-270.1128149583047
 31
0.0
  0
LINE
  5
14E8
330
138A
100
AcDbEntity
  8
0
 62
     0
100
AcDbLine
 10
-43.92246882158103
 20
-273.0250659260224
 30
0.0
 11
-43.29047431537905
 21
-272.3930714198204
 31
0.0
  0
LINE
  5
14E9
330
138A
100
AcDbEntity
  8
0
 62
     0
100
AcDbLine
 10
-42.8247941529144
 20
-271.9273912573558
 30
0.0
 11
-42.72500554667199
 21
-271.8276026511134
 31
0.0
  0
LINE
  5
14EA
330
138A
100
AcDbEntity
  8
0
 62
     0
100
AcDbLine
 10
-44.06936468040514
 20
-273.0393792633741
 30
0.0
 11
-43.96722074601596
 21
-272.9372353289849
 31
0.0
  0
LINE
  5
14EB
330
138A
100
AcDbEntity
  8
0
 62
     0
100
AcDbLine
 10
-42.03756956478883
 20
-271.0075841477578
 30
0.0
 11
-41.14280037533577
 21
-270.1128149583047
 31
0.0
  0
LINE
  5
14EC
330
138A
100
AcDbEntity
  8
0
 62
     0
100
AcDbLine
 10
-43.96722074601596
 20
-272.9372353289849
 30
0.0
 11
-43.33522623981397
 21
-272.3052408227829
 31
0.0
  0
LINE
  5
14ED
330
138A
100
AcDbEntity
  8
0
 62
     0
100
AcDbLine
 10
-42.86954607734934
 20
-271.8395606603182
 30
0.0
 11
-42.76975747110692
 21
-271.7397720540759
 31
0.0
  0
LINE
  5
14EE
330
138A
100
AcDbEntity
  8
0
 62
     0
100
AcDbLine
 10
-44.11411660484007
 20
-272.9515486663365
 30
0.0
 11
-44.01197267045088
 21
-272.8494047319474
 31
0.0
  0
LINE
  5
14EF
330
138A
100
AcDbEntity
  8
0
 62
     0
100
AcDbLine
 10
-42.17015208626132
 20
-271.0075841477578
 30
0.0
 11
-41.27538289680827
 21
-270.1128149583047
 31
0.0
  0
LINE
  5
14F0
330
138A
100
AcDbEntity
  8
0
 62
     0
100
AcDbLine
 10
-44.01197267045089
 20
-272.8494047319474
 30
0.0
 11
-43.3799781642489
 21
-272.2174102257453
 31
0.0
  0
LINE
  5
14F1
330
138A
100
AcDbEntity
  8
0
 62
     0
100
AcDbLine
 10
-42.91429800178426
 20
-271.7517300632807
 30
0.0
 11
-42.81450939554184
 21
-271.6519414570383
 31
0.0
  0
LINE
  5
14F2
330
138A
100
AcDbEntity
  8
0
 62
     0
100
AcDbLine
 10
-43.03552049306387
 20
-271.8729525545603
 30
0.0
 11
-42.91429800178426
 21
-271.7517300632807
 31
0.0
  0
LINE
  5
14F3
330
138A
100
AcDbEntity
  8
0
 62
     0
100
AcDbLine
 10
-44.15886852927499
 20
-272.8637180692989
 30
0.0
 11
-44.0567245948858
 21
-272.7615741349098
 31
0.0
  0
LINE
  5
14F4
330
138A
100
AcDbEntity
  8
0
 62
     0
100
AcDbLine
 10
-42.30273460773381
 20
-271.0075841477578
 30
0.0
 11
-41.40796541828075
 21
-270.1128149583047
 31
0.0
  0
LINE
  5
14F5
330
138A
100
AcDbEntity
  8
0
 62
     0
100
AcDbLine
 10
-44.05672459488581
 20
-272.7615741349098
 30
0.0
 11
-43.42473008868381
 21
-272.1295796287078
 31
0.0
  0
LINE
  5
14F6
330
138A
100
AcDbEntity
  8
0
 62
     0
100
AcDbLine
 10
-42.95904992621917
 20
-271.6638994662432
 30
0.0
 11
-42.85926131997678
 21
-271.5641108600007
 31
0.0
  0
LINE
  5
14F7
330
138A
100
AcDbEntity
  8
0
 62
     0
100
AcDbLine
 10
-43.30583527562661
 20
-272.0106848156506
 30
0.0
 11
-43.03567928394395
 21
-271.7405288239679
 31
0.0
  0
LINE
  5
14F8
330
138A
100
AcDbEntity
  8
0
 62
     0
100
AcDbLine
 10
-44.20362045370992
 20
-272.7758874722614
 30
0.0
 11
-44.10147651932073
 21
-272.6737435378722
 31
0.0
  0
LINE
  5
14F9
330
138A
100
AcDbEntity
  8
0
 62
     0
100
AcDbLine
 10
-42.43531712920629
 20
-271.0075841477578
 30
0.0
 11
-41.54054793975324
 21
-270.1128149583047
 31
0.0
  0
LINE
  5
14FA
330
138A
100
AcDbEntity
  8
0
 62
     0
100
AcDbLine
 10
-44.10147651932073
 20
-272.6737435378722
 30
0.0
 11
-43.57615005818931
 21
-272.1484170767408
 31
0.0
  0
LINE
  5
14FB
330
138A
100
AcDbEntity
  8
0
 62
     0
100
AcDbLine
 10
-43.00380185065409
 20
-271.5760688692056
 30
0.0
 11
-42.9040132444117
 21
-271.4762802629631
 31
0.0
  0
LINE
  5
14FC
330
138A
100
AcDbEntity
  8
0
 62
     0
100
AcDbLine
 10
-43.57615005818945
 20
-272.1484170767408
 30
0.0
 11
-43.29449434520518
 21
-271.8667613637567
 31
0.0
  0
LINE
  5
14FD
330
138A
100
AcDbEntity
  8
0
 62
     0
100
AcDbLine
 10
-44.24837237814484
 20
-272.6880568752238
 30
0.0
 11
-44.14622844375565
 21
-272.5859129408347
 31
0.0
  0
LINE
  5
14FE
330
138A
100
AcDbEntity
  8
0
 62
     0
100
AcDbLine
 10
-42.56789965067877
 20
-271.0075841477578
 30
0.0
 11
-41.67313046122571
 21
-270.1128149583047
 31
0.0
  0
LINE
  5
14FF
330
138A
100
AcDbEntity
  8
0
 62
     0
100
AcDbLine
 10
-44.14622844375567
 20
-272.5859129408347
 30
0.0
 11
-43.81389900091518
 21
-272.2535834979942
 31
0.0
  0
LINE
  5
1500
330
138A
100
AcDbEntity
  8
0
 62
     0
100
AcDbLine
 10
-43.04855377508903
 20
-271.488238272168
 30
0.0
 11
-42.94876516884662
 21
-271.3884496659257
 31
0.0
  0
LINE
  5
1501
330
138A
100
AcDbEntity
  8
0
 62
     0
100
AcDbLine
 10
-43.81389900091516
 20
-272.2535834979942
 30
0.0
 11
-43.5533094064665
 21
-271.9929939035455
 31
0.0
  0
LINE
  5
1502
330
138A
100
AcDbEntity
  8
0
 62
     0
100
AcDbLine
 10
-43.55330940646641
 20
-271.9929939035454
 30
0.0
 11
-43.51423393755367
 21
-271.9539184346327
 31
0.0
  0
LINE
  5
1503
330
138A
100
AcDbEntity
  8
0
 62
     0
100
AcDbLine
 10
-44.29312430257975
 20
-272.6002262781863
 30
0.0
 11
-44.19098036819057
 21
-272.4980823437971
 31
0.0
  0
LINE
  5
1504
330
138A
100
AcDbEntity
  8
0
 62
     0
100
AcDbLine
 10
-42.70048217215122
 20
-271.0075841477578
 30
0.0
 11
-41.80571298269817
 21
-270.1128149583047
 31
0.0
  0
LINE
  5
1505
330
138A
100
AcDbEntity
  8
0
 62
     0
100
AcDbLine
 10
-44.19098036819058
 20
-272.4980823437971
 30
0.0
 11
-43.85736435006013
 21
-272.1644663256667
 31
0.0
  0
LINE
  5
1506
330
138A
100
AcDbEntity
  8
0
 62
     0
100
AcDbLine
 10
-43.09330569952394
 20
-271.4004076751304
 30
0.0
 11
-42.99351709328155
 21
-271.3006190688881
 31
0.0
  0
LINE
  5
1507
330
138A
100
AcDbEntity
  8
0
 62
     0
100
AcDbLine
 10
-43.85736435006017
 20
-272.1644663256666
 30
0.0
 11
-43.81212446772781
 21
-272.1192264433343
 31
0.0
  0
LINE
  5
1508
330
138A
100
AcDbEntity
  8
0
 62
     0
100
AcDbLine
 10
-43.81212446772774
 20
-272.1192264433343
 30
0.0
 11
-43.5589858619886
 21
-271.8660878375951
 31
0.0
  0
LINE
  5
1509
330
138A
100
AcDbEntity
  8
0
 62
     0
100
AcDbLine
 10
-44.33787622701468
 20
-272.5123956811487
 30
0.0
 11
-44.23573229262551
 21
-272.4102517467596
 31
0.0
  0
LINE
  5
150A
330
138A
100
AcDbEntity
  8
0
 62
     0
100
AcDbLine
 10
-42.83306469362371
 20
-271.0075841477578
 30
0.0
 11
-41.93829550417065
 21
-270.1128149583047
 31
0.0
  0
LINE
  5
150B
330
138A
100
AcDbEntity
  8
0
 62
     0
100
AcDbLine
 10
-44.23573229262551
 20
-272.4102517467596
 30
0.0
 11
-43.60373778642352
 21
-271.7782572405575
 31
0.0
  0
LINE
  5
150C
330
138A
100
AcDbEntity
  8
0
 62
     0
100
AcDbLine
 10
-43.13805762395886
 20
-271.3125770780929
 30
0.0
 11
-43.03826901771647
 21
-271.2127884718505
 31
0.0
  0
LINE
  5
150D
330
138A
100
AcDbEntity
  8
0
 62
     0
100
AcDbLine
 10
-44.38262815144962
 20
-272.4245650841112
 30
0.0
 11
-44.28048421706043
 21
-272.3224211497221
 31
0.0
  0
LINE
  5
150E
330
138A
100
AcDbEntity
  8
0
 62
     0
100
AcDbLine
 10
-42.9656472150962
 20
-271.0075841477578
 30
0.0
 11
-42.07087802564314
 21
-270.1128149583047
 31
0.0
  0
LINE
  5
150F
330
138A
100
AcDbEntity
  8
0
 62
     0
100
AcDbLine
 10
-44.28048421706043
 20
-272.322421149722
 30
0.0
 11
-43.64848971085844
 21
-271.69042664352
 31
0.0
  0
LINE
  5
1510
330
138A
100
AcDbEntity
  8
0
 62
     0
100
AcDbLine
 10
-43.18280954839378
 20
-271.2247464810554
 30
0.0
 11
-43.08302094215139
 21
-271.1249578748129
 31
0.0
  0
LINE
  5
1511
330
138A
100
AcDbEntity
  8
0
 62
     0
100
AcDbLine
 10
-44.42738007588452
 20
-272.3367344870736
 30
0.0
 11
-44.32523614149536
 21
-272.2345905526844
 31
0.0
  0
LINE
  5
1512
330
138A
100
AcDbEntity
  8
0
 62
     0
100
AcDbLine
 10
-43.09822973656867
 20
-271.0075841477578
 30
0.0
 11
-42.20346054711562
 21
-270.1128149583047
 31
0.0
  0
LINE
  5
1513
330
138A
100
AcDbEntity
  8
0
 62
     0
100
AcDbLine
 10
-44.32523614149537
 20
-272.2345905526844
 30
0.0
 11
-43.69324163529338
 21
-271.6025960464825
 31
0.0
  0
LINE
  5
1514
330
138A
100
AcDbEntity
  8
0
 62
     0
100
AcDbLine
 10
-43.22756147282872
 20
-271.1369158840178
 30
0.0
 11
-43.12777286658632
 21
-271.0371272777754
 31
0.0
  0
LINE
  5
1515
330
138A
100
AcDbEntity
  8
0
 62
     0
100
AcDbLine
 10
-44.47213200031946
 20
-272.2489038900361
 30
0.0
 11
-44.36998806593027
 21
-272.1467599556469
 31
0.0
  0
LINE
  5
1516
330
138A
100
AcDbEntity
  8
0
 62
     0
100
AcDbLine
 10
-43.23081225804116
 20
-271.0075841477578
 30
0.0
 11
-42.3360430685881
 21
-270.1128149583047
 31
0.0
  0
LINE
  5
1517
330
138A
100
AcDbEntity
  8
0
 62
     0
100
AcDbLine
 10
-44.36998806593028
 20
-272.1467599556469
 30
0.0
 11
-43.7379935597283
 21
-271.5147654494449
 31
0.0
  0
LINE
  5
1518
330
138A
100
AcDbEntity
  8
0
 62
     0
100
AcDbLine
 10
-43.27231339726363
 20
-271.0490852869802
 30
0.0
 11
-43.23081225804115
 21
-271.0075841477578
 31
0.0
  0
LINE
  5
1519
330
138A
100
AcDbEntity
  8
0
 62
     0
100
AcDbLine
 10
-44.51688392475437
 20
-272.1610732929985
 30
0.0
 11
-44.41473999036521
 21
-272.0589293586094
 31
0.0
  0
LINE
  5
151A
330
138A
100
AcDbEntity
  8
0
 62
     0
100
AcDbLine
 10
-43.36339477951361
 20
-271.0075841477578
 30
0.0
 11
-42.46862559006059
 21
-270.1128149583047
 31
0.0
  0
LINE
  5
151B
330
138A
100
AcDbEntity
  8
0
 62
     0
100
AcDbLine
 10
-44.4147399903652
 20
-272.0589293586093
 30
0.0
 11
-43.78274548416323
 21
-271.4269348524073
 31
0.0
  0
LINE
  5
151C
330
138A
100
AcDbEntity
  8
0
 62
     0
100
AcDbLine
 10
-44.5616358491893
 20
-272.0732426959609
 30
0.0
 11
-44.45949191480012
 21
-271.9710987615718
 31
0.0
  0
LINE
  5
151D
330
138A
100
AcDbEntity
  8
0
 62
     0
100
AcDbLine
 10
-43.4959773009861
 20
-271.0075841477578
 30
0.0
 11
-42.60120811153304
 21
-270.1128149583047
 31
0.0
  0
LINE
  5
151E
330
138A
100
AcDbEntity
  8
0
 62
     0
100
AcDbLine
 10
-44.45949191480013
 20
-271.9710987615718
 30
0.0
 11
-43.82749740859814
 21
-271.3391042553698
 31
0.0
  0
LINE
  5
151F
330
138A
100
AcDbEntity
  8
0
 62
     0
100
AcDbLine
 10
-44.60638777362423
 20
-271.9854120989233
 30
0.0
 11
-44.50424383923505
 21
-271.8832681645342
 31
0.0
  0
LINE
  5
1520
330
138A
100
AcDbEntity
  8
0
 62
     0
100
AcDbLine
 10
-43.62855982245858
 20
-271.0075841477578
 30
0.0
 11
-42.73379063300552
 21
-270.1128149583047
 31
0.0
  0
LINE
  5
1521
330
138A
100
AcDbEntity
  8
0
 62
     0
100
AcDbLine
 10
-44.50424383923506
 20
-271.8832681645342
 30
0.0
 11
-43.87224933303307
 21
-271.2512736583323
 31
0.0
  0
LINE
  5
1522
330
138A
100
AcDbEntity
  8
0
 62
     0
100
AcDbLine
 10
-44.65113969805915
 20
-271.8975815018858
 30
0.0
 11
-44.54899576366996
 21
-271.7954375674967
 31
0.0
  0
LINE
  5
1523
330
138A
100
AcDbEntity
  8
0
 62
     0
100
AcDbLine
 10
-43.76114234393106
 20
-271.0075841477578
 30
0.0
 11
-42.86637315447801
 21
-270.1128149583047
 31
0.0
  0
LINE
  5
1524
330
138A
100
AcDbEntity
  8
0
 62
     0
100
AcDbLine
 10
-44.54899576366997
 20
-271.7954375674967
 30
0.0
 11
-43.91700125746799
 21
-271.1634430612947
 31
0.0
  0
LINE
  5
1525
330
138A
100
AcDbEntity
  8
0
 62
     0
100
AcDbLine
 10
-44.69589162249408
 20
-271.8097509048483
 30
0.0
 11
-44.5937476881049
 21
-271.7076069704591
 31
0.0
  0
LINE
  5
1526
330
138A
100
AcDbEntity
  8
0
 62
     0
100
AcDbLine
 10
-43.89372486540355
 20
-271.0075841477578
 30
0.0
 11
-42.99895567595049
 21
-270.1128149583047
 31
0.0
  0
LINE
  5
1527
330
138A
100
AcDbEntity
  8
0
 62
     0
100
AcDbLine
 10
-44.59374768810491
 20
-271.7076069704591
 30
0.0
 11
-43.96175318190293
 21
-271.0756124642572
 31
0.0
  0
LINE
  5
1528
330
138A
100
AcDbEntity
  8
0
 62
     0
100
AcDbLine
 10
-44.74064354692899
 20
-271.7219203078107
 30
0.0
 11
-44.63849961253981
 21
-271.6197763734216
 31
0.0
  0
LINE
  5
1529
330
138A
100
AcDbEntity
  8
0
 62
     0
100
AcDbLine
 10
-44.02630738687596
 20
-271.0075841477577
 30
0.0
 11
-43.13153819742297
 21
-270.1128149583047
 31
0.0
  0
LINE
  5
152A
330
138A
100
AcDbEntity
  8
0
 62
     0
100
AcDbLine
 10
-44.63849961253983
 20
-271.6197763734216
 30
0.0
 11
-44.02630738687603
 21
-271.0075841477578
 31
0.0
  0
LINE
  5
152B
330
138A
100
AcDbEntity
  8
0
 62
     0
100
AcDbLine
 10
-44.78539547136391
 20
-271.6340897107732
 30
0.0
 11
-44.68325153697474
 21
-271.5319457763841
 31
0.0
  0
LINE
  5
152C
330
138A
100
AcDbEntity
  8
0
 62
     0
100
AcDbLine
 10
-44.15888990834845
 20
-271.0075841477577
 30
0.0
 11
-43.26412071889542
 21
-270.1128149583047
 31
0.0
  0
LINE
  5
152D
330
138A
100
AcDbEntity
  8
0
 62
     0
100
AcDbLine
 10
-44.68325153697477
 20
-271.531945776384
 30
0.0
 11
-44.15888990834848
 21
-271.0075841477578
 31
0.0
  0
LINE
  5
152E
330
138A
100
AcDbEntity
  8
0
 62
     0
100
AcDbLine
 10
-44.83014739579885
 20
-271.5462591137356
 30
0.0
 11
-44.72800346140967
 21
-271.4441151793465
 31
0.0
  0
LINE
  5
152F
330
138A
100
AcDbEntity
  8
0
 62
     0
100
AcDbLine
 10
-44.29147242982091
 20
-271.0075841477577
 30
0.0
 11
-43.39670324036791
 21
-270.1128149583047
 31
0.0
  0
LINE
  5
1530
330
138A
100
AcDbEntity
  8
0
 62
     0
100
AcDbLine
 10
-44.72800346140968
 20
-271.4441151793465
 30
0.0
 11
-44.29147242982097
 21
-271.0075841477578
 31
0.0
  0
LINE
  5
1531
330
138A
100
AcDbEntity
  8
0
 62
     0
100
AcDbLine
 10
-44.87489932023376
 20
-271.4584285166981
 30
0.0
 11
-44.7727553858446
 21
-271.3562845823089
 31
0.0
  0
LINE
  5
1532
330
138A
100
AcDbEntity
  8
0
 62
     0
100
AcDbLine
 10
-44.42405495129341
 20
-271.0075841477577
 30
0.0
 11
-43.5292857618404
 21
-270.1128149583047
 31
0.0
  0
LINE
  5
1533
330
138A
100
AcDbEntity
  8
0
 62
     0
100
AcDbLine
 10
-44.77275538584461
 20
-271.3562845823089
 30
0.0
 11
-44.42405495129345
 21
-271.0075841477578
 31
0.0
  0
LINE
  5
1534
330
138A
100
AcDbEntity
  8
0
 62
     0
100
AcDbLine
 10
-44.91965124466869
 20
-271.3705979196606
 30
0.0
 11
-44.81750731027952
 21
-271.2684539852714
 31
0.0
  0
LINE
  5
1535
330
138A
100
AcDbEntity
  8
0
 62
     0
100
AcDbLine
 10
-44.55663747276587
 20
-271.0075841477577
 30
0.0
 11
-43.66186828331287
 21
-270.1128149583047
 31
0.0
  0
LINE
  5
1536
330
138A
100
AcDbEntity
  8
0
 62
     0
100
AcDbLine
 10
-44.81750731027953
 20
-271.2684539852714
 30
0.0
 11
-44.55663747276593
 21
-271.0075841477578
 31
0.0
  0
LINE
  5
1537
330
138A
100
AcDbEntity
  8
0
 62
     0
100
AcDbLine
 10
-44.96440316910361
 20
-271.282767322623
 30
0.0
 11
-44.86225923471444
 21
-271.1806233882338
 31
0.0
  0
LINE
  5
1538
330
138A
100
AcDbEntity
  8
0
 62
     0
100
AcDbLine
 10
-44.68921999423836
 20
-271.0075841477577
 30
0.0
 11
-43.79445080478536
 21
-270.1128149583047
 31
0.0
  0
LINE
  5
1539
330
138A
100
AcDbEntity
  8
0
 62
     0
100
AcDbLine
 10
-44.86225923471446
 20
-271.1806233882338
 30
0.0
 11
-44.68921999423842
 21
-271.0075841477578
 31
0.0
  0
LINE
  5
153A
330
138A
100
AcDbEntity
  8
0
 62
     0
100
AcDbLine
 10
-45.00915509353854
 20
-271.1949367255854
 30
0.0
 11
-44.93619626528839
 21
-271.1219778973352
 31
0.0
  0
LINE
  5
153B
330
138A
100
AcDbEntity
  8
0
 62
     0
100
AcDbLine
 10
-44.82180251571087
 20
-271.0075841477578
 30
0.0
 11
-43.92703332625781
 21
-270.1128149583047
 31
0.0
  0
LINE
  5
153C
330
138A
100
AcDbEntity
  8
0
 62
     0
100
AcDbLine
 10
-44.95438503718335
 20
-271.0075841477578
 30
0.0
 11
-44.0596158477303
 21
-270.1128149583047
 31
0.0
  0
LINE
  5
153D
330
138A
100
AcDbEntity
  8
0
 62
     0
100
AcDbLine
 10
-45.08696755865584
 20
-271.0075841477578
 30
0.0
 11
-44.19219836920278
 21
-270.1128149583047
 31
0.0
  0
LINE
  5
153E
330
138A
100
AcDbEntity
  8
0
 62
     0
100
AcDbLine
 10
-45.21955008012832
 20
-271.0075841477578
 30
0.0
 11
-44.32478089067527
 21
-270.1128149583047
 31
0.0
  0
LINE
  5
153F
330
138A
100
AcDbEntity
  8
0
 62
     0
100
AcDbLine
 10
-45.23372463886881
 20
-270.8891761850257
 30
0.0
 11
-44.45736341214774
 21
-270.1128149583047
 31
0.0
  0
LINE
  5
1540
330
138A
100
AcDbEntity
  8
0
 62
     0
100
AcDbLine
 10
-45.23372463886881
 20
-270.7565936635533
 30
0.0
 11
-44.5899459336202
 21
-270.1128149583047
 31
0.0
  0
LINE
  5
1541
330
138A
100
AcDbEntity
  8
0
 62
     0
100
AcDbLine
 10
-45.23372463886881
 20
-270.6240111420808
 30
0.0
 11
-44.72252845509268
 21
-270.1128149583047
 31
0.0
  0
LINE
  5
1542
330
138A
100
AcDbEntity
  8
0
 62
     0
100
AcDbLine
 10
-45.23372463886881
 20
-270.4914286206083
 30
0.0
 11
-44.85511097656517
 21
-270.1128149583047
 31
0.0
  0
LINE
  5
1543
330
138A
100
AcDbEntity
  8
0
 62
     0
100
AcDbLine
 10
-45.2337246388688
 20
-270.3588460991359
 30
0.0
 11
-44.98769349803765
 21
-270.1128149583047
 31
0.0
  0
LINE
  5
1544
330
138A
100
AcDbEntity
  8
0
 62
     0
100
AcDbLine
 10
-45.2337246388688
 20
-270.2262635776634
 30
0.0
 11
-45.12027601951014
 21
-270.1128149583047
 31
0.0
  0
LINE
  5
1545
330
138A
100
AcDbEntity
  8
0
 62
     0
100
AcDbLine
 10
-39.27512850824
 20
-279.5146574163695
 30
0.0
 11
-38.5413666900566
 21
-278.7808955981861
 31
0.0
  0
LINE
  5
1546
330
138A
100
AcDbEntity
  8
0
 62
     0
100
AcDbLine
 10
-39.16241960701883
 20
-279.5345310366208
 30
0.0
 11
-38.42865778883542
 21
-278.8007692184374
 31
0.0
  0
LINE
  5
1547
330
138A
100
AcDbEntity
  8
0
 62
     0
100
AcDbLine
 10
-39.04971070579762
 20
-279.5544046568721
 30
0.0
 11
-38.31594888761424
 21
-278.8206428386887
 31
0.0
  0
LINE
  5
1548
330
138A
100
AcDbEntity
  8
0
 62
     0
100
AcDbLine
 10
-38.93700180457646
 20
-279.5742782771234
 30
0.0
 11
-38.20323998639308
 21
-278.84051645894
 31
0.0
  0
LINE
  5
1549
330
138A
100
AcDbEntity
  8
0
 62
     0
100
AcDbLine
 10
-38.82429290335529
 20
-279.5941518973747
 30
0.0
 11
-38.0905310851719
 21
-278.8603900791913
 31
0.0
  0
LINE
  5
154A
330
138A
100
AcDbEntity
  8
0
 62
     0
100
AcDbLine
 10
-38.71158400213412
 20
-279.614025517626
 30
0.0
 11
-37.97782218395072
 21
-278.8802636994426
 31
0.0
  0
LINE
  5
154B
330
138A
100
AcDbEntity
  8
0
 62
     0
100
AcDbLine
 10
-38.59887510091292
 20
-279.6338991378773
 30
0.0
 11
-37.86511328272954
 21
-278.9001373196939
 31
0.0
  0
LINE
  5
154C
330
138A
100
AcDbEntity
  8
0
 62
     0
100
AcDbLine
 10
-38.48616619969174
 20
-279.6537727581286
 30
0.0
 11
-37.75240438150836
 21
-278.9200109399452
 31
0.0
  0
LINE
  5
154D
330
138A
100
AcDbEntity
  8
0
 62
     0
100
AcDbLine
 10
-38.37345729847058
 20
-279.6736463783799
 30
0.0
 11
-37.63969548028717
 21
-278.9398845601965
 31
0.0
  0
LINE
  5
154E
330
138A
100
AcDbEntity
  8
0
 62
     0
100
AcDbLine
 10
-38.26074839724942
 20
-279.6935199986312
 30
0.0
 11
-37.526986579066
 21
-278.9597581804478
 31
0.0
  0
LINE
  5
154F
330
138A
100
AcDbEntity
  8
0
 62
     0
100
AcDbLine
 10
-38.14803949602821
 20
-279.7133936188825
 30
0.0
 11
-37.41427767784482
 21
-278.9796318006991
 31
0.0
  0
LINE
  5
1550
330
138A
100
AcDbEntity
  8
0
 62
     0
100
AcDbLine
 10
-38.03533059480704
 20
-279.7332672391338
 30
0.0
 11
-37.30156877662363
 21
-278.9995054209504
 31
0.0
  0
LINE
  5
1551
330
138A
100
AcDbEntity
  8
0
 62
     0
100
AcDbLine
 10
-37.92262169358588
 20
-279.7531408593851
 30
0.0
 11
-37.18885987540245
 21
-279.0193790412017
 31
0.0
  0
LINE
  5
1552
330
138A
100
AcDbEntity
  8
0
 62
     0
100
AcDbLine
 10
-37.80991279236471
 20
-279.7730144796364
 30
0.0
 11
-37.07615097418127
 21
-279.039252661453
 31
0.0
  0
LINE
  5
1553
330
138A
100
AcDbEntity
  8
0
 62
     0
100
AcDbLine
 10
-37.6972038911435
 20
-279.7928880998877
 30
0.0
 11
-36.96344207296009
 21
-279.0591262817043
 31
0.0
  0
LINE
  5
1554
330
138A
100
AcDbEntity
  8
0
 62
     0
100
AcDbLine
 10
-37.58449498992233
 20
-279.812761720139
 30
0.0
 11
-36.85073317173891
 21
-279.0789999019556
 31
0.0
  0
LINE
  5
1555
330
138A
100
AcDbEntity
  8
0
 62
     0
100
AcDbLine
 10
-37.47178608870117
 20
-279.8326353403903
 30
0.0
 11
-36.73802427051778
 21
-279.0988735222069
 31
0.0
  0
LINE
  5
1556
330
138A
100
AcDbEntity
  8
0
 62
     0
100
AcDbLine
 10
-37.35907718748001
 20
-279.8525089606416
 30
0.0
 11
-36.62531536929659
 21
-279.1187471424582
 31
0.0
  0
LINE
  5
1557
330
138A
100
AcDbEntity
  8
0
 62
     0
100
AcDbLine
 10
-37.24636828625879
 20
-279.8723825808929
 30
0.0
 11
-36.51260646807542
 21
-279.1386207627095
 31
0.0
  0
LINE
  5
1558
330
138A
100
AcDbEntity
  8
0
 62
     0
100
AcDbLine
 10
-37.13365938503763
 20
-279.8922562011442
 30
0.0
 11
-36.39989756685424
 21
-279.1584943829608
 31
0.0
  0
LINE
  5
1559
330
138A
100
AcDbEntity
  8
0
 62
     0
100
AcDbLine
 10
-37.02095048381647
 20
-279.9121298213955
 30
0.0
 11
-36.28718866563306
 21
-279.1783680032121
 31
0.0
  0
LINE
  5
155A
330
138A
100
AcDbEntity
  8
0
 62
     0
100
AcDbLine
 10
-36.9082415825953
 20
-279.9320034416468
 30
0.0
 11
-36.17447976441188
 21
-279.1982416234634
 31
0.0
  0
LINE
  5
155B
330
138A
100
AcDbEntity
  8
0
 62
     0
100
AcDbLine
 10
-36.79553268137409
 20
-279.9518770618981
 30
0.0
 11
-36.0617708631907
 21
-279.2181152437147
 31
0.0
  0
LINE
  5
155C
330
138A
100
AcDbEntity
  8
0
 62
     0
100
AcDbLine
 10
-36.68282378015292
 20
-279.9717506821494
 30
0.0
 11
-35.94906196196951
 21
-279.237988863966
 31
0.0
  0
LINE
  5
155D
330
138A
100
AcDbEntity
  8
0
 62
     0
100
AcDbLine
 10
-36.57011487893175
 20
-279.9916243024007
 30
0.0
 11
-35.83635306074833
 21
-279.2578624842173
 31
0.0
  0
LINE
  5
155E
330
138A
100
AcDbEntity
  8
0
 62
     0
100
AcDbLine
 10
-36.45740597771059
 20
-280.011497922652
 30
0.0
 11
-35.72364415952716
 21
-279.2777361044686
 31
0.0
  0
LINE
  5
155F
330
138A
100
AcDbEntity
  8
0
 62
     0
100
AcDbLine
 10
-36.34469707648938
 20
-280.0313715429033
 30
0.0
 11
-35.61093525830597
 21
-279.2976097247199
 31
0.0
  0
LINE
  5
1560
330
138A
100
AcDbEntity
  8
0
 62
     0
100
AcDbLine
 10
-36.23198817526822
 20
-280.0512451631546
 30
0.0
 11
-35.49822635708479
 21
-279.3174833449712
 31
0.0
  0
LINE
  5
1561
330
138A
100
AcDbEntity
  8
0
 62
     0
100
AcDbLine
 10
-36.11927927404706
 20
-280.0711187834059
 30
0.0
 11
-35.38551745586361
 21
-279.3373569652225
 31
0.0
  0
LINE
  5
1562
330
138A
100
AcDbEntity
  8
0
 62
     0
100
AcDbLine
 10
-36.00657037282589
 20
-280.0909924036572
 30
0.0
 11
-35.27280855464243
 21
-279.3572305854738
 31
0.0
  0
LINE
  5
1563
330
138A
100
AcDbEntity
  8
0
 62
     0
100
AcDbLine
 10
-35.89386147160467
 20
-280.1108660239085
 30
0.0
 11
-35.16009965342125
 21
-279.3771042057251
 31
0.0
  0
LINE
  5
1564
330
138A
100
AcDbEntity
  8
0
 62
     0
100
AcDbLine
 10
-35.78115257038351
 20
-280.1307396441598
 30
0.0
 11
-35.04739075220007
 21
-279.3969778259764
 31
0.0
  0
LINE
  5
1565
330
138A
100
AcDbEntity
  8
0
 62
     0
100
AcDbLine
 10
-35.66844366916234
 20
-280.1506132644111
 30
0.0
 11
-34.93468185097889
 21
-279.4168514462277
 31
0.0
  0
LINE
  5
1566
330
138A
100
AcDbEntity
  8
0
 62
     0
100
AcDbLine
 10
-35.55573476794118
 20
-280.1704868846624
 30
0.0
 11
-34.82197294975771
 21
-279.436725066479
 31
0.0
  0
LINE
  5
1567
330
138A
100
AcDbEntity
  8
0
 62
     0
100
AcDbLine
 10
-35.44302586671997
 20
-280.1903605049137
 30
0.0
 11
-34.70926404853658
 21
-279.4565986867303
 31
0.0
  0
LINE
  5
1568
330
138A
100
AcDbEntity
  8
0
 62
     0
100
AcDbLine
 10
-35.3303169654988
 20
-280.210234125165
 30
0.0
 11
-34.59655514731539
 21
-279.4764723069816
 31
0.0
  0
LINE
  5
1569
330
138A
100
AcDbEntity
  8
0
 62
     0
100
AcDbLine
 10
-35.21760806427764
 20
-280.2301077454163
 30
0.0
 11
-34.48384624609421
 21
-279.496345927233
 31
0.0
  0
LINE
  5
156A
330
138A
100
AcDbEntity
  8
0
 62
     0
100
AcDbLine
 10
-35.10489916305647
 20
-280.2499813656676
 30
0.0
 11
-34.65961316436878
 21
-279.80469536698
 31
0.0
  0
LINE
  5
156B
330
138A
100
AcDbEntity
  8
0
 62
     0
100
AcDbLine
 10
-34.49507239555112
 20
-279.6401545981623
 30
0.0
 11
-34.37113734487303
 21
-279.5162195474842
 31
0.0
  0
LINE
  5
156C
330
138A
100
AcDbEntity
  8
0
 62
     0
100
AcDbLine
 10
-34.65961316436874
 20
-279.8046953669799
 30
0.0
 11
-34.49507239555113
 21
-279.6401545981623
 31
0.0
  0
LINE
  5
156D
330
138A
100
AcDbEntity
  8
0
 62
     0
100
AcDbLine
 10
-34.99219026183526
 20
-280.2698549859189
 30
0.0
 11
-34.61254978408334
 21
-279.890214508167
 31
0.0
  0
LINE
  5
156E
330
138A
100
AcDbEntity
  8
0
 62
     0
100
AcDbLine
 10
-34.4505443932725
 20
-279.7282091173562
 30
0.0
 11
-34.25842844365185
 21
-279.5360931677355
 31
0.0
  0
LINE
  5
156F
330
138A
100
AcDbEntity
  8
0
 62
     0
100
AcDbLine
 10
-34.61254978408327
 20
-279.8902145081669
 30
0.0
 11
-34.45054439327251
 21
-279.7282091173562
 31
0.0
  0
LINE
  5
1570
330
138A
100
AcDbEntity
  8
0
 62
     0
100
AcDbLine
 10
-34.8794813606141
 20
-280.2897286061702
 30
0.0
 11
-34.56548640379791
 21
-279.975733649354
 31
0.0
  0
LINE
  5
1571
330
138A
100
AcDbEntity
  8
0
 62
     0
100
AcDbLine
 10
-34.40601639099387
 20
-279.81626363655
 30
0.0
 11
-34.18212969867614
 21
-279.5923769442322
 31
0.0
  0
LINE
  5
1572
330
138A
100
AcDbEntity
  8
0
 62
     0
100
AcDbLine
 10
-34.5654864037978
 20
-279.975733649354
 30
0.0
 11
-34.4060163909939
 21
-279.81626363655
 31
0.0
  0
LINE
  5
1573
330
138A
100
AcDbEntity
  8
0
 62
     0
100
AcDbLine
 10
-34.76677245939293
 20
-280.3096022264215
 30
0.0
 11
-34.51842302351247
 21
-280.0612527905411
 31
0.0
  0
LINE
  5
1574
330
138A
100
AcDbEntity
  8
0
 62
     0
100
AcDbLine
 10
-34.36148838871525
 20
-279.9043181557439
 30
0.0
 11
-34.21610863625688
 21
-279.7589384032855
 31
0.0
  0
LINE
  5
1575
330
138A
100
AcDbEntity
  8
0
 62
     0
100
AcDbLine
 10
-34.51842302351233
 20
-280.0612527905409
 30
0.0
 11
-34.36148838871528
 21
-279.9043181557439
 31
0.0
  0
LINE
  5
1576
330
138A
100
AcDbEntity
  8
0
 62
     0
100
AcDbLine
 10
-34.65406355817177
 20
-280.3294758466728
 30
0.0
 11
-34.47135964322703
 21
-280.1467719317281
 31
0.0
  0
LINE
  5
1577
330
138A
100
AcDbEntity
  8
0
 62
     0
100
AcDbLine
 10
-34.31696038643663
 20
-279.9923726749377
 30
0.0
 11
-34.25008757383762
 21
-279.9254998623387
 31
0.0
  0
LINE
  5
1578
330
138A
100
AcDbEntity
  8
0
 62
     0
100
AcDbLine
 10
-34.47135964322686
 20
-280.1467719317279
 30
0.0
 11
-34.31696038643667
 21
-279.9923726749378
 31
0.0
  0
LINE
  5
1579
330
138A
100
AcDbEntity
  8
0
 62
     0
100
AcDbLine
 10
-34.54135465695056
 20
-280.3493494669242
 30
0.0
 11
-34.4242962629416
 21
-280.2322910729151
 31
0.0
  0
LINE
  5
157A
330
138A
100
AcDbEntity
  8
0
 62
     0
100
AcDbLine
 10
-34.42429626294139
 20
-280.232291072915
 30
0.0
 11
-34.27243238415805
 21
-280.0804271941316
 31
0.0
  0
LINE
  5
157B
330
138A
100
AcDbEntity
  8
0
 62
     0
100
AcDbLine
 10
-34.42864575572939
 20
-280.3692230871754
 30
0.0
 11
-34.37723288265617
 21
-280.3178102141022
 31
0.0
  0
LINE
  5
157C
330
138A
100
AcDbEntity
  8
0
 62
     0
100
AcDbLine
 10
-34.23763487951733
 20
-280.1782122109634
 30
0.0
 11
-34.22790438187941
 21
-280.1684817133254
 31
0.0
  0
LINE
  5
157D
330
138A
100
AcDbEntity
  8
0
 62
     0
100
AcDbLine
 10
-34.37723288265592
 20
-280.317810214102
 30
0.0
 11
-34.32222178119469
 21
-280.2627991126407
 31
0.0
  0
LINE
  5
157E
330
138A
100
AcDbEntity
  8
0
 62
     0
100
AcDbLine
 10
-34.3180454489991
 20
-280.2586227804452
 30
0.0
 11
-34.23763487951734
 21
-280.1782122109634
 31
0.0
  0
LINE
  5
157F
330
138A
100
AcDbEntity
  8
0
 62
     0
100
AcDbLine
 10
-34.33279649784393
 20
-280.4059563507625
 30
0.0
 11
-34.31594377963411
 21
-280.3891036325526
 31
0.0
  0
LINE
  5
1580
330
138A
100
AcDbEntity
  8
0
 62
     0
100
AcDbLine
 10
-34.31594377963405
 20
-280.3891036325526
 30
0.0
 11
-34.12832042519916
 21
-280.2014802781177
 31
0.0
  0
LINE
  5
1581
330
138A
100
AcDbEntity
  8
0
 62
     0
100
AcDbLine
 10
-34.2886183190611
 20
-280.4943606934521
 30
0.0
 11
-34.20326302751831
 21
-280.4090054019093
 31
0.0
  0
LINE
  5
1582
330
138A
100
AcDbEntity
  8
0
 62
     0
100
AcDbLine
 10
-34.01900597088106
 20
-280.224748345272
 30
0.0
 11
-34.00684354492805
 21
-280.2125859193191
 31
0.0
  0
LINE
  5
1583
330
138A
100
AcDbEntity
  8
0
 62
     0
100
AcDbLine
 10
-34.20326302751827
 20
-280.4090054019093
 30
0.0
 11
-34.01900597088101
 21
-280.224748345272
 31
0.0
  0
LINE
  5
1584
330
138A
100
AcDbEntity
  8
0
 62
     0
100
AcDbLine
 10
-34.24444014027825
 20
-280.5827650361417
 30
0.0
 11
-34.09058227540249
 21
-280.4289071712659
 31
0.0
  0
LINE
  5
1585
330
138A
100
AcDbEntity
  8
0
 62
     0
100
AcDbLine
 10
-33.90969151656292
 20
-280.2480164124263
 30
0.0
 11
-33.73652476279732
 21
-280.0748496586608
 31
0.0
  0
LINE
  5
1586
330
138A
100
AcDbEntity
  8
0
 62
     0
100
AcDbLine
 10
-34.09058227540246
 20
-280.4289071712659
 30
0.0
 11
-33.90969151656286
 21
-280.2480164124263
 31
0.0
  0
LINE
  5
1587
330
138A
100
AcDbEntity
  8
0
 62
     0
100
AcDbLine
 10
-34.20026196149541
 20
-280.6711693788314
 30
0.0
 11
-33.9779015232867
 21
-280.4488089406227
 31
0.0
  0
LINE
  5
1588
330
138A
100
AcDbEntity
  8
0
 62
     0
100
AcDbLine
 10
-33.80037706224471
 20
-280.2712844795807
 30
0.0
 11
-33.56665993146914
 21
-280.0375673488051
 31
0.0
  0
LINE
  5
1589
330
138A
100
AcDbEntity
  8
0
 62
     0
100
AcDbLine
 10
-33.97790152328667
 20
-280.4488089406226
 30
0.0
 11
-33.80037706224476
 21
-280.2712844795808
 31
0.0
  0
LINE
  5
158A
330
138A
100
AcDbEntity
  8
0
 62
     0
100
AcDbLine
 10
-34.15608378271257
 20
-280.759573721521
 30
0.0
 11
-33.86522077117088
 21
-280.4687107099793
 31
0.0
  0
LINE
  5
158B
330
138A
100
AcDbEntity
  8
0
 62
     0
100
AcDbLine
 10
-33.69106260792654
 20
-280.294552546735
 30
0.0
 11
-33.52248175268631
 21
-280.1259716914947
 31
0.0
  0
LINE
  5
158C
330
138A
100
AcDbEntity
  8
0
 62
     0
100
AcDbLine
 10
-33.86522077117085
 20
-280.4687107099793
 30
0.0
 11
-33.69106260792662
 21
-280.2945525467351
 31
0.0
  0
LINE
  5
158D
330
138A
100
AcDbEntity
  8
0
 62
     0
100
AcDbLine
 10
-34.11190560392971
 20
-280.8479780642106
 30
0.0
 11
-33.75254001905505
 21
-280.488612479336
 31
0.0
  0
LINE
  5
158E
330
138A
100
AcDbEntity
  8
0
 62
     0
100
AcDbLine
 10
-33.59453372366715
 20
-280.330606183948
 30
0.0
 11
-33.47830357390347
 21
-280.2143760341844
 31
0.0
  0
LINE
  5
158F
330
138A
100
AcDbEntity
  8
0
 62
     0
100
AcDbLine
 10
-33.75254001905507
 20
-280.4886124793359
 30
0.0
 11
-33.59453372366719
 21
-280.3306061839481
 31
0.0
  0
LINE
  5
1590
330
138A
100
AcDbEntity
  8
0
 62
     0
100
AcDbLine
 10
-34.06772742514688
 20
-280.9363824069003
 30
0.0
 11
-33.64145204273529
 21
-280.5101070244887
 31
0.0
  0
LINE
  5
1591
330
138A
100
AcDbEntity
  8
0
 62
     0
100
AcDbLine
 10
-33.62039977625162
 20
-280.489054758005
 30
0.0
 11
-33.43412539512061
 21
-280.302780376874
 31
0.0
  0
LINE
  5
1592
330
138A
100
AcDbEntity
  8
0
 62
     0
100
AcDbLine
 10
-33.64145204273528
 20
-280.5101070244887
 30
0.0
 11
-33.62039977625164
 21
-280.489054758005
 31
0.0
  0
LINE
  5
1593
330
138A
100
AcDbEntity
  8
0
 62
     0
100
AcDbLine
 10
-34.02354924636404
 20
-281.0247867495899
 30
0.0
 11
-33.38994721633778
 21
-280.3911847195636
 31
0.0
  0
LINE
  5
1594
330
138A
100
AcDbEntity
  8
0
 62
     0
100
AcDbLine
 10
-33.97937106758119
 20
-281.1131910922795
 30
0.0
 11
-33.34576903755494
 21
-280.4795890622533
 31
0.0
  0
LINE
  5
1595
330
138A
100
AcDbEntity
  8
0
 62
     0
100
AcDbLine
 10
-33.93519288879836
 20
-281.2015954349691
 30
0.0
 11
-33.30159085877209
 21
-280.567993404943
 31
0.0
  0
LINE
  5
1596
330
138A
100
AcDbEntity
  8
0
 62
     0
100
AcDbLine
 10
-33.89101471001551
 20
-281.2899997776588
 30
0.0
 11
-33.25741267998925
 21
-280.6563977476325
 31
0.0
  0
LINE
  5
1597
330
138A
100
AcDbEntity
  8
0
 62
     0
100
AcDbLine
 10
-33.84683653123266
 20
-281.3784041203485
 30
0.0
 11
-33.21323450120642
 21
-280.7448020903222
 31
0.0
  0
LINE
  5
1598
330
138A
100
AcDbEntity
  8
0
 62
     0
100
AcDbLine
 10
-33.80265835244982
 20
-281.4668084630381
 30
0.0
 11
-33.16905632242356
 21
-280.8332064330118
 31
0.0
  0
LINE
  5
1599
330
138A
100
AcDbEntity
  8
0
 62
     0
100
AcDbLine
 10
-33.75848017366698
 20
-281.5552128057277
 30
0.0
 11
-33.12487814364072
 21
-280.9216107757015
 31
0.0
  0
LINE
  5
159A
330
138A
100
AcDbEntity
  8
0
 62
     0
100
AcDbLine
 10
-33.71430199488414
 20
-281.6436171484174
 30
0.0
 11
-33.08069996485789
 21
-281.010015118391
 31
0.0
  0
LINE
  5
159B
330
138A
100
AcDbEntity
  8
0
 62
     0
100
AcDbLine
 10
-33.6701238161013
 20
-281.732021491107
 30
0.0
 11
-33.03652178607503
 21
-281.0984194610807
 31
0.0
  0
LINE
  5
159C
330
138A
100
AcDbEntity
  8
0
 62
     0
100
AcDbLine
 10
-33.62594563731845
 20
-281.8204258337966
 30
0.0
 11
-32.9923436072922
 21
-281.1868238037704
 31
0.0
  0
LINE
  5
159D
330
138A
100
AcDbEntity
  8
0
 62
     0
100
AcDbLine
 10
-33.58176745853561
 20
-281.9088301764862
 30
0.0
 11
-32.94816542850937
 21
-281.2752281464601
 31
0.0
  0
LINE
  5
159E
330
138A
100
AcDbEntity
  8
0
 62
     0
100
AcDbLine
 10
-33.53758927975277
 20
-281.9972345191759
 30
0.0
 11
-32.90398724972653
 21
-281.3636324891497
 31
0.0
  0
LINE
  5
159F
330
138A
100
AcDbEntity
  8
0
 62
     0
100
AcDbLine
 10
-33.49341110096992
 20
-282.0856388618656
 30
0.0
 11
-32.85980907094367
 21
-281.4520368318393
 31
0.0
  0
LINE
  5
15A0
330
138A
100
AcDbEntity
  8
0
 62
     0
100
AcDbLine
 10
-33.44923292218708
 20
-282.1740432045552
 30
0.0
 11
-32.81563089216084
 21
-281.5404411745289
 31
0.0
  0
LINE
  5
15A1
330
138A
100
AcDbEntity
  8
0
 62
     0
100
AcDbLine
 10
-33.40505474340423
 20
-282.2624475472448
 30
0.0
 11
-32.771452713378
 21
-281.6288455172186
 31
0.0
  0
LINE
  5
15A2
330
138A
100
AcDbEntity
  8
0
 62
     0
100
AcDbLine
 10
-33.36087656462139
 20
-282.3508518899345
 30
0.0
 11
-32.72727453459515
 21
-281.7172498599082
 31
0.0
  0
LINE
  5
15A3
330
138A
100
AcDbEntity
  8
0
 62
     0
100
AcDbLine
 10
-33.31669838583855
 20
-282.4392562326241
 30
0.0
 11
-32.68309635581231
 21
-281.8056542025978
 31
0.0
  0
LINE
  5
15A4
330
138A
100
AcDbEntity
  8
0
 62
     0
100
AcDbLine
 10
-33.27252020705571
 20
-282.5276605753137
 30
0.0
 11
-32.63891817702948
 21
-281.8940585452875
 31
0.0
  0
LINE
  5
15A5
330
138A
100
AcDbEntity
  8
0
 62
     0
100
AcDbLine
 10
-33.22834202827287
 20
-282.6160649180033
 30
0.0
 11
-32.59473999824662
 21
-281.9824628879771
 31
0.0
  0
LINE
  5
15A6
330
138A
100
AcDbEntity
  8
0
 62
     0
100
AcDbLine
 10
-33.18416384949003
 20
-282.704469260693
 30
0.0
 11
-32.55056181946378
 21
-282.0708672306667
 31
0.0
  0
LINE
  5
15A7
330
138A
100
AcDbEntity
  8
0
 62
     0
100
AcDbLine
 10
-33.13998567070718
 20
-282.7928736033826
 30
0.0
 11
-32.50638364068095
 21
-282.1592715733564
 31
0.0
  0
LINE
  5
15A8
330
138A
100
AcDbEntity
  8
0
 62
     0
100
AcDbLine
 10
-33.09580749192433
 20
-282.8812779460723
 30
0.0
 11
-32.46220546189811
 21
-282.247675916046
 31
0.0
  0
LINE
  5
15A9
330
138A
100
AcDbEntity
  8
0
 62
     0
100
AcDbLine
 10
-33.0516293131415
 20
-282.9696822887619
 30
0.0
 11
-32.41802728311526
 21
-282.3360802587357
 31
0.0
  0
LINE
  5
15AA
330
138A
100
AcDbEntity
  8
0
 62
     0
100
AcDbLine
 10
-33.00745113435866
 20
-283.0580866314516
 30
0.0
 11
-32.37384910433242
 21
-282.4244846014253
 31
0.0
  0
LINE
  5
15AB
330
138A
100
AcDbEntity
  8
0
 62
     0
100
AcDbLine
 10
-32.96327295557581
 20
-283.1464909741411
 30
0.0
 11
-32.32967092554959
 21
-282.5128889441149
 31
0.0
  0
LINE
  5
15AC
330
138A
100
AcDbEntity
  8
0
 62
     0
100
AcDbLine
 10
-32.91909477679296
 20
-283.2348953168308
 30
0.0
 11
-32.28549274676673
 21
-282.6012932868045
 31
0.0
  0
LINE
  5
15AD
330
138A
100
AcDbEntity
  8
0
 62
     0
100
AcDbLine
 10
-32.87491659801013
 20
-283.3232996595204
 30
0.0
 11
-32.24131456798389
 21
-282.6896976294942
 31
0.0
  0
LINE
  5
15AE
330
138A
100
AcDbEntity
  8
0
 62
     0
100
AcDbLine
 10
-32.83073841922728
 20
-283.4117040022101
 30
0.0
 11
-32.19713638920106
 21
-282.7781019721838
 31
0.0
  0
LINE
  5
15AF
330
138A
100
AcDbEntity
  8
0
 62
     0
100
AcDbLine
 10
-32.78656024044444
 20
-283.5001083448997
 30
0.0
 11
-32.1529582104182
 21
-282.8665063148735
 31
0.0
  0
LINE
  5
15B0
330
138A
100
AcDbEntity
  8
0
 62
     0
100
AcDbLine
 10
-32.7423820616616
 20
-283.5885126875893
 30
0.0
 11
-32.10878003163537
 21
-282.9549106575631
 31
0.0
  0
LINE
  5
15B1
330
138A
100
AcDbEntity
  8
0
 62
     0
100
AcDbLine
 10
-32.69820388287876
 20
-283.6769170302789
 30
0.0
 11
-32.06460185285254
 21
-283.0433150002527
 31
0.0
  0
LINE
  5
15B2
330
138A
100
AcDbEntity
  8
0
 62
     0
100
AcDbLine
 10
-32.65402570409591
 20
-283.7653213729686
 30
0.0
 11
-32.0204236740697
 21
-283.1317193429424
 31
0.0
  0
LINE
  5
15B3
330
138A
100
AcDbEntity
  8
0
 62
     0
100
AcDbLine
 10
-32.60984752531307
 20
-283.8537257156582
 30
0.0
 11
-31.97624549528684
 21
-283.220123685632
 31
0.0
  0
LINE
  5
15B4
330
138A
100
AcDbEntity
  8
0
 62
     0
100
AcDbLine
 10
-32.56566934653022
 20
-283.9421300583479
 30
0.0
 11
-31.93206731650401
 21
-283.3085280283216
 31
0.0
  0
LINE
  5
15B5
330
138A
100
AcDbEntity
  8
0
 62
     0
100
AcDbLine
 10
-32.52149116774738
 20
-284.0305344010375
 30
0.0
 11
-31.88788913772117
 21
-283.3969323710113
 31
0.0
  0
LINE
  5
15B6
330
138A
100
AcDbEntity
  8
0
 62
     0
100
AcDbLine
 10
-32.47731298896454
 20
-284.1189387437271
 30
0.0
 11
-31.84371095893832
 21
-283.4853367137009
 31
0.0
  0
LINE
  5
15B7
330
138A
100
AcDbEntity
  8
0
 62
     0
100
AcDbLine
 10
-32.43313481018169
 20
-284.2073430864168
 30
0.0
 11
-31.79953278015548
 21
-283.5737410563906
 31
0.0
  0
LINE
  5
15B8
330
138A
100
AcDbEntity
  8
0
 62
     0
100
AcDbLine
 10
-32.38895663139885
 20
-284.2957474291064
 30
0.0
 11
-31.75535460137264
 21
-283.6621453990801
 31
0.0
  0
LINE
  5
15B9
330
138A
100
AcDbEntity
  8
0
 62
     0
100
AcDbLine
 10
-32.34477845261601
 20
-284.384151771796
 30
0.0
 11
-31.71117642258979
 21
-283.7505497417698
 31
0.0
  0
LINE
  5
15BA
330
138A
100
AcDbEntity
  8
0
 62
     0
100
AcDbLine
 10
-32.30060027383317
 20
-284.4725561144857
 30
0.0
 11
-31.66699824380695
 21
-283.8389540844595
 31
0.0
  0
LINE
  5
15BB
330
138A
100
AcDbEntity
  8
0
 62
     0
100
AcDbLine
 10
-32.25642209505032
 20
-284.5609604571753
 30
0.0
 11
-31.62282006502412
 21
-283.9273584271491
 31
0.0
  0
LINE
  5
15BC
330
138A
100
AcDbEntity
  8
0
 62
     0
100
AcDbLine
 10
-32.21224391626749
 20
-284.649364799865
 30
0.0
 11
-31.57864188624126
 21
-284.0157627698387
 31
0.0
  0
LINE
  5
15BD
330
138A
100
AcDbEntity
  8
0
 62
     0
100
AcDbLine
 10
-32.16806573748464
 20
-284.7377691425545
 30
0.0
 11
-31.53446370745843
 21
-284.1041671125284
 31
0.0
  0
LINE
  5
15BE
330
138A
100
AcDbEntity
  8
0
 62
     0
100
AcDbLine
 10
-32.1238875587018
 20
-284.8261734852442
 30
0.0
 11
-31.49028552867559
 21
-284.192571455218
 31
0.0
  0
LINE
  5
15BF
330
138A
100
AcDbEntity
  8
0
 62
     0
100
AcDbLine
 10
-32.07970937991895
 20
-284.9145778279338
 30
0.0
 11
-31.44610734989275
 21
-284.2809757979077
 31
0.0
  0
LINE
  5
15C0
330
138A
100
AcDbEntity
  8
0
 62
     0
100
AcDbLine
 10
-32.03553120113612
 20
-285.0029821706235
 30
0.0
 11
-31.4019291711099
 21
-284.3693801405972
 31
0.0
  0
LINE
  5
15C1
330
138A
100
AcDbEntity
  8
0
 62
     0
100
AcDbLine
 10
-31.99135302235327
 20
-285.0913865133131
 30
0.0
 11
-31.35775099232706
 21
-284.4577844832869
 31
0.0
  0
LINE
  5
15C2
330
138A
100
AcDbEntity
  8
0
 62
     0
100
AcDbLine
 10
-31.94717484357042
 20
-285.1797908560028
 30
0.0
 11
-31.31357281354423
 21
-284.5461888259766
 31
0.0
  0
LINE
  5
15C3
330
138A
100
AcDbEntity
  8
0
 62
     0
100
AcDbLine
 10
-31.90299666478758
 20
-285.2681951986924
 30
0.0
 11
-31.26939463476138
 21
-284.6345931686662
 31
0.0
  0
LINE
  5
15C4
330
138A
100
AcDbEntity
  8
0
 62
     0
100
AcDbLine
 10
-31.85881848600474
 20
-285.356599541382
 30
0.0
 11
-31.22521645597854
 21
-284.7229975113558
 31
0.0
  0
LINE
  5
15C5
330
138A
100
AcDbEntity
  8
0
 62
     0
100
AcDbLine
 10
-31.8146403072219
 20
-285.4450038840717
 30
0.0
 11
-31.1810382771957
 21
-284.8114018540455
 31
0.0
  0
LINE
  5
15C6
330
138A
100
AcDbEntity
  8
0
 62
     0
100
AcDbLine
 10
-31.77046212843906
 20
-285.5334082267613
 30
0.0
 11
-31.13686009841285
 21
-284.8998061967351
 31
0.0
  0
LINE
  5
15C7
330
138A
100
AcDbEntity
  8
0
 62
     0
100
AcDbLine
 10
-31.72628394965622
 20
-285.6218125694509
 30
0.0
 11
-31.09268191963001
 21
-284.9882105394248
 31
0.0
  0
LINE
  5
15C8
330
138A
100
AcDbEntity
  8
0
 62
     0
100
AcDbLine
 10
-31.68210577087337
 20
-285.7102169121406
 30
0.0
 11
-31.04850374084718
 21
-285.0766148821143
 31
0.0
  0
LINE
  5
15C9
330
138A
100
AcDbEntity
  8
0
 62
     0
100
AcDbLine
 10
-31.63792759209052
 20
-285.7986212548302
 30
0.0
 11
-31.00432556206434
 21
-285.165019224804
 31
0.0
  0
LINE
  5
15CA
330
138A
100
AcDbEntity
  8
0
 62
     0
100
AcDbLine
 10
-31.59374941330769
 20
-285.8870255975199
 30
0.0
 11
-30.96014738328149
 21
-285.2534235674937
 31
0.0
  0
LINE
  5
15CB
330
138A
100
AcDbEntity
  8
0
 62
     0
100
AcDbLine
 10
-31.50332316272872
 20
-285.9291818684134
 30
0.0
 11
-30.91596920449865
 21
-285.3418279101833
 31
0.0
  0
LINE
  5
15CC
330
138A
100
AcDbEntity
  8
0
 62
     0
100
AcDbLine
 10
-31.37157195278595
 20
-285.9300131799431
 30
0.0
 11
-30.87179102571581
 21
-285.4302322528729
 31
0.0
  0
LINE
  5
15CD
330
138A
100
AcDbEntity
  8
0
 62
     0
100
AcDbLine
 10
-31.23982074284319
 20
-285.9308444914728
 30
0.0
 11
-30.82761284693296
 21
-285.5186365955626
 31
0.0
  0
LINE
  5
15CE
330
138A
100
AcDbEntity
  8
0
 62
     0
100
AcDbLine
 10
-31.25232952633624
 20
-286.0759357964383
 30
0.0
 11
-31.16460760049095
 21
-285.988213870593
 31
0.0
  0
LINE
  5
15CF
330
138A
100
AcDbEntity
  8
0
 62
     0
100
AcDbLine
 10
-31.10806953290039
 20
-285.9316758030024
 30
0.0
 11
-30.78343466815012
 21
-285.6070409382521
 31
0.0
  0
LINE
  5
15D0
330
138A
100
AcDbEntity
  8
0
 62
     0
100
AcDbLine
 10
-31.15811563536502
 20
-285.981721905467
 30
0.0
 11
-31.10806953290039
 21
-285.9316758030025
 31
0.0
  0
LINE
  5
15D1
330
138A
100
AcDbEntity
  8
0
 62
     0
100
AcDbLine
 10
-31.12177404626793
 20
-286.0779628378424
 30
0.0
 11
-31.0328563905482
 21
-285.9890451821227
 31
0.0
  0
LINE
  5
15D2
330
138A
100
AcDbEntity
  8
0
 62
     0
100
AcDbLine
 10
-30.97631832295762
 20
-285.9325071145322
 30
0.0
 11
-30.73925648936729
 21
-285.6954452809418
 31
0.0
  0
LINE
  5
15D3
330
138A
100
AcDbEntity
  8
0
 62
     0
100
AcDbLine
 10
-30.99002283632514
 20
-286.0787941493721
 30
0.0
 11
-30.93156545569635
 21
-286.0203367687433
 31
0.0
  0
LINE
  5
15D4
330
138A
100
AcDbEntity
  8
0
 62
     0
100
AcDbLine
 10
-30.84456711301486
 20
-285.9333384260619
 30
0.0
 11
-30.69507831058443
 21
-285.7838496236314
 31
0.0
  0
LINE
  5
15D5
330
138A
100
AcDbEntity
  8
0
 62
     0
100
AcDbLine
 10
-30.7128159030721
 20
-285.9341697375916
 30
0.0
 11
-30.6509001318016
 21
-285.8722539663211
 31
0.0
  0
ENDBLK
  5
15D6
330
138A
100
AcDbEntity
  8
0
100
AcDbBlockEnd
  0
BLOCK
  5
17C3
330
17B8
100
AcDbEntity
  8
0
100
AcDbBlockBegin
  2
*D25
 70
     1
 10
0.0
 20
0.0
 30
0.0
  3
*D25
  1

  0
LINE
  5
17D7
330
17B8
100
AcDbEntity
  8
0
 62
     0
370
    -2
100
AcDbLine
 10
721.6151905559181
 20
-221.7112133912152
 30
0.0
 11
711.4785418545591
 21
-221.7112133912152
 31
0.0
  0
LINE
  5
17D8
330
17B8
100
AcDbEntity
  8
0
 62
     0
370
    -2
100
AcDbLine
 10
721.6151905559183
 20
-210.7112133912152
 30
0.0
 11
711.4785418545591
 21
-210.7112133912152
 31
0.0
  0
LINE
  5
17D9
330
17B8
100
AcDbEntity
  8
0
 62
     0
370
    -2
100
AcDbLine
 10
713.9785418545591
 20
-224.2112133912153
 30
0.0
 11
713.9785418545591
 21
-226.7112133912152
 31
0.0
  0
LINE
  5
17DA
330
17B8
100
AcDbEntity
  8
0
 62
     0
370
    -2
100
AcDbLine
 10
713.9785418545591
 20
-208.2112133912152
 30
0.0
 11
713.9785418545591
 21
-205.7112133912152
 31
0.0
  0
MTEXT
  5
17DB
330
17B8
100
AcDbEntity
  8
0
 62
     0
100
AcDbMText
 10
707.5817993456992
 20
-216.2112133912151
 30
0.0
 40
3.28125
 41
0.0
 46
0.0
 71
     5
 72
     1
  1
\A1;AS REQ'D
  7
ROMANS
 73
     1
 44
1.0
  0
SOLID
  5
17DC
330
17B8
100
AcDbEntity
  8
0
 62
     0
100
AcDbTrace
 10
713.5618751878925
 20
-224.2112133912153
 30
0.0
 11
714.3952085212257
 21
-224.2112133912153
 31
0.0
 12
713.9785418545591
 22
-221.7112133912152
 32
0.0
 13
713.9785418545591
 23
-221.7112133912152
 33
0.0
  0
SOLID
  5
17DD
330
17B8
100
AcDbEntity
  8
0
 62
     0
100
AcDbTrace
 10
713.5618751878925
 20
-208.2112133912152
 30
0.0
 11
714.3952085212257
 21
-208.2112133912152
 31
0.0
 12
713.9785418545591
 22
-210.7112133912152
 32
0.0
 13
713.9785418545591
 23
-210.7112133912152
 33
0.0
  0
POINT
  5
17DE
330
17B8
100
AcDbEntity
  8
DEFPOINTS
 62
     0
100
AcDbPoint
 10
724.1151905559181
 20
-221.7112133912152
 30
0.0
  0
POINT
  5
17DF
330
17B8
100
AcDbEntity
  8
DEFPOINTS
 62
     0
100
AcDbPoint
 10
724.1151905559182
 20
-210.7112133912152
 30
0.0
  0
POINT
  5
17E0
330
17B8
100
AcDbEntity
  8
DEFPOINTS
 62
     0
100
AcDbPoint
 10
713.9785418545591
 20
-210.7112133912152
 30
0.0
  0
ENDBLK
  5
17C4
330
17B8
100
AcDbEntity
  8
0
100
AcDbBlockEnd
  0
BLOCK
  5
1870
330
1865
100
AcDbEntity
  8
0
100
AcDbBlockBegin
  2
*D26
 70
     1
 10
0.0
 20
0.0
 30
0.0
  3
*D26
  1

  0
LINE
  5
1872
330
1865
100
AcDbEntity
  8
0
 62
     0
370
    -2
100
AcDbLine
 10
732.6151905559181
 20
28.78878660878479
 30
0.0
 11
732.6151905559181
 21
41.02844016331846
 31
0.0
  0
LINE
  5
1873
330
1865
100
AcDbEntity
  8
0
 62
     0
370
    -2
100
AcDbLine
 10
699.6151905559182
 20
30.78878660878479
 30
0.0
 11
699.6151905559182
 21
41.02844016331846
 31
0.0
  0
LINE
  5
1874
330
1865
100
AcDbEntity
  8
0
 62
     0
370
    -2
100
AcDbLine
 10
735.1151905559182
 20
38.52844016331847
 30
0.0
 11
737.6151905559181
 21
38.52844016331847
 31
0.0
  0
LINE
  5
1875
330
1865
100
AcDbEntity
  8
0
 62
     0
370
    -2
100
AcDbLine
 10
697.1151905559183
 20
38.52844016331847
 30
0.0
 11
694.6151905559182
 21
38.52844016331847
 31
0.0
  0
SOLID
  5
1876
330
1865
100
AcDbEntity
  8
0
 62
     0
100
AcDbTrace
 10
735.1151905559182
 20
38.94510682998513
 30
0.0
 11
735.1151905559182
 21
38.1117734966518
 31
0.0
 12
732.6151905559181
 22
38.52844016331847
 32
0.0
 13
732.6151905559181
 23
38.52844016331847
 33
0.0
  0
SOLID
  5
1877
330
1865
100
AcDbEntity
  8
0
 62
     0
100
AcDbTrace
 10
697.1151905559183
 20
38.94510682998513
 30
0.0
 11
697.1151905559183
 21
38.1117734966518
 31
0.0
 12
699.6151905559182
 22
38.52844016331847
 32
0.0
 13
699.6151905559182
 23
38.52844016331847
 33
0.0
  0
MTEXT
  5
1878
330
1865
100
AcDbEntity
  8
0
 62
     0
100
AcDbMText
 10
716.1151905559181
 20
38.52844016331847
 30
0.0
 40
3.28125
 41
0.0
 46
0.0
 71
     5
 72
     1
  1
\A1;24" MIN.\PX + 17"
  7
ROMANS
 73
     1
 44
1.0
  0
POINT
  5
1879
330
1865
100
AcDbEntity
  8
DEFPOINTS
 62
     0
100
AcDbPoint
 10
732.6151905559181
 20
26.28878660878479
 30
0.0
  0
POINT
  5
187A
330
1865
100
AcDbEntity
  8
DEFPOINTS
 62
     0
100
AcDbPoint
 10
699.6151905559182
 20
28.28878660878479
 30
0.0
  0
POINT
  5
187B
330
1865
100
AcDbEntity
  8
DEFPOINTS
 62
     0
100
AcDbPoint
 10
699.6151905559182
 20
38.52844016331847
 30
0.0
  0
ENDBLK
  5
1871
330
1865
100
AcDbEntity
  8
0
100
AcDbBlockEnd
  0
ENDSEC
  0
SECTION
  2
ENTITIES
  0
LINE
  5
2F4
330
4F6
100
AcDbEntity
  8
0
 62
     7
100
AcDbLine
 10
842.5815378899544
 20
-221.7112133912153
 30
0.0
 11
843.5815378899544
 21
-221.7112133912153
 31
0.0
  0
LINE
  5
2F5
330
4F6
100
AcDbEntity
  8
0
 62
     7
100
AcDbLine
 10
867.5815378899544
 20
-221.7112133912152
 30
0.0
 11
868.5815378899544
 21
-221.7112133912152
 31
0.0
  0
LINE
  5
2F6
330
4F6
100
AcDbEntity
  8
0
 62
     7
100
AcDbLine
 10
872.3315378899544
 20
-131.7112133912153
 30
0.0
 11
838.8315378899545
 21
-131.7112133912153
 31
0.0
  0
LINE
  5
2F7
330
4F6
100
AcDbEntity
  8
0
 62
     7
100
AcDbLine
 10
872.3315378899544
 20
-129.7112133912153
 30
0.0
 11
872.3315378899544
 21
-131.7112133912153
 31
0.0
  0
LINE
  5
2F8
330
4F6
100
AcDbEntity
  8
0
 62
     7
100
AcDbLine
 10
838.8315378899545
 20
-129.7112133912153
 30
0.0
 11
838.8315378899545
 21
-131.7112133912153
 31
0.0
  0
LINE
  5
2F9
330
4F6
100
AcDbEntity
  8
0
 62
     7
100
AcDbLine
 10
872.3315378899544
 20
-129.7112133912153
 30
0.0
 11
838.8315378899545
 21
-129.7112133912153
 31
0.0
  0
LINE
  5
2FA
330
4F6
100
AcDbEntity
  8
0
 62
     7
100
AcDbLine
 10
870.9062008603119
 20
-83.71121339121533
 30
0.0
 11
840.2568749195971
 21
-83.71121339121533
 31
0.0
  0
LINE
  5
2FB
330
4F6
100
AcDbEntity
  8
0
 62
     7
100
AcDbLine
 10
870.9062008603119
 20
-81.71121339121532
 30
0.0
 11
840.2568749195971
 21
-81.71121339121532
 31
0.0
  0
LINE
  5
2FC
330
4F6
100
AcDbEntity
  8
0
 62
     7
100
AcDbLine
 10
870.9062008603119
 20
-81.71121339121532
 30
0.0
 11
870.9062008603119
 21
-83.71121339121533
 31
0.0
  0
LINE
  5
2FD
330
4F6
100
AcDbEntity
  8
0
 62
     7
100
AcDbLine
 10
840.2568749195971
 20
-81.71121339121532
 30
0.0
 11
840.2568749195971
 21
-83.71121339121533
 31
0.0
  0
LINE
  5
2FE
330
4F6
100
AcDbEntity
  8
0
 62
     7
100
AcDbLine
 10
870.6562008603118
 20
-35.71121339121532
 30
0.0
 11
870.6562008603119
 21
-81.71121339121532
 31
0.0
  0
LINE
  5
2FF
330
4F6
100
AcDbEntity
  8
0
 62
     7
100
AcDbLine
 10
870.406200860312
 20
-35.71121339121532
 30
0.0
 11
870.406200860312
 21
-81.71121339121532
 31
0.0
  0
LINE
  5
300
330
4F6
100
AcDbEntity
  8
0
 62
     7
100
AcDbLine
 10
870.6562008603119
 20
-83.71121339121533
 30
0.0
 11
872.0815378899544
 21
-129.7112133912153
 31
0.0
  0
LINE
  5
301
330
4F6
100
AcDbEntity
  8
0
 62
     7
100
AcDbLine
 10
871.8315378899545
 20
-129.7112133912153
 30
0.0
 11
870.406200860312
 21
-83.71121339121533
 31
0.0
  0
LINE
  5
302
330
4F6
100
AcDbEntity
  8
0
 62
     7
100
AcDbLine
 10
840.2568749195971
 20
-33.71121339121533
 30
0.0
 11
870.9062008603119
 21
-33.71121339121533
 31
0.0
  0
LINE
  5
303
330
4F6
100
AcDbEntity
  8
0
100
AcDbLine
 10
840.2568749195971
 20
-35.71121339121532
 30
0.0
 11
870.9062008603119
 21
-35.71121339121532
 31
0.0
  0
LINE
  5
304
330
4F6
100
AcDbEntity
  8
0
 62
     7
100
AcDbLine
 10
840.2568749195971
 20
-35.71121339121532
 30
0.0
 11
840.2568749195971
 21
-33.71121339121533
 31
0.0
  0
LINE
  5
305
330
4F6
100
AcDbEntity
  8
0
 62
     7
100
AcDbLine
 10
870.9062008603119
 20
-35.71121339121532
 30
0.0
 11
870.9062008603119
 21
-33.71121339121533
 31
0.0
  0
LINE
  5
306
330
4F6
100
AcDbEntity
  8
0
 62
     7
100
AcDbLine
 10
867.5815378899544
 20
-13.71121339121524
 30
0.0
 11
864.7461604885661
 21
-13.71121339121524
 31
0.0
  0
LINE
  5
307
330
4F6
100
AcDbEntity
  8
0
 62
     7
100
AcDbLine
 10
867.5815378899544
 20
-14.46121339121524
 30
0.0
 11
864.7461604885661
 21
-14.46121339121524
 31
0.0
  0
LINE
  5
308
330
4F6
100
AcDbEntity
  8
0
 62
     7
100
AcDbLine
 10
870.9062008603119
 20
26.28878660878479
 30
0.0
 11
870.9062008603119
 21
28.28878660878479
 31
0.0
  0
LINE
  5
309
330
4F6
100
AcDbEntity
  8
0
 62
     7
100
AcDbLine
 10
840.2568749195971
 20
26.28878660878479
 30
0.0
 11
870.9062008603119
 21
26.28878660878479
 31
0.0
  0
LINE
  5
30A
330
4F6
100
AcDbEntity
  8
0
 62
     7
100
AcDbLine
 10
840.2568749195971
 20
28.28878660878476
 30
0.0
 11
870.9062008603119
 21
28.28878660878479
 31
0.0
  0
LINE
  5
30B
330
4F6
100
AcDbEntity
  8
0
 62
     7
100
AcDbLine
 10
856.5815378899545
 20
-83.71121339121533
 30
0.0
 11
856.5815378899545
 21
-129.7112133912153
 31
0.0
  0
LINE
  5
30C
330
4F6
100
AcDbEntity
  8
0
 62
     7
100
AcDbLine
 10
854.5815378899545
 20
-83.71121339121533
 30
0.0
 11
854.5815378899545
 21
-129.7112133912153
 31
0.0
  0
LINE
  5
30D
330
4F6
100
AcDbEntity
  8
0
 62
     7
100
AcDbLine
 10
854.5815378899545
 20
26.28878660878479
 30
0.0
 11
854.5815378899545
 21
14.28878660878467
 31
0.0
  0
LINE
  5
30E
330
4F6
100
AcDbEntity
  8
0
 62
     7
100
AcDbLine
 10
856.5815378899545
 20
26.28878660878479
 30
0.0
 11
856.5815378899545
 21
14.28878660878467
 31
0.0
  0
LINE
  5
30F
330
4F6
100
AcDbEntity
  8
0
 62
     7
100
AcDbLine
 10
856.5815378899545
 20
-35.71121339121532
 30
0.0
 11
856.5815378899545
 21
-81.71121339121532
 31
0.0
  0
LINE
  5
310
330
4F6
100
AcDbEntity
  8
0
 62
     7
100
AcDbLine
 10
854.5815378899545
 20
-35.71121339121532
 30
0.0
 11
854.5815378899545
 21
-81.71121339121532
 31
0.0
  0
LINE
  5
311
330
4F6
100
AcDbEntity
  8
0
 62
     7
100
AcDbLine
 10
844.6785617580905
 20
-129.7112133912153
 30
0.0
 11
846.4169152913429
 21
-83.71121339121533
 31
0.0
  0
LINE
  5
312
330
4F6
100
AcDbEntity
  8
0
 62
     7
100
AcDbLine
 10
848.094493121891
 20
-83.71121339121533
 30
0.0
 11
846.2630424158044
 21
-129.7112133912153
 31
0.0
  0
LINE
  5
313
330
4F6
100
AcDbEntity
  8
0
 62
     7
100
AcDbLine
 10
848.094493121891
 20
-81.71121339121532
 30
0.0
 11
848.094493121891
 21
-35.71121339121532
 31
0.0
  0
LINE
  5
314
330
4F6
100
AcDbEntity
  8
0
 62
     7
100
AcDbLine
 10
846.4169152913429
 20
-81.71121339121532
 30
0.0
 11
846.4169152913429
 21
-35.71121339121532
 31
0.0
  0
LINE
  5
315
330
4F6
100
AcDbEntity
  8
0
 62
     7
100
AcDbLine
 10
870.6562008603118
 20
26.28878660878479
 30
0.0
 11
870.6562008603118
 21
14.28878660878467
 31
0.0
  0
LINE
  5
316
330
4F6
100
AcDbEntity
  8
0
 62
     7
100
AcDbLine
 10
870.406200860312
 20
26.28878660878479
 30
0.0
 11
870.406200860312
 21
14.28878660878467
 31
0.0
  0
LINE
  5
317
330
4F6
100
AcDbEntity
  8
0
 62
     7
100
AcDbLine
 10
863.068582658018
 20
-83.71121339121533
 30
0.0
 11
864.9000333641044
 21
-129.7112133912153
 31
0.0
  0
LINE
  5
318
330
4F6
100
AcDbEntity
  8
0
 62
     7
100
AcDbLine
 10
866.4845140218183
 20
-129.7112133912153
 30
0.0
 11
864.7461604885659
 21
-83.71121339121533
 31
0.0
  0
LINE
  5
319
330
4F6
100
AcDbEntity
  8
0
 62
     7
100
AcDbLine
 10
864.7461604885659
 20
-81.71121339121532
 30
0.0
 11
864.7461604885659
 21
-35.71121339121532
 31
0.0
  0
LINE
  5
31A
330
4F6
100
AcDbEntity
  8
0
 62
     7
100
AcDbLine
 10
863.068582658018
 20
-81.71121339121532
 30
0.0
 11
863.068582658018
 21
-35.71121339121532
 31
0.0
  0
LINE
  5
31B
330
4F6
100
AcDbEntity
  8
0
 62
     7
100
AcDbLine
 10
840.5068749195971
 20
-35.71121339121532
 30
0.0
 11
840.5068749195971
 21
-81.71121339121532
 31
0.0
  0
LINE
  5
31C
330
4F6
100
AcDbEntity
  8
0
 62
     7
100
AcDbLine
 10
840.756874919597
 20
-35.71121339121532
 30
0.0
 11
840.756874919597
 21
-81.71121339121532
 31
0.0
  0
LINE
  5
31D
330
4F6
100
AcDbEntity
  8
0
 62
     7
100
AcDbLine
 10
839.3315378899544
 20
-129.7112133912153
 30
0.0
 11
840.756874919597
 21
-83.71121339121533
 31
0.0
  0
LINE
  5
31E
330
4F6
100
AcDbEntity
  8
0
 62
     7
100
AcDbLine
 10
840.5068749195971
 20
-83.71121339121533
 30
0.0
 11
839.0815378899544
 21
-129.7112133912153
 31
0.0
  0
LINE
  5
323
330
4F6
100
AcDbEntity
  8
0
 62
     7
100
AcDbLine
 10
868.5815378899544
 20
-35.71121339121532
 30
0.0
 11
868.5815378899544
 21
-81.71121339121532
 31
0.0
  0
LINE
  5
324
330
4F6
100
AcDbEntity
  8
0
 62
     7
100
AcDbLine
 10
867.5815378899544
 20
-35.71121339121532
 30
0.0
 11
867.5815378899544
 21
-81.71121339121532
 31
0.0
  0
LINE
  5
325
330
4F6
100
AcDbEntity
  8
0
 62
     7
100
AcDbLine
 10
843.5815378899544
 20
-35.71121339121532
 30
0.0
 11
843.5815378899544
 21
-81.71121339121532
 31
0.0
  0
LINE
  5
326
330
4F6
100
AcDbEntity
  8
0
 62
     7
100
AcDbLine
 10
842.5815378899544
 20
-35.71121339121532
 30
0.0
 11
842.5815378899544
 21
-81.71121339121532
 31
0.0
  0
LINE
  5
327
330
4F6
100
AcDbEntity
  8
0
 62
     7
100
AcDbLine
 10
854.5815378899545
 20
-13.71121339121524
 30
0.0
 11
848.094493121891
 21
-13.71121339121524
 31
0.0
  0
LINE
  5
328
330
4F6
100
AcDbEntity
  8
0
 62
     7
100
AcDbLine
 10
854.5815378899545
 20
-14.46121339121524
 30
0.0
 11
848.094493121891
 21
-14.46121339121524
 31
0.0
  0
LINE
  5
329
330
4F6
100
AcDbEntity
  8
0
 62
     7
100
AcDbLine
 10
863.068582658018
 20
-14.46121339121524
 30
0.0
 11
856.5815378899545
 21
-14.46121339121524
 31
0.0
  0
LINE
  5
32A
330
4F6
100
AcDbEntity
  8
0
 62
     7
100
AcDbLine
 10
863.068582658018
 20
-13.71121339121524
 30
0.0
 11
856.5815378899545
 21
-13.71121339121524
 31
0.0
  0
LINE
  5
333
330
4F6
100
AcDbEntity
  8
0
 62
     7
100
AcDbLine
 10
868.5815378899544
 20
-83.71121339121533
 30
0.0
 11
868.5815378899544
 21
-129.7112133912153
 31
0.0
  0
LINE
  5
334
330
4F6
100
AcDbEntity
  8
0
 62
     7
100
AcDbLine
 10
867.5815378899544
 20
-83.71121339121533
 30
0.0
 11
867.5815378899544
 21
-129.7112133912153
 31
0.0
  0
LINE
  5
335
330
4F6
100
AcDbEntity
  8
0
 62
     7
100
AcDbLine
 10
842.5815378899544
 20
-83.71121339121533
 30
0.0
 11
842.5815378899544
 21
-129.7112133912153
 31
0.0
  0
LINE
  5
336
330
4F6
100
AcDbEntity
  8
0
 62
     7
100
AcDbLine
 10
843.5815378899544
 20
-83.71121339121533
 30
0.0
 11
843.5815378899544
 21
-129.7112133912153
 31
0.0
  0
LINE
  5
337
330
4F6
100
AcDbEntity
  8
0
 62
     7
100
AcDbLine
 10
843.5815378899544
 20
-131.7112133912153
 30
0.0
 11
843.5815378899544
 21
-221.7112133912152
 31
0.0
  0
LINE
  5
338
330
4F6
100
AcDbEntity
  8
0
 62
     7
100
AcDbLine
 10
842.5815378899544
 20
-131.7112133912153
 30
0.0
 11
842.5815378899544
 21
-221.7112133912153
 31
0.0
  0
LINE
  5
339
330
4F6
100
AcDbEntity
  8
0
 62
     7
100
AcDbLine
 10
867.5815378899544
 20
-131.7112133912153
 30
0.0
 11
867.5815378899544
 21
-221.7112133912152
 31
0.0
  0
LINE
  5
33A
330
4F6
100
AcDbEntity
  8
0
 62
     7
100
AcDbLine
 10
868.5815378899544
 20
-131.7112133912153
 30
0.0
 11
868.5815378899544
 21
-221.7112133912152
 31
0.0
  0
LINE
  5
33B
330
4F6
100
AcDbEntity
  8
0
 62
     7
100
AcDbLine
 10
867.5815378899544
 20
26.28878660878479
 30
0.0
 11
867.5815378899544
 21
14.28878660878467
 31
0.0
  0
LINE
  5
33C
330
4F6
100
AcDbEntity
  8
0
 62
     7
100
AcDbLine
 10
868.5815378899544
 20
26.28878660878479
 30
0.0
 11
868.5815378899544
 21
14.28878660878467
 31
0.0
  0
LINE
  5
33F
330
4F6
100
AcDbEntity
  8
0
 62
     7
100
AcDbLine
 10
763.3651905559182
 20
-129.7112133912152
 30
0.0
 11
763.3651905559182
 21
-131.7112133912152
 31
0.0
  0
LINE
  5
340
330
4F6
100
AcDbEntity
  8
0
 62
     7
100
AcDbLine
 10
763.3651905559182
 20
-131.7112133912152
 30
0.0
 11
729.6151905559183
 21
-131.7112133912152
 31
0.0
  0
LINE
  5
341
330
4F6
100
AcDbEntity
  8
0
 62
     7
100
AcDbLine
 10
763.3651905559182
 20
-129.7112133912152
 30
0.0
 11
729.6151905559183
 21
-129.7112133912152
 31
0.0
  0
LINE
  5
342
330
4F6
100
AcDbEntity
  8
0
 62
     7
100
AcDbLine
 10
759.3651905559181
 20
-81.71121339121521
 30
0.0
 11
729.6151905559183
 21
-81.71121339121521
 31
0.0
  0
LINE
  5
343
330
4F6
100
AcDbEntity
  8
0
 62
     7
100
AcDbLine
 10
759.3651905559181
 20
-83.7112133912152
 30
0.0
 11
729.6151905559183
 21
-83.7112133912152
 31
0.0
  0
LINE
  5
344
330
4F6
100
AcDbEntity
  8
0
 62
     7
100
AcDbLine
 10
759.3651905559181
 20
-81.71121339121521
 30
0.0
 11
759.3651905559181
 21
-83.7112133912152
 31
0.0
  0
LINE
  5
345
330
4F6
100
AcDbEntity
  8
0
 62
     7
100
AcDbLine
 10
759.1151905559181
 20
-35.71121339121521
 30
0.0
 11
759.1151905559181
 21
-81.71121339121524
 31
0.0
  0
LINE
  5
346
330
4F6
100
AcDbEntity
  8
0
 62
     7
100
AcDbLine
 10
758.8651905559181
 20
-35.71121339121521
 30
0.0
 11
758.8651905559181
 21
-81.71121339121524
 31
0.0
  0
LINE
  5
347
330
4F6
100
AcDbEntity
  8
0
 62
     7
100
AcDbLine
 10
763.1151905559183
 20
-129.7112133912152
 30
0.0
 11
759.1151905559181
 21
-83.7112133912152
 31
0.0
  0
LINE
  5
348
330
4F6
100
AcDbEntity
  8
0
 62
     7
100
AcDbLine
 10
758.8651905559181
 20
-83.7112133912152
 30
0.0
 11
762.8651905559182
 21
-129.7112133912152
 31
0.0
  0
LINE
  5
349
330
4F6
100
AcDbEntity
  8
0
 62
     7
100
AcDbLine
 10
759.3651905559181
 20
-33.71121339121521
 30
0.0
 11
729.6151905559183
 21
-33.71121339121521
 31
0.0
  0
LINE
  5
34A
330
4F6
100
AcDbEntity
  8
0
 62
     7
100
AcDbLine
 10
759.3651905559181
 20
-35.71121339121521
 30
0.0
 11
729.6151905559183
 21
-35.71121339121521
 31
0.0
  0
LINE
  5
34B
330
4F6
100
AcDbEntity
  8
0
 62
     7
100
AcDbLine
 10
759.3651905559181
 20
-35.71121339121521
 30
0.0
 11
759.3651905559181
 21
-33.71121339121521
 31
0.0
  0
LINE
  5
34C
330
4F6
100
AcDbEntity
  8
0
 62
     7
100
AcDbLine
 10
732.6151905559181
 20
-35.71121339121521
 30
0.0
 11
732.6151905559181
 21
-81.71121339121521
 31
0.0
  0
LINE
  5
34D
330
4F6
100
AcDbEntity
  8
0
 62
     7
100
AcDbLine
 10
732.6151905559181
 20
-83.7112133912152
 30
0.0
 11
732.6151905559181
 21
-129.7112133912152
 31
0.0
  0
LINE
  5
34E
330
4F6
100
AcDbEntity
  8
0
 62
     7
100
AcDbLine
 10
732.6151905559181
 20
-131.7112133912152
 30
0.0
 11
732.6151905559181
 21
-221.7112133912152
 31
0.0
  0
LINE
  5
34F
330
4F6
100
AcDbEntity
  8
0
 62
     7
100
AcDbLine
 10
758.8651905559181
 20
26.28878660878479
 30
0.0
 11
758.8651905559181
 21
14.28878660878479
 31
0.0
  0
LINE
  5
350
330
4F6
100
AcDbEntity
  8
0
 62
     7
100
AcDbLine
 10
759.1151905559181
 20
26.28878660878479
 30
0.0
 11
759.1151905559181
 21
14.28878660878479
 31
0.0
  0
LINE
  5
351
330
4F6
100
AcDbEntity
  8
0
 62
     7
100
AcDbLine
 10
752.0738740776259
 20
26.28878660878479
 30
0.0
 11
752.0738740776259
 21
14.28878660878479
 31
0.0
  0
LINE
  5
352
330
4F6
100
AcDbEntity
  8
0
 62
     7
100
AcDbLine
 10
750.1296853616515
 20
26.28878660878479
 30
0.0
 11
750.1296853616515
 21
14.28878660878479
 31
0.0
  0
LINE
  5
353
330
4F6
100
AcDbEntity
  8
0
 62
     7
100
AcDbLine
 10
740.594100511347
 20
26.28878660878479
 30
0.0
 11
740.594100511347
 21
14.28878660878479
 31
0.0
  0
LINE
  5
354
330
4F6
100
AcDbEntity
  8
0
 62
     7
100
AcDbLine
 10
738.6499117953725
 20
26.28878660878479
 30
0.0
 11
738.6499117953725
 21
14.28878660878479
 31
0.0
  0
LINE
  5
355
330
4F6
100
AcDbEntity
  8
0
 62
     7
100
AcDbLine
 10
740.594100511347
 20
-83.7112133912152
 30
0.0
 11
740.594100511347
 21
-129.7112133912152
 31
0.0
  0
LINE
  5
356
330
4F6
100
AcDbEntity
  8
0
 62
     7
100
AcDbLine
 10
738.6499117953725
 20
-83.7112133912152
 30
0.0
 11
738.6499117953725
 21
-129.7112133912152
 31
0.0
  0
LINE
  5
357
330
4F6
100
AcDbEntity
  8
0
 62
     7
100
AcDbLine
 10
750.1296853616515
 20
-83.7112133912152
 30
0.0
 11
750.1296853616515
 21
-129.7112133912152
 31
0.0
  0
LINE
  5
358
330
4F6
100
AcDbEntity
  8
0
 62
     7
100
AcDbLine
 10
752.0738740776259
 20
-83.7112133912152
 30
0.0
 11
752.0738740776259
 21
-129.7112133912152
 31
0.0
  0
LINE
  5
359
330
4F6
100
AcDbEntity
  8
0
 62
     7
100
AcDbLine
 10
752.0738740776259
 20
-35.71121339121521
 30
0.0
 11
752.0738740776259
 21
-81.71121339121524
 31
0.0
  0
LINE
  5
35A
330
4F6
100
AcDbEntity
  8
0
 62
     7
100
AcDbLine
 10
750.1296853616515
 20
-35.71121339121521
 30
0.0
 11
750.1296853616515
 21
-81.71121339121524
 31
0.0
  0
LINE
  5
35B
330
4F6
100
AcDbEntity
  8
0
 62
     7
100
AcDbLine
 10
740.594100511347
 20
-35.71121339121521
 30
0.0
 11
740.594100511347
 21
-81.71121339121524
 31
0.0
  0
LINE
  5
35C
330
4F6
100
AcDbEntity
  8
0
 62
     7
100
AcDbLine
 10
738.6499117953725
 20
-35.71121339121521
 30
0.0
 11
738.6499117953725
 21
-81.71121339121524
 31
0.0
  0
LINE
  5
35D
330
4F6
100
AcDbEntity
  8
0
 62
     7
100
AcDbLine
 10
732.6151905559182
 20
-26.71121339121524
 30
0.0
 11
724.1151905559181
 21
-26.71121339121524
 31
0.0
  0
LINE
  5
35E
330
4F6
100
AcDbEntity
  8
0
 62
     7
100
AcDbLine
 10
732.6151905559182
 20
-29.71121339121524
 30
0.0
 11
724.1151905559181
 21
-29.71121339121524
 31
0.0
  0
LINE
  5
35F
330
4F6
100
AcDbEntity
  8
0
 62
     7
100
AcDbLine
 10
729.6151905559183
 20
-29.71121339121524
 30
0.0
 11
729.6151905559183
 21
-74.71121339121522
 31
0.0
  0
DIMENSION
  5
360
330
4F6
100
AcDbEntity
  8
0
 62
     7
100
AcDbDimension
  2
*D3
 10
779.5625547234158
 20
-83.7112133912152
 30
0.0
 11
779.5625547234158
 21
-107.7112133912151
 31
0.0
 70
    32
  1
4' TYP
 71
     5
 42
48.00000000000003
 73
     0
 74
     0
 75
     0
  3
STANDARD$0
100
AcDbAlignedDimension
 13
763.3651905559182
 23
-131.7112133912152
 33
0.0
 14
759.3651905559181
 24
-83.7112133912152
 34
0.0
 50
90.0
100
AcDbRotatedDimension
1001
ACAD
1000
DSTYLE
1002
{
1070
    40
1040
40.0
1002
}
  0
TEXT
  5
361
330
4F6
100
AcDbEntity
  8
0
 62
     7
100
AcDbText
 10
796.2365631651567
 20
11.41798134828767
 30
0.0
 40
3.0954
  1
1/4" x 2"
  7
ROMANS
100
AcDbText
  0
TEXT
  5
362
330
4F6
100
AcDbEntity
  8
0
 62
     7
100
AcDbText
 10
793.5237541412722
 20
6.406381348287624
 30
0.0
 40
3.0954
  1
SAFETY CAGE
  7
ROMANS
100
AcDbText
  0
TEXT
  5
363
330
4F6
100
AcDbEntity
  8
0
 62
     7
100
AcDbText
 10
794.9515482287446
 20
1.394781348287637
 30
0.0
 40
3.0954
  1
(6005-T5)
  7
ROMANS
100
AcDbText
  0
TEXT
  5
364
330
4F6
100
AcDbEntity
  8
0
 62
     7
100
AcDbText
 10
787.5292661076138
 20
-152.8470831615196
 30
0.0
 40
3.0954
  1
ALUMINUM TUBULAR
  7
ROMANS
100
AcDbText
  0
TEXT
  5
365
330
4F6
100
AcDbEntity
  8
0
 62
     7
100
AcDbText
 10
800.2635362549428
 20
-157.8586831615196
 30
0.0
 40
3.0954
  1
SIDERAIL
  7
ROMANS
100
AcDbText
  0
TEXT
  5
366
330
4F6
100
AcDbEntity
  8
0
 62
     7
100
AcDbText
 10
797.4576803610021
 20
-162.8702831615196
 30
0.0
 40
3.0954
  1
(6005-T5)
  7
ROMANS
100
AcDbText
  0
TEXT
  5
367
330
4F6
100
AcDbEntity
  8
0
 62
     7
100
AcDbText
 10
792.0908903165456
 20
-192.2358917761128
 30
0.0
 40
3.0954
  1
2-1/4" SERRATED
  7
ROMANS
100
AcDbText
  0
TEXT
  5
368
330
4F6
100
AcDbEntity
  8
0
 62
     7
100
AcDbText
 10
793.8175715604353
 20
-197.2474917761128
 30
0.0
 40
3.0954
  1
ALUMINUM RUNG
  7
ROMANS
100
AcDbText
  0
TEXT
  5
369
330
4F6
100
AcDbEntity
  8
0
 62
     7
100
AcDbText
 10
800.5084592868019
 20
-202.2590917761128
 30
0.0
 40
3.0954
  1
(6005-T5)
  7
ROMANS
100
AcDbText
  0
SOLID
  5
36A
330
4F6
100
AcDbEntity
  8
0
 62
     7
100
AcDbTrace
 10
840.7907009394474
 20
-164.702292009715
 30
0.0
 11
840.3980817327179
 21
-165.3646741943389
 31
0.0
 12
842.5815378899544
 22
-166.2113407222151
 32
0.0
 13
842.5815378899544
 23
-166.2113407222151
 33
0.0
  0
LINE
  5
36B
330
4F6
100
AcDbEntity
  8
0
 62
     7
100
AcDbLine
 10
840.5943913360827
 20
-165.0334831020269
 30
0.0
 11
834.6027667457899
 21
-161.4820184819503
 31
0.0
  0
LINE
  5
36C
330
4F6
100
AcDbEntity
  8
0
 62
     7
100
AcDbLine
 10
834.6027667457899
 20
-161.4820184819503
 30
0.0
 11
823.6547772804518
 21
-161.4820184819503
 31
0.0
  0
SOLID
  5
36D
330
4F6
100
AcDbEntity
  8
0
 62
     7
100
AcDbTrace
 10
852.105264641014
 20
-204.2021646787151
 30
0.0
 11
851.7126454342847
 21
-204.864546863339
 31
0.0
 12
853.8961015915212
 22
-205.7112133912152
 32
0.0
 13
853.8961015915212
 23
-205.7112133912152
 33
0.0
  0
LINE
  5
36E
330
4F6
100
AcDbEntity
  8
0
 62
     7
100
AcDbLine
 10
851.9089550376493
 20
-204.533355771027
 30
0.0
 11
845.9173304473566
 21
-200.9818911509505
 31
0.0
  0
LINE
  5
36F
330
4F6
100
AcDbEntity
  8
0
 62
     7
100
AcDbLine
 10
845.9173304473566
 20
-200.9818911509505
 30
0.0
 11
826.5562195625738
 21
-200.9818911509505
 31
0.0
  0
LINE
  5
370
330
4F6
100
AcDbEntity
  8
0
 62
     7
100
AcDbLine
 10
832.2781037754326
 20
2.51810884904944
 30
0.0
 11
820.9200690029479
 21
2.518108849049525
 31
0.0
  0
LINE
  5
371
330
4F6
100
AcDbEntity
  8
0
 62
     7
100
AcDbLine
 10
838.2697283657252
 20
-1.033355771027117
 30
0.0
 11
832.2781037754324
 21
2.51810884904944
 31
0.0
  0
SOLID
  5
372
330
4F6
100
AcDbEntity
  8
0
 62
     7
100
AcDbTrace
 10
838.4660379690901
 20
-0.7021646787151781
 30
0.0
 11
838.0734187623607
 21
-1.364546863339114
 31
0.0
 12
840.2568749195971
 22
-2.211213391215295
 32
0.0
 13
840.2568749195971
 23
-2.211213391215295
 33
0.0
  0
DIMENSION
  5
373
330
4F6
100
AcDbEntity
  8
0
 62
     7
100
AcDbDimension
  2
*D19
 10
882.4600946400691
 20
-157.7112133912152
 30
0.0
 11
882.4130858926293
 21
-151.8904077947038
 31
0.0
 70
   160
  1
12" TYP
 71
     5
 42
12.0
 73
     0
 74
     0
 75
     0
  3
STANDARD$0
100
AcDbAlignedDimension
 13
867.5815378899544
 23
-145.7112133912152
 33
0.0
 14
867.5815378899544
 24
-157.7112133912152
 34
0.0
 50
90.0
100
AcDbRotatedDimension
1001
ACAD
1000
DSTYLE
1002
{
1070
    40
1040
40.0
1002
}
  0
TEXT
  5
3A2
330
4F6
100
AcDbEntity
  8
0
100
AcDbText
 10
948.94999563825
 20
-234.9734246928107
 30
0.0
 40
5.159
  1
FACTORY FINISH
  7
ROMANS
 72
     1
 11
980.0268289715834
 21
-234.9734246928107
 31
0.0
100
AcDbText
  0
TEXT
  5
3A3
330
4F6
100
AcDbEntity
  8
0
100
AcDbText
 10
935.5980123049167
 20
-243.3260913594773
 30
0.0
 40
5.159
  1
%%OALUMINUM-MILL FINISH
  7
ROMANS
 72
     1
 11
980.0268289715834
 21
-243.3260913594773
 31
0.0
100
AcDbText
  0
DIMENSION
  5
3AA
330
4F6
100
AcDbEntity
  8
0
 62
     7
100
AcDbDimension
  2
*D4
 10
779.5625547234158
 20
-131.7112133912152
 30
0.0
 11
779.5625547234158
 21
-176.7112133912151
 31
0.0
 70
    32
 71
     5
 42
90.0
 73
     0
 74
     0
 75
     0
  3
STANDARD$0
100
AcDbAlignedDimension
 13
748.1151905559181
 23
-221.7112133912152
 33
0.0
 14
763.3651905559182
 24
-131.7112133912152
 34
0.0
 50
90.0
100
AcDbRotatedDimension
1001
ACAD
1000
DSTYLE
1002
{
1070
    40
1040
40.0
1002
}
  0
DIMENSION
  5
3AC
330
4F6
100
AcDbEntity
  8
0
 62
     7
100
AcDbDimension
  2
*D5
 10
842.5815378899544
 20
-228.2872657013813
 30
0.0
 11
855.5815378899545
 21
-228.2872657013813
 31
0.0
 70
    32
  1
26"
 71
     5
 42
26.0
 73
     0
 74
     0
 75
     0
  3
STANDARD$0
100
AcDbAlignedDimension
 13
868.5815378899544
 23
-221.7112133912152
 33
0.0
 14
842.5815378899544
 24
-221.7112133912153
 34
0.0
100
AcDbRotatedDimension
1001
ACAD
1000
DSTYLE
1002
{
1070
    40
1040
40.0
1002
}
  0
LINE
  5
3AD
330
4F6
100
AcDbEntity
  8
0
 62
     7
100
AcDbLine
 10
840.2568749195971
 20
26.28878660878479
 30
0.0
 11
840.2568749195971
 21
28.28878660878479
 31
0.0
  0
LINE
  5
3AE
330
4F6
100
AcDbEntity
  8
0
 62
     7
100
AcDbLine
 10
840.756874919597
 20
26.28878660878479
 30
0.0
 11
840.756874919597
 21
14.28878660878467
 31
0.0
  0
LINE
  5
3AF
330
4F6
100
AcDbEntity
  8
0
 62
     7
100
AcDbLine
 10
840.5068749195971
 20
26.28878660878479
 30
0.0
 11
840.5068749195971
 21
14.28878660878467
 31
0.0
  0
LINE
  5
3B0
330
4F6
100
AcDbEntity
  8
0
 62
     7
100
AcDbLine
 10
842.5815378899544
 20
26.28878660878479
 30
0.0
 11
842.5815378899546
 21
14.28878660878467
 31
0.0
  0
LINE
  5
3B1
330
4F6
100
AcDbEntity
  8
0
 62
     7
100
AcDbLine
 10
843.5815378899544
 20
26.28878660878479
 30
0.0
 11
843.5815378899546
 21
14.28878660878467
 31
0.0
  0
LINE
  5
3B2
330
4F6
100
AcDbEntity
  8
0
 62
     7
100
AcDbLine
 10
843.5815378899544
 20
-14.46121339121524
 30
0.0
 11
846.4169152913429
 21
-14.46121339121524
 31
0.0
  0
LINE
  5
3B3
330
4F6
100
AcDbEntity
  8
0
 62
     7
100
AcDbLine
 10
843.5815378899544
 20
-13.71121339121524
 30
0.0
 11
846.4169152913429
 21
-13.71121339121524
 31
0.0
  0
DIMENSION
  5
3B4
330
4F6
100
AcDbEntity
  8
0
 62
     7
100
AcDbDimension
  2
*D20
 10
902.84814978582
 20
28.28878660878478
 30
0.0
 11
902.84814978582
 21
7.288786608784909
 31
0.0
 70
    32
  1
42"
 71
     5
 42
42.00000000000002
 73
     0
 74
     0
 75
     0
  3
STANDARD$0
100
AcDbAlignedDimension
 13
867.5815378899544
 23
-13.71121339121524
 33
0.0
 14
870.9062008603119
 24
28.28878660878479
 34
0.0
 50
90.0
100
AcDbRotatedDimension
1001
ACAD
1000
DSTYLE
1002
{
1070
    40
1040
40.0
1002
}
  0
LINE
  5
3B6
330
4F6
100
AcDbEntity
  8
0
 62
     7
100
AcDbLine
 10
759.3651905559181
 20
26.28878660878479
 30
0.0
 11
729.6151905559181
 21
26.28878660878479
 31
0.0
  0
LINE
  5
3B7
330
4F6
100
AcDbEntity
  8
0
 62
     7
100
AcDbLine
 10
759.3651905559181
 20
28.28878660878479
 30
0.0
 11
729.6151905559183
 21
28.28878660878479
 31
0.0
  0
LINE
  5
3B8
330
4F6
100
AcDbEntity
  8
0
 62
     7
100
AcDbLine
 10
759.3651905559181
 20
26.28878660878479
 30
0.0
 11
759.3651905559181
 21
28.28878660878479
 31
0.0
  0
LINE
  5
3B9
330
4F6
100
AcDbEntity
  8
0
 62
     7
100
AcDbLine
 10
729.6151905559183
 20
28.28878660878479
 30
0.0
 11
729.6151905559183
 21
-26.71121339121524
 31
0.0
  0
LINE
  5
3BA
330
4F6
100
AcDbEntity
  8
0
 62
     7
100
AcDbLine
 10
863.068582658018
 20
-26.46121339121521
 30
0.0
 11
856.5815378899545
 21
-26.46121339121521
 31
0.0
  0
LINE
  5
3BB
330
4F6
100
AcDbEntity
  8
0
 62
     7
100
AcDbLine
 10
863.068582658018
 20
-25.71121339121521
 30
0.0
 11
856.5815378899545
 21
-25.71121339121521
 31
0.0
  0
LINE
  5
3BC
330
4F6
100
AcDbEntity
  8
0
 62
     7
100
AcDbLine
 10
854.5815378899545
 20
-26.46121339121521
 30
0.0
 11
848.094493121891
 21
-26.46121339121521
 31
0.0
  0
LINE
  5
3BD
330
4F6
100
AcDbEntity
  8
0
 62
     7
100
AcDbLine
 10
854.5815378899545
 20
-25.71121339121521
 30
0.0
 11
848.094493121891
 21
-25.71121339121521
 31
0.0
  0
LINE
  5
3BE
330
4F6
100
AcDbEntity
  8
0
 62
     7
100
AcDbLine
 10
846.4169152913429
 20
-26.46121339121521
 30
0.0
 11
843.5815378899544
 21
-26.46121339121521
 31
0.0
  0
LINE
  5
3BF
330
4F6
100
AcDbEntity
  8
0
 62
     7
100
AcDbLine
 10
846.4169152913429
 20
-25.71121339121521
 30
0.0
 11
843.5815378899544
 21
-25.71121339121521
 31
0.0
  0
LINE
  5
3C0
330
4F6
100
AcDbEntity
  8
0
 62
     7
100
AcDbLine
 10
867.5815378899544
 20
-26.46121339121521
 30
0.0
 11
864.7461604885661
 21
-26.46121339121521
 31
0.0
  0
LINE
  5
3C1
330
4F6
100
AcDbEntity
  8
0
 62
     7
100
AcDbLine
 10
867.5815378899544
 20
-25.71121339121521
 30
0.0
 11
864.7461604885661
 21
-25.71121339121521
 31
0.0
  0
LINE
  5
3C2
330
4F6
100
AcDbEntity
  8
0
 62
     7
100
AcDbLine
 10
863.068582658018
 20
-38.46121339121521
 30
0.0
 11
856.5815378899545
 21
-38.46121339121521
 31
0.0
  0
LINE
  5
3C3
330
4F6
100
AcDbEntity
  8
0
 62
     7
100
AcDbLine
 10
863.068582658018
 20
-37.71121339121521
 30
0.0
 11
856.5815378899545
 21
-37.71121339121521
 31
0.0
  0
LINE
  5
3C4
330
4F6
100
AcDbEntity
  8
0
 62
     7
100
AcDbLine
 10
854.5815378899545
 20
-38.46121339121521
 30
0.0
 11
848.094493121891
 21
-38.46121339121521
 31
0.0
  0
LINE
  5
3C5
330
4F6
100
AcDbEntity
  8
0
 62
     7
100
AcDbLine
 10
854.5815378899545
 20
-37.71121339121521
 30
0.0
 11
848.094493121891
 21
-37.71121339121521
 31
0.0
  0
LINE
  5
3C6
330
4F6
100
AcDbEntity
  8
0
 62
     7
100
AcDbLine
 10
846.4169152913429
 20
-38.46121339121521
 30
0.0
 11
843.5815378899544
 21
-38.46121339121521
 31
0.0
  0
LINE
  5
3C7
330
4F6
100
AcDbEntity
  8
0
 62
     7
100
AcDbLine
 10
846.4169152913429
 20
-37.71121339121521
 30
0.0
 11
843.5815378899544
 21
-37.71121339121521
 31
0.0
  0
LINE
  5
3C8
330
4F6
100
AcDbEntity
  8
0
 62
     7
100
AcDbLine
 10
867.5815378899544
 20
-38.46121339121521
 30
0.0
 11
864.7461604885661
 21
-38.46121339121521
 31
0.0
  0
LINE
  5
3C9
330
4F6
100
AcDbEntity
  8
0
 62
     7
100
AcDbLine
 10
867.5815378899544
 20
-37.71121339121521
 30
0.0
 11
864.7461604885661
 21
-37.71121339121521
 31
0.0
  0
LINE
  5
3CA
330
4F6
100
AcDbEntity
  8
0
 62
     7
100
AcDbLine
 10
863.068582658018
 20
-50.46121339121521
 30
0.0
 11
856.5815378899545
 21
-50.46121339121521
 31
0.0
  0
LINE
  5
3CB
330
4F6
100
AcDbEntity
  8
0
 62
     7
100
AcDbLine
 10
863.068582658018
 20
-49.71121339121521
 30
0.0
 11
856.5815378899545
 21
-49.71121339121521
 31
0.0
  0
LINE
  5
3CC
330
4F6
100
AcDbEntity
  8
0
 62
     7
100
AcDbLine
 10
854.5815378899545
 20
-50.46121339121521
 30
0.0
 11
848.094493121891
 21
-50.46121339121521
 31
0.0
  0
LINE
  5
3CD
330
4F6
100
AcDbEntity
  8
0
 62
     7
100
AcDbLine
 10
854.5815378899545
 20
-49.71121339121521
 30
0.0
 11
848.094493121891
 21
-49.71121339121521
 31
0.0
  0
LINE
  5
3CE
330
4F6
100
AcDbEntity
  8
0
 62
     7
100
AcDbLine
 10
846.4169152913429
 20
-50.46121339121521
 30
0.0
 11
843.5815378899544
 21
-50.46121339121521
 31
0.0
  0
LINE
  5
3CF
330
4F6
100
AcDbEntity
  8
0
 62
     7
100
AcDbLine
 10
846.4169152913429
 20
-49.71121339121521
 30
0.0
 11
843.5815378899544
 21
-49.71121339121521
 31
0.0
  0
LINE
  5
3D0
330
4F6
100
AcDbEntity
  8
0
 62
     7
100
AcDbLine
 10
867.5815378899544
 20
-50.46121339121521
 30
0.0
 11
864.7461604885661
 21
-50.46121339121521
 31
0.0
  0
LINE
  5
3D1
330
4F6
100
AcDbEntity
  8
0
 62
     7
100
AcDbLine
 10
867.5815378899544
 20
-49.71121339121521
 30
0.0
 11
864.7461604885661
 21
-49.71121339121521
 31
0.0
  0
LINE
  5
3D2
330
4F6
100
AcDbEntity
  8
0
 62
     7
100
AcDbLine
 10
863.068582658018
 20
-62.46121339121521
 30
0.0
 11
856.5815378899545
 21
-62.46121339121521
 31
0.0
  0
LINE
  5
3D3
330
4F6
100
AcDbEntity
  8
0
 62
     7
100
AcDbLine
 10
863.068582658018
 20
-61.71121339121521
 30
0.0
 11
856.5815378899545
 21
-61.71121339121521
 31
0.0
  0
LINE
  5
3D4
330
4F6
100
AcDbEntity
  8
0
 62
     7
100
AcDbLine
 10
854.5815378899545
 20
-62.46121339121521
 30
0.0
 11
848.094493121891
 21
-62.46121339121521
 31
0.0
  0
LINE
  5
3D5
330
4F6
100
AcDbEntity
  8
0
 62
     7
100
AcDbLine
 10
854.5815378899545
 20
-61.71121339121521
 30
0.0
 11
848.094493121891
 21
-61.71121339121521
 31
0.0
  0
LINE
  5
3D6
330
4F6
100
AcDbEntity
  8
0
 62
     7
100
AcDbLine
 10
846.4169152913429
 20
-62.46121339121521
 30
0.0
 11
843.5815378899544
 21
-62.46121339121521
 31
0.0
  0
LINE
  5
3D7
330
4F6
100
AcDbEntity
  8
0
 62
     7
100
AcDbLine
 10
846.4169152913429
 20
-61.71121339121521
 30
0.0
 11
843.5815378899544
 21
-61.71121339121521
 31
0.0
  0
LINE
  5
3D8
330
4F6
100
AcDbEntity
  8
0
 62
     7
100
AcDbLine
 10
867.5815378899544
 20
-62.46121339121521
 30
0.0
 11
864.7461604885661
 21
-62.46121339121521
 31
0.0
  0
LINE
  5
3D9
330
4F6
100
AcDbEntity
  8
0
 62
     7
100
AcDbLine
 10
867.5815378899544
 20
-61.71121339121521
 30
0.0
 11
864.7461604885661
 21
-61.71121339121521
 31
0.0
  0
LINE
  5
3DA
330
4F6
100
AcDbEntity
  8
0
 62
     7
100
AcDbLine
 10
867.5815378899544
 20
-74.46121339121521
 30
0.0
 11
864.9634546802225
 21
-74.46121339121521
 31
0.0
  0
LINE
  5
3DB
330
4F6
100
AcDbEntity
  8
0
 62
     7
100
AcDbLine
 10
867.5815378899544
 20
-73.71121339121521
 30
0.0
 11
864.9351119595717
 21
-73.71121339121521
 31
0.0
  0
LINE
  5
3E2
330
4F6
100
AcDbEntity
  8
0
 62
     7
100
AcDbLine
 10
854.5815378899545
 20
-121.7112133912152
 30
0.0
 11
846.5815555820805
 21
-121.7112133912152
 31
0.0
  0
LINE
  5
3E3
330
4F6
100
AcDbEntity
  8
0
 62
     7
100
AcDbLine
 10
854.5815378899545
 20
-122.4612133912152
 30
0.0
 11
846.5516949727421
 21
-122.4612133912152
 31
0.0
  0
LINE
  5
3E4
330
4F6
100
AcDbEntity
  8
0
 62
     7
100
AcDbLine
 10
867.5815378899544
 20
-133.7112133912152
 30
0.0
 11
843.5815378899544
 21
-133.7112133912152
 31
0.0
  0
LINE
  5
3E5
330
4F6
100
AcDbEntity
  8
0
 62
     7
100
AcDbLine
 10
867.5815378899544
 20
-134.4612133912152
 30
0.0
 11
843.5815378899544
 21
-134.4612133912152
 31
0.0
  0
LINE
  5
3E6
330
4F6
100
AcDbEntity
  8
0
 62
     7
100
AcDbLine
 10
867.5815378899544
 20
-145.7112133912152
 30
0.0
 11
843.5815378899544
 21
-145.7112133912152
 31
0.0
  0
LINE
  5
3E7
330
4F6
100
AcDbEntity
  8
0
 62
     7
100
AcDbLine
 10
867.5815378899544
 20
-146.4612133912152
 30
0.0
 11
843.5815378899544
 21
-146.4612133912152
 31
0.0
  0
LINE
  5
3E8
330
4F6
100
AcDbEntity
  8
0
 62
     7
100
AcDbLine
 10
867.5815378899544
 20
-157.7112133912152
 30
0.0
 11
843.5815378899544
 21
-157.7112133912152
 31
0.0
  0
LINE
  5
3E9
330
4F6
100
AcDbEntity
  8
0
 62
     7
100
AcDbLine
 10
867.5815378899544
 20
-158.4612133912152
 30
0.0
 11
843.5815378899544
 21
-158.4612133912152
 31
0.0
  0
LINE
  5
3EA
330
4F6
100
AcDbEntity
  8
0
 62
     7
100
AcDbLine
 10
867.5815378899544
 20
-169.7112133912152
 30
0.0
 11
843.5815378899544
 21
-169.7112133912152
 31
0.0
  0
LINE
  5
3EB
330
4F6
100
AcDbEntity
  8
0
 62
     7
100
AcDbLine
 10
867.5815378899544
 20
-170.4612133912152
 30
0.0
 11
843.5815378899544
 21
-170.4612133912152
 31
0.0
  0
LINE
  5
3EC
330
4F6
100
AcDbEntity
  8
0
 62
     7
100
AcDbLine
 10
867.5815378899544
 20
-181.7112133912152
 30
0.0
 11
843.5815378899544
 21
-181.7112133912152
 31
0.0
  0
LINE
  5
3ED
330
4F6
100
AcDbEntity
  8
0
 62
     7
100
AcDbLine
 10
867.5815378899544
 20
-182.4612133912152
 30
0.0
 11
843.5815378899544
 21
-182.4612133912152
 31
0.0
  0
LINE
  5
3EE
330
4F6
100
AcDbEntity
  8
0
 62
     7
100
AcDbLine
 10
867.5815378899544
 20
-193.7112133912152
 30
0.0
 11
843.5815378899544
 21
-193.7112133912152
 31
0.0
  0
LINE
  5
3EF
330
4F6
100
AcDbEntity
  8
0
 62
     7
100
AcDbLine
 10
867.5815378899544
 20
-194.4612133912152
 30
0.0
 11
843.5815378899544
 21
-194.4612133912152
 31
0.0
  0
LINE
  5
3F0
330
4F6
100
AcDbEntity
  8
0
 62
     7
100
AcDbLine
 10
845.4363826952128
 20
-110.4612133912152
 30
0.0
 11
843.5815378899544
 21
-110.4612133912152
 31
0.0
  0
LINE
  5
3F1
330
4F6
100
AcDbEntity
  8
0
 62
     7
100
AcDbLine
 10
845.4647254158636
 20
-109.7112133912152
 30
0.0
 11
843.5815378899544
 21
-109.7112133912152
 31
0.0
  0
LINE
  5
3F2
330
4F6
100
AcDbEntity
  8
0
 62
     7
100
AcDbLine
 10
845.8898662256265
 20
-98.46121339121522
 30
0.0
 11
843.5815378899544
 21
-98.46121339121522
 31
0.0
  0
LINE
  5
3F3
330
4F6
100
AcDbEntity
  8
0
 62
     7
100
AcDbLine
 10
845.9182089462773
 20
-97.71121339121521
 30
0.0
 11
843.5815378899544
 21
-97.71121339121521
 31
0.0
  0
LINE
  5
3F4
330
4F6
100
AcDbEntity
  8
0
 62
     7
100
AcDbLine
 10
846.3716924766911
 20
-85.71121339121521
 30
0.0
 11
843.5815378899544
 21
-85.71121339121521
 31
0.0
  0
LINE
  5
3F5
330
4F6
100
AcDbEntity
  8
0
 62
     7
100
AcDbLine
 10
846.3433497560401
 20
-86.46121339121521
 30
0.0
 11
843.5815378899544
 21
-86.46121339121521
 31
0.0
  0
LINE
  5
3F6
330
4F6
100
AcDbEntity
  8
0
 62
     7
100
AcDbLine
 10
846.2279638203373
 20
-73.71121339121521
 30
0.0
 11
843.5815378899544
 21
-73.71121339121521
 31
0.0
  0
LINE
  5
3F7
330
4F6
100
AcDbEntity
  8
0
 62
     7
100
AcDbLine
 10
846.1996210996865
 20
-74.46121339121521
 30
0.0
 11
843.5815378899544
 21
-74.46121339121521
 31
0.0
  0
LINE
  5
3F8
330
4F6
100
AcDbEntity
  8
0
 62
     7
100
AcDbLine
 10
854.5815378899545
 20
-73.71121339121521
 30
0.0
 11
847.8954223929687
 21
-73.71121339121521
 31
0.0
  0
LINE
  5
3F9
330
4F6
100
AcDbEntity
  8
0
 62
     7
100
AcDbLine
 10
854.5815378899545
 20
-74.46121339121521
 30
0.0
 11
847.8655617836302
 21
-74.46121339121521
 31
0.0
  0
LINE
  5
3FA
330
4F6
100
AcDbEntity
  8
0
 62
     7
100
AcDbLine
 10
854.5815378899545
 20
-86.46121339121524
 30
0.0
 11
847.9850042209836
 21
-86.46121339121524
 31
0.0
  0
LINE
  5
3FB
330
4F6
100
AcDbEntity
  8
0
 62
     7
100
AcDbLine
 10
854.5815378899545
 20
-85.71121339121523
 30
0.0
 11
848.014864830322
 21
-85.71121339121523
 31
0.0
  0
LINE
  5
3FC
330
4F6
100
AcDbEntity
  8
0
 62
     7
100
AcDbLine
 10
854.5815378899545
 20
-97.71121339121524
 30
0.0
 11
847.5370950809082
 21
-97.71121339121524
 31
0.0
  0
LINE
  5
3FD
330
4F6
100
AcDbEntity
  8
0
 62
     7
100
AcDbLine
 10
854.5815378899545
 20
-98.46121339121523
 30
0.0
 11
847.5072344715698
 21
-98.46121339121523
 31
0.0
  0
LINE
  5
3FE
330
4F6
100
AcDbEntity
  8
0
 62
     7
100
AcDbLine
 10
854.5815378899545
 20
-109.7112133912152
 30
0.0
 11
847.0593253314943
 21
-109.7112133912152
 31
0.0
  0
LINE
  5
3FF
330
4F6
100
AcDbEntity
  8
0
 62
     7
100
AcDbLine
 10
854.5815378899545
 20
-110.4612133912152
 30
0.0
 11
847.0294647221559
 21
-110.4612133912152
 31
0.0
  0
LINE
  5
406
330
4F6
100
AcDbEntity
  8
0
 62
     7
100
AcDbLine
 10
863.2975139962788
 20
-74.46121339121521
 30
0.0
 11
856.5815378899545
 21
-74.46121339121521
 31
0.0
  0
LINE
  5
407
330
4F6
100
AcDbEntity
  8
0
 62
     7
100
AcDbLine
 10
863.2676533869403
 20
-73.71121339121521
 30
0.0
 11
856.5815378899545
 21
-73.71121339121521
 31
0.0
  0
LINE
  5
408
330
4F6
100
AcDbEntity
  8
0
 62
     7
100
AcDbLine
 10
732.6151905559182
 20
-74.71121339121523
 30
0.0
 11
724.1151905559181
 21
-74.71121339121523
 31
0.0
  0
LINE
  5
409
330
4F6
100
AcDbEntity
  8
0
 62
     7
100
AcDbLine
 10
732.6151905559182
 20
-77.71121339121524
 30
0.0
 11
724.1151905559181
 21
-77.71121339121524
 31
0.0
  0
LINE
  5
40A
330
4F6
100
AcDbEntity
  8
0
 62
     7
100
AcDbLine
 10
732.6151905559182
 20
-122.7112133912152
 30
0.0
 11
724.1151905559182
 21
-122.7112133912152
 31
0.0
  0
LINE
  5
40B
330
4F6
100
AcDbEntity
  8
0
 62
     7
100
AcDbLine
 10
732.6151905559182
 20
-125.7112133912152
 30
0.0
 11
724.1151905559182
 21
-125.7112133912152
 31
0.0
  0
LINE
  5
40C
330
4F6
100
AcDbEntity
  8
0
 62
     7
100
AcDbLine
 10
732.6151905559182
 20
-170.7112133912152
 30
0.0
 11
724.1151905559182
 21
-170.7112133912152
 31
0.0
  0
LINE
  5
40D
330
4F6
100
AcDbEntity
  8
0
 62
     7
100
AcDbLine
 10
732.6151905559182
 20
-173.7112133912152
 30
0.0
 11
724.1151905559182
 21
-173.7112133912152
 31
0.0
  0
LINE
  5
40E
330
4F6
100
AcDbEntity
  8
0
 62
     7
100
AcDbLine
 10
732.6151905559182
 20
-210.7112133912152
 30
0.0
 11
724.1151905559182
 21
-210.7112133912152
 31
0.0
  0
LINE
  5
40F
330
4F6
100
AcDbEntity
  8
0
 62
     7
100
AcDbLine
 10
732.6151905559182
 20
-213.7112133912153
 30
0.0
 11
724.1151905559182
 21
-213.7112133912153
 31
0.0
  0
LINE
  5
410
330
4F6
100
AcDbEntity
  8
0
 62
     7
100
AcDbLine
 10
729.6151905559183
 20
-173.7112133912152
 30
0.0
 11
729.6151905559183
 21
-210.7112133912152
 31
0.0
  0
LINE
  5
411
330
4F6
100
AcDbEntity
  8
0
 62
     7
100
AcDbLine
 10
729.6151905559183
 20
-213.7112133912153
 30
0.0
 11
729.6151905559183
 21
-221.7112133912152
 31
0.0
  0
LINE
  5
412
330
4F6
100
AcDbEntity
  8
0
 62
     7
100
AcDbLine
 10
729.6151905559183
 20
-77.71121339121524
 30
0.0
 11
729.6151905559183
 21
-122.7112133912152
 31
0.0
  0
LINE
  5
413
330
4F6
100
AcDbEntity
  8
0
 62
     7
100
AcDbLine
 10
729.6151905559183
 20
-125.7112133912152
 30
0.0
 11
729.6151905559183
 21
-170.7112133912152
 31
0.0
  0
LINE
  5
41C
330
4F6
100
AcDbEntity
  8
0
 62
     7
100
AcDbLine
 10
732.6151905559181
 20
26.28878660878479
 30
0.0
 11
732.6151905559181
 21
14.28878660878479
 31
0.0
  0
LINE
  5
428
330
4F6
100
AcDbEntity
  8
0
 62
     7
100
AcDbLine
 10
863.068582658018
 20
14.28878660878467
 30
0.0
 11
863.068582658018
 21
26.28878660878479
 31
0.0
  0
LINE
  5
429
330
4F6
100
AcDbEntity
  8
0
 62
     7
100
AcDbLine
 10
864.7461604885659
 20
14.28878660878467
 30
0.0
 11
864.7461604885659
 21
26.28878660878479
 31
0.0
  0
LINE
  5
42A
330
4F6
100
AcDbEntity
  8
0
 62
     7
100
AcDbLine
 10
848.094493121891
 20
14.28878660878467
 30
0.0
 11
848.094493121891
 21
26.28878660878479
 31
0.0
  0
LINE
  5
42D
330
4F6
100
AcDbEntity
  8
0
 62
     7
100
AcDbLine
 10
846.4169152913429
 20
14.28878660878467
 30
0.0
 11
846.4169152913429
 21
26.28878660878479
 31
0.0
  0
LINE
  5
432
330
4F6
100
AcDbEntity
  8
0
 62
     7
100
AcDbLine
 10
729.6151905559183
 20
-13.71121339121524
 30
0.0
 11
702.6151905559181
 21
-13.71121339121524
 31
0.0
  0
LINE
  5
436
330
4F6
100
AcDbEntity
  8
0
 62
     7
100
AcDbLine
 10
699.6151905559181
 20
-29.71121339121524
 30
0.0
 11
708.1151905559182
 21
-29.71121339121524
 31
0.0
  0
LINE
  5
437
330
4F6
100
AcDbEntity
  8
0
 62
     7
100
AcDbLine
 10
699.6151905559181
 20
-26.71121339121524
 30
0.0
 11
708.1151905559182
 21
-26.71121339121524
 31
0.0
  0
LINE
  5
438
330
4F6
100
AcDbEntity
  8
0
 62
     7
100
AcDbLine
 10
702.6151905559181
 20
25.28878660878479
 30
0.0
 11
702.6151905559181
 21
-26.71121339121524
 31
0.0
  0
LINE
  5
439
330
4F6
100
AcDbEntity
  8
0
 62
     7
100
AcDbLine
 10
699.6151905559182
 20
28.28878660878479
 30
0.0
 11
699.6151905559182
 21
-50.33621339121523
 31
0.0
  0
LINE
  5
43A
330
4F6
100
AcDbEntity
  8
0
 62
     7
100
AcDbLine
 10
702.6151905559181
 20
-50.33621339121523
 30
0.0
 11
699.6151905559182
 21
-50.33621339121523
 31
0.0
  0
LINE
  5
43B
330
4F6
100
AcDbEntity
  8
0
 62
     7
100
AcDbLine
 10
702.6151905559181
 20
-29.71121339121524
 30
0.0
 11
702.6151905559181
 21
-43.01504004645737
 31
0.0
  0
LINE
  5
43C
330
4F6
100
AcDbEntity
  8
0
 62
     7
100
AcDbLine
 10
729.6151905559183
 20
28.28878660878479
 30
0.0
 11
699.6151905559182
 21
28.28878660878479
 31
0.0
  0
LINE
  5
43D
330
4F6
100
AcDbEntity
  8
0
 62
     7
100
AcDbLine
 10
729.6151905559183
 20
25.28878660878479
 30
0.0
 11
702.6151905559181
 21
25.28878660878479
 31
0.0
  0
LINE
  5
43E
330
4F6
100
AcDbEntity
  8
0
 62
     7
100
AcDbLine
 10
702.6151905559181
 20
25.28878660878479
 30
0.0
 11
699.6151905559182
 21
28.28878660878479
 31
0.0
  0
LINE
  5
43F
330
4F6
100
AcDbEntity
  8
0
 62
     7
100
AcDbLine
 10
636.481057249875
 20
28.28878660878482
 30
0.0
 11
636.481057249875
 21
-50.33621339121523
 31
0.0
  0
LINE
  5
440
330
4F6
100
AcDbEntity
  8
0
 62
     7
100
AcDbLine
 10
612.4810572498751
 20
28.28878660878482
 30
0.0
 11
612.4810572498751
 21
-50.33621339121523
 31
0.0
  0
LINE
  5
441
330
4F6
100
AcDbEntity
  8
0
 62
     7
100
AcDbLine
 10
637.4810572498749
 20
28.28878660878482
 30
0.0
 11
637.4810572498749
 21
-50.33621339121523
 31
0.0
  0
LINE
  5
442
330
4F6
100
AcDbEntity
  8
0
 62
     7
100
AcDbLine
 10
611.481057249875
 20
28.28878660878479
 30
0.0
 11
611.481057249875
 21
-50.33621339121523
 31
0.0
  0
LINE
  5
443
330
4F6
100
AcDbEntity
  8
0
 62
     7
100
AcDbLine
 10
611.481057249875
 20
-50.33621339121523
 30
0.0
 11
612.4810572498751
 21
-50.33621339121523
 31
0.0
  0
LINE
  5
444
330
4F6
100
AcDbEntity
  8
0
 62
     7
100
AcDbLine
 10
636.481057249875
 20
-50.33621339121523
 30
0.0
 11
637.4810572498749
 21
-50.33621339121523
 31
0.0
  0
LINE
  5
445
330
4F6
100
AcDbEntity
  8
0
 62
     7
100
AcDbLine
 10
611.481057249875
 20
28.28878660878482
 30
0.0
 11
612.4810572498751
 21
28.28878660878482
 31
0.0
  0
LINE
  5
446
330
4F6
100
AcDbEntity
  8
0
 62
     7
100
AcDbLine
 10
636.481057249875
 20
28.28878660878482
 30
0.0
 11
637.4810572498749
 21
28.28878660878482
 31
0.0
  0
LINE
  5
447
330
4F6
100
AcDbEntity
  8
0
 62
     7
100
AcDbLine
 10
636.481057249875
 20
-13.71121339121524
 30
0.0
 11
612.4810572498751
 21
-13.71121339121524
 31
0.0
  0
LINE
  5
448
330
4F6
100
AcDbEntity
  8
0
 62
     7
100
AcDbLine
 10
636.481057249875
 20
-14.46121339121524
 30
0.0
 11
612.4810572498751
 21
-14.46121339121524
 31
0.0
  0
LINE
  5
449
330
4F6
100
AcDbEntity
  8
0
 62
     7
100
AcDbLine
 10
636.481057249875
 20
-26.46121339121524
 30
0.0
 11
612.4810572498751
 21
-26.46121339121524
 31
0.0
  0
LINE
  5
44A
330
4F6
100
AcDbEntity
  8
0
 62
     7
100
AcDbLine
 10
636.481057249875
 20
-25.71121339121524
 30
0.0
 11
612.4810572498751
 21
-25.71121339121524
 31
0.0
  0
LINE
  5
44D
330
4F6
100
AcDbEntity
  8
0
 62
     7
100
AcDbLine
 10
636.481057249875
 20
-38.46121339121524
 30
0.0
 11
612.4810572498751
 21
-38.46121339121524
 31
0.0
  0
LINE
  5
44E
330
4F6
100
AcDbEntity
  8
0
 62
     7
100
AcDbLine
 10
636.481057249875
 20
-37.71121339121524
 30
0.0
 11
612.4810572498751
 21
-37.71121339121524
 31
0.0
  0
DIMENSION
  5
453
330
4F6
100
AcDbEntity
  8
0
 62
     7
100
AcDbDimension
  2
*D6
 10
595.7680454331299
 20
28.28878660878482
 30
0.0
 11
595.7680454331299
 21
7.28878660878489
 31
0.0
 70
    32
  1
42"
 71
     5
 42
42.00000000000005
 73
     0
 74
     0
 75
     0
  3
STANDARD$0
100
AcDbAlignedDimension
 13
612.4810572498751
 23
-13.71121339121524
 33
0.0
 14
611.481057249875
 24
28.28878660878482
 34
0.0
 50
90.0
100
AcDbRotatedDimension
1001
ACAD
1000
DSTYLE
1002
{
1070
    40
1040
40.0
1002
}
  0
LINE
  5
456
330
4F6
100
AcDbEntity
  8
0
100
AcDbLine
 10
813.2527044701893
 20
-19.71121339121524
 30
0.0
 11
840.5068749195971
 21
-19.71121339121524
 31
0.0
  0
LINE
  5
457
330
4F6
100
AcDbEntity
  8
0
100
AcDbLine
 10
843.5815378899546
 20
-19.71121339121524
 30
0.0
 11
846.4169152913429
 21
-19.71121339121524
 31
0.0
  0
LINE
  5
458
330
4F6
100
AcDbEntity
  8
0
100
AcDbLine
 10
848.094493121891
 20
-19.71121339121524
 30
0.0
 11
854.5815378899545
 21
-19.71121339121524
 31
0.0
  0
LINE
  5
459
330
4F6
100
AcDbEntity
  8
0
100
AcDbLine
 10
856.5815378899545
 20
-19.71121339121524
 30
0.0
 11
863.068582658018
 21
-19.71121339121524
 31
0.0
  0
LINE
  5
45A
330
4F6
100
AcDbEntity
  8
0
100
AcDbLine
 10
864.7461604885659
 20
-35.71121339121524
 30
0.0
 11
867.5815378899544
 21
-35.71121339121524
 31
0.0
  0
LINE
  5
45B
330
4F6
100
AcDbEntity
  8
0
100
AcDbLine
 10
868.5815378899544
 20
-35.71121339121524
 30
0.0
 11
870.406200860312
 21
-35.71121339121524
 31
0.0
  0
LINE
  5
45C
330
4F6
100
AcDbEntity
  8
0
 62
     6
100
AcDbLine
 10
870.6562008603119
 20
-19.71121339121524
 30
0.0
 11
884.2100946400691
 21
-19.71121339121524
 31
0.0
  0
LINE
  5
45D
330
4F6
100
AcDbEntity
  8
0
100
AcDbLine
 10
840.756874919597
 20
-19.71121339121524
 30
0.0
 11
842.5815378899546
 21
-19.71121339121524
 31
0.0
  0
DIMENSION
  5
45E
330
4F6
100
AcDbEntity
  8
0
 62
     7
100
AcDbDimension
  2
*D21
 10
882.4600946400691
 20
-19.71121339121524
 30
0.0
 11
883.826026204799
 21
-16.94564927221886
 31
0.0
 70
   160
 71
     5
 42
6.0
 73
     0
 74
     0
 75
     0
  3
STANDARD$0
100
AcDbAlignedDimension
 13
867.5815378899544
 23
-13.71121339121524
 33
0.0
 14
870.6562008603119
 24
-19.71121339121524
 34
0.0
 50
90.0
100
AcDbRotatedDimension
1001
ACAD
1000
DSTYLE
1002
{
1070
    40
1040
40.0
1002
}
  0
TEXT
  5
45F
330
4F6
100
AcDbEntity
  8
0
 62
     7
100
AcDbText
 10
814.0291900919843
 20
-13.36017758172019
 30
0.0
 40
3.095399999999999
  1
PARAPET
  7
ROMANS
100
AcDbText
  0
TEXT
  5
460
330
4F6
100
AcDbEntity
  8
0
 62
     7
100
AcDbText
 10
817.4903131144317
 20
-18.37177758172021
 30
0.0
 40
3.095399999999999
  1
LEVEL
  7
ROMANS
100
AcDbText
  0
DIMENSION
  5
462
330
4F6
100
AcDbEntity
  8
0
 62
     7
100
AcDbDimension
  2
*D2
 10
769.0605319855522
 20
-74.71121339121525
 30
0.0
 11
769.0605319855522
 21
-50.71121339121513
 31
0.0
 70
    32
  1
4' TYP
 71
     5
 42
48.0
 73
     0
 74
     0
 75
     0
  3
STANDARD$0
100
AcDbAlignedDimension
 13
732.6151905559182
 23
-26.71121339121524
 33
0.0
 14
732.6151905559181
 24
-74.71121339121523
 34
0.0
 50
90.0
100
AcDbRotatedDimension
1001
ACAD
1000
DSTYLE
1002
{
1070
    40
1040
40.0
1002
}
  0
DIMENSION
  5
465
330
4F6
100
AcDbEntity
  8
0
 62
     7
100
AcDbDimension
  2
*D7
 10
637.4810572498749
 20
-55.4846945280423
 30
0.0
 11
624.4810572498749
 21
-55.4846945280423
 31
0.0
 70
    32
  1
26"
 71
     5
 42
25.99999999999989
 73
     0
 74
     0
 75
     0
  3
STANDARD$0
100
AcDbAlignedDimension
 13
611.481057249875
 23
-50.33621339121523
 33
0.0
 14
637.4810572498749
 24
-50.33621339121523
 34
0.0
100
AcDbRotatedDimension
1001
ACAD
1000
DSTYLE
1002
{
1070
    40
1040
40.0
1002
}
  0
LINE
  5
466
330
4F6
100
AcDbEntity
  8
0
 62
     7
100
AcDbLine
 10
729.6151905559183
 20
-16.71121339121524
 30
0.0
 11
702.6151905559181
 21
-16.71121339121524
 31
0.0
  0
LINE
  5
467
330
4F6
100
AcDbEntity
  8
0
 62
     7
100
AcDbLine
 10
729.6151905559183
 20
4.538786608784789
 30
0.0
 11
702.6151905559181
 21
4.538786608784789
 31
0.0
  0
LINE
  5
468
330
4F6
100
AcDbEntity
  8
0
 62
     7
100
AcDbLine
 10
729.6151905559183
 20
7.538786608784789
 30
0.0
 11
702.6151905559181
 21
7.538786608784789
 31
0.0
  0
TEXT
  5
469
330
4F6
100
AcDbEntity
  8
0
 62
     7
100
AcDbText
 10
792.0618019570098
 20
-147.9397854871479
 30
0.0
 40
3.0954
  1
3" x 1" x 1/8"
  7
ROMANS
100
AcDbText
  0
SOLID
  5
4B3
330
4F6
100
AcDbEntity
  8
0
 62
     7
100
AcDbTrace
 10
708.8748500348633
 20
-11.59214673844306
 30
0.0
 11
708.2529085539836
 21
-12.09863115870915
 31
0.0
 12
710.0833325552217
 22
-13.71121339121524
 32
0.0
 13
710.0833325552217
 23
-13.71121339121524
 33
0.0
  0
LINE
  5
4B4
330
4F6
100
AcDbEntity
  8
0
 62
     7
100
AcDbLine
 10
708.5638792944235
 20
-11.8453889485761
 30
0.0
 11
705.6487912467289
 21
-8.26578392079358
 31
0.0
  0
LINE
  5
4B5
330
4F6
100
AcDbEntity
  8
0
 62
     7
100
AcDbLine
 10
705.6487912467289
 20
-8.26578392079358
 30
0.0
 11
694.7640076275197
 21
-8.26578392079358
 31
0.0
  0
TEXT
  5
4B6
330
4F6
100
AcDbEntity
  8
0
 62
     7
100
AcDbText
 10
670.8134081286313
 20
-9.813483920793581
 30
0.0
 40
3.0954
  1
PLATFORM
  7
ROMANS
 72
     2
 11
693.3656081286313
 21
-8.26578392079358
 31
0.0
100
AcDbText
 73
     2
  0
TEXT
  5
4B7
330
4F6
100
AcDbEntity
  8
0
 62
     7
100
AcDbText
 10
584.9381775457612
 20
-154.4727614414509
 30
0.0
 40
3.0954
  1
NOTES:
  7
ROMANS
100
AcDbText
  0
TEXT
  5
4BA
330
4F6
100
AcDbEntity
  8
0
 62
     7
100
AcDbText
 10
584.9381775457612
 20
-160.4481386932073
 30
0.0
 40
3.0954
  1
1) ALL BOLTS/FASTENERS
  7
ROMANS
100
AcDbText
  0
TEXT
  5
4BB
330
4F6
100
AcDbEntity
  8
0
 62
     7
100
AcDbText
 10
593.2954482907232
 20
-165.4597386932073
 30
0.0
 40
3.0954
  1
NECESSARY TO ANCHOR
  7
ROMANS
100
AcDbText
  0
TEXT
  5
4BC
330
4F6
100
AcDbEntity
  8
0
 62
     7
100
AcDbText
 10
593.2954482907232
 20
-170.4713386932073
 30
0.0
 40
3.0954
  1
LADDER ARE BY OTHERS.
  7
ROMANS
100
AcDbText
  0
TEXT
  5
4BD
330
4F6
100
AcDbEntity
  8
0
 62
     7
100
AcDbText
 10
592.84729176356
 20
-76.10068362823418
 30
0.0
 40
3.0954
  1
BRACKETS TO SHIP
  7
ROMANS
 72
     4
 11
615.62059176356
 21
-74.55298362823417
 31
0.0
100
AcDbText
  0
TEXT
  5
4BE
330
4F6
100
AcDbEntity
  8
0
 62
     7
100
AcDbText
 10
594.46869176356
 20
-81.11228362823418
 30
0.0
 40
3.0954
  1
LOOSE FOR FIELD
  7
ROMANS
 72
     4
 11
615.62059176356
 21
-79.56458362823418
 31
0.0
100
AcDbText
  0
TEXT
  5
4BF
330
4F6
100
AcDbEntity
  8
0
 62
     7
100
AcDbText
 10
604.0496917635599
 20
-86.12388362823418
 30
0.0
 40
3.0954
  1
ASSEMBLY
  7
ROMANS
 72
     4
 11
615.62059176356
 21
-84.57618362823417
 31
0.0
100
AcDbText
  0
TEXT
  5
4C0
330
4F6
100
AcDbEntity
  8
0
 62
     7
100
AcDbText
 10
587.1244256310675
 20
-78.97498362823417
 30
0.0
 40
6.1908
  1
*
  7
ROMANS
 72
     4
 11
589.4828256310675
 21
-74.55298362823417
 31
0.0
100
AcDbText
  0
TEXT
  5
4C1
330
4F6
100
AcDbEntity
  8
0
 62
     7
100
AcDbText
 10
693.6634797662769
 20
-32.63321339121524
 30
0.0
 40
6.1908
  1
*
  7
ROMANS
 72
     4
 11
696.0218797662768
 21
-28.21121339121524
 31
0.0
100
AcDbText
  0
INSERT
  5
4D8
330
4F6
100
AcDbEntity
  8
0
100
AcDbBlockReference
  2
LINETYPE
 10
0.0
 20
0.0
 30
0.0
  0
TEXT
  5
4DA
330
4F6
100
AcDbEntity
  8
0
100
AcDbText
 10
603.6992203945522
 20
53.63878099354159
 30
0.0
 40
7.7825
  1
TUBULAR FIXED LADDER w/CAGE, PLATFORM & ROOFSIDE RETURN
  7
ROMANC
 72
     1
 11
814.9385061088375
 21
53.63878099354159
 31
0.0
100
AcDbText
  0
LINE
  5
52D
330
4F6
100
AcDbEntity
  8
0
100
AcDbLine
 10
603.3132172744016
 20
-19.71121339121524
 30
0.0
 11
611.481057249875
 21
-19.71121339121524
 31
0.0
  0
LINE
  5
52F
330
4F6
100
AcDbEntity
  8
0
100
AcDbLine
 10
637.4810572498749
 20
-19.71121339121524
 30
0.0
 11
645.2155473923006
 21
-19.71121339121524
 31
0.0
  0
LINE
  5
530
330
4F6
100
AcDbEntity
  8
0
100
AcDbLine
 10
612.4810572498751
 20
-19.71121339121524
 30
0.0
 11
636.481057249875
 21
-19.71121339121524
 31
0.0
  0
LWPOLYLINE
  5
B22
330
4F6
100
AcDbEntity
  8
0
100
AcDbPolyline
 90
        6
 70
     0
 43
0.0
 10
748.1151905559181
 20
-221.7112133912152
 10
724.1151905559181
 20
-221.7112133912152
 10
724.1151905559181
 20
-19.71121339121524
 10
708.1151905559182
 20
-19.71121339121524
 10
708.1151905559182
 20
-50.33621339121523
 10
683.9850807661369
 20
-50.33621339121522
  0
LINE
  5
BD0
330
4F6
100
AcDbEntity
  8
0
  6
ByBlock
 62
     0
100
AcDbLine
 10
731.9901905559182
 20
-13.71121339121524
 30
0.0
 11
771.4355319855521
 21
-13.71121339121524
 31
0.0
  0
LINE
  5
BD2
330
4F6
100
AcDbEntity
  8
0
  6
ByBlock
 62
     0
100
AcDbLine
 10
769.0605319855522
 20
-11.33621339121524
 30
0.0
 11
769.0605319855522
 21
-9.252011363292297
 31
0.0
  0
MTEXT
  5
BD3
330
4F6
100
AcDbEntity
  8
0
  6
ByBlock
 62
     0
100
AcDbMText
 10
770.4393548798309
 20
-20.21121339121524
 30
0.0
 40
3.0552
 41
0.0
 46
0.0
 71
     5
 72
     5
  1
\A1;13"
  7
ROMANS
 73
     1
 44
1.0
  0
SOLID
  5
BD4
330
4F6
100
AcDbEntity
  8
0
  6
ByBlock
 62
     0
100
AcDbTrace
 10
769.4563653188854
 20
-11.33621339121524
 30
0.0
 11
768.6646986522188
 21
-11.33621339121524
 31
0.0
 12
769.0605319855522
 22
-13.71121339121524
 32
0.0
 13
769.0605319855522
 23
-13.71121339121524
 33
0.0
  0
POINT
  5
BD6
330
4F6
100
AcDbEntity
  8
DEFPOINTS
  6
ByBlock
 62
     0
100
AcDbPoint
 10
729.6151905559183
 20
-29.71121339121524
 30
0.0
  0
POINT
  5
C1A
330
4F6
100
AcDbEntity
  8
DEFPOINTS
  6
ByBlock
 62
     0
100
AcDbPoint
 10
724.1151905559182
 20
-221.7112133912152
 30
0.0
  0
MTEXT
  5
C43
330
4F6
100
AcDbEntity
  8
0
  6
ByBlock
 62
     0
100
AcDbMText
 10
100.5386727880175
 20
15.78185299856659
 30
0.0
 40
3.0552
 41
0.0
 46
0.0
 71
     5
 72
     5
  1

  7
ROMANS
 73
     1
 44
1.0
  0
POINT
  5
C46
330
4F6
100
AcDbEntity
  8
DEFPOINTS
  6
ByBlock
 62
     0
100
AcDbPoint
 10
732.6151905559181
 20
26.28878660878479
 30
0.0
  0
POINT
  5
C47
330
4F6
100
AcDbEntity
  8
DEFPOINTS
  6
ByBlock
 62
     0
100
AcDbPoint
 10
699.6151905559182
 20
28.28878660878479
 30
0.0
  0
LINE
  5
CCD
330
4F6
100
AcDbEntity
  8
0
 62
     7
100
AcDbLine
 10
867.5815378899544
 20
-218.4612133912152
 30
0.0
 11
843.5815378899544
 21
-218.4612133912152
 31
0.0
  0
LINE
  5
CCE
330
4F6
100
AcDbEntity
  8
0
 62
     7
100
AcDbLine
 10
867.5815378899544
 20
-217.7112133912153
 30
0.0
 11
843.5815378899544
 21
-217.7112133912152
 31
0.0
  0
LINE
  5
CCF
330
4F6
100
AcDbEntity
  8
0
 62
     7
100
AcDbLine
 10
867.5815378899544
 20
-206.4612133912152
 30
0.0
 11
843.5815378899544
 21
-206.4612133912152
 31
0.0
  0
LINE
  5
CD0
330
4F6
100
AcDbEntity
  8
0
 62
     7
100
AcDbLine
 10
867.5815378899544
 20
-205.7112133912152
 30
0.0
 11
843.5815378899544
 21
-205.7112133912152
 31
0.0
  0
LINE
  5
CD1
330
4F6
100
AcDbEntity
  8
0
 62
     7
100
AcDbLine
 10
844.9808841116997
 20
-121.7112133912152
 30
0.0
 11
843.5815378899544
 21
-121.7112133912152
 31
0.0
  0
LINE
  5
CD2
330
4F6
100
AcDbEntity
  8
0
 62
     7
100
AcDbLine
 10
844.9525413910489
 20
-122.4612133912152
 30
0.0
 11
843.5815378899544
 21
-122.4612133912152
 31
0.0
  0
LINE
  5
CD3
330
4F6
100
AcDbEntity
  8
0
 62
     7
100
AcDbLine
 10
856.5815378899545
 20
-122.4612133912152
 30
0.0
 11
864.6113808071669
 21
-122.4612133912152
 31
0.0
  0
LINE
  5
CD4
330
4F6
100
AcDbEntity
  8
0
 62
     7
100
AcDbLine
 10
856.5815378899545
 20
-121.7112133912152
 30
0.0
 11
864.5815201978285
 21
-121.7112133912152
 31
0.0
  0
LINE
  5
CD5
330
4F6
100
AcDbEntity
  8
0
 62
     7
100
AcDbLine
 10
856.5815378899545
 20
-97.71121339121524
 30
0.0
 11
863.6259806990008
 21
-97.71121339121524
 31
0.0
  0
LINE
  5
CD6
330
4F6
100
AcDbEntity
  8
0
 62
     7
100
AcDbLine
 10
856.5815378899545
 20
-98.46121339121523
 30
0.0
 11
863.6558413083392
 21
-98.46121339121523
 31
0.0
  0
LINE
  5
CD7
330
4F6
100
AcDbEntity
  8
0
 62
     7
100
AcDbLine
 10
856.5815378899545
 20
-109.7112133912152
 30
0.0
 11
864.1037504484147
 21
-109.7112133912152
 31
0.0
  0
LINE
  5
CD8
330
4F6
100
AcDbEntity
  8
0
 62
     7
100
AcDbLine
 10
856.5815378899545
 20
-110.4612133912152
 30
0.0
 11
864.1336110577531
 21
-110.4612133912152
 31
0.0
  0
LINE
  5
CD9
330
4F6
100
AcDbEntity
  8
0
 62
     7
100
AcDbLine
 10
866.2105343888601
 20
-122.4612133912152
 30
0.0
 11
867.5815378899544
 21
-122.4612133912152
 31
0.0
  0
LINE
  5
CDA
330
4F6
100
AcDbEntity
  8
0
 62
     7
100
AcDbLine
 10
866.1821916682093
 20
-121.7112133912152
 30
0.0
 11
867.5815378899544
 21
-121.7112133912152
 31
0.0
  0
LINE
  5
CDB
330
4F6
100
AcDbEntity
  8
0
 62
     7
100
AcDbLine
 10
865.726693084696
 20
-110.4612133912152
 30
0.0
 11
867.5815378899544
 21
-110.4612133912152
 31
0.0
  0
LINE
  5
CDC
330
4F6
100
AcDbEntity
  8
0
 62
     7
100
AcDbLine
 10
865.6983503640454
 20
-109.7112133912152
 30
0.0
 11
867.5815378899544
 21
-109.7112133912152
 31
0.0
  0
LINE
  5
CDD
330
4F6
100
AcDbEntity
  8
0
 62
     7
100
AcDbLine
 10
865.2732095542823
 20
-98.46121339121522
 30
0.0
 11
867.5815378899544
 21
-98.46121339121522
 31
0.0
  0
LINE
  5
CDE
330
4F6
100
AcDbEntity
  8
0
 62
     7
100
AcDbLine
 10
865.2448668336315
 20
-97.71121339121521
 30
0.0
 11
867.5815378899544
 21
-97.71121339121521
 31
0.0
  0
LINE
  5
CDF
330
4F6
100
AcDbEntity
  8
0
 62
     7
100
AcDbLine
 10
856.5815378899545
 20
-86.46121339121524
 30
0.0
 11
863.1780715589252
 21
-86.46121339121524
 31
0.0
  0
LINE
  5
CE0
330
4F6
100
AcDbEntity
  8
0
 62
     7
100
AcDbLine
 10
856.5815378899545
 20
-85.71121339121523
 30
0.0
 11
863.1482109495868
 21
-85.71121339121523
 31
0.0
  0
LINE
  5
CE1
330
4F6
100
AcDbEntity
  8
0
 62
     7
100
AcDbLine
 10
864.7913833032179
 20
-85.71121339121521
 30
0.0
 11
867.5815378899544
 21
-85.71121339121521
 31
0.0
  0
LINE
  5
CE2
330
4F6
100
AcDbEntity
  8
0
 62
     7
100
AcDbLine
 10
864.8197260238687
 20
-86.46121339121521
 30
0.0
 11
867.5815378899544
 21
-86.46121339121521
 31
0.0
  0
LINE
  5
CE3
330
4F6
100
AcDbEntity
  8
0
 62
     7
100
AcDbLine
 10
840.2568749195971
 20
12.28878660878467
 30
0.0
 11
870.9062008603121
 21
12.28878660878467
 31
0.0
  0
LINE
  5
CE4
330
4F6
100
AcDbEntity
  8
0
 62
     7
100
AcDbLine
 10
840.2568749195971
 20
14.28878660878467
 30
0.0
 11
870.9062008603121
 21
14.28878660878467
 31
0.0
  0
LINE
  5
CE5
330
4F6
100
AcDbEntity
  8
0
 62
     7
100
AcDbLine
 10
848.0944931218912
 20
-33.71121339121533
 30
0.0
 11
848.0944931218912
 21
12.28878660878467
 31
0.0
  0
LINE
  5
CE6
330
4F6
100
AcDbEntity
  8
0
 62
     7
100
AcDbLine
 10
846.4169152913429
 20
-33.71121339121533
 30
0.0
 11
846.4169152913429
 21
12.28878660878467
 31
0.0
  0
LINE
  5
CE7
330
4F6
100
AcDbEntity
  8
0
 62
     7
100
AcDbLine
 10
840.5068749195971
 20
12.28878660878467
 30
0.0
 11
840.5068749195971
 21
-33.71121339121533
 31
0.0
  0
LINE
  5
CE8
330
4F6
100
AcDbEntity
  8
0
 62
     7
100
AcDbLine
 10
840.756874919597
 20
12.28878660878467
 30
0.0
 11
840.756874919597
 21
-33.71121339121533
 31
0.0
  0
LINE
  5
CE9
330
4F6
100
AcDbEntity
  8
0
 62
     7
100
AcDbLine
 10
843.5815378899544
 20
12.28878660878467
 30
0.0
 11
843.5815378899544
 21
-33.71121339121533
 31
0.0
  0
LINE
  5
CEA
330
4F6
100
AcDbEntity
  8
0
 62
     7
100
AcDbLine
 10
842.5815378899544
 20
12.28878660878467
 30
0.0
 11
842.5815378899544
 21
-33.71121339121533
 31
0.0
  0
LINE
  5
CEB
330
4F6
100
AcDbEntity
  8
0
 62
     7
100
AcDbLine
 10
840.2568749195971
 20
12.28878660878467
 30
0.0
 11
840.2568749195971
 21
14.28878660878467
 31
0.0
  0
LINE
  5
CEC
330
4F6
100
AcDbEntity
  8
0
 62
     7
100
AcDbLine
 10
870.6562008603119
 20
12.28878660878467
 30
0.0
 11
870.6562008603121
 21
-33.71121339121533
 31
0.0
  0
LINE
  5
CED
330
4F6
100
AcDbEntity
  8
0
 62
     7
100
AcDbLine
 10
870.406200860312
 20
12.28878660878467
 30
0.0
 11
870.406200860312
 21
-33.71121339121533
 31
0.0
  0
LINE
  5
CEE
330
4F6
100
AcDbEntity
  8
0
 62
     7
100
AcDbLine
 10
856.5815378899545
 20
12.28878660878467
 30
0.0
 11
856.5815378899545
 21
-33.71121339121533
 31
0.0
  0
LINE
  5
CEF
330
4F6
100
AcDbEntity
  8
0
 62
     7
100
AcDbLine
 10
854.5815378899545
 20
12.28878660878467
 30
0.0
 11
854.5815378899545
 21
-33.71121339121533
 31
0.0
  0
LINE
  5
CF0
330
4F6
100
AcDbEntity
  8
0
 62
     7
100
AcDbLine
 10
864.7461604885661
 20
-33.71121339121533
 30
0.0
 11
864.7461604885661
 21
12.28878660878467
 31
0.0
  0
LINE
  5
CF1
330
4F6
100
AcDbEntity
  8
0
 62
     7
100
AcDbLine
 10
863.068582658018
 20
-33.71121339121533
 30
0.0
 11
863.068582658018
 21
12.28878660878467
 31
0.0
  0
LINE
  5
CF2
330
4F6
100
AcDbEntity
  8
0
 62
     7
100
AcDbLine
 10
868.5815378899544
 20
12.28878660878467
 30
0.0
 11
868.5815378899544
 21
-33.71121339121533
 31
0.0
  0
LINE
  5
CF3
330
4F6
100
AcDbEntity
  8
0
 62
     7
100
AcDbLine
 10
867.5815378899544
 20
12.28878660878467
 30
0.0
 11
867.5815378899544
 21
-33.71121339121533
 31
0.0
  0
LINE
  5
CF6
330
4F6
100
AcDbEntity
  8
0
 62
     7
100
AcDbLine
 10
870.9062008603121
 20
12.28878660878467
 30
0.0
 11
870.9062008603121
 21
14.28878660878467
 31
0.0
  0
LINE
  5
CF7
330
4F6
100
AcDbEntity
  8
0
 62
     7
100
AcDbLine
 10
759.3651905559181
 20
14.28878660878479
 30
0.0
 11
729.6151905559183
 21
14.28878660878479
 31
0.0
  0
LINE
  5
CF8
330
4F6
100
AcDbEntity
  8
0
 62
     7
100
AcDbLine
 10
759.3651905559181
 20
12.28878660878479
 30
0.0
 11
729.6151905559183
 21
12.28878660878479
 31
0.0
  0
LINE
  5
CF9
330
4F6
100
AcDbEntity
  8
0
 62
     7
100
AcDbLine
 10
752.0738740776259
 20
12.28878660878479
 30
0.0
 11
752.0738740776259
 21
-33.71121339121524
 31
0.0
  0
LINE
  5
CFA
330
4F6
100
AcDbEntity
  8
0
 62
     7
100
AcDbLine
 10
750.1296853616516
 20
12.28878660878479
 30
0.0
 11
750.1296853616516
 21
-33.71121339121524
 31
0.0
  0
LINE
  5
CFB
330
4F6
100
AcDbEntity
  8
0
 62
     7
100
AcDbLine
 10
740.594100511347
 20
12.28878660878479
 30
0.0
 11
740.594100511347
 21
-33.71121339121524
 31
0.0
  0
LINE
  5
CFC
330
4F6
100
AcDbEntity
  8
0
 62
     7
100
AcDbLine
 10
738.6499117953726
 20
12.28878660878479
 30
0.0
 11
738.6499117953726
 21
-33.71121339121524
 31
0.0
  0
LINE
  5
CFD
330
4F6
100
AcDbEntity
  8
0
 62
     7
100
AcDbLine
 10
759.1151905559181
 20
12.28878660878479
 30
0.0
 11
759.1151905559181
 21
-33.71121339121524
 31
0.0
  0
LINE
  5
CFE
330
4F6
100
AcDbEntity
  8
0
 62
     7
100
AcDbLine
 10
758.8651905559181
 20
12.28878660878479
 30
0.0
 11
758.8651905559181
 21
-33.71121339121524
 31
0.0
  0
LINE
  5
CFF
330
4F6
100
AcDbEntity
  8
0
 62
     7
100
AcDbLine
 10
759.3651905559181
 20
12.28878660878479
 30
0.0
 11
759.3651905559181
 21
14.28878660878479
 31
0.0
  0
LINE
  5
D00
330
4F6
100
AcDbEntity
  8
0
 62
     7
100
AcDbLine
 10
732.6151905559182
 20
12.28878660878479
 30
0.0
 11
732.6151905559182
 21
-33.71121339121521
 31
0.0
  0
LINE
  5
D18
330
4F6
100
AcDbEntity
  8
0
100
AcDbLine
 10
867.5815378899546
 20
-19.71121339121524
 30
0.0
 11
864.7461604885661
 21
-19.71121339121524
 31
0.0
  0
LINE
  5
DF0
330
4F6
100
AcDbEntity
  8
0
 62
     7
100
AcDbLine
 10
699.6151905559181
 20
-46.01504004645737
 30
0.0
 11
708.1151905559182
 21
-46.01504004645737
 31
0.0
  0
LINE
  5
DF1
330
4F6
100
AcDbEntity
  8
0
 62
     7
100
AcDbLine
 10
699.6151905559181
 20
-43.01504004645737
 30
0.0
 11
708.1151905559182
 21
-43.01504004645737
 31
0.0
  0
TEXT
  5
DF2
330
4F6
100
AcDbEntity
  8
0
 62
     7
100
AcDbText
 10
693.6634797662769
 20
-48.93704004645737
 30
0.0
 40
6.1908
  1
*
  7
ROMANS
 72
     4
 11
696.0218797662768
 21
-44.51504004645737
 31
0.0
100
AcDbText
  0
LINE
  5
DF3
330
4F6
100
AcDbEntity
  8
0
 62
     7
100
AcDbLine
 10
702.6151905559181
 20
-46.01504004645737
 30
0.0
 11
702.6151905559181
 21
-50.33621339121523
 31
0.0
  0
DIMENSION
  5
E84
330
4F6
100
AcDbEntity
  8
0
 62
     7
100
AcDbDimension
  2
*D8
 10
1026.997409152491
 20
8.424621276596264
 30
0.0
 11
1026.997409152491
 21
-20.28631622340357
 31
0.0
 70
    32
  1
28"
 71
     5
 42
57.421875
 73
     0
 74
     0
 75
     0
  3
STANDARD$0
100
AcDbAlignedDimension
 13
980.4507068571533
 23
-48.99725372340373
 33
0.0
 14
1007.623558419654
 24
8.424621276596269
 34
0.0
 50
90.0
100
AcDbRotatedDimension
1001
ACAD
1000
DSTYLE
1002
{
1070
    40
1040
40.0
1002
}
  0
ARC
  5
E85
330
4F6
100
AcDbEntity
  8
0
 62
     7
100
AcDbCircle
 10
980.4507068571536
 20
-22.84979278590373
 30
0.0
 40
34.3505859375
100
AcDbArc
 50
142.2832549072168
 51
37.71674509278292
  0
ARC
  5
E86
330
4F6
100
AcDbEntity
  8
0
 62
     7
100
AcDbCircle
 10
980.4507068571536
 20
-22.84979278590373
 30
0.0
 40
33.837890625
100
AcDbArc
 50
148.4767579778598
 51
31.5232420221402
  0
ARC
  5
E87
330
4F6
100
AcDbEntity
  8
0
 62
     7
100
AcDbCircle
 10
980.4507068571533
 20
-17.58839552583308
 30
0.0
 40
31.40885819757068
100
AcDbArc
 50
149.8979386601317
 51
30.10206133986819
  0
ARC
  5
E88
330
4F6
100
AcDbEntity
  8
0
 62
     7
100
AcDbCircle
 10
980.4507068571536
 20
-17.60093973578043
 30
0.0
 40
30.88361867512334
100
AcDbArc
 50
149.6830060207756
 51
30.31699397922438
  0
LEADER
  5
E89
330
4F6
100
AcDbEntity
  8
0
 62
     7
100
AcDbLeader
  3
STANDARD
 73
     0
 40
3.0
 41
3.0
 76
     3
 10
960.7100091972277
 20
-165.9199684540503
 30
0.0
 10
977.941168269066
 20
-194.8826960202435
 30
0.0
 10
967.2284256739557
 20
-194.8826960202435
 30
0.0
340
E8A
213
-111.4183419627087
223
-151.6595120647213
233
0.0
1001
ACAD
1000
DSTYLE
1002
{
1070
    40
1040
40.0
1002
}
  0
MTEXT
  5
E8A
102
{ACAD_REACTORS
330
E89
102
}
330
4F6
100
AcDbEntity
  8
0
100
AcDbMText
 10
478.0188270522408
 20
-48.83963172854236
 30
0.0
 40
3.0
 41
0.0
 46
0.0
 71
     4
 72
     1
  1
\A1; 
  7
ROMANS
 73
     1
 44
1.0
  0
LINE
  5
E8B
330
4F6
100
AcDbEntity
  8
0
 62
     7
100
AcDbLine
 10
1015.458644568544
 20
-192.1820349796279
 30
0.0
 11
1015.458644568544
 21
-173.8829959171279
 31
0.0
  0
LINE
  5
E8C
330
4F6
100
AcDbEntity
  8
0
 62
     7
100
AcDbLine
 10
1014.138025177463
 20
-192.9444949405654
 30
0.0
 11
1014.138025177463
 21
-174.6454558780655
 31
0.0
  0
DIMENSION
  5
E8D
330
4F6
100
AcDbEntity
  8
0
 62
     7
100
AcDbDimension
  2
*D9
 10
1024.498040784945
 20
-186.9631371407768
 30
0.0
 11
1025.549263319346
 21
-179.0269151534103
 31
0.0
 70
   161
  1
3"
 71
     5
 42
18.29903906249998
 73
     0
 74
     0
 75
     0
  3
STANDARD$0
100
AcDbAlignedDimension
 13
1015.458644568544
 23
-173.8829959171279
 33
0.0
 14
1015.458644568544
 24
-192.1820349796279
 34
0.0
1001
ACAD
1000
DSTYLE
1002
{
1070
    40
1040
40.0
1002
}
  0
DIMENSION
  5
E8E
330
4F6
100
AcDbEntity
  8
0
 62
     7
100
AcDbDimension
  2
*D10
 10
949.4276750145074
 20
-183.9141099540514
 30
0.0
 11
936.7527608899788
 21
-180.3051478963531
 31
0.0
 70
   161
  1
1/4"
 71
     5
 42
1.524919921875039
 73
     0
 74
     0
 75
     0
  3
STANDARD$0
100
AcDbAlignedDimension
 13
950.7482944055881
 23
-179.2202156436904
 33
0.0
 14
949.4276750145074
 24
-178.4577556827529
 34
0.0
1001
ACAD
1000
DSTYLE
1002
{
1070
    40
1040
40.0
1002
}
  0
LINE
  5
E8F
330
4F6
100
AcDbEntity
  8
0
 62
     7
100
AcDbLine
 10
1014.138025177463
 20
-192.9444949405654
 30
0.0
 11
970.5575852717991
 21
-167.783316229628
 31
0.0
  0
TEXT
  5
E90
330
4F6
100
AcDbEntity
  8
0
 62
     7
100
AcDbText
 10
941.8566771865245
 20
-196.6051904423587
 30
0.0
 40
3.869249999999999
  1
%%C9/16"
  7
ROMANS
 72
     2
 11
962.6769271865246
 21
-194.6705654423587
 31
0.0
100
AcDbText
 73
     2
  0
TEXT
  5
E91
330
4F6
100
AcDbEntity
  8
0
100
AcDbText
 10
950.3132430199734
 20
-209.4411818806759
 30
0.0
 40
5.137673062500001
  1
BRACKET DETAIL
  7
ROMANS
 72
     1
 11
982.1178857878306
 21
-209.4411818806759
 31
0.0
100
AcDbText
  0
LINE
  5
E92
330
4F6
100
AcDbEntity
  8
0
 62
     7
100
AcDbLine
 10
1014.138025177463
 20
-192.9444949405654
 30
0.0
 11
1015.458644568544
 21
-192.1820349796279
 31
0.0
  0
DIMENSION
  5
E93
330
4F6
100
AcDbEntity
  8
0
 62
     7
100
AcDbDimension
  2
*D11
 10
943.8410898111058
 20
-156.9333001492183
 30
0.0
 11
950.6464670134237
 21
-149.9942887681565
 31
0.0
 70
   161
  1
4-1/2"
 71
     5
 42
24.39871874999972
 73
     0
 74
     0
 75
     0
  3
STANDARD$0
100
AcDbAlignedDimension
 13
970.5575852717988
 23
-147.959357245253
 33
0.0
 14
949.4276750145074
 24
-160.1587166202529
 34
0.0
1001
ACAD
1000
DSTYLE
1002
{
1070
    40
1040
40.0
1002
}
  0
TEXT
  5
E94
330
4F6
100
AcDbEntity
  8
0
 62
     7
100
AcDbText
 10
928.0413214324699
 20
-106.9993372687409
 30
0.0
 40
3.869249999999999
  1
LADDER ARE OMITTED FOR CLARITY)
  7
ROMANS
100
AcDbText
  0
TEXT
  5
E95
330
4F6
100
AcDbEntity
  8
0
 62
     7
100
AcDbText
 10
933.1419206144602
 20
-100.7348372687409
 30
0.0
 40
3.869249999999999
  1
(PARAPET PLATFORM & RETURN
  7
ROMANS
100
AcDbText
  0
DIMENSION
  5
E96
330
4F6
100
AcDbEntity
  8
0
 62
     7
100
AcDbDimension
  2
*D12
 10
1024.498040784945
 20
-168.6640980782767
 30
0.0
 11
1002.047511136572
 21
-155.7022787423392
 31
0.0
 70
    33
  1
8-1/2"
 71
     5
 42
51.8472773437503
 73
     0
 74
     0
 75
     0
  3
STANDARD$0
100
AcDbAlignedDimension
 13
970.5575852717988
 23
-147.959357245253
 33
0.0
 14
1015.458644568544
 24
-173.8829959171279
 34
0.0
1001
ACAD
1000
DSTYLE
1002
{
1070
    40
1040
40.0
1002
}
  0
LINE
  5
E97
330
4F6
100
AcDbEntity
  8
0
 62
     7
100
AcDbLine
 10
1014.138025177463
 20
-174.6454558780655
 30
0.0
 11
970.5575852717991
 21
-149.484277167128
 31
0.0
  0
LINE
  5
E98
330
4F6
100
AcDbEntity
  8
0
 62
     7
100
AcDbLine
 10
1015.458644568544
 20
-173.8829959171279
 30
0.0
 11
970.5575852717991
 21
-147.959357245253
 31
0.0
  0
LINE
  5
E99
330
4F6
100
AcDbEntity
  8
0
 62
     7
100
AcDbLine
 10
950.7482944055881
 20
-179.2202156436904
 30
0.0
 11
970.5575852717991
 21
-167.783316229628
 31
0.0
  0
LINE
  5
E9A
330
4F6
100
AcDbEntity
  8
0
 62
     7
100
AcDbLine
 10
950.7482944055881
 20
-160.9211765811904
 30
0.0
 11
970.5575852717991
 21
-149.484277167128
 31
0.0
  0
LINE
  5
E9B
330
4F6
100
AcDbEntity
  8
0
 62
     7
100
AcDbLine
 10
949.4276750145075
 20
-160.1587166202529
 30
0.0
 11
970.5575852717991
 21
-147.959357245253
 31
0.0
  0
LINE
  5
E9C
330
4F6
100
AcDbEntity
  8
0
 62
     7
100
AcDbLine
 10
950.7482944055881
 20
-160.9211765811904
 30
0.0
 11
949.4276750145075
 21
-160.1587166202529
 31
0.0
  0
LINE
  5
E9D
330
4F6
100
AcDbEntity
  8
0
 62
     7
100
AcDbLine
 10
949.4276750145075
 20
-178.4577556827529
 30
0.0
 11
949.4276750145075
 21
-160.1587166202529
 31
0.0
  0
LINE
  5
E9E
330
4F6
100
AcDbEntity
  8
0
 62
     7
100
AcDbLine
 10
950.7482944055881
 20
-179.2202156436904
 30
0.0
 11
950.7482944055881
 21
-160.9211765811904
 31
0.0
  0
LINE
  5
E9F
330
4F6
100
AcDbEntity
  8
0
 62
     7
100
AcDbLine
 10
950.7482944055881
 20
-179.2202156436904
 30
0.0
 11
949.4276750145075
 21
-178.4577556827529
 31
0.0
  0
LWPOLYLINE
  5
EA0
330
4F6
100
AcDbEntity
  8
0
 62
     7
100
AcDbPolyline
 90
       16
 70
     1
 43
0.0
 10
959.1168878996795
 20
-164.0260200361736
 42
0.0587518675353646
 10
958.7812123928664
 20
-164.8063770998367
 42
0.0723410840576763
 10
958.6817373773627
 20
-165.4903206770857
 42
0.106617054391126
 10
958.8180311216936
 20
-166.1222292744283
 42
0.1568512196706424
 10
959.1168878996795
 20
-166.4521527756031
 42
0.1568512196706761
 10
959.5520384219954
 20
-166.5460085868444
 42
0.1066170543910004
 10
960.1674341923288
 20
-166.3480881331403
 42
0.0723410840577375
 10
960.7100091972299
 20
-165.9199684540479
 42
0.0587518675353654
 10
961.2179804849782
 20
-165.2390864058884
 42
0.0587518675353444
 10
961.5536559917913
 20
-164.4587293422253
 42
0.0723410840576672
 10
961.6531310072947
 20
-163.7747857649763
 42
0.1066170543911832
 10
961.5168372629641
 20
-163.142877167634
 42
0.1568512196709102
 10
961.2179804849782
 20
-162.8129536664587
 42
0.1568512196706761
 10
960.7828299626621
 20
-162.7190978552176
 42
0.1066170543910004
 10
960.1674341923288
 20
-162.9170183089216
 42
0.0723410840577166
 10
959.6248591874278
 20
-163.3451379880138
 42
0.0587518675353862
  0
LWPOLYLINE
  5
EA1
330
4F6
100
AcDbEntity
  8
0
 62
     7
100
AcDbPolyline
 90
        7
 70
     0
 43
0.0
 10
958.6915921606856
 20
-165.6638666819075
 42
0.0283695723264663
 10
958.8468148012479
 20
-165.5856281722028
 42
0.0723410840577375
 10
959.3893898061493
 20
-165.1575084931105
 42
0.0587518675353654
 10
959.8973610938976
 20
-164.4766264449509
 42
0.0587518675353444
 10
960.2330366007107
 20
-163.6962693812878
 42
0.0723410840576672
 10
960.3325116162141
 20
-163.0123258040387
 42
0.0283695723264929
 10
960.3226568328913
 20
-162.838779799217
 42
0.1568512196709102
  0
LINE
  5
EA2
330
4F6
100
AcDbEntity
  8
0
 62
     7
100
AcDbLine
 10
970.5575852717991
 20
-149.484277167128
 30
0.0
 11
970.5575852717991
 21
-167.783316229628
 31
0.0
  0
LINE
  5
EA3
330
4F6
100
AcDbEntity
  8
0
 62
     7
100
AcDbLine
 10
1014.138025177463
 20
-174.6454558780655
 30
0.0
 11
1015.458644568544
 21
-173.8829959171279
 31
0.0
  0
DIMENSION
  5
EA4
330
4F6
100
AcDbEntity
  8
0
 62
     7
100
AcDbDimension
  2
*D13
 10
946.1001209196536
 20
-77.47285992182717
 30
0.0
 11
980.4507068571536
 21
-77.47285992182717
 31
0.0
 70
    32
  1
33-1/2"
 71
     5
 42
68.701171875
 73
     0
 74
     0
 75
     0
  3
STANDARD$0
100
AcDbAlignedDimension
 13
1014.801292794653
 23
-22.84979278590373
 33
0.0
 14
946.1001209196536
 24
-22.84979278590373
 34
0.0
100
AcDbRotatedDimension
1001
ACAD
1000
DSTYLE
1002
{
1070
    40
1040
40.0
1002
}
  0
DIMENSION
  5
EA5
330
4F6
100
AcDbEntity
  8
0
 62
     7
100
AcDbDimension
  2
*D14
 10
949.0418486595826
 20
-67.9671400760591
 30
0.0
 11
980.4507068571533
 21
-67.9671400760591
 31
0.0
 70
    32
  1
29-1/2"
 71
     5
 42
62.81771639514136
 73
     0
 74
     0
 75
     0
  3
STANDARD$0
100
AcDbAlignedDimension
 13
1011.859565054724
 23
-17.58839552583306
 33
0.0
 14
949.0418486595826
 24
-17.58839552583306
 34
0.0
100
AcDbRotatedDimension
1001
ACAD
1000
DSTYLE
1002
{
1070
    40
1040
40.0
1002
}
  0
DIMENSION
  5
EA6
330
4F6
100
AcDbEntity
  8
0
 62
     7
100
AcDbDimension
  2
*D15
 10
1026.997409152491
 20
-57.20037872340377
 30
0.0
 11
1027.331336126073
 21
-53.50143211989202
 31
0.0
 70
   160
  1
4"
 71
     5
 42
8.203125000000035
 73
     0
 74
     0
 75
     0
  3
STANDARD$0
100
AcDbAlignedDimension
 13
980.4507068571533
 23
-48.99725372340373
 33
0.0
 14
980.4507068571536
 24
-57.20037872340377
 34
0.0
 50
90.0
100
AcDbRotatedDimension
1001
ACAD
1000
DSTYLE
1002
{
1070
    40
1040
40.0
1002
}
  0
TEXT
  5
EA7
330
4F6
100
AcDbEntity
  8
0
100
AcDbText
 10
969.6428335358321
 20
-92.22322331866084
 30
0.0
 40
6.44875
  1
PLAN
  7
ROMANS
 72
     1
 11
981.6190835358323
 21
-92.22322331866084
 31
0.0
100
AcDbText
  0
LINE
  5
EA8
330
4F6
100
AcDbEntity
  8
0
 62
     7
100
AcDbLine
 10
982.5014881071536
 20
-48.93023129752567
 30
0.0
 11
982.5014881071536
 21
-56.62548135348313
 31
0.0
  0
LINE
  5
EA9
330
4F6
100
AcDbEntity
  8
0
 62
     7
100
AcDbLine
 10
978.3999256071536
 20
-48.93023129752567
 30
0.0
 11
978.3999256071536
 21
-56.62548135348313
 31
0.0
  0
LINE
  5
EAA
330
4F6
100
AcDbEntity
  8
0
 62
     7
100
AcDbLine
 10
965.1066232786138
 20
-44.99415171700394
 30
0.0
 11
961.3489218893306
 21
-50.78050443083899
 31
0.0
  0
LINE
  5
EAB
330
4F6
100
AcDbEntity
  8
0
 62
     7
100
AcDbLine
 10
953.6018872816711
 20
-31.79966393298837
 30
0.0
 11
951.9336315190559
 21
-28.05270014187609
 31
0.0
  0
LINE
  5
EAC
330
4F6
100
AcDbEntity
  8
0
 62
     7
100
AcDbLine
 10
950.9883652642759
 20
-28.47355979375819
 30
0.0
 11
947.3930403533692
 21
-30.0743015770983
 31
0.0
  0
LINE
  5
EAD
330
4F6
100
AcDbEntity
  8
0
 62
     7
100
AcDbLine
 10
952.6579910521414
 20
-32.21991361032959
 30
0.0
 11
948.5238833765956
 21
-34.06053693563681
 31
0.0
  0
LINE
  5
EAE
330
4F6
100
AcDbEntity
  8
0
 62
     7
100
AcDbLine
 10
953.6018872816711
 20
-31.79966393298837
 30
0.0
 11
953.1335168077823
 21
-32.00819590331526
 31
0.0
  0
LINE
  5
EAF
330
4F6
100
AcDbEntity
  8
0
 62
     7
100
AcDbLine
 10
961.6662765757208
 20
-42.76103051458817
 30
0.0
 11
958.0988175022692
 21
-48.25443575163884
 31
0.0
  0
LINE
  5
EB0
330
4F6
100
AcDbEntity
  8
0
 62
     7
100
AcDbLine
 10
965.6665715403315
 20
-44.13190700723631
 30
0.0
 11
962.2267117889927
 21
-41.89803596518248
 31
0.0
  0
LINE
  5
EB1
330
4F6
100
AcDbEntity
  8
0
 62
     7
100
AcDbLine
 10
965.6665715403315
 20
-44.13190700723631
 30
0.0
 11
965.3873376600749
 21
-44.56188947615365
 31
0.0
  0
LINE
  5
EB2
330
4F6
100
AcDbEntity
  8
0
 62
     7
100
AcDbLine
 10
962.2267117889927
 20
-41.89803596518248
 30
0.0
 11
961.9474779087362
 21
-42.32801843409983
 31
0.0
  0
LINE
  5
EB3
330
4F6
100
AcDbEntity
  8
0
 62
     7
100
AcDbLine
 10
951.9336315190559
 20
-28.05270014187609
 30
0.0
 11
951.4652610451665
 21
-28.26123211220306
 31
0.0
  0
LINE
  5
EB4
330
4F6
100
AcDbEntity
  8
0
 62
     7
100
AcDbLine
 10
949.1727931821987
 20
-14.7233493800985
 30
0.0
 11
947.6632002154797
 21
-14.48425334294686
 31
0.0
  0
LINE
  5
EB5
330
4F6
100
AcDbEntity
  8
0
 62
     7
100
AcDbLine
 10
950.2002126499077
 20
-14.88607663747014
 30
0.0
 11
950.8418383854243
 21
-10.83501117799787
 31
0.0
  0
LINE
  5
EB6
330
4F6
100
AcDbEntity
  8
0
 62
     7
100
AcDbLine
 10
950.2002126499077
 20
-14.88607663747014
 30
0.0
 11
949.6938294674738
 21
-14.80587342053059
 31
0.0
  0
LINE
  5
EB7
330
4F6
100
AcDbEntity
  8
0
 62
     7
100
AcDbLine
 10
949.8128174871792
 20
-10.67203027894709
 30
0.0
 11
948.9341092591482
 21
-10.53285656804184
 31
0.0
  0
LINE
  5
EB8
330
4F6
100
AcDbEntity
  8
0
 62
     7
100
AcDbLine
 10
950.8418383854243
 20
-10.83501117799787
 30
0.0
 11
950.3354552029904
 21
-10.75480796105832
 31
0.0
  0
LINE
  5
EB9
330
4F6
100
AcDbEntity
  8
0
 62
     7
100
AcDbLine
 10
982.5014881071536
 20
-47.90369831795927
 30
0.0
 11
982.5014881071536
 21
-48.41639363045928
 31
0.0
  0
LINE
  5
EBA
330
4F6
100
AcDbEntity
  8
0
 62
     7
100
AcDbLine
 10
978.3999256071536
 20
-47.90369831795927
 30
0.0
 11
978.3999256071536
 21
-48.41639363045928
 31
0.0
  0
LINE
  5
EBB
330
4F6
100
AcDbEntity
  8
0
 62
     7
100
AcDbLine
 10
978.3999256071536
 20
-47.90369831795927
 30
0.0
 11
982.5014881071536
 21
-47.90369831795927
 31
0.0
  0
LINE
  5
EBC
330
4F6
100
AcDbEntity
  8
0
 62
     7
100
AcDbLine
 10
995.7947904356927
 20
-44.99415171700394
 30
0.0
 11
999.5524918249763
 21
-50.78050443083899
 31
0.0
  0
LINE
  5
EBD
330
4F6
100
AcDbEntity
  8
0
 62
     7
100
AcDbLine
 10
1011.728620532108
 20
-14.7233493800985
 30
0.0
 11
1013.238213498827
 21
-14.48425334294686
 31
0.0
  0
LINE
  5
EBE
330
4F6
100
AcDbEntity
  8
0
 62
     7
100
AcDbLine
 10
1009.91304845003
 20
-28.47355979375819
 30
0.0
 11
1013.508373360937
 21
-30.0743015770983
 31
0.0
  0
LINE
  5
EBF
330
4F6
100
AcDbEntity
  8
0
 62
     7
100
AcDbLine
 10
1007.299526432635
 20
-31.79966393298837
 30
0.0
 11
1008.967782195251
 21
-28.05270014187609
 31
0.0
  0
LINE
  5
EC0
330
4F6
100
AcDbEntity
  8
0
 62
     7
100
AcDbLine
 10
999.2351371385858
 20
-42.76103051458817
 30
0.0
 11
1002.802596212037
 21
-48.25443575163884
 31
0.0
  0
LINE
  5
EC1
330
4F6
100
AcDbEntity
  8
0
 62
     7
100
AcDbLine
 10
995.2348421739753
 20
-44.13190700723631
 30
0.0
 11
995.5140760542317
 21
-44.56188947615365
 31
0.0
  0
LINE
  5
EC2
330
4F6
100
AcDbEntity
  8
0
 62
     7
100
AcDbLine
 10
995.2348421739753
 20
-44.13190700723631
 30
0.0
 11
998.6747019253138
 21
-41.89803596518248
 31
0.0
  0
LINE
  5
EC3
330
4F6
100
AcDbEntity
  8
0
 62
     7
100
AcDbLine
 10
998.6747019253138
 20
-41.89803596518248
 30
0.0
 11
998.9539358055706
 21
-42.32801843409983
 31
0.0
  0
LINE
  5
EC4
330
4F6
100
AcDbEntity
  8
0
 62
     7
100
AcDbLine
 10
1007.299526432635
 20
-31.79966393298837
 30
0.0
 11
1007.767896906524
 21
-32.00819590331526
 31
0.0
  0
LINE
  5
EC5
330
4F6
100
AcDbEntity
  8
0
 62
     7
100
AcDbLine
 10
1008.243422662165
 20
-32.21991361032959
 30
0.0
 11
1012.377530337711
 21
-34.06053693563681
 31
0.0
  0
LINE
  5
EC6
330
4F6
100
AcDbEntity
  8
0
 62
     7
100
AcDbLine
 10
1008.967782195251
 20
-28.05270014187609
 30
0.0
 11
1009.43615266914
 21
-28.26123211220306
 31
0.0
  0
LINE
  5
EC7
330
4F6
100
AcDbEntity
  8
0
 62
     7
100
AcDbLine
 10
1010.059575328882
 20
-10.83501117799787
 30
0.0
 11
1010.565958511316
 21
-10.75480796105832
 31
0.0
  0
LINE
  5
EC8
330
4F6
100
AcDbEntity
  8
0
 62
     7
100
AcDbLine
 10
1010.701201064399
 20
-14.88607663747014
 30
0.0
 11
1011.207584246833
 21
-14.80587342053059
 31
0.0
  0
LINE
  5
EC9
330
4F6
100
AcDbEntity
  8
0
 62
     7
100
AcDbLine
 10
1010.701201064399
 20
-14.88607663747014
 30
0.0
 11
1010.059575328882
 21
-10.83501117799787
 31
0.0
  0
LINE
  5
ECA
330
4F6
100
AcDbEntity
  8
0
 62
     7
100
AcDbLine
 10
1011.088596227127
 20
-10.67203027894709
 30
0.0
 11
1011.967304455158
 21
-10.53285656804184
 31
0.0
  0
DIMENSION
  5
ECB
330
4F6
100
AcDbEntity
  8
0
100
AcDbDimension
  2
*D16
 10
957.3794177946536
 20
31.5899000438811
 30
0.0
 11
980.4507068571536
 21
31.5899000438811
 31
0.0
 70
    32
  1
22-1/8"
 71
     5
 42
46.142578125
 73
     0
 74
     0
 75
     0
  3
STANDARD$0
100
AcDbAlignedDimension
 13
1003.521995919653
 23
22.7800900265962
 33
0.0
 14
957.3794177946536
 24
22.7800900265962
 34
0.0
100
AcDbRotatedDimension
1001
ACAD
1000
DSTYLE
1002
{
1070
    40
1040
40.0
1002
}
  0
DIMENSION
  5
ECC
330
4F6
100
AcDbEntity
  8
0
 62
     7
100
AcDbDimension
  2
*D17
 10
955.8413318571536
 20
-1.427101934193998
 30
0.0
 11
980.4507068571536
 21
-1.427101934193998
 31
0.0
 70
    32
  1
24"
 71
     5
 42
49.21875
 73
     0
 74
     0
 75
     0
  3
STANDARD$0
100
AcDbAlignedDimension
 13
1005.060081857154
 23
5.348449401596198
 33
0.0
 14
955.8413318571536
 24
5.348449401596198
 34
0.0
100
AcDbRotatedDimension
1001
ACAD
1000
DSTYLE
1002
{
1070
    40
1040
40.0
1002
}
  0
LINE
  5
ECD
330
4F6
100
AcDbEntity
  8
0
 62
     7
100
AcDbLine
 10
955.8413318571533
 20
6.783996276596198
 30
0.0
 11
1005.060081857154
 21
6.783996276596234
 31
0.0
  0
LINE
  5
ECE
330
4F6
100
AcDbEntity
  8
0
 62
     7
100
AcDbLine
 10
955.8413318571536
 20
7.604308776596198
 30
0.0
 11
1005.060081857154
 21
7.604308776596198
 31
0.0
  0
LINE
  5
ECF
330
4F6
100
AcDbEntity
  8
0
 62
     7
100
AcDbLine
 10
955.8413318571536
 20
10.0652462765962
 30
0.0
 11
1005.060081857154
 21
10.06524627659627
 31
0.0
  0
LINE
  5
ED0
330
4F6
100
AcDbEntity
  8
0
 62
     7
100
AcDbLine
 10
955.8413318571536
 20
9.244933776596234
 30
0.0
 11
1005.060081857154
 21
9.244933776596234
 31
0.0
  0
LINE
  5
ED1
330
4F6
100
AcDbEntity
  8
0
 62
     7
100
AcDbLine
 10
955.8413318571536
 20
8.424621276596198
 30
0.0
 11
1005.060081857154
 21
8.424621276596269
 31
0.0
  0
LINE
  5
ED2
330
4F6
100
AcDbEntity
  8
0
 62
     7
100
AcDbLine
 10
955.8413318571533
 20
6.117492370346198
 30
0.0
 11
1005.060081857154
 21
6.117492370346269
 31
0.0
  0
LINE
  5
ED3
330
4F6
100
AcDbEntity
  8
0
 62
     7
100
AcDbLine
 10
1005.060081857154
 20
10.73175018284627
 30
0.0
 11
955.8413318571536
 21
10.7317501828462
 31
0.0
  0
LINE
  5
ED4
330
4F6
100
AcDbEntity
  8
0
 62
     7
100
AcDbLine
 10
953.2778552946536
 20
-1.835538285400588
 30
0.0
 11
953.2778552946536
 21
22.7800900265962
 31
0.0
  0
LINE
  5
ED5
330
4F6
100
AcDbEntity
  8
0
 62
     7
100
AcDbLine
 10
953.7905506071536
 20
11.5007931515962
 30
0.0
 11
953.7905506071536
 21
22.2673947140962
 31
0.0
  0
LINE
  5
ED6
330
4F6
100
AcDbEntity
  8
0
 62
     7
100
AcDbLine
 10
953.7905506071536
 20
11.5007931515962
 30
0.0
 11
955.8413318571536
 21
11.5007931515962
 31
0.0
  0
LINE
  5
ED7
330
4F6
100
AcDbEntity
  8
0
 62
     7
100
AcDbLine
 10
953.7905506071536
 20
5.348449401596198
 30
0.0
 11
955.8413318571536
 21
5.348449401596198
 31
0.0
  0
LINE
  5
ED8
330
4F6
100
AcDbEntity
  8
0
 62
     7
100
AcDbLine
 10
953.7905506071536
 20
5.348449401596198
 30
0.0
 11
953.7905506071536
 21
-2.011392879119952
 31
0.0
  0
LINE
  5
ED9
330
4F6
100
AcDbEntity
  8
0
 62
     7
100
AcDbLine
 10
953.7905506071536
 20
5.348449401596198
 30
0.0
 11
953.7905506071536
 21
11.5007931515962
 31
0.0
  0
LINE
  5
EDA
330
4F6
100
AcDbEntity
  8
0
 62
     7
100
AcDbLine
 10
955.8413318571533
 20
5.348449401596198
 30
0.0
 11
955.8413318571536
 21
11.5007931515962
 31
0.0
  0
LINE
  5
EDB
330
4F6
100
AcDbEntity
  8
0
 62
     7
100
AcDbLine
 10
953.2778552946536
 20
22.7800900265962
 30
0.0
 11
961.4809802946536
 21
22.7800900265962
 31
0.0
  0
LINE
  5
EDC
330
4F6
100
AcDbEntity
  8
0
 62
     7
100
AcDbLine
 10
953.7905506071536
 20
22.2673947140962
 30
0.0
 11
961.4809802946536
 21
22.2673947140962
 31
0.0
  0
LINE
  5
EDD
330
4F6
100
AcDbEntity
  8
0
 62
     7
100
AcDbLine
 10
961.4809802946536
 20
22.2673947140962
 30
0.0
 11
961.4809802946536
 21
22.7800900265962
 31
0.0
  0
DIMENSION
  5
EDE
330
4F6
100
AcDbEntity
  8
0
 62
     7
100
AcDbDimension
  2
*D18
 10
1026.997409152491
 20
22.7800900265962
 30
0.0
 11
1027.761326639557
 21
15.65011039698668
 31
0.0
 70
   160
  1
7"
 71
     5
 42
14.35546874999993
 73
     0
 74
     0
 75
     0
  3
STANDARD$0
100
AcDbAlignedDimension
 13
1007.623558419654
 23
8.424621276596269
 33
0.0
 14
1007.623558419654
 24
22.7800900265962
 34
0.0
 50
90.0
100
AcDbRotatedDimension
1001
ACAD
1000
DSTYLE
1002
{
1070
    40
1040
40.0
1002
}
  0
LINE
  5
EDF
330
4F6
100
AcDbEntity
  8
0
 62
     7
100
AcDbLine
 10
1007.110863107153
 20
11.5007931515962
 30
0.0
 11
1007.110863107153
 21
22.2673947140962
 31
0.0
  0
LINE
  5
EE0
330
4F6
100
AcDbEntity
  8
0
 62
     7
100
AcDbLine
 10
1007.623558419654
 20
-1.835538285400623
 30
0.0
 11
1007.623558419654
 21
22.7800900265962
 31
0.0
  0
LINE
  5
EE1
330
4F6
100
AcDbEntity
  8
0
 62
     7
100
AcDbLine
 10
1007.110863107153
 20
5.348449401596198
 30
0.0
 11
1007.110863107153
 21
-2.011392879119917
 31
0.0
  0
LINE
  5
EE2
330
4F6
100
AcDbEntity
  8
0
 62
     7
100
AcDbLine
 10
1005.060081857154
 20
11.5007931515962
 30
0.0
 11
1007.110863107153
 21
11.5007931515962
 31
0.0
  0
LINE
  5
EE3
330
4F6
100
AcDbEntity
  8
0
 62
     7
100
AcDbLine
 10
1005.060081857154
 20
5.348449401596198
 30
0.0
 11
1007.110863107153
 21
5.348449401596198
 31
0.0
  0
LINE
  5
EE4
330
4F6
100
AcDbEntity
  8
0
 62
     7
100
AcDbLine
 10
1007.110863107153
 20
5.348449401596198
 30
0.0
 11
1007.110863107153
 21
11.5007931515962
 31
0.0
  0
LINE
  5
EE5
330
4F6
100
AcDbEntity
  8
0
 62
     7
100
AcDbLine
 10
1005.060081857154
 20
5.348449401596198
 30
0.0
 11
1005.060081857154
 21
11.5007931515962
 31
0.0
  0
LINE
  5
EE6
330
4F6
100
AcDbEntity
  8
0
 62
     7
100
AcDbLine
 10
1007.110863107153
 20
22.2673947140962
 30
0.0
 11
999.4204334196536
 21
22.2673947140962
 31
0.0
  0
LINE
  5
EE7
330
4F6
100
AcDbEntity
  8
0
 62
     7
100
AcDbLine
 10
1007.623558419654
 20
22.7800900265962
 30
0.0
 11
999.4204334196536
 21
22.7800900265962
 31
0.0
  0
LINE
  5
EE8
330
4F6
100
AcDbEntity
  8
0
 62
     7
100
AcDbLine
 10
999.4204334196536
 20
22.2673947140962
 30
0.0
 11
999.4204334196536
 21
22.7800900265962
 31
0.0
  0
LINE
  5
EE9
330
4F6
100
AcDbEntity
  8
0
 62
     7
100
AcDbLine
 10
842.2690378899543
 20
-173.7112133912152
 30
0.0
 11
842.2690378899543
 21
-170.7112133912152
 31
0.0
  0
LINE
  5
EEA
330
4F6
100
AcDbEntity
  8
0
 62
     7
100
AcDbLine
 10
846.7690378899543
 20
-173.7112133912152
 30
0.0
 11
846.7690378899543
 21
-170.7112133912152
 31
0.0
  0
LINE
  5
EEB
330
4F6
100
AcDbEntity
  8
0
 62
     7
100
AcDbLine
 10
842.2690378899543
 20
-173.7112133912152
 30
0.0
 11
842.5190378899545
 21
-173.7112133912152
 31
0.0
  0
LINE
  5
EEC
330
4F6
100
AcDbEntity
  8
0
 62
     7
100
AcDbLine
 10
843.5815378899544
 20
-173.7112133912152
 30
0.0
 11
846.7690378899543
 21
-173.7112133912152
 31
0.0
  0
LINE
  5
EED
330
4F6
100
AcDbEntity
  8
0
 62
     7
100
AcDbLine
 10
842.2690378899543
 20
-170.7112133912152
 30
0.0
 11
842.5190378899545
 21
-170.7112133912152
 31
0.0
  0
LINE
  5
EEE
330
4F6
100
AcDbEntity
  8
0
 62
     7
100
AcDbLine
 10
843.5815378899544
 20
-170.7112133912152
 30
0.0
 11
846.7690378899543
 21
-170.7112133912152
 31
0.0
  0
CIRCLE
  5
EEF
330
4F6
100
AcDbEntity
  8
0
 62
     7
100
AcDbCircle
 10
844.5190378899544
 20
-172.2112133912152
 30
0.0
 40
0.28125
  0
LINE
  5
EF0
330
4F6
100
AcDbEntity
  8
0
 62
     7
100
AcDbLine
 10
864.3940378899545
 20
-173.7112133912152
 30
0.0
 11
864.3940378899545
 21
-170.7112133912152
 31
0.0
  0
LINE
  5
EF1
330
4F6
100
AcDbEntity
  8
0
 62
     7
100
AcDbLine
 10
868.8940378899545
 20
-173.7112133912152
 30
0.0
 11
868.8940378899545
 21
-170.7112133912152
 31
0.0
  0
LINE
  5
EF2
330
4F6
100
AcDbEntity
  8
0
 62
     7
100
AcDbLine
 10
867.5815378899546
 20
-173.7112133912152
 30
0.0
 11
864.3940378899545
 21
-173.7112133912152
 31
0.0
  0
LINE
  5
EF3
330
4F6
100
AcDbEntity
  8
0
 62
     7
100
AcDbLine
 10
868.8940378899545
 20
-173.7112133912152
 30
0.0
 11
868.6440378899545
 21
-173.7112133912152
 31
0.0
  0
CIRCLE
  5
EF4
330
4F6
100
AcDbEntity
  8
0
 62
     7
100
AcDbCircle
 10
866.6440378899546
 20
-172.2112133912152
 30
0.0
 40
0.28125
  0
LINE
  5
EF5
330
4F6
100
AcDbEntity
  8
0
 62
     7
100
AcDbLine
 10
867.5815378899546
 20
-170.7112133912152
 30
0.0
 11
864.3940378899545
 21
-170.7112133912152
 31
0.0
  0
LINE
  5
EF6
330
4F6
100
AcDbEntity
  8
0
 62
     7
100
AcDbLine
 10
868.8940378899545
 20
-170.7112133912152
 30
0.0
 11
868.6440378899545
 21
-170.7112133912152
 31
0.0
  0
LINE
  5
1079
330
4F6
100
AcDbEntity
  8
0
 62
     7
100
AcDbLine
 10
846.7690378899543
 20
-213.7112133912153
 30
0.0
 11
846.7690378899543
 21
-210.7112133912152
 31
0.0
  0
LINE
  5
107A
330
4F6
100
AcDbEntity
  8
0
 62
     7
100
AcDbLine
 10
842.2690378899543
 20
-213.7112133912153
 30
0.0
 11
842.2690378899543
 21
-210.7112133912152
 31
0.0
  0
LINE
  5
107B
330
4F6
100
AcDbEntity
  8
0
 62
     7
100
AcDbLine
 10
843.5815378899544
 20
-213.7112133912153
 30
0.0
 11
846.7690378899543
 21
-213.7112133912153
 31
0.0
  0
LINE
  5
107C
330
4F6
100
AcDbEntity
  8
0
 62
     7
100
AcDbLine
 10
842.2690378899543
 20
-213.7112133912153
 30
0.0
 11
842.5190378899545
 21
-213.7112133912153
 31
0.0
  0
LINE
  5
107D
330
4F6
100
AcDbEntity
  8
0
 62
     7
100
AcDbLine
 10
843.5815378899544
 20
-210.7112133912152
 30
0.0
 11
846.7690378899543
 21
-210.7112133912152
 31
0.0
  0
CIRCLE
  5
107E
330
4F6
100
AcDbEntity
  8
0
 62
     7
100
AcDbCircle
 10
844.5190378899544
 20
-212.2112133912152
 30
0.0
 40
0.28125
  0
LINE
  5
107F
330
4F6
100
AcDbEntity
  8
0
 62
     7
100
AcDbLine
 10
842.2690378899543
 20
-210.7112133912152
 30
0.0
 11
842.5190378899545
 21
-210.7112133912152
 31
0.0
  0
LINE
  5
1080
330
4F6
100
AcDbEntity
  8
0
 62
     7
100
AcDbLine
 10
868.8940378899545
 20
-213.7112133912153
 30
0.0
 11
868.8940378899545
 21
-210.7112133912152
 31
0.0
  0
LINE
  5
1081
330
4F6
100
AcDbEntity
  8
0
 62
     7
100
AcDbLine
 10
864.3940378899545
 20
-213.7112133912153
 30
0.0
 11
864.3940378899545
 21
-210.7112133912152
 31
0.0
  0
LINE
  5
1082
330
4F6
100
AcDbEntity
  8
0
 62
     7
100
AcDbLine
 10
867.5815378899546
 20
-213.7112133912153
 30
0.0
 11
864.3940378899545
 21
-213.7112133912153
 31
0.0
  0
LINE
  5
1083
330
4F6
100
AcDbEntity
  8
0
 62
     7
100
AcDbLine
 10
868.8940378899545
 20
-213.7112133912153
 30
0.0
 11
868.6440378899545
 21
-213.7112133912153
 31
0.0
  0
LINE
  5
1084
330
4F6
100
AcDbEntity
  8
0
 62
     7
100
AcDbLine
 10
867.5815378899546
 20
-210.7112133912152
 30
0.0
 11
864.3940378899545
 21
-210.7112133912152
 31
0.0
  0
LINE
  5
1085
330
4F6
100
AcDbEntity
  8
0
 62
     7
100
AcDbLine
 10
868.8940378899545
 20
-210.7112133912152
 30
0.0
 11
868.6440378899545
 21
-210.7112133912152
 31
0.0
  0
CIRCLE
  5
1086
330
4F6
100
AcDbEntity
  8
0
 62
     7
100
AcDbCircle
 10
866.6440378899546
 20
-212.2112133912152
 30
0.0
 40
0.28125
  0
LINE
  5
1088
330
4F6
100
AcDbEntity
  8
0
 62
     7
100
AcDbLine
 10
615.668557249875
 20
-29.71121339121527
 30
0.0
 11
615.668557249875
 21
-26.71121339121527
 31
0.0
  0
LINE
  5
1089
330
4F6
100
AcDbEntity
  8
0
 62
     7
100
AcDbLine
 10
611.168557249875
 20
-29.71121339121527
 30
0.0
 11
611.168557249875
 21
-26.71121339121527
 31
0.0
  0
LINE
  5
108A
330
4F6
100
AcDbEntity
  8
0
 62
     7
100
AcDbLine
 10
612.4810572498749
 20
-29.71121339121527
 30
0.0
 11
615.668557249875
 21
-29.71121339121527
 31
0.0
  0
LINE
  5
108B
330
4F6
100
AcDbEntity
  8
0
 62
     7
100
AcDbLine
 10
611.168557249875
 20
-29.71121339121527
 30
0.0
 11
611.4185572498749
 21
-29.71121339121527
 31
0.0
  0
LINE
  5
108C
330
4F6
100
AcDbEntity
  8
0
 62
     7
100
AcDbLine
 10
612.4810572498749
 20
-26.71121339121527
 30
0.0
 11
615.668557249875
 21
-26.71121339121527
 31
0.0
  0
CIRCLE
  5
108D
330
4F6
100
AcDbEntity
  8
0
 62
     7
100
AcDbCircle
 10
613.418557249875
 20
-28.21121339121527
 30
0.0
 40
0.28125
  0
LINE
  5
108E
330
4F6
100
AcDbEntity
  8
0
 62
     7
100
AcDbLine
 10
611.168557249875
 20
-26.71121339121527
 30
0.0
 11
611.4185572498749
 21
-26.71121339121527
 31
0.0
  0
LINE
  5
108F
330
4F6
100
AcDbEntity
  8
0
 62
     7
100
AcDbLine
 10
637.7935572498752
 20
-29.71121339121527
 30
0.0
 11
637.7935572498752
 21
-26.71121339121527
 31
0.0
  0
LINE
  5
1090
330
4F6
100
AcDbEntity
  8
0
 62
     7
100
AcDbLine
 10
633.2935572498752
 20
-29.71121339121527
 30
0.0
 11
633.2935572498752
 21
-26.71121339121527
 31
0.0
  0
LINE
  5
1091
330
4F6
100
AcDbEntity
  8
0
 62
     7
100
AcDbLine
 10
636.4810572498752
 20
-29.71121339121527
 30
0.0
 11
633.2935572498752
 21
-29.71121339121527
 31
0.0
  0
LINE
  5
1092
330
4F6
100
AcDbEntity
  8
0
 62
     7
100
AcDbLine
 10
637.7935572498752
 20
-29.71121339121527
 30
0.0
 11
637.5435572498751
 21
-29.71121339121527
 31
0.0
  0
LINE
  5
1093
330
4F6
100
AcDbEntity
  8
0
 62
     7
100
AcDbLine
 10
636.4810572498752
 20
-26.71121339121527
 30
0.0
 11
633.2935572498752
 21
-26.71121339121527
 31
0.0
  0
LINE
  5
1094
330
4F6
100
AcDbEntity
  8
0
 62
     7
100
AcDbLine
 10
637.7935572498752
 20
-26.71121339121527
 30
0.0
 11
637.5435572498751
 21
-26.71121339121527
 31
0.0
  0
CIRCLE
  5
1095
330
4F6
100
AcDbEntity
  8
0
 62
     7
100
AcDbCircle
 10
635.5435572498752
 20
-28.21121339121527
 30
0.0
 40
0.28125
  0
LINE
  5
1096
330
4F6
100
AcDbEntity
  8
0
 62
     7
100
AcDbLine
 10
612.4810572498749
 20
-43.0150400464574
 30
0.0
 11
615.668557249875
 21
-43.0150400464574
 31
0.0
  0
LINE
  5
1097
330
4F6
100
AcDbEntity
  8
0
 62
     7
100
AcDbLine
 10
612.4810572498749
 20
-46.0150400464574
 30
0.0
 11
615.668557249875
 21
-46.0150400464574
 31
0.0
  0
LINE
  5
1098
330
4F6
100
AcDbEntity
  8
0
 62
     7
100
AcDbLine
 10
611.168557249875
 20
-43.0150400464574
 30
0.0
 11
611.4185572498749
 21
-43.0150400464574
 31
0.0
  0
CIRCLE
  5
1099
330
4F6
100
AcDbEntity
  8
0
 62
     7
100
AcDbCircle
 10
613.418557249875
 20
-44.5150400464574
 30
0.0
 40
0.28125
  0
LINE
  5
109A
330
4F6
100
AcDbEntity
  8
0
 62
     7
100
AcDbLine
 10
611.168557249875
 20
-46.0150400464574
 30
0.0
 11
611.4185572498749
 21
-46.0150400464574
 31
0.0
  0
LINE
  5
109B
330
4F6
100
AcDbEntity
  8
0
 62
     7
100
AcDbLine
 10
611.168557249875
 20
-46.0150400464574
 30
0.0
 11
611.168557249875
 21
-43.0150400464574
 31
0.0
  0
LINE
  5
109C
330
4F6
100
AcDbEntity
  8
0
 62
     7
100
AcDbLine
 10
615.668557249875
 20
-46.0150400464574
 30
0.0
 11
615.668557249875
 21
-43.0150400464574
 31
0.0
  0
LINE
  5
109D
330
4F6
100
AcDbEntity
  8
0
 62
     7
100
AcDbLine
 10
636.481057249875
 20
-43.0150400464574
 30
0.0
 11
633.2935572498751
 21
-43.0150400464574
 31
0.0
  0
LINE
  5
109E
330
4F6
100
AcDbEntity
  8
0
 62
     7
100
AcDbLine
 10
636.481057249875
 20
-46.0150400464574
 30
0.0
 11
633.2935572498751
 21
-46.0150400464574
 31
0.0
  0
LINE
  5
109F
330
4F6
100
AcDbEntity
  8
0
 62
     7
100
AcDbLine
 10
633.2935572498751
 20
-46.0150400464574
 30
0.0
 11
633.2935572498751
 21
-43.0150400464574
 31
0.0
  0
CIRCLE
  5
10A0
330
4F6
100
AcDbEntity
  8
0
 62
     7
100
AcDbCircle
 10
635.5435572498751
 20
-44.5150400464574
 30
0.0
 40
0.28125
  0
LINE
  5
10A1
330
4F6
100
AcDbEntity
  8
0
 62
     7
100
AcDbLine
 10
637.7935572498751
 20
-43.0150400464574
 30
0.0
 11
637.5435572498751
 21
-43.0150400464574
 31
0.0
  0
LINE
  5
10A2
330
4F6
100
AcDbEntity
  8
0
 62
     7
100
AcDbLine
 10
637.7935572498751
 20
-46.0150400464574
 30
0.0
 11
637.5435572498751
 21
-46.0150400464574
 31
0.0
  0
LINE
  5
10A3
330
4F6
100
AcDbEntity
  8
0
 62
     7
100
AcDbLine
 10
637.7935572498751
 20
-46.0150400464574
 30
0.0
 11
637.7935572498751
 21
-43.0150400464574
 31
0.0
  0
LINE
  5
11F0
330
4F6
100
AcDbEntity
  8
0
100
AcDbLine
 10
871.0815378899544
 20
-221.7112133912152
 30
0.0
 11
905.3481497858198
 21
-221.7112133912152
 31
0.0
  0
LINE
  5
11F1
330
4F6
100
AcDbEntity
  8
0
100
AcDbLine
 10
870.0815378899545
 20
-13.71121339121524
 30
0.0
 11
905.3481497858198
 21
-13.71121339121524
 31
0.0
  0
LINE
  5
11F2
330
4F6
100
AcDbEntity
  8
0
100
AcDbLine
 10
902.84814978582
 20
-219.2112133912152
 30
0.0
 11
902.84814978582
 21
-130.339152391215
 31
0.0
  0
LINE
  5
11F3
330
4F6
100
AcDbEntity
  8
0
100
AcDbLine
 10
902.84814978582
 20
-16.21121339121524
 30
0.0
 11
902.84814978582
 21
-113.2580883912152
 31
0.0
  0
SOLID
  5
11F4
330
4F6
100
AcDbEntity
  8
0
100
AcDbTrace
 10
902.4314831191531
 20
-219.2112133912152
 30
0.0
 11
903.2648164524866
 21
-219.2112133912152
 31
0.0
 12
902.84814978582
 22
-221.7112133912152
 32
0.0
 13
902.84814978582
 23
-221.7112133912152
 33
0.0
  0
SOLID
  5
11F5
330
4F6
100
AcDbEntity
  8
0
100
AcDbTrace
 10
902.4314831191531
 20
-16.21121339121524
 30
0.0
 11
903.2648164524866
 21
-16.21121339121524
 31
0.0
 12
902.84814978582
 22
-13.71121339121524
 32
0.0
 13
902.84814978582
 23
-13.71121339121524
 33
0.0
  0
LINE
  5
1200
330
4F6
100
AcDbEntity
  8
0
100
AcDbLine
 10
609.9810572498751
 20
-13.71121339121524
 30
0.0
 11
593.2680454331298
 21
-13.71121339121524
 31
0.0
  0
LINE
  5
1201
330
4F6
100
AcDbEntity
  8
0
100
AcDbLine
 10
608.9810572498749
 20
-50.33621339121523
 30
0.0
 11
593.2680454331298
 21
-50.33621339121523
 31
0.0
  0
LINE
  5
1202
330
4F6
100
AcDbEntity
  8
0
100
AcDbLine
 10
595.7680454331298
 20
-16.21121339121524
 30
0.0
 11
595.7680454331298
 21
-27.02371339121524
 31
0.0
  0
LINE
  5
1203
330
4F6
100
AcDbEntity
  8
0
100
AcDbLine
 10
595.7680454331298
 20
-47.83621339121523
 30
0.0
 11
595.7680454331298
 21
-37.02371339121524
 31
0.0
  0
SOLID
  5
1204
330
4F6
100
AcDbEntity
  8
0
100
AcDbTrace
 10
595.3513787664632
 20
-16.21121339121524
 30
0.0
 11
596.1847120997965
 21
-16.21121339121524
 31
0.0
 12
595.7680454331298
 22
-13.71121339121524
 32
0.0
 13
595.7680454331298
 23
-13.71121339121524
 33
0.0
  0
SOLID
  5
1205
330
4F6
100
AcDbEntity
  8
0
100
AcDbTrace
 10
595.3513787664632
 20
-47.83621339121523
 30
0.0
 11
596.1847120997965
 21
-47.83621339121523
 31
0.0
 12
595.7680454331298
 22
-50.33621339121523
 32
0.0
 13
595.7680454331298
 23
-50.33621339121523
 33
0.0
  0
MTEXT
  5
1206
330
4F6
100
AcDbEntity
  8
0
100
AcDbMText
 10
595.7680454331299
 20
-32.02371339121524
 30
0.0
 40
3.28125
 41
0.0
 46
0.0
 71
     5
 72
     1
  1
\A1;AS REQ'D
  7
ROMANS
 73
     1
 44
1.0
  0
LINE
  5
1207
330
4F6
100
AcDbEntity
  8
0
100
AcDbLine
 10
724.1151905559181
 20
-52.83621339121523
 30
0.0
 11
724.1151905559181
 21
-59.15865857496189
 31
0.0
  0
LINE
  5
1208
330
4F6
100
AcDbEntity
  8
0
100
AcDbLine
 10
708.1151905559182
 20
-52.83621339121523
 30
0.0
 11
708.1151905559182
 21
-59.15865857496189
 31
0.0
  0
LINE
  5
1209
330
4F6
100
AcDbEntity
  8
0
100
AcDbLine
 10
726.6151905559182
 20
-56.65865857496189
 30
0.0
 11
729.1151905559181
 21
-56.65865857496189
 31
0.0
  0
LINE
  5
120A
330
4F6
100
AcDbEntity
  8
0
100
AcDbLine
 10
705.6151905559183
 20
-56.65865857496189
 30
0.0
 11
703.1151905559182
 21
-56.65865857496189
 31
0.0
  0
SOLID
  5
120B
330
4F6
100
AcDbEntity
  8
0
100
AcDbTrace
 10
726.6151905559182
 20
-56.24199190829521
 30
0.0
 11
726.6151905559182
 21
-57.07532524162856
 31
0.0
 12
724.1151905559181
 22
-56.65865857496189
 32
0.0
 13
724.1151905559181
 23
-56.65865857496189
 33
0.0
  0
SOLID
  5
120C
330
4F6
100
AcDbEntity
  8
0
100
AcDbTrace
 10
705.6151905559183
 20
-56.24199190829521
 30
0.0
 11
705.6151905559183
 21
-57.07532524162856
 31
0.0
 12
708.1151905559182
 22
-56.65865857496189
 32
0.0
 13
708.1151905559182
 23
-56.65865857496189
 33
0.0
  0
MTEXT
  5
120D
330
4F6
100
AcDbEntity
  8
0
100
AcDbMText
 10
716.1151905559182
 20
-56.65865857496189
 30
0.0
 40
3.28125
 41
0.0
 46
0.0
 71
     5
 72
     1
  1
\A1;"X"
  7
ROMANS
 73
     1
 44
1.0
  0
TEXT
  5
121A
330
4F6
100
AcDbEntity
  8
0
  6
ByBlock
 62
     0
100
AcDbText
 10
893.40275778582
 20
-128.606652391215
 30
0.0
 40
2.228687999999978
  1
24 FT MAX
  7
ROMANS
 72
     1
 11
902.84814978582
 21
-127.4923083912151
 31
0.0
100
AcDbText
 73
     2
  0
LINE
  5
121B
330
4F6
100
AcDbEntity
  8
0
  6
ByBlock
 62
     0
100
AcDbLine
 10
891.9886417858201
 20
-130.339152391215
 30
0.0
 11
913.7076577858199
 21
-130.339152391215
 31
0.0
  0
LINE
  5
121C
330
4F6
100
AcDbEntity
  8
0
  6
ByBlock
 62
     0
100
AcDbLine
 10
913.7076577858199
 20
-130.339152391215
 30
0.0
 11
913.7076577858199
 21
-113.2580883912152
 31
0.0
  0
LINE
  5
121D
330
4F6
100
AcDbEntity
  8
0
  6
ByBlock
 62
     0
100
AcDbLine
 10
913.7076577858199
 20
-124.6454643912151
 30
0.0
 11
891.9886417858201
 21
-124.6454643912151
 31
0.0
  0
LINE
  5
121E
330
4F6
100
AcDbEntity
  8
0
  6
ByBlock
 62
     0
100
AcDbLine
 10
891.9886417858201
 20
-113.2580883912152
 30
0.0
 11
891.9886417858201
 21
-130.339152391215
 31
0.0
  0
LINE
  5
121F
330
4F6
100
AcDbEntity
  8
0
  6
ByBlock
 62
     0
100
AcDbLine
 10
913.7076577858199
 20
-113.2580883912152
 30
0.0
 11
891.9886417858201
 21
-113.2580883912152
 31
0.0
  0
TEXT
  5
12EE
330
4F6
100
AcDbEntity
  8
0
  6
ByBlock
 62
     0
100
AcDbText
 10
670.3255021738629
 20
-42.90828463158114
 30
0.0
 40
2.47632
  1
HEIGHT
  7
ROMANS
 72
     1
 11
676.8700621738631
 21
-41.67012463158115
 31
0.0
100
AcDbText
 73
     2
  0
LINE
  5
12EF
330
4F6
100
AcDbEntity
  8
0
  6
ByBlock
 62
     0
100
AcDbLine
 10
664.803942173863
 20
-44.44622406852523
 30
0.0
 11
688.936182173863
 21
-44.44622406852523
 31
0.0
  0
LINE
  5
12F0
330
4F6
100
AcDbEntity
  8
0
  6
ByBlock
 62
     0
100
AcDbLine
 10
688.936182173863
 20
-44.44622406852523
 30
0.0
 11
688.936182173863
 21
-25.46726406852533
 31
0.0
  0
LINE
  5
12F1
330
4F6
100
AcDbEntity
  8
0
  6
ByBlock
 62
     0
100
AcDbLine
 10
688.936182173863
 20
-36.05557963592374
 30
0.0
 11
664.803942173863
 21
-36.05557963592374
 31
0.0
  0
LINE
  5
12F2
330
4F6
100
AcDbEntity
  8
0
  6
ByBlock
 62
     0
100
AcDbLine
 10
664.803942173863
 20
-25.46726406852533
 30
0.0
 11
664.803942173863
 21
-44.44622406852523
 31
0.0
  0
LINE
  5
12F3
330
4F6
100
AcDbEntity
  8
0
  6
ByBlock
 62
     0
100
AcDbLine
 10
688.936182173863
 20
-25.46726406852533
 30
0.0
 11
664.803942173863
 21
-25.46726406852533
 31
0.0
  0
TEXT
  5
12F4
330
4F6
100
AcDbEntity
  8
0
  6
ByBlock
 62
     0
100
AcDbText
 10
668.792542173863
 20
-39.42473784851412
 30
0.0
 40
2.47632
  1
PARAPET
  7
ROMANS
 72
     1
 11
676.8700621738631
 21
-38.18657784851412
 31
0.0
100
AcDbText
 73
     2
  0
TEXT
  5
12F5
330
4F6
100
AcDbEntity
  8
0
  6
ByBlock
 62
     0
100
AcDbText
 10
649.9439054003903
 20
-133.281440032781
 30
0.0
 40
2.47632
  1
HEIGHT
  7
ROMANS
 72
     1
 11
656.4884654003904
 21
-132.043280032781
 31
0.0
100
AcDbText
 73
     2
  0
LINE
  5
12F6
330
4F6
100
AcDbEntity
  8
0
  6
ByBlock
 62
     0
100
AcDbLine
 10
644.4223454003904
 20
-138.8193794697251
 30
0.0
 11
668.5545854003903
 21
-138.8193794697251
 31
0.0
  0
LINE
  5
12F7
330
4F6
100
AcDbEntity
  8
0
  6
ByBlock
 62
     0
100
AcDbLine
 10
668.5545854003903
 20
-138.8193794697251
 30
0.0
 11
668.5545854003903
 21
-115.8404194697252
 31
0.0
  0
LINE
  5
12F8
330
4F6
100
AcDbEntity
  8
0
  6
ByBlock
 62
     0
100
AcDbLine
 10
668.5545854003903
 20
-126.4287350371236
 30
0.0
 11
644.4223454003904
 21
-126.4287350371236
 31
0.0
  0
LINE
  5
12F9
330
4F6
100
AcDbEntity
  8
0
  6
ByBlock
 62
     0
100
AcDbLine
 10
644.4223454003904
 20
-115.8404194697252
 30
0.0
 11
644.4223454003904
 21
-138.8193794697251
 31
0.0
  0
LINE
  5
12FA
330
4F6
100
AcDbEntity
  8
0
  6
ByBlock
 62
     0
100
AcDbLine
 10
668.5545854003903
 20
-115.8404194697252
 30
0.0
 11
644.4223454003904
 21
-115.8404194697252
 31
0.0
  0
TEXT
  5
12FB
330
4F6
100
AcDbEntity
  8
0
  6
ByBlock
 62
     0
100
AcDbText
 10
651.9485454003903
 20
-129.797893249714
 30
0.0
 40
2.47632
  1
WALL
  7
ROMANS
 72
     1
 11
656.4884654003904
 21
-128.559733249714
 31
0.0
100
AcDbText
 73
     2
  0
MTEXT
  5
12FC
330
4F6
100
AcDbEntity
  8
0
100
AcDbMText
 10
678.9236116398346
 20
-77.51945851753998
 30
0.0
 40
3.28125
 41
0.0
 46
0.0
 71
     5
 72
     1
  1
X=
  7
ROMANS
 73
     1
 44
1.0
  0
LWPOLYLINE
  5
12FD
330
4F6
100
AcDbEntity
  8
0
100
AcDbPolyline
 90
        4
 70
     1
 43
0.0
 10
672.3256188468901
 20
-70.81714327379836
 10
698.7718162278731
 20
-70.81714327379836
 10
698.7718162278731
 20
-83.86869805056642
 10
672.3256188468901
 20
-83.86869805056642
  0
LINE
  5
12FE
330
4F6
100
AcDbEntity
  8
0
100
AcDbLine
 10
721.6151905559181
 20
-221.7112133912152
 30
0.0
 11
653.2162125150855
 21
-221.7112133912152
 31
0.0
  0
LINE
  5
12FF
330
4F6
100
AcDbEntity
  8
0
100
AcDbLine
 10
705.6151905559183
 20
-19.71121339121523
 30
0.0
 11
653.6471401184646
 21
-19.71121339121522
 31
0.0
  0
LINE
  5
1300
330
4F6
100
AcDbEntity
  8
0
100
AcDbLine
 10
656.4884654003904
 20
-219.2112133912152
 30
0.0
 11
656.4884654003904
 21
-138.8193794697251
 31
0.0
  0
LINE
  5
1301
330
4F6
100
AcDbEntity
  8
0
100
AcDbLine
 10
656.4884654003904
 20
-22.21121339121522
 30
0.0
 11
656.4884654003904
 21
-115.8404194697252
 31
0.0
  0
SOLID
  5
1302
330
4F6
100
AcDbEntity
  8
0
100
AcDbTrace
 10
656.0717987337236
 20
-219.2112133912152
 30
0.0
 11
656.905132067057
 21
-219.2112133912152
 31
0.0
 12
656.4884654003904
 22
-221.7112133912152
 32
0.0
 13
656.4884654003904
 23
-221.7112133912152
 33
0.0
  0
SOLID
  5
1303
330
4F6
100
AcDbEntity
  8
0
100
AcDbTrace
 10
656.0717987337238
 20
-22.21121339121522
 30
0.0
 11
656.9051320670571
 21
-22.21121339121522
 31
0.0
 12
656.4884654003904
 22
-19.71121339121522
 32
0.0
 13
656.4884654003904
 23
-19.71121339121522
 33
0.0
  0
LINE
  5
130C
330
4F6
100
AcDbEntity
  8
0
100
AcDbLine
 10
683.0156965838764
 20
-50.33621339121522
 30
0.0
 11
674.370062173863
 21
-50.33621339121522
 31
0.0
  0
LINE
  5
130D
330
4F6
100
AcDbEntity
  8
0
100
AcDbLine
 10
705.6151905559183
 20
-19.71121339121523
 30
0.0
 11
683.7248130987359
 21
-19.71121339121523
 31
0.0
  0
LINE
  5
130E
330
4F6
100
AcDbEntity
  8
0
100
AcDbLine
 10
676.8700621738631
 20
-47.83621339121522
 30
0.0
 11
676.8700621738631
 21
-44.44622406852523
 31
0.0
  0
LINE
  5
130F
330
4F6
100
AcDbEntity
  8
0
100
AcDbLine
 10
676.8700621738631
 20
-22.21121339121523
 30
0.0
 11
676.8700621738631
 21
-25.46726406852533
 31
0.0
  0
SOLID
  5
1310
330
4F6
100
AcDbEntity
  8
0
100
AcDbTrace
 10
676.4533955071964
 20
-47.83621339121522
 30
0.0
 11
677.2867288405296
 21
-47.83621339121522
 31
0.0
 12
676.8700621738631
 22
-50.33621339121522
 32
0.0
 13
676.8700621738631
 23
-50.33621339121522
 33
0.0
  0
SOLID
  5
1311
330
4F6
100
AcDbEntity
  8
0
100
AcDbTrace
 10
676.4533955071964
 20
-22.21121339121523
 30
0.0
 11
677.2867288405298
 21
-22.21121339121523
 31
0.0
 12
676.8700621738631
 22
-19.71121339121523
 32
0.0
 13
676.8700621738631
 23
-19.71121339121523
 33
0.0
  0
LINE
  5
1313
330
4F6
100
AcDbEntity
  8
0
100
AcDbLine
 10
676.8700621738631
 20
-40.04389946264167
 30
0.0
 11
676.8700621738631
 21
-40.02371339121522
 31
0.0
  0
TEXT
  5
1667
330
4F6
100
AcDbEntity
  8
0
 62
     7
100
AcDbText
 10
593.3900103000853
 20
-282.6524882361589
 30
0.0
 40
2.563851660490057
  1
Ph: (423) 586-2265 Fax: (423) 586-2091
  7
CAT_BORDER$0$ROMANS
100
AcDbText
  0
TEXT
  5
1668
330
4F6
100
AcDbEntity
  8
0
 62
     7
100
AcDbText
 10
591.9539228891623
 20
-278.5014903096513
 30
0.0
 40
2.563851660490057
  1
P.O. BOX 2279 Morristown, TN 37816-2279
  7
CAT_BORDER$0$ROMANS
100
AcDbText
  0
POLYLINE
  5
1669
330
4F6
100
AcDbEntity
  8
0
 62
     7
100
AcDb2dPolyline
 66
     1
 10
0.0
 20
0.0
 30
0.0
1001
ACAD
1000
ASC_BOUNDS
1002
{
1070
    19
1002
}
  0
VERTEX
  5
166A
330
1669
100
AcDbEntity
  8
0
 62
     7
100
AcDbVertex
100
AcDb2dVertex
 10
582.3879223975624
 20
-277.4550125451575
 30
0.0
  0
VERTEX
  5
166B
330
1669
100
AcDbEntity
  8
0
 62
     7
100
AcDbVertex
100
AcDb2dVertex
 10
582.798004290866
 20
-277.2460624082043
 30
0.0
1001
ACAD
1000
ASC_BOUNDS
1002
{
1070
    19
1002
}
  0
VERTEX
  5
166C
330
1669
100
AcDbEntity
  8
0
 62
     7
100
AcDbVertex
100
AcDb2dVertex
 10
585.5567654204135
 20
-282.7665811578385
 30
0.0
1001
ACAD
1000
ASC_BOUNDS
1002
{
1070
    19
1002
}
  0
VERTEX
  5
166D
330
1669
100
AcDbEntity
  8
0
 62
     7
100
AcDbVertex
100
AcDb2dVertex
 10
584.670317724785
 20
-282.7609879326213
 30
0.0
  0
VERTEX
  5
166E
330
1669
100
AcDbEntity
  8
0
 62
     7
100
AcDbVertex
100
AcDb2dVertex
 10
582.093689902094
 20
-277.6049336248936
 30
0.0
  0
SEQEND
  5
166F
330
1669
100
AcDbEntity
  8
0
 62
     7
  0
TEXT
  5
1670
330
4F6
100
AcDbEntity
  8
0
 62
     7
100
AcDbText
 10
582.8354382992687
 20
-274.1407727514208
 30
0.0
 40
4.190840001888743
  1
Precision Ladders, LLC
  7
CAT_BORDER$0$STYLE1
100
AcDbText
  0
CIRCLE
  5
1671
330
4F6
100
AcDbEntity
  8
0
100
AcDbCircle
 10
579.5950263629404
 20
-274.7552060896971
 30
0.0
 40
11.49304265618554
1001
ACAD
1000
ASC_BOUNDS
1002
{
1070
    19
1002
}
  0
INSERT
  5
1672
330
4F6
100
AcDbEntity
  8
0
100
AcDbBlockReference
  2
*X24
 10
614.0310463091567
 20
-16.8660067360348
 30
0.0
 41
0.9299344254456372
 42
0.9299344254457508
 43
0.9299344254457633
1001
ACAD
1000
HATCH
1002
{
1070
    19
1000
ANSI31
1040
0.8843871093750001
1040
0.0
1002
}
  0
LWPOLYLINE
  5
1673
330
4F6
100
AcDbEntity
  8
0
 62
     7
100
AcDbPolyline
 90
        4
 70
     1
 43
0.0
 10
571.9666485763383
 20
-268.8852887919243
 10
571.9666485763383
 20
-268.0532121198236
 10
580.8282651342104
 20
-268.0532121198236
 10
580.8282651342104
 20
-268.8852887919243
1001
ACAD
1000
ASC_BOUNDS
1002
{
1070
    19
1005
0
1005
0
1002
}
  0
LINE
  5
1674
330
4F6
100
AcDbEntity
  8
0
 62
     7
100
AcDbLine
 10
572.2758553414802
 20
-268.9750952195331
 30
0.0
 11
575.9589656573191
 21
-276.2036062183327
 31
0.0
1001
ACAD
1000
ASC_BOUNDS
1002
{
1070
    19
1002
}
  0
LWPOLYLINE
  5
1675
330
4F6
100
AcDbEntity
  8
0
 62
     7
100
AcDbPolyline
 90
        4
 70
     0
 43
0.0
 10
572.0885702266039
 20
-268.8889374464381
 10
575.9885118574472
 20
-276.5430038619878
 10
575.9707185996039
 20
-276.5520699796883
 10
572.0707769687609
 20
-268.8980035641387
1001
ACAD
1000
ASC_BOUNDS
1002
{
1070
    19
1002
}
  0
LINE
  5
1676
330
4F6
100
AcDbEntity
  8
0
 62
     7
100
AcDbLine
 10
572.1646474799604
 20
-269.0317584551614
 30
0.0
 11
572.2758553414802
 21
-268.9750952195331
 31
0.0
1001
ACAD
1000
ASC_BOUNDS
1002
{
1070
    19
1002
}
  0
LINE
  5
1677
330
4F6
100
AcDbEntity
  8
0
 62
     7
100
AcDbLine
 10
572.2758553414802
 20
-268.9750952195331
 30
0.0
 11
572.4521103797671
 21
-268.8852887919243
 31
0.0
1001
ACAD
1000
ASC_BOUNDS
1002
{
1070
    19
1002
}
  0
LINE
  5
1678
330
4F6
100
AcDbEntity
  8
0
 62
     7
100
AcDbLine
 10
572.2758553414802
 20
-268.9750952195331
 30
0.0
 11
572.5025082839936
 21
-269.419926665613
 31
0.0
1001
ACAD
1000
ASC_BOUNDS
1002
{
1070
    19
1002
}
  0
LINE
  5
1679
330
4F6
100
AcDbEntity
  8
0
 62
     7
100
AcDbLine
 10
575.7398707665685
 20
-271.8873956153987
 30
0.0
 11
574.8823109819917
 21
-273.6295815678666
 31
0.0
1001
ACAD
1000
ASC_BOUNDS
1002
{
1070
    19
1005
0
1002
}
  0
LWPOLYLINE
  5
167A
330
4F6
100
AcDbEntity
  8
0
 62
     7
100
AcDbPolyline
 90
        2
 70
     0
 43
0.0
 10
575.5386961966642
 20
-271.8762432746713
 10
574.7161563907249
 20
-273.5472839659739
1001
ACAD
1000
ASC_BOUNDS
1002
{
1070
    19
1005
0
1002
}
  0
LINE
  5
167B
330
4F6
100
AcDbEntity
  8
0
 62
     7
100
AcDbLine
 10
573.9110473465651
 20
-268.8852887919243
 30
0.0
 11
575.4877504138729
 21
-271.9797427958852
 31
0.0
1001
ACAD
1000
ASC_BOUNDS
1002
{
1070
    19
1002
}
  0
LINE
  5
167C
330
4F6
100
AcDbEntity
  8
0
 62
     7
100
AcDbLine
 10
573.7709681244417
 20
-268.8852887919243
 30
0.0
 11
575.4189198999105
 21
-272.1195762590251
 31
0.0
1001
ACAD
1000
ASC_BOUNDS
1002
{
1070
    19
1002
}
  0
LINE
  5
167D
330
4F6
100
AcDbEntity
  8
0
 62
     7
100
AcDbLine
 10
573.6269587868722
 20
-269.885619000183
 30
0.0
 11
575.0977108347515
 21
-272.772132420344
 31
0.0
1001
ACAD
1000
ASC_BOUNDS
1002
{
1070
    19
1002
}
  0
LINE
  5
167E
330
4F6
100
AcDbEntity
  8
0
 62
     7
100
AcDbLine
 10
576.4808666902194
 20
-276.6152414546932
 30
0.0
 11
582.093689902094
 21
-277.6049336248936
 31
0.0
1001
ACAD
1000
ASC_BOUNDS
1002
{
1070
    19
1002
}
  0
POLYLINE
  5
167F
330
4F6
100
AcDbEntity
  8
0
 62
     7
100
AcDb2dPolyline
 66
     1
 10
0.0
 20
0.0
 30
0.0
1001
ACAD
1000
ASC_BOUNDS
1002
{
1070
    19
1002
}
  0
VERTEX
  5
1680
330
167F
100
AcDbEntity
  8
0
 62
     7
100
AcDbVertex
100
AcDb2dVertex
 10
576.6155880505448
 20
-276.0471372722986
 30
0.0
  0
VERTEX
  5
1681
330
167F
100
AcDbEntity
  8
0
 62
     7
100
AcDbVertex
100
AcDb2dVertex
 10
576.6632821136124
 20
-275.8447390593534
 30
0.0
1001
ACAD
1000
ASC_BOUNDS
1002
{
1070
    19
1002
}
  0
VERTEX
  5
1682
330
167F
100
AcDbEntity
  8
0
 62
     7
100
AcDbVertex
100
AcDb2dVertex
 10
582.2517503178935
 20
-276.8301367845997
 30
0.0
1001
ACAD
1000
ASC_BOUNDS
1002
{
1070
    19
1002
}
  0
VERTEX
  5
1683
330
167F
100
AcDbEntity
  8
0
 62
     7
100
AcDbVertex
100
AcDb2dVertex
 10
582.1537952247681
 20
-277.3103031580745
 30
0.0
  0
SEQEND
  5
1684
330
167F
100
AcDbEntity
  8
0
 62
     7
  0
LINE
  5
1685
330
4F6
100
AcDbEntity
  8
0
 62
     7
100
AcDbLine
 10
575.5240357808221
 20
-272.3258777911973
 30
0.0
 11
577.1357137700348
 21
-275.4889739443179
 31
0.0
1001
ACAD
1000
ASC_BOUNDS
1002
{
1070
    19
1005
0
1002
}
  0
LWPOLYLINE
  5
1686
330
4F6
100
AcDbEntity
  8
0
 62
     7
100
AcDbPolyline
 90
        2
 70
     0
 43
0.0
 10
575.5928662947844
 20
-272.1860443280575
 10
577.2432098793039
 20
-275.4250259847286
1001
ACAD
1000
ASC_BOUNDS
1002
{
1070
    19
1002
}
  0
LWPOLYLINE
  5
1687
330
4F6
100
AcDbEntity
  8
0
 62
     7
100
AcDbPolyline
 90
        3
 70
     0
 43
0.0
 10
574.7176502297962
 20
-273.754706978431
 10
575.0167964533759
 20
-273.6088036164448
 10
574.9535949696611
 20
-273.4847637205429
1001
ACAD
1000
ASC_BOUNDS
1002
{
1070
    19
1002
}
  0
CIRCLE
  5
1688
330
4F6
100
AcDbEntity
  8
0
 62
     7
100
AcDbCircle
 10
574.8362662718068
 20
-273.5156019367317
 30
0.0
 40
0.0312028752037749
1001
ACAD
1000
ASC_BOUNDS
1002
{
1070
    19
1002
}
  0
LINE
  5
1689
330
4F6
100
AcDbEntity
  8
0
 62
     7
100
AcDbLine
 10
574.821155058759
 20
-273.3339726519801
 30
0.0
 11
574.566548268121
 21
-273.4581526810444
 31
0.0
1001
ACAD
1000
ASC_BOUNDS
1002
{
1070
    19
1002
}
  0
LINE
  5
168A
330
4F6
100
AcDbEntity
  8
0
 62
     7
100
AcDbLine
 10
574.5259340161624
 20
-273.3961290441804
 30
0.0
 11
574.7525869586759
 21
-273.8409604902603
 31
0.0
1001
ACAD
1000
ASC_BOUNDS
1002
{
1070
    19
1002
}
  0
LINE
  5
168B
330
4F6
100
AcDbEntity
  8
0
 62
     7
100
AcDbLine
 10
574.8821801662812
 20
-273.6297657603245
 30
0.0
 11
574.7158354124468
 21
-273.5478532072691
 31
0.0
1001
ACAD
1000
ASC_BOUNDS
1002
{
1070
    19
1002
}
  0
LWPOLYLINE
  5
168C
330
4F6
100
AcDbEntity
  8
0
 62
     1
100
AcDbPolyline
 90
        2
 70
     1
 43
0.0
 10
574.8674691470107
 20
-273.5156019367317
 42
-1.0
 10
574.8050633966033
 20
-273.5156019367317
 42
-1.0
1001
ACAD
1000
ASC_BOUNDS
1002
{
1070
    19
1002
}
  0
LINE
  5
168D
330
4F6
100
AcDbEntity
  8
0
 62
     7
100
AcDbLine
 10
577.244102352945
 20
-275.4244897324642
 30
0.0
 11
577.1371180156949
 21
-275.4887724075705
 31
0.0
1001
ACAD
1000
ASC_BOUNDS
1002
{
1070
    19
1002
}
  0
LINE
  5
168E
330
4F6
100
AcDbEntity
  8
0
 62
     7
100
AcDbLine
 10
576.3837730476824
 20
-275.9871560418094
 30
0.0
 11
575.8451329369474
 21
-276.2616068863471
 31
0.0
1001
ACAD
1000
ASC_BOUNDS
1002
{
1070
    19
1002
}
  0
POLYLINE
  5
168F
330
4F6
100
AcDbEntity
  8
0
 62
     7
100
AcDb2dPolyline
 66
     1
 10
0.0
 20
0.0
 30
0.0
1001
ACAD
1000
ASC_BOUNDS
1002
{
1070
    19
1002
}
  0
VERTEX
  5
1690
330
168F
100
AcDbEntity
  8
0
 62
     7
100
AcDbVertex
100
AcDb2dVertex
 10
576.4816833855133
 20
-276.6153854601088
 30
0.0
  0
VERTEX
  5
1691
330
168F
100
AcDbEntity
  8
0
 62
     7
100
AcDbVertex
100
AcDb2dVertex
 10
576.5931289604853
 20
-276.1424464030387
 30
0.0
1001
ACAD
1000
ASC_BOUNDS
1002
{
1070
    19
1002
}
  0
SEQEND
  5
1692
330
168F
100
AcDbEntity
  8
0
 62
     7
  0
LINE
  5
1693
330
4F6
100
AcDbEntity
  8
0
 62
     7
100
AcDbLine
 10
575.2028267156629
 20
-272.9784339525165
 30
0.0
 11
576.2203086361238
 21
-274.9753546587741
 31
0.0
1001
ACAD
1000
ASC_BOUNDS
1002
{
1070
    19
1002
}
  0
LINE
  5
1694
330
4F6
100
AcDbEntity
  8
0
 62
     7
100
AcDbLine
 10
576.2799561478126
 20
-275.0924194918418
 30
0.0
 11
576.6632821136124
 21
-275.8447390593534
 31
0.0
1001
ACAD
1000
ASC_BOUNDS
1002
{
1070
    19
1002
}
  0
LWPOLYLINE
  5
1695
330
4F6
100
AcDbEntity
  8
0
 62
     7
100
AcDbPolyline
 90
        4
 70
     0
 43
0.0
 10
576.8035417837048
 20
-274.8370497143121
 10
575.9414261965122
 20
-275.2575315812966
 10
575.8847629608838
 20
-275.1463237197766
 10
576.7392786565505
 20
-274.7109262258421
1001
ACAD
1000
ASC_BOUNDS
1002
{
1070
    19
1005
0
1002
}
  0
LWPOLYLINE
  5
1696
330
4F6
100
AcDbEntity
  8
0
 62
     7
100
AcDbPolyline
 90
        5
 70
     0
 43
0.0
 10
576.6632821136521
 20
-275.8447390591803
 10
576.6857512323989
 20
-275.8955916387651
 10
576.9625903935995
 20
-276.4548839122848
 10
576.7761596357598
 20
-276.5471636326848
 10
576.5413375251098
 20
-276.0279252375938
1001
ACAD
1000
ASC_BOUNDS
1002
{
1070
    19
1002
}
  0
POLYLINE
  5
1697
330
4F6
100
AcDbEntity
  8
0
 62
     7
100
AcDb2dPolyline
 66
     1
 10
0.0
 20
0.0
 30
0.0
 70
     1
1001
ACAD
1000
ASC_BOUNDS
1002
{
1070
    19
1002
}
  0
VERTEX
  5
1698
330
1697
100
AcDbEntity
  8
0
 62
     7
100
AcDbVertex
100
AcDb2dVertex
 10
575.96175949043
 20
-275.8804577183039
 30
0.0
1001
ACAD
1000
ASC_BOUNDS
1002
{
1070
    19
1002
}
  0
VERTEX
  5
1699
330
1697
100
AcDbEntity
  8
0
 62
     7
100
AcDbVertex
100
AcDb2dVertex
 10
576.0003333557948
 20
-275.6952026667177
 30
0.0
  0
VERTEX
  5
169A
330
1697
100
AcDbEntity
  8
0
 62
     7
100
AcDbVertex
100
AcDb2dVertex
 10
576.0540335400175
 20
-275.7095948994195
 30
0.0
  0
VERTEX
  5
169B
330
1697
100
AcDbEntity
  8
0
 62
     7
100
AcDbVertex
100
AcDb2dVertex
 10
576.6632821136521
 20
-275.8447390591803
 30
0.0
  0
VERTEX
  5
169C
330
1697
100
AcDbEntity
  8
0
 62
     7
100
AcDbVertex
100
AcDb2dVertex
 10
576.6182340603984
 20
-276.0478219170583
 30
0.0
  0
VERTEX
  5
169D
330
1697
100
AcDbEntity
  8
0
 62
     7
100
AcDbVertex
100
AcDb2dVertex
 10
576.0140730876917
 20
-275.8914976148816
 30
0.0
  0
SEQEND
  5
169E
330
1697
100
AcDbEntity
  8
0
 62
     7
  0
LWPOLYLINE
  5
169F
330
4F6
100
AcDbEntity
  8
0
 62
     7
100
AcDbPolyline
 90
        5
 70
     0
 43
0.0
 10
582.093689902094
 20
-277.6049336248936
 10
582.0690322080279
 20
-277.5551054775162
 10
581.7681504949904
 20
-277.0083715722636
 10
581.9503951300748
 20
-276.908077667918
 10
582.2075589403287
 20
-277.4166213821475
1001
ACAD
1000
ASC_BOUNDS
1002
{
1070
    19
1002
}
  0
LINE
  5
16A0
330
4F6
100
AcDbEntity
  8
0
 62
     7
100
AcDbLine
 10
582.1352460798952
 20
-277.4012292686051
 30
0.0
 11
582.093689902094
 21
-277.6049336248936
 31
0.0
1001
ACAD
1000
ASC_BOUNDS
1002
{
1070
    19
1002
}
  0
POLYLINE
  5
16A1
330
4F6
100
AcDbEntity
  8
0
 62
     7
100
AcDb2dPolyline
 66
     1
 10
0.0
 20
0.0
 30
0.0
 70
     1
1001
ACAD
1000
ASC_BOUNDS
1002
{
1070
    19
1002
}
  0
VERTEX
  5
16A2
330
16A1
100
AcDbEntity
  8
0
 62
     7
100
AcDbVertex
100
AcDb2dVertex
 10
582.792997700926
 20
-277.5387640246589
 30
0.0
1001
ACAD
1000
ASC_BOUNDS
1002
{
1070
    19
1002
}
  0
VERTEX
  5
16A3
330
16A1
100
AcDbEntity
  8
0
 62
     7
100
AcDbVertex
100
AcDb2dVertex
 10
582.7625105355095
 20
-277.7255203096193
 30
0.0
  0
VERTEX
  5
16A4
330
16A1
100
AcDbEntity
  8
0
 62
     7
100
AcDbVertex
100
AcDb2dVertex
 10
582.7082356625219
 20
-277.7134752147702
 30
0.0
  0
VERTEX
  5
16A5
330
16A1
100
AcDbEntity
  8
0
 62
     7
100
AcDbVertex
100
AcDb2dVertex
 10
582.093689902094
 20
-277.6049336248936
 30
0.0
  0
VERTEX
  5
16A6
330
16A1
100
AcDbEntity
  8
0
 62
     7
100
AcDbVertex
100
AcDb2dVertex
 10
582.1298704320529
 20
-277.4000850380843
 30
0.0
  0
VERTEX
  5
16A7
330
16A1
100
AcDbEntity
  8
0
 62
     7
100
AcDbVertex
100
AcDb2dVertex
 10
582.7402537809501
 20
-277.5300078450964
 30
0.0
  0
SEQEND
  5
16A8
330
16A1
100
AcDbEntity
  8
0
 62
     7
  0
LINE
  5
16A9
330
4F6
100
AcDbEntity
  8
0
 62
     1
100
AcDbLine
 10
582.2517503178935
 20
-276.8301367845997
 30
0.0
 11
582.1537952247681
 21
-277.3103031580745
 31
0.0
1001
ACAD
1000
ASC_BOUNDS
1002
{
1070
    19
1002
}
  0
LINE
  5
16AA
330
4F6
100
AcDbEntity
  8
0
 62
     1
100
AcDbLine
 10
582.1537952247681
 20
-277.3103031580745
 30
0.0
 11
582.2075589403287
 21
-277.4166213821475
 31
0.0
1001
ACAD
1000
ASC_BOUNDS
1002
{
1070
    19
1002
}
  0
LINE
  5
16AB
330
4F6
100
AcDbEntity
  8
0
 62
     1
100
AcDbLine
 10
582.2075589403287
 20
-277.4166213821475
 30
0.0
 11
582.3879223975626
 21
-277.4550125451575
 31
0.0
  0
LINE
  5
16AC
330
4F6
100
AcDbEntity
  8
0
 62
     1
100
AcDbLine
 10
582.3879223975626
 20
-277.4550125451575
 30
0.0
 11
582.798004290866
 21
-277.2460624082043
 31
0.0
1001
ACAD
1000
ASC_BOUNDS
1002
{
1070
    19
1002
}
  0
LINE
  5
16AD
330
4F6
100
AcDbEntity
  8
0
 62
     7
100
AcDbLine
 10
573.1172650878664
 20
-268.8852887919243
 30
0.0
 11
573.5732588978296
 21
-269.7802270338038
 31
0.0
1001
ACAD
1000
ASC_BOUNDS
1002
{
1070
    19
1002
}
  0
LWPOLYLINE
  5
16AE
330
4F6
100
AcDbEntity
  8
0
 62
     7
100
AcDbPolyline
 90
        4
 70
     0
 43
0.0
 10
574.0968445337222
 20
-269.5248572562741
 10
573.238082120358
 20
-269.9437036711074
 10
573.2927958811027
 20
-270.0558835049496
 10
574.145928807299
 20
-269.6211905672511
1001
ACAD
1000
ASC_BOUNDS
1002
{
1070
    19
1002
}
  0
LINE
  5
16AF
330
4F6
100
AcDbEntity
  8
0
 62
     7
100
AcDbLine
 10
576.8864894135088
 20
-268.8852887919243
 30
0.0
 11
575.8208287220366
 21
-270.8113799289507
 31
0.0
1001
ACAD
1000
ASC_BOUNDS
1002
{
1070
    19
1002
}
  0
LINE
  5
16B0
330
4F6
100
AcDbEntity
  8
0
 62
     7
100
AcDbLine
 10
576.6487539240207
 20
-268.8852887919243
 30
0.0
 11
575.8547758569467
 21
-270.3203366736965
 31
0.0
1001
ACAD
1000
ASC_BOUNDS
1002
{
1070
    19
1002
}
  0
CIRCLE
  5
16B1
330
4F6
100
AcDbEntity
  8
0
 62
     7
100
AcDbCircle
 10
575.6476299990247
 20
-271.8365797567827
 30
0.0
 40
0.0312028752037749
1001
ACAD
1000
ASC_BOUNDS
1002
{
1070
    19
1002
}
  0
LWPOLYLINE
  5
16B2
330
4F6
100
AcDbEntity
  8
0
 62
     1
100
AcDbPolyline
 90
        2
 70
     1
 43
0.0
 10
575.6788328742281
 20
-271.8365797567827
 42
-1.0
 10
575.6164271238206
 20
-271.8365797567827
 42
-1.0
1001
ACAD
1000
ASC_BOUNDS
1002
{
1070
    19
1002
}
  0
LINE
  5
16B3
330
4F6
100
AcDbEntity
  8
0
 62
     1
100
AcDbLine
 10
575.7462188304701
 20
-271.8906075022342
 30
0.0
 11
575.7382897728871
 21
-271.8906075022342
 31
0.0
  0
LINE
  5
16B4
330
4F6
100
AcDbEntity
  8
0
 62
     7
100
AcDbLine
 10
575.9539845590799
 20
-268.8852887919243
 30
0.0
 11
575.7452270061304
 21
-271.9049541813809
 31
0.0
1001
ACAD
1000
ASC_BOUNDS
1002
{
1070
    19
1005
0
1002
}
  0
LWPOLYLINE
  5
16B5
330
4F6
100
AcDbEntity
  8
0
 62
     7
100
AcDbPolyline
 90
        3
 70
     0
 43
0.0
 10
575.7454688877649
 20
-268.8852887919243
 10
575.5377031591551
 20
-271.8906075022342
 10
575.7457223271802
 20
-271.8906075022342
1001
ACAD
1000
ASC_BOUNDS
1002
{
1070
    19
1005
0
1002
}
  0
TEXT
  5
16B6
330
4F6
100
AcDbEntity
  8
0
 62
     7
100
AcDbText
 10
605.0681495267269
 20
-287.2855646003079
 30
0.0
 40
2.948429409563567
  1
www.PrecisionLadders.com
  7
CAT_BORDER$0$ROMANS
100
AcDbText
  0
LWPOLYLINE
  5
16B7
330
4F6
100
AcDbEntity
  8
0
 62
     7
100
AcDbPolyline
 90
        9
 70
     0
 43
0.0
 10
585.2665048545112
 20
-282.8800651303179
 10
585.2668986086724
 20
-282.8176606221346
 10
585.0796850841229
 20
-282.816479359651
 10
584.9548760677566
 20
-282.8156918513286
 10
584.9544823135952
 20
-282.8780963595117
 42
0.4142135623730939
 10
584.9751525649358
 20
-282.8990291136266
 10
585.2455721003966
 20
-282.9007353816585
 42
0.4142135623730989
 10
585.2665048545112
 20
-282.8800651303179
 42
-0.4142135623730944
 10
585.2455721003966
 20
-282.9007353816585
1001
ACAD
1000
ASC_BOUNDS
1002
{
1070
    19
1002
}
  0
LINE
  5
16B8
330
4F6
100
AcDbEntity
  8
0
 62
     7
100
AcDbLine
 10
585.1707457051007
 20
-282.7641454865443
 30
0.0
 11
585.1700067737276
 21
-282.8170492630468
 31
0.0
1001
ACAD
1000
ASC_BOUNDS
1002
{
1070
    19
1002
}
  0
LINE
  5
16B9
330
4F6
100
AcDbEntity
  8
0
 62
     7
100
AcDbLine
 10
585.0563374400983
 20
-282.7634236039155
 30
0.0
 11
585.1707457051007
 21
-282.7641454865443
 31
0.0
1001
ACAD
1000
ASC_BOUNDS
1002
{
1070
    19
1002
}
  0
LINE
  5
16BA
330
4F6
100
AcDbEntity
  8
0
 62
     7
100
AcDbLine
 10
585.0560457011384
 20
-282.8096601344782
 30
0.0
 11
585.0563374400983
 21
-282.7634236039155
 31
0.0
1001
ACAD
1000
ASC_BOUNDS
1002
{
1070
    19
1002
}
  0
TEXT
  5
16BB
330
4F6
100
AcDbEntity
  8
0
100
AcDbText
 10
685.8200728300874
 20
-287.6647263395447
 30
0.0
 40
1.989351714778747
  1
WORK ORDER: ( )
 50
90.0
 41
0.9
  7
CAT_BORDER$0$ROMANS
100
AcDbText
  0
TEXT
  5
16BC
330
4F6
100
AcDbEntity
  8
0
100
AcDbText
 10
688.810998242187
 20
-282.7468533335237
 30
0.0
 40
1.989351714778747
  1
CHECKED BY:
  7
CAT_BORDER$0$ROMANS
100
AcDbText
  0
TEXT
  5
16BD
330
4F6
100
AcDbEntity
  8
0
100
AcDbText
 10
688.810998242187
 20
-264.2020527690984
 30
0.0
 40
1.989351714778747
  1
DWG. CHECK
  7
CAT_BORDER$0$ROMANS
100
AcDbText
  0
TEXT
  5
16BE
330
4F6
100
AcDbEntity
  8
0
100
AcDbText
 10
688.810998242187
 20
-273.4744530513111
 30
0.0
 40
1.989351714778747
  1
BUILT BY:
  7
CAT_BORDER$0$ROMANS
100
AcDbText
  0
TEXT
  5
16BF
330
4F6
100
AcDbEntity
  8
0
100
AcDbText
 10
745.5054401076096
 20
-282.7468533335237
 30
0.0
 40
1.989351714778747
  1
DRAWN BY:
  7
CAT_BORDER$0$ROMANS
100
AcDbText
  0
TEXT
  5
16C0
330
4F6
100
AcDbEntity
  8
0
100
AcDbText
 10
745.5054401076096
 20
-273.4744530513111
 30
0.0
 40
1.989351714778747
  1
PURCHASE ORDER
  7
CAT_BORDER$0$ROMANS
100
AcDbText
  0
TEXT
  5
16C1
330
4F6
100
AcDbEntity
  8
0
100
AcDbText
 10
745.5054401076096
 20
-264.2020527690984
 30
0.0
 40
1.989351714778747
  1
ARCH'T OR ENG'R.
  7
CAT_BORDER$0$ROMANS
100
AcDbText
  0
TEXT
  5
16C2
330
4F6
100
AcDbEntity
  8
0
100
AcDbText
 10
963.4972503801051
 20
-274.229223810282
 30
0.0
 40
1.989351714778747
  1
SERIAL#
  7
CAT_BORDER$0$ROMANS
100
AcDbText
  0
TEXT
  5
16C3
330
4F6
100
AcDbEntity
  8
0
100
AcDbText
 10
963.2454287898607
 20
-264.2020527690984
 30
0.0
 40
1.989351714778747
  1
PRECISION REP
  7
CAT_BORDER$0$ROMANS
100
AcDbText
  0
TEXT
  5
16C4
330
4F6
100
AcDbEntity
  8
0
100
AcDbText
 10
824.6836178102464
 20
-282.7468533335237
 30
0.0
 40
1.989351714778747
  1
DATE
  7
CAT_BORDER$0$ROMANS
100
AcDbText
  0
TEXT
  5
16C5
330
4F6
100
AcDbEntity
  8
0
100
AcDbText
 10
854.3754344487352
 20
-282.7468533335237
 30
0.0
 40
1.989351714778747
  1
MODEL#
  7
CAT_BORDER$0$ROMANS
100
AcDbText
  0
TEXT
  5
16C6
330
4F6
100
AcDbEntity
  8
0
100
AcDbText
 10
824.6836178102464
 20
-264.2020527690984
 30
0.0
 40
1.989351714778747
  1
PROJECT
  7
CAT_BORDER$0$ROMANS
100
AcDbText
  0
TEXT
  5
16C7
330
4F6
100
AcDbEntity
  8
0
100
AcDbText
 10
824.6836178102464
 20
-273.4744530513111
 30
0.0
 40
1.989351714778747
  1
REVISION
  7
CAT_BORDER$0$ROMANS
100
AcDbText
  0
TEXT
  5
16C8
330
4F6
100
AcDbEntity
  8
0
100
AcDbText
 10
854.3754344487352
 20
-273.4744530513111
 30
0.0
 40
1.989351714778747
  1
PURCHASER
  7
CAT_BORDER$0$ROMANS
100
AcDbText
  0
TEXT
  5
16C9
330
4F6
100
AcDbEntity
  8
0
100
AcDbText
 10
943.4508843642015
 20
-282.7468533335237
 30
0.0
 40
1.989351714778747
  1
QTY.
  7
CAT_BORDER$0$ROMANS
100
AcDbText
  0
LINE
  5
16CA
330
4F6
100
AcDbEntity
  8
0
100
AcDbLine
 10
688.0687028262246
 20
-279.7776716696747
 30
0.0
 11
962.5031333738983
 21
-279.7776716696747
 31
0.0
  0
LINE
  5
16CB
330
4F6
100
AcDbEntity
  8
0
100
AcDbLine
 10
1061.475855502194
 20
-289.0500719518874
 30
0.0
 11
1061.475855502194
 21
69.87167852339132
 31
0.0
  0
LINE
  5
16CC
330
4F6
100
AcDbEntity
  8
0
100
AcDbLine
 10
1061.475855502194
 20
69.87167852339132
 30
0.0
 11
566.6122448607146
 21
69.87167852339132
 31
0.0
  0
LINE
  5
16CD
330
4F6
100
AcDbEntity
  8
0
100
AcDbLine
 10
566.6122448607146
 20
69.87167852339132
 30
0.0
 11
566.6122448607146
 21
-289.0500719518874
 31
0.0
  0
LINE
  5
16CE
330
4F6
100
AcDbEntity
  8
0
100
AcDbLine
 10
566.6122448607146
 20
-289.0500719518874
 30
0.0
 11
1061.475855502194
 21
-289.0500719518874
 31
0.0
  0
LINE
  5
16CF
330
4F6
100
AcDbEntity
  8
0
100
AcDbLine
 10
688.0687028262246
 20
-289.0500719518874
 30
0.0
 11
688.0687028262246
 21
-261.2328711052496
 31
0.0
  0
LINE
  5
16D0
330
4F6
100
AcDbEntity
  8
0
100
AcDbLine
 10
744.7631446916473
 20
-289.0500719518874
 30
0.0
 11
744.7631446916473
 21
-261.2328711052496
 31
0.0
  0
LINE
  5
16D1
330
4F6
100
AcDbEntity
  8
0
100
AcDbLine
 10
823.941322394284
 20
-289.0500719518874
 30
0.0
 11
823.941322394284
 21
-261.2328711052496
 31
0.0
  0
LINE
  5
16D2
330
4F6
100
AcDbEntity
  8
0
100
AcDbLine
 10
853.6331390327731
 20
-289.0500719518874
 30
0.0
 11
853.6331390327731
 21
-270.5052713874622
 31
0.0
  0
LINE
  5
16D3
330
4F6
100
AcDbEntity
  8
0
100
AcDbLine
 10
962.5031333738983
 20
-289.0500719518874
 30
0.0
 11
962.5031333738983
 21
-261.2328711052496
 31
0.0
  0
LINE
  5
16D4
330
4F6
100
AcDbEntity
  8
0
100
AcDbLine
 10
942.7085889482393
 20
-289.0500719518874
 30
0.0
 11
942.7085889482393
 21
-279.7776716696747
 31
0.0
  0
LINE
  5
16D5
330
4F6
100
AcDbEntity
  8
0
100
AcDbLine
 10
566.6122448607146
 20
-261.2328711052496
 30
0.0
 11
1061.475855502194
 21
-261.2328711052496
 31
0.0
  0
LINE
  5
16D6
330
4F6
100
AcDbEntity
  8
0
100
AcDbLine
 10
688.0687028262246
 20
-270.5052713874622
 30
0.0
 11
1061.475855502194
 21
-270.5052713874622
 31
0.0
  0
INSERT
  5
16D7
330
4F6
100
AcDbEntity
  8
0
100
AcDbBlockReference
 66
     1
  2
BORDER-T
 10
566.6122448607146
 20
-289.0500719518874
 30
0.0
 41
1.799504038696355
 42
1.799504038696309
 43
1.799504038696289
  0
ATTRIB
  5
16D8
330
16D7
100
AcDbEntity
  8
0
 62
     5
100
AcDbText
 10
568.8986911463476
 20
-258.5431507910193
 30
0.0
 40
4.04888408706665
  1

  7
ROMANS
100
AcDbAttribute
  2
SCALE
 70
     0
280
     0
  0
ATTRIB
  5
16D9
330
16D7
100
AcDbEntity
  8
0
100
AcDbText
 10
1038.825013250959
 20
-248.5289509906873
 30
0.0
 40
3.152435844664549
  1
FLH-09
  7
ROMANS
 72
     4
 11
1048.057146796049
 21
-246.9527330683551
 31
0.0
100
AcDbAttribute
  2
SAVEDAS
 70
     0
280
     0
  0
ATTRIB
  5
16DA
330
16D7
100
AcDbEntity
  8
0
 62
     5
100
AcDbText
 10
684.9698056517778
 20
-264.7727909369856
 30
0.0
 40
2.246072136534522
  1

 50
90.0
  7
ROMANS
 72
     4
 11
684.9698056517778
 21
-264.7727909369856
 31
0.0
100
AcDbAttribute
  2
X
 70
     0
280
     0
  0
ATTRIB
  5
16DB
330
16D7
100
AcDbEntity
  8
0
100
AcDbText
 10
783.9506196159947
 20
-268.9526639485404
 30
0.0
 40
3.183376115430885
  1

  7
ROMANS
 72
     1
 11
783.9506196159947
 21
-268.9526639485404
 31
0.0
100
AcDbAttribute
  2
ARCHORENG
 70
     0
280
     0
  0
ATTRIB
  5
16DC
330
16D7
100
AcDbEntity
  8
0
100
AcDbText
 10
783.9506196159947
 20
-278.2262684385818
 30
0.0
 40
3.183376115430885
  1

  7
ROMANS
 72
     1
 11
783.9506196159947
 21
-278.2262684385818
 31
0.0
100
AcDbAttribute
  2
PURCHASEORDER
 70
     0
280
     0
  0
ATTRIB
  5
16DD
330
16D7
100
AcDbEntity
  8
0
100
AcDbText
 10
779.0239661040183
 20
-287.4998729286234
 30
0.0
 40
3.183376115430885
  1
DNH
  7
ROMANS
 72
     1
 11
783.9506196159947
 21
-287.4998729286234
 31
0.0
100
AcDbAttribute
  2
DRAWNBY
 70
     0
280
     0
  0
ATTRIB
  5
16DE
330
16D7
100
AcDbEntity
  8
0
100
AcDbText
 10
838.3926862667093
 20
-278.2262684385818
 30
0.0
 40
3.183376115430885
  1

  7
ROMANS
 72
     1
 11
838.3926862667093
 21
-278.2262684385818
 31
0.0
100
AcDbAttribute
  2
REV
 70
     0
280
     0
  0
ATTRIB
  5
16DF
330
16D7
100
AcDbEntity
  8
0
100
AcDbText
 10
829.0699419286617
 20
-287.4998729286234
 30
0.0
 40
3.183376115430885
  1
4/4/19
  7
ROMANS
 72
     1
 11
838.3926862667093
 21
-287.4998729286234
 31
0.0
100
AcDbAttribute
  2
DATE
 70
     0
280
     0
  0
ATTRIB
  5
16E0
330
16D7
100
AcDbEntity
  8
0
100
AcDbText
 10
892.834752917424
 20
-268.9526639485404
 30
0.0
 40
3.183376115430885
  1

  7
ROMANS
 72
     1
 11
892.834752917424
 21
-268.9526639485404
 31
0.0
100
AcDbAttribute
  2
PROJECT
 70
     0
280
     0
  0
ATTRIB
  5
16E1
330
16D7
100
AcDbEntity
  8
0
100
AcDbText
 10
907.68258927671
 20
-278.2262684385818
 30
0.0
 40
3.183376115430885
  1

  7
ROMANS
 72
     1
 11
907.68258927671
 21
-278.2262684385818
 31
0.0
100
AcDbAttribute
  2
PURCHASER
 70
     0
280
     0
  0
ATTRIB
  5
16E2
330
16D7
100
AcDbEntity
  8
0
100
AcDbText
 10
893.1605568695365
 20
-287.4998729286232
 30
0.0
 40
3.183376115430885
  1
FL-
  7
ROMANS
 72
     1
 11
897.7840317038529
 21
-287.4998729286232
 31
0.0
100
AcDbAttribute
  2
MODEL
 70
     0
280
     0
  0
ATTRIB
  5
16E3
330
16D7
100
AcDbEntity
  8
0
100
AcDbText
 10
952.2260983545676
 20
-287.4998729286234
 30
0.0
 40
3.183376115430885
  1

  7
ROMANS
 72
     1
 11
952.2260983545676
 21
-287.4998729286234
 31
0.0
100
AcDbAttribute
  2
QTY
 70
     0
280
     0
  0
ATTRIB
  5
16E4
330
16D7
100
AcDbEntity
  8
0
100
AcDbText
 10
1011.617443791711
 20
-268.9538681563691
 30
0.0
 40
3.183376115430885
  1

  7
ROMANS
 72
     1
 11
1011.617443791711
 21
-268.9538681563691
 31
0.0
100
AcDbAttribute
  2
REP
 70
     0
280
     0
  0
ATTRIB
  5
16E5
330
16D7
100
AcDbEntity
  8
0
100
AcDbText
 10
1011.678931620423
 20
-283.3758062024876
 30
0.0
 40
6.217531475450947
  1

  7
ROMANS
 72
     1
 11
1011.678931620423
 21
-283.3758062024876
 31
0.0
100
AcDbAttribute
  2
L010000
 70
     0
280
     0
  0
SEQEND
  5
16E6
330
16D7
100
AcDbEntity
  8
0
  0
TEXT
  5
16E7
330
4F6
100
AcDbEntity
  8
0
100
AcDbText
 10
909.5972505834653
 20
-257.715611778023
 30
0.0
 40
2.774405800569533
  1
LADDER RATED AT 1,500 LBS
  7
ROMANS
100
AcDbText
  0
TEXT
  5
16EA
330
4F6
100
AcDbEntity
  8
0
100
AcDbText
 10
629.300983047481
 20
-255.9215133167723
 30
0.0
 40
2.774405800569533
  1
LADDERS MANUFACTURED BY PRECISION LADDERS, LLC
  7
ROMANS
100
AcDbText
  0
TEXT
  5
16EB
330
4F6
100
AcDbEntity
  8
0
100
AcDbText
 10
629.300983047481
 20
-260.4134084224563
 30
0.0
 40
2.774405800569533
  1
COMPLY WITH OSHA 1910 SUBPART D AND ANSI 14.3
  7
ROMANS
100
AcDbText
  0
LINE
  5
16EC
330
4F6
100
AcDbEntity
  8
0
100
AcDbLine
 10
1061.475855502194
 20
-251.2358043615938
 30
0.0
 11
566.6122448607146
 21
-251.2358043615938
 31
0.0
  0
LINE
  5
16EE
330
4F6
100
AcDbEntity
  8
0
100
AcDbLine
 10
814.0440501814543
 20
-251.2358043615938
 30
0.0
 11
814.0440501814543
 21
-261.2328711052496
 31
0.0
  0
DIMENSION
  5
17B7
330
4F6
100
AcDbEntity
  8
0
100
AcDbDimension
  2
*D25
 10
713.9785418545591
 20
-210.7112133912152
 30
0.0
 11
707.5817993456992
 21
-216.2112133912151
 31
0.0
 70
   160
  1
AS REQ'D
 71
     5
 42
11.0
 73
     0
 74
     0
 75
     0
  3
STANDARD$0
100
AcDbAlignedDimension
 13
724.1151905559181
 23
-221.7112133912152
 33
0.0
 14
724.1151905559182
 24
-210.7112133912152
 34
0.0
 50
90.0
100
AcDbRotatedDimension
1001
ACAD
1000
DSTYLE
1002
{
1070
    40
1040
40.0
1002
}
  0
TEXT
  5
1863
330
4F6
100
AcDbEntity
  8
0
100
AcDbText
 10
574.1444238832482
 20
-246.9420831312718
 30
0.0
 40
2.774405800569533
  1
NOTE: FALL ARREST SYSTEM REQUIRED ON LADDERS EXCEEDING 24'-0" (SEE DETAIL FLH-09-FAS)
  7
ROMANS
100
AcDbText
  0
DIMENSION
  5
1864
330
4F6
100
AcDbEntity
  8
0
100
AcDbDimension
  2
*D26
 10
699.6151905559182
 20
38.52844016331847
 30
0.0
 11
716.1151905559181
 21
38.52844016331847
 31
0.0
 70
    32
  1
24" MIN.\PX + 17"
 71
     5
 42
32.99999999999989
 73
     0
 74
     0
 75
     0
  3
STANDARD$0
100
AcDbAlignedDimension
 13
732.6151905559181
 23
26.28878660878479
 33
0.0
 14
699.6151905559182
 24
28.28878660878479
 34
0.0
100
AcDbRotatedDimension
1001
ACAD
1000
DSTYLE
1002
{
1070
    40
1040
40.0
1002
}
  0
TEXT
  5
187C
330
4F6
100
AcDbEntity
  8
0
  6
ByBlock
 62
     0
100
AcDbText
 10
645.1091854003903
 20
-137.0544757761893
 30
0.0
 40
2.47632
  1
23'-6" MAX
  7
ROMANS
 72
     1
 11
656.4884654003904
 21
-135.8163157761893
 31
0.0
100
AcDbText
 73
     2
  0
TEXT
  5
1884
330
4F6
100
AcDbEntity
  8
0
 62
     7
100
AcDbText
 10
582.3061151195081
 20
-101.4866081799431
 30
0.0
 40
3.0954
  1
MAY REQUIRE EXTENDED
  7
ROMANS
 72
     4
 11
611.1965151195081
 21
-100.0863081799431
 31
0.0
100
AcDbText
  0
TEXT
  5
1885
330
4F6
100
AcDbEntity
  8
0
 62
     7
100
AcDbText
 10
582.08709176356
 20
-106.6456081799431
 30
0.0
 40
3.0954
  1
BRACKETS ON RETURN SIDE
  7
ROMANS
 72
     4
 11
615.62059176356
 21
-105.0979081799431
 31
0.0
100
AcDbText
  0
TEXT
  5
1886
330
4F6
100
AcDbEntity
  8
0
 62
     7
100
AcDbText
 10
577.0035933810953
 20
-104.508308179943
 30
0.0
 40
6.1908
  1
*
  7
ROMANS
 72
     4
 11
579.3619933810953
 21
-100.0863081799431
 31
0.0
100
AcDbText
  0
TEXT
  5
1889
330
4F6
100
AcDbEntity
  8
0
 62
     7
100
AcDbText
 10
917.2662351789805
 20
-17.91259392658153
 30
0.0
 40
3.0954
  1
CAGE NOT
  7
ROMANS
100
AcDbText
  0
TEXT
  5
188A
330
4F6
100
AcDbEntity
  8
0
 62
     7
100
AcDbText
 10
917.7816691540751
 20
-22.92419392658152
 30
0.0
 40
3.0954
  1
REQUIRED
  7
ROMANS
100
AcDbText
  0
TEXT
  5
188B
330
4F6
100
AcDbEntity
  8
0
 62
     7
100
AcDbText
 10
917.7816691540751
 20
-27.93579392658151
 30
0.0
 40
3.0954
  1
BY CODE
  7
ROMANS
100
AcDbText
  0
ENDSEC
  0
SECTION
  2
OBJECTS
  0
DICTIONARY
  5
4EA
330
0
100
AcDbDictionary
281
     1
  3
ACAD_COLOR
350
11E7
  3
ACAD_GROUP
350
4EB
  3
ACAD_LAYOUT
350
C84
  3
ACAD_MATERIAL
350
11D2
  3
ACAD_MLINESTYLE
350
4EC
  3
ACAD_PLOTSETTINGS
350
C85
  3
ACAD_PLOTSTYLENAME
350
C82
  3
ACAD_TABLESTYLE
350
11E8
  3
ACAD_VISUALSTYLE
350
11D6
  3
AcDbVariableDictionary
350
1220
  0
DICTIONARY
  5
1347
330
4E6
100
AcDbDictionary
280
     1
281
     1
  0
DICTIONARY
  5
11F7
330
4F6
100
AcDbDictionary
280
     1
281
     1
  3
ACAD_SORTENTS
360
11F8
  0
DICTIONARY
  5
1256
330
124D
100
AcDbDictionary
280
     1
281
     1
  3
ACAD_SORTENTS
360
1257
  0
DICTIONARY
  5
1374
330
1363
100
AcDbDictionary
280
     1
281
     1
  3
ACAD_SORTENTS
360
1375
  0
DICTIONARY
  5
11E7
102
{ACAD_REACTORS
330
4EA
102
}
330
4EA
100
AcDbDictionary
281
     1
  0
DICTIONARY
  5
4EB
102
{ACAD_REACTORS
330
4EA
102
}
330
4EA
100
AcDbDictionary
281
     1
  0
DICTIONARY
  5
C84
102
{ACAD_REACTORS
330
4EA
102
}
330
4EA
100
AcDbDictionary
281
     1
  3
Layout1
350
C87
  3
Model
350
C86
  0
DICTIONARY
  5
11D2
102
{ACAD_REACTORS
330
4EA
102
}
330
4EA
100
AcDbDictionary
281
     1
  3
ByBlock
350
11D4
  3
ByLayer
350
11D3
  3
Global
350
11D5
  0
DICTIONARY
  5
4EC
102
{ACAD_REACTORS
330
4EA
102
}
330
4EA
100
AcDbDictionary
281
     1
  3
STANDARD
350
4F9
  0
DICTIONARY
  5
C85
102
{ACAD_REACTORS
330
4EA
102
}
330
4EA
100
AcDbDictionary
281
     1
  0
ACDBDICTIONARYWDFLT
  5
C82
102
{ACAD_REACTORS
330
4EA
102
}
330
4EA
100
AcDbDictionary
281
     1
  3
Normal
350
C83
100
AcDbDictionaryWithDefault
340
C83
  0
DICTIONARY
  5
11E8
102
{ACAD_REACTORS
330
4EA
102
}
330
4EA
100
AcDbDictionary
281
     1
  3
Standard
350
11E9
  0
DICTIONARY
  5
11D6
102
{ACAD_REACTORS
330
4EA
102
}
330
4EA
100
AcDbDictionary
281
     1
  3
2dWireframe
350
11DC
  3
3D Hidden
350
11DE
  3
3dWireframe
350
11DD
  3
Basic
350
11DB
  3
Brighten
350
11E2
  3
ColorChange
350
11E6
  3
Conceptual
350
11DF
  3
Dim
350
11E1
  3
Facepattern
350
11E5
  3
Flat
350
11D7
  3
FlatWithEdges
350
11D8
  3
Gouraud
350
11D9
  3
GouraudWithEdges
350
11DA
  3
Linepattern
350
11E4
  3
Realistic
350
11E0
  3
Thicken
350
11E3
  0
DICTIONARY
  5
1220
102
{ACAD_REACTORS
330
4EA
102
}
330
4EA
100
AcDbDictionary
281
     1
  3
CTABLESTYLE
350
1221
  3
DIMASSOC
350
135B
  3
INDEXCTL
350
135A
  3
SORTENTS
350
1359
  0
SORTENTSTABLE
  5
11F8
102
{ACAD_REACTORS
330
11F7
102
}
330
11F7
100
AcDbSortentsTable
330
4F6
331
34A
  5
34A
331
30B
  5
30B
331
12FB
  5
1312
331
169F
  5
16A0
331
352
  5
352
331
313
  5
313
331
1303
  5
12F5
331
31B
  5
31B
331
35A
  5
35A
331
CD8
  5
CE6
331
323
  5
323
331
3AF
  5
3AF
331
3EE
  5
3EE
331
42D
  5
42D
331
3B7
  5
3B7
331
3F6
  5
3F6
331
4B4
  5
4B4
331
CE0
  5
CEE
331
3BF
  5
3BF
331
3FE
  5
3FE
331
43D
  5
43D
331
4BC
  5
4BC
331
CE8
  5
CF8
331
3C7
  5
3C7
331
445
  5
445
331
EB2
  5
ECE
331
DF3
  5
E9F
331
EF1
  5
1090
331
EBA
  5
ED6
331
CFC
  5
E84
331
EC2
  5
EDE
331
E8B
  5
EA7
331
11F5
  5
C1A
331
1668
  5
1669
331
107F
  5
109C
331
ECA
  5
EE6
331
E93
  5
EAF
331
1670
  5
1671
331
16AF
  5
16B0
331
1313
  5
12F9
331
1205
  5
CD9
331
1678
  5
1679
331
16B7
  5
16B8
331
16EE
  5
17B7
331
16BF
  5
16C0
331
333
  5
333
331
2F4
  5
2F4
331
33B
  5
33B
331
2FC
  5
2FC
331
360
  5
360
331
44D
  5
44D
331
406
  5
406
331
304
  5
304
331
343
  5
343
331
368
  5
368
331
3CF
  5
3CF
331
370
  5
370
331
3D7
  5
3D7
331
40E
  5
40E
331
45D
  5
45D
331
CD1
  5
CDF
331
3E7
  5
3E7
331
465
  5
465
331
ED2
  5
EEE
331
E9B
  5
EB7
331
120D
  5
E9B
331
EDA
  5
EF6
331
EA3
  5
EBF
331
108F
  5
11F9
331
121D
  5
121D
331
1097
  5
1201
331
EAB
  5
EC7
331
EE2
  5
1080
331
1688
  5
1689
331
16C7
  5
16C8
331
109F
  5
1209
331
EEA
  5
1089
331
16CF
  5
16D0
331
12F4
  5
1304
331
16D7
  5
16E7
331
30C
  5
30C
331
34B
  5
34B
331
12FC
  5
1313
331
353
  5
353
331
314
  5
314
331
35B
  5
35B
331
31C
  5
31C
331
324
  5
324
331
3B0
  5
3B0
331
3EF
  5
3EF
331
BD2
  5
C47
331
CD9
  5
CE7
331
17B7
  5
1863
331
C1A
  5
CCF
331
3B8
  5
3B8
331
3F7
  5
3F7
331
436
  5
436
331
4B5
  5
4B5
331
CE1
  5
CEF
331
3FF
  5
3FF
331
3C0
  5
3C0
331
43E
  5
43E
331
4BD
  5
4BD
331
CE9
  5
CF9
331
446
  5
446
331
EB3
  5
ECF
331
EF2
  5
1091
331
EBB
  5
ED7
331
E84
  5
EA0
331
CFD
  5
E86
331
16A0
  5
16A1
331
EC3
  5
EDF
331
E8C
  5
EA8
331
1669
  5
1670
331
130C
  5
12F6
331
ECB
  5
EE7
331
E94
  5
EB0
331
1080
  5
109D
331
1671
  5
1672
331
16B0
  5
16B1
331
16E7
  5
16E8
331
1206
  5
CDA
331
1679
  5
167A
331
16B8
  5
16B9
331
2F5
  5
2F5
331
334
  5
334
331
2FD
  5
2FD
331
33C
  5
33C
331
361
  5
361
331
3C8
  5
3C8
331
407
  5
407
331
3D0
  5
3D0
331
344
  5
344
331
305
  5
305
331
369
  5
369
331
44E
  5
44E
331
456
  5
456
331
371
  5
371
331
3D8
  5
3D8
331
40F
  5
40F
331
45E
  5
45E
331
CD2
  5
CE0
331
466
  5
466
331
ED3
  5
EEF
331
E9C
  5
EB8
331
1088
  5
11F0
331
1090
  5
11FA
331
EA4
  5
EC0
331
EDB
  5
1079
331
16C0
  5
16C1
331
121E
  5
121E
331
1098
  5
1202
331
EAC
  5
EC8
331
EE3
  5
1081
331
1689
  5
168A
331
16C8
  5
16C9
331
EEB
  5
108A
331
16D0
  5
16D1
331
12F5
  5
130C
331
34C
  5
34C
331
30D
  5
30D
331
12FD
  5
1667
331
315
  5
315
331
354
  5
354
331
31D
  5
31D
331
35C
  5
35C
331
3E8
  5
3E8
331
BD3
  5
C7F
331
3F0
  5
3F0
331
325
  5
325
331
3B1
  5
3B1
331
CDA
  5
CE8
331
4B6
  5
4B6
331
3F8
  5
3F8
331
3B9
  5
3B9
331
437
  5
437
331
CE2
  5
CF0
331
C43
  5
CD0
331
4BE
  5
4BE
331
3C1
  5
3C1
331
43F
  5
43F
331
CEA
  5
CFA
331
447
  5
447
331
10A0
  5
120A
331
EF3
  5
1092
331
EB4
  5
ED0
331
CF6
  5
D5F
331
EBC
  5
ED8
331
E85
  5
EA1
331
CFE
  5
E87
331
16A1
  5
16A9
331
1079
  5
1096
331
EC4
  5
EE0
331
E8D
  5
EA9
331
16A9
  5
16AA
331
130D
  5
12F7
331
ECC
  5
EE8
331
E95
  5
EB1
331
1081
  5
109E
331
1672
  5
1673
331
16B1
  5
16B2
331
1207
  5
E95
331
167A
  5
167B
331
16B9
  5
16BA
331
335
  5
335
331
2F6
  5
2F6
331
2FE
  5
2FE
331
362
  5
362
331
3C9
  5
3C9
331
408
  5
408
331
306
  5
306
331
345
  5
345
331
36A
  5
36A
331
3D1
  5
3D1
331
52D
  5
52D
331
410
  5
410
331
3D9
  5
3D9
331
372
  5
372
331
457
  5
457
331
45F
  5
45F
331
3A2
  5
3A2
331
467
  5
467
331
CD3
  5
CE1
331
ED4
  5
EF0
331
E9D
  5
EB9
331
1089
  5
11F1
331
1091
  5
11FB
331
EA5
  5
EC1
331
EDC
  5
107A
331
16C1
  5
16C2
331
121F
  5
121F
331
1099
  5
1203
331
EAD
  5
EC9
331
EE4
  5
1082
331
168A
  5
168B
331
16C9
  5
16CA
331
12EE
  5
12FE
331
EEC
  5
108B
331
16D1
  5
16D2
331
12F6
  5
130D
331
30E
  5
30E
331
34D
  5
34D
331
12FE
  5
12CA
331
316
  5
316
331
355
  5
355
331
3E9
  5
3E9
331
3AA
  5
3AA
331
428
  5
428
331
31E
  5
31E
331
35D
  5
35D
331
CDB
  5
CE9
331
3B2
  5
3B2
331
3F1
  5
3F1
331
BD4
  5
CCD
331
326
  5
326
331
CE3
  5
CF1
331
3F9
  5
3F9
331
3BA
  5
3BA
331
438
  5
438
331
4B7
  5
4B7
331
CEB
  5
CFB
331
3C2
  5
3C2
331
440
  5
440
331
4BF
  5
4BF
331
10A1
  5
120B
331
EB5
  5
ED1
331
CF7
  5
D6D
331
EF4
  5
1093
331
11F0
  5
BD0
331
EBD
  5
ED9
331
E86
  5
EA2
331
CFF
  5
E88
331
107A
  5
1097
331
E8E
  5
EAA
331
EC5
  5
EE1
331
16AA
  5
16AB
331
130E
  5
12F8
331
1200
  5
CD4
331
ECD
  5
EE9
331
E96
  5
EB2
331
1082
  5
109F
331
1673
  5
1674
331
16B2
  5
16B3
331
167B
  5
167C
331
16BA
  5
16BB
331
2F7
  5
2F7
331
336
  5
336
331
363
  5
363
331
3CA
  5
3CA
331
448
  5
448
331
2FF
  5
2FF
331
3D2
  5
3D2
331
36B
  5
36B
331
409
  5
409
331
346
  5
346
331
307
  5
307
331
373
  5
373
331
3DA
  5
3DA
331
411
  5
411
331
458
  5
458
331
3A3
  5
3A3
331
3E2
  5
3E2
331
460
  5
460
331
CD4
  5
CE2
331
1208
  5
E96
331
ED5
  5
EF1
331
E9E
  5
EBA
331
108A
  5
11F2
331
1092
  5
11FC
331
EA6
  5
EC2
331
EDD
  5
107B
331
16C2
  5
16C3
331
109A
  5
1204
331
EAE
  5
ECA
331
EE5
  5
1083
331
168B
  5
168C
331
16CA
  5
16CB
331
12EF
  5
12FF
331
EED
  5
108C
331
1693
  5
1694
331
16D2
  5
16D3
331
12F7
  5
130E
331
34E
  5
34E
331
12FF
  5
12EE
331
30F
  5
30F
331
317
  5
317
331
356
  5
356
331
3EA
  5
3EA
331
429
  5
429
331
468
  5
468
331
35E
  5
35E
331
3B3
  5
3B3
331
3F2
  5
3F2
331
CDC
  5
CEA
331
327
  5
327
331
CE4
  5
CF2
331
3BB
  5
3BB
331
3FA
  5
3FA
331
439
  5
439
331
CEC
  5
CFC
331
3C3
  5
3C3
331
441
  5
441
331
CF0
  5
D00
331
10A2
  5
120C
331
EF5
  5
1094
331
EB6
  5
ED2
331
CF8
  5
DF0
331
11F1
  5
BD2
331
EBE
  5
EDA
331
D00
  5
E89
331
E87
  5
EA3
331
107B
  5
1098
331
EC6
  5
EE2
331
D18
  5
E8B
331
E8F
  5
EAB
331
16AB
  5
16AC
331
130F
  5
12FA
331
1201
  5
CD5
331
ECE
  5
EEA
331
E97
  5
EB3
331
1083
  5
10A0
331
1674
  5
1675
331
16B3
  5
16B4
331
16EA
  5
16EB
331
167C
  5
167D
331
16BB
  5
16BC
331
2F8
  5
2F8
331
337
  5
337
331
4C0
  5
4C0
331
364
  5
364
331
3CB
  5
3CB
331
449
  5
449
331
33F
  5
33F
331
300
  5
300
331
52F
  5
52F
331
36C
  5
36C
331
3D3
  5
3D3
331
40A
  5
40A
331
4D8
  5
4D8
331
347
  5
347
331
3DB
  5
3DB
331
412
  5
412
331
459
  5
459
331
3E3
  5
3E3
331
CCD
  5
CDB
331
CD5
  5
CE3
331
1209
  5
E97
331
ED6
  5
EF2
331
E9F
  5
EBB
331
108B
  5
11F3
331
16C3
  5
16C4
331
1093
  5
11FD
331
EA7
  5
EC3
331
EDE
  5
107C
331
168C
  5
168D
331
16CB
  5
16CC
331
109B
  5
1205
331
EAF
  5
ECB
331
EE6
  5
1084
331
1694
  5
1695
331
16D3
  5
16D4
331
EEE
  5
108D
331
12F0
  5
1300
331
308
  5
308
331
12F8
  5
130F
331
34F
  5
34F
331
310
  5
310
331
1300
  5
12EF
331
357
  5
357
331
318
  5
318
331
3AC
  5
3AC
331
3EB
  5
3EB
331
42A
  5
42A
331
469
  5
469
331
35F
  5
35F
331
CDD
  5
CEB
331
BD6
  5
CCE
331
3B4
  5
3B4
331
3F3
  5
3F3
331
432
  5
432
331
3BC
  5
3BC
331
3FB
  5
3FB
331
43A
  5
43A
331
CE5
  5
CF3
331
C46
  5
CD1
331
3C4
  5
3C4
331
442
  5
442
331
CED
  5
CFD
331
CF1
  5
D01
331
DF0
  5
E9C
331
10A3
  5
120D
331
CF9
  5
DF1
331
EB7
  5
ED3
331
EF6
  5
1095
331
11F2
  5
BD3
331
E88
  5
EA4
331
EBF
  5
EDB
331
16AC
  5
16AD
331
107C
  5
1099
331
EC7
  5
EE3
331
E90
  5
EAC
331
1675
  5
1676
331
16B4
  5
16B5
331
16EB
  5
16EC
331
1202
  5
CD6
331
ECF
  5
EEB
331
1084
  5
10A1
331
1310
  5
12FC
331
167D
  5
167E
331
16BC
  5
16BD
331
328
  5
328
331
2F9
  5
2F9
331
338
  5
338
331
4C1
  5
4C1
331
3CC
  5
3CC
331
365
  5
365
331
44A
  5
44A
331
340
  5
340
331
301
  5
301
331
36D
  5
36D
331
3D4
  5
3D4
331
40B
  5
40B
331
530
  5
530
331
413
  5
413
331
45A
  5
45A
331
CCE
  5
CDC
331
3E4
  5
3E4
331
462
  5
462
331
CD6
  5
CE4
331
1863
  5
1864
331
E98
  5
EB4
331
120A
  5
E98
331
EA0
  5
EBC
331
ED7
  5
EF3
331
108C
  5
11F4
331
1685
  5
1686
331
16C4
  5
16C5
331
121A
  5
121A
331
1094
  5
11FE
331
EA8
  5
EC4
331
EDF
  5
107D
331
168D
  5
168E
331
16CC
  5
16CD
331
109C
  5
1206
331
EE7
  5
1085
331
1695
  5
1696
331
16D4
  5
16D5
331
EEF
  5
108E
331
12F1
  5
1301
331
309
  5
309
331
348
  5
348
331
12F9
  5
1310
331
311
  5
311
331
350
  5
350
331
1301
  5
12F1
331
319
  5
319
331
358
  5
358
331
3AD
  5
3AD
331
3EC
  5
3EC
331
3F4
  5
3F4
331
CDE
  5
CEC
331
3BD
  5
3BD
331
3FC
  5
3FC
331
43B
  5
43B
331
4BA
  5
4BA
331
CE6
  5
CF6
331
C47
  5
CD2
331
3C5
  5
3C5
331
443
  5
443
331
CEE
  5
CFE
331
EB0
  5
ECC
331
DF1
  5
E9D
331
CF2
  5
D18
331
EB8
  5
ED4
331
CFA
  5
DF2
331
EC0
  5
EDC
331
E89
  5
EA5
331
11F3
  5
BD4
331
16AD
  5
16AE
331
107D
  5
109A
331
EC8
  5
EE4
331
E91
  5
EAD
331
1676
  5
1677
331
16B5
  5
16B6
331
16EC
  5
16ED
331
1085
  5
10A2
331
1203
  5
CD7
331
1311
  5
12FD
331
167E
  5
167F
331
16BD
  5
16BE
331
329
  5
329
331
2FA
  5
2FA
331
339
  5
339
331
366
  5
366
331
3CD
  5
3CD
331
341
  5
341
331
302
  5
302
331
4DA
  5
4DA
331
36E
  5
36E
331
3D5
  5
3D5
331
40C
  5
40C
331
453
  5
453
331
45B
  5
45B
331
CCF
  5
CDD
331
3E5
  5
3E5
331
41C
  5
41C
331
CD7
  5
CE5
331
1864
  5
187C
331
ED0
  5
EEC
331
E99
  5
EB5
331
EA1
  5
EBD
331
ED8
  5
EF4
331
108D
  5
11F5
331
120B
  5
E99
331
121B
  5
121B
331
1095
  5
11FF
331
EA9
  5
EC5
331
EE0
  5
107E
331
1686
  5
1687
331
16C5
  5
16C6
331
109D
  5
1207
331
EE8
  5
1086
331
168E
  5
168F
331
16CD
  5
16CE
331
12F2
  5
1302
331
1696
  5
1697
331
16D5
  5
16D6
331
30A
  5
30A
331
349
  5
349
331
12FA
  5
1311
331
312
  5
312
331
351
  5
351
331
1302
  5
12F2
331
31A
  5
31A
331
359
  5
359
331
3AE
  5
3AE
331
3ED
  5
3ED
331
BD0
  5
C46
331
CDF
  5
CED
331
3B6
  5
3B6
331
3F5
  5
3F5
331
4B3
  5
4B3
331
187C
  5
1883
331
3BE
  5
3BE
331
3FD
  5
3FD
331
43C
  5
43C
331
4BB
  5
4BB
331
CE7
  5
CF7
331
3C6
  5
3C6
331
444
  5
444
331
CEF
  5
CFF
331
EB1
  5
ECD
331
DF2
  5
E9E
331
CF3
  5
D4E
331
EF0
  5
108F
331
EB9
  5
ED5
331
CFB
  5
DF3
331
EC1
  5
EDD
331
E8A
  5
EA6
331
11F4
  5
BD6
331
1667
  5
1668
331
107E
  5
109B
331
EC9
  5
EE5
331
E92
  5
EAE
331
16AE
  5
16AF
331
1086
  5
10A3
331
1204
  5
CD8
331
1677
  5
1678
331
16B6
  5
16B7
331
32A
  5
32A
331
167F
  5
1685
331
16BE
  5
16BF
331
2FB
  5
2FB
331
33A
  5
33A
331
3CE
  5
3CE
331
303
  5
303
331
342
  5
342
331
367
  5
367
331
36F
  5
36F
331
3D6
  5
3D6
331
40D
  5
40D
331
45C
  5
45C
331
B22
  5
B22
331
3E6
  5
3E6
331
CD0
  5
CDE
331
ED1
  5
EED
331
E9A
  5
EB6
331
EA2
  5
EBE
331
ED9
  5
EF5
331
108E
  5
11F6
331
120C
  5
E9A
331
121C
  5
121C
331
1096
  5
1200
331
EAA
  5
EC6
331
EE1
  5
107F
331
1687
  5
1688
331
16C6
  5
16C7
331
109E
  5
1208
331
EE9
  5
1088
331
168F
  5
1693
331
16CE
  5
16CF
331
12F3
  5
1303
331
1697
  5
169F
331
16D6
  5
16D7
  0
SORTENTSTABLE
  5
1257
102
{ACAD_REACTORS
330
1256
102
}
330
1256
100
AcDbSortentsTable
330
124D
  0
SORTENTSTABLE
  5
1375
102
{ACAD_REACTORS
330
1374
102
}
330
1374
100
AcDbSortentsTable
330
1363
  0
LAYOUT
  5
C87
102
{ACAD_REACTORS
330
C84
102
}
330
C84
100
AcDbPlotSettings
  1

  2
HP LaserJet 2100 Series PCL 6
  4

  6

 40
0.0
 41
0.0
 42
0.0
 43
0.0
 44
0.0
 45
0.0
 46
0.0
 47
0.0
 48
0.0
 49
0.0
140
0.0
141
0.0
142
1.0
143
1.0
 70
   688
 72
     0
 73
     0
 74
     5
  7
Erik.ctb
 75
    16
147
1.0
 76
     0
 77
     2
 78
   300
148
0.0
149
0.0
100
AcDbLayout
  1
Layout1
 70
     1
 71
     1
 10
0.0
 20
0.0
 11
12.0
 21
9.0
 12
0.0
 22
0.0
 32
0.0
 14
1.000000000000000E+20
 24
1.000000000000000E+20
 34
1.000000000000000E+20
 15
-1.000000000000000E+20
 25
-1.000000000000000E+20
 35
-1.000000000000000E+20
146
0.0
 13
0.0
 23
0.0
 33
0.0
 16
1.0
 26
0.0
 36
0.0
 17
0.0
 27
1.0
 37
0.0
 76
     0
330
4F3
  0
LAYOUT
  5
C86
102
{ACAD_REACTORS
330
C84
102
}
330
C84
100
AcDbPlotSettings
  1

  2
PDF Pro 10
  4
Letter
  6

 40
3.174999952316284
 41
3.174999952316284
 42
3.175003051757812
 43
3.17498779296875
 44
215.8999938964844
 45
279.3999938964844
 46
5.761457442892615
 47
0.0
 48
0.0
 49
0.0
140
0.0
141
0.0
142
1.0
143
46.03958557163213
 70
  3764
 72
     0
 73
     1
 74
     1
  7
acad.ctb
 75
     0
147
0.0217204387829278
 76
     0
 77
     2
 78
   300
148
-14390.84463881737
149
7342.1519375371
100
AcDbLayout
  1
Model
 70
     1
 71
     0
 10
0.0
 20
0.0
 11
12.0
 21
9.0
 12
0.0
 22
0.0
 32
0.0
 14
0.0
 24
0.0
 34
0.0
 15
0.0
 25
0.0
 35
0.0
146
0.0
 13
0.0
 23
0.0
 33
0.0
 16
1.0
 26
0.0
 36
0.0
 17
0.0
 27
1.0
 37
0.0
 76
     0
330
4F6
331
11D0
1001
ACAD_PSEXT
1000
PDF Pro 10
1000
Visage PDF
1000
VSP1:
1000

1070
     0
  0
MATERIAL
  5
11D4
102
{ACAD_REACTORS
330
11D2
102
}
330
11D2
100
AcDbMaterial
  1
ByBlock
  0
MATERIAL
  5
11D3
102
{ACAD_REACTORS
330
11D2
102
}
330
11D2
100
AcDbMaterial
  1
ByLayer
  0
MATERIAL
  5
11D5
102
{ACAD_REACTORS
330
11D2
102
}
330
11D2
100
AcDbMaterial
  1
Global
  0
MLINESTYLE
  5
4F9
102
{ACAD_REACTORS
330
4EC
102
}
330
4EC
100
AcDbMlineStyle
  2
STANDARD
 70
     0
  3

 62
     0
 51
90.0
 52
90.0
 71
     2
 49
0.5
 62
   256
  6
BYLAYER
 49
-0.5
 62
   256
  6
BYLAYER
  0
ACDBPLACEHOLDER
  5
C83
102
{ACAD_REACTORS
330
C82
102
}
330
C82
  0
TABLESTYLE
  5
11E9
102
{ACAD_REACTORS
330
11E8
102
}
330
11E8
100
AcDbTableStyle
  3
Standard
 70
     0
 71
     0
 40
0.06
 41
0.06
280
     0
281
     0
  7
STANDARD
140
0.18
170
     2
 62
     0
 63
     7
283
     0
 90
      512
 91
        0
  1

274
    -2
284
     1
 64
     0
275
    -2
285
     1
 65
     0
276
    -2
286
     1
 66
     0
277
    -2
287
     1
 67
     0
278
    -2
288
     1
 68
     0
279
    -2
289
     1
 69
     0
  7
STANDARD
140
0.25
170
     5
 62
     0
 63
     7
283
     0
 90
      512
 91
        0
  1

274
    -2
284
     1
 64
     0
275
    -2
285
     1
 65
     0
276
    -2
286
     1
 66
     0
277
    -2
287
     1
 67
     0
278
    -2
288
     1
 68
     0
279
    -2
289
     1
 69
     0
  7
STANDARD
140
0.18
170
     5
 62
     0
 63
     7
283
     0
 90
      512
 91
        0
  1

274
    -2
284
     1
 64
     0
275
    -2
285
     1
 65
     0
276
    -2
286
     1
 66
     0
277
    -2
287
     1
 67
     0
278
    -2
288
     1
 68
     0
279
    -2
289
     1
 69
     0
  0
VISUALSTYLE
  5
11DC
102
{ACAD_REACTORS
330
11D6
102
}
330
11D6
100
AcDbVisualStyle
  2
2dWireframe
 70
     4
 71
     0
 72
     2
 73
     0
 90
        0
 40
-0.6
 41
-30.0
 62
     5
 63
     7
 74
     1
 91
        4
 64
     7
 65
   257
 75
     1
175
     1
 42
1.0
 92
        0
 66
   257
 43
1.0
 76
     1
 77
     6
 78
     2
 67
     7
 79
     5
170
     0
171
     0
290
     0
174
     0
 93
        1
 44
0.0
173
     0
291
     0
 45
0.0
  0
VISUALSTYLE
  5
11DE
102
{ACAD_REACTORS
330
11D6
102
}
330
11D6
100
AcDbVisualStyle
  2
3D Hidden
 70
     6
 71
     1
 72
     2
 73
     2
 90
        0
 40
-0.6
 41
-30.0
 62
     5
 63
     7
 74
     2
 91
        2
 64
     7
 65
   257
 75
     2
175
     1
 42
40.0
 92
        0
 66
   257
 43
1.0
 76
     1
 77
     6
 78
     2
 67
     7
 79
     3
170
     0
171
     0
290
     0
174
     0
 93
        1
 44
0.0
173
     0
291
     0
 45
0.0
  0
VISUALSTYLE
  5
11DD
102
{ACAD_REACTORS
330
11D6
102
}
330
11D6
100
AcDbVisualStyle
  2
3dWireframe
 70
     5
 71
     0
 72
     2
 73
     0
 90
        0
 40
-0.6
 41
-30.0
 62
     5
 63
     7
 74
     1
 91
        4
 64
     7
 65
   257
 75
     1
175
     1
 42
1.0
 92
        0
 66
   257
 43
1.0
 76
     1
 77
     6
 78
     2
 67
     7
 79
     5
170
     0
171
     0
290
     0
174
     0
 93
        1
 44
0.0
173
     0
291
     0
 45
0.0
  0
VISUALSTYLE
  5
11DB
102
{ACAD_REACTORS
330
11D6
102
}
330
11D6
100
AcDbVisualStyle
  2
Basic
 70
     7
 71
     1
 72
     0
 73
     1
 90
        0
 40
-0.6
 41
-30.0
 62
     5
 63
     7
 74
     0
 91
        4
 64
     7
 65
   257
 75
     1
175
     1
 42
1.0
 92
        8
 66
     7
 43
1.0
 76
     1
 77
     6
 78
     2
 67
     7
 79
     5
170
     0
171
     0
290
     0
174
     0
 93
        1
 44
0.0
173
     0
291
     1
 45
0.0
  0
VISUALSTYLE
  5
11E2
102
{ACAD_REACTORS
330
11D6
102
}
330
11D6
100
AcDbVisualStyle
  2
Brighten
 70
    12
 71
     2
 72
     2
 73
     0
 90
        0
 40
-0.6
 41
-30.0
 62
     5
 63
     7
 74
     1
 91
        4
 64
     7
 65
   257
 75
     1
175
     1
 42
1.0
 92
        8
 66
     7
 43
1.0
 76
     1
 77
     6
 78
     2
 67
     7
 79
     5
170
     0
171
     0
290
     0
174
     0
 93
        1
 44
50.0
173
     0
291
     1
 45
0.0
  0
VISUALSTYLE
  5
11E6
102
{ACAD_REACTORS
330
11D6
102
}
330
11D6
100
AcDbVisualStyle
  2
ColorChange
 70
    16
 71
     2
 72
     2
 73
     3
 90
        0
 40
-0.6
 41
-30.0
 62
     5
 63
     8
 74
     1
 91
        4
 64
     7
 65
   257
 75
     1
175
     1
 42
1.0
 92
        8
 66
     8
 43
1.0
 76
     1
 77
     6
 78
     2
 67
     7
 79
     5
170
     0
171
     0
290
     0
174
     0
 93
        1
 44
0.0
173
     0
291
     1
 45
0.0
  0
VISUALSTYLE
  5
11DF
102
{ACAD_REACTORS
330
11D6
102
}
330
11D6
100
AcDbVisualStyle
  2
Conceptual
 70
     9
 71
     3
 72
     2
 73
     0
 90
        0
 40
-0.6
 41
-30.0
 62
     5
 63
     7
 74
     2
 91
        2
 64
     7
 65
   257
 75
     1
175
     1
 42
40.0
 92
        8
 66
     7
 43
1.0
 76
     1
 77
     6
 78
     2
 67
     7
 79
     3
170
     0
171
     0
290
     0
174
     0
 93
        1
 44
0.0
173
     0
291
     0
 45
0.0
  0
VISUALSTYLE
  5
11E1
102
{ACAD_REACTORS
330
11D6
102
}
330
11D6
100
AcDbVisualStyle
  2
Dim
 70
    11
 71
     2
 72
     2
 73
     0
 90
        0
 40
-0.6
 41
-30.0
 62
     5
 63
     7
 74
     1
 91
        4
 64
     7
 65
   257
 75
     1
175
     1
 42
1.0
 92
        8
 66
     7
 43
1.0
 76
     1
 77
     6
 78
     2
 67
     7
 79
     5
170
     0
171
     0
290
     0
174
     0
 93
        1
 44
-50.0
173
     0
291
     1
 45
0.0
  0
VISUALSTYLE
  5
11E5
102
{ACAD_REACTORS
330
11D6
102
}
330
11D6
100
AcDbVisualStyle
  2
Facepattern
 70
    15
 71
     2
 72
     2
 73
     0
 90
        0
 40
-0.6
 41
-30.0
 62
     5
 63
     7
 74
     1
 91
        4
 64
     7
 65
   257
 75
     1
175
     1
 42
1.0
 92
        8
 66
     7
 43
1.0
 76
     1
 77
     6
 78
     2
 67
     7
 79
     5
170
     0
171
     0
290
     0
174
     0
 93
        1
 44
0.0
173
     0
291
     1
 45
0.0
  0
VISUALSTYLE
  5
11D7
102
{ACAD_REACTORS
330
11D6
102
}
330
11D6
100
AcDbVisualStyle
  2
Flat
 70
     0
 71
     2
 72
     1
 73
     1
 90
        2
 40
-0.6
 41
30.0
 62
     5
 63
     7
 74
     0
 91
        4
 64
     7
 65
   257
 75
     1
175
     1
 42
1.0
 92
        8
 66
     7
 43
1.0
 76
     1
 77
     6
 78
     2
 67
     7
 79
     5
170
     0
171
     0
290
     0
174
     0
 93
       13
 44
0.0
173
     0
291
     1
 45
0.0
  0
VISUALSTYLE
  5
11D8
102
{ACAD_REACTORS
330
11D6
102
}
330
11D6
100
AcDbVisualStyle
  2
FlatWithEdges
 70
     1
 71
     2
 72
     1
 73
     1
 90
        2
 40
-0.6
 41
30.0
 62
     5
 63
     7
 74
     1
 91
        4
 64
     7
 65
   257
 75
     1
175
     1
 42
1.0
 92
        0
 66
   257
 43
1.0
 76
     1
 77
     6
 78
     2
 67
     7
 79
     5
170
     0
171
     0
290
     0
174
     0
 93
       13
 44
0.0
173
     0
291
     1
 45
0.0
  0
VISUALSTYLE
  5
11D9
102
{ACAD_REACTORS
330
11D6
102
}
330
11D6
100
AcDbVisualStyle
  2
Gouraud
 70
     2
 71
     2
 72
     2
 73
     1
 90
        2
 40
-0.6
 41
30.0
 62
     5
 63
     7
 74
     0
 91
        4
 64
     7
 65
   257
 75
     1
175
     1
 42
1.0
 92
        0
 66
     7
 43
1.0
 76
     1
 77
     6
 78
     2
 67
     7
 79
     5
170
     0
171
     0
290
     0
174
     0
 93
       13
 44
0.0
173
     0
291
     1
 45
0.0
  0
VISUALSTYLE
  5
11DA
102
{ACAD_REACTORS
330
11D6
102
}
330
11D6
100
AcDbVisualStyle
  2
GouraudWithEdges
 70
     3
 71
     2
 72
     2
 73
     1
 90
        2
 40
-0.6
 41
30.0
 62
     5
 63
     7
 74
     1
 91
        4
 64
     7
 65
   257
 75
     1
175
     1
 42
1.0
 92
        0
 66
   257
 43
1.0
 76
     1
 77
     6
 78
     2
 67
     7
 79
     5
170
     0
171
     0
290
     0
174
     0
 93
       13
 44
0.0
173
     0
291
     1
 45
0.0
  0
VISUALSTYLE
  5
11E4
102
{ACAD_REACTORS
330
11D6
102
}
330
11D6
100
AcDbVisualStyle
  2
Linepattern
 70
    14
 71
     2
 72
     2
 73
     0
 90
        0
 40
-0.6
 41
-30.0
 62
     5
 63
     7
 74
     1
 91
        4
 64
     7
 65
   257
 75
     7
175
     7
 42
1.0
 92
        8
 66
     7
 43
1.0
 76
     1
 77
     6
 78
     2
 67
     7
 79
     5
170
     0
171
     0
290
     0
174
     0
 93
        1
 44
0.0
173
     0
291
     1
 45
0.0
  0
VISUALSTYLE
  5
11E0
102
{ACAD_REACTORS
330
11D6
102
}
330
11D6
100
AcDbVisualStyle
  2
Realistic
 70
     8
 71
     2
 72
     2
 73
     0
 90
        0
 40
-0.6
 41
-30.0
 62
     5
 63
     7
 74
     1
 91
        0
 64
     7
 65
   257
 75
     1
175
     1
 42
1.0
 92
        8
 66
     8
 43
1.0
 76
     1
 77
     6
 78
     2
 67
     7
 79
     5
170
     0
171
     0
290
     0
174
     0
 93
       13
 44
0.0
173
     0
291
     0
 45
0.0
  0
VISUALSTYLE
  5
11E3
102
{ACAD_REACTORS
330
11D6
102
}
330
11D6
100
AcDbVisualStyle
  2
Thicken
 70
    13
 71
     2
 72
     2
 73
     0
 90
        0
 40
-0.6
 41
-30.0
 62
     5
 63
     7
 74
     1
 91
        4
 64
     7
 65
   257
 75
     1
175
     1
 42
1.0
 92
       12
 66
     7
 43
1.0
 76
     1
 77
     6
 78
     2
 67
     7
 79
     5
170
     0
171
     0
290
     0
174
     0
 93
        1
 44
0.0
173
     0
291
     1
 45
0.0
  0
DICTIONARYVAR
  5
1221
102
{ACAD_REACTORS
330
1220
102
}
330
1220
100
DictionaryVariables
280
     0
  1
STANDARD
  0
DICTIONARYVAR
  5
135B
102
{ACAD_REACTORS
330
1220
102
}
330
1220
100
DictionaryVariables
280
     0
  1
1
  0
DICTIONARYVAR
  5
135A
102
{ACAD_REACTORS
330
1220
102
}
330
1220
100
DictionaryVariables
280
     0
  1
0
  0
DICTIONARYVAR
  5
1359
102
{ACAD_REACTORS
330
1220
102
}
330
1220
100
DictionaryVariables
280
     0
  1
127
  0
ENDSEC
  0
EOF
