  0
SECTION
  2
HEADER
  9
$ACADVER
  1
AC1021
  9
$ACADMAINTVER
 70
     1
  9
$DWGCODEPAGE
  3
ANSI_1252
  9
$LASTSAVEDBY
  1
Don.McKinney
  9
$INSBASE
 10
0.0
 20
0.0
 30
0.0
  9
$EXTMIN
 10
160.8289246737265
 20
86.78372572868363
 30
-0.0000000000000058
  9
$EXTMAX
 10
358.087924379904
 20
229.8507808158448
 30
0.0000000000000104
  9
$LIMMIN
 10
0.0
 20
0.0
  9
$LIMMAX
 10
12.0
 20
9.0
  9
$ORTHOMODE
 70
     1
  9
$REGENMODE
 70
     1
  9
$FILLMODE
 70
     1
  9
$QTEXTMODE
 70
     0
  9
$MIRRTEXT
 70
     0
  9
$LTSCALE
 40
2.0
  9
$ATTMODE
 70
     1
  9
$TEXTSIZE
 40
1.0
  9
$TRACEWID
 40
0.05
  9
$TEXTSTYLE
  7
ROMANS
  9
$CLAYER
  8
0
  9
$CELTYPE
  6
BYLAYER
  9
$CECOLOR
 62
   256
  9
$CELTSCALE
 40
1.0
  9
$DISPSILH
 70
     0
  9
$DIMSCALE
 40
22.0
  9
$DIMASZ
 40
0.0625
  9
$DIMEXO
 40
0.0625
  9
$DIMDLI
 40
0.375
  9
$DIMRND
 40
0.0
  9
$DIMDLE
 40
0.0
  9
$DIMEXE
 40
0.0625
  9
$DIMTP
 40
0.0
  9
$DIMTM
 40
0.0
  9
$DIMTXT
 40
0.0625
  9
$DIMCEN
 40
0.0625
  9
$DIMTSZ
 40
0.0
  9
$DIMTOL
 70
     0
  9
$DIMLIM
 70
     0
  9
$DIMTIH
 70
     1
  9
$DIMTOH
 70
     1
  9
$DIMSE1
 70
     0
  9
$DIMSE2
 70
     0
  9
$DIMTAD
 70
     0
  9
$DIMZIN
 70
     3
  9
$DIMBLK
  1

  9
$DIMASO
 70
     1
  9
$DIMSHO
 70
     1
  9
$DIMPOST
  1

  9
$DIMAPOST
  1

  9
$DIMALT
 70
     0
  9
$DIMALTD
 70
     2
  9
$DIMALTF
 40
25.4
  9
$DIMLFAC
 40
1.0
  9
$DIMTOFL
 70
     0
  9
$DIMTVP
 40
0.0
  9
$DIMTIX
 70
     0
  9
$DIMSOXD
 70
     0
  9
$DIMSAH
 70
     0
  9
$DIMBLK1
  1

  9
$DIMBLK2
  1

  9
$DIMSTYLE
  2
STANDARD
  9
$DIMCLRD
 70
     0
  9
$DIMCLRE
 70
     0
  9
$DIMCLRT
 70
     0
  9
$DIMTFAC
 40
1.0
  9
$DIMGAP
 40
0.0625
  9
$DIMJUST
 70
     0
  9
$DIMSD1
 70
     0
  9
$DIMSD2
 70
     0
  9
$DIMTOLJ
 70
     1
  9
$DIMTZIN
 70
     0
  9
$DIMALTZ
 70
     0
  9
$DIMALTTZ
 70
     0
  9
$DIMUPT
 70
     0
  9
$DIMDEC
 70
     4
  9
$DIMTDEC
 70
     4
  9
$DIMALTU
 70
     2
  9
$DIMALTTD
 70
     2
  9
$DIMTXSTY
  7
ROMANS
  9
$DIMAUNIT
 70
     0
  9
$DIMADEC
 70
     0
  9
$DIMALTRND
 40
0.0
  9
$DIMAZIN
 70
     0
  9
$DIMDSEP
 70
    46
  9
$DIMATFIT
 70
     3
  9
$DIMFRAC
 70
     2
  9
$DIMLDRBLK
  1

  9
$DIMLUNIT
 70
     4
  9
$DIMLWD
 70
    -2
  9
$DIMLWE
 70
    -2
  9
$DIMTMOVE
 70
     0
  9
$DIMFXL
 40
1.0
  9
$DIMFXLON
 70
     0
  9
$DIMJOGANG
 40
0.7853981633974483
  9
$DIMTFILL
 70
     0
  9
$DIMTFILLCLR
 70
     0
  9
$DIMARCSYM
 70
     0
  9
$DIMLTYPE
  6

  9
$DIMLTEX1
  6

  9
$DIMLTEX2
  6

  9
$LUNITS
 70
     4
  9
$LUPREC
 70
     4
  9
$SKETCHINC
 40
0.1
  9
$FILLETRAD
 40
0.5
  9
$AUNITS
 70
     0
  9
$AUPREC
 70
     0
  9
$MENU
  1
acad
  9
$ELEVATION
 40
0.0
  9
$PELEVATION
 40
0.0
  9
$THICKNESS
 40
0.0
  9
$LIMCHECK
 70
     0
  9
$CHAMFERA
 40
0.0
  9
$CHAMFERB
 40
0.0
  9
$CHAMFERC
 40
0.0
  9
$CHAMFERD
 40
0.0
  9
$SKPOLY
 70
     0
  9
$TDCREATE
 40
2450857.456659028
  9
$TDUCREATE
 40
2450857.664992362
  9
$TDUPDATE
 40
2458451.423501887
  9
$TDUUPDATE
 40
2458451.631835220
  9
$TDINDWG
 40
1.0403588542
  9
$TDUSRTIMER
 40
1.0403588542
  9
$USRTIMER
 70
     1
  9
$ANGBASE
 50
0.0
  9
$ANGDIR
 70
     0
  9
$PDMODE
 70
    33
  9
$PDSIZE
 40
0.0
  9
$PLINEWID
 40
0.0
  9
$SPLFRAME
 70
     0
  9
$SPLINETYPE
 70
     6
  9
$SPLINESEGS
 70
     8
  9
$HANDSEED
  5
6347
  9
$SURFTAB1
 70
     6
  9
$SURFTAB2
 70
     6
  9
$SURFTYPE
 70
     6
  9
$SURFU
 70
     6
  9
$SURFV
 70
     6
  9
$UCSBASE
  2

  9
$UCSNAME
  2

  9
$UCSORG
 10
0.0
 20
0.0
 30
0.0
  9
$UCSXDIR
 10
1.0
 20
0.0
 30
0.0
  9
$UCSYDIR
 10
0.0
 20
1.0
 30
0.0
  9
$UCSORTHOREF
  2

  9
$UCSORTHOVIEW
 70
     0
  9
$UCSORGTOP
 10
0.0
 20
0.0
 30
0.0
  9
$UCSORGBOTTOM
 10
0.0
 20
0.0
 30
0.0
  9
$UCSORGLEFT
 10
0.0
 20
0.0
 30
0.0
  9
$UCSORGRIGHT
 10
0.0
 20
0.0
 30
0.0
  9
$UCSORGFRONT
 10
0.0
 20
0.0
 30
0.0
  9
$UCSORGBACK
 10
0.0
 20
0.0
 30
0.0
  9
$PUCSBASE
  2

  9
$PUCSNAME
  2

  9
$PUCSORG
 10
0.0
 20
0.0
 30
0.0
  9
$PUCSXDIR
 10
1.0
 20
0.0
 30
0.0
  9
$PUCSYDIR
 10
0.0
 20
1.0
 30
0.0
  9
$PUCSORTHOREF
  2

  9
$PUCSORTHOVIEW
 70
     0
  9
$PUCSORGTOP
 10
0.0
 20
0.0
 30
0.0
  9
$PUCSORGBOTTOM
 10
0.0
 20
0.0
 30
0.0
  9
$PUCSORGLEFT
 10
0.0
 20
0.0
 30
0.0
  9
$PUCSORGRIGHT
 10
0.0
 20
0.0
 30
0.0
  9
$PUCSORGFRONT
 10
0.0
 20
0.0
 30
0.0
  9
$PUCSORGBACK
 10
0.0
 20
0.0
 30
0.0
  9
$USERI1
 70
     0
  9
$USERI2
 70
     0
  9
$USERI3
 70
     0
  9
$USERI4
 70
     0
  9
$USERI5
 70
     0
  9
$USERR1
 40
0.0
  9
$USERR2
 40
0.0
  9
$USERR3
 40
0.0
  9
$USERR4
 40
0.0
  9
$USERR5
 40
0.0
  9
$WORLDVIEW
 70
     1
  9
$SHADEDGE
 70
     3
  9
$SHADEDIF
 70
    70
  9
$TILEMODE
 70
     1
  9
$MAXACTVP
 70
    16
  9
$PINSBASE
 10
0.0
 20
0.0
 30
0.0
  9
$PLIMCHECK
 70
     0
  9
$PEXTMIN
 10
1.000000000000000E+20
 20
1.000000000000000E+20
 30
1.000000000000000E+20
  9
$PEXTMAX
 10
-1.000000000000000E+20
 20
-1.000000000000000E+20
 30
-1.000000000000000E+20
  9
$PLIMMIN
 10
0.0
 20
0.0
  9
$PLIMMAX
 10
12.0
 20
9.0
  9
$UNITMODE
 70
     0
  9
$VISRETAIN
 70
     0
  9
$PLINEGEN
 70
     0
  9
$PSLTSCALE
 70
     1
  9
$TREEDEPTH
 70
  3020
  9
$CMLSTYLE
  2
STANDARD
  9
$CMLJUST
 70
     0
  9
$CMLSCALE
 40
1.0
  9
$PROXYGRAPHICS
 70
     1
  9
$MEASUREMENT
 70
     0
  9
$CELWEIGHT
370
    -1
  9
$ENDCAPS
280
     0
  9
$JOINSTYLE
280
     0
  9
$LWDISPLAY
290
     0
  9
$INSUNITS
 70
     0
  9
$HYPERLINKBASE
  1

  9
$STYLESHEET
  1
acad.ctb
  9
$XEDIT
290
     1
  9
$CEPSNTYPE
380
     0
  9
$PSTYLEMODE
290
     1
  9
$FINGERPRINTGUID
  2
{B52FBEAF-3B17-11D6-8735-0010B50CF566}
  9
$VERSIONGUID
  2
{938C50B9-09C3-4C34-88F6-BF83E57DF14B}
  9
$EXTNAMES
290
     1
  9
$PSVPSCALE
 40
0.0
  9
$OLESTARTUP
290
     0
  9
$SORTENTS
280
    96
  9
$INDEXCTL
280
     0
  9
$HIDETEXT
280
     0
  9
$XCLIPFRAME
290
     0
  9
$HALOGAP
280
     0
  9
$OBSCOLOR
 70
   257
  9
$OBSLTYPE
280
     0
  9
$INTERSECTIONDISPLAY
280
     0
  9
$INTERSECTIONCOLOR
 70
   257
  9
$DIMASSOC
280
     1
  9
$PROJECTNAME
  1

  9
$CAMERADISPLAY
290
     0
  9
$LENSLENGTH
 40
50.0
  9
$CAMERAHEIGHT
 40
0.0
  9
$STEPSPERSEC
 40
2.0
  9
$STEPSIZE
 40
6.0
  9
$3DDWFPREC
 40
2.0
  9
$PSOLWIDTH
 40
0.25
  9
$PSOLHEIGHT
 40
4.0
  9
$LOFTANG1
 40
1.570796326794896
  9
$LOFTANG2
 40
1.570796326794896
  9
$LOFTMAG1
 40
0.0
  9
$LOFTMAG2
 40
0.0
  9
$LOFTPARAM
 70
     7
  9
$LOFTNORMALS
280
     1
  9
$LATITUDE
 40
37.795
  9
$LONGITUDE
 40
-122.394
  9
$NORTHDIRECTION
 40
0.0
  9
$TIMEZONE
 70
 -8000
  9
$LIGHTGLYPHDISPLAY
280
     1
  9
$TILEMODELIGHTSYNCH
280
     1
  9
$CMATERIAL
347
4E4E
  9
$SOLIDHIST
280
     1
  9
$SHOWHIST
280
     1
  9
$DWFFRAME
280
     2
  9
$DGNFRAME
280
     0
  9
$REALWORLDSCALE
290
     1
  9
$INTERFERECOLOR
 62
     1
  9
$INTERFEREOBJVS
345
4E5B
  9
$INTERFEREVPVS
346
4E58
  9
$CSHADOW
280
     0
  9
$SHADOWPLANELOCATION
 40
0.0
  0
ENDSEC
  0
SECTION
  2
CLASSES
  0
CLASS
  1
ACDBDICTIONARYWDFLT
  2
AcDbDictionaryWithDefault
  3
ObjectDBX Classes
 90
        0
 91
        1
280
     0
281
     0
  0
CLASS
  1
DICTIONARYVAR
  2
AcDbDictionaryVar
  3
ObjectDBX Classes
 90
        0
 91
        4
280
     0
281
     0
  0
CLASS
  1
MATERIAL
  2
AcDbMaterial
  3
ObjectDBX Classes
 90
     1024
 91
        3
280
     0
281
     0
  0
CLASS
  1
VISUALSTYLE
  2
AcDbVisualStyle
  3
ObjectDBX Classes
 90
     4095
 91
       16
280
     0
281
     0
  0
CLASS
  1
TABLESTYLE
  2
AcDbTableStyle
  3
ObjectDBX Classes
 90
     4095
 91
        1
280
     0
281
     0
  0
CLASS
  1
EXACTERMXREFMAP
  2
ExAcTermXrefMap
  3
EXAC_SERVICE
 90
     1025
 91
        0
280
     0
281
     0
  0
CLASS
  1
NPOCOLLECTION
  2
AcDbImpNonPersistentObjectsCollection
  3
ObjectDBX Classes
 90
     1153
 91
        0
280
     0
281
     0
  0
CLASS
  1
EXACXREFPANELOBJECT
  2
ExAcXREFPanelObject
  3
EXAC_ESW
 90
     1025
 91
        0
280
     0
281
     0
  0
CLASS
  1
SORTENTSTABLE
  2
AcDbSortentsTable
  3
ObjectDBX Classes
 90
        0
 91
        1
280
     0
281
     0
  0
ENDSEC
  0
SECTION
  2
TABLES
  0
TABLE
  2
VPORT
  5
8
102
{ACAD_XDICTIONARY
360
62D4
102
}
330
0
100
AcDbSymbolTable
 70
     1
  0
VPORT
  5
4E4B
330
8
100
AcDbSymbolTableRecord
100
AcDbViewportTableRecord
  2
*Active
 70
     0
 10
0.0
 20
0.0
 11
1.0
 21
1.0
 12
259.4778264789737
 22
158.3211898371899
 13
0.0
 23
0.0
 14
1.0
 24
1.0
 15
0.0
 25
0.0
 16
0.0
 26
0.0
 36
1.0
 17
0.0
 27
0.0
 37
0.0
 40
144.0579945112451
 41
2.064994298745724
 42
50.0
 43
0.0
 44
0.0
 50
0.0
 51
0.0
 71
     0
 72
   100
 73
     1
 74
     0
 75
     0
 76
     0
 77
     0
 78
     1
281
     0
 65
     1
110
0.0
120
0.0
130
0.0
111
1.0
121
0.0
131
0.0
112
0.0
122
1.0
132
0.0
 79
     0
146
0.0
348
4E57
 60
     3
 61
     5
292
     1
282
     1
141
0.0
142
0.0
 63
   250
421
  3355443
  0
ENDTAB
  0
TABLE
  2
LTYPE
  5
5
330
0
100
AcDbSymbolTable
 70
     3
  0
LTYPE
  5
12
330
5
100
AcDbSymbolTableRecord
100
AcDbLinetypeTableRecord
  2
BYBLOCK
 70
     0
  3

 72
    65
 73
     0
 40
0.0
  0
LTYPE
  5
13
330
5
100
AcDbSymbolTableRecord
100
AcDbLinetypeTableRecord
  2
BYLAYER
 70
     0
  3

 72
    65
 73
     0
 40
0.0
  0
LTYPE
  5
14
330
5
100
AcDbSymbolTableRecord
100
AcDbLinetypeTableRecord
  2
CONTINUOUS
 70
     0
  3
Solid line
 72
    65
 73
     0
 40
0.0
  0
LTYPE
  5
27C2
330
5
100
AcDbSymbolTableRecord
100
AcDbLinetypeTableRecord
  2
HIDDEN
 70
     0
  3
Hidden __ __ __ __ __ __ __ __ __ __ __ __ __ _
 72
    65
 73
     2
 40
0.375
 49
0.25
 74
     0
 49
-0.125
 74
     0
  0
LTYPE
  5
5949
330
5
100
AcDbSymbolTableRecord
100
AcDbLinetypeTableRecord
  2
DASHED
 70
     0
  3
__ __ __ __ __ __ __ __ __ __ __ __ __ __ __ __
 72
    65
 73
     2
 40
0.75
 49
0.5
 74
     0
 49
-0.25
 74
     0
  0
ENDTAB
  0
TABLE
  2
LAYER
  5
2
102
{ACAD_XDICTIONARY
360
5029
102
}
330
0
100
AcDbSymbolTable
 70
     4
  0
LAYER
  5
F
330
2
100
AcDbSymbolTableRecord
100
AcDbLayerTableRecord
  2
0
 70
     0
 62
     7
  6
CONTINUOUS
370
    -3
390
1E6C
347
4E50
  0
LAYER
  5
45
330
2
100
AcDbSymbolTableRecord
100
AcDbLayerTableRecord
  2
DEFPOINTS
 70
     0
 62
     7
  6
CONTINUOUS
290
     0
370
    -3
390
1E6C
347
4E50
  0
LAYER
  5
385D
330
2
100
AcDbSymbolTableRecord
100
AcDbLayerTableRecord
  2
Submittal
 70
     0
 62
     7
  6
CONTINUOUS
370
    -3
390
1E6C
347
4E50
  0
LAYER
  5
385E
330
2
100
AcDbSymbolTableRecord
100
AcDbLayerTableRecord
  2
Installation
 70
     0
 62
     7
  6
CONTINUOUS
370
    -3
390
1E6C
347
4E50
  0
ENDTAB
  0
TABLE
  2
STYLE
  5
3
330
0
100
AcDbSymbolTable
 70
     7
  0
STYLE
  5
10
330
3
100
AcDbSymbolTableRecord
100
AcDbTextStyleTableRecord
  2
STANDARD
 70
     0
 40
0.0
 41
1.0
 50
0.0
 71
     0
 42
0.2
  3
txt
  4

  0
STYLE
  5
3B
330
3
100
AcDbSymbolTableRecord
100
AcDbTextStyleTableRecord
  2
ROMANS
 70
     0
 40
0.0
 41
1.0
 50
0.0
 71
     0
 42
1.0
  3
romans
  4

  0
STYLE
  5
27C1
330
3
100
AcDbSymbolTableRecord
100
AcDbTextStyleTableRecord
  2

 70
     1
 40
0.0
 41
1.0
 50
0.0
 71
     0
 42
1.0
  3
ltypeshp.shx
  4

  0
STYLE
  5
594A
330
3
100
AcDbSymbolTableRecord
100
AcDbTextStyleTableRecord
  2
STYLE1
 70
     0
 40
0.0
 41
1.0
 50
0.0
 71
     0
 42
3.0954
  3
C:\Program Files\AutoCAD LT\romanc.shx
  4

  0
STYLE
  5
594B
330
3
100
AcDbSymbolTableRecord
100
AcDbTextStyleTableRecord
  2
CAT_BORDER$0$ROMANS
 70
     0
 40
0.0
 41
1.0
 50
0.0
 71
     0
 42
1.768799999999999
  3
romans
  4

  0
STYLE
  5
594C
330
3
100
AcDbSymbolTableRecord
100
AcDbTextStyleTableRecord
  2
CAT_BORDER$0$STYLE1
 70
     0
 40
0.0
 41
1.0
 50
0.0
 71
     0
 42
3.0954
  3
C:\Program Files\AutoCAD LT\romanc.shx
  4

  0
ENDTAB
  0
TABLE
  2
VIEW
  5
6
330
0
100
AcDbSymbolTable
 70
     2
  0
VIEW
  5
37FC
330
6
100
AcDbSymbolTableRecord
100
AcDbViewTableRecord
  2
SUBMITTAL-DWG
 70
     0
 40
143.4375
 10
49.79603730889044
 20
158.1260430106014
 41
185.625
 11
0.0
 21
0.0
 31
1.0
 12
0.0
 22
0.0
 32
0.0
 42
50.0
 43
0.0
 44
0.0
 50
0.0
 71
     0
281
     0
 72
     1
110
0.0
120
0.0
130
0.0
111
1.0
121
0.0
131
0.0
112
0.0
122
1.0
132
0.0
 79
     0
146
0.0
 73
     0
348
4E57
  0
VIEW
  5
37FD
330
6
100
AcDbSymbolTableRecord
100
AcDbViewTableRecord
  2
WORKORDER-DWG
 70
     0
 40
129.45234375
 10
242.7297038670001
 20
165.1186211356014
 41
167.5265624999999
 11
0.0
 21
0.0
 31
1.0
 12
0.0
 22
0.0
 32
0.0
 42
50.0
 43
0.0
 44
0.0
 50
0.0
 71
     0
281
     0
 72
     1
110
0.0
120
0.0
130
0.0
111
1.0
121
0.0
131
0.0
112
0.0
122
1.0
132
0.0
 79
     0
146
0.0
 73
     0
348
4E57
  0
ENDTAB
  0
TABLE
  2
UCS
  5
7
330
0
100
AcDbSymbolTable
 70
     0
  0
ENDTAB
  0
TABLE
  2
APPID
  5
9
330
0
100
AcDbSymbolTable
 70
     3
  0
APPID
  5
11
330
9
100
AcDbSymbolTableRecord
100
AcDbRegAppTableRecord
  2
ACAD
 70
     0
  0
APPID
  5
4F3B
330
9
100
AcDbSymbolTableRecord
100
AcDbRegAppTableRecord
  2
ACAD_EXEMPT_FROM_CAD_STANDARDS
 70
     0
  0
APPID
  5
594D
330
9
100
AcDbSymbolTableRecord
100
AcDbRegAppTableRecord
  2
ACAD_PSEXT
 70
     0
  0
ENDTAB
  0
TABLE
  2
DIMSTYLE
  5
A
330
0
100
AcDbSymbolTable
 70
     2
100
AcDbDimStyleTable
 71
     1
340
48E
  0
DIMSTYLE
105
48E
102
{ACAD_REACTORS
330
2F14
330
52A3
330
534E
330
538E
330
53DE
330
53E2
102
}
330
A
100
AcDbSymbolTableRecord
100
AcDbDimStyleTableRecord
  2
STANDARD
 70
     0
 40
22.0
 41
0.0625
 43
0.375
 44
0.0625
 78
     3
140
0.0625
141
0.0625
147
0.0625
276
     2
277
     4
340
3B
  0
ENDTAB
  0
TABLE
  2
BLOCK_RECORD
  5
1
330
0
100
AcDbSymbolTable
 70
    13
  0
BLOCK_RECORD
  5
18
102
{ACAD_XDICTIONARY
360
4F43
102
}
330
1
100
AcDbSymbolTableRecord
100
AcDbBlockTableRecord
  2
*MODEL_SPACE
340
1E6F
 70
     0
280
     1
281
     0
  0
BLOCK_RECORD
  5
15
330
1
100
AcDbSymbolTableRecord
100
AcDbBlockTableRecord
  2
*PAPER_SPACE
340
1E70
 70
     0
280
     1
281
     0
  0
BLOCK_RECORD
  5
26
330
1
100
AcDbSymbolTableRecord
100
AcDbBlockTableRecord
  2
LINETYPE
340
0
102
{BLKREFS
331
3E0
331
438
331
439
331
45D
331
B8A
331
1796
331
34BF
331
34C5
331
34C6
331
34D2
331
34D4
331
34E7
331
3639
331
363C
331
363D
331
363E
331
363F
331
3641
331
3B4D
331
3B52
331
3B53
331
3B5F
331
3B61
331
3B74
331
3E9D
331
3EA0
331
3EA1
331
3EA2
331
3EA3
331
3EA5
331
3EA7
331
3EAA
331
3EAB
331
3EAC
331
3EAD
331
3EAF
331
4493
331
4498
331
4499
331
44A4
331
44A6
331
44B9
331
4662
331
4665
331
4666
331
4667
331
4668
331
466A
331
466C
331
466F
331
4670
331
4671
331
4672
331
4674
331
46BB
331
46BE
331
46BF
331
46C0
331
46C1
331
46C3
331
46E3
331
46E6
331
46E7
331
46E8
331
46E9
331
46EB
331
46ED
331
46F0
331
46F1
331
46F2
331
46F3
331
46F5
102
}
 70
     0
280
     1
281
     0
  0
BLOCK_RECORD
  5
D3D
330
1
100
AcDbSymbolTableRecord
100
AcDbBlockTableRecord
  2
BORDER-T
340
0
102
{BLKREFS
331
D4E
102
}
 70
     0
280
     1
281
     0
  0
BLOCK_RECORD
  5
2F15
330
1
100
AcDbSymbolTableRecord
100
AcDbBlockTableRecord
  2
*D2
340
0
 70
     0
280
     1
281
     0
  0
BLOCK_RECORD
  5
48F8
330
1
100
AcDbSymbolTableRecord
100
AcDbBlockTableRecord
  2
GATEHINGE
340
0
 70
     0
280
     1
281
     0
  0
BLOCK_RECORD
  5
54C1
330
1
100
AcDbSymbolTableRecord
100
AcDbBlockTableRecord
  2
*D4
340
0
 70
     0
280
     1
281
     0
  0
BLOCK_RECORD
  5
54CE
330
1
100
AcDbSymbolTableRecord
100
AcDbBlockTableRecord
  2
*D5
340
0
 70
     0
280
     1
281
     0
  0
BLOCK_RECORD
  5
54DB
330
1
100
AcDbSymbolTableRecord
100
AcDbBlockTableRecord
  2
*D6
340
0
 70
     0
280
     1
281
     0
  0
BLOCK_RECORD
  5
54E8
330
1
100
AcDbSymbolTableRecord
100
AcDbBlockTableRecord
  2
*D7
340
0
 70
     0
280
     1
281
     0
  0
BLOCK_RECORD
  5
54F5
330
1
100
AcDbSymbolTableRecord
100
AcDbBlockTableRecord
  2
*D8
340
0
 70
     0
280
     1
281
     0
  0
BLOCK_RECORD
  5
5643
330
1
100
AcDbSymbolTableRecord
100
AcDbBlockTableRecord
  2
CAT_BORDER
340
0
 70
     0
280
     1
281
     0
  0
BLOCK_RECORD
  5
56F9
330
1
100
AcDbSymbolTableRecord
100
AcDbBlockTableRecord
  2
*X10
340
0
102
{BLKREFS
331
5650
331
6228
102
}
 70
     0
280
     1
281
     0
  0
BLOCK_RECORD
  5
5946
330
1
100
AcDbSymbolTableRecord
100
AcDbBlockTableRecord
  2
CAT_BORDER$0$LINETYPE
340
0
102
{BLKREFS
331
56B5
331
56B6
331
628D
331
628E
102
}
 70
     0
280
     1
281
     0
  0
ENDTAB
  0
ENDSEC
  0
SECTION
  2
BLOCKS
  0
BLOCK
  5
48
330
18
100
AcDbEntity
  8
0
100
AcDbBlockBegin
  2
*MODEL_SPACE
 70
     0
 10
0.0
 20
0.0
 30
0.0
  3
*MODEL_SPACE
  1

  0
ENDBLK
  5
49
330
18
100
AcDbEntity
  8
0
100
AcDbBlockEnd
  0
BLOCK
  5
46
330
15
100
AcDbEntity
 67
     1
  8
0
100
AcDbBlockBegin
  2
*PAPER_SPACE
 70
     0
 10
0.0
 20
0.0
 30
0.0
  3
*PAPER_SPACE
  1

  0
ENDBLK
  5
47
330
15
100
AcDbEntity
 67
     1
  8
0
100
AcDbBlockEnd
  0
BLOCK
  5
1D8
330
26
100
AcDbEntity
  8
0
100
AcDbBlockBegin
  2
LINETYPE
 70
     0
 10
0.0
 20
0.0
 30
0.0
  3
LINETYPE
  1

  0
ENDBLK
  5
1D9
330
26
100
AcDbEntity
  8
0
100
AcDbBlockEnd
  0
BLOCK
  5
D4C
330
D3D
100
AcDbEntity
  8
0
100
AcDbBlockBegin
  2
BORDER-T
 70
     2
 10
0.0
 20
0.0
 30
0.0
  3
BORDER-T
  1

  0
ATTDEF
  5
D3E
330
D3D
100
AcDbEntity
  8
0
 62
     5
100
AcDbText
 10
1.270598029493498
 20
16.95296065185261
 30
0.0
 40
2.25
  1

  7
ROMANS
100
AcDbAttributeDefinition
  3
SCALE
  2
SCALE
 70
     0
280
     0
  0
ATTDEF
  5
D3F
330
D3D
100
AcDbEntity
  8
0
100
AcDbText
 10
261.9539163537752
 20
16.97014926946124
 30
0.0
 40
1.7518359375
  1

  7
ROMANS
 72
     4
 11
267.5431072019895
 21
17.84606723821125
 31
0.0
100
AcDbAttributeDefinition
  3
SAVED AS
  2
SAVEDAS
 70
     0
280
     0
  0
ATTDEF
  5
D40
330
D3D
100
AcDbEntity
  8
0
 62
     5
100
AcDbText
 10
66.39640383685495
 20
12.89673285282586
 30
0.0
 40
1.248161764705882
  1

 50
90.0
  7
ROMANS
 72
     4
 11
65.77232295450201
 21
13.4910955979239
 31
0.0
100
AcDbAttributeDefinition
  3
WORK ORDER (X)
  2
X
 70
     0
280
     0
  0
ATTDEF
  5
D41
330
D3D
100
AcDbEntity
  8
0
100
AcDbText
 10
112.9846649640199
 20
11.16830391662092
 30
0.0
 40
1.769029714285714
  1

  7
ROMANS
 72
     1
 11
120.7768196578975
 21
11.16830391662092
 31
0.0
100
AcDbAttributeDefinition
  3
ARCHITECT OR ENGINEER
  2
ARCHORENG
 70
     0
280
     0
  0
ATTDEF
  5
D42
330
D3D
100
AcDbEntity
  8
0
100
AcDbText
 10
109.4466055354485
 20
6.014881478758579
 30
0.0
 40
1.769029714285714
  1

  7
ROMANS
 72
     1
 11
120.7768196578975
 21
6.014881478758579
 31
0.0
100
AcDbAttributeDefinition
  3
PURCHASE ORDER
  2
PURCHASEORDER
 70
     0
280
     0
  0
ATTDEF
  5
D43
330
D3D
100
AcDbEntity
  8
0
100
AcDbText
 10
114.5430959027954
 20
0.8614590408961362
 30
0.0
 40
1.769029714285714
  1
JEB
  7
ROMANS
 72
     1
 11
120.7768196578975
 21
0.8614590408961362
 31
0.0
100
AcDbAttributeDefinition
  3
WHO ARE YOU?
  2
DRAWNBY
 70
     0
280
     0
  0
ATTDEF
  5
D44
330
D3D
100
AcDbEntity
  8
0
100
AcDbText
 10
147.829646841571
 20
6.014881478758579
 30
0.0
 40
1.769029714285714
  1

  7
ROMANS
 72
     1
 11
151.0307482293261
 21
6.014881478758579
 31
0.0
100
AcDbAttributeDefinition
  3
WORK ORDER DATE?
  2
DATE
 70
     0
280
     0
  0
ATTDEF
  5
D45
330
D3D
100
AcDbEntity
  8
0
100
AcDbText
 10
147.829646841571
 20
0.8614590408961362
 30
0.0
 40
1.769029714285714
  1

  7
ROMANS
 72
     1
 11
151.0307482293261
 21
0.8614590408961362
 31
0.0
100
AcDbAttributeDefinition
  3
WHAT IS TODAY'S DATE?
  2
DATE
 70
     0
280
     0
  0
ATTDEF
  5
D46
330
D3D
100
AcDbEntity
  8
0
100
AcDbText
 10
175.430030841571
 20
11.16830391662092
 30
0.0
 40
1.769029714285714
  1

  7
ROMANS
 72
     1
 11
181.2846768007546
 21
11.16830391662092
 31
0.0
100
AcDbAttributeDefinition
  3
PROJECT
  2
PROJECT
 70
     0
280
     0
  0
ATTDEF
  5
D47
330
D3D
100
AcDbEntity
  8
0
100
AcDbText
 10
181.7014737803464
 20
6.014881478758579
 30
0.0
 40
1.769029714285714
  1

  7
ROMANS
 72
     1
 11
189.535748229326
 21
6.014881478758579
 31
0.0
100
AcDbAttributeDefinition
  3
PURCHASER
  2
PURCHASER
 70
     0
280
     0
  0
ATTDEF
  5
D48
330
D3D
100
AcDbEntity
  8
0
100
AcDbText
 10
179.5703399027954
 20
0.8614590408962374
 30
0.0
 40
1.769029714285714
  1

  7
ROMANS
 72
     1
 11
184.0350339436118
 21
0.8614590408962374
 31
0.0
100
AcDbAttributeDefinition
  3
MODEL #
  2
MODEL
 70
     0
280
     0
  0
ATTDEF
  5
D49
330
D3D
100
AcDbEntity
  8
0
100
AcDbText
 10
211.8460167191219
 20
0.8614590408961362
 30
0.0
 40
1.769029714285714
  1
1
  7
ROMANS
 72
     1
 11
214.2889625150403
 21
0.8614590408961362
 31
0.0
100
AcDbAttributeDefinition
  3
QUANTITY
  2
QTY
 70
     0
280
     0
  0
ATTDEF
  5
D4A
330
D3D
100
AcDbEntity
  8
0
100
AcDbText
 10
244.6818234129996
 20
11.16763472788734
 30
0.0
 40
1.769029714285714
  1

  7
ROMANS
 72
     1
 11
247.2932482293261
 21
11.16763472788734
 31
0.0
100
AcDbAttributeDefinition
  3
PRECISION REP
  2
REP
 70
     0
280
     0
  0
ATTDEF
  5
D4B
330
D3D
100
AcDbEntity
  8
0
100
AcDbText
 10
235.9748273066308
 20
3.153238685427304
 30
0.0
 40
3.455136160714285
  1

  7
ROMANS
 72
     1
 11
247.3274175489777
 21
3.153238685427304
 31
0.0
100
AcDbAttributeDefinition
  3
SERIAL #
  2
L010000
 70
     0
280
     0
  0
ENDBLK
  5
D4D
330
D3D
100
AcDbEntity
  8
0
100
AcDbBlockEnd
  0
BLOCK
  5
2F20
330
2F15
100
AcDbEntity
  8
0
100
AcDbBlockBegin
  2
*D2
 70
     1
 10
0.0
 20
0.0
 30
0.0
  3
*D2
  1

  0
LINE
  5
62C1
330
2F15
100
AcDbEntity
  8
Installation
 62
     0
370
    -2
100
AcDbLine
 10
275.6061889639048
 20
153.1551413549383
 30
0.0
 11
269.9870308622755
 21
153.1551413549383
 31
0.0
  0
LINE
  5
62C2
330
2F15
100
AcDbEntity
  8
Installation
 62
     0
370
    -2
100
AcDbLine
 10
275.6061889639048
 20
135.7175620540437
 30
0.0
 11
269.9870308622755
 21
135.7175620540437
 31
0.0
  0
LINE
  5
62C3
330
2F15
100
AcDbEntity
  8
Installation
 62
     0
370
    -2
100
AcDbLine
 10
271.3620308622755
 20
151.7801413549383
 30
0.0
 11
271.3620308622755
 21
146.85897075211
 31
0.0
  0
LINE
  5
62C4
330
2F15
100
AcDbEntity
  8
Installation
 62
     0
370
    -2
100
AcDbLine
 10
271.3620308622755
 20
137.0925620540437
 30
0.0
 11
271.3620308622755
 21
142.013732656872
 31
0.0
  0
SOLID
  5
62C5
330
2F15
100
AcDbEntity
  8
Installation
 62
     0
100
AcDbTrace
 10
271.1328641956088
 20
151.7801413549383
 30
0.0
 11
271.5911975289422
 21
151.7801413549383
 31
0.0
 12
271.3620308622755
 22
153.1551413549383
 32
0.0
 13
271.3620308622755
 23
153.1551413549383
 33
0.0
  0
SOLID
  5
62C6
330
2F15
100
AcDbEntity
  8
Installation
 62
     0
100
AcDbTrace
 10
271.1328641956088
 20
137.0925620540437
 30
0.0
 11
271.5911975289422
 21
137.0925620540437
 31
0.0
 12
271.3620308622755
 22
135.7175620540437
 32
0.0
 13
271.3620308622755
 23
135.7175620540437
 33
0.0
  0
MTEXT
  5
62C7
330
2F15
100
AcDbEntity
  8
Installation
 62
     0
100
AcDbMText
 10
271.3620308622755
 20
144.436351704491
 30
0.0
 40
1.375
 41
0.0
 46
0.0
 71
     5
 72
     1
  1
\A1;18-1/2"
  7
ROMANS
 73
     1
 44
1.0
  0
POINT
  5
62C8
330
2F15
100
AcDbEntity
  8
DEFPOINTS
 62
     0
100
AcDbPoint
 10
276.9811889639048
 20
153.1551413549383
 30
0.0
  0
POINT
  5
62C9
330
2F15
100
AcDbEntity
  8
DEFPOINTS
 62
     0
100
AcDbPoint
 10
276.9811889639048
 20
135.7175620540437
 30
0.0
  0
POINT
  5
62CA
330
2F15
100
AcDbEntity
  8
DEFPOINTS
 62
     0
100
AcDbPoint
 10
271.3620308622755
 20
135.7175620540437
 30
0.0
  0
ENDBLK
  5
2F21
330
2F15
100
AcDbEntity
  8
0
100
AcDbBlockEnd
  0
BLOCK
  5
493B
330
48F8
100
AcDbEntity
  8
0
100
AcDbBlockBegin
  2
GATEHINGE
 70
     0
 10
0.0
 20
0.0
 30
0.0
  3
GATEHINGE
  1

  0
LWPOLYLINE
  5
48F9
330
48F8
100
AcDbEntity
  8
0
100
AcDbPolyline
 90
        4
 70
     1
 43
0.0
 10
0.0
 20
5.4375
 10
2.0
 20
5.4375
 10
2.0
 20
4.4375
 10
0.0
 20
4.4375
  0
LINE
  5
48FA
330
48F8
100
AcDbEntity
  8
0
100
AcDbLine
 10
1.5
 20
5.4375
 30
0.0
 11
1.5
 21
4.4375
 31
0.0
  0
LINE
  5
48FB
330
48F8
100
AcDbEntity
  8
0
100
AcDbLine
 10
0.5
 20
5.4375
 30
0.0
 11
0.5
 21
4.4375
 31
0.0
  0
LWPOLYLINE
  5
48FC
330
48F8
100
AcDbEntity
  8
0
100
AcDbPolyline
 90
        4
 70
     1
 43
0.0
 10
1.5
 20
2.0625
 10
3.5
 20
2.0625
 10
3.5
 20
1.0625
 10
1.5
 20
1.0625
  0
LWPOLYLINE
  5
48FD
330
48F8
100
AcDbEntity
  8
0
100
AcDbPolyline
 90
        4
 70
     1
 43
0.0
 10
0.0
 20
1.0
 10
2.0
 20
1.0
 10
2.0
 20
0.0
 10
0.0
 20
0.0
  0
LINE
  5
48FE
330
48F8
100
AcDbEntity
  8
0
100
AcDbLine
 10
1.5
 20
1.0
 30
0.0
 11
1.5
 21
0.0
 31
0.0
  0
LINE
  5
48FF
330
48F8
100
AcDbEntity
  8
0
100
AcDbLine
 10
0.5
 20
1.0
 30
0.0
 11
0.5
 21
0.0
 31
0.0
  0
LWPOLYLINE
  5
4900
330
48F8
100
AcDbEntity
  8
0
100
AcDbPolyline
 90
        4
 70
     1
 43
0.0
 10
0.625
 20
-0.0625
 10
1.375
 20
-0.0625
 10
1.375
 20
0.0
 10
0.625
 20
0.0
  0
LWPOLYLINE
  5
4901
330
48F8
100
AcDbEntity
  8
0
100
AcDbPolyline
 90
        4
 70
     1
 43
0.0
 10
0.875
 20
-0.1875
 10
1.125
 20
-0.1875
 10
1.125
 20
-0.0625
 10
0.875
 20
-0.0625
  0
LWPOLYLINE
  5
4902
330
48F8
100
AcDbEntity
  8
0
100
AcDbPolyline
 90
        4
 70
     1
 43
0.0
 10
0.625
 20
1.0625
 10
1.375
 20
1.0625
 10
1.375
 20
1.0
 10
0.625
 20
1.0
  0
LWPOLYLINE
  5
4903
330
48F8
100
AcDbEntity
  8
0
100
AcDbPolyline
 90
        4
 70
     1
 43
0.0
 10
0.5
 20
2.0625
 10
1.5
 20
2.0625
 10
1.5
 20
1.0625
 10
0.5
 20
1.0625
  0
LWPOLYLINE
  5
4904
330
48F8
100
AcDbEntity
  8
0
100
AcDbPolyline
 90
        4
 70
     1
 43
0.0
 10
0.625
 20
4.4375
 10
1.375
 20
4.4375
 10
1.375
 20
4.375
 10
0.625
 20
4.375
  0
LINE
  5
4905
330
48F8
100
AcDbEntity
  8
0
100
AcDbLine
 10
1.375
 20
4.375
 30
0.0
 11
0.625
 21
4.242754764468656
 31
0.0
  0
LINE
  5
4906
330
48F8
100
AcDbEntity
  8
0
100
AcDbLine
 10
1.375
 20
4.242754764468656
 30
0.0
 11
0.625
 21
4.110509528937313
 31
0.0
  0
LINE
  5
4907
330
48F8
100
AcDbEntity
  8
0
100
AcDbLine
 10
1.375
 20
4.110509528937313
 30
0.0
 11
0.625
 21
3.97826429340597
 31
0.0
  0
LINE
  5
4908
330
48F8
100
AcDbEntity
  8
0
100
AcDbLine
 10
1.375
 20
3.97826429340597
 30
0.0
 11
0.625
 21
3.846019057874627
 31
0.0
  0
LINE
  5
4909
330
48F8
100
AcDbEntity
  8
0
100
AcDbLine
 10
1.375
 20
3.846019057874627
 30
0.0
 11
0.625
 21
3.713773822343284
 31
0.0
  0
LINE
  5
490A
330
48F8
100
AcDbEntity
  8
0
100
AcDbLine
 10
1.375
 20
3.713773822343284
 30
0.0
 11
0.625
 21
3.581528586811941
 31
0.0
  0
LWPOLYLINE
  5
490B
330
48F8
100
AcDbEntity
  8
0
100
AcDbPolyline
 90
        4
 70
     1
 43
0.0
 10
0.625
 20
2.0625
 10
1.375
 20
2.0625
 10
1.375
 20
2.125
 10
0.625
 20
2.125
  0
LINE
  5
490C
330
48F8
100
AcDbEntity
  8
0
100
AcDbLine
 10
1.375
 20
3.449283351280598
 30
0.0
 11
0.625
 21
3.317038115749255
 31
0.0
  0
LINE
  5
490D
330
48F8
100
AcDbEntity
  8
0
100
AcDbLine
 10
1.375
 20
3.317038115749255
 30
0.0
 11
0.625
 21
3.184792880217912
 31
0.0
  0
LINE
  5
490E
330
48F8
100
AcDbEntity
  8
0
100
AcDbLine
 10
1.375
 20
3.184792880217912
 30
0.0
 11
0.625
 21
3.052547644686569
 31
0.0
  0
LINE
  5
490F
330
48F8
100
AcDbEntity
  8
0
100
AcDbLine
 10
1.375
 20
3.052547644686569
 30
0.0
 11
0.625
 21
2.920302409155226
 31
0.0
  0
LINE
  5
4910
330
48F8
100
AcDbEntity
  8
0
100
AcDbLine
 10
1.375
 20
2.65581193809254
 30
0.0
 11
0.625
 21
2.523566702561197
 31
0.0
  0
LINE
  5
4911
330
48F8
100
AcDbEntity
  8
0
100
AcDbLine
 10
1.375
 20
2.788057173623883
 30
0.0
 11
0.625
 21
2.65581193809254
 31
0.0
  0
LINE
  5
4912
330
48F8
100
AcDbEntity
  8
0
100
AcDbLine
 10
1.375
 20
2.920302409155226
 30
0.0
 11
0.625
 21
2.788057173623883
 31
0.0
  0
LINE
  5
4913
330
48F8
100
AcDbEntity
  8
0
100
AcDbLine
 10
1.375
 20
2.523566702561197
 30
0.0
 11
0.625
 21
2.391321467029854
 31
0.0
  0
LINE
  5
4914
330
48F8
100
AcDbEntity
  8
0
100
AcDbLine
 10
1.375
 20
2.391321467029854
 30
0.0
 11
0.625
 21
2.259076231498511
 31
0.0
  0
LINE
  5
4915
330
48F8
100
AcDbEntity
  8
0
100
AcDbLine
 10
1.375
 20
2.259076231498511
 30
0.0
 11
0.625
 21
2.126830995967168
 31
0.0
  0
LINE
  5
4916
330
48F8
100
AcDbEntity
  8
0
100
AcDbLine
 10
1.375
 20
3.581528586811941
 30
0.0
 11
0.625
 21
3.449283351280598
 31
0.0
  0
LINE
  5
4917
330
48F8
100
AcDbEntity
  8
0
100
AcDbLine
 10
0.625
 20
4.375
 30
0.0
 11
0.625
 21
2.125
 31
0.0
  0
LINE
  5
4918
330
48F8
100
AcDbEntity
  8
0
100
AcDbLine
 10
1.375
 20
4.375
 30
0.0
 11
1.375
 21
2.125
 31
0.0
  0
LWPOLYLINE
  5
4919
330
48F8
100
AcDbEntity
  8
0
100
AcDbPolyline
 90
        4
 70
     1
 43
0.0
 10
1.5
 20
7.9375
 10
3.5
 20
7.9375
 10
3.5
 20
6.9375
 10
1.5
 20
6.9375
  0
LWPOLYLINE
  5
491A
330
48F8
100
AcDbEntity
  8
0
100
AcDbPolyline
 90
        4
 70
     1
 43
0.0
 10
1.5
 20
12.375
 10
3.5
 20
12.375
 10
3.5
 20
11.375
 10
1.5
 20
11.375
  0
LINE
  5
491B
330
48F8
100
AcDbEntity
  8
0
100
AcDbLine
 10
1.375
 20
9.456528586811941
 30
0.0
 11
0.625
 21
9.324283351280598
 31
0.0
  0
LINE
  5
491C
330
48F8
100
AcDbEntity
  8
0
100
AcDbLine
 10
1.375
 20
10.25
 30
0.0
 11
1.375
 21
8.0
 31
0.0
  0
LINE
  5
491D
330
48F8
100
AcDbEntity
  8
0
100
AcDbLine
 10
0.625
 20
10.25
 30
0.0
 11
0.625
 21
8.0
 31
0.0
  0
LWPOLYLINE
  5
491E
330
48F8
100
AcDbEntity
  8
0
100
AcDbPolyline
 90
        4
 70
     1
 43
0.0
 10
0.625
 20
5.5
 10
1.375
 20
5.5
 10
1.375
 20
5.4375
 10
0.625
 20
5.4375
  0
LWPOLYLINE
  5
491F
330
48F8
100
AcDbEntity
  8
0
100
AcDbPolyline
 90
        4
 70
     1
 43
0.0
 10
0.625
 20
6.875
 10
1.375
 20
6.875
 10
1.375
 20
6.9375
 10
0.625
 20
6.9375
  0
LWPOLYLINE
  5
4920
330
48F8
100
AcDbEntity
  8
0
100
AcDbPolyline
 90
        4
 70
     1
 43
0.0
 10
0.5
 20
7.9375
 10
1.5
 20
7.9375
 10
1.5
 20
6.9375
 10
0.5
 20
6.9375
  0
LINE
  5
4921
330
48F8
100
AcDbEntity
  8
0
100
AcDbLine
 10
1.375
 20
8.134076231498511
 30
0.0
 11
0.625
 21
8.001830995967168
 31
0.0
  0
LINE
  5
4922
330
48F8
100
AcDbEntity
  8
0
100
AcDbLine
 10
1.375
 20
8.266321467029854
 30
0.0
 11
0.625
 21
8.134076231498511
 31
0.0
  0
LINE
  5
4923
330
48F8
100
AcDbEntity
  8
0
100
AcDbLine
 10
1.375
 20
8.398566702561197
 30
0.0
 11
0.625
 21
8.266321467029854
 31
0.0
  0
LINE
  5
4924
330
48F8
100
AcDbEntity
  8
0
100
AcDbLine
 10
1.375
 20
8.795302409155226
 30
0.0
 11
0.625
 21
8.663057173623883
 31
0.0
  0
LINE
  5
4925
330
48F8
100
AcDbEntity
  8
0
100
AcDbLine
 10
1.375
 20
8.663057173623883
 30
0.0
 11
0.625
 21
8.53081193809254
 31
0.0
  0
LINE
  5
4926
330
48F8
100
AcDbEntity
  8
0
100
AcDbLine
 10
1.375
 20
8.53081193809254
 30
0.0
 11
0.625
 21
8.398566702561197
 31
0.0
  0
LINE
  5
4927
330
48F8
100
AcDbEntity
  8
0
100
AcDbLine
 10
1.375
 20
8.927547644686569
 30
0.0
 11
0.625
 21
8.795302409155226
 31
0.0
  0
LINE
  5
4928
330
48F8
100
AcDbEntity
  8
0
100
AcDbLine
 10
1.375
 20
9.059792880217912
 30
0.0
 11
0.625
 21
8.927547644686569
 31
0.0
  0
LINE
  5
4929
330
48F8
100
AcDbEntity
  8
0
100
AcDbLine
 10
1.375
 20
9.192038115749255
 30
0.0
 11
0.625
 21
9.059792880217912
 31
0.0
  0
LINE
  5
492A
330
48F8
100
AcDbEntity
  8
0
100
AcDbLine
 10
1.375
 20
9.324283351280598
 30
0.0
 11
0.625
 21
9.192038115749255
 31
0.0
  0
LWPOLYLINE
  5
492B
330
48F8
100
AcDbEntity
  8
0
100
AcDbPolyline
 90
        4
 70
     1
 43
0.0
 10
0.625
 20
7.9375
 10
1.375
 20
7.9375
 10
1.375
 20
8.0
 10
0.625
 20
8.0
  0
LWPOLYLINE
  5
492C
330
48F8
100
AcDbEntity
  8
0
100
AcDbPolyline
 90
        4
 70
     1
 43
0.0
 10
0.875
 20
6.875
 10
1.125
 20
6.875
 10
1.125
 20
5.5
 10
0.875
 20
5.5
  0
LINE
  5
492D
330
48F8
100
AcDbEntity
  8
0
100
AcDbLine
 10
1.375
 20
9.588773822343284
 30
0.0
 11
0.625
 21
9.456528586811941
 31
0.0
  0
LINE
  5
492E
330
48F8
100
AcDbEntity
  8
0
100
AcDbLine
 10
1.375
 20
9.721019057874627
 30
0.0
 11
0.625
 21
9.588773822343284
 31
0.0
  0
LINE
  5
492F
330
48F8
100
AcDbEntity
  8
0
100
AcDbLine
 10
1.375
 20
9.85326429340597
 30
0.0
 11
0.625
 21
9.721019057874627
 31
0.0
  0
LINE
  5
4930
330
48F8
100
AcDbEntity
  8
0
100
AcDbLine
 10
1.375
 20
9.985509528937313
 30
0.0
 11
0.625
 21
9.85326429340597
 31
0.0
  0
LINE
  5
4931
330
48F8
100
AcDbEntity
  8
0
100
AcDbLine
 10
1.375
 20
10.11775476446866
 30
0.0
 11
0.625
 21
9.985509528937313
 31
0.0
  0
LINE
  5
4932
330
48F8
100
AcDbEntity
  8
0
100
AcDbLine
 10
1.375
 20
10.25
 30
0.0
 11
0.625
 21
10.11775476446866
 31
0.0
  0
LWPOLYLINE
  5
4933
330
48F8
100
AcDbEntity
  8
0
100
AcDbPolyline
 90
        4
 70
     1
 43
0.0
 10
0.625
 20
12.375
 10
1.375
 20
12.375
 10
1.375
 20
12.4375
 10
0.625
 20
12.4375
  0
LWPOLYLINE
  5
4934
330
48F8
100
AcDbEntity
  8
0
100
AcDbPolyline
 90
        4
 70
     1
 43
0.0
 10
0.5
 20
12.375
 10
1.5
 20
12.375
 10
1.5
 20
11.375
 10
0.5
 20
11.375
  0
LWPOLYLINE
  5
4935
330
48F8
100
AcDbEntity
  8
0
100
AcDbPolyline
 90
        4
 70
     1
 43
0.0
 10
0.625
 20
10.3125
 10
1.375
 20
10.3125
 10
1.375
 20
10.25
 10
0.625
 20
10.25
  0
LWPOLYLINE
  5
4936
330
48F8
100
AcDbEntity
  8
0
100
AcDbPolyline
 90
        4
 70
     1
 43
0.0
 10
0.625
 20
11.3125
 10
1.375
 20
11.3125
 10
1.375
 20
11.375
 10
0.625
 20
11.375
  0
LWPOLYLINE
  5
4937
330
48F8
100
AcDbEntity
  8
0
100
AcDbPolyline
 90
        4
 70
     1
 43
0.0
 10
0.0
 20
11.3125
 10
2.0
 20
11.3125
 10
2.0
 20
10.3125
 10
0.0
 20
10.3125
  0
LINE
  5
4938
330
48F8
100
AcDbEntity
  8
0
100
AcDbLine
 10
0.5
 20
11.3125
 30
0.0
 11
0.5
 21
10.3125
 31
0.0
  0
LWPOLYLINE
  5
4939
330
48F8
100
AcDbEntity
  8
0
100
AcDbPolyline
 90
        4
 70
     1
 43
0.0
 10
0.875
 20
12.5625
 10
1.125
 20
12.5625
 10
1.125
 20
12.4375
 10
0.875
 20
12.4375
  0
LINE
  5
493A
330
48F8
100
AcDbEntity
  8
0
100
AcDbLine
 10
1.5
 20
11.3125
 30
0.0
 11
1.5
 21
10.3125
 31
0.0
  0
ENDBLK
  5
493C
330
48F8
100
AcDbEntity
  8
0
100
AcDbBlockEnd
  0
BLOCK
  5
54CC
330
54C1
100
AcDbEntity
  8
0
100
AcDbBlockBegin
  2
*D4
 70
     1
 10
0.0
 20
0.0
 30
0.0
  3
*D4
  1

  0
LINE
  5
62A3
330
54C1
100
AcDbEntity
  8
0
 62
     0
370
    -2
100
AcDbLine
 10
322.7037780138952
 20
111.8738207667027
 30
0.0
 11
322.7037780138952
 21
107.5700087493746
 31
0.0
  0
LINE
  5
62A4
330
54C1
100
AcDbEntity
  8
0
 62
     0
370
    -2
100
AcDbLine
 10
286.7037780138994
 20
111.873820766703
 30
0.0
 11
286.7037780138994
 21
107.5700087493746
 31
0.0
  0
LINE
  5
62A5
330
54C1
100
AcDbEntity
  8
0
 62
     0
370
    -2
100
AcDbLine
 10
321.3287780138952
 20
108.9450087493746
 30
0.0
 11
310.9240161091353
 21
108.9450087493746
 31
0.0
  0
LINE
  5
62A6
330
54C1
100
AcDbEntity
  8
0
 62
     0
370
    -2
100
AcDbLine
 10
288.0787780138994
 20
108.9450087493746
 30
0.0
 11
298.4835399186592
 21
108.9450087493746
 31
0.0
  0
SOLID
  5
62A7
330
54C1
100
AcDbEntity
  8
0
 62
     0
100
AcDbTrace
 10
321.3287780138952
 20
109.1741754160413
 30
0.0
 11
321.3287780138952
 21
108.7158420827079
 31
0.0
 12
322.7037780138952
 22
108.9450087493746
 32
0.0
 13
322.7037780138952
 23
108.9450087493746
 33
0.0
  0
SOLID
  5
62A8
330
54C1
100
AcDbEntity
  8
0
 62
     0
100
AcDbTrace
 10
288.0787780138994
 20
109.1741754160413
 30
0.0
 11
288.0787780138994
 21
108.7158420827079
 31
0.0
 12
286.7037780138994
 22
108.9450087493746
 32
0.0
 13
286.7037780138994
 23
108.9450087493746
 33
0.0
  0
MTEXT
  5
62A9
330
54C1
100
AcDbEntity
  8
0
 62
     0
100
AcDbMText
 10
304.7037780138972
 20
108.9450087493746
 30
0.0
 40
1.375
 41
0.0
 46
0.0
 71
     5
 72
     1
  1
\A1;AS REQ'D
  7
ROMANS
 73
     1
 44
1.0
  0
POINT
  5
62AA
330
54C1
100
AcDbEntity
  8
DEFPOINTS
 62
     0
100
AcDbPoint
 10
322.7037780138952
 20
113.2488207667027
 30
0.0
  0
POINT
  5
62AB
330
54C1
100
AcDbEntity
  8
DEFPOINTS
 62
     0
100
AcDbPoint
 10
286.7037780138994
 20
113.2488207667031
 30
0.0
  0
POINT
  5
62AC
330
54C1
100
AcDbEntity
  8
DEFPOINTS
 62
     0
100
AcDbPoint
 10
286.7037780138994
 20
108.9450087493746
 30
0.0
  0
ENDBLK
  5
54CD
330
54C1
100
AcDbEntity
  8
0
100
AcDbBlockEnd
  0
BLOCK
  5
54D9
330
54CE
100
AcDbEntity
  8
0
100
AcDbBlockBegin
  2
*D5
 70
     1
 10
0.0
 20
0.0
 30
0.0
  3
*D5
  1

  0
LINE
  5
62F6
330
54CE
100
AcDbEntity
  8
0
 62
     0
370
    -2
100
AcDbLine
 10
278.5669181748566
 20
155.0614619431735
 30
0.0
 11
278.5669181748566
 21
160.4541620672039
 31
0.0
  0
LINE
  5
62F7
330
54CE
100
AcDbEntity
  8
0
 62
     0
370
    -2
100
AcDbLine
 10
331.090649553466
 20
155.0614619431735
 30
0.0
 11
331.090649553466
 21
160.4541620672039
 31
0.0
  0
LINE
  5
62F8
330
54CE
100
AcDbEntity
  8
0
 62
     0
370
    -2
100
AcDbLine
 10
279.9419181748567
 20
159.0791620672039
 30
0.0
 11
298.6085457689232
 21
159.0791620672039
 31
0.0
  0
LINE
  5
62F9
330
54CE
100
AcDbEntity
  8
0
 62
     0
370
    -2
100
AcDbLine
 10
329.7156495534661
 20
159.0791620672039
 30
0.0
 11
311.0490219593994
 21
159.0791620672039
 31
0.0
  0
SOLID
  5
62FA
330
54CE
100
AcDbEntity
  8
0
 62
     0
100
AcDbTrace
 10
279.9419181748567
 20
159.3083287338705
 30
0.0
 11
279.9419181748567
 21
158.8499954005372
 31
0.0
 12
278.5669181748566
 22
159.0791620672039
 32
0.0
 13
278.5669181748566
 23
159.0791620672039
 33
0.0
  0
SOLID
  5
62FB
330
54CE
100
AcDbEntity
  8
0
 62
     0
100
AcDbTrace
 10
329.7156495534661
 20
159.3083287338705
 30
0.0
 11
329.7156495534661
 21
158.8499954005372
 31
0.0
 12
331.090649553466
 22
159.0791620672039
 32
0.0
 13
331.090649553466
 23
159.0791620672039
 33
0.0
  0
MTEXT
  5
62FC
330
54CE
100
AcDbEntity
  8
0
 62
     0
100
AcDbMText
 10
304.8287838641613
 20
159.0791620672039
 30
0.0
 40
1.375
 41
0.0
 46
0.0
 71
     5
 72
     1
  1
\A1;AS REQ'D
  7
ROMANS
 73
     1
 44
1.0
  0
POINT
  5
62FD
330
54CE
100
AcDbEntity
  8
DEFPOINTS
 62
     0
100
AcDbPoint
 10
278.5669181748566
 20
153.6864619431735
 30
0.0
  0
POINT
  5
62FE
330
54CE
100
AcDbEntity
  8
DEFPOINTS
 62
     0
100
AcDbPoint
 10
331.090649553466
 20
153.6864619431735
 30
0.0
  0
POINT
  5
62FF
330
54CE
100
AcDbEntity
  8
DEFPOINTS
 62
     0
100
AcDbPoint
 10
331.090649553466
 20
159.0791620672039
 30
0.0
  0
ENDBLK
  5
54DA
330
54CE
100
AcDbEntity
  8
0
100
AcDbBlockEnd
  0
BLOCK
  5
54E6
330
54DB
100
AcDbEntity
  8
0
100
AcDbBlockBegin
  2
*D6
 70
     1
 10
0.0
 20
0.0
 30
0.0
  3
*D6
  1

  0
LINE
  5
6299
330
54DB
100
AcDbEntity
  8
0
 62
     0
370
    -2
100
AcDbLine
 10
226.5962878893027
 20
111.8738207667031
 30
0.0
 11
226.5962878893027
 21
107.5634160983606
 31
0.0
  0
LINE
  5
629A
330
54DB
100
AcDbEntity
  8
0
 62
     0
370
    -2
100
AcDbLine
 10
196.5963920773869
 20
111.8672281156893
 30
0.0
 11
196.5963920773869
 21
107.5634160983606
 31
0.0
  0
LINE
  5
629B
330
54DB
100
AcDbEntity
  8
0
 62
     0
370
    -2
100
AcDbLine
 10
225.2212878893027
 20
108.9384160983606
 30
0.0
 11
217.816578078583
 21
108.9384160983606
 31
0.0
  0
LINE
  5
629C
330
54DB
100
AcDbEntity
  8
0
 62
     0
370
    -2
100
AcDbLine
 10
197.9713920773869
 20
108.9384160983606
 30
0.0
 11
205.3761018881067
 21
108.9384160983606
 31
0.0
  0
SOLID
  5
629D
330
54DB
100
AcDbEntity
  8
0
 62
     0
100
AcDbTrace
 10
225.2212878893027
 20
109.1675827650273
 30
0.0
 11
225.2212878893027
 21
108.709249431694
 31
0.0
 12
226.5962878893027
 22
108.9384160983606
 32
0.0
 13
226.5962878893027
 23
108.9384160983606
 33
0.0
  0
SOLID
  5
629E
330
54DB
100
AcDbEntity
  8
0
 62
     0
100
AcDbTrace
 10
197.9713920773869
 20
109.1675827650273
 30
0.0
 11
197.9713920773869
 21
108.709249431694
 31
0.0
 12
196.5963920773869
 22
108.9384160983606
 32
0.0
 13
196.5963920773869
 23
108.9384160983606
 33
0.0
  0
MTEXT
  5
629F
330
54DB
100
AcDbEntity
  8
0
 62
     0
100
AcDbMText
 10
211.5963399833448
 20
108.9384160983606
 30
0.0
 40
1.375
 41
0.0
 46
0.0
 71
     5
 72
     1
  1
\A1;AS REQ'D
  7
ROMANS
 73
     1
 44
1.0
  0
POINT
  5
62A0
330
54DB
100
AcDbEntity
  8
DEFPOINTS
 62
     0
100
AcDbPoint
 10
226.5962878893027
 20
113.2488207667031
 30
0.0
  0
POINT
  5
62A1
330
54DB
100
AcDbEntity
  8
DEFPOINTS
 62
     0
100
AcDbPoint
 10
196.5963920773869
 20
113.2422281156894
 30
0.0
  0
POINT
  5
62A2
330
54DB
100
AcDbEntity
  8
DEFPOINTS
 62
     0
100
AcDbPoint
 10
196.5963920773869
 20
108.9384160983606
 30
0.0
  0
ENDBLK
  5
54E7
330
54DB
100
AcDbEntity
  8
0
100
AcDbBlockEnd
  0
BLOCK
  5
54F3
330
54E8
100
AcDbEntity
  8
0
100
AcDbBlockBegin
  2
*D7
 70
     1
 10
0.0
 20
0.0
 30
0.0
  3
*D7
  1

  0
LINE
  5
62B7
330
54E8
100
AcDbEntity
  8
0
 62
     0
370
    -2
100
AcDbLine
 10
223.6155070412223
 20
119.5298972711183
 30
0.0
 11
223.6155070412223
 21
118.0085932654015
 31
0.0
  0
LINE
  5
62B8
330
54E8
100
AcDbEntity
  8
0
 62
     0
370
    -2
100
AcDbLine
 10
228.4905070412223
 20
119.5298972711183
 30
0.0
 11
228.4905070412223
 21
118.0085932654015
 31
0.0
  0
LINE
  5
62B9
330
54E8
100
AcDbEntity
  8
0
 62
     0
370
    -2
100
AcDbLine
 10
222.2405070412223
 20
119.3835932654015
 30
0.0
 11
220.8655070412223
 21
119.3835932654015
 31
0.0
  0
LINE
  5
62BA
330
54E8
100
AcDbEntity
  8
0
 62
     0
370
    -2
100
AcDbLine
 10
229.8655070412223
 20
119.3835932654015
 30
0.0
 11
231.2405070412223
 21
119.3835932654015
 31
0.0
  0
SOLID
  5
62BB
330
54E8
100
AcDbEntity
  8
0
 62
     0
100
AcDbTrace
 10
222.2405070412223
 20
119.6127599320682
 30
0.0
 11
222.2405070412223
 21
119.1544265987348
 31
0.0
 12
223.6155070412223
 22
119.3835932654015
 32
0.0
 13
223.6155070412223
 23
119.3835932654015
 33
0.0
  0
SOLID
  5
62BC
330
54E8
100
AcDbEntity
  8
0
 62
     0
100
AcDbTrace
 10
229.8655070412223
 20
119.6127599320682
 30
0.0
 11
229.8655070412223
 21
119.1544265987348
 31
0.0
 12
228.4905070412223
 22
119.3835932654015
 32
0.0
 13
228.4905070412223
 23
119.3835932654015
 33
0.0
  0
MTEXT
  5
62BD
330
54E8
100
AcDbEntity
  8
0
 62
     0
100
AcDbMText
 10
236.282173707889
 20
119.3835932654015
 30
0.0
 40
1.375
 41
0.0
 46
0.0
 71
     5
 72
     1
  1
\A1;4 7/8"
  7
ROMANS
 73
     1
 44
1.0
  0
POINT
  5
62BE
330
54E8
100
AcDbEntity
  8
DEFPOINTS
 62
     0
100
AcDbPoint
 10
223.6155070412223
 20
120.9048972711183
 30
0.0
  0
POINT
  5
62BF
330
54E8
100
AcDbEntity
  8
DEFPOINTS
 62
     0
100
AcDbPoint
 10
228.4905070412223
 20
120.9048972711183
 30
0.0
  0
POINT
  5
62C0
330
54E8
100
AcDbEntity
  8
DEFPOINTS
 62
     0
100
AcDbPoint
 10
228.4905070412223
 20
119.3835932654015
 30
0.0
  0
ENDBLK
  5
54F4
330
54E8
100
AcDbEntity
  8
0
100
AcDbBlockEnd
  0
BLOCK
  5
5500
330
54F5
100
AcDbEntity
  8
0
100
AcDbBlockBegin
  2
*D8
 70
     1
 10
0.0
 20
0.0
 30
0.0
  3
*D8
  1

  0
LINE
  5
628F
330
54F5
100
AcDbEntity
  8
0
 62
     0
370
    -2
100
AcDbLine
 10
191.2993920761628
 20
113.1797281156893
 30
0.0
 11
181.3089861600697
 21
113.1797281156893
 31
0.0
  0
LINE
  5
6290
330
54F5
100
AcDbEntity
  8
0
 62
     0
370
    -2
100
AcDbLine
 10
188.1699551302569
 20
155.1547173858169
 30
0.0
 11
181.3089861600697
 21
155.1547173858169
 31
0.0
  0
LINE
  5
6291
330
54F5
100
AcDbEntity
  8
0
 62
     0
370
    -2
100
AcDbLine
 10
182.6839861600698
 20
114.5547281156893
 30
0.0
 11
182.6839861600698
 21
131.9737703698008
 31
0.0
  0
LINE
  5
6292
330
54F5
100
AcDbEntity
  8
0
 62
     0
370
    -2
100
AcDbLine
 10
182.6839861600698
 20
153.7797173858169
 30
0.0
 11
182.6839861600698
 21
136.3606751317055
 31
0.0
  0
SOLID
  5
6293
330
54F5
100
AcDbEntity
  8
0
 62
     0
100
AcDbTrace
 10
182.4548194934031
 20
114.5547281156893
 30
0.0
 11
182.9131528267364
 21
114.5547281156893
 31
0.0
 12
182.6839861600698
 22
113.1797281156893
 32
0.0
 13
182.6839861600698
 23
113.1797281156893
 33
0.0
  0
SOLID
  5
6294
330
54F5
100
AcDbEntity
  8
0
 62
     0
100
AcDbTrace
 10
182.4548194934031
 20
153.7797173858169
 30
0.0
 11
182.9131528267364
 21
153.7797173858169
 31
0.0
 12
182.6839861600698
 22
155.1547173858169
 32
0.0
 13
182.6839861600698
 23
155.1547173858169
 33
0.0
  0
MTEXT
  5
6295
330
54F5
100
AcDbEntity
  8
0
 62
     0
100
AcDbMText
 10
182.6839861600697
 20
134.1672227507532
 30
0.0
 40
1.375
 41
0.0
 46
0.0
 71
     5
 72
     1
  1
\A1;3'-6"
  7
ROMANS
 73
     1
 44
1.0
  0
POINT
  5
6296
330
54F5
100
AcDbEntity
  8
DEFPOINTS
 62
     0
100
AcDbPoint
 10
192.6743920761628
 20
113.1797281156893
 30
0.0
  0
POINT
  5
6297
330
54F5
100
AcDbEntity
  8
DEFPOINTS
 62
     0
100
AcDbPoint
 10
189.5449551302569
 20
155.1547173858169
 30
0.0
  0
POINT
  5
6298
330
54F5
100
AcDbEntity
  8
DEFPOINTS
 62
     0
100
AcDbPoint
 10
182.6839861600698
 20
155.1547173858169
 30
0.0
  0
ENDBLK
  5
5501
330
54F5
100
AcDbEntity
  8
0
100
AcDbBlockEnd
  0
BLOCK
  5
5644
330
5643
100
AcDbEntity
  8
0
100
AcDbBlockBegin
  2
CAT_BORDER
 70
     0
 10
-0.7091800116219247
 20
15.8157349101412
 30
0.0
  3
CAT_BORDER
  1
G:\DWG\STAIR\STANDARD\X-REF\CAT_BORDER.dwg
  0
TEXT
  5
5645
330
5643
100
AcDbEntity
  8
0
 62
     7
100
AcDbText
 10
14.88063647735445
 20
3.555192752089299
 30
0.0
 40
1.424754602022191
  1
Ph: (423) 586-2265 Fax: (423) 586-2091
  7
CAT_BORDER$0$ROMANS
100
AcDbText
  0
TEXT
  5
5646
330
5643
100
AcDbEntity
  8
0
 62
     7
100
AcDbText
 10
14.08259024903724
 20
5.861938298220397
 30
0.0
 40
1.424754602022191
  1
P.O. BOX 2279 Morristown, TN 37816-2279
  7
CAT_BORDER$0$ROMANS
100
AcDbText
  0
POLYLINE
  5
5647
330
5643
100
AcDbEntity
  8
0
 62
     7
100
AcDb2dPolyline
 66
     1
 10
0.0
 20
0.0
 30
0.0
1001
ACAD
1000
ASC_BOUNDS
1002
{
1070
    19
1002
}
  0
VERTEX
  5
5648
330
5647
100
AcDbEntity
  8
0
 62
     7
100
AcDbVertex
100
AcDb2dVertex
 10
8.766680817386179
 20
6.443475067235914
 30
0.0
  0
VERTEX
  5
5649
330
5647
100
AcDbEntity
  8
0
 62
     7
100
AcDbVertex
100
AcDb2dVertex
 10
8.994566881815797
 20
6.559590470402541
 30
0.0
1001
ACAD
1000
ASC_BOUNDS
1002
{
1070
    19
1002
}
  0
VERTEX
  5
564A
330
5647
100
AcDbEntity
  8
0
 62
     7
100
AcDbVertex
100
AcDb2dVertex
 10
10.52763436609123
 20
3.491790326072928
 30
0.0
1001
ACAD
1000
ASC_BOUNDS
1002
{
1070
    19
1002
}
  0
VERTEX
  5
564B
330
5647
100
AcDbEntity
  8
0
 62
     7
100
AcDbVertex
100
AcDb2dVertex
 10
10.03502769416031
 20
3.494898529831843
 30
0.0
  0
VERTEX
  5
564C
330
5647
100
AcDbEntity
  8
0
 62
     7
100
AcDbVertex
100
AcDb2dVertex
 10
8.60317326800528
 20
6.36016262307789
 30
0.0
  0
SEQEND
  5
564D
330
5647
100
AcDbEntity
  8
0
 62
     7
  0
TEXT
  5
564E
330
5643
100
AcDbEntity
  8
0
 62
     7
100
AcDbText
 10
9.015369284921122
 20
8.285226862434919
 30
0.0
 40
2.328886132939683
  1
Precision Ladders, LLC
  7
CAT_BORDER$0$STYLE1
100
AcDbText
  0
CIRCLE
  5
564F
330
5643
100
AcDbEntity
  8
0
100
AcDbCircle
 10
7.214644270335539
 20
7.943780927853118
 30
0.0
 40
6.386783474246639
1001
ACAD
1000
ASC_BOUNDS
1002
{
1070
    19
1002
}
  0
INSERT
  5
5650
330
5643
100
AcDbEntity
  8
0
100
AcDbBlockReference
  2
*X10
 10
26.35103919121864
 20
151.2550454807789
 30
0.0
 41
0.5167726248169388
 42
0.5167726248169388
 43
0.5167726248169388
1001
ACAD
1000
HATCH
1002
{
1070
    19
1000
ANSI31
1040
0.8843871093750001
1040
0.0
1002
}
  0
LWPOLYLINE
  5
5651
330
5643
100
AcDbEntity
  8
0
 62
     7
100
AcDbPolyline
 90
        4
 70
     1
 43
0.0
 10
2.975488579343775
 20
11.20574487544475
 10
2.975488579343775
 20
11.66813709808382
 10
7.899965750449309
 20
11.66813709808382
 10
7.899965750449309
 20
11.20574487544475
1001
ACAD
1000
ASC_BOUNDS
1002
{
1070
    19
1005
0
1005
0
1002
}
  0
LINE
  5
5652
330
5643
100
AcDbEntity
  8
0
 62
     7
100
AcDbLine
 10
3.147317460242413
 20
11.15583866480141
 30
0.0
 11
5.194053803500192
 21
7.138892415524502
 31
0.0
1001
ACAD
1000
ASC_BOUNDS
1002
{
1070
    19
1002
}
  0
LWPOLYLINE
  5
5653
330
5643
100
AcDbEntity
  8
0
 62
     7
100
AcDbPolyline
 90
        4
 70
     0
 43
0.0
 10
3.043241497727863
 20
11.20371728648946
 10
5.210472883142562
 20
6.950286201614057
 10
5.200585015452042
 20
6.945248081384521
 10
3.033353630037338
 20
11.19867916625988
1001
ACAD
1000
ASC_BOUNDS
1002
{
1070
    19
1002
}
  0
LINE
  5
5654
330
5643
100
AcDbEntity
  8
0
 62
     7
100
AcDbLine
 10
3.085518287176609
 20
11.12435041336665
 30
0.0
 11
3.147317460242413
 21
11.15583866480141
 31
0.0
1001
ACAD
1000
ASC_BOUNDS
1002
{
1070
    19
1002
}
  0
LINE
  5
5655
330
5643
100
AcDbEntity
  8
0
 62
     7
100
AcDbLine
 10
3.147317460242413
 20
11.15583866480141
 30
0.0
 11
3.245263913540979
 21
11.20574487544475
 31
0.0
1001
ACAD
1000
ASC_BOUNDS
1002
{
1070
    19
1002
}
  0
LINE
  5
5656
330
5643
100
AcDbEntity
  8
0
 62
     7
100
AcDbLine
 10
3.147317460242413
 20
11.15583866480141
 30
0.0
 11
3.273270465981351
 21
10.90864197253824
 31
0.0
1001
ACAD
1000
ASC_BOUNDS
1002
{
1070
    19
1002
}
  0
LINE
  5
5657
330
5643
100
AcDbEntity
  8
0
 62
     7
100
AcDbLine
 10
5.072300872670789
 20
9.53744807870658
 30
0.0
 11
4.595747463433541
 21
8.569300236298861
 31
0.0
1001
ACAD
1000
ASC_BOUNDS
1002
{
1070
    19
1005
0
1002
}
  0
LWPOLYLINE
  5
5658
330
5643
100
AcDbEntity
  8
0
 62
     7
100
AcDbPolyline
 90
        2
 70
     0
 43
0.0
 10
4.960506419544628
 20
9.543645531164383
 10
4.503413916137342
 20
8.615033727373582
1001
ACAD
1000
ASC_BOUNDS
1002
{
1070
    19
1005
0
1002
}
  0
LINE
  5
5659
330
5643
100
AcDbEntity
  8
0
 62
     7
100
AcDbLine
 10
4.056007838214296
 20
11.20574487544475
 30
0.0
 11
4.932195406234607
 21
9.486129949655111
 31
0.0
1001
ACAD
1000
ASC_BOUNDS
1002
{
1070
    19
1002
}
  0
LINE
  5
565A
330
5643
100
AcDbEntity
  8
0
 62
     7
100
AcDbLine
 10
3.978164599682429
 20
11.20574487544475
 30
0.0
 11
4.89394569271214
 21
9.408423281521596
 31
0.0
1001
ACAD
1000
ASC_BOUNDS
1002
{
1070
    19
1002
}
  0
LINE
  5
565B
330
5643
100
AcDbEntity
  8
0
 62
     7
100
AcDbLine
 10
3.898137361914258
 20
10.64985270363088
 30
0.0
 11
4.715447029607361
 21
9.045792163565488
 31
0.0
1001
ACAD
1000
ASC_BOUNDS
1002
{
1070
    19
1002
}
  0
LINE
  5
565C
330
5643
100
AcDbEntity
  8
0
 62
     7
100
AcDbLine
 10
5.484078733523913
 20
6.910143144887292
 30
0.0
 11
8.60317326800528
 21
6.36016262307789
 31
0.0
1001
ACAD
1000
ASC_BOUNDS
1002
{
1070
    19
1002
}
  0
POLYLINE
  5
565D
330
5643
100
AcDbEntity
  8
0
 62
     7
100
AcDb2dPolyline
 66
     1
 10
0.0
 20
0.0
 30
0.0
1001
ACAD
1000
ASC_BOUNDS
1002
{
1070
    19
1002
}
  0
VERTEX
  5
565E
330
565D
100
AcDbEntity
  8
0
 62
     7
100
AcDbVertex
100
AcDb2dVertex
 10
5.558944561790159
 20
7.225843565768938
 30
0.0
  0
VERTEX
  5
565F
330
565D
100
AcDbEntity
  8
0
 62
     7
100
AcDbVertex
100
AcDb2dVertex
 10
5.585448566250245
 20
7.338318007944597
 30
0.0
1001
ACAD
1000
ASC_BOUNDS
1002
{
1070
    19
1002
}
  0
VERTEX
  5
5660
330
565D
100
AcDbEntity
  8
0
 62
     7
100
AcDbVertex
100
AcDb2dVertex
 10
8.691008811799827
 20
6.790723946438539
 30
0.0
1001
ACAD
1000
ASC_BOUNDS
1002
{
1070
    19
1002
}
  0
VERTEX
  5
5661
330
565D
100
AcDbEntity
  8
0
 62
     7
100
AcDbVertex
100
AcDb2dVertex
 10
8.636574317061807
 20
6.523891328589764
 30
0.0
  0
SEQEND
  5
5662
330
565D
100
AcDbEntity
  8
0
 62
     7
  0
LINE
  5
5663
330
5643
100
AcDbEntity
  8
0
 62
     7
100
AcDbLine
 10
4.952359499322798
 20
9.293779731001041
 30
0.0
 11
5.847982934755883
 21
7.536019767643502
 31
0.0
1001
ACAD
1000
ASC_BOUNDS
1002
{
1070
    19
1005
0
1002
}
  0
LWPOLYLINE
  5
5664
330
5643
100
AcDbEntity
  8
0
 62
     7
100
AcDbPolyline
 90
        2
 70
     0
 43
0.0
 10
4.99060921284524
 20
9.371486399134514
 10
5.907719454906815
 20
7.571556203358091
1001
ACAD
1000
ASC_BOUNDS
1002
{
1070
    19
1002
}
  0
LWPOLYLINE
  5
5665
330
5643
100
AcDbEntity
  8
0
 62
     7
100
AcDbPolyline
 90
        3
 70
     0
 43
0.0
 10
4.504244055464261
 20
8.499766960532987
 10
4.67048220616947
 20
8.580846724094861
 10
4.635360593571968
 20
8.649776769948978
1001
ACAD
1000
ASC_BOUNDS
1002
{
1070
    19
1002
}
  0
CIRCLE
  5
5666
330
5643
100
AcDbEntity
  8
0
 62
     7
100
AcDbCircle
 10
4.570160018674124
 20
8.632639705777027
 30
0.0
 40
0.0173397083489631
1001
ACAD
1000
ASC_BOUNDS
1002
{
1070
    19
1002
}
  0
LINE
  5
5667
330
5643
100
AcDbEntity
  8
0
 62
     7
100
AcDbLine
 10
4.561762586535443
 20
8.733572674442768
 30
0.0
 11
4.420275384971654
 21
8.664564755375142
 31
0.0
1001
ACAD
1000
ASC_BOUNDS
1002
{
1070
    19
1002
}
  0
LINE
  5
5668
330
5643
100
AcDbEntity
  8
0
 62
     7
100
AcDbLine
 10
4.397705692942639
 20
8.699031828263084
 30
0.0
 11
4.523658698681582
 21
8.451835135999914
 31
0.0
1001
ACAD
1000
ASC_BOUNDS
1002
{
1070
    19
1002
}
  0
LINE
  5
5669
330
5643
100
AcDbEntity
  8
0
 62
     7
100
AcDbLine
 10
4.59567476800885
 20
8.569197878952618
 30
0.0
 11
4.503235545724734
 21
8.614717395049247
 31
0.0
1001
ACAD
1000
ASC_BOUNDS
1002
{
1070
    19
1002
}
  0
LWPOLYLINE
  5
566A
330
5643
100
AcDbEntity
  8
0
 62
     1
100
AcDbPolyline
 90
        2
 70
     1
 43
0.0
 10
4.587499727023091
 20
8.632639705777027
 42
-1.0
 10
4.552820310325168
 20
8.632639705777027
 42
-1.0
1001
ACAD
1000
ASC_BOUNDS
1002
{
1070
    19
1002
}
  0
LINE
  5
566B
330
5643
100
AcDbEntity
  8
0
 62
     7
100
AcDbLine
 10
5.908215410248867
 20
7.571854203391933
 30
0.0
 11
5.848763286247105
 21
7.536131763361761
 31
0.0
1001
ACAD
1000
ASC_BOUNDS
1002
{
1070
    19
1002
}
  0
LINE
  5
566C
330
5643
100
AcDbEntity
  8
0
 62
     7
100
AcDbLine
 10
5.430122954348513
 20
7.259175655722259
 30
0.0
 11
5.130795973607245
 21
7.106660941314304
 31
0.0
1001
ACAD
1000
ASC_BOUNDS
1002
{
1070
    19
1002
}
  0
POLYLINE
  5
566D
330
5643
100
AcDbEntity
  8
0
 62
     7
100
AcDb2dPolyline
 66
     1
 10
0.0
 20
0.0
 30
0.0
1001
ACAD
1000
ASC_BOUNDS
1002
{
1070
    19
1002
}
  0
VERTEX
  5
566E
330
566D
100
AcDbEntity
  8
0
 62
     7
100
AcDbVertex
100
AcDb2dVertex
 10
5.484532578181231
 20
6.910063119829048
 30
0.0
  0
VERTEX
  5
566F
330
566D
100
AcDbEntity
  8
0
 62
     7
100
AcDbVertex
100
AcDb2dVertex
 10
5.546463850673874
 20
7.172879455274841
 30
0.0
1001
ACAD
1000
ASC_BOUNDS
1002
{
1070
    19
1002
}
  0
SEQEND
  5
5670
330
566D
100
AcDbEntity
  8
0
 62
     7
  0
LINE
  5
5671
330
5643
100
AcDbEntity
  8
0
 62
     7
100
AcDbLine
 10
4.773860836218019
 20
8.931148613044847
 30
0.0
 11
5.339284363245941
 21
7.821442458840061
 31
0.0
1001
ACAD
1000
ASC_BOUNDS
1002
{
1070
    19
1002
}
  0
LINE
  5
5672
330
5643
100
AcDbEntity
  8
0
 62
     7
100
AcDbLine
 10
5.372431002767807
 20
7.756388515892252
 30
0.0
 11
5.585448566250245
 21
7.338318007944597
 31
0.0
1001
ACAD
1000
ASC_BOUNDS
1002
{
1070
    19
1002
}
  0
LWPOLYLINE
  5
5673
330
5643
100
AcDbEntity
  8
0
 62
     7
100
AcDbPolyline
 90
        4
 70
     0
 43
0.0
 10
5.663392081283444
 20
7.898299715888605
 10
5.184306973023733
 20
7.664634295893689
 10
5.152818721589007
 20
7.726433468959521
 10
5.627680504219661
 20
7.968387632202145
1001
ACAD
1000
ASC_BOUNDS
1002
{
1070
    19
1005
0
1002
}
  0
LWPOLYLINE
  5
5674
330
5643
100
AcDbEntity
  8
0
 62
     7
100
AcDbPolyline
 90
        5
 70
     0
 43
0.0
 10
5.58544856627228
 20
7.338318008040809
 10
5.597934850417206
 20
7.310058788560708
 10
5.751776773106651
 20
6.999255221859684
 10
5.648175584206336
 20
6.94797458096329
 10
5.517682900888962
 20
7.236519860065415
1001
ACAD
1000
ASC_BOUNDS
1002
{
1070
    19
1002
}
  0
POLYLINE
  5
5675
330
5643
100
AcDbEntity
  8
0
 62
     7
100
AcDb2dPolyline
 66
     1
 10
0.0
 20
0.0
 30
0.0
 70
     1
1001
ACAD
1000
ASC_BOUNDS
1002
{
1070
    19
1002
}
  0
VERTEX
  5
5676
330
5675
100
AcDbEntity
  8
0
 62
     7
100
AcDbVertex
100
AcDb2dVertex
 10
5.195606360788609
 20
7.318468839405722
 30
0.0
1001
ACAD
1000
ASC_BOUNDS
1002
{
1070
    19
1002
}
  0
VERTEX
  5
5677
330
5675
100
AcDbEntity
  8
0
 62
     7
100
AcDbVertex
100
AcDb2dVertex
 10
5.217042192292937
 20
7.421416678144872
 30
0.0
  0
VERTEX
  5
5678
330
5675
100
AcDbEntity
  8
0
 62
     7
100
AcDbVertex
100
AcDb2dVertex
 10
5.246883850365481
 20
7.413418789619857
 30
0.0
  0
VERTEX
  5
5679
330
5675
100
AcDbEntity
  8
0
 62
     7
100
AcDbVertex
100
AcDb2dVertex
 10
5.58544856627228
 20
7.338318008040809
 30
0.0
  0
VERTEX
  5
567A
330
5675
100
AcDbEntity
  8
0
 62
     7
100
AcDbVertex
100
AcDb2dVertex
 10
5.560414972412595
 20
7.225463102738594
 30
0.0
  0
VERTEX
  5
567B
330
5675
100
AcDbEntity
  8
0
 62
     7
100
AcDbVertex
100
AcDb2dVertex
 10
5.22467748046209
 20
7.312333873137024
 30
0.0
  0
SEQEND
  5
567C
330
5675
100
AcDbEntity
  8
0
 62
     7
  0
LWPOLYLINE
  5
567D
330
5643
100
AcDbEntity
  8
0
 62
     7
100
AcDbPolyline
 90
        5
 70
     0
 43
0.0
 10
8.603173268005274
 20
6.36016262307789
 10
8.589470773575794
 20
6.387852556696197
 10
8.422268196328207
 20
6.691677329242223
 10
8.523543120510186
 20
6.74741152165798
 10
8.666451280049757
 20
6.464809369457237
1001
ACAD
1000
ASC_BOUNDS
1002
{
1070
    19
1002
}
  0
LINE
  5
567E
330
5643
100
AcDbEntity
  8
0
 62
     7
100
AcDbLine
 10
8.626266396393788
 20
6.473362900436553
 30
0.0
 11
8.60317326800528
 21
6.36016262307789
 31
0.0
1001
ACAD
1000
ASC_BOUNDS
1002
{
1070
    19
1002
}
  0
POLYLINE
  5
567F
330
5643
100
AcDbEntity
  8
0
 62
     7
100
AcDb2dPolyline
 66
     1
 10
0.0
 20
0.0
 30
0.0
 70
     1
1001
ACAD
1000
ASC_BOUNDS
1002
{
1070
    19
1002
}
  0
VERTEX
  5
5680
330
567F
100
AcDbEntity
  8
0
 62
     7
100
AcDbVertex
100
AcDb2dVertex
 10
8.991784676367734
 20
6.396933643765679
 30
0.0
1001
ACAD
1000
ASC_BOUNDS
1002
{
1070
    19
1002
}
  0
VERTEX
  5
5681
330
567F
100
AcDbEntity
  8
0
 62
     7
100
AcDbVertex
100
AcDb2dVertex
 10
8.974842694154414
 20
6.293151556621431
 30
0.0
  0
VERTEX
  5
5682
330
567F
100
AcDbEntity
  8
0
 62
     7
100
AcDbVertex
100
AcDb2dVertex
 10
8.944681676551669
 20
6.299845120286859
 30
0.0
  0
VERTEX
  5
5683
330
567F
100
AcDbEntity
  8
0
 62
     7
100
AcDbVertex
100
AcDb2dVertex
 10
8.603173268005274
 20
6.36016262307789
 30
0.0
  0
VERTEX
  5
5684
330
567F
100
AcDbEntity
  8
0
 62
     7
100
AcDbVertex
100
AcDb2dVertex
 10
8.623279102268954
 20
6.473998759260005
 30
0.0
  0
VERTEX
  5
5685
330
567F
100
AcDbEntity
  8
0
 62
     7
100
AcDbVertex
100
AcDb2dVertex
 10
8.962474422630362
 20
6.401799528684035
 30
0.0
  0
SEQEND
  5
5686
330
567F
100
AcDbEntity
  8
0
 62
     7
  0
LINE
  5
5687
330
5643
100
AcDbEntity
  8
0
 62
     1
100
AcDbLine
 10
8.691008811799827
 20
6.790723946438539
 30
0.0
 11
8.636574317061807
 21
6.523891328589764
 31
0.0
1001
ACAD
1000
ASC_BOUNDS
1002
{
1070
    19
1002
}
  0
LINE
  5
5688
330
5643
100
AcDbEntity
  8
0
 62
     1
100
AcDbLine
 10
8.636574317061807
 20
6.523891328589764
 30
0.0
 11
8.666451280049757
 21
6.464809369457237
 31
0.0
1001
ACAD
1000
ASC_BOUNDS
1002
{
1070
    19
1002
}
  0
LINE
  5
5689
330
5643
100
AcDbEntity
  8
0
 62
     1
100
AcDbLine
 10
8.666451280049757
 20
6.464809369457237
 30
0.0
 11
8.766680817386195
 21
6.443475067235914
 31
0.0
  0
LINE
  5
568A
330
5643
100
AcDbEntity
  8
0
 62
     1
100
AcDbLine
 10
8.766680817386195
 20
6.443475067235914
 30
0.0
 11
8.994566881815797
 21
6.559590470402541
 31
0.0
1001
ACAD
1000
ASC_BOUNDS
1002
{
1070
    19
1002
}
  0
LINE
  5
568B
330
5643
100
AcDbEntity
  8
0
 62
     7
100
AcDbLine
 10
3.61489615320033
 20
11.20574487544475
 30
0.0
 11
3.86829586787606
 21
10.70841993333023
 31
0.0
1001
ACAD
1000
ASC_BOUNDS
1002
{
1070
    19
1002
}
  0
LWPOLYLINE
  5
568C
330
5643
100
AcDbEntity
  8
0
 62
     7
100
AcDbPolyline
 90
        4
 70
     0
 43
0.0
 10
4.159256946391717
 20
10.85033113332658
 10
3.68203522590797
 20
10.61757454827512
 10
3.712440137243662
 20
10.5552352417607
 10
4.186533502887983
 20
10.79679787699292
1001
ACAD
1000
ASC_BOUNDS
1002
{
1070
    19
1002
}
  0
LINE
  5
568D
330
5643
100
AcDbEntity
  8
0
 62
     7
100
AcDbLine
 10
5.709486798505537
 20
11.20574487544475
 30
0.0
 11
5.11728991060976
 21
10.13539932711142
 31
0.0
1001
ACAD
1000
ASC_BOUNDS
1002
{
1070
    19
1002
}
  0
LINE
  5
568E
330
5643
100
AcDbEntity
  8
0
 62
     7
100
AcDbLine
 10
5.577375125302518
 20
11.20574487544475
 30
0.0
 11
5.136154627876379
 21
10.40827632249176
 31
0.0
1001
ACAD
1000
ASC_BOUNDS
1002
{
1070
    19
1002
}
  0
CIRCLE
  5
568F
330
5643
100
AcDbEntity
  8
0
 62
     7
100
AcDbCircle
 10
5.02104187821431
 20
9.565686892025851
 30
0.0
 40
0.0173397083489631
1001
ACAD
1000
ASC_BOUNDS
1002
{
1070
    19
1002
}
  0
LWPOLYLINE
  5
5690
330
5643
100
AcDbEntity
  8
0
 62
     1
100
AcDbPolyline
 90
        2
 70
     1
 43
0.0
 10
5.038381586563275
 20
9.565686892025851
 42
-1.0
 10
5.00370216986535
 20
9.565686892025851
 42
-1.0
1001
ACAD
1000
ASC_BOUNDS
1002
{
1070
    19
1002
}
  0
LINE
  5
5691
330
5643
100
AcDbEntity
  8
0
 62
     1
100
AcDbLine
 10
5.075828546832791
 20
9.535663205337947
 30
0.0
 11
5.071422300771323
 21
9.535663205337947
 31
0.0
  0
LINE
  5
5692
330
5643
100
AcDbEntity
  8
0
 62
     7
100
AcDbLine
 10
5.191285764011571
 20
11.20574487544475
 30
0.0
 11
5.075277381445791
 21
9.52769063131852
 31
0.0
1001
ACAD
1000
ASC_BOUNDS
1002
{
1070
    19
1005
0
1002
}
  0
LWPOLYLINE
  5
5693
330
5643
100
AcDbEntity
  8
0
 62
     7
100
AcDbPolyline
 90
        3
 70
     0
 43
0.0
 10
5.075411797167864
 20
11.20574487544475
 10
4.9599545799891
 20
9.535663205337947
 10
5.075552635648853
 20
9.535663205337947
1001
ACAD
1000
ASC_BOUNDS
1002
{
1070
    19
1005
0
1002
}
  0
TEXT
  5
5694
330
5643
100
AcDbEntity
  8
0
 62
     7
100
AcDbText
 10
21.37027972100177
 20
0.9805520374701943
 30
0.0
 40
1.638467792325521
  1
www.PrecisionLadders.com
  7
CAT_BORDER$0$ROMANS
100
AcDbText
  0
LWPOLYLINE
  5
5695
330
5643
100
AcDbEntity
  8
0
 62
     7
100
AcDbPolyline
 90
        9
 70
     0
 43
0.0
 10
10.36633405241562
 20
3.428726298408117
 10
10.36655286501771
 20
3.463405024791232
 10
10.26251668586843
 20
3.464061462597571
 10
10.19315923310223
 20
3.464499087801723
 10
10.19294042050013
 20
3.429820361418695
 42
0.4142135623730939
 10
10.20442705842713
 20
3.418187848423535
 10
10.35470153942054
 20
3.417239660481108
 42
0.4142135623730989
 10
10.3663340524156
 20
3.428726298408117
 42
-0.4142135623730944
 10
10.35470153942054
 20
3.417239660481108
1001
ACAD
1000
ASC_BOUNDS
1002
{
1070
    19
1002
}
  0
LINE
  5
5696
330
5643
100
AcDbEntity
  8
0
 62
     7
100
AcDbLine
 10
10.31311986264362
 20
3.493143849733797
 30
0.0
 11
10.3127092320714
 21
3.463744762338132
 31
0.0
1001
ACAD
1000
ASC_BOUNDS
1002
{
1070
    19
1002
}
  0
LINE
  5
5697
330
5643
100
AcDbEntity
  8
0
 62
     7
100
AcDbLine
 10
10.24954219760794
 20
3.493545006170977
 30
0.0
 11
10.31311986264362
 21
3.493143849733797
 31
0.0
1001
ACAD
1000
ASC_BOUNDS
1002
{
1070
    19
1002
}
  0
LINE
  5
5698
330
5643
100
AcDbEntity
  8
0
 62
     7
100
AcDbLine
 10
10.24938007573792
 20
3.467850965163846
 30
0.0
 11
10.24954219760794
 21
3.493545006170977
 31
0.0
1001
ACAD
1000
ASC_BOUNDS
1002
{
1070
    19
1002
}
  0
TEXT
  5
5699
330
5643
100
AcDbEntity
  8
0
100
AcDbText
 10
66.24482379919353
 20
0.7698485708019974
 30
0.0
 40
1.1055
  1
WORK ORDER: ( )
 50
90.0
 41
0.9
  7
CAT_BORDER$0$ROMANS
100
AcDbText
  0
TEXT
  5
569A
330
5643
100
AcDbEntity
  8
0
100
AcDbText
 10
67.90690698866296
 20
3.502753249128737
 30
0.0
 40
1.1055
  1
CHECKED BY:
  7
CAT_BORDER$0$ROMANS
100
AcDbText
  0
TEXT
  5
569B
330
5643
100
AcDbEntity
  8
0
100
AcDbText
 10
67.90690698866296
 20
13.80825974738626
 30
0.0
 40
1.1055
  1
DWG. CHECK
  7
CAT_BORDER$0$ROMANS
100
AcDbText
  0
TEXT
  5
569C
330
5643
100
AcDbEntity
  8
0
100
AcDbText
 10
67.90690698866296
 20
8.655506498257498
 30
0.0
 40
1.1055
  1
BUILT BY:
  7
CAT_BORDER$0$ROMANS
100
AcDbText
  0
TEXT
  5
569D
330
5643
100
AcDbEntity
  8
0
100
AcDbText
 10
99.41250000000003
 20
3.502753249128737
 30
0.0
 40
1.1055
  1
DRAWN BY:
  7
CAT_BORDER$0$ROMANS
100
AcDbText
  0
TEXT
  5
569E
330
5643
100
AcDbEntity
  8
0
100
AcDbText
 10
99.41250000000003
 20
8.655506498257498
 30
0.0
 40
1.1055
  1
PURCHASE ORDER
  7
CAT_BORDER$0$ROMANS
100
AcDbText
  0
TEXT
  5
569F
330
5643
100
AcDbEntity
  8
0
100
AcDbText
 10
99.41250000000003
 20
13.80825974738626
 30
0.0
 40
1.1055
  1
ARCH'T OR ENG'R.
  7
CAT_BORDER$0$ROMANS
100
AcDbText
  0
TEXT
  5
56A0
330
5643
100
AcDbEntity
  8
0
100
AcDbText
 10
220.5524394415514
 20
8.236073841958663
 30
0.0
 40
1.1055
  1
SERIAL#
  7
CAT_BORDER$0$ROMANS
100
AcDbText
  0
TEXT
  5
56A1
330
5643
100
AcDbEntity
  8
0
100
AcDbText
 10
220.4125000000001
 20
13.80825974738626
 30
0.0
 40
1.1055
  1
PRECISION REP
  7
CAT_BORDER$0$ROMANS
100
AcDbText
  0
TEXT
  5
56A2
330
5643
100
AcDbEntity
  8
0
100
AcDbText
 10
143.4125
 20
3.502753249128737
 30
0.0
 40
1.1055
  1
DATE
  7
CAT_BORDER$0$ROMANS
100
AcDbText
  0
TEXT
  5
56A3
330
5643
100
AcDbEntity
  8
0
100
AcDbText
 10
159.9125
 20
3.502753249128737
 30
0.0
 40
1.1055
  1
MODEL#
  7
CAT_BORDER$0$ROMANS
100
AcDbText
  0
TEXT
  5
56A4
330
5643
100
AcDbEntity
  8
0
100
AcDbText
 10
143.4125
 20
13.80825974738626
 30
0.0
 40
1.1055
  1
PROJECT
  7
CAT_BORDER$0$ROMANS
100
AcDbText
  0
TEXT
  5
56A5
330
5643
100
AcDbEntity
  8
0
100
AcDbText
 10
143.4125
 20
8.655506498257498
 30
0.0
 40
1.1055
  1
REVISION
  7
CAT_BORDER$0$ROMANS
100
AcDbText
  0
TEXT
  5
56A6
330
5643
100
AcDbEntity
  8
0
100
AcDbText
 10
159.9125
 20
8.655506498257498
 30
0.0
 40
1.1055
  1
PURCHASER
  7
CAT_BORDER$0$ROMANS
100
AcDbText
  0
TEXT
  5
56A7
330
5643
100
AcDbEntity
  8
0
100
AcDbText
 10
209.4125
 20
3.502753249128737
 30
0.0
 40
1.1055
  1
QTY.
  7
CAT_BORDER$0$ROMANS
100
AcDbText
  0
LINE
  5
56A8
330
5643
100
AcDbEntity
  8
0
 62
     1
100
AcDbLine
 10
67.49440698866294
 20
5.15275324912876
 30
0.0
 11
220.0
 21
5.15275324912876
 31
0.0
  0
LINE
  5
56A9
330
5643
100
AcDbEntity
  8
0
 62
     1
100
AcDbLine
 10
275.0
 20
0.0
 30
0.0
 11
275.0
 21
199.455929387806
 31
0.0
  0
LINE
  5
56AA
330
5643
100
AcDbEntity
  8
0
 62
     1
100
AcDbLine
 10
275.0
 20
199.455929387806
 30
0.0
 11
0.0
 21
199.455929387806
 31
0.0
  0
LINE
  5
56AB
330
5643
100
AcDbEntity
  8
0
 62
     1
100
AcDbLine
 10
0.0
 20
199.455929387806
 30
0.0
 11
0.0
 21
0.0
 31
0.0
  0
LINE
  5
56AC
330
5643
100
AcDbEntity
  8
0
 62
     1
100
AcDbLine
 10
0.0
 20
0.0
 30
0.0
 11
275.0
 21
0.0
 31
0.0
  0
LINE
  5
56AD
330
5643
100
AcDbEntity
  8
0
 62
     1
100
AcDbLine
 10
67.49440698866294
 20
0.0
 30
0.0
 11
67.49440698866294
 21
15.45825974738624
 31
0.0
  0
LINE
  5
56AE
330
5643
100
AcDbEntity
  8
0
 62
     1
100
AcDbLine
 10
99.0
 20
0.0
 30
0.0
 11
99.0
 21
15.45825974738624
 31
0.0
  0
LINE
  5
56AF
330
5643
100
AcDbEntity
  8
0
 62
     1
100
AcDbLine
 10
143.0
 20
0.0
 30
0.0
 11
143.0
 21
15.45825974738624
 31
0.0
  0
LINE
  5
56B0
330
5643
100
AcDbEntity
  8
0
 62
     1
100
AcDbLine
 10
159.5
 20
0.0
 30
0.0
 11
159.5
 21
10.30550649825748
 31
0.0
  0
LINE
  5
56B1
330
5643
100
AcDbEntity
  8
0
 62
     1
100
AcDbLine
 10
220.0
 20
0.0
 30
0.0
 11
220.0
 21
15.45825974738624
 31
0.0
  0
LINE
  5
56B2
330
5643
100
AcDbEntity
  8
0
 62
     1
100
AcDbLine
 10
209.0
 20
0.0
 30
0.0
 11
209.0
 21
5.15275324912876
 31
0.0
  0
LINE
  5
56B3
330
5643
100
AcDbEntity
  8
0
 62
     1
100
AcDbLine
 10
0.0
 20
15.45825974738624
 30
0.0
 11
275.0
 21
15.45825974738624
 31
0.0
  0
LINE
  5
56B4
330
5643
100
AcDbEntity
  8
0
 62
     1
100
AcDbLine
 10
67.49440698866294
 20
10.30550649825748
 30
0.0
 11
275.0
 21
10.30550649825748
 31
0.0
  0
INSERT
  5
56B5
330
5643
100
AcDbEntity
  8
0
100
AcDbBlockReference
  2
CAT_BORDER$0$LINETYPE
 10
417.5410754266801
 20
2.723361433347804
 30
0.0
  0
INSERT
  5
56B6
330
5643
100
AcDbEntity
  8
0
100
AcDbBlockReference
  2
CAT_BORDER$0$LINETYPE
 10
379.7092142995633
 20
-49.94772047431786
 30
0.0
  0
ENDBLK
  5
56B7
330
5643
100
AcDbEntity
  8
0
100
AcDbBlockEnd
  0
BLOCK
  5
56FA
330
56F9
100
AcDbEntity
  8
0
100
AcDbBlockBegin
  2
*X10
 70
     1
 10
0.0
 20
0.0
 30
0.0
  3
*X10
  1

  0
LINE
  5
56FB
330
56F9
100
AcDbEntity
  8
0
 62
     0
100
AcDbLine
 10
-39.38783740946116
 20
-279.4947837961181
 30
0.0
 11
-38.65407559127778
 21
-278.7610219779348
 31
0.0
  0
LINE
  5
56FC
330
56F9
100
AcDbEntity
  8
0
 62
     0
100
AcDbLine
 10
-39.50054631068232
 20
-279.4749101758668
 30
0.0
 11
-38.76678449249896
 21
-278.7411483576835
 31
0.0
  0
LINE
  5
56FD
330
56F9
100
AcDbEntity
  8
0
 62
     0
100
AcDbLine
 10
-39.61325521190351
 20
-279.4550365556156
 30
0.0
 11
-38.87949339372014
 21
-278.7212747374322
 31
0.0
  0
LINE
  5
56FE
330
56F9
100
AcDbEntity
  8
0
 62
     0
100
AcDbLine
 10
-39.7259641131247
 20
-279.4351629353642
 30
0.0
 11
-38.99220229494132
 21
-278.7014011171809
 31
0.0
  0
LINE
  5
56FF
330
56F9
100
AcDbEntity
  8
0
 62
     0
100
AcDbLine
 10
-39.83867301434587
 20
-279.415289315113
 30
0.0
 11
-39.1049111961625
 21
-278.6815274969296
 31
0.0
  0
LINE
  5
5700
330
56F9
100
AcDbEntity
  8
0
 62
     0
100
AcDbLine
 10
-39.95138191556705
 20
-279.3954156948617
 30
0.0
 11
-39.21762009738368
 21
-278.6616538766783
 31
0.0
  0
LINE
  5
5701
330
56F9
100
AcDbEntity
  8
0
 62
     0
100
AcDbLine
 10
-40.06409081678821
 20
-279.3755420746104
 30
0.0
 11
-39.33032899860484
 21
-278.641780256427
 31
0.0
  0
LINE
  5
5702
330
56F9
100
AcDbEntity
  8
0
 62
     0
100
AcDbLine
 10
-40.1767997180094
 20
-279.3556684543591
 30
0.0
 11
-40.06372011526283
 21
-279.2425888516125
 31
0.0
  0
LINE
  5
5703
330
56F9
100
AcDbEntity
  8
0
 62
     0
100
AcDbLine
 10
-39.89688315430998
 20
-279.0757518906596
 30
0.0
 11
-39.44303789982602
 21
-278.6219066361756
 31
0.0
  0
LINE
  5
5704
330
56F9
100
AcDbEntity
  8
0
 62
     0
100
AcDbLine
 10
-40.06372011526283
 20
-279.2425888516125
 30
0.0
 11
-39.89688315430998
 21
-279.0757518906597
 31
0.0
  0
LINE
  5
5705
330
56F9
100
AcDbEntity
  8
0
 62
     0
100
AcDbLine
 10
-40.28950861923056
 20
-279.3357948341077
 30
0.0
 11
-40.10500766087813
 21
-279.1512938757553
 31
0.0
  0
LINE
  5
5706
330
56F9
100
AcDbEntity
  8
0
 62
     0
100
AcDbLine
 10
-39.94078059974761
 20
-278.9870668146248
 30
0.0
 11
-39.5557468010472
 21
-278.6020330159244
 31
0.0
  0
LINE
  5
5707
330
56F9
100
AcDbEntity
  8
0
 62
     0
100
AcDbLine
 10
-40.10500766087811
 20
-279.1512938757553
 30
0.0
 11
-39.9407805997476
 21
-278.9870668146248
 31
0.0
  0
LINE
  5
5708
330
56F9
100
AcDbEntity
  8
0
 62
     0
100
AcDbLine
 10
-40.36990717715883
 20
-279.2836108705636
 30
0.0
 11
-40.1462952064934
 21
-279.0599988998982
 31
0.0
  0
LINE
  5
5709
330
56F9
100
AcDbEntity
  8
0
 62
     0
100
AcDbLine
 10
-39.98467804518519
 20
-278.8983817385899
 30
0.0
 11
-39.66845570226838
 21
-278.5821593956731
 31
0.0
  0
LINE
  5
570A
330
56F9
100
AcDbEntity
  8
0
 62
     0
100
AcDbLine
 10
-40.14629520649338
 20
-279.0599988998981
 30
0.0
 11
-39.98467804518524
 21
-278.89838173859
 31
0.0
  0
LINE
  5
570B
330
56F9
100
AcDbEntity
  8
0
 62
     0
100
AcDbLine
 10
-40.32903303677044
 20
-279.1101542087027
 30
0.0
 11
-40.18758275210868
 21
-278.968703924041
 31
0.0
  0
LINE
  5
570C
330
56F9
100
AcDbEntity
  8
0
 62
     0
100
AcDbLine
 10
-40.02857549062279
 20
-278.8096966625551
 30
0.0
 11
-39.78116460348956
 21
-278.5622857754218
 31
0.0
  0
LINE
  5
570D
330
56F9
100
AcDbEntity
  8
0
 62
     0
100
AcDbLine
 10
-40.18758275210866
 20
-278.9687039240409
 30
0.0
 11
-40.02857549062286
 21
-278.8096966625551
 31
0.0
  0
LINE
  5
570E
330
56F9
100
AcDbEntity
  8
0
 62
     0
100
AcDbLine
 10
-40.28815889638206
 20
-278.9366975468419
 30
0.0
 11
-40.22887029772395
 21
-278.8774089481838
 31
0.0
  0
LINE
  5
570F
330
56F9
100
AcDbEntity
  8
0
 62
     0
100
AcDbLine
 10
-40.07247293606041
 20
-278.7210115865202
 30
0.0
 11
-39.89387350471074
 21
-278.5424121551705
 31
0.0
  0
LINE
  5
5710
330
56F9
100
AcDbEntity
  8
0
 62
     0
100
AcDbLine
 10
-40.22887029772394
 20
-278.8774089481837
 30
0.0
 11
-40.07247293606049
 21
-278.7210115865203
 31
0.0
  0
LINE
  5
5711
330
56F9
100
AcDbEntity
  8
0
 62
     0
100
AcDbLine
 10
-40.27015784333923
 20
-278.7861139723266
 30
0.0
 11
-40.11637038149812
 21
-278.6323265104854
 31
0.0
  0
LINE
  5
5712
330
56F9
100
AcDbEntity
  8
0
 62
     0
100
AcDbLine
 10
-40.116370381498
 20
-278.6323265104853
 30
0.0
 11
-40.00658240593192
 21
-278.5225385349192
 31
0.0
  0
LINE
  5
5713
330
56F9
100
AcDbEntity
  8
0
 62
     0
100
AcDbLine
 10
-40.31144538895452
 20
-278.6948189964694
 30
0.0
 11
-40.30692854477254
 21
-278.6903021522874
 31
0.0
  0
LINE
  5
5714
330
56F9
100
AcDbEntity
  8
0
 62
     0
100
AcDbLine
 10
-39.69215944246978
 20
-278.0755330499846
 30
0.0
 11
-39.59237083622737
 21
-277.9757444437422
 31
0.0
  0
LINE
  5
5715
330
56F9
100
AcDbEntity
  8
0
 62
     0
100
AcDbLine
 10
-40.30692854477248
 20
-278.6903021522873
 30
0.0
 11
-40.20641061560525
 21
-278.5897842231201
 31
0.0
  0
LINE
  5
5716
330
56F9
100
AcDbEntity
  8
0
 62
     0
100
AcDbLine
 10
-40.16017812122486
 20
-278.5435517287397
 30
0.0
 11
-40.11929130715309
 21
-278.5026649146679
 31
0.0
  0
LINE
  5
5717
330
56F9
100
AcDbEntity
  8
0
 62
     0
100
AcDbLine
 10
-40.20466276288202
 20
-278.5880363703969
 30
0.0
 11
-40.16017812122502
 21
-278.5435517287398
 31
0.0
  0
LINE
  5
5718
330
56F9
100
AcDbEntity
  8
0
 62
     0
100
AcDbLine
 10
-40.41225758634928
 20
-278.6630486723916
 30
0.0
 11
-40.23018407840633
 21
-278.4809751644487
 31
0.0
  0
LINE
  5
5719
330
56F9
100
AcDbEntity
  8
0
 62
     0
100
AcDbLine
 10
-39.73691136690469
 20
-277.987702452947
 30
0.0
 11
-39.6371227606623
 21
-277.8879138467047
 31
0.0
  0
LINE
  5
571A
330
56F9
100
AcDbEntity
  8
0
 62
     0
100
AcDbLine
 10
-40.23018407840633
 20
-278.4809751644486
 30
0.0
 11
-40.20259152936932
 21
-278.4533826154117
 31
0.0
  0
LINE
  5
571B
330
56F9
100
AcDbEntity
  8
0
 62
     0
100
AcDbLine
 10
-40.57051962558798
 20
-278.6887281901577
 30
0.0
 11
-40.51758662792604
 21
-278.6357951924959
 31
0.0
  0
LINE
  5
571C
330
56F9
100
AcDbEntity
  8
0
 62
     0
100
AcDbLine
 10
-39.78166329133961
 20
-277.8998718559094
 30
0.0
 11
-39.68187468509722
 21
-277.8000832496671
 31
0.0
  0
LINE
  5
571D
330
56F9
100
AcDbEntity
  8
0
 62
     0
100
AcDbLine
 10
-40.51758662792603
 20
-278.6357951924959
 30
0.0
 11
-40.33869630383812
 21
-278.456904868408
 31
0.0
  0
LINE
  5
571E
330
56F9
100
AcDbEntity
  8
0
 62
     0
100
AcDbLine
 10
-40.33869630383812
 20
-278.456904868408
 30
0.0
 11
-40.24734345380425
 21
-278.3655520183742
 31
0.0
  0
LINE
  5
571F
330
56F9
100
AcDbEntity
  8
0
 62
     0
100
AcDbLine
 10
-40.84083440815077
 20
-278.8264604512481
 30
0.0
 11
-40.62291566950281
 21
-278.6085417126002
 31
0.0
  0
LINE
  5
5720
330
56F9
100
AcDbEntity
  8
0
 62
     0
100
AcDbLine
 10
-39.82641521577454
 20
-277.812041258872
 30
0.0
 11
-39.72662660953214
 21
-277.7122526526295
 31
0.0
  0
LINE
  5
5721
330
56F9
100
AcDbEntity
  8
0
 62
     0
100
AcDbLine
 10
-40.62291566950278
 20
-278.6085417126002
 30
0.0
 11
-40.44720852926992
 21
-278.4328345723673
 31
0.0
  0
LINE
  5
5722
330
56F9
100
AcDbEntity
  8
0
 62
     0
100
AcDbLine
 10
-40.44720852926991
 20
-278.4328345723673
 30
0.0
 11
-40.29209537823916
 21
-278.2777214213366
 31
0.0
  0
LINE
  5
5723
330
56F9
100
AcDbEntity
  8
0
 62
     0
100
AcDbLine
 10
-41.07098574326527
 20
-278.9240292648902
 30
0.0
 11
-40.96884180887604
 21
-278.821885330501
 31
0.0
  0
LINE
  5
5724
330
56F9
100
AcDbEntity
  8
0
 62
     0
100
AcDbLine
 10
-39.87116714020946
 20
-277.7242106618344
 30
0.0
 11
-39.77137853396706
 21
-277.624422055592
 31
0.0
  0
LINE
  5
5725
330
56F9
100
AcDbEntity
  8
0
 62
     0
100
AcDbLine
 10
-40.96884180887601
 20
-278.8218853305009
 30
0.0
 11
-40.72824471107957
 21
-278.5812882327045
 31
0.0
  0
LINE
  5
5726
330
56F9
100
AcDbEntity
  8
0
 62
     0
100
AcDbLine
 10
-40.55572075470169
 20
-278.4087642763266
 30
0.0
 11
-40.33684730267409
 21
-278.189890824299
 31
0.0
  0
LINE
  5
5727
330
56F9
100
AcDbEntity
  8
0
 62
     0
100
AcDbLine
 10
-40.72824471107958
 20
-278.5812882327045
 30
0.0
 11
-40.55572075470172
 21
-278.4087642763266
 31
0.0
  0
LINE
  5
5728
330
56F9
100
AcDbEntity
  8
0
 62
     0
100
AcDbLine
 10
-41.11573766770019
 20
-278.8361986678526
 30
0.0
 11
-41.01359373331094
 21
-278.7340547334634
 31
0.0
  0
LINE
  5
5729
330
56F9
100
AcDbEntity
  8
0
 62
     0
100
AcDbLine
 10
-39.91591906464438
 20
-277.6363800647968
 30
0.0
 11
-39.81613045840198
 21
-277.5365914585544
 31
0.0
  0
LINE
  5
572A
330
56F9
100
AcDbEntity
  8
0
 62
     0
100
AcDbLine
 10
-41.01359373331097
 20
-278.7340547334634
 30
0.0
 11
-40.83357375265634
 21
-278.5540347528088
 31
0.0
  0
LINE
  5
572B
330
56F9
100
AcDbEntity
  8
0
 62
     0
100
AcDbLine
 10
-40.66423298013347
 20
-278.3846939802859
 30
0.0
 11
-40.38159922710902
 21
-278.1020602272615
 31
0.0
  0
LINE
  5
572C
330
56F9
100
AcDbEntity
  8
0
 62
     0
100
AcDbLine
 10
-40.83357375265634
 20
-278.5540347528088
 30
0.0
 11
-40.66423298013349
 21
-278.384693980286
 31
0.0
  0
LINE
  5
572D
330
56F9
100
AcDbEntity
  8
0
 62
     0
100
AcDbLine
 10
-41.16048959213512
 20
-278.7483680708151
 30
0.0
 11
-41.05834565774588
 21
-278.6462241364259
 31
0.0
  0
LINE
  5
572E
330
56F9
100
AcDbEntity
  8
0
 62
     0
100
AcDbLine
 10
-39.96067098907931
 20
-277.5485494677593
 30
0.0
 11
-39.86088238283691
 21
-277.4487608615169
 31
0.0
  0
LINE
  5
572F
330
56F9
100
AcDbEntity
  8
0
 62
     0
100
AcDbLine
 10
-41.05834565774586
 20
-278.6462241364258
 30
0.0
 11
-40.93646758632097
 21
-278.524346065001
 31
0.0
  0
LINE
  5
5730
330
56F9
100
AcDbEntity
  8
0
 62
     0
100
AcDbLine
 10
-40.77274520556526
 20
-278.3606236842452
 30
0.0
 11
-40.42635115154395
 21
-278.0142296302239
 31
0.0
  0
LINE
  5
5731
330
56F9
100
AcDbEntity
  8
0
 62
     0
100
AcDbLine
 10
-40.93646758632099
 20
-278.524346065001
 30
0.0
 11
-40.77274520556528
 21
-278.3606236842453
 31
0.0
  0
LINE
  5
5732
330
56F9
100
AcDbEntity
  8
0
 62
     0
100
AcDbLine
 10
-41.20524151657004
 20
-278.6605374737775
 30
0.0
 11
-41.10309758218079
 21
-278.5583935393883
 31
0.0
  0
LINE
  5
5733
330
56F9
100
AcDbEntity
  8
0
 62
     0
100
AcDbLine
 10
-40.00542291351423
 20
-277.4607188707217
 30
0.0
 11
-39.90563430727183
 21
-277.3609302644794
 31
0.0
  0
LINE
  5
5734
330
56F9
100
AcDbEntity
  8
0
 62
     0
100
AcDbLine
 10
-41.10309758218081
 20
-278.5583935393883
 30
0.0
 11
-40.90160135388338
 21
-278.3568973110909
 31
0.0
  0
LINE
  5
5735
330
56F9
100
AcDbEntity
  8
0
 62
     0
100
AcDbLine
 10
-40.87969543086212
 20
-278.3349913880696
 30
0.0
 11
-40.47110307597886
 21
-277.9263990331864
 31
0.0
  0
LINE
  5
5736
330
56F9
100
AcDbEntity
  8
0
 62
     0
100
AcDbLine
 10
-40.9016013538834
 20
-278.3568973110909
 30
0.0
 11
-40.87969543086214
 21
-278.3349913880696
 31
0.0
  0
LINE
  5
5737
330
56F9
100
AcDbEntity
  8
0
 62
     0
100
AcDbLine
 10
-41.24999344100497
 20
-278.57270687674
 30
0.0
 11
-41.14784950661573
 21
-278.4705629423507
 31
0.0
  0
LINE
  5
5738
330
56F9
100
AcDbEntity
  8
0
 62
     0
100
AcDbLine
 10
-40.05017483794916
 20
-277.3728882736842
 30
0.0
 11
-39.95038623170675
 21
-277.2730996674417
 31
0.0
  0
LINE
  5
5739
330
56F9
100
AcDbEntity
  8
0
 62
     0
100
AcDbLine
 10
-41.14784950661571
 20
-278.4705629423507
 30
0.0
 11
-40.51585500041379
 21
-277.8385684361488
 31
0.0
  0
LINE
  5
573A
330
56F9
100
AcDbEntity
  8
0
 62
     0
100
AcDbLine
 10
-40.13520989857035
 20
-277.4579233343053
 30
0.0
 11
-40.05017483794913
 21
-277.3728882736842
 31
0.0
  0
LINE
  5
573B
330
56F9
100
AcDbEntity
  8
0
 62
     0
100
AcDbLine
 10
-41.29474536543989
 20
-278.4848762797024
 30
0.0
 11
-41.19260143105066
 21
-278.3827323453132
 31
0.0
  0
LINE
  5
573C
330
56F9
100
AcDbEntity
  8
0
 62
     0
100
AcDbLine
 10
-40.09492676238408
 20
-277.2850576766466
 30
0.0
 11
-39.99513815614167
 21
-277.1852690704042
 31
0.0
  0
LINE
  5
573D
330
56F9
100
AcDbEntity
  8
0
 62
     0
100
AcDbLine
 10
-41.19260143105065
 20
-278.3827323453131
 30
0.0
 11
-40.56060692484869
 21
-277.7507378391113
 31
0.0
  0
LINE
  5
573E
330
56F9
100
AcDbEntity
  8
0
 62
     0
100
AcDbLine
 10
-40.39402495983168
 20
-277.5841558740942
 30
0.0
 11
-40.09492676238404
 21
-277.2850576766466
 31
0.0
  0
LINE
  5
573F
330
56F9
100
AcDbEntity
  8
0
 62
     0
100
AcDbLine
 10
-41.3394972898748
 20
-278.3970456826649
 30
0.0
 11
-41.23735335548558
 21
-278.2949017482756
 31
0.0
  0
LINE
  5
5740
330
56F9
100
AcDbEntity
  8
0
 62
     0
100
AcDbLine
 10
-40.13967868681899
 20
-277.197227079609
 30
0.0
 11
-40.0398900805766
 21
-277.0974384733666
 31
0.0
  0
LINE
  5
5741
330
56F9
100
AcDbEntity
  8
0
 62
     0
100
AcDbLine
 10
-41.23735335548557
 20
-278.2949017482756
 30
0.0
 11
-40.65284002109301
 21
-277.7103884138831
 31
0.0
  0
LINE
  5
5742
330
56F9
100
AcDbEntity
  8
0
 62
     0
100
AcDbLine
 10
-40.65284002109302
 20
-277.710388413883
 30
0.0
 11
-40.33209807941335
 21
-277.3896464722034
 31
0.0
  0
LINE
  5
5743
330
56F9
100
AcDbEntity
  8
0
 62
     0
100
AcDbLine
 10
-41.38424921430973
 20
-278.3092150856273
 30
0.0
 11
-41.28210527992051
 21
-278.2070711512381
 31
0.0
  0
LINE
  5
5744
330
56F9
100
AcDbEntity
  8
0
 62
     0
100
AcDbLine
 10
-40.18443061125393
 20
-277.1093964825715
 30
0.0
 11
-40.08464200501151
 21
-277.0096078763291
 31
0.0
  0
LINE
  5
5745
330
56F9
100
AcDbEntity
  8
0
 62
     0
100
AcDbLine
 10
-41.2821052799205
 20
-278.2070711512381
 30
0.0
 11
-40.91165508235433
 21
-277.8366209536719
 31
0.0
  0
LINE
  5
5746
330
56F9
100
AcDbEntity
  8
0
 62
     0
100
AcDbLine
 10
-40.91165508235427
 20
-277.8366209536719
 30
0.0
 11
-40.60241286197611
 21
-277.5273787332937
 31
0.0
  0
LINE
  5
5747
330
56F9
100
AcDbEntity
  8
0
 62
     0
100
AcDbLine
 10
-41.42900113874467
 20
-278.2213844885897
 30
0.0
 11
-41.32685720435543
 21
-278.1192405542005
 31
0.0
  0
LINE
  5
5748
330
56F9
100
AcDbEntity
  8
0
 62
     0
100
AcDbLine
 10
-40.22918253568884
 20
-277.0215658855339
 30
0.0
 11
-40.12939392944644
 21
-276.9217772792915
 31
0.0
  0
LINE
  5
5749
330
56F9
100
AcDbEntity
  8
0
 62
     0
100
AcDbLine
 10
-41.32685720435541
 20
-278.1192405542005
 30
0.0
 11
-40.99595323982196
 21
-277.788336589667
 31
0.0
  0
LINE
  5
574A
330
56F9
100
AcDbEntity
  8
0
 62
     0
100
AcDbLine
 10
-40.87272764453877
 20
-277.6651109943838
 30
0.0
 11
-40.69486269815346
 21
-277.4872460479985
 31
0.0
  0
LINE
  5
574B
330
56F9
100
AcDbEntity
  8
0
 62
     0
100
AcDbLine
 10
-40.99595323982194
 20
-277.788336589667
 30
0.0
 11
-40.87272764453897
 21
-277.665110994384
 31
0.0
  0
LINE
  5
574C
330
56F9
100
AcDbEntity
  8
0
 62
     0
100
AcDbLine
 10
-41.47375306317957
 20
-278.1335538915521
 30
0.0
 11
-41.37160912879036
 21
-278.031409957163
 31
0.0
  0
LINE
  5
574D
330
56F9
100
AcDbEntity
  8
0
 62
     0
100
AcDbLine
 10
-40.27393446012377
 20
-276.9337352884964
 30
0.0
 11
-40.17414585388136
 21
-276.833946682254
 31
0.0
  0
LINE
  5
574E
330
56F9
100
AcDbEntity
  8
0
 62
     0
100
AcDbLine
 10
-41.37160912879035
 20
-278.0314099571629
 30
0.0
 11
-40.73961462258838
 21
-277.399415450961
 31
0.0
  0
LINE
  5
574F
330
56F9
100
AcDbEntity
  8
0
 62
     0
100
AcDbLine
 10
-41.51850498761451
 20
-278.0457232945146
 30
0.0
 11
-41.41636105322528
 21
-277.9435793601255
 31
0.0
  0
LINE
  5
5750
330
56F9
100
AcDbEntity
  8
0
 62
     0
100
AcDbLine
 10
-40.3186863845587
 20
-276.8459046914588
 30
0.0
 11
-40.21889777831629
 21
-276.7461160852164
 31
0.0
  0
LINE
  5
5751
330
56F9
100
AcDbEntity
  8
0
 62
     0
100
AcDbLine
 10
-41.41636105322527
 20
-277.9435793601254
 30
0.0
 11
-40.78436654702331
 21
-277.3115848539234
 31
0.0
  0
LINE
  5
5752
330
56F9
100
AcDbEntity
  8
0
 62
     0
100
AcDbLine
 10
-41.56325691204942
 20
-277.9578926974771
 30
0.0
 11
-41.46111297766021
 21
-277.8557487630879
 31
0.0
  0
LINE
  5
5753
330
56F9
100
AcDbEntity
  8
0
 62
     0
100
AcDbLine
 10
-40.36343830899361
 20
-276.7580740944213
 30
0.0
 11
-40.2636497027512
 21
-276.6582854881789
 31
0.0
  0
LINE
  5
5754
330
56F9
100
AcDbEntity
  8
0
 62
     0
100
AcDbLine
 10
-41.4611129776602
 20
-277.8557487630878
 30
0.0
 11
-40.82911847145823
 21
-277.2237542568859
 31
0.0
  0
LINE
  5
5755
330
56F9
100
AcDbEntity
  8
0
 62
     0
100
AcDbLine
 10
-41.60800883648435
 20
-277.8700621004395
 30
0.0
 11
-41.50586490209513
 21
-277.7679181660503
 31
0.0
  0
LINE
  5
5756
330
56F9
100
AcDbEntity
  8
0
 62
     0
100
AcDbLine
 10
-40.40819023342854
 20
-276.6702434973837
 30
0.0
 11
-40.30840162718615
 21
-276.5704548911414
 31
0.0
  0
LINE
  5
5757
330
56F9
100
AcDbEntity
  8
0
 62
     0
100
AcDbLine
 10
-41.50586490209512
 20
-277.7679181660503
 30
0.0
 11
-40.87387039589315
 21
-277.1359236598483
 31
0.0
  0
LINE
  5
5758
330
56F9
100
AcDbEntity
  8
0
 62
     0
100
AcDbLine
 10
-41.65276076091928
 20
-277.782231503402
 30
0.0
 11
-41.55061682653006
 21
-277.6800875690128
 31
0.0
  0
LINE
  5
5759
330
56F9
100
AcDbEntity
  8
0
 62
     0
100
AcDbLine
 10
-40.45294215786347
 20
-276.5824129003462
 30
0.0
 11
-40.35315355162107
 21
-276.4826242941037
 31
0.0
  0
LINE
  5
575A
330
56F9
100
AcDbEntity
  8
0
 62
     0
100
AcDbLine
 10
-41.55061682653004
 20
-277.6800875690128
 30
0.0
 11
-40.91862232032808
 21
-277.0480930628108
 31
0.0
  0
LINE
  5
575B
330
56F9
100
AcDbEntity
  8
0
 62
     0
100
AcDbLine
 10
-41.6975126853542
 20
-277.6944009063644
 30
0.0
 11
-41.59536875096497
 21
-277.5922569719752
 31
0.0
  0
LINE
  5
575C
330
56F9
100
AcDbEntity
  8
0
 62
     0
100
AcDbLine
 10
-40.49769408229838
 20
-276.4945823033086
 30
0.0
 11
-40.39790547605599
 21
-276.3947936970662
 31
0.0
  0
LINE
  5
575D
330
56F9
100
AcDbEntity
  8
0
 62
     0
100
AcDbLine
 10
-41.59536875096496
 20
-277.5922569719751
 30
0.0
 11
-40.963374244763
 21
-276.9602624657732
 31
0.0
  0
LINE
  5
575E
330
56F9
100
AcDbEntity
  8
0
 62
     0
100
AcDbLine
 10
-41.74226460978912
 20
-277.6065703093268
 30
0.0
 11
-41.6401206753999
 21
-277.5044263749377
 31
0.0
  0
LINE
  5
575F
330
56F9
100
AcDbEntity
  8
0
 62
     0
100
AcDbLine
 10
-40.54244600673332
 20
-276.4067517062711
 30
0.0
 11
-40.44265740049091
 21
-276.3069631000287
 31
0.0
  0
LINE
  5
5760
330
56F9
100
AcDbEntity
  8
0
 62
     0
100
AcDbLine
 10
-41.64012067539989
 20
-277.5044263749376
 30
0.0
 11
-41.00812616919793
 21
-276.8724318687357
 31
0.0
  0
LINE
  5
5761
330
56F9
100
AcDbEntity
  8
0
 62
     0
100
AcDbLine
 10
-41.78701653422404
 20
-277.5187397122893
 30
0.0
 11
-41.68487259983481
 21
-277.4165957779001
 31
0.0
  0
LINE
  5
5762
330
56F9
100
AcDbEntity
  8
0
 62
     0
100
AcDbLine
 10
-40.58719793116824
 20
-276.3189211092335
 30
0.0
 11
-40.48740932492584
 21
-276.2191325029911
 31
0.0
  0
LINE
  5
5763
330
56F9
100
AcDbEntity
  8
0
 62
     0
100
AcDbLine
 10
-41.68487259983482
 20
-277.4165957779001
 30
0.0
 11
-41.05287809363285
 21
-276.7846012716981
 31
0.0
  0
LINE
  5
5764
330
56F9
100
AcDbEntity
  8
0
 62
     0
100
AcDbLine
 10
-41.83176845865896
 20
-277.4309091152518
 30
0.0
 11
-41.72962452426975
 21
-277.3287651808626
 31
0.0
  0
LINE
  5
5765
330
56F9
100
AcDbEntity
  8
0
 62
     0
100
AcDbLine
 10
-40.63194985560315
 20
-276.2310905121959
 30
0.0
 11
-40.53216124936076
 21
-276.1313019059535
 31
0.0
  0
LINE
  5
5766
330
56F9
100
AcDbEntity
  8
0
 62
     0
100
AcDbLine
 10
-41.72962452426975
 20
-277.3287651808625
 30
0.0
 11
-41.09763001806778
 21
-276.6967706746606
 31
0.0
  0
LINE
  5
5767
330
56F9
100
AcDbEntity
  8
0
 62
     0
100
AcDbLine
 10
-41.8765203830939
 20
-277.3430785182142
 30
0.0
 11
-41.77437644870467
 21
-277.240934583825
 31
0.0
  0
LINE
  5
5768
330
56F9
100
AcDbEntity
  8
0
 62
     0
100
AcDbLine
 10
-40.67670178003808
 20
-276.1432599151584
 30
0.0
 11
-40.57691317379568
 21
-276.043471308916
 31
0.0
  0
LINE
  5
5769
330
56F9
100
AcDbEntity
  8
0
 62
     0
100
AcDbLine
 10
-41.77437644870467
 20
-277.240934583825
 30
0.0
 11
-41.1423819425027
 21
-276.608940077623
 31
0.0
  0
LINE
  5
576A
330
56F9
100
AcDbEntity
  8
0
 62
     0
100
AcDbLine
 10
-41.92127230752881
 20
-277.2552479211766
 30
0.0
 11
-41.8191283731396
 21
-277.1531039867875
 31
0.0
  0
LINE
  5
576B
330
56F9
100
AcDbEntity
  8
0
 62
     0
100
AcDbLine
 10
-40.72145370447301
 20
-276.0554293181209
 30
0.0
 11
-40.6216650982306
 21
-275.9556407118785
 31
0.0
  0
LINE
  5
576C
330
56F9
100
AcDbEntity
  8
0
 62
     0
100
AcDbLine
 10
-41.81912837313959
 20
-277.1531039867874
 30
0.0
 11
-41.18713386693762
 21
-276.5211094805855
 31
0.0
  0
LINE
  5
576D
330
56F9
100
AcDbEntity
  8
0
 62
     0
100
AcDbLine
 10
-41.96602423196374
 20
-277.1674173241391
 30
0.0
 11
-41.86388029757452
 21
-277.0652733897499
 31
0.0
  0
LINE
  5
576E
330
56F9
100
AcDbEntity
  8
0
 62
     0
100
AcDbLine
 10
-35.8061910555824
 20
-271.0075841477578
 30
0.0
 11
-35.70443277119299
 21
-270.9058258633683
 31
0.0
  0
LINE
  5
576F
330
56F9
100
AcDbEntity
  8
0
 62
     0
100
AcDbLine
 10
-41.86388029757451
 20
-277.0652733897498
 30
0.0
 11
-41.23188579137255
 21
-276.4332788835479
 31
0.0
  0
LINE
  5
5770
330
56F9
100
AcDbEntity
  8
0
 62
     0
100
AcDbLine
 10
-40.76620562890794
 20
-275.9675987210833
 30
0.0
 11
-40.66641702266553
 21
-275.8678101148409
 31
0.0
  0
LINE
  5
5771
330
56F9
100
AcDbEntity
  8
0
 62
     0
100
AcDbLine
 10
-42.01077615639866
 20
-277.0795867271015
 30
0.0
 11
-41.90863222200944
 21
-276.9774427927123
 31
0.0
  0
LINE
  5
5772
330
56F9
100
AcDbEntity
  8
0
 62
     0
100
AcDbLine
 10
-35.93877357705487
 20
-271.0075841477578
 30
0.0
 11
-35.70443277119299
 21
-270.7732433418959
 31
0.0
  0
LINE
  5
5773
330
56F9
100
AcDbEntity
  8
0
 62
     0
100
AcDbLine
 10
-41.90863222200944
 20
-276.9774427927123
 30
0.0
 11
-41.27663771580747
 21
-276.3454482865104
 31
0.0
  0
LINE
  5
5774
330
56F9
100
AcDbEntity
  8
0
 62
     0
100
AcDbLine
 10
-40.81095755334286
 20
-275.8797681240458
 30
0.0
 11
-40.71116894710044
 21
-275.7799795178034
 31
0.0
  0
LINE
  5
5775
330
56F9
100
AcDbEntity
  8
0
 62
     0
100
AcDbLine
 10
-42.05552808083359
 20
-276.991756130064
 30
0.0
 11
-41.95338414644437
 21
-276.8896121956748
 31
0.0
  0
LINE
  5
5776
330
56F9
100
AcDbEntity
  8
0
 62
     0
100
AcDbLine
 10
-36.07135609852736
 20
-271.0075841477578
 30
0.0
 11
-35.70443277119299
 21
-270.6406608204234
 31
0.0
  0
LINE
  5
5777
330
56F9
100
AcDbEntity
  8
0
 62
     0
100
AcDbLine
 10
-41.95338414644437
 20
-276.8896121956748
 30
0.0
 11
-41.32138964024239
 21
-276.2576176894728
 31
0.0
  0
LINE
  5
5778
330
56F9
100
AcDbEntity
  8
0
 62
     0
100
AcDbLine
 10
-40.85570947777777
 20
-275.7919375270082
 30
0.0
 11
-40.75592087153537
 21
-275.6921489207658
 31
0.0
  0
LINE
  5
5779
330
56F9
100
AcDbEntity
  8
0
 62
     0
100
AcDbLine
 10
-42.10028000526851
 20
-276.9039255330264
 30
0.0
 11
-41.99813607087929
 21
-276.8017815986373
 31
0.0
  0
LINE
  5
577A
330
56F9
100
AcDbEntity
  8
0
 62
     0
100
AcDbLine
 10
-36.20393861999985
 20
-271.0075841477578
 30
0.0
 11
-35.70443277119299
 21
-270.5080782989509
 31
0.0
  0
LINE
  5
577B
330
56F9
100
AcDbEntity
  8
0
 62
     0
100
AcDbLine
 10
-41.99813607087929
 20
-276.8017815986372
 30
0.0
 11
-41.36614156467731
 21
-276.1697870924352
 31
0.0
  0
LINE
  5
577C
330
56F9
100
AcDbEntity
  8
0
 62
     0
100
AcDbLine
 10
-40.90046140221271
 20
-275.7041069299706
 30
0.0
 11
-40.80067279597029
 21
-275.6043183237283
 31
0.0
  0
LINE
  5
577D
330
56F9
100
AcDbEntity
  8
0
 62
     0
100
AcDbLine
 10
-42.14503192970343
 20
-276.8160949359889
 30
0.0
 11
-42.04288799531422
 21
-276.7139510015997
 31
0.0
  0
LINE
  5
577E
330
56F9
100
AcDbEntity
  8
0
 62
     0
100
AcDbLine
 10
-36.33652114147233
 20
-271.0075841477578
 30
0.0
 11
-35.70443277119299
 21
-270.3754957774785
 31
0.0
  0
LINE
  5
577F
330
56F9
100
AcDbEntity
  8
0
 62
     0
100
AcDbLine
 10
-42.04288799531422
 20
-276.7139510015996
 30
0.0
 11
-41.41089348911224
 21
-276.0819564953977
 31
0.0
  0
LINE
  5
5780
330
56F9
100
AcDbEntity
  8
0
 62
     0
100
AcDbLine
 10
-40.94521332664762
 20
-275.6162763329331
 30
0.0
 11
-40.84542472040522
 21
-275.5164877266907
 31
0.0
  0
LINE
  5
5781
330
56F9
100
AcDbEntity
  8
0
 62
     0
100
AcDbLine
 10
-42.18978385413836
 20
-276.7282643389513
 30
0.0
 11
-42.08763991974914
 21
-276.6261204045621
 31
0.0
  0
LINE
  5
5782
330
56F9
100
AcDbEntity
  8
0
 62
     0
100
AcDbLine
 10
-36.46910366294478
 20
-271.0075841477578
 30
0.0
 11
-35.70443277119299
 21
-270.242913256006
 31
0.0
  0
LINE
  5
5783
330
56F9
100
AcDbEntity
  8
0
 62
     0
100
AcDbLine
 10
-42.08763991974914
 20
-276.6261204045621
 30
0.0
 11
-41.45564541354717
 21
-275.9941258983601
 31
0.0
  0
LINE
  5
5784
330
56F9
100
AcDbEntity
  8
0
 62
     0
100
AcDbLine
 10
-40.98996525108254
 20
-275.5284457358955
 30
0.0
 11
-40.89017664484013
 21
-275.4286571296531
 31
0.0
  0
LINE
  5
5785
330
56F9
100
AcDbEntity
  8
0
 62
     0
100
AcDbLine
 10
-42.23453577857329
 20
-276.6404337419138
 30
0.0
 11
-42.13239184418406
 21
-276.5382898075245
 31
0.0
  0
LINE
  5
5786
330
56F9
100
AcDbEntity
  8
0
 62
     0
100
AcDbLine
 10
-36.60168618441726
 20
-271.0075841477578
 30
0.0
 11
-35.7069169949642
 21
-270.1128149583047
 31
0.0
  0
LINE
  5
5787
330
56F9
100
AcDbEntity
  8
0
 62
     0
100
AcDbLine
 10
-42.13239184418408
 20
-276.5382898075245
 30
0.0
 11
-41.50039733798208
 21
-275.9062953013226
 31
0.0
  0
LINE
  5
5788
330
56F9
100
AcDbEntity
  8
0
 62
     0
100
AcDbLine
 10
-41.03471717551747
 20
-275.4406151388579
 30
0.0
 11
-40.93492856927506
 21
-275.3408265326156
 31
0.0
  0
LINE
  5
5789
330
56F9
100
AcDbEntity
  8
0
 62
     0
100
AcDbLine
 10
-42.2792877030082
 20
-276.5526031448762
 30
0.0
 11
-42.17714376861898
 21
-276.450459210487
 31
0.0
  0
LINE
  5
578A
330
56F9
100
AcDbEntity
  8
0
 62
     0
100
AcDbLine
 10
-36.73426870588975
 20
-271.0075841477578
 30
0.0
 11
-35.83949951643669
 21
-270.1128149583047
 31
0.0
  0
LINE
  5
578B
330
56F9
100
AcDbEntity
  8
0
 62
     0
100
AcDbLine
 10
-42.17714376861898
 20
-276.450459210487
 30
0.0
 11
-41.54514926241701
 21
-275.818464704285
 31
0.0
  0
LINE
  5
578C
330
56F9
100
AcDbEntity
  8
0
 62
     0
100
AcDbLine
 10
-41.0794690999524
 20
-275.3527845418204
 30
0.0
 11
-40.97968049370998
 21
-275.2529959355781
 31
0.0
  0
LINE
  5
578D
330
56F9
100
AcDbEntity
  8
0
 62
     0
100
AcDbLine
 10
-42.32403962744313
 20
-276.4647725478386
 30
0.0
 11
-42.22189569305391
 21
-276.3626286134495
 31
0.0
  0
LINE
  5
578E
330
56F9
100
AcDbEntity
  8
0
 62
     0
100
AcDbLine
 10
-36.86685122736224
 20
-271.0075841477578
 30
0.0
 11
-35.97208203790917
 21
-270.1128149583047
 31
0.0
  0
LINE
  5
578F
330
56F9
100
AcDbEntity
  8
0
 62
     0
100
AcDbLine
 10
-42.22189569305391
 20
-276.3626286134494
 30
0.0
 11
-41.58990118685194
 21
-275.7306341072474
 31
0.0
  0
LINE
  5
5790
330
56F9
100
AcDbEntity
  8
0
 62
     0
100
AcDbLine
 10
-41.12422102438733
 20
-275.2649539447828
 30
0.0
 11
-41.02443241814492
 21
-275.1651653385405
 31
0.0
  0
LINE
  5
5791
330
56F9
100
AcDbEntity
  8
0
 62
     0
100
AcDbLine
 10
-42.36879155187804
 20
-276.3769419508011
 30
0.0
 11
-42.2684645752521
 21
-276.2766149741751
 31
0.0
  0
LINE
  5
5792
330
56F9
100
AcDbEntity
  8
0
 62
     0
100
AcDbLine
 10
-36.99943374883472
 20
-271.0075841477578
 30
0.0
 11
-36.10466455938166
 21
-270.1128149583047
 31
0.0
  0
LINE
  5
5793
330
56F9
100
AcDbEntity
  8
0
 62
     0
100
AcDbLine
 10
-42.26664761748884
 20
-276.2747980164119
 30
0.0
 11
-42.19792528481469
 21
-276.2060756837377
 31
0.0
  0
LINE
  5
5794
330
56F9
100
AcDbEntity
  8
0
 62
     0
100
AcDbLine
 10
-41.16897294882225
 20
-275.1771233477454
 30
0.0
 11
-41.06918434257984
 21
-275.0773347415029
 31
0.0
  0
LINE
  5
5795
330
56F9
100
AcDbEntity
  8
0
 62
     0
100
AcDbLine
 10
-42.1979252848146
 20
-276.2060756837377
 30
0.0
 11
-42.10043854447298
 21
-276.108588943396
 31
0.0
  0
LINE
  5
5796
330
56F9
100
AcDbEntity
  8
0
 62
     0
100
AcDbLine
 10
-41.99598251496389
 20
-276.004132913887
 30
0.0
 11
-41.63465311128686
 21
-275.6428035102099
 31
0.0
  0
LINE
  5
5797
330
56F9
100
AcDbEntity
  8
0
 62
     0
100
AcDbLine
 10
-42.10043854447292
 20
-276.1085889433959
 30
0.0
 11
-42.09566753742882
 21
-276.1038179363519
 31
0.0
  0
LINE
  5
5798
330
56F9
100
AcDbEntity
  8
0
 62
     0
100
AcDbLine
 10
-42.09566753742871
 20
-276.1038179363518
 30
0.0
 11
-41.99598251496389
 21
-276.004132913887
 31
0.0
  0
LINE
  5
5799
330
56F9
100
AcDbEntity
  8
0
 62
     0
100
AcDbLine
 10
-42.41354347631298
 20
-276.2891113537635
 30
0.0
 11
-42.31321649968703
 21
-276.1887843771376
 31
0.0
  0
LINE
  5
579A
330
56F9
100
AcDbEntity
  8
0
 62
     0
100
AcDbLine
 10
-37.13201627030717
 20
-271.0075841477578
 30
0.0
 11
-36.23724708085414
 21
-270.1128149583047
 31
0.0
  0
LINE
  5
579B
330
56F9
100
AcDbEntity
  8
0
 62
     0
100
AcDbLine
 10
-42.31139954192374
 20
-276.1869674193743
 30
0.0
 11
-42.1892754338011
 21
-276.0648433112517
 31
0.0
  0
LINE
  5
579C
330
56F9
100
AcDbEntity
  8
0
 62
     0
100
AcDbLine
 10
-41.21372487325716
 20
-275.0892927507078
 30
0.0
 11
-41.11393626701477
 21
-274.9895041444653
 31
0.0
  0
LINE
  5
579D
330
56F9
100
AcDbEntity
  8
0
 62
     0
100
AcDbLine
 10
-42.18927543380108
 20
-276.0648433112517
 30
0.0
 11
-42.14458912338753
 21
-276.0201570008381
 31
0.0
  0
LINE
  5
579E
330
56F9
100
AcDbEntity
  8
0
 62
     0
100
AcDbLine
 10
-41.96714156490001
 20
-275.8427094423506
 30
0.0
 11
-41.67940503572178
 21
-275.5549729131724
 31
0.0
  0
LINE
  5
579F
330
56F9
100
AcDbEntity
  8
0
 62
     0
100
AcDbLine
 10
-42.11450619999326
 20
-275.9900740774438
 30
0.0
 11
-41.96714156489998
 21
-275.8427094423506
 31
0.0
  0
LINE
  5
57A0
330
56F9
100
AcDbEntity
  8
0
 62
     0
100
AcDbLine
 10
-42.4582954007479
 20
-276.201280756726
 30
0.0
 11
-42.35796842412195
 21
-276.1009537801001
 31
0.0
  0
LINE
  5
57A1
330
56F9
100
AcDbEntity
  8
0
 62
     0
100
AcDbLine
 10
-37.26459879177965
 20
-271.0075841477578
 30
0.0
 11
-36.36982960232659
 21
-270.1128149583047
 31
0.0
  0
LINE
  5
57A2
330
56F9
100
AcDbEntity
  8
0
 62
     0
100
AcDbLine
 10
-42.35615146635868
 20
-276.0991368223368
 30
0.0
 11
-42.27628628029851
 21
-276.0192716362766
 31
0.0
  0
LINE
  5
57A3
330
56F9
100
AcDbEntity
  8
0
 62
     0
100
AcDbLine
 10
-41.2584767976921
 20
-275.0014621536702
 30
0.0
 11
-41.15868819144969
 21
-274.9016735474278
 31
0.0
  0
LINE
  5
57A4
330
56F9
100
AcDbEntity
  8
0
 62
     0
100
AcDbLine
 10
-42.27628628029848
 20
-276.0192716362765
 30
0.0
 11
-41.83861559237119
 21
-275.5816009483493
 31
0.0
  0
LINE
  5
57A5
330
56F9
100
AcDbEntity
  8
0
 62
     0
100
AcDbLine
 10
-41.83861559237118
 20
-275.5816009483492
 30
0.0
 11
-41.72415696015671
 21
-275.4671423161348
 31
0.0
  0
LINE
  5
57A6
330
56F9
100
AcDbEntity
  8
0
 62
     0
100
AcDbLine
 10
-42.50304732518282
 20
-276.1134501596885
 30
0.0
 11
-42.40272034855689
 21
-276.0131231830625
 31
0.0
  0
LINE
  5
57A7
330
56F9
100
AcDbEntity
  8
0
 62
     0
100
AcDbLine
 10
-37.39718131325214
 20
-271.0075841477578
 30
0.0
 11
-36.50241212379908
 21
-270.1128149583047
 31
0.0
  0
LINE
  5
57A8
330
56F9
100
AcDbEntity
  8
0
 62
     0
100
AcDbLine
 10
-42.4009033907936
 20
-276.0113062252992
 30
0.0
 11
-42.19714334742477
 21
-275.8075461819304
 31
0.0
  0
LINE
  5
57A9
330
56F9
100
AcDbEntity
  8
0
 62
     0
100
AcDbLine
 10
-41.30322872212701
 20
-274.9136315566326
 30
0.0
 11
-41.20344011588461
 21
-274.8138429503903
 31
0.0
  0
LINE
  5
57AA
330
56F9
100
AcDbEntity
  8
0
 62
     0
100
AcDbLine
 10
-42.19714334742469
 20
-275.8075461819303
 30
0.0
 11
-42.14776030776967
 21
-275.7581631422754
 31
0.0
  0
LINE
  5
57AB
330
56F9
100
AcDbEntity
  8
0
 62
     0
100
AcDbLine
 10
-42.14776030776969
 20
-275.7581631422754
 30
0.0
 11
-41.71008961984234
 21
-275.320492454348
 31
0.0
  0
LINE
  5
57AC
330
56F9
100
AcDbEntity
  8
0
 62
     0
100
AcDbLine
 10
-42.54779924961775
 20
-276.0256195626509
 30
0.0
 11
-42.44747227299181
 21
-275.925292586025
 31
0.0
  0
LINE
  5
57AD
330
56F9
100
AcDbEntity
  8
0
 62
     0
100
AcDbLine
 10
-37.52976383472462
 20
-271.0075841477578
 30
0.0
 11
-36.63499464527156
 21
-270.1128149583047
 31
0.0
  0
LINE
  5
57AE
330
56F9
100
AcDbEntity
  8
0
 62
     0
100
AcDbLine
 10
-42.44565531522854
 20
-275.9234756282617
 30
0.0
 11
-42.01923433524084
 21
-275.497054648274
 31
0.0
  0
LINE
  5
57AF
330
56F9
100
AcDbEntity
  8
0
 62
     0
100
AcDbLine
 10
-41.34798064656194
 20
-274.8258009595951
 30
0.0
 11
-41.24819204031953
 21
-274.7260123533527
 31
0.0
  0
LINE
  5
57B0
330
56F9
100
AcDbEntity
  8
0
 62
     0
100
AcDbLine
 10
-42.01923433524087
 20
-275.497054648274
 30
0.0
 11
-41.58156364731355
 21
-275.0593839603467
 31
0.0
  0
LINE
  5
57B1
330
56F9
100
AcDbEntity
  8
0
 62
     0
100
AcDbLine
 10
-42.59255117405266
 20
-275.9377889656133
 30
0.0
 11
-42.49040723966347
 21
-275.8356450312241
 31
0.0
  0
LINE
  5
57B2
330
56F9
100
AcDbEntity
  8
0
 62
     0
100
AcDbLine
 10
-37.6623463561971
 20
-271.0075841477578
 30
0.0
 11
-36.76757716674404
 21
-270.1128149583047
 31
0.0
  0
LINE
  5
57B3
330
56F9
100
AcDbEntity
  8
0
 62
     0
100
AcDbLine
 10
-42.49040723966347
 20
-275.8356450312241
 30
0.0
 11
-41.89070836271205
 21
-275.2359461542728
 31
0.0
  0
LINE
  5
57B4
330
56F9
100
AcDbEntity
  8
0
 62
     0
100
AcDbLine
 10
-41.39273257099687
 20
-274.7379703625575
 30
0.0
 11
-41.29294396475446
 21
-274.6381817563151
 31
0.0
  0
LINE
  5
57B5
330
56F9
100
AcDbEntity
  8
0
 62
     0
100
AcDbLine
 10
-41.89070836271203
 20
-275.2359461542727
 30
0.0
 11
-41.45303767478471
 21
-274.7982754663454
 31
0.0
  0
LINE
  5
57B6
330
56F9
100
AcDbEntity
  8
0
 62
     0
100
AcDbLine
 10
-42.63730309848759
 20
-275.8499583685758
 30
0.0
 11
-42.53515916409838
 21
-275.7478144341866
 31
0.0
  0
LINE
  5
57B7
330
56F9
100
AcDbEntity
  8
0
 62
     0
100
AcDbLine
 10
-37.79492887766956
 20
-271.0075841477578
 30
0.0
 11
-36.90015968821653
 21
-270.1128149583047
 31
0.0
  0
LINE
  5
57B8
330
56F9
100
AcDbEntity
  8
0
 62
     0
100
AcDbLine
 10
-42.53515916409839
 20
-275.7478144341866
 30
0.0
 11
-41.90316465789641
 21
-275.1158199279846
 31
0.0
  0
LINE
  5
57B9
330
56F9
100
AcDbEntity
  8
0
 62
     0
100
AcDbLine
 10
-41.76218239018321
 20
-274.9748376602715
 30
0.0
 11
-41.32451170225591
 21
-274.5371669723441
 31
0.0
  0
LINE
  5
57BA
330
56F9
100
AcDbEntity
  8
0
 62
     0
100
AcDbLine
 10
-42.68205502292253
 20
-275.7621277715383
 30
0.0
 11
-42.57991108853331
 21
-275.6599838371491
 31
0.0
  0
LINE
  5
57BB
330
56F9
100
AcDbEntity
  8
0
 62
     0
100
AcDbLine
 10
-37.92751139914204
 20
-271.0075841477578
 30
0.0
 11
-37.03274220968898
 21
-270.1128149583047
 31
0.0
  0
LINE
  5
57BC
330
56F9
100
AcDbEntity
  8
0
 62
     0
100
AcDbLine
 10
-42.57991108853332
 20
-275.659983837149
 30
0.0
 11
-41.94791658233133
 21
-275.027989330947
 31
0.0
  0
LINE
  5
57BD
330
56F9
100
AcDbEntity
  8
0
 62
     0
100
AcDbLine
 10
-41.63365641765442
 20
-274.7137291662701
 30
0.0
 11
-41.19598572972707
 21
-274.2760584783428
 31
0.0
  0
LINE
  5
57BE
330
56F9
100
AcDbEntity
  8
0
 62
     0
100
AcDbLine
 10
-42.72680694735743
 20
-275.6742971745007
 30
0.0
 11
-42.62466301296824
 21
-275.5721532401115
 31
0.0
  0
LINE
  5
57BF
330
56F9
100
AcDbEntity
  8
0
 62
     0
100
AcDbLine
 10
-38.06009392061452
 20
-271.0075841477578
 30
0.0
 11
-37.16532473116146
 21
-270.1128149583047
 31
0.0
  0
LINE
  5
57C0
330
56F9
100
AcDbEntity
  8
0
 62
     0
100
AcDbLine
 10
-42.62466301296824
 20
-275.5721532401115
 30
0.0
 11
-41.99266850676624
 21
-274.9401587339095
 31
0.0
  0
LINE
  5
57C1
330
56F9
100
AcDbEntity
  8
0
 62
     0
100
AcDbLine
 10
-41.24320808781802
 20
-274.1906983149613
 30
0.0
 11
-41.16028905131896
 21
-274.1077792784622
 31
0.0
  0
LINE
  5
57C2
330
56F9
100
AcDbEntity
  8
0
 62
     0
100
AcDbLine
 10
-41.52698834430164
 20
-274.4744785714449
 30
0.0
 11
-41.50513044512558
 21
-274.4526206722688
 31
0.0
  0
LINE
  5
57C3
330
56F9
100
AcDbEntity
  8
0
 62
     0
100
AcDbLine
 10
-41.2918472873847
 20
-274.2393375145279
 30
0.0
 11
-41.26594175883485
 21
-274.2134319859781
 31
0.0
  0
LINE
  5
57C4
330
56F9
100
AcDbEntity
  8
0
 62
     0
100
AcDbLine
 10
-41.50513044512556
 20
-274.4526206722688
 30
0.0
 11
-41.29184728738475
 21
-274.239337514528
 31
0.0
  0
LINE
  5
57C5
330
56F9
100
AcDbEntity
  8
0
 62
     0
100
AcDbLine
 10
-42.77155887179236
 20
-275.5864665774631
 30
0.0
 11
-42.66941493740316
 21
-275.484322643074
 31
0.0
  0
LINE
  5
57C6
330
56F9
100
AcDbEntity
  8
0
 62
     0
100
AcDbLine
 10
-38.192676442087
 20
-271.0075841477578
 30
0.0
 11
-37.29790725263395
 21
-270.1128149583047
 31
0.0
  0
LINE
  5
57C7
330
56F9
100
AcDbEntity
  8
0
 62
     0
100
AcDbLine
 10
-42.66941493740316
 20
-275.484322643074
 30
0.0
 11
-42.03742043120118
 21
-274.8523281368719
 31
0.0
  0
LINE
  5
57C8
330
56F9
100
AcDbEntity
  8
0
 62
     0
100
AcDbLine
 10
-41.39132135807054
 20
-274.2062290637413
 30
0.0
 11
-41.15044255176923
 21
-273.96535025744
 31
0.0
  0
LINE
  5
57C9
330
56F9
100
AcDbEntity
  8
0
 62
     0
100
AcDbLine
 10
-41.57174026873658
 20
-274.3866479744074
 30
0.0
 11
-41.47195166249413
 21
-274.2868593681649
 31
0.0
  0
LINE
  5
57CA
330
56F9
100
AcDbEntity
  8
0
 62
     0
100
AcDbLine
 10
-42.81631079622728
 20
-275.4986359804255
 30
0.0
 11
-42.71416686183809
 21
-275.3964920460364
 31
0.0
  0
LINE
  5
57CB
330
56F9
100
AcDbEntity
  8
0
 62
     0
100
AcDbLine
 10
-38.32525896355949
 20
-271.0075841477578
 30
0.0
 11
-37.43048977410643
 21
-270.1128149583047
 31
0.0
  0
LINE
  5
57CC
330
56F9
100
AcDbEntity
  8
0
 62
     0
100
AcDbLine
 10
-42.71416686183809
 20
-275.3964920460364
 30
0.0
 11
-42.0821723556361
 21
-274.7644975398344
 31
0.0
  0
LINE
  5
57CD
330
56F9
100
AcDbEntity
  8
0
 62
     0
100
AcDbLine
 10
-41.3814748585208
 20
-274.0638000427191
 30
0.0
 11
-41.1405960522195
 21
-273.8229212364178
 31
0.0
  0
LINE
  5
57CE
330
56F9
100
AcDbEntity
  8
0
 62
     0
100
AcDbLine
 10
-41.6164921931715
 20
-274.2988173773698
 30
0.0
 11
-41.51670358692905
 21
-274.1990287711273
 31
0.0
  0
LINE
  5
57CF
330
56F9
100
AcDbEntity
  8
0
 62
     0
100
AcDbLine
 10
-42.86106272066221
 20
-275.410805383388
 30
0.0
 11
-42.75891878627302
 21
-275.3086614489988
 31
0.0
  0
LINE
  5
57D0
330
56F9
100
AcDbEntity
  8
0
 62
     0
100
AcDbLine
 10
-38.45784148503194
 20
-271.0075841477578
 30
0.0
 11
-37.56307229557891
 21
-270.1128149583047
 31
0.0
  0
LINE
  5
57D1
330
56F9
100
AcDbEntity
  8
0
 62
     0
100
AcDbLine
 10
-42.75891878627301
 20
-275.3086614489988
 30
0.0
 11
-42.12692428007102
 21
-274.6766669427968
 31
0.0
  0
LINE
  5
57D2
330
56F9
100
AcDbEntity
  8
0
 62
     0
100
AcDbLine
 10
-41.37162835897107
 20
-273.9213710216969
 30
0.0
 11
-41.13074955266977
 21
-273.6804922153956
 31
0.0
  0
LINE
  5
57D3
330
56F9
100
AcDbEntity
  8
0
 62
     0
100
AcDbLine
 10
-41.66124411760642
 20
-274.2109867803322
 30
0.0
 11
-41.56145551136398
 21
-274.1111981740898
 31
0.0
  0
LINE
  5
57D4
330
56F9
100
AcDbEntity
  8
0
 62
     0
100
AcDbLine
 10
-42.90581464509713
 20
-275.3229747863504
 30
0.0
 11
-42.80367071070794
 21
-275.2208308519613
 31
0.0
  0
LINE
  5
57D5
330
56F9
100
AcDbEntity
  8
0
 62
     0
100
AcDbLine
 10
-38.59042400650442
 20
-271.0075841477578
 30
0.0
 11
-37.69565481705136
 21
-270.1128149583047
 31
0.0
  0
LINE
  5
57D6
330
56F9
100
AcDbEntity
  8
0
 62
     0
100
AcDbLine
 10
-42.80367071070794
 20
-275.2208308519613
 30
0.0
 11
-42.17167620450595
 21
-274.5888363457593
 31
0.0
  0
LINE
  5
57D7
330
56F9
100
AcDbEntity
  8
0
 62
     0
100
AcDbLine
 10
-41.36178185942134
 20
-273.7789420006746
 30
0.0
 11
-41.12090305312004
 21
-273.5380631943733
 31
0.0
  0
LINE
  5
57D8
330
56F9
100
AcDbEntity
  8
0
 62
     0
100
AcDbLine
 10
-41.70599604204134
 20
-274.1231561832947
 30
0.0
 11
-41.60620743579889
 21
-274.0233675770522
 31
0.0
  0
LINE
  5
57D9
330
56F9
100
AcDbEntity
  8
0
 62
     0
100
AcDbLine
 10
-42.95056656953206
 20
-275.2351441893129
 30
0.0
 11
-42.84842263514287
 21
-275.1330002549237
 31
0.0
  0
LINE
  5
57DA
330
56F9
100
AcDbEntity
  8
0
 62
     0
100
AcDbLine
 10
-38.72300652797691
 20
-271.0075841477578
 30
0.0
 11
-37.82823733852385
 21
-270.1128149583047
 31
0.0
  0
LINE
  5
57DB
330
56F9
100
AcDbEntity
  8
0
 62
     0
100
AcDbLine
 10
-42.84842263514287
 20
-275.1330002549237
 30
0.0
 11
-42.21642812894087
 21
-274.5010057487217
 31
0.0
  0
LINE
  5
57DC
330
56F9
100
AcDbEntity
  8
0
 62
     0
100
AcDbLine
 10
-41.35193535987162
 20
-273.6365129796524
 30
0.0
 11
-41.11105655357031
 21
-273.3956341733511
 31
0.0
  0
LINE
  5
57DD
330
56F9
100
AcDbEntity
  8
0
 62
     0
100
AcDbLine
 10
-41.75074796647627
 20
-274.0353255862571
 30
0.0
 11
-41.65095936023383
 21
-273.9355369800147
 31
0.0
  0
LINE
  5
57DE
330
56F9
100
AcDbEntity
  8
0
 62
     0
100
AcDbLine
 10
-42.99531849396698
 20
-275.1473135922753
 30
0.0
 11
-42.89317455957778
 21
-275.0451696578862
 31
0.0
  0
LINE
  5
57DF
330
56F9
100
AcDbEntity
  8
0
 62
     0
100
AcDbLine
 10
-38.85558904944939
 20
-271.0075841477578
 30
0.0
 11
-37.96081985999633
 21
-270.1128149583047
 31
0.0
  0
LINE
  5
57E0
330
56F9
100
AcDbEntity
  8
0
 62
     0
100
AcDbLine
 10
-42.89317455957778
 20
-275.0451696578862
 30
0.0
 11
-42.2611800533758
 21
-274.4131751516842
 31
0.0
  0
LINE
  5
57E1
330
56F9
100
AcDbEntity
  8
0
 62
     0
100
AcDbLine
 10
-41.34208886032189
 20
-273.4940839586302
 30
0.0
 11
-41.10121005402058
 21
-273.2532051523289
 31
0.0
  0
LINE
  5
57E2
330
56F9
100
AcDbEntity
  8
0
 62
     0
100
AcDbLine
 10
-41.79549989091119
 20
-273.9474949892195
 30
0.0
 11
-41.69571128466874
 21
-273.8477063829771
 31
0.0
  0
LINE
  5
57E3
330
56F9
100
AcDbEntity
  8
0
 62
     0
100
AcDbLine
 10
-43.0400704184019
 20
-275.0594829952378
 30
0.0
 11
-42.93792648401271
 21
-274.9573390608487
 31
0.0
  0
LINE
  5
57E4
330
56F9
100
AcDbEntity
  8
0
 62
     0
100
AcDbLine
 10
-38.98817157092188
 20
-271.0075841477578
 30
0.0
 11
-38.09340238146882
 21
-270.1128149583047
 31
0.0
  0
LINE
  5
57E5
330
56F9
100
AcDbEntity
  8
0
 62
     0
100
AcDbLine
 10
-42.93792648401271
 20
-274.9573390608486
 30
0.0
 11
-42.30593197781072
 21
-274.3253445546466
 31
0.0
  0
LINE
  5
57E6
330
56F9
100
AcDbEntity
  8
0
 62
     0
100
AcDbLine
 10
-41.33224236077215
 20
-273.351654937608
 30
0.0
 11
-41.09136355447085
 21
-273.1107761313067
 31
0.0
  0
LINE
  5
57E7
330
56F9
100
AcDbEntity
  8
0
 62
     0
100
AcDbLine
 10
-41.84025181534611
 20
-273.859664392182
 30
0.0
 11
-41.74046320910367
 21
-273.7598757859395
 31
0.0
  0
LINE
  5
57E8
330
56F9
100
AcDbEntity
  8
0
 62
     0
100
AcDbLine
 10
-43.08482234283682
 20
-274.9716523982002
 30
0.0
 11
-42.98267840844763
 21
-274.8695084638111
 31
0.0
  0
LINE
  5
57E9
330
56F9
100
AcDbEntity
  8
0
 62
     0
100
AcDbLine
 10
-39.12075409239436
 20
-271.0075841477578
 30
0.0
 11
-38.2259849029413
 21
-270.1128149583047
 31
0.0
  0
LINE
  5
57EA
330
56F9
100
AcDbEntity
  8
0
 62
     0
100
AcDbLine
 10
-42.98267840844764
 20
-274.8695084638111
 30
0.0
 11
-42.35068390224564
 21
-274.2375139576091
 31
0.0
  0
LINE
  5
57EB
330
56F9
100
AcDbEntity
  8
0
 62
     0
100
AcDbLine
 10
-41.08151705492112
 20
-272.9683471102845
 30
0.0
 11
-40.96181643366968
 21
-272.848646489033
 31
0.0
  0
LINE
  5
57EC
330
56F9
100
AcDbEntity
  8
0
 62
     0
100
AcDbLine
 10
-41.88500373978103
 20
-273.7718337951445
 30
0.0
 11
-41.78521513353859
 21
-273.672045188902
 31
0.0
  0
LINE
  5
57ED
330
56F9
100
AcDbEntity
  8
0
 62
     0
100
AcDbLine
 10
-41.32239586122242
 20
-273.2092259165858
 30
0.0
 11
-41.08151705492112
 21
-272.9683471102845
 31
0.0
  0
LINE
  5
57EE
330
56F9
100
AcDbEntity
  8
0
 62
     0
100
AcDbLine
 10
-43.12957426727176
 20
-274.8838218011627
 30
0.0
 11
-43.02743033288257
 21
-274.7816778667736
 31
0.0
  0
LINE
  5
57EF
330
56F9
100
AcDbEntity
  8
0
 62
     0
100
AcDbLine
 10
-39.25333661386681
 20
-271.0075841477578
 30
0.0
 11
-38.35856742441375
 21
-270.1128149583047
 31
0.0
  0
LINE
  5
57F0
330
56F9
100
AcDbEntity
  8
0
 62
     0
100
AcDbLine
 10
-43.02743033288256
 20
-274.7816778667735
 30
0.0
 11
-42.39543582668058
 21
-274.1496833605715
 31
0.0
  0
LINE
  5
57F1
330
56F9
100
AcDbEntity
  8
0
 62
     0
100
AcDbLine
 10
-41.07167055537138
 20
-272.8259180892623
 30
0.0
 11
-40.79761027123158
 21
-272.5518578051226
 31
0.0
  0
LINE
  5
57F2
330
56F9
100
AcDbEntity
  8
0
 62
     0
100
AcDbLine
 10
-41.92975566421597
 20
-273.6840031981069
 30
0.0
 11
-41.82996705797352
 21
-273.5842145918645
 31
0.0
  0
LINE
  5
57F3
330
56F9
100
AcDbEntity
  8
0
 62
     0
100
AcDbLine
 10
-41.3125493616727
 20
-273.0667968955636
 30
0.0
 11
-41.07167055537138
 21
-272.8259180892623
 31
0.0
  0
LINE
  5
57F4
330
56F9
100
AcDbEntity
  8
0
 62
     0
100
AcDbLine
 10
-43.17432619170667
 20
-274.7959912041251
 30
0.0
 11
-43.07218225731747
 21
-274.693847269736
 31
0.0
  0
LINE
  5
57F5
330
56F9
100
AcDbEntity
  8
0
 62
     0
100
AcDbLine
 10
-39.3859191353393
 20
-271.0075841477578
 30
0.0
 11
-38.49114994588624
 21
-270.1128149583047
 31
0.0
  0
LINE
  5
57F6
330
56F9
100
AcDbEntity
  8
0
 62
     0
100
AcDbLine
 10
-43.07218225731748
 20
-274.693847269736
 30
0.0
 11
-42.44018775111549
 21
-274.0618527635339
 31
0.0
  0
LINE
  5
57F7
330
56F9
100
AcDbEntity
  8
0
 62
     0
100
AcDbLine
 10
-41.06182405582166
 20
-272.6834890682401
 30
0.0
 11
-40.63340410879347
 21
-272.2550691212119
 31
0.0
  0
LINE
  5
57F8
330
56F9
100
AcDbEntity
  8
0
 62
     0
100
AcDbLine
 10
-41.97450758865088
 20
-273.5961726010693
 30
0.0
 11
-41.87471898240843
 21
-273.4963839948269
 31
0.0
  0
LINE
  5
57F9
330
56F9
100
AcDbEntity
  8
0
 62
     0
100
AcDbLine
 10
-41.30270286212296
 20
-272.9243678745414
 30
0.0
 11
-41.06182405582166
 21
-272.6834890682401
 31
0.0
  0
LINE
  5
57FA
330
56F9
100
AcDbEntity
  8
0
 62
     0
100
AcDbLine
 10
-43.2190781161416
 20
-274.7081606070876
 30
0.0
 11
-43.11693418175241
 21
-274.6060166726984
 31
0.0
  0
LINE
  5
57FB
330
56F9
100
AcDbEntity
  8
0
 62
     0
100
AcDbLine
 10
-39.51850165681178
 20
-271.0075841477578
 30
0.0
 11
-38.62373246735872
 21
-270.1128149583047
 31
0.0
  0
LINE
  5
57FC
330
56F9
100
AcDbEntity
  8
0
 62
     0
100
AcDbLine
 10
-43.11693418175241
 20
-274.6060166726984
 30
0.0
 11
-42.48493967555043
 21
-273.9740221664964
 31
0.0
  0
LINE
  5
57FD
330
56F9
100
AcDbEntity
  8
0
 62
     0
100
AcDbLine
 10
-41.04147028864789
 20
-272.5305527795939
 30
0.0
 11
-40.46919794635537
 21
-271.9582804373014
 31
0.0
  0
LINE
  5
57FE
330
56F9
100
AcDbEntity
  8
0
 62
     0
100
AcDbLine
 10
-42.0192595130858
 20
-273.5083420040318
 30
0.0
 11
-41.91947090684336
 21
-273.4085533977893
 31
0.0
  0
LINE
  5
57FF
330
56F9
100
AcDbEntity
  8
0
 62
     0
100
AcDbLine
 10
-41.29285636257323
 20
-272.7819388535192
 30
0.0
 11
-41.05197755627193
 21
-272.5410600472179
 31
0.0
  0
LINE
  5
5800
330
56F9
100
AcDbEntity
  8
0
 62
     0
100
AcDbLine
 10
-43.26383004057651
 20
-274.62033001005
 30
0.0
 11
-43.16168610618734
 21
-274.5181860756609
 31
0.0
  0
LINE
  5
5801
330
56F9
100
AcDbEntity
  8
0
 62
     0
100
AcDbLine
 10
-39.65108417828427
 20
-271.0075841477578
 30
0.0
 11
-38.7563149888312
 21
-270.1128149583047
 31
0.0
  0
LINE
  5
5802
330
56F9
100
AcDbEntity
  8
0
 62
     0
100
AcDbLine
 10
-43.16168610618732
 20
-274.5181860756608
 30
0.0
 11
-42.52969159998534
 21
-273.8861915694589
 31
0.0
  0
LINE
  5
5803
330
56F9
100
AcDbEntity
  8
0
 62
     0
100
AcDbLine
 10
-40.87726412620977
 20
-272.2337640956832
 30
0.0
 11
-40.30499178391731
 21
-271.6614917533908
 31
0.0
  0
LINE
  5
5804
330
56F9
100
AcDbEntity
  8
0
 62
     0
100
AcDbLine
 10
-42.06401143752072
 20
-273.4205114069942
 30
0.0
 11
-41.96422283127828
 21
-273.3207228007517
 31
0.0
  0
LINE
  5
5805
330
56F9
100
AcDbEntity
  8
0
 62
     0
100
AcDbLine
 10
-41.2830098630235
 20
-272.639509832497
 30
0.0
 11
-41.04213105672219
 21
-272.3986310261957
 31
0.0
  0
LINE
  5
5806
330
56F9
100
AcDbEntity
  8
0
 62
     0
100
AcDbLine
 10
-43.30858196501145
 20
-274.5324994130124
 30
0.0
 11
-43.20643803062226
 21
-274.4303554786233
 31
0.0
  0
LINE
  5
5807
330
56F9
100
AcDbEntity
  8
0
 62
     0
100
AcDbLine
 10
-39.78366669975674
 20
-271.0075841477578
 30
0.0
 11
-38.88889751030369
 21
-270.1128149583047
 31
0.0
  0
LINE
  5
5808
330
56F9
100
AcDbEntity
  8
0
 62
     0
100
AcDbLine
 10
-43.20643803062226
 20
-274.4303554786232
 30
0.0
 11
-42.57444352442026
 21
-273.7983609724213
 31
0.0
  0
LINE
  5
5809
330
56F9
100
AcDbEntity
  8
0
 62
     0
100
AcDbLine
 10
-40.71305796377171
 20
-271.9369754117727
 30
0.0
 11
-40.14078562147921
 21
-271.3647030694802
 31
0.0
  0
LINE
  5
580A
330
56F9
100
AcDbEntity
  8
0
 62
     0
100
AcDbLine
 10
-42.10876336195565
 20
-273.3326808099567
 30
0.0
 11
-42.00897475571321
 21
-273.2328922037142
 31
0.0
  0
LINE
  5
580B
330
56F9
100
AcDbEntity
  8
0
 62
     0
100
AcDbLine
 10
-41.27316336347377
 20
-272.4970808114748
 30
0.0
 11
-41.03228455717245
 21
-272.2562020051735
 31
0.0
  0
LINE
  5
580C
330
56F9
100
AcDbEntity
  8
0
 62
     0
100
AcDbLine
 10
-43.35333388944637
 20
-274.4446688159749
 30
0.0
 11
-43.25118995505717
 21
-274.3425248815857
 31
0.0
  0
LINE
  5
580D
330
56F9
100
AcDbEntity
  8
0
 62
     0
100
AcDbLine
 10
-39.9162492212292
 20
-271.0075841477578
 30
0.0
 11
-39.02148003177617
 21
-270.1128149583047
 31
0.0
  0
LINE
  5
580E
330
56F9
100
AcDbEntity
  8
0
 62
     0
100
AcDbLine
 10
-43.25118995505718
 20
-274.3425248815857
 30
0.0
 11
-42.61919544885519
 21
-273.7105303753837
 31
0.0
  0
LINE
  5
580F
330
56F9
100
AcDbEntity
  8
0
 62
     0
100
AcDbLine
 10
-40.5488518013336
 20
-271.6401867278622
 30
0.0
 11
-39.97657945904111
 21
-271.0679143855696
 31
0.0
  0
LINE
  5
5810
330
56F9
100
AcDbEntity
  8
0
 62
     0
100
AcDbLine
 10
-42.15351528639057
 20
-273.2448502129191
 30
0.0
 11
-42.05372668014815
 21
-273.1450616066767
 31
0.0
  0
LINE
  5
5811
330
56F9
100
AcDbEntity
  8
0
 62
     0
100
AcDbLine
 10
-41.26331686392403
 20
-272.3546517904526
 30
0.0
 11
-41.02243805762273
 21
-272.1137729841512
 31
0.0
  0
LINE
  5
5812
330
56F9
100
AcDbEntity
  8
0
 62
     0
100
AcDbLine
 10
-43.39808581388129
 20
-274.3568382189374
 30
0.0
 11
-43.29594187949211
 21
-274.2546942845482
 31
0.0
  0
LINE
  5
5813
330
56F9
100
AcDbEntity
  8
0
 62
     0
100
AcDbLine
 10
-40.04883174270166
 20
-271.0075841477577
 30
0.0
 11
-39.15406255324862
 21
-270.1128149583047
 31
0.0
  0
LINE
  5
5814
330
56F9
100
AcDbEntity
  8
0
 62
     0
100
AcDbLine
 10
-43.29594187949211
 20
-274.2546942845482
 30
0.0
 11
-42.66394737329011
 21
-273.6226997783461
 31
0.0
  0
LINE
  5
5815
330
56F9
100
AcDbEntity
  8
0
 62
     0
100
AcDbLine
 10
-40.38464563889553
 20
-271.3433980439516
 30
0.0
 11
-40.04883174270168
 21
-271.0075841477578
 31
0.0
  0
LINE
  5
5816
330
56F9
100
AcDbEntity
  8
0
 62
     0
100
AcDbLine
 10
-42.19826721082549
 20
-273.1570196158815
 30
0.0
 11
-42.09847860458307
 21
-273.0572310096391
 31
0.0
  0
LINE
  5
5817
330
56F9
100
AcDbEntity
  8
0
 62
     0
100
AcDbLine
 10
-41.25347036437431
 20
-272.2122227694304
 30
0.0
 11
-41.01259155807299
 21
-271.971343963129
 31
0.0
  0
LINE
  5
5818
330
56F9
100
AcDbEntity
  8
0
 62
     0
100
AcDbLine
 10
-43.44283773831622
 20
-274.2690076218998
 30
0.0
 11
-43.34069380392703
 21
-274.1668636875106
 31
0.0
  0
LINE
  5
5819
330
56F9
100
AcDbEntity
  8
0
 62
     0
100
AcDbLine
 10
-40.18141426417416
 20
-271.0075841477577
 30
0.0
 11
-39.28664507472111
 21
-270.1128149583047
 31
0.0
  0
LINE
  5
581A
330
56F9
100
AcDbEntity
  8
0
 62
     0
100
AcDbLine
 10
-43.34069380392703
 20
-274.1668636875106
 30
0.0
 11
-42.70869929772504
 21
-273.5348691813086
 31
0.0
  0
LINE
  5
581B
330
56F9
100
AcDbEntity
  8
0
 62
     0
100
AcDbLine
 10
-40.22043947645742
 20
-271.046609360041
 30
0.0
 11
-40.18141426417416
 21
-271.0075841477578
 31
0.0
  0
LINE
  5
581C
330
56F9
100
AcDbEntity
  8
0
 62
     0
100
AcDbLine
 10
-42.24301913526041
 20
-273.069189018844
 30
0.0
 11
-42.14323052901799
 21
-272.9694004126015
 31
0.0
  0
LINE
  5
581D
330
56F9
100
AcDbEntity
  8
0
 62
     0
100
AcDbLine
 10
-41.24362386482458
 20
-272.0697937484081
 30
0.0
 11
-41.00274505852326
 21
-271.8289149421068
 31
0.0
  0
LINE
  5
581E
330
56F9
100
AcDbEntity
  8
0
 62
     0
100
AcDbLine
 10
-43.48758966275113
 20
-274.1811770248623
 30
0.0
 11
-43.38544572836195
 21
-274.0790330904731
 31
0.0
  0
LINE
  5
581F
330
56F9
100
AcDbEntity
  8
0
 62
     0
100
AcDbLine
 10
-40.31399678564665
 20
-271.0075841477578
 30
0.0
 11
-39.41922759619359
 21
-270.1128149583047
 31
0.0
  0
LINE
  5
5820
330
56F9
100
AcDbEntity
  8
0
 62
     0
100
AcDbLine
 10
-43.38544572836195
 20
-274.0790330904731
 30
0.0
 11
-42.75345122215997
 21
-273.447038584271
 31
0.0
  0
LINE
  5
5821
330
56F9
100
AcDbEntity
  8
0
 62
     0
100
AcDbLine
 10
-41.23377736527484
 20
-271.9273647273859
 30
0.0
 11
-40.99289855897352
 21
-271.6864859210846
 31
0.0
  0
LINE
  5
5822
330
56F9
100
AcDbEntity
  8
0
 62
     0
100
AcDbLine
 10
-42.28777105969533
 20
-272.9813584218064
 30
0.0
 11
-42.18798245345292
 21
-272.881569815564
 31
0.0
  0
LINE
  5
5823
330
56F9
100
AcDbEntity
  8
0
 62
     0
100
AcDbLine
 10
-43.53234158718605
 20
-274.0933464278247
 30
0.0
 11
-43.43019765279687
 21
-273.9912024934355
 31
0.0
  0
LINE
  5
5824
330
56F9
100
AcDbEntity
  8
0
 62
     0
100
AcDbLine
 10
-40.44657930711912
 20
-271.0075841477578
 30
0.0
 11
-39.55181011766607
 21
-270.1128149583047
 31
0.0
  0
LINE
  5
5825
330
56F9
100
AcDbEntity
  8
0
 62
     0
100
AcDbLine
 10
-43.43019765279688
 20
-273.9912024934355
 30
0.0
 11
-42.79820314659487
 21
-273.3592079872335
 31
0.0
  0
LINE
  5
5826
330
56F9
100
AcDbEntity
  8
0
 62
     0
100
AcDbLine
 10
-41.22393086572511
 20
-271.7849357063637
 30
0.0
 11
-40.9830520594238
 21
-271.5440569000624
 31
0.0
  0
LINE
  5
5827
330
56F9
100
AcDbEntity
  8
0
 62
     0
100
AcDbLine
 10
-42.33252298413026
 20
-272.8935278247689
 30
0.0
 11
-42.23273437788784
 21
-272.7937392185264
 31
0.0
  0
LINE
  5
5828
330
56F9
100
AcDbEntity
  8
0
 62
     0
100
AcDbLine
 10
-43.57709351162099
 20
-274.0055158307872
 30
0.0
 11
-43.4749495772318
 21
-273.903371896398
 31
0.0
  0
LINE
  5
5829
330
56F9
100
AcDbEntity
  8
0
 62
     0
100
AcDbLine
 10
-40.57916182859158
 20
-271.0075841477578
 30
0.0
 11
-39.68439263913856
 21
-270.1128149583047
 31
0.0
  0
LINE
  5
582A
330
56F9
100
AcDbEntity
  8
0
 62
     0
100
AcDbLine
 10
-43.4749495772318
 20
-273.903371896398
 30
0.0
 11
-42.84295507102982
 21
-273.2713773901959
 31
0.0
  0
LINE
  5
582B
330
56F9
100
AcDbEntity
  8
0
 62
     0
100
AcDbLine
 10
-41.21408436617539
 20
-271.6425066853415
 30
0.0
 11
-40.97320555987406
 21
-271.4016278790402
 31
0.0
  0
LINE
  5
582C
330
56F9
100
AcDbEntity
  8
0
 62
     0
100
AcDbLine
 10
-42.37727490856518
 20
-272.8056972277314
 30
0.0
 11
-42.27748630232276
 21
-272.705908621489
 31
0.0
  0
LINE
  5
582D
330
56F9
100
AcDbEntity
  8
0
 62
     0
100
AcDbLine
 10
-43.6218454360559
 20
-273.9176852337496
 30
0.0
 11
-43.51970150166672
 21
-273.8155412993604
 31
0.0
  0
LINE
  5
582E
330
56F9
100
AcDbEntity
  8
0
 62
     0
100
AcDbLine
 10
-40.71174435006406
 20
-271.0075841477578
 30
0.0
 11
-39.81697516061101
 21
-270.1128149583047
 31
0.0
  0
LINE
  5
582F
330
56F9
100
AcDbEntity
  8
0
 62
     0
100
AcDbLine
 10
-43.51970150166672
 20
-273.8155412993604
 30
0.0
 11
-42.88770699546473
 21
-273.1835467931584
 31
0.0
  0
LINE
  5
5830
330
56F9
100
AcDbEntity
  8
0
 62
     0
100
AcDbLine
 10
-41.20423786662565
 20
-271.5000776643193
 30
0.0
 11
-40.96335906032432
 21
-271.259198858018
 31
0.0
  0
LINE
  5
5831
330
56F9
100
AcDbEntity
  8
0
 62
     0
100
AcDbLine
 10
-42.4220268330001
 20
-272.7178666306938
 30
0.0
 11
-42.32223822675769
 21
-272.6180780244514
 31
0.0
  0
LINE
  5
5832
330
56F9
100
AcDbEntity
  8
0
 62
     0
100
AcDbLine
 10
-43.66659736049083
 20
-273.829854636712
 30
0.0
 11
-43.56445342610165
 21
-273.7277107023229
 31
0.0
  0
LINE
  5
5833
330
56F9
100
AcDbEntity
  8
0
 62
     0
100
AcDbLine
 10
-40.84432687153655
 20
-271.0075841477578
 30
0.0
 11
-39.94955768208349
 21
-270.1128149583047
 31
0.0
  0
LINE
  5
5834
330
56F9
100
AcDbEntity
  8
0
 62
     0
100
AcDbLine
 10
-43.56445342610164
 20
-273.7277107023228
 30
0.0
 11
-42.93245891989965
 21
-273.0957161961208
 31
0.0
  0
LINE
  5
5835
330
56F9
100
AcDbEntity
  8
0
 62
     0
100
AcDbLine
 10
-41.19439136707593
 20
-271.3576486432971
 30
0.0
 11
-40.95351256077459
 21
-271.1167698369958
 31
0.0
  0
LINE
  5
5836
330
56F9
100
AcDbEntity
  8
0
 62
     0
100
AcDbLine
 10
-42.46677875743502
 20
-272.6300360336562
 30
0.0
 11
-42.36699015119261
 21
-272.5302474274138
 31
0.0
  0
LINE
  5
5837
330
56F9
100
AcDbEntity
  8
0
 62
     0
100
AcDbLine
 10
-43.71134928492576
 20
-273.7420240396744
 30
0.0
 11
-43.60920535053657
 21
-273.6398801052853
 31
0.0
  0
LINE
  5
5838
330
56F9
100
AcDbEntity
  8
0
 62
     0
100
AcDbLine
 10
-40.97690939300903
 20
-271.0075841477578
 30
0.0
 11
-40.08214020355597
 21
-270.1128149583047
 31
0.0
  0
LINE
  5
5839
330
56F9
100
AcDbEntity
  8
0
 62
     0
100
AcDbLine
 10
-43.60920535053657
 20
-273.6398801052853
 30
0.0
 11
-42.97721084433458
 21
-273.0078855990833
 31
0.0
  0
LINE
  5
583A
330
56F9
100
AcDbEntity
  8
0
 62
     0
100
AcDbLine
 10
-41.1845448675262
 20
-271.2152196222749
 30
0.0
 11
-40.97690939300904
 21
-271.0075841477578
 31
0.0
  0
LINE
  5
583B
330
56F9
100
AcDbEntity
  8
0
 62
     0
100
AcDbLine
 10
-42.51153068186996
 20
-272.5422054366187
 30
0.0
 11
-42.41174207562753
 21
-272.4424168303762
 31
0.0
  0
LINE
  5
583C
330
56F9
100
AcDbEntity
  8
0
 62
     0
100
AcDbLine
 10
-43.75610120936068
 20
-273.6541934426369
 30
0.0
 11
-43.65395727497149
 21
-273.5520495082478
 31
0.0
  0
LINE
  5
583D
330
56F9
100
AcDbEntity
  8
0
 62
     0
100
AcDbLine
 10
-41.10949191448152
 20
-271.0075841477578
 30
0.0
 11
-40.21472272502846
 21
-270.1128149583047
 31
0.0
  0
LINE
  5
583E
330
56F9
100
AcDbEntity
  8
0
 62
     0
100
AcDbLine
 10
-43.65395727497149
 20
-273.5520495082478
 30
0.0
 11
-43.02196276876951
 21
-272.9200550020458
 31
0.0
  0
LINE
  5
583F
330
56F9
100
AcDbEntity
  8
0
 62
     0
100
AcDbLine
 10
-41.17469836797646
 20
-271.0727906012527
 30
0.0
 11
-41.10949191448153
 21
-271.0075841477578
 31
0.0
  0
LINE
  5
5840
330
56F9
100
AcDbEntity
  8
0
 62
     0
100
AcDbLine
 10
-42.55628260630487
 20
-272.4543748395811
 30
0.0
 11
-42.45649400006246
 21
-272.3545862333387
 31
0.0
  0
LINE
  5
5841
330
56F9
100
AcDbEntity
  8
0
 62
     0
100
AcDbLine
 10
-43.8008531337956
 20
-273.5663628455994
 30
0.0
 11
-43.69870919940642
 21
-273.4642189112102
 31
0.0
  0
LINE
  5
5842
330
56F9
100
AcDbEntity
  8
0
 62
     0
100
AcDbLine
 10
-41.242074435954
 20
-271.0075841477578
 30
0.0
 11
-40.34730524650094
 21
-270.1128149583047
 31
0.0
  0
LINE
  5
5843
330
56F9
100
AcDbEntity
  8
0
 62
     0
100
AcDbLine
 10
-43.69870919940643
 20
-273.4642189112102
 30
0.0
 11
-43.06671469320444
 21
-272.8322244050082
 31
0.0
  0
LINE
  5
5844
330
56F9
100
AcDbEntity
  8
0
 62
     0
100
AcDbLine
 10
-42.6010345307398
 20
-272.3665442425436
 30
0.0
 11
-42.50124592449738
 21
-272.2667556363012
 31
0.0
  0
LINE
  5
5845
330
56F9
100
AcDbEntity
  8
0
 62
     0
100
AcDbLine
 10
-43.84560505823052
 20
-273.4785322485618
 30
0.0
 11
-43.74346112384134
 21
-273.3763883141727
 31
0.0
  0
LINE
  5
5846
330
56F9
100
AcDbEntity
  8
0
 62
     0
100
AcDbLine
 10
-41.37465695742645
 20
-271.0075841477578
 30
0.0
 11
-40.47988776797339
 21
-270.1128149583047
 31
0.0
  0
LINE
  5
5847
330
56F9
100
AcDbEntity
  8
0
 62
     0
100
AcDbLine
 10
-43.74346112384134
 20
-273.3763883141726
 30
0.0
 11
-43.11146661763936
 21
-272.7443938079706
 31
0.0
  0
LINE
  5
5848
330
56F9
100
AcDbEntity
  8
0
 62
     0
100
AcDbLine
 10
-42.64578645517471
 20
-272.278713645506
 30
0.0
 11
-42.5459978489323
 21
-272.1789250392636
 31
0.0
  0
LINE
  5
5849
330
56F9
100
AcDbEntity
  8
0
 62
     0
100
AcDbLine
 10
-43.89035698266545
 20
-273.3907016515242
 30
0.0
 11
-43.78821304827627
 21
-273.2885577171351
 31
0.0
  0
LINE
  5
584A
330
56F9
100
AcDbEntity
  8
0
 62
     0
100
AcDbLine
 10
-41.50723947889893
 20
-271.0075841477578
 30
0.0
 11
-40.61247028944587
 21
-270.1128149583047
 31
0.0
  0
LINE
  5
584B
330
56F9
100
AcDbEntity
  8
0
 62
     0
100
AcDbLine
 10
-43.78821304827627
 20
-273.2885577171351
 30
0.0
 11
-43.15621854207427
 21
-272.6565632109331
 31
0.0
  0
LINE
  5
584C
330
56F9
100
AcDbEntity
  8
0
 62
     0
100
AcDbLine
 10
-42.69053837960965
 20
-272.1908830484685
 30
0.0
 11
-42.59074977336722
 21
-272.0910944422261
 31
0.0
  0
LINE
  5
584D
330
56F9
100
AcDbEntity
  8
0
 62
     0
100
AcDbLine
 10
-43.93510890710039
 20
-273.3028710544867
 30
0.0
 11
-43.83296497271119
 21
-273.2007271200976
 31
0.0
  0
LINE
  5
584E
330
56F9
100
AcDbEntity
  8
0
 62
     0
100
AcDbLine
 10
-41.63982200037142
 20
-271.0075841477578
 30
0.0
 11
-40.74505281091837
 21
-270.1128149583047
 31
0.0
  0
LINE
  5
584F
330
56F9
100
AcDbEntity
  8
0
 62
     0
100
AcDbLine
 10
-43.83296497271119
 20
-273.2007271200975
 30
0.0
 11
-43.2009704665092
 21
-272.5687326138955
 31
0.0
  0
LINE
  5
5850
330
56F9
100
AcDbEntity
  8
0
 62
     0
100
AcDbLine
 10
-42.73529030404456
 20
-272.1030524514309
 30
0.0
 11
-42.63550169780215
 21
-272.0032638451885
 31
0.0
  0
LINE
  5
5851
330
56F9
100
AcDbEntity
  8
0
 62
     0
100
AcDbLine
 10
-43.97986083153529
 20
-273.2150404574491
 30
0.0
 11
-43.87771689714611
 21
-273.11289652306
 31
0.0
  0
LINE
  5
5852
330
56F9
100
AcDbEntity
  8
0
 62
     0
100
AcDbLine
 10
-41.7724045218439
 20
-271.0075841477578
 30
0.0
 11
-40.87763533239084
 21
-270.1128149583047
 31
0.0
  0
LINE
  5
5853
330
56F9
100
AcDbEntity
  8
0
 62
     0
100
AcDbLine
 10
-43.87771689714612
 20
-273.11289652306
 30
0.0
 11
-43.24572239094412
 21
-272.480902016858
 31
0.0
  0
LINE
  5
5854
330
56F9
100
AcDbEntity
  8
0
 62
     0
100
AcDbLine
 10
-42.78004222847949
 20
-272.0152218543934
 30
0.0
 11
-42.68025362223707
 21
-271.9154332481509
 31
0.0
  0
LINE
  5
5855
330
56F9
100
AcDbEntity
  8
0
 62
     0
100
AcDbLine
 10
-44.02461275597022
 20
-273.1272098604116
 30
0.0
 11
-43.92246882158103
 21
-273.0250659260224
 31
0.0
  0
LINE
  5
5856
330
56F9
100
AcDbEntity
  8
0
 62
     0
100
AcDbLine
 10
-41.90498704331639
 20
-271.0075841477578
 30
0.0
 11
-41.01021785386333
 21
-270.1128149583047
 31
0.0
  0
LINE
  5
5857
330
56F9
100
AcDbEntity
  8
0
 62
     0
100
AcDbLine
 10
-43.92246882158103
 20
-273.0250659260224
 30
0.0
 11
-43.29047431537905
 21
-272.3930714198204
 31
0.0
  0
LINE
  5
5858
330
56F9
100
AcDbEntity
  8
0
 62
     0
100
AcDbLine
 10
-42.8247941529144
 20
-271.9273912573558
 30
0.0
 11
-42.72500554667199
 21
-271.8276026511134
 31
0.0
  0
LINE
  5
5859
330
56F9
100
AcDbEntity
  8
0
 62
     0
100
AcDbLine
 10
-44.06936468040514
 20
-273.0393792633741
 30
0.0
 11
-43.96722074601596
 21
-272.9372353289849
 31
0.0
  0
LINE
  5
585A
330
56F9
100
AcDbEntity
  8
0
 62
     0
100
AcDbLine
 10
-42.03756956478883
 20
-271.0075841477578
 30
0.0
 11
-41.14280037533577
 21
-270.1128149583047
 31
0.0
  0
LINE
  5
585B
330
56F9
100
AcDbEntity
  8
0
 62
     0
100
AcDbLine
 10
-43.96722074601596
 20
-272.9372353289849
 30
0.0
 11
-43.33522623981397
 21
-272.3052408227829
 31
0.0
  0
LINE
  5
585C
330
56F9
100
AcDbEntity
  8
0
 62
     0
100
AcDbLine
 10
-42.86954607734934
 20
-271.8395606603182
 30
0.0
 11
-42.76975747110692
 21
-271.7397720540759
 31
0.0
  0
LINE
  5
585D
330
56F9
100
AcDbEntity
  8
0
 62
     0
100
AcDbLine
 10
-44.11411660484007
 20
-272.9515486663365
 30
0.0
 11
-44.01197267045088
 21
-272.8494047319474
 31
0.0
  0
LINE
  5
585E
330
56F9
100
AcDbEntity
  8
0
 62
     0
100
AcDbLine
 10
-42.17015208626132
 20
-271.0075841477578
 30
0.0
 11
-41.27538289680827
 21
-270.1128149583047
 31
0.0
  0
LINE
  5
585F
330
56F9
100
AcDbEntity
  8
0
 62
     0
100
AcDbLine
 10
-44.01197267045089
 20
-272.8494047319474
 30
0.0
 11
-43.3799781642489
 21
-272.2174102257453
 31
0.0
  0
LINE
  5
5860
330
56F9
100
AcDbEntity
  8
0
 62
     0
100
AcDbLine
 10
-42.91429800178426
 20
-271.7517300632807
 30
0.0
 11
-42.81450939554184
 21
-271.6519414570383
 31
0.0
  0
LINE
  5
5861
330
56F9
100
AcDbEntity
  8
0
 62
     0
100
AcDbLine
 10
-43.03552049306387
 20
-271.8729525545603
 30
0.0
 11
-42.91429800178426
 21
-271.7517300632807
 31
0.0
  0
LINE
  5
5862
330
56F9
100
AcDbEntity
  8
0
 62
     0
100
AcDbLine
 10
-44.15886852927499
 20
-272.8637180692989
 30
0.0
 11
-44.0567245948858
 21
-272.7615741349098
 31
0.0
  0
LINE
  5
5863
330
56F9
100
AcDbEntity
  8
0
 62
     0
100
AcDbLine
 10
-42.30273460773381
 20
-271.0075841477578
 30
0.0
 11
-41.40796541828075
 21
-270.1128149583047
 31
0.0
  0
LINE
  5
5864
330
56F9
100
AcDbEntity
  8
0
 62
     0
100
AcDbLine
 10
-44.05672459488581
 20
-272.7615741349098
 30
0.0
 11
-43.42473008868381
 21
-272.1295796287078
 31
0.0
  0
LINE
  5
5865
330
56F9
100
AcDbEntity
  8
0
 62
     0
100
AcDbLine
 10
-42.95904992621917
 20
-271.6638994662432
 30
0.0
 11
-42.85926131997678
 21
-271.5641108600007
 31
0.0
  0
LINE
  5
5866
330
56F9
100
AcDbEntity
  8
0
 62
     0
100
AcDbLine
 10
-43.30583527562661
 20
-272.0106848156506
 30
0.0
 11
-43.03567928394395
 21
-271.7405288239679
 31
0.0
  0
LINE
  5
5867
330
56F9
100
AcDbEntity
  8
0
 62
     0
100
AcDbLine
 10
-44.20362045370992
 20
-272.7758874722614
 30
0.0
 11
-44.10147651932073
 21
-272.6737435378722
 31
0.0
  0
LINE
  5
5868
330
56F9
100
AcDbEntity
  8
0
 62
     0
100
AcDbLine
 10
-42.43531712920629
 20
-271.0075841477578
 30
0.0
 11
-41.54054793975324
 21
-270.1128149583047
 31
0.0
  0
LINE
  5
5869
330
56F9
100
AcDbEntity
  8
0
 62
     0
100
AcDbLine
 10
-44.10147651932073
 20
-272.6737435378722
 30
0.0
 11
-43.57615005818931
 21
-272.1484170767408
 31
0.0
  0
LINE
  5
586A
330
56F9
100
AcDbEntity
  8
0
 62
     0
100
AcDbLine
 10
-43.00380185065409
 20
-271.5760688692056
 30
0.0
 11
-42.9040132444117
 21
-271.4762802629631
 31
0.0
  0
LINE
  5
586B
330
56F9
100
AcDbEntity
  8
0
 62
     0
100
AcDbLine
 10
-43.57615005818945
 20
-272.1484170767408
 30
0.0
 11
-43.29449434520518
 21
-271.8667613637567
 31
0.0
  0
LINE
  5
586C
330
56F9
100
AcDbEntity
  8
0
 62
     0
100
AcDbLine
 10
-44.24837237814484
 20
-272.6880568752238
 30
0.0
 11
-44.14622844375565
 21
-272.5859129408347
 31
0.0
  0
LINE
  5
586D
330
56F9
100
AcDbEntity
  8
0
 62
     0
100
AcDbLine
 10
-42.56789965067877
 20
-271.0075841477578
 30
0.0
 11
-41.67313046122571
 21
-270.1128149583047
 31
0.0
  0
LINE
  5
586E
330
56F9
100
AcDbEntity
  8
0
 62
     0
100
AcDbLine
 10
-44.14622844375567
 20
-272.5859129408347
 30
0.0
 11
-43.81389900091518
 21
-272.2535834979942
 31
0.0
  0
LINE
  5
586F
330
56F9
100
AcDbEntity
  8
0
 62
     0
100
AcDbLine
 10
-43.04855377508903
 20
-271.488238272168
 30
0.0
 11
-42.94876516884662
 21
-271.3884496659257
 31
0.0
  0
LINE
  5
5870
330
56F9
100
AcDbEntity
  8
0
 62
     0
100
AcDbLine
 10
-43.81389900091516
 20
-272.2535834979942
 30
0.0
 11
-43.5533094064665
 21
-271.9929939035455
 31
0.0
  0
LINE
  5
5871
330
56F9
100
AcDbEntity
  8
0
 62
     0
100
AcDbLine
 10
-43.55330940646641
 20
-271.9929939035454
 30
0.0
 11
-43.51423393755367
 21
-271.9539184346327
 31
0.0
  0
LINE
  5
5872
330
56F9
100
AcDbEntity
  8
0
 62
     0
100
AcDbLine
 10
-44.29312430257975
 20
-272.6002262781863
 30
0.0
 11
-44.19098036819057
 21
-272.4980823437971
 31
0.0
  0
LINE
  5
5873
330
56F9
100
AcDbEntity
  8
0
 62
     0
100
AcDbLine
 10
-42.70048217215122
 20
-271.0075841477578
 30
0.0
 11
-41.80571298269817
 21
-270.1128149583047
 31
0.0
  0
LINE
  5
5874
330
56F9
100
AcDbEntity
  8
0
 62
     0
100
AcDbLine
 10
-44.19098036819058
 20
-272.4980823437971
 30
0.0
 11
-43.85736435006013
 21
-272.1644663256667
 31
0.0
  0
LINE
  5
5875
330
56F9
100
AcDbEntity
  8
0
 62
     0
100
AcDbLine
 10
-43.09330569952394
 20
-271.4004076751304
 30
0.0
 11
-42.99351709328155
 21
-271.3006190688881
 31
0.0
  0
LINE
  5
5876
330
56F9
100
AcDbEntity
  8
0
 62
     0
100
AcDbLine
 10
-43.85736435006017
 20
-272.1644663256666
 30
0.0
 11
-43.81212446772781
 21
-272.1192264433343
 31
0.0
  0
LINE
  5
5877
330
56F9
100
AcDbEntity
  8
0
 62
     0
100
AcDbLine
 10
-43.81212446772774
 20
-272.1192264433343
 30
0.0
 11
-43.5589858619886
 21
-271.8660878375951
 31
0.0
  0
LINE
  5
5878
330
56F9
100
AcDbEntity
  8
0
 62
     0
100
AcDbLine
 10
-44.33787622701468
 20
-272.5123956811487
 30
0.0
 11
-44.23573229262551
 21
-272.4102517467596
 31
0.0
  0
LINE
  5
5879
330
56F9
100
AcDbEntity
  8
0
 62
     0
100
AcDbLine
 10
-42.83306469362371
 20
-271.0075841477578
 30
0.0
 11
-41.93829550417065
 21
-270.1128149583047
 31
0.0
  0
LINE
  5
587A
330
56F9
100
AcDbEntity
  8
0
 62
     0
100
AcDbLine
 10
-44.23573229262551
 20
-272.4102517467596
 30
0.0
 11
-43.60373778642352
 21
-271.7782572405575
 31
0.0
  0
LINE
  5
587B
330
56F9
100
AcDbEntity
  8
0
 62
     0
100
AcDbLine
 10
-43.13805762395886
 20
-271.3125770780929
 30
0.0
 11
-43.03826901771647
 21
-271.2127884718505
 31
0.0
  0
LINE
  5
587C
330
56F9
100
AcDbEntity
  8
0
 62
     0
100
AcDbLine
 10
-44.38262815144962
 20
-272.4245650841112
 30
0.0
 11
-44.28048421706043
 21
-272.3224211497221
 31
0.0
  0
LINE
  5
587D
330
56F9
100
AcDbEntity
  8
0
 62
     0
100
AcDbLine
 10
-42.9656472150962
 20
-271.0075841477578
 30
0.0
 11
-42.07087802564314
 21
-270.1128149583047
 31
0.0
  0
LINE
  5
587E
330
56F9
100
AcDbEntity
  8
0
 62
     0
100
AcDbLine
 10
-44.28048421706043
 20
-272.322421149722
 30
0.0
 11
-43.64848971085844
 21
-271.69042664352
 31
0.0
  0
LINE
  5
587F
330
56F9
100
AcDbEntity
  8
0
 62
     0
100
AcDbLine
 10
-43.18280954839378
 20
-271.2247464810554
 30
0.0
 11
-43.08302094215139
 21
-271.1249578748129
 31
0.0
  0
LINE
  5
5880
330
56F9
100
AcDbEntity
  8
0
 62
     0
100
AcDbLine
 10
-44.42738007588452
 20
-272.3367344870736
 30
0.0
 11
-44.32523614149536
 21
-272.2345905526844
 31
0.0
  0
LINE
  5
5881
330
56F9
100
AcDbEntity
  8
0
 62
     0
100
AcDbLine
 10
-43.09822973656867
 20
-271.0075841477578
 30
0.0
 11
-42.20346054711562
 21
-270.1128149583047
 31
0.0
  0
LINE
  5
5882
330
56F9
100
AcDbEntity
  8
0
 62
     0
100
AcDbLine
 10
-44.32523614149537
 20
-272.2345905526844
 30
0.0
 11
-43.69324163529338
 21
-271.6025960464825
 31
0.0
  0
LINE
  5
5883
330
56F9
100
AcDbEntity
  8
0
 62
     0
100
AcDbLine
 10
-43.22756147282872
 20
-271.1369158840178
 30
0.0
 11
-43.12777286658632
 21
-271.0371272777754
 31
0.0
  0
LINE
  5
5884
330
56F9
100
AcDbEntity
  8
0
 62
     0
100
AcDbLine
 10
-44.47213200031946
 20
-272.2489038900361
 30
0.0
 11
-44.36998806593027
 21
-272.1467599556469
 31
0.0
  0
LINE
  5
5885
330
56F9
100
AcDbEntity
  8
0
 62
     0
100
AcDbLine
 10
-43.23081225804116
 20
-271.0075841477578
 30
0.0
 11
-42.3360430685881
 21
-270.1128149583047
 31
0.0
  0
LINE
  5
5886
330
56F9
100
AcDbEntity
  8
0
 62
     0
100
AcDbLine
 10
-44.36998806593028
 20
-272.1467599556469
 30
0.0
 11
-43.7379935597283
 21
-271.5147654494449
 31
0.0
  0
LINE
  5
5887
330
56F9
100
AcDbEntity
  8
0
 62
     0
100
AcDbLine
 10
-43.27231339726363
 20
-271.0490852869802
 30
0.0
 11
-43.23081225804115
 21
-271.0075841477578
 31
0.0
  0
LINE
  5
5888
330
56F9
100
AcDbEntity
  8
0
 62
     0
100
AcDbLine
 10
-44.51688392475437
 20
-272.1610732929985
 30
0.0
 11
-44.41473999036521
 21
-272.0589293586094
 31
0.0
  0
LINE
  5
5889
330
56F9
100
AcDbEntity
  8
0
 62
     0
100
AcDbLine
 10
-43.36339477951361
 20
-271.0075841477578
 30
0.0
 11
-42.46862559006059
 21
-270.1128149583047
 31
0.0
  0
LINE
  5
588A
330
56F9
100
AcDbEntity
  8
0
 62
     0
100
AcDbLine
 10
-44.4147399903652
 20
-272.0589293586093
 30
0.0
 11
-43.78274548416323
 21
-271.4269348524073
 31
0.0
  0
LINE
  5
588B
330
56F9
100
AcDbEntity
  8
0
 62
     0
100
AcDbLine
 10
-44.5616358491893
 20
-272.0732426959609
 30
0.0
 11
-44.45949191480012
 21
-271.9710987615718
 31
0.0
  0
LINE
  5
588C
330
56F9
100
AcDbEntity
  8
0
 62
     0
100
AcDbLine
 10
-43.4959773009861
 20
-271.0075841477578
 30
0.0
 11
-42.60120811153304
 21
-270.1128149583047
 31
0.0
  0
LINE
  5
588D
330
56F9
100
AcDbEntity
  8
0
 62
     0
100
AcDbLine
 10
-44.45949191480013
 20
-271.9710987615718
 30
0.0
 11
-43.82749740859814
 21
-271.3391042553698
 31
0.0
  0
LINE
  5
588E
330
56F9
100
AcDbEntity
  8
0
 62
     0
100
AcDbLine
 10
-44.60638777362423
 20
-271.9854120989233
 30
0.0
 11
-44.50424383923505
 21
-271.8832681645342
 31
0.0
  0
LINE
  5
588F
330
56F9
100
AcDbEntity
  8
0
 62
     0
100
AcDbLine
 10
-43.62855982245858
 20
-271.0075841477578
 30
0.0
 11
-42.73379063300552
 21
-270.1128149583047
 31
0.0
  0
LINE
  5
5890
330
56F9
100
AcDbEntity
  8
0
 62
     0
100
AcDbLine
 10
-44.50424383923506
 20
-271.8832681645342
 30
0.0
 11
-43.87224933303307
 21
-271.2512736583323
 31
0.0
  0
LINE
  5
5891
330
56F9
100
AcDbEntity
  8
0
 62
     0
100
AcDbLine
 10
-44.65113969805915
 20
-271.8975815018858
 30
0.0
 11
-44.54899576366996
 21
-271.7954375674967
 31
0.0
  0
LINE
  5
5892
330
56F9
100
AcDbEntity
  8
0
 62
     0
100
AcDbLine
 10
-43.76114234393106
 20
-271.0075841477578
 30
0.0
 11
-42.86637315447801
 21
-270.1128149583047
 31
0.0
  0
LINE
  5
5893
330
56F9
100
AcDbEntity
  8
0
 62
     0
100
AcDbLine
 10
-44.54899576366997
 20
-271.7954375674967
 30
0.0
 11
-43.91700125746799
 21
-271.1634430612947
 31
0.0
  0
LINE
  5
5894
330
56F9
100
AcDbEntity
  8
0
 62
     0
100
AcDbLine
 10
-44.69589162249408
 20
-271.8097509048483
 30
0.0
 11
-44.5937476881049
 21
-271.7076069704591
 31
0.0
  0
LINE
  5
5895
330
56F9
100
AcDbEntity
  8
0
 62
     0
100
AcDbLine
 10
-43.89372486540355
 20
-271.0075841477578
 30
0.0
 11
-42.99895567595049
 21
-270.1128149583047
 31
0.0
  0
LINE
  5
5896
330
56F9
100
AcDbEntity
  8
0
 62
     0
100
AcDbLine
 10
-44.59374768810491
 20
-271.7076069704591
 30
0.0
 11
-43.96175318190293
 21
-271.0756124642572
 31
0.0
  0
LINE
  5
5897
330
56F9
100
AcDbEntity
  8
0
 62
     0
100
AcDbLine
 10
-44.74064354692899
 20
-271.7219203078107
 30
0.0
 11
-44.63849961253981
 21
-271.6197763734216
 31
0.0
  0
LINE
  5
5898
330
56F9
100
AcDbEntity
  8
0
 62
     0
100
AcDbLine
 10
-44.02630738687596
 20
-271.0075841477577
 30
0.0
 11
-43.13153819742297
 21
-270.1128149583047
 31
0.0
  0
LINE
  5
5899
330
56F9
100
AcDbEntity
  8
0
 62
     0
100
AcDbLine
 10
-44.63849961253983
 20
-271.6197763734216
 30
0.0
 11
-44.02630738687603
 21
-271.0075841477578
 31
0.0
  0
LINE
  5
589A
330
56F9
100
AcDbEntity
  8
0
 62
     0
100
AcDbLine
 10
-44.78539547136391
 20
-271.6340897107732
 30
0.0
 11
-44.68325153697474
 21
-271.5319457763841
 31
0.0
  0
LINE
  5
589B
330
56F9
100
AcDbEntity
  8
0
 62
     0
100
AcDbLine
 10
-44.15888990834845
 20
-271.0075841477577
 30
0.0
 11
-43.26412071889542
 21
-270.1128149583047
 31
0.0
  0
LINE
  5
589C
330
56F9
100
AcDbEntity
  8
0
 62
     0
100
AcDbLine
 10
-44.68325153697477
 20
-271.531945776384
 30
0.0
 11
-44.15888990834848
 21
-271.0075841477578
 31
0.0
  0
LINE
  5
589D
330
56F9
100
AcDbEntity
  8
0
 62
     0
100
AcDbLine
 10
-44.83014739579885
 20
-271.5462591137356
 30
0.0
 11
-44.72800346140967
 21
-271.4441151793465
 31
0.0
  0
LINE
  5
589E
330
56F9
100
AcDbEntity
  8
0
 62
     0
100
AcDbLine
 10
-44.29147242982091
 20
-271.0075841477577
 30
0.0
 11
-43.39670324036791
 21
-270.1128149583047
 31
0.0
  0
LINE
  5
589F
330
56F9
100
AcDbEntity
  8
0
 62
     0
100
AcDbLine
 10
-44.72800346140968
 20
-271.4441151793465
 30
0.0
 11
-44.29147242982097
 21
-271.0075841477578
 31
0.0
  0
LINE
  5
58A0
330
56F9
100
AcDbEntity
  8
0
 62
     0
100
AcDbLine
 10
-44.87489932023376
 20
-271.4584285166981
 30
0.0
 11
-44.7727553858446
 21
-271.3562845823089
 31
0.0
  0
LINE
  5
58A1
330
56F9
100
AcDbEntity
  8
0
 62
     0
100
AcDbLine
 10
-44.42405495129341
 20
-271.0075841477577
 30
0.0
 11
-43.5292857618404
 21
-270.1128149583047
 31
0.0
  0
LINE
  5
58A2
330
56F9
100
AcDbEntity
  8
0
 62
     0
100
AcDbLine
 10
-44.77275538584461
 20
-271.3562845823089
 30
0.0
 11
-44.42405495129345
 21
-271.0075841477578
 31
0.0
  0
LINE
  5
58A3
330
56F9
100
AcDbEntity
  8
0
 62
     0
100
AcDbLine
 10
-44.91965124466869
 20
-271.3705979196606
 30
0.0
 11
-44.81750731027952
 21
-271.2684539852714
 31
0.0
  0
LINE
  5
58A4
330
56F9
100
AcDbEntity
  8
0
 62
     0
100
AcDbLine
 10
-44.55663747276587
 20
-271.0075841477577
 30
0.0
 11
-43.66186828331287
 21
-270.1128149583047
 31
0.0
  0
LINE
  5
58A5
330
56F9
100
AcDbEntity
  8
0
 62
     0
100
AcDbLine
 10
-44.81750731027953
 20
-271.2684539852714
 30
0.0
 11
-44.55663747276593
 21
-271.0075841477578
 31
0.0
  0
LINE
  5
58A6
330
56F9
100
AcDbEntity
  8
0
 62
     0
100
AcDbLine
 10
-44.96440316910361
 20
-271.282767322623
 30
0.0
 11
-44.86225923471444
 21
-271.1806233882338
 31
0.0
  0
LINE
  5
58A7
330
56F9
100
AcDbEntity
  8
0
 62
     0
100
AcDbLine
 10
-44.68921999423836
 20
-271.0075841477577
 30
0.0
 11
-43.79445080478536
 21
-270.1128149583047
 31
0.0
  0
LINE
  5
58A8
330
56F9
100
AcDbEntity
  8
0
 62
     0
100
AcDbLine
 10
-44.86225923471446
 20
-271.1806233882338
 30
0.0
 11
-44.68921999423842
 21
-271.0075841477578
 31
0.0
  0
LINE
  5
58A9
330
56F9
100
AcDbEntity
  8
0
 62
     0
100
AcDbLine
 10
-45.00915509353854
 20
-271.1949367255854
 30
0.0
 11
-44.93619626528839
 21
-271.1219778973352
 31
0.0
  0
LINE
  5
58AA
330
56F9
100
AcDbEntity
  8
0
 62
     0
100
AcDbLine
 10
-44.82180251571087
 20
-271.0075841477578
 30
0.0
 11
-43.92703332625781
 21
-270.1128149583047
 31
0.0
  0
LINE
  5
58AB
330
56F9
100
AcDbEntity
  8
0
 62
     0
100
AcDbLine
 10
-44.95438503718335
 20
-271.0075841477578
 30
0.0
 11
-44.0596158477303
 21
-270.1128149583047
 31
0.0
  0
LINE
  5
58AC
330
56F9
100
AcDbEntity
  8
0
 62
     0
100
AcDbLine
 10
-45.08696755865584
 20
-271.0075841477578
 30
0.0
 11
-44.19219836920278
 21
-270.1128149583047
 31
0.0
  0
LINE
  5
58AD
330
56F9
100
AcDbEntity
  8
0
 62
     0
100
AcDbLine
 10
-45.21955008012832
 20
-271.0075841477578
 30
0.0
 11
-44.32478089067527
 21
-270.1128149583047
 31
0.0
  0
LINE
  5
58AE
330
56F9
100
AcDbEntity
  8
0
 62
     0
100
AcDbLine
 10
-45.23372463886881
 20
-270.8891761850257
 30
0.0
 11
-44.45736341214774
 21
-270.1128149583047
 31
0.0
  0
LINE
  5
58AF
330
56F9
100
AcDbEntity
  8
0
 62
     0
100
AcDbLine
 10
-45.23372463886881
 20
-270.7565936635533
 30
0.0
 11
-44.5899459336202
 21
-270.1128149583047
 31
0.0
  0
LINE
  5
58B0
330
56F9
100
AcDbEntity
  8
0
 62
     0
100
AcDbLine
 10
-45.23372463886881
 20
-270.6240111420808
 30
0.0
 11
-44.72252845509268
 21
-270.1128149583047
 31
0.0
  0
LINE
  5
58B1
330
56F9
100
AcDbEntity
  8
0
 62
     0
100
AcDbLine
 10
-45.23372463886881
 20
-270.4914286206083
 30
0.0
 11
-44.85511097656517
 21
-270.1128149583047
 31
0.0
  0
LINE
  5
58B2
330
56F9
100
AcDbEntity
  8
0
 62
     0
100
AcDbLine
 10
-45.2337246388688
 20
-270.3588460991359
 30
0.0
 11
-44.98769349803765
 21
-270.1128149583047
 31
0.0
  0
LINE
  5
58B3
330
56F9
100
AcDbEntity
  8
0
 62
     0
100
AcDbLine
 10
-45.2337246388688
 20
-270.2262635776634
 30
0.0
 11
-45.12027601951014
 21
-270.1128149583047
 31
0.0
  0
LINE
  5
58B4
330
56F9
100
AcDbEntity
  8
0
 62
     0
100
AcDbLine
 10
-39.27512850824
 20
-279.5146574163695
 30
0.0
 11
-38.5413666900566
 21
-278.7808955981861
 31
0.0
  0
LINE
  5
58B5
330
56F9
100
AcDbEntity
  8
0
 62
     0
100
AcDbLine
 10
-39.16241960701883
 20
-279.5345310366208
 30
0.0
 11
-38.42865778883542
 21
-278.8007692184374
 31
0.0
  0
LINE
  5
58B6
330
56F9
100
AcDbEntity
  8
0
 62
     0
100
AcDbLine
 10
-39.04971070579762
 20
-279.5544046568721
 30
0.0
 11
-38.31594888761424
 21
-278.8206428386887
 31
0.0
  0
LINE
  5
58B7
330
56F9
100
AcDbEntity
  8
0
 62
     0
100
AcDbLine
 10
-38.93700180457646
 20
-279.5742782771234
 30
0.0
 11
-38.20323998639308
 21
-278.84051645894
 31
0.0
  0
LINE
  5
58B8
330
56F9
100
AcDbEntity
  8
0
 62
     0
100
AcDbLine
 10
-38.82429290335529
 20
-279.5941518973747
 30
0.0
 11
-38.0905310851719
 21
-278.8603900791913
 31
0.0
  0
LINE
  5
58B9
330
56F9
100
AcDbEntity
  8
0
 62
     0
100
AcDbLine
 10
-38.71158400213412
 20
-279.614025517626
 30
0.0
 11
-37.97782218395072
 21
-278.8802636994426
 31
0.0
  0
LINE
  5
58BA
330
56F9
100
AcDbEntity
  8
0
 62
     0
100
AcDbLine
 10
-38.59887510091292
 20
-279.6338991378773
 30
0.0
 11
-37.86511328272954
 21
-278.9001373196939
 31
0.0
  0
LINE
  5
58BB
330
56F9
100
AcDbEntity
  8
0
 62
     0
100
AcDbLine
 10
-38.48616619969174
 20
-279.6537727581286
 30
0.0
 11
-37.75240438150836
 21
-278.9200109399452
 31
0.0
  0
LINE
  5
58BC
330
56F9
100
AcDbEntity
  8
0
 62
     0
100
AcDbLine
 10
-38.37345729847058
 20
-279.6736463783799
 30
0.0
 11
-37.63969548028717
 21
-278.9398845601965
 31
0.0
  0
LINE
  5
58BD
330
56F9
100
AcDbEntity
  8
0
 62
     0
100
AcDbLine
 10
-38.26074839724942
 20
-279.6935199986312
 30
0.0
 11
-37.526986579066
 21
-278.9597581804478
 31
0.0
  0
LINE
  5
58BE
330
56F9
100
AcDbEntity
  8
0
 62
     0
100
AcDbLine
 10
-38.14803949602821
 20
-279.7133936188825
 30
0.0
 11
-37.41427767784482
 21
-278.9796318006991
 31
0.0
  0
LINE
  5
58BF
330
56F9
100
AcDbEntity
  8
0
 62
     0
100
AcDbLine
 10
-38.03533059480704
 20
-279.7332672391338
 30
0.0
 11
-37.30156877662363
 21
-278.9995054209504
 31
0.0
  0
LINE
  5
58C0
330
56F9
100
AcDbEntity
  8
0
 62
     0
100
AcDbLine
 10
-37.92262169358588
 20
-279.7531408593851
 30
0.0
 11
-37.18885987540245
 21
-279.0193790412017
 31
0.0
  0
LINE
  5
58C1
330
56F9
100
AcDbEntity
  8
0
 62
     0
100
AcDbLine
 10
-37.80991279236471
 20
-279.7730144796364
 30
0.0
 11
-37.07615097418127
 21
-279.039252661453
 31
0.0
  0
LINE
  5
58C2
330
56F9
100
AcDbEntity
  8
0
 62
     0
100
AcDbLine
 10
-37.6972038911435
 20
-279.7928880998877
 30
0.0
 11
-36.96344207296009
 21
-279.0591262817043
 31
0.0
  0
LINE
  5
58C3
330
56F9
100
AcDbEntity
  8
0
 62
     0
100
AcDbLine
 10
-37.58449498992233
 20
-279.812761720139
 30
0.0
 11
-36.85073317173891
 21
-279.0789999019556
 31
0.0
  0
LINE
  5
58C4
330
56F9
100
AcDbEntity
  8
0
 62
     0
100
AcDbLine
 10
-37.47178608870117
 20
-279.8326353403903
 30
0.0
 11
-36.73802427051778
 21
-279.0988735222069
 31
0.0
  0
LINE
  5
58C5
330
56F9
100
AcDbEntity
  8
0
 62
     0
100
AcDbLine
 10
-37.35907718748001
 20
-279.8525089606416
 30
0.0
 11
-36.62531536929659
 21
-279.1187471424582
 31
0.0
  0
LINE
  5
58C6
330
56F9
100
AcDbEntity
  8
0
 62
     0
100
AcDbLine
 10
-37.24636828625879
 20
-279.8723825808929
 30
0.0
 11
-36.51260646807542
 21
-279.1386207627095
 31
0.0
  0
LINE
  5
58C7
330
56F9
100
AcDbEntity
  8
0
 62
     0
100
AcDbLine
 10
-37.13365938503763
 20
-279.8922562011442
 30
0.0
 11
-36.39989756685424
 21
-279.1584943829608
 31
0.0
  0
LINE
  5
58C8
330
56F9
100
AcDbEntity
  8
0
 62
     0
100
AcDbLine
 10
-37.02095048381647
 20
-279.9121298213955
 30
0.0
 11
-36.28718866563306
 21
-279.1783680032121
 31
0.0
  0
LINE
  5
58C9
330
56F9
100
AcDbEntity
  8
0
 62
     0
100
AcDbLine
 10
-36.9082415825953
 20
-279.9320034416468
 30
0.0
 11
-36.17447976441188
 21
-279.1982416234634
 31
0.0
  0
LINE
  5
58CA
330
56F9
100
AcDbEntity
  8
0
 62
     0
100
AcDbLine
 10
-36.79553268137409
 20
-279.9518770618981
 30
0.0
 11
-36.0617708631907
 21
-279.2181152437147
 31
0.0
  0
LINE
  5
58CB
330
56F9
100
AcDbEntity
  8
0
 62
     0
100
AcDbLine
 10
-36.68282378015292
 20
-279.9717506821494
 30
0.0
 11
-35.94906196196951
 21
-279.237988863966
 31
0.0
  0
LINE
  5
58CC
330
56F9
100
AcDbEntity
  8
0
 62
     0
100
AcDbLine
 10
-36.57011487893175
 20
-279.9916243024007
 30
0.0
 11
-35.83635306074833
 21
-279.2578624842173
 31
0.0
  0
LINE
  5
58CD
330
56F9
100
AcDbEntity
  8
0
 62
     0
100
AcDbLine
 10
-36.45740597771059
 20
-280.011497922652
 30
0.0
 11
-35.72364415952716
 21
-279.2777361044686
 31
0.0
  0
LINE
  5
58CE
330
56F9
100
AcDbEntity
  8
0
 62
     0
100
AcDbLine
 10
-36.34469707648938
 20
-280.0313715429033
 30
0.0
 11
-35.61093525830597
 21
-279.2976097247199
 31
0.0
  0
LINE
  5
58CF
330
56F9
100
AcDbEntity
  8
0
 62
     0
100
AcDbLine
 10
-36.23198817526822
 20
-280.0512451631546
 30
0.0
 11
-35.49822635708479
 21
-279.3174833449712
 31
0.0
  0
LINE
  5
58D0
330
56F9
100
AcDbEntity
  8
0
 62
     0
100
AcDbLine
 10
-36.11927927404706
 20
-280.0711187834059
 30
0.0
 11
-35.38551745586361
 21
-279.3373569652225
 31
0.0
  0
LINE
  5
58D1
330
56F9
100
AcDbEntity
  8
0
 62
     0
100
AcDbLine
 10
-36.00657037282589
 20
-280.0909924036572
 30
0.0
 11
-35.27280855464243
 21
-279.3572305854738
 31
0.0
  0
LINE
  5
58D2
330
56F9
100
AcDbEntity
  8
0
 62
     0
100
AcDbLine
 10
-35.89386147160467
 20
-280.1108660239085
 30
0.0
 11
-35.16009965342125
 21
-279.3771042057251
 31
0.0
  0
LINE
  5
58D3
330
56F9
100
AcDbEntity
  8
0
 62
     0
100
AcDbLine
 10
-35.78115257038351
 20
-280.1307396441598
 30
0.0
 11
-35.04739075220007
 21
-279.3969778259764
 31
0.0
  0
LINE
  5
58D4
330
56F9
100
AcDbEntity
  8
0
 62
     0
100
AcDbLine
 10
-35.66844366916234
 20
-280.1506132644111
 30
0.0
 11
-34.93468185097889
 21
-279.4168514462277
 31
0.0
  0
LINE
  5
58D5
330
56F9
100
AcDbEntity
  8
0
 62
     0
100
AcDbLine
 10
-35.55573476794118
 20
-280.1704868846624
 30
0.0
 11
-34.82197294975771
 21
-279.436725066479
 31
0.0
  0
LINE
  5
58D6
330
56F9
100
AcDbEntity
  8
0
 62
     0
100
AcDbLine
 10
-35.44302586671997
 20
-280.1903605049137
 30
0.0
 11
-34.70926404853658
 21
-279.4565986867303
 31
0.0
  0
LINE
  5
58D7
330
56F9
100
AcDbEntity
  8
0
 62
     0
100
AcDbLine
 10
-35.3303169654988
 20
-280.210234125165
 30
0.0
 11
-34.59655514731539
 21
-279.4764723069816
 31
0.0
  0
LINE
  5
58D8
330
56F9
100
AcDbEntity
  8
0
 62
     0
100
AcDbLine
 10
-35.21760806427764
 20
-280.2301077454163
 30
0.0
 11
-34.48384624609421
 21
-279.496345927233
 31
0.0
  0
LINE
  5
58D9
330
56F9
100
AcDbEntity
  8
0
 62
     0
100
AcDbLine
 10
-35.10489916305647
 20
-280.2499813656676
 30
0.0
 11
-34.65961316436878
 21
-279.80469536698
 31
0.0
  0
LINE
  5
58DA
330
56F9
100
AcDbEntity
  8
0
 62
     0
100
AcDbLine
 10
-34.49507239555112
 20
-279.6401545981623
 30
0.0
 11
-34.37113734487303
 21
-279.5162195474842
 31
0.0
  0
LINE
  5
58DB
330
56F9
100
AcDbEntity
  8
0
 62
     0
100
AcDbLine
 10
-34.65961316436874
 20
-279.8046953669799
 30
0.0
 11
-34.49507239555113
 21
-279.6401545981623
 31
0.0
  0
LINE
  5
58DC
330
56F9
100
AcDbEntity
  8
0
 62
     0
100
AcDbLine
 10
-34.99219026183526
 20
-280.2698549859189
 30
0.0
 11
-34.61254978408334
 21
-279.890214508167
 31
0.0
  0
LINE
  5
58DD
330
56F9
100
AcDbEntity
  8
0
 62
     0
100
AcDbLine
 10
-34.4505443932725
 20
-279.7282091173562
 30
0.0
 11
-34.25842844365185
 21
-279.5360931677355
 31
0.0
  0
LINE
  5
58DE
330
56F9
100
AcDbEntity
  8
0
 62
     0
100
AcDbLine
 10
-34.61254978408327
 20
-279.8902145081669
 30
0.0
 11
-34.45054439327251
 21
-279.7282091173562
 31
0.0
  0
LINE
  5
58DF
330
56F9
100
AcDbEntity
  8
0
 62
     0
100
AcDbLine
 10
-34.8794813606141
 20
-280.2897286061702
 30
0.0
 11
-34.56548640379791
 21
-279.975733649354
 31
0.0
  0
LINE
  5
58E0
330
56F9
100
AcDbEntity
  8
0
 62
     0
100
AcDbLine
 10
-34.40601639099387
 20
-279.81626363655
 30
0.0
 11
-34.18212969867614
 21
-279.5923769442322
 31
0.0
  0
LINE
  5
58E1
330
56F9
100
AcDbEntity
  8
0
 62
     0
100
AcDbLine
 10
-34.5654864037978
 20
-279.975733649354
 30
0.0
 11
-34.4060163909939
 21
-279.81626363655
 31
0.0
  0
LINE
  5
58E2
330
56F9
100
AcDbEntity
  8
0
 62
     0
100
AcDbLine
 10
-34.76677245939293
 20
-280.3096022264215
 30
0.0
 11
-34.51842302351247
 21
-280.0612527905411
 31
0.0
  0
LINE
  5
58E3
330
56F9
100
AcDbEntity
  8
0
 62
     0
100
AcDbLine
 10
-34.36148838871525
 20
-279.9043181557439
 30
0.0
 11
-34.21610863625688
 21
-279.7589384032855
 31
0.0
  0
LINE
  5
58E4
330
56F9
100
AcDbEntity
  8
0
 62
     0
100
AcDbLine
 10
-34.51842302351233
 20
-280.0612527905409
 30
0.0
 11
-34.36148838871528
 21
-279.9043181557439
 31
0.0
  0
LINE
  5
58E5
330
56F9
100
AcDbEntity
  8
0
 62
     0
100
AcDbLine
 10
-34.65406355817177
 20
-280.3294758466728
 30
0.0
 11
-34.47135964322703
 21
-280.1467719317281
 31
0.0
  0
LINE
  5
58E6
330
56F9
100
AcDbEntity
  8
0
 62
     0
100
AcDbLine
 10
-34.31696038643663
 20
-279.9923726749377
 30
0.0
 11
-34.25008757383762
 21
-279.9254998623387
 31
0.0
  0
LINE
  5
58E7
330
56F9
100
AcDbEntity
  8
0
 62
     0
100
AcDbLine
 10
-34.47135964322686
 20
-280.1467719317279
 30
0.0
 11
-34.31696038643667
 21
-279.9923726749378
 31
0.0
  0
LINE
  5
58E8
330
56F9
100
AcDbEntity
  8
0
 62
     0
100
AcDbLine
 10
-34.54135465695056
 20
-280.3493494669242
 30
0.0
 11
-34.4242962629416
 21
-280.2322910729151
 31
0.0
  0
LINE
  5
58E9
330
56F9
100
AcDbEntity
  8
0
 62
     0
100
AcDbLine
 10
-34.42429626294139
 20
-280.232291072915
 30
0.0
 11
-34.27243238415805
 21
-280.0804271941316
 31
0.0
  0
LINE
  5
58EA
330
56F9
100
AcDbEntity
  8
0
 62
     0
100
AcDbLine
 10
-34.42864575572939
 20
-280.3692230871754
 30
0.0
 11
-34.37723288265617
 21
-280.3178102141022
 31
0.0
  0
LINE
  5
58EB
330
56F9
100
AcDbEntity
  8
0
 62
     0
100
AcDbLine
 10
-34.23763487951733
 20
-280.1782122109634
 30
0.0
 11
-34.22790438187941
 21
-280.1684817133254
 31
0.0
  0
LINE
  5
58EC
330
56F9
100
AcDbEntity
  8
0
 62
     0
100
AcDbLine
 10
-34.37723288265592
 20
-280.317810214102
 30
0.0
 11
-34.32222178119469
 21
-280.2627991126407
 31
0.0
  0
LINE
  5
58ED
330
56F9
100
AcDbEntity
  8
0
 62
     0
100
AcDbLine
 10
-34.3180454489991
 20
-280.2586227804452
 30
0.0
 11
-34.23763487951734
 21
-280.1782122109634
 31
0.0
  0
LINE
  5
58EE
330
56F9
100
AcDbEntity
  8
0
 62
     0
100
AcDbLine
 10
-34.33279649784393
 20
-280.4059563507625
 30
0.0
 11
-34.31594377963411
 21
-280.3891036325526
 31
0.0
  0
LINE
  5
58EF
330
56F9
100
AcDbEntity
  8
0
 62
     0
100
AcDbLine
 10
-34.31594377963405
 20
-280.3891036325526
 30
0.0
 11
-34.12832042519916
 21
-280.2014802781177
 31
0.0
  0
LINE
  5
58F0
330
56F9
100
AcDbEntity
  8
0
 62
     0
100
AcDbLine
 10
-34.2886183190611
 20
-280.4943606934521
 30
0.0
 11
-34.20326302751831
 21
-280.4090054019093
 31
0.0
  0
LINE
  5
58F1
330
56F9
100
AcDbEntity
  8
0
 62
     0
100
AcDbLine
 10
-34.01900597088106
 20
-280.224748345272
 30
0.0
 11
-34.00684354492805
 21
-280.2125859193191
 31
0.0
  0
LINE
  5
58F2
330
56F9
100
AcDbEntity
  8
0
 62
     0
100
AcDbLine
 10
-34.20326302751827
 20
-280.4090054019093
 30
0.0
 11
-34.01900597088101
 21
-280.224748345272
 31
0.0
  0
LINE
  5
58F3
330
56F9
100
AcDbEntity
  8
0
 62
     0
100
AcDbLine
 10
-34.24444014027825
 20
-280.5827650361417
 30
0.0
 11
-34.09058227540249
 21
-280.4289071712659
 31
0.0
  0
LINE
  5
58F4
330
56F9
100
AcDbEntity
  8
0
 62
     0
100
AcDbLine
 10
-33.90969151656292
 20
-280.2480164124263
 30
0.0
 11
-33.73652476279732
 21
-280.0748496586608
 31
0.0
  0
LINE
  5
58F5
330
56F9
100
AcDbEntity
  8
0
 62
     0
100
AcDbLine
 10
-34.09058227540246
 20
-280.4289071712659
 30
0.0
 11
-33.90969151656286
 21
-280.2480164124263
 31
0.0
  0
LINE
  5
58F6
330
56F9
100
AcDbEntity
  8
0
 62
     0
100
AcDbLine
 10
-34.20026196149541
 20
-280.6711693788314
 30
0.0
 11
-33.9779015232867
 21
-280.4488089406227
 31
0.0
  0
LINE
  5
58F7
330
56F9
100
AcDbEntity
  8
0
 62
     0
100
AcDbLine
 10
-33.80037706224471
 20
-280.2712844795807
 30
0.0
 11
-33.56665993146914
 21
-280.0375673488051
 31
0.0
  0
LINE
  5
58F8
330
56F9
100
AcDbEntity
  8
0
 62
     0
100
AcDbLine
 10
-33.97790152328667
 20
-280.4488089406226
 30
0.0
 11
-33.80037706224476
 21
-280.2712844795808
 31
0.0
  0
LINE
  5
58F9
330
56F9
100
AcDbEntity
  8
0
 62
     0
100
AcDbLine
 10
-34.15608378271257
 20
-280.759573721521
 30
0.0
 11
-33.86522077117088
 21
-280.4687107099793
 31
0.0
  0
LINE
  5
58FA
330
56F9
100
AcDbEntity
  8
0
 62
     0
100
AcDbLine
 10
-33.69106260792654
 20
-280.294552546735
 30
0.0
 11
-33.52248175268631
 21
-280.1259716914947
 31
0.0
  0
LINE
  5
58FB
330
56F9
100
AcDbEntity
  8
0
 62
     0
100
AcDbLine
 10
-33.86522077117085
 20
-280.4687107099793
 30
0.0
 11
-33.69106260792662
 21
-280.2945525467351
 31
0.0
  0
LINE
  5
58FC
330
56F9
100
AcDbEntity
  8
0
 62
     0
100
AcDbLine
 10
-34.11190560392971
 20
-280.8479780642106
 30
0.0
 11
-33.75254001905505
 21
-280.488612479336
 31
0.0
  0
LINE
  5
58FD
330
56F9
100
AcDbEntity
  8
0
 62
     0
100
AcDbLine
 10
-33.59453372366715
 20
-280.330606183948
 30
0.0
 11
-33.47830357390347
 21
-280.2143760341844
 31
0.0
  0
LINE
  5
58FE
330
56F9
100
AcDbEntity
  8
0
 62
     0
100
AcDbLine
 10
-33.75254001905507
 20
-280.4886124793359
 30
0.0
 11
-33.59453372366719
 21
-280.3306061839481
 31
0.0
  0
LINE
  5
58FF
330
56F9
100
AcDbEntity
  8
0
 62
     0
100
AcDbLine
 10
-34.06772742514688
 20
-280.9363824069003
 30
0.0
 11
-33.64145204273529
 21
-280.5101070244887
 31
0.0
  0
LINE
  5
5900
330
56F9
100
AcDbEntity
  8
0
 62
     0
100
AcDbLine
 10
-33.62039977625162
 20
-280.489054758005
 30
0.0
 11
-33.43412539512061
 21
-280.302780376874
 31
0.0
  0
LINE
  5
5901
330
56F9
100
AcDbEntity
  8
0
 62
     0
100
AcDbLine
 10
-33.64145204273528
 20
-280.5101070244887
 30
0.0
 11
-33.62039977625164
 21
-280.489054758005
 31
0.0
  0
LINE
  5
5902
330
56F9
100
AcDbEntity
  8
0
 62
     0
100
AcDbLine
 10
-34.02354924636404
 20
-281.0247867495899
 30
0.0
 11
-33.38994721633778
 21
-280.3911847195636
 31
0.0
  0
LINE
  5
5903
330
56F9
100
AcDbEntity
  8
0
 62
     0
100
AcDbLine
 10
-33.97937106758119
 20
-281.1131910922795
 30
0.0
 11
-33.34576903755494
 21
-280.4795890622533
 31
0.0
  0
LINE
  5
5904
330
56F9
100
AcDbEntity
  8
0
 62
     0
100
AcDbLine
 10
-33.93519288879836
 20
-281.2015954349691
 30
0.0
 11
-33.30159085877209
 21
-280.567993404943
 31
0.0
  0
LINE
  5
5905
330
56F9
100
AcDbEntity
  8
0
 62
     0
100
AcDbLine
 10
-33.89101471001551
 20
-281.2899997776588
 30
0.0
 11
-33.25741267998925
 21
-280.6563977476325
 31
0.0
  0
LINE
  5
5906
330
56F9
100
AcDbEntity
  8
0
 62
     0
100
AcDbLine
 10
-33.84683653123266
 20
-281.3784041203485
 30
0.0
 11
-33.21323450120642
 21
-280.7448020903222
 31
0.0
  0
LINE
  5
5907
330
56F9
100
AcDbEntity
  8
0
 62
     0
100
AcDbLine
 10
-33.80265835244982
 20
-281.4668084630381
 30
0.0
 11
-33.16905632242356
 21
-280.8332064330118
 31
0.0
  0
LINE
  5
5908
330
56F9
100
AcDbEntity
  8
0
 62
     0
100
AcDbLine
 10
-33.75848017366698
 20
-281.5552128057277
 30
0.0
 11
-33.12487814364072
 21
-280.9216107757015
 31
0.0
  0
LINE
  5
5909
330
56F9
100
AcDbEntity
  8
0
 62
     0
100
AcDbLine
 10
-33.71430199488414
 20
-281.6436171484174
 30
0.0
 11
-33.08069996485789
 21
-281.010015118391
 31
0.0
  0
LINE
  5
590A
330
56F9
100
AcDbEntity
  8
0
 62
     0
100
AcDbLine
 10
-33.6701238161013
 20
-281.732021491107
 30
0.0
 11
-33.03652178607503
 21
-281.0984194610807
 31
0.0
  0
LINE
  5
590B
330
56F9
100
AcDbEntity
  8
0
 62
     0
100
AcDbLine
 10
-33.62594563731845
 20
-281.8204258337966
 30
0.0
 11
-32.9923436072922
 21
-281.1868238037704
 31
0.0
  0
LINE
  5
590C
330
56F9
100
AcDbEntity
  8
0
 62
     0
100
AcDbLine
 10
-33.58176745853561
 20
-281.9088301764862
 30
0.0
 11
-32.94816542850937
 21
-281.2752281464601
 31
0.0
  0
LINE
  5
590D
330
56F9
100
AcDbEntity
  8
0
 62
     0
100
AcDbLine
 10
-33.53758927975277
 20
-281.9972345191759
 30
0.0
 11
-32.90398724972653
 21
-281.3636324891497
 31
0.0
  0
LINE
  5
590E
330
56F9
100
AcDbEntity
  8
0
 62
     0
100
AcDbLine
 10
-33.49341110096992
 20
-282.0856388618656
 30
0.0
 11
-32.85980907094367
 21
-281.4520368318393
 31
0.0
  0
LINE
  5
590F
330
56F9
100
AcDbEntity
  8
0
 62
     0
100
AcDbLine
 10
-33.44923292218708
 20
-282.1740432045552
 30
0.0
 11
-32.81563089216084
 21
-281.5404411745289
 31
0.0
  0
LINE
  5
5910
330
56F9
100
AcDbEntity
  8
0
 62
     0
100
AcDbLine
 10
-33.40505474340423
 20
-282.2624475472448
 30
0.0
 11
-32.771452713378
 21
-281.6288455172186
 31
0.0
  0
LINE
  5
5911
330
56F9
100
AcDbEntity
  8
0
 62
     0
100
AcDbLine
 10
-33.36087656462139
 20
-282.3508518899345
 30
0.0
 11
-32.72727453459515
 21
-281.7172498599082
 31
0.0
  0
LINE
  5
5912
330
56F9
100
AcDbEntity
  8
0
 62
     0
100
AcDbLine
 10
-33.31669838583855
 20
-282.4392562326241
 30
0.0
 11
-32.68309635581231
 21
-281.8056542025978
 31
0.0
  0
LINE
  5
5913
330
56F9
100
AcDbEntity
  8
0
 62
     0
100
AcDbLine
 10
-33.27252020705571
 20
-282.5276605753137
 30
0.0
 11
-32.63891817702948
 21
-281.8940585452875
 31
0.0
  0
LINE
  5
5914
330
56F9
100
AcDbEntity
  8
0
 62
     0
100
AcDbLine
 10
-33.22834202827287
 20
-282.6160649180033
 30
0.0
 11
-32.59473999824662
 21
-281.9824628879771
 31
0.0
  0
LINE
  5
5915
330
56F9
100
AcDbEntity
  8
0
 62
     0
100
AcDbLine
 10
-33.18416384949003
 20
-282.704469260693
 30
0.0
 11
-32.55056181946378
 21
-282.0708672306667
 31
0.0
  0
LINE
  5
5916
330
56F9
100
AcDbEntity
  8
0
 62
     0
100
AcDbLine
 10
-33.13998567070718
 20
-282.7928736033826
 30
0.0
 11
-32.50638364068095
 21
-282.1592715733564
 31
0.0
  0
LINE
  5
5917
330
56F9
100
AcDbEntity
  8
0
 62
     0
100
AcDbLine
 10
-33.09580749192433
 20
-282.8812779460723
 30
0.0
 11
-32.46220546189811
 21
-282.247675916046
 31
0.0
  0
LINE
  5
5918
330
56F9
100
AcDbEntity
  8
0
 62
     0
100
AcDbLine
 10
-33.0516293131415
 20
-282.9696822887619
 30
0.0
 11
-32.41802728311526
 21
-282.3360802587357
 31
0.0
  0
LINE
  5
5919
330
56F9
100
AcDbEntity
  8
0
 62
     0
100
AcDbLine
 10
-33.00745113435866
 20
-283.0580866314516
 30
0.0
 11
-32.37384910433242
 21
-282.4244846014253
 31
0.0
  0
LINE
  5
591A
330
56F9
100
AcDbEntity
  8
0
 62
     0
100
AcDbLine
 10
-32.96327295557581
 20
-283.1464909741411
 30
0.0
 11
-32.32967092554959
 21
-282.5128889441149
 31
0.0
  0
LINE
  5
591B
330
56F9
100
AcDbEntity
  8
0
 62
     0
100
AcDbLine
 10
-32.91909477679296
 20
-283.2348953168308
 30
0.0
 11
-32.28549274676673
 21
-282.6012932868045
 31
0.0
  0
LINE
  5
591C
330
56F9
100
AcDbEntity
  8
0
 62
     0
100
AcDbLine
 10
-32.87491659801013
 20
-283.3232996595204
 30
0.0
 11
-32.24131456798389
 21
-282.6896976294942
 31
0.0
  0
LINE
  5
591D
330
56F9
100
AcDbEntity
  8
0
 62
     0
100
AcDbLine
 10
-32.83073841922728
 20
-283.4117040022101
 30
0.0
 11
-32.19713638920106
 21
-282.7781019721838
 31
0.0
  0
LINE
  5
591E
330
56F9
100
AcDbEntity
  8
0
 62
     0
100
AcDbLine
 10
-32.78656024044444
 20
-283.5001083448997
 30
0.0
 11
-32.1529582104182
 21
-282.8665063148735
 31
0.0
  0
LINE
  5
591F
330
56F9
100
AcDbEntity
  8
0
 62
     0
100
AcDbLine
 10
-32.7423820616616
 20
-283.5885126875893
 30
0.0
 11
-32.10878003163537
 21
-282.9549106575631
 31
0.0
  0
LINE
  5
5920
330
56F9
100
AcDbEntity
  8
0
 62
     0
100
AcDbLine
 10
-32.69820388287876
 20
-283.6769170302789
 30
0.0
 11
-32.06460185285254
 21
-283.0433150002527
 31
0.0
  0
LINE
  5
5921
330
56F9
100
AcDbEntity
  8
0
 62
     0
100
AcDbLine
 10
-32.65402570409591
 20
-283.7653213729686
 30
0.0
 11
-32.0204236740697
 21
-283.1317193429424
 31
0.0
  0
LINE
  5
5922
330
56F9
100
AcDbEntity
  8
0
 62
     0
100
AcDbLine
 10
-32.60984752531307
 20
-283.8537257156582
 30
0.0
 11
-31.97624549528684
 21
-283.220123685632
 31
0.0
  0
LINE
  5
5923
330
56F9
100
AcDbEntity
  8
0
 62
     0
100
AcDbLine
 10
-32.56566934653022
 20
-283.9421300583479
 30
0.0
 11
-31.93206731650401
 21
-283.3085280283216
 31
0.0
  0
LINE
  5
5924
330
56F9
100
AcDbEntity
  8
0
 62
     0
100
AcDbLine
 10
-32.52149116774738
 20
-284.0305344010375
 30
0.0
 11
-31.88788913772117
 21
-283.3969323710113
 31
0.0
  0
LINE
  5
5925
330
56F9
100
AcDbEntity
  8
0
 62
     0
100
AcDbLine
 10
-32.47731298896454
 20
-284.1189387437271
 30
0.0
 11
-31.84371095893832
 21
-283.4853367137009
 31
0.0
  0
LINE
  5
5926
330
56F9
100
AcDbEntity
  8
0
 62
     0
100
AcDbLine
 10
-32.43313481018169
 20
-284.2073430864168
 30
0.0
 11
-31.79953278015548
 21
-283.5737410563906
 31
0.0
  0
LINE
  5
5927
330
56F9
100
AcDbEntity
  8
0
 62
     0
100
AcDbLine
 10
-32.38895663139885
 20
-284.2957474291064
 30
0.0
 11
-31.75535460137264
 21
-283.6621453990801
 31
0.0
  0
LINE
  5
5928
330
56F9
100
AcDbEntity
  8
0
 62
     0
100
AcDbLine
 10
-32.34477845261601
 20
-284.384151771796
 30
0.0
 11
-31.71117642258979
 21
-283.7505497417698
 31
0.0
  0
LINE
  5
5929
330
56F9
100
AcDbEntity
  8
0
 62
     0
100
AcDbLine
 10
-32.30060027383317
 20
-284.4725561144857
 30
0.0
 11
-31.66699824380695
 21
-283.8389540844595
 31
0.0
  0
LINE
  5
592A
330
56F9
100
AcDbEntity
  8
0
 62
     0
100
AcDbLine
 10
-32.25642209505032
 20
-284.5609604571753
 30
0.0
 11
-31.62282006502412
 21
-283.9273584271491
 31
0.0
  0
LINE
  5
592B
330
56F9
100
AcDbEntity
  8
0
 62
     0
100
AcDbLine
 10
-32.21224391626749
 20
-284.649364799865
 30
0.0
 11
-31.57864188624126
 21
-284.0157627698387
 31
0.0
  0
LINE
  5
592C
330
56F9
100
AcDbEntity
  8
0
 62
     0
100
AcDbLine
 10
-32.16806573748464
 20
-284.7377691425545
 30
0.0
 11
-31.53446370745843
 21
-284.1041671125284
 31
0.0
  0
LINE
  5
592D
330
56F9
100
AcDbEntity
  8
0
 62
     0
100
AcDbLine
 10
-32.1238875587018
 20
-284.8261734852442
 30
0.0
 11
-31.49028552867559
 21
-284.192571455218
 31
0.0
  0
LINE
  5
592E
330
56F9
100
AcDbEntity
  8
0
 62
     0
100
AcDbLine
 10
-32.07970937991895
 20
-284.9145778279338
 30
0.0
 11
-31.44610734989275
 21
-284.2809757979077
 31
0.0
  0
LINE
  5
592F
330
56F9
100
AcDbEntity
  8
0
 62
     0
100
AcDbLine
 10
-32.03553120113612
 20
-285.0029821706235
 30
0.0
 11
-31.4019291711099
 21
-284.3693801405972
 31
0.0
  0
LINE
  5
5930
330
56F9
100
AcDbEntity
  8
0
 62
     0
100
AcDbLine
 10
-31.99135302235327
 20
-285.0913865133131
 30
0.0
 11
-31.35775099232706
 21
-284.4577844832869
 31
0.0
  0
LINE
  5
5931
330
56F9
100
AcDbEntity
  8
0
 62
     0
100
AcDbLine
 10
-31.94717484357042
 20
-285.1797908560028
 30
0.0
 11
-31.31357281354423
 21
-284.5461888259766
 31
0.0
  0
LINE
  5
5932
330
56F9
100
AcDbEntity
  8
0
 62
     0
100
AcDbLine
 10
-31.90299666478758
 20
-285.2681951986924
 30
0.0
 11
-31.26939463476138
 21
-284.6345931686662
 31
0.0
  0
LINE
  5
5933
330
56F9
100
AcDbEntity
  8
0
 62
     0
100
AcDbLine
 10
-31.85881848600474
 20
-285.356599541382
 30
0.0
 11
-31.22521645597854
 21
-284.7229975113558
 31
0.0
  0
LINE
  5
5934
330
56F9
100
AcDbEntity
  8
0
 62
     0
100
AcDbLine
 10
-31.8146403072219
 20
-285.4450038840717
 30
0.0
 11
-31.1810382771957
 21
-284.8114018540455
 31
0.0
  0
LINE
  5
5935
330
56F9
100
AcDbEntity
  8
0
 62
     0
100
AcDbLine
 10
-31.77046212843906
 20
-285.5334082267613
 30
0.0
 11
-31.13686009841285
 21
-284.8998061967351
 31
0.0
  0
LINE
  5
5936
330
56F9
100
AcDbEntity
  8
0
 62
     0
100
AcDbLine
 10
-31.72628394965622
 20
-285.6218125694509
 30
0.0
 11
-31.09268191963001
 21
-284.9882105394248
 31
0.0
  0
LINE
  5
5937
330
56F9
100
AcDbEntity
  8
0
 62
     0
100
AcDbLine
 10
-31.68210577087337
 20
-285.7102169121406
 30
0.0
 11
-31.04850374084718
 21
-285.0766148821143
 31
0.0
  0
LINE
  5
5938
330
56F9
100
AcDbEntity
  8
0
 62
     0
100
AcDbLine
 10
-31.63792759209052
 20
-285.7986212548302
 30
0.0
 11
-31.00432556206434
 21
-285.165019224804
 31
0.0
  0
LINE
  5
5939
330
56F9
100
AcDbEntity
  8
0
 62
     0
100
AcDbLine
 10
-31.59374941330769
 20
-285.8870255975199
 30
0.0
 11
-30.96014738328149
 21
-285.2534235674937
 31
0.0
  0
LINE
  5
593A
330
56F9
100
AcDbEntity
  8
0
 62
     0
100
AcDbLine
 10
-31.50332316272872
 20
-285.9291818684134
 30
0.0
 11
-30.91596920449865
 21
-285.3418279101833
 31
0.0
  0
LINE
  5
593B
330
56F9
100
AcDbEntity
  8
0
 62
     0
100
AcDbLine
 10
-31.37157195278595
 20
-285.9300131799431
 30
0.0
 11
-30.87179102571581
 21
-285.4302322528729
 31
0.0
  0
LINE
  5
593C
330
56F9
100
AcDbEntity
  8
0
 62
     0
100
AcDbLine
 10
-31.23982074284319
 20
-285.9308444914728
 30
0.0
 11
-30.82761284693296
 21
-285.5186365955626
 31
0.0
  0
LINE
  5
593D
330
56F9
100
AcDbEntity
  8
0
 62
     0
100
AcDbLine
 10
-31.25232952633624
 20
-286.0759357964383
 30
0.0
 11
-31.16460760049095
 21
-285.988213870593
 31
0.0
  0
LINE
  5
593E
330
56F9
100
AcDbEntity
  8
0
 62
     0
100
AcDbLine
 10
-31.10806953290039
 20
-285.9316758030024
 30
0.0
 11
-30.78343466815012
 21
-285.6070409382521
 31
0.0
  0
LINE
  5
593F
330
56F9
100
AcDbEntity
  8
0
 62
     0
100
AcDbLine
 10
-31.15811563536502
 20
-285.981721905467
 30
0.0
 11
-31.10806953290039
 21
-285.9316758030025
 31
0.0
  0
LINE
  5
5940
330
56F9
100
AcDbEntity
  8
0
 62
     0
100
AcDbLine
 10
-31.12177404626793
 20
-286.0779628378424
 30
0.0
 11
-31.0328563905482
 21
-285.9890451821227
 31
0.0
  0
LINE
  5
5941
330
56F9
100
AcDbEntity
  8
0
 62
     0
100
AcDbLine
 10
-30.97631832295762
 20
-285.9325071145322
 30
0.0
 11
-30.73925648936729
 21
-285.6954452809418
 31
0.0
  0
LINE
  5
5942
330
56F9
100
AcDbEntity
  8
0
 62
     0
100
AcDbLine
 10
-30.99002283632514
 20
-286.0787941493721
 30
0.0
 11
-30.93156545569635
 21
-286.0203367687433
 31
0.0
  0
LINE
  5
5943
330
56F9
100
AcDbEntity
  8
0
 62
     0
100
AcDbLine
 10
-30.84456711301486
 20
-285.9333384260619
 30
0.0
 11
-30.69507831058443
 21
-285.7838496236314
 31
0.0
  0
LINE
  5
5944
330
56F9
100
AcDbEntity
  8
0
 62
     0
100
AcDbLine
 10
-30.7128159030721
 20
-285.9341697375916
 30
0.0
 11
-30.6509001318016
 21
-285.8722539663211
 31
0.0
  0
ENDBLK
  5
5945
330
56F9
100
AcDbEntity
  8
0
100
AcDbBlockEnd
  0
BLOCK
  5
5947
330
5946
100
AcDbEntity
  8
0
100
AcDbBlockBegin
  2
CAT_BORDER$0$LINETYPE
 70
     0
 10
0.0
 20
0.0
 30
0.0
  3
CAT_BORDER$0$LINETYPE
  1

  0
ENDBLK
  5
5948
330
5946
100
AcDbEntity
  8
0
100
AcDbBlockEnd
  0
ENDSEC
  0
SECTION
  2
ENTITIES
  0
TEXT
  5
3D1
330
18
100
AcDbEntity
  8
0
100
AcDbText
 10
248.6200544516907
 20
102.3405228482296
 30
0.0
 40
1.725243299999999
  1
FACTORY FINISH
  7
ROMANS
 72
     1
 11
259.0125914731193
 21
102.3405228482296
 31
0.0
100
AcDbText
  0
TEXT
  5
3D2
330
18
100
AcDbEntity
  8
0
100
AcDbText
 10
244.154960482405
 20
99.54727179108672
 30
0.0
 40
1.725243299999999
  1
%%OALUMINUM-MILL FINISH
  7
ROMANS
 72
     1
 11
259.0125914731193
 21
99.54727179108672
 31
0.0
100
AcDbText
  0
INSERT
  5
3E0
330
18
100
AcDbEntity
  8
0
100
AcDbBlockReference
  2
LINETYPE
 10
0.0
 20
0.0
 30
0.0
  0
TEXT
  5
3E1
330
18
100
AcDbEntity
  8
0
100
AcDbText
 10
35.47879740597944
 20
39.09102913806819
 30
0.0
 40
1.768799999999999
  1

  7
ROMANS
 72
     4
 11
35.47879740597944
 21
39.09102913806819
 31
0.0
100
AcDbText
  0
TEXT
  5
3E2
330
18
100
AcDbEntity
  8
0
100
AcDbText
 10
66.65724016584289
 20
86.54737274767297
 30
0.0
 40
1.421875
  1

  7
ROMANS
100
AcDbText
  0
INSERT
  5
438
330
18
100
AcDbEntity
  8
0
100
AcDbBlockReference
  2
LINETYPE
 10
0.0
 20
0.0
 30
0.0
  0
INSERT
  5
439
330
18
100
AcDbEntity
  8
0
100
AcDbBlockReference
  2
LINETYPE
 10
178.8712295053794
 20
220.4610456797443
 30
0.0
  0
INSERT
  5
45D
330
18
100
AcDbEntity
  8
0
100
AcDbBlockReference
  2
LINETYPE
 10
180.3004805198719
 20
99.79364413670985
 30
0.0
  0
INSERT
  5
B8A
330
18
100
AcDbEntity
  8
0
100
AcDbBlockReference
  2
LINETYPE
 10
-48.18693875831252
 20
87.28178566109765
 30
0.0
  0
MTEXT
  5
C35
330
18
100
AcDbEntity
  8
0
100
AcDbMText
 10
-30.93137439789245
 20
206.4963337434013
 30
0.0
 40
1.75
 41
0.0
 46
0.0
 71
     6
 72
     5
  1
 
  7
ROMANS
 73
     1
 44
1.0
  0
INSERT
  5
D4E
330
18
100
AcDbEntity
  8
0
100
AcDbBlockReference
 66
     1
  2
BORDER-T
 10
165.0306168916146
 20
87.01487543048179
 30
0.0
 41
0.6750000000000114
 42
0.675
 43
0.675
  0
ATTRIB
  5
D4F
330
D4E
100
AcDbEntity
  8
0
 62
     5
100
AcDbText
 10
165.8882705615227
 20
98.4581238704823
 30
0.0
 40
1.51875
  1

  7
ROMANS
100
AcDbAttribute
  2
SCALE
 70
     0
280
     0
  0
ATTRIB
  5
D50
330
D4E
100
AcDbEntity
  8
0
100
AcDbText
 10
342.1029009856584
 20
98.46972618736812
 30
0.0
 40
1.182489257812499
  1
AGRS-H
  7
ROMANS
 72
     4
 11
345.6222142529575
 21
99.06097081627436
 31
0.0
100
AcDbAttribute
  2
SAVEDAS
 70
     0
280
     0
  0
ATTRIB
  5
D51
330
D4E
100
AcDbEntity
  8
0
 62
     5
100
AcDbText
 10
209.4269348859035
 20
96.12136495908041
 30
0.0
 40
0.8425091911764704
  1

 50
90.0
  7
ROMANS
 72
     4
 11
209.4269348859035
 21
96.12136495908041
 31
0.0
100
AcDbAttribute
  2
X
 70
     0
280
     0
  0
ATTRIB
  5
D52
330
D4E
100
AcDbEntity
  8
0
100
AcDbText
 10
246.5549701606954
 20
94.55348057420088
 30
0.0
 40
1.194095057142857
  1

  7
ROMANS
 72
     1
 11
246.5549701606954
 21
94.55348057420088
 31
0.0
100
AcDbAttribute
  2
ARCHORENG
 70
     0
280
     0
  0
ATTRIB
  5
D53
330
D4E
100
AcDbEntity
  8
0
100
AcDbText
 10
246.5549701606954
 20
91.07492042864382
 30
0.0
 40
1.194095057142857
  1

  7
ROMANS
 72
     1
 11
246.5549701606954
 21
91.07492042864382
 31
0.0
100
AcDbAttribute
  2
PURCHASEORDER
 70
     0
280
     0
  0
ATTRIB
  5
D54
330
D4E
100
AcDbEntity
  8
0
100
AcDbText
 10
244.7069659055934
 20
87.59636028308667
 30
0.0
 40
1.194095057142857
  1
DNH
  7
ROMANS
 72
     1
 11
246.5549701606954
 21
87.59636028308667
 31
0.0
100
AcDbAttribute
  2
DRAWNBY
 70
     0
280
     0
  0
ATTRIB
  5
D55
330
D4E
100
AcDbEntity
  8
0
100
AcDbText
 10
266.9763719464098
 20
91.07492042864382
 30
0.0
 40
1.194095057142857
  1

  7
ROMANS
 72
     1
 11
266.9763719464098
 21
91.07492042864382
 31
0.0
100
AcDbAttribute
  2
DATE
 70
     0
280
     0
  0
ATTRIB
  5
D56
330
D4E
100
AcDbEntity
  8
0
100
AcDbText
 10
264.6491171433995
 20
87.59636028308667
 30
0.0
 40
1.194095057142857
  1
11/21/18
  7
ROMANS
 72
     1
 11
269.397066537277
 21
87.59636028308667
 31
0.0
100
AcDbAttribute
  2
DATE
 70
     0
280
     0
  0
ATTRIB
  5
D57
330
D4E
100
AcDbEntity
  8
0
100
AcDbText
 10
287.397773732124
 20
94.55348057420088
 30
0.0
 40
1.194095057142857
  1

  7
ROMANS
 72
     1
 11
287.397773732124
 21
94.55348057420088
 31
0.0
100
AcDbAttribute
  2
PROJECT
 70
     0
280
     0
  0
ATTRIB
  5
D58
330
D4E
100
AcDbEntity
  8
0
100
AcDbText
 10
292.9672469464096
 20
91.07492042864382
 30
0.0
 40
1.194095057142857
  1

  7
ROMANS
 72
     1
 11
292.9672469464096
 21
91.07492042864382
 31
0.0
100
AcDbAttribute
  2
PURCHASER
 70
     0
280
     0
  0
ATTRIB
  5
D59
330
D4E
100
AcDbEntity
  8
0
100
AcDbText
 10
286.3258888300832
 20
87.59636028308674
 30
0.0
 40
1.194095057142857
  1
AGRS-
  7
ROMANS
 72
     1
 11
289.2542648035526
 21
87.59636028308674
 31
0.0
100
AcDbAttribute
  2
MODEL
 70
     0
280
     0
  0
ATTRIB
  5
D5A
330
D4E
100
AcDbEntity
  8
0
100
AcDbText
 10
309.6756665892668
 20
87.59636028308667
 30
0.0
 40
1.194095057142857
  1

  7
ROMANS
 72
     1
 11
309.6756665892668
 21
87.59636028308667
 31
0.0
100
AcDbAttribute
  2
QTY
 70
     0
280
     0
  0
ATTRIB
  5
D5B
330
D4E
100
AcDbEntity
  8
0
100
AcDbText
 10
331.9535594464097
 20
94.55302887180572
 30
0.0
 40
1.194095057142857
  1

  7
ROMANS
 72
     1
 11
331.9535594464097
 21
94.55302887180572
 31
0.0
100
AcDbAttribute
  2
REP
 70
     0
280
     0
  0
ATTRIB
  5
D5C
330
D4E
100
AcDbEntity
  8
0
100
AcDbText
 10
331.9766237371746
 20
89.14331154314522
 30
0.0
 40
2.332216908482143
  1

  7
ROMANS
 72
     1
 11
331.9766237371746
 21
89.14331154314522
 31
0.0
100
AcDbAttribute
  2
L010000
 70
     0
280
     0
  0
SEQEND
  5
D5D
330
D4E
100
AcDbEntity
  8
0
  0
INSERT
  5
1796
330
18
100
AcDbEntity
  8
0
100
AcDbBlockReference
  2
LINETYPE
 10
211.5195694621819
 20
89.7591494685567
 30
0.0
  0
MTEXT
  5
1CCF
330
18
100
AcDbEntity
  8
0
100
AcDbMText
 10
2.61597563725968
 20
166.027158879036
 30
0.0
 40
1.75
 41
0.0
 46
0.0
 71
     6
 72
     5
  1
 
  7
ROMANS
 73
     1
 44
1.0
  0
TEXT
  5
2C16
330
18
100
AcDbEntity
  8
Installation
100
AcDbText
 10
225.8507645549956
 20
224.432888455802
 30
0.0
 40
2.67903659628
  1
ROOF HATCH GUARD-RAIL SYSTEM
  7
ROMANS
 72
     1
 11
261.252319577267
 21
224.432888455802
 31
0.0
100
AcDbText
  0
DIMENSION
  5
2F14
330
18
100
AcDbEntity
  8
Installation
100
AcDbDimension
  2
*D2
 10
271.3620308622755
 20
135.7175620540437
 30
0.0
 11
271.3620308622755
 21
144.436351704491
 31
0.0
 70
    32
  1
18-1/2"
 71
     5
 42
17.43757930089458
 73
     0
 74
     0
 75
     0
  3
STANDARD
100
AcDbAlignedDimension
 13
276.9811889639048
 23
153.1551413549383
 33
0.0
 14
276.9811889639048
 24
135.7175620540437
 34
0.0
 50
90.0
100
AcDbRotatedDimension
  0
INSERT
  5
34BF
330
18
100
AcDbEntity
  8
0
100
AcDbBlockReference
  2
LINETYPE
 10
520.3295172370637
 20
56.17312598935694
 30
0.0
  0
TEXT
  5
34C0
330
18
100
AcDbEntity
  8
0
100
AcDbText
 10
555.8083146430432
 20
95.26415512742515
 30
0.0
 40
1.768799999999999
  1

  7
ROMANS
 72
     4
 11
555.8083146430432
 21
95.26415512742515
 31
0.0
100
AcDbText
  0
TEXT
  5
34C1
330
18
100
AcDbEntity
  8
0
100
AcDbText
 10
586.9867574029067
 20
142.7204987370299
 30
0.0
 40
1.421875
  1

  7
ROMANS
100
AcDbText
  0
INSERT
  5
34C5
330
18
100
AcDbEntity
  8
0
100
AcDbBlockReference
  2
LINETYPE
 10
520.3295172370637
 20
56.17312598935694
 30
0.0
  0
INSERT
  5
34C6
330
18
100
AcDbEntity
  8
0
100
AcDbBlockReference
  2
LINETYPE
 10
699.2007467424432
 20
276.6341716691013
 30
0.0
  0
INSERT
  5
34D2
330
18
100
AcDbEntity
  8
0
100
AcDbBlockReference
  2
LINETYPE
 10
700.6299977569357
 20
155.9667701260668
 30
0.0
  0
INSERT
  5
34D4
330
18
100
AcDbEntity
  8
0
100
AcDbBlockReference
  2
LINETYPE
 10
472.1425784787512
 20
143.4549116504546
 30
0.0
  0
MTEXT
  5
34D5
330
18
100
AcDbEntity
  8
0
100
AcDbMText
 10
489.3981428391713
 20
262.6694597327583
 30
0.0
 40
1.75
 41
0.0
 46
0.0
 71
     6
 72
     5
  1
 
  7
ROMANS
 73
     1
 44
1.0
  0
INSERT
  5
34E7
330
18
100
AcDbEntity
  8
0
100
AcDbBlockReference
  2
LINETYPE
 10
731.8490866992457
 20
145.9322754579136
 30
0.0
  0
MTEXT
  5
3513
330
18
100
AcDbEntity
  8
0
100
AcDbMText
 10
522.9454928743234
 20
222.200284868393
 30
0.0
 40
1.75
 41
0.0
 46
0.0
 71
     6
 72
     5
  1
 
  7
ROMANS
 73
     1
 44
1.0
  0
INSERT
  5
3639
330
18
100
AcDbEntity
  8
0
100
AcDbBlockReference
  2
LINETYPE
 10
813.9163931846439
 20
146.3741002309373
 30
0.0
  0
TEXT
  5
363A
330
18
100
AcDbEntity
  8
0
100
AcDbText
 10
849.3951905906234
 20
185.4651293690054
 30
0.0
 40
1.768799999999999
  1

  7
ROMANS
 72
     4
 11
849.3951905906234
 21
185.4651293690054
 31
0.0
100
AcDbText
  0
TEXT
  5
363B
330
18
100
AcDbEntity
  8
0
100
AcDbText
 10
880.5736333504869
 20
232.9214729786102
 30
0.0
 40
1.421875
  1

  7
ROMANS
100
AcDbText
  0
INSERT
  5
363C
330
18
100
AcDbEntity
  8
0
100
AcDbBlockReference
  2
LINETYPE
 10
813.9163931846439
 20
146.3741002309373
 30
0.0
  0
INSERT
  5
363D
330
18
100
AcDbEntity
  8
0
100
AcDbBlockReference
  2
LINETYPE
 10
992.7876226900234
 20
366.8351459106816
 30
0.0
  0
INSERT
  5
363E
330
18
100
AcDbEntity
  8
0
100
AcDbBlockReference
  2
LINETYPE
 10
994.2168737045159
 20
246.1677443676471
 30
0.0
  0
INSERT
  5
363F
330
18
100
AcDbEntity
  8
0
100
AcDbBlockReference
  2
LINETYPE
 10
765.7294544263314
 20
233.6558858920349
 30
0.0
  0
MTEXT
  5
3640
330
18
100
AcDbEntity
  8
0
100
AcDbMText
 10
782.9850187867515
 20
352.8704339743385
 30
0.0
 40
1.75
 41
0.0
 46
0.0
 71
     6
 72
     5
  1
 
  7
ROMANS
 73
     1
 44
1.0
  0
INSERT
  5
3641
330
18
100
AcDbEntity
  8
0
100
AcDbBlockReference
  2
LINETYPE
 10
1025.435962646826
 20
236.133249699494
 30
0.0
  0
MTEXT
  5
3642
330
18
100
AcDbEntity
  8
0
100
AcDbMText
 10
816.5323688219036
 20
312.4012591099734
 30
0.0
 40
1.75
 41
0.0
 46
0.0
 71
     6
 72
     5
  1
 
  7
ROMANS
 73
     1
 44
1.0
  0
INSERT
  5
3B4D
330
18
100
AcDbEntity
  8
0
100
AcDbBlockReference
  2
LINETYPE
 10
344.2211515875304
 20
70.3204214141196
 30
0.0
  0
TEXT
  5
3B4E
330
18
100
AcDbEntity
  8
0
100
AcDbText
 10
379.6999489935098
 20
109.4114505521878
 30
0.0
 40
1.768799999999999
  1

  7
ROMANS
 72
     4
 11
379.6999489935098
 21
109.4114505521878
 31
0.0
100
AcDbText
  0
TEXT
  5
3B4F
330
18
100
AcDbEntity
  8
0
100
AcDbText
 10
410.8783917533732
 20
156.8677941617925
 30
0.0
 40
1.421875
  1

  7
ROMANS
100
AcDbText
  0
INSERT
  5
3B52
330
18
100
AcDbEntity
  8
0
100
AcDbBlockReference
  2
LINETYPE
 10
344.2211515875304
 20
70.3204214141196
 30
0.0
  0
INSERT
  5
3B53
330
18
100
AcDbEntity
  8
0
100
AcDbBlockReference
  2
LINETYPE
 10
523.0923810929097
 20
290.781467093864
 30
0.0
  0
INSERT
  5
3B5F
330
18
100
AcDbEntity
  8
0
100
AcDbBlockReference
  2
LINETYPE
 10
524.5216321074023
 20
170.1140655508294
 30
0.0
  0
INSERT
  5
3B61
330
18
100
AcDbEntity
  8
0
100
AcDbBlockReference
  2
LINETYPE
 10
296.0342128292178
 20
157.6022070752172
 30
0.0
  0
MTEXT
  5
3B62
330
18
100
AcDbEntity
  8
0
100
AcDbMText
 10
313.2897771896379
 20
276.8167551575209
 30
0.0
 40
1.75
 41
0.0
 46
0.0
 71
     6
 72
     5
  1
 
  7
ROMANS
 73
     1
 44
1.0
  0
INSERT
  5
3B74
330
18
100
AcDbEntity
  8
0
100
AcDbBlockReference
  2
LINETYPE
 10
555.7407210497123
 20
160.0795708826763
 30
0.0
  0
MTEXT
  5
3B9C
330
18
100
AcDbEntity
  8
0
100
AcDbMText
 10
346.83712722479
 20
236.3475802931557
 30
0.0
 40
1.75
 41
0.0
 46
0.0
 71
     6
 72
     5
  1
 
  7
ROMANS
 73
     1
 44
1.0
  0
INSERT
  5
3E9D
330
18
100
AcDbEntity
  8
0
100
AcDbBlockReference
  2
LINETYPE
 10
864.5506688245941
 20
126.4935474034765
 30
0.0
  0
TEXT
  5
3E9E
330
18
100
AcDbEntity
  8
0
100
AcDbText
 10
900.0294662305735
 20
165.5845765415447
 30
0.0
 40
1.768799999999999
  1

  7
ROMANS
 72
     4
 11
900.0294662305735
 21
165.5845765415447
 31
0.0
100
AcDbText
  0
TEXT
  5
3E9F
330
18
100
AcDbEntity
  8
0
100
AcDbText
 10
931.207908990437
 20
213.0409201511495
 30
0.0
 40
1.421875
  1

  7
ROMANS
100
AcDbText
  0
INSERT
  5
3EA0
330
18
100
AcDbEntity
  8
0
100
AcDbBlockReference
  2
LINETYPE
 10
864.5506688245941
 20
126.4935474034765
 30
0.0
  0
INSERT
  5
3EA1
330
18
100
AcDbEntity
  8
0
100
AcDbBlockReference
  2
LINETYPE
 10
1043.421898329973
 20
346.9545930832209
 30
0.0
  0
INSERT
  5
3EA2
330
18
100
AcDbEntity
  8
0
100
AcDbBlockReference
  2
LINETYPE
 10
1044.851149344466
 20
226.2871915401864
 30
0.0
  0
INSERT
  5
3EA3
330
18
100
AcDbEntity
  8
0
100
AcDbBlockReference
  2
LINETYPE
 10
816.3637300662816
 20
213.7753330645742
 30
0.0
  0
MTEXT
  5
3EA4
330
18
100
AcDbEntity
  8
0
100
AcDbMText
 10
833.6192944267017
 20
332.9898811468778
 30
0.0
 40
1.75
 41
0.0
 46
0.0
 71
     6
 72
     5
  1
 
  7
ROMANS
 73
     1
 44
1.0
  0
INSERT
  5
3EA5
330
18
100
AcDbEntity
  8
0
100
AcDbBlockReference
  2
LINETYPE
 10
1076.070238286776
 20
216.2526968720333
 30
0.0
  0
MTEXT
  5
3EA6
330
18
100
AcDbEntity
  8
0
100
AcDbMText
 10
867.1666444618537
 20
292.5207062825126
 30
0.0
 40
1.75
 41
0.0
 46
0.0
 71
     6
 72
     5
  1
 
  7
ROMANS
 73
     1
 44
1.0
  0
INSERT
  5
3EA7
330
18
100
AcDbEntity
  8
0
100
AcDbBlockReference
  2
LINETYPE
 10
1158.137544772174
 20
216.6945216450569
 30
0.0
  0
TEXT
  5
3EA8
330
18
100
AcDbEntity
  8
0
100
AcDbText
 10
1193.616342178154
 20
255.7855507831251
 30
0.0
 40
1.768799999999999
  1

  7
ROMANS
 72
     4
 11
1193.616342178154
 21
255.7855507831251
 31
0.0
100
AcDbText
  0
TEXT
  5
3EA9
330
18
100
AcDbEntity
  8
0
100
AcDbText
 10
1224.794784938017
 20
303.2418943927299
 30
0.0
 40
1.421875
  1

  7
ROMANS
100
AcDbText
  0
INSERT
  5
3EAA
330
18
100
AcDbEntity
  8
0
100
AcDbBlockReference
  2
LINETYPE
 10
1158.137544772174
 20
216.6945216450569
 30
0.0
  0
INSERT
  5
3EAB
330
18
100
AcDbEntity
  8
0
100
AcDbBlockReference
  2
LINETYPE
 10
1337.008774277554
 20
437.1555673248011
 30
0.0
  0
INSERT
  5
3EAC
330
18
100
AcDbEntity
  8
0
100
AcDbBlockReference
  2
LINETYPE
 10
1338.438025292046
 20
316.4881657817667
 30
0.0
  0
INSERT
  5
3EAD
330
18
100
AcDbEntity
  8
0
100
AcDbBlockReference
  2
LINETYPE
 10
1109.950606013862
 20
303.9763073061545
 30
0.0
  0
MTEXT
  5
3EAE
330
18
100
AcDbEntity
  8
0
100
AcDbMText
 10
1127.206170374282
 20
423.1908553884581
 30
0.0
 40
1.75
 41
0.0
 46
0.0
 71
     6
 72
     5
  1
 
  7
ROMANS
 73
     1
 44
1.0
  0
INSERT
  5
3EAF
330
18
100
AcDbEntity
  8
0
100
AcDbBlockReference
  2
LINETYPE
 10
1369.657114234356
 20
306.4536711136136
 30
0.0
  0
MTEXT
  5
3EB0
330
18
100
AcDbEntity
  8
0
100
AcDbMText
 10
1160.753520409434
 20
382.721680524093
 30
0.0
 40
1.75
 41
0.0
 46
0.0
 71
     6
 72
     5
  1
 
  7
ROMANS
 73
     1
 44
1.0
  0
INSERT
  5
4493
330
18
100
AcDbEntity
  8
0
100
AcDbBlockReference
  2
LINETYPE
 10
283.6590488155504
 20
138.2716287775409
 30
0.0
  0
TEXT
  5
4494
330
18
100
AcDbEntity
  8
0
100
AcDbText
 10
319.1378462215299
 20
177.3626579156091
 30
0.0
 40
1.768799999999999
  1

  7
ROMANS
 72
     4
 11
319.1378462215299
 21
177.3626579156091
 31
0.0
100
AcDbText
  0
TEXT
  5
4495
330
18
100
AcDbEntity
  8
0
100
AcDbText
 10
350.3162889813933
 20
224.8190015252139
 30
0.0
 40
1.421875
  1

  7
ROMANS
100
AcDbText
  0
INSERT
  5
4498
330
18
100
AcDbEntity
  8
0
100
AcDbBlockReference
  2
LINETYPE
 10
283.6590488155504
 20
138.2716287775409
 30
0.0
  0
INSERT
  5
4499
330
18
100
AcDbEntity
  8
0
100
AcDbBlockReference
  2
LINETYPE
 10
462.5302783209298
 20
358.7326744572853
 30
0.0
  0
INSERT
  5
44A4
330
18
100
AcDbEntity
  8
0
100
AcDbBlockReference
  2
LINETYPE
 10
463.9595293354223
 20
238.0652729142508
 30
0.0
  0
INSERT
  5
44A6
330
18
100
AcDbEntity
  8
0
100
AcDbBlockReference
  2
LINETYPE
 10
235.4721100572379
 20
225.5534144386386
 30
0.0
  0
MTEXT
  5
44A7
330
18
100
AcDbEntity
  8
0
100
AcDbMText
 10
252.7276744176579
 20
344.7679625209422
 30
0.0
 40
1.75
 41
0.0
 46
0.0
 71
     6
 72
     5
  1
 
  7
ROMANS
 73
     1
 44
1.0
  0
INSERT
  5
44B9
330
18
100
AcDbEntity
  8
0
100
AcDbBlockReference
  2
LINETYPE
 10
495.1786182777324
 20
228.0307782460976
 30
0.0
  0
MTEXT
  5
44E1
330
18
100
AcDbEntity
  8
0
100
AcDbMText
 10
286.2750244528101
 20
304.298787656577
 30
0.0
 40
1.75
 41
0.0
 46
0.0
 71
     6
 72
     5
  1
 
  7
ROMANS
 73
     1
 44
1.0
  0
INSERT
  5
4662
330
18
100
AcDbEntity
  8
0
100
AcDbBlockReference
  2
LINETYPE
 10
803.9885660526142
 20
194.4447547668979
 30
0.0
  0
TEXT
  5
4663
330
18
100
AcDbEntity
  8
0
100
AcDbText
 10
839.4673634585936
 20
233.5357839049661
 30
0.0
 40
1.768799999999999
  1

  7
ROMANS
 72
     4
 11
839.4673634585936
 21
233.5357839049661
 31
0.0
100
AcDbText
  0
TEXT
  5
4664
330
18
100
AcDbEntity
  8
0
100
AcDbText
 10
870.6458062184571
 20
280.9921275145708
 30
0.0
 40
1.421875
  1

  7
ROMANS
100
AcDbText
  0
INSERT
  5
4665
330
18
100
AcDbEntity
  8
0
100
AcDbBlockReference
  2
LINETYPE
 10
803.9885660526142
 20
194.4447547668979
 30
0.0
  0
INSERT
  5
4666
330
18
100
AcDbEntity
  8
0
100
AcDbBlockReference
  2
LINETYPE
 10
982.8597955579937
 20
414.9058004466422
 30
0.0
  0
INSERT
  5
4667
330
18
100
AcDbEntity
  8
0
100
AcDbBlockReference
  2
LINETYPE
 10
984.2890465724861
 20
294.2383989036077
 30
0.0
  0
INSERT
  5
4668
330
18
100
AcDbEntity
  8
0
100
AcDbBlockReference
  2
LINETYPE
 10
755.8016272943016
 20
281.7265404279955
 30
0.0
  0
MTEXT
  5
4669
330
18
100
AcDbEntity
  8
0
100
AcDbMText
 10
773.0571916547217
 20
400.9410885102992
 30
0.0
 40
1.75
 41
0.0
 46
0.0
 71
     6
 72
     5
  1
 
  7
ROMANS
 73
     1
 44
1.0
  0
INSERT
  5
466A
330
18
100
AcDbEntity
  8
0
100
AcDbBlockReference
  2
LINETYPE
 10
1015.508135514796
 20
284.2039042354546
 30
0.0
  0
MTEXT
  5
466B
330
18
100
AcDbEntity
  8
0
100
AcDbMText
 10
806.604541689874
 20
360.4719136459339
 30
0.0
 40
1.75
 41
0.0
 46
0.0
 71
     6
 72
     5
  1
 
  7
ROMANS
 73
     1
 44
1.0
  0
INSERT
  5
466C
330
18
100
AcDbEntity
  8
0
100
AcDbBlockReference
  2
LINETYPE
 10
1097.575442000194
 20
284.6457290084783
 30
0.0
  0
TEXT
  5
466D
330
18
100
AcDbEntity
  8
0
100
AcDbText
 10
1133.054239406174
 20
323.7367581465464
 30
0.0
 40
1.768799999999999
  1

  7
ROMANS
 72
     4
 11
1133.054239406174
 21
323.7367581465464
 31
0.0
100
AcDbText
  0
TEXT
  5
466E
330
18
100
AcDbEntity
  8
0
100
AcDbText
 10
1164.232682166037
 20
371.1931017561513
 30
0.0
 40
1.421875
  1

  7
ROMANS
100
AcDbText
  0
INSERT
  5
466F
330
18
100
AcDbEntity
  8
0
100
AcDbBlockReference
  2
LINETYPE
 10
1097.575442000194
 20
284.6457290084783
 30
0.0
  0
INSERT
  5
4670
330
18
100
AcDbEntity
  8
0
100
AcDbBlockReference
  2
LINETYPE
 10
1276.446671505574
 20
505.1067746882226
 30
0.0
  0
INSERT
  5
4671
330
18
100
AcDbEntity
  8
0
100
AcDbBlockReference
  2
LINETYPE
 10
1277.875922520066
 20
384.439373145188
 30
0.0
  0
INSERT
  5
4672
330
18
100
AcDbEntity
  8
0
100
AcDbBlockReference
  2
LINETYPE
 10
1049.388503241882
 20
371.9275146695759
 30
0.0
  0
MTEXT
  5
4673
330
18
100
AcDbEntity
  8
0
100
AcDbMText
 10
1066.644067602302
 20
491.1420627518794
 30
0.0
 40
1.75
 41
0.0
 46
0.0
 71
     6
 72
     5
  1
 
  7
ROMANS
 73
     1
 44
1.0
  0
INSERT
  5
4674
330
18
100
AcDbEntity
  8
0
100
AcDbBlockReference
  2
LINETYPE
 10
1309.095011462376
 20
374.4048784770349
 30
0.0
  0
MTEXT
  5
4675
330
18
100
AcDbEntity
  8
0
100
AcDbMText
 10
1100.191417637454
 20
450.6728878875143
 30
0.0
 40
1.75
 41
0.0
 46
0.0
 71
     6
 72
     5
  1
 
  7
ROMANS
 73
     1
 44
1.0
  0
INSERT
  5
46BB
330
18
100
AcDbEntity
  8
0
100
AcDbBlockReference
  2
LINETYPE
 10
627.8802004030808
 20
208.5920501916605
 30
0.0
  0
TEXT
  5
46BC
330
18
100
AcDbEntity
  8
0
100
AcDbText
 10
663.3589978090602
 20
247.6830793297287
 30
0.0
 40
1.768799999999999
  1

  7
ROMANS
 72
     4
 11
663.3589978090602
 21
247.6830793297287
 31
0.0
100
AcDbText
  0
TEXT
  5
46BD
330
18
100
AcDbEntity
  8
0
100
AcDbText
 10
694.5374405689237
 20
295.1394229393335
 30
0.0
 40
1.421875
  1

  7
ROMANS
100
AcDbText
  0
INSERT
  5
46BE
330
18
100
AcDbEntity
  8
0
100
AcDbBlockReference
  2
LINETYPE
 10
627.8802004030808
 20
208.5920501916605
 30
0.0
  0
INSERT
  5
46BF
330
18
100
AcDbEntity
  8
0
100
AcDbBlockReference
  2
LINETYPE
 10
806.7514299084603
 20
429.0530958714049
 30
0.0
  0
INSERT
  5
46C0
330
18
100
AcDbEntity
  8
0
100
AcDbBlockReference
  2
LINETYPE
 10
808.1806809229526
 20
308.3856943283704
 30
0.0
  0
INSERT
  5
46C1
330
18
100
AcDbEntity
  8
0
100
AcDbBlockReference
  2
LINETYPE
 10
579.6932616447682
 20
295.8738358527582
 30
0.0
  0
MTEXT
  5
46C2
330
18
100
AcDbEntity
  8
0
100
AcDbMText
 10
596.9488260051882
 20
415.0883839350618
 30
0.0
 40
1.75
 41
0.0
 46
0.0
 71
     6
 72
     5
  1
 
  7
ROMANS
 73
     1
 44
1.0
  0
INSERT
  5
46C3
330
18
100
AcDbEntity
  8
0
100
AcDbBlockReference
  2
LINETYPE
 10
839.3997698652626
 20
298.3511996602173
 30
0.0
  0
MTEXT
  5
46C4
330
18
100
AcDbEntity
  8
0
100
AcDbMText
 10
630.4961760403405
 20
374.6192090706966
 30
0.0
 40
1.75
 41
0.0
 46
0.0
 71
     6
 72
     5
  1
 
  7
ROMANS
 73
     1
 44
1.0
  0
INSERT
  5
46E3
330
18
100
AcDbEntity
  8
0
100
AcDbBlockReference
  2
LINETYPE
 10
1148.209717640144
 20
264.7651761810175
 30
0.0
  0
TEXT
  5
46E4
330
18
100
AcDbEntity
  8
0
100
AcDbText
 10
1183.688515046124
 20
303.8562053190857
 30
0.0
 40
1.768799999999999
  1

  7
ROMANS
 72
     4
 11
1183.688515046124
 21
303.8562053190857
 31
0.0
100
AcDbText
  0
TEXT
  5
46E5
330
18
100
AcDbEntity
  8
0
100
AcDbText
 10
1214.866957805987
 20
351.3125489286905
 30
0.0
 40
1.421875
  1

  7
ROMANS
100
AcDbText
  0
INSERT
  5
46E6
330
18
100
AcDbEntity
  8
0
100
AcDbBlockReference
  2
LINETYPE
 10
1148.209717640144
 20
264.7651761810175
 30
0.0
  0
INSERT
  5
46E7
330
18
100
AcDbEntity
  8
0
100
AcDbBlockReference
  2
LINETYPE
 10
1327.080947145524
 20
485.2262218607618
 30
0.0
  0
INSERT
  5
46E8
330
18
100
AcDbEntity
  8
0
100
AcDbBlockReference
  2
LINETYPE
 10
1328.510198160017
 20
364.5588203177273
 30
0.0
  0
INSERT
  5
46E9
330
18
100
AcDbEntity
  8
0
100
AcDbBlockReference
  2
LINETYPE
 10
1100.022778881832
 20
352.0469618421151
 30
0.0
  0
MTEXT
  5
46EA
330
18
100
AcDbEntity
  8
0
100
AcDbMText
 10
1117.278343242252
 20
471.2615099244187
 30
0.0
 40
1.75
 41
0.0
 46
0.0
 71
     6
 72
     5
  1
 
  7
ROMANS
 73
     1
 44
1.0
  0
INSERT
  5
46EB
330
18
100
AcDbEntity
  8
0
100
AcDbBlockReference
  2
LINETYPE
 10
1359.729287102326
 20
354.5243256495742
 30
0.0
  0
MTEXT
  5
46EC
330
18
100
AcDbEntity
  8
0
100
AcDbMText
 10
1150.825693277404
 20
430.7923350600535
 30
0.0
 40
1.75
 41
0.0
 46
0.0
 71
     6
 72
     5
  1
 
  7
ROMANS
 73
     1
 44
1.0
  0
INSERT
  5
46ED
330
18
100
AcDbEntity
  8
0
100
AcDbBlockReference
  2
LINETYPE
 10
1441.796593587725
 20
354.9661504225978
 30
0.0
  0
TEXT
  5
46EE
330
18
100
AcDbEntity
  8
0
100
AcDbText
 10
1477.275390993704
 20
394.057179560666
 30
0.0
 40
1.768799999999999
  1

  7
ROMANS
 72
     4
 11
1477.275390993704
 21
394.057179560666
 31
0.0
100
AcDbText
  0
TEXT
  5
46EF
330
18
100
AcDbEntity
  8
0
100
AcDbText
 10
1508.453833753567
 20
441.5135231702707
 30
0.0
 40
1.421875
  1

  7
ROMANS
100
AcDbText
  0
INSERT
  5
46F0
330
18
100
AcDbEntity
  8
0
100
AcDbBlockReference
  2
LINETYPE
 10
1441.796593587725
 20
354.9661504225978
 30
0.0
  0
INSERT
  5
46F1
330
18
100
AcDbEntity
  8
0
100
AcDbBlockReference
  2
LINETYPE
 10
1620.667823093104
 20
575.427196102342
 30
0.0
  0
INSERT
  5
46F2
330
18
100
AcDbEntity
  8
0
100
AcDbBlockReference
  2
LINETYPE
 10
1622.097074107597
 20
454.7597945593077
 30
0.0
  0
INSERT
  5
46F3
330
18
100
AcDbEntity
  8
0
100
AcDbBlockReference
  2
LINETYPE
 10
1393.609654829412
 20
442.2479360836954
 30
0.0
  0
MTEXT
  5
46F4
330
18
100
AcDbEntity
  8
0
100
AcDbMText
 10
1410.865219189832
 20
561.462484165999
 30
0.0
 40
1.75
 41
0.0
 46
0.0
 71
     6
 72
     5
  1
 
  7
ROMANS
 73
     1
 44
1.0
  0
INSERT
  5
46F5
330
18
100
AcDbEntity
  8
0
100
AcDbBlockReference
  2
LINETYPE
 10
1653.316163049906
 20
444.7252998911546
 30
0.0
  0
MTEXT
  5
46F6
330
18
100
AcDbEntity
  8
0
100
AcDbMText
 10
1444.412569224984
 20
520.9933093016339
 30
0.0
 40
1.75
 41
0.0
 46
0.0
 71
     6
 72
     5
  1
 
  7
ROMANS
 73
     1
 44
1.0
  0
ARC
  5
4A75
330
18
100
AcDbEntity
  8
0
100
AcDbCircle
 10
277.7311889639049
 20
154.436320766703
 30
0.0
 40
0.7499999999999716
100
AcDbArc
 50
0.0000000000044782
 51
179.9999999999979
  0
LINE
  5
4A76
330
18
100
AcDbEntity
  8
0
100
AcDbLine
 10
276.9811889639048
 20
154.436320766703
 30
0.0
 11
276.9811889639048
 21
134.5612414658083
 31
0.0
  0
LINE
  5
4A78
330
18
100
AcDbEntity
  8
Installation
  6
HIDDEN
100
AcDbLine
 10
278.4811889639049
 20
153.1551413549383
 30
0.0
 11
276.9811889639048
 21
153.1551413549383
 31
0.0
  0
LINE
  5
4A79
330
18
100
AcDbEntity
  8
Installation
  6
HIDDEN
100
AcDbLine
 10
278.4811889639048
 20
135.7175620540437
 30
0.0
 11
276.9811889639048
 21
135.7175620540437
 31
0.0
  0
ARC
  5
4A7A
330
18
100
AcDbEntity
  8
0
100
AcDbCircle
 10
277.7311889639047
 20
134.5612414658083
 30
0.0
 40
0.7499999999999716
100
AcDbArc
 50
180.000000000002
 51
359.9999999999955
  0
LINE
  5
4A7B
330
18
100
AcDbEntity
  8
0
100
AcDbLine
 10
278.4811889639049
 20
154.4363207667031
 30
0.0
 11
278.4811889639048
 21
134.5612414658083
 31
0.0
  0
LINE
  5
4AA6
330
18
100
AcDbEntity
  8
0
100
AcDbLine
 10
278.4811889639049
 20
152.0300001784681
 30
0.0
 11
276.9811889639048
 21
152.0300001784682
 31
0.0
  0
LINE
  5
4AA7
330
18
100
AcDbEntity
  8
0
100
AcDbLine
 10
278.4811889639049
 20
136.9051413549386
 30
0.0
 11
276.9811889639048
 21
136.9051413549387
 31
0.0
  0
TEXT
  5
4F04
330
18
100
AcDbEntity
  8
Installation
100
AcDbText
 10
191.4114911173935
 20
212.2426598346521
 30
0.0
 40
1.5
  1
OSHA GUIDELINE:
  7
ROMANS
 72
     1
 11
201.0186339745364
 21
212.2426598346521
 31
0.0
100
AcDbText
  0
TEXT
  5
4F05
330
18
100
AcDbEntity
  8
Installation
100
AcDbText
 10
184.9114911173935
 20
210.2181205435361
 30
0.0
 40
1.5
  1
THIS HANDRAIL SYSTEM HAS
  7
ROMANS
 72
     1
 11
201.0186339745364
 21
210.2181205435361
 31
0.0
100
AcDbText
  0
TEXT
  5
4F06
330
18
100
AcDbEntity
  8
Installation
100
AcDbText
 10
184.5543482602506
 20
208.1055578049803
 30
0.0
 40
1.5
  1
BEEN TESTED TO WITHSTAND
  7
ROMANS
 72
     1
 11
201.0186339745364
 21
208.1055578049803
 31
0.0
100
AcDbText
  0
TEXT
  5
4F07
330
18
100
AcDbEntity
  8
Installation
100
AcDbText
 10
188.0543482602506
 20
205.8169481715448
 30
0.0
 40
1.5
  1
200# LOADING IN ANY
  7
ROMANS
 72
     1
 11
201.0186339745364
 21
205.8169481715448
 31
0.0
100
AcDbText
  0
TEXT
  5
4F08
330
18
100
AcDbEntity
  8
Installation
100
AcDbText
 10
195.0186339745363
 20
203.5283385381093
 30
0.0
 40
1.5
  1
DIRECTION.
  7
ROMANS
 72
     1
 11
201.0186339745364
 21
203.5283385381093
 31
0.0
100
AcDbText
  0
TEXT
  5
4FB7
330
18
100
AcDbEntity
  8
Installation
100
AcDbText
 10
185.1786751149903
 20
191.3299350728379
 30
0.0
 40
1.5
  1
NOTE:
  7
ROMANS
 72
     1
 11
188.3572465435617
 21
191.3299350728379
 31
0.0
100
AcDbText
  0
TEXT
  5
4FB8
330
18
100
AcDbEntity
  8
Installation
100
AcDbText
 10
185.0221960037677
 20
189.305395781722
 30
0.0
 40
1.5
  1
SOME SIDE LENGTHS MAY
  7
ROMANS
 72
     1
 11
199.8436245751963
 21
189.305395781722
 31
0.0
100
AcDbText
  0
TEXT
  5
4FB9
330
18
100
AcDbEntity
  8
Installation
100
AcDbText
 10
185.3793388609106
 20
187.1928330431662
 30
0.0
 40
1.5
  1
REQUIRE A MIDDLE POST
  7
ROMANS
 72
     1
 11
199.8436245751963
 21
187.1928330431662
 31
0.0
100
AcDbText
  0
TEXT
  5
4FBA
330
18
100
AcDbEntity
  8
Installation
100
AcDbText
 10
185.2255228658469
 20
184.9042234097307
 30
0.0
 40
1.5
  1
(NOT SHOWN)
  7
ROMANS
 72
     1
 11
193.0469514372754
 21
184.9042234097307
 31
0.0
100
AcDbText
  0
LWPOLYLINE
  5
4FC4
330
18
100
AcDbEntity
  8
0
100
AcDbPolyline
 90
        4
 70
     1
 43
0.0
 10
183.86570478149
 20
214.9921132789253
 10
218.2201965843898
 20
214.9921132789253
 10
218.2201965843898
 20
201.7236794722528
 10
183.86570478149
 20
201.7236794722528
  0
LEADER
  5
4FC6
330
18
100
AcDbEntity
  8
0
100
AcDbLeader
  3
STANDARD
 73
     0
 40
3.666666666666667
 41
16.30357142857143
 76
     3
 10
199.5946731762081
 20
155.2213309806188
 30
0.0
 10
203.026156382035
 20
167.0884850735194
 30
0.0
 10
206.5456252803643
 20
167.0884850735194
 30
0.0
340
4FC7
213
0.0
223
-0.6875
233
0.0
1001
ACAD
1000
DSTYLE
1002
{
1070
   147
1040
0.0625
1070
    77
1070
     0
1002
}
  0
MTEXT
  5
4FC7
102
{ACAD_REACTORS
330
4FC6
102
}
330
18
100
AcDbEntity
  8
0
100
AcDbMText
 10
207.9206252803643
 20
167.7759850735194
 30
0.0
 40
1.375
 41
0.0
 46
0.0
 71
     1
 72
     1
  1
\A1;SELF-CLOSING\PALUMINUM GATE
  7
ROMANS
 73
     1
 44
1.0
  0
LINE
  5
527F
330
18
100
AcDbEntity
  8
0
100
AcDbLine
 10
279.3169181748567
 20
172.7718530827709
 30
0.0
 11
330.0906378529418
 21
172.7718530827706
 31
0.0
  0
LINE
  5
5295
330
18
100
AcDbEntity
  8
0
100
AcDbLine
 10
279.3169181748566
 20
155.1863207667029
 30
0.0
 11
281.3169181748567
 21
155.1863207667029
 31
0.0
  0
LINE
  5
5296
330
18
100
AcDbEntity
  8
0
100
AcDbLine
 10
282.7817780138989
 20
113.1863207667032
 30
0.0
 11
326.6257780138956
 21
113.1863207667028
 31
0.0
  0
LINE
  5
5297
330
18
100
AcDbEntity
  8
0
100
AcDbLine
 10
282.7817780138989
 20
113.248820766703
 30
0.0
 11
326.6257780138956
 21
113.2488207667027
 31
0.0
  0
LINE
  5
5298
330
18
100
AcDbEntity
  8
0
100
AcDbLine
 10
286.7037780138994
 20
120.5581445218983
 30
0.0
 11
286.7037780138994
 21
113.2488207667031
 31
0.0
  0
LINE
  5
5299
330
18
100
AcDbEntity
  8
0
100
AcDbLine
 10
286.7037780138994
 20
113.2488207667031
 30
0.0
 11
282.7817780138989
 21
113.186320766703
 31
0.0
  0
LINE
  5
529A
330
18
100
AcDbEntity
  8
0
100
AcDbLine
 10
282.7817780138989
 20
113.248820766703
 30
0.0
 11
282.7817780138989
 21
113.1863207667032
 31
0.0
  0
LINE
  5
529B
330
18
100
AcDbEntity
  8
0
100
AcDbLine
 10
322.7037780138951
 20
120.5581445218983
 30
0.0
 11
322.7037780138952
 21
113.2488207667027
 31
0.0
  0
LINE
  5
529C
330
18
100
AcDbEntity
  8
0
100
AcDbLine
 10
326.6257780138956
 20
113.2488207667027
 30
0.0
 11
326.6257780138956
 21
113.1863207667028
 31
0.0
  0
LINE
  5
529E
330
18
100
AcDbEntity
  8
0
100
AcDbLine
 10
283.6015670178992
 20
213.8065019258098
 30
0.0
 11
283.6015670178992
 21
177.8065019258098
 31
0.0
  0
LINE
  5
52A1
330
18
100
AcDbEntity
  8
0
100
AcDbLine
 10
324.0623560219134
 20
122.686320766703
 30
0.0
 11
285.345200005896
 21
122.6863207667031
 31
0.0
  0
LINE
  5
52A2
330
18
100
AcDbEntity
  8
0
100
AcDbLine
 10
320.0891136893356
 20
120.9114899221321
 30
0.0
 11
289.3184423384589
 21
120.9114899221318
 31
0.0
  0
DIMENSION
  5
52A3
330
18
100
AcDbEntity
  8
0
100
AcDbDimension
  2
*D4
 10
286.7037780138994
 20
108.9450087493746
 30
0.0
 11
304.7037780138972
 21
108.9450087493746
 31
0.0
 70
    32
  1
AS REQ'D
 71
     5
 42
35.99999999999585
 73
     0
 74
     0
 75
     0
  3
STANDARD
100
AcDbAlignedDimension
 13
322.7037780138952
 23
113.2488207667027
 33
0.0
 14
286.7037780138994
 24
113.2488207667031
 34
0.0
100
AcDbRotatedDimension
  0
LINE
  5
52A4
330
18
100
AcDbEntity
  8
0
100
AcDbLine
 10
280.0669181748565
 20
122.4114899221321
 30
0.0
 11
280.0669181748565
 21
132.1864619431735
 31
0.0
  0
LINE
  5
52A5
330
18
100
AcDbEntity
  8
0
100
AcDbLine
 10
280.0669181748565
 20
134.6863207667027
 30
0.0
 11
280.0669181748566
 21
153.1864619431735
 31
0.0
  0
ARC
  5
52A6
330
18
100
AcDbEntity
  8
0
100
AcDbCircle
 10
280.5669181748565
 20
134.6863207667027
 30
0.0
 40
0.5
100
AcDbArc
 50
180.0
 51
270.0
  0
LINE
  5
52A7
330
18
100
AcDbEntity
  8
0
100
AcDbLine
 10
283.6015670178953
 20
126.9319081861119
 30
0.0
 11
283.6015670178954
 21
123.9319081861119
 31
0.0
  0
LINE
  5
52A8
330
18
100
AcDbEntity
  8
0
100
AcDbLine
 10
285.345200005896
 20
122.686320766703
 30
0.0
 11
284.8277440323468
 21
122.1694730803113
 31
0.0
  0
ARC
  5
52A9
330
18
100
AcDbEntity
  8
0
100
AcDbCircle
 10
284.8715588619758
 20
122.1256066842366
 30
0.0
 40
0.062
100
AcDbArc
 50
134.966303626116
 51
180.0
  0
LINE
  5
52AA
330
18
100
AcDbEntity
  8
0
100
AcDbLine
 10
284.8095588619758
 20
120.911489922132
 30
0.0
 11
284.4557976033088
 21
120.5581445218983
 31
0.0
  0
LINE
  5
52AB
330
18
100
AcDbEntity
  8
0
  6
HIDDEN
100
AcDbLine
 10
284.8095588619758
 20
122.1256066842366
 30
0.0
 11
284.8095588619758
 21
120.911489922132
 31
0.0
  0
LINE
  5
52AC
330
18
100
AcDbEntity
  8
0
100
AcDbLine
 10
284.9537780138994
 20
120.911489922132
 30
0.0
 11
284.8095588619801
 21
120.911489922132
 31
0.0
  0
LINE
  5
52AD
330
18
100
AcDbEntity
  8
0
100
AcDbLine
 10
284.4557976033127
 20
120.5581445218965
 30
0.0
 11
324.9517584244818
 21
120.5581445218984
 31
0.0
  0
LINE
  5
52AE
330
18
100
AcDbEntity
  8
0
100
AcDbLine
 10
324.453778013895
 20
120.911489922132
 30
0.0
 11
324.5979971658145
 21
120.9114899221321
 31
0.0
  0
LINE
  5
52AF
330
18
100
AcDbEntity
  8
0
100
AcDbLine
 10
284.827744032351
 20
122.1694730803114
 30
0.0
 11
324.5798119954435
 21
122.1694730803114
 31
0.0
  0
LINE
  5
52B0
330
18
100
AcDbEntity
  8
0
100
AcDbLine
 10
324.0623560219134
 20
122.686320766703
 30
0.0
 11
324.5798119954477
 21
122.1694730803113
 31
0.0
  0
LINE
  5
52B1
330
18
100
AcDbEntity
  8
0
  6
HIDDEN
100
AcDbLine
 10
324.5979971658187
 20
122.1256066842366
 30
0.0
 11
324.5979971658187
 21
120.911489922132
 31
0.0
  0
LINE
  5
52B2
330
18
100
AcDbEntity
  8
0
100
AcDbLine
 10
324.5979971658187
 20
120.911489922132
 30
0.0
 11
324.9517584244858
 21
120.5581445218983
 31
0.0
  0
ARC
  5
52B3
330
18
100
AcDbEntity
  8
0
100
AcDbCircle
 10
324.5359971658187
 20
122.1256066842366
 30
0.0
 40
0.062
100
AcDbArc
 50
0.0
 51
45.03369637388391
  0
LINE
  5
52B4
330
18
100
AcDbEntity
  8
0
100
AcDbLine
 10
283.6015670178954
 20
123.9319081861112
 30
0.0
 11
325.8059890098991
 21
123.9319081861119
 31
0.0
  0
LINE
  5
52B5
330
18
100
AcDbEntity
  8
0
100
AcDbLine
 10
283.6015670178953
 20
126.9319081861119
 30
0.0
 11
325.8059890098992
 21
126.931908186112
 31
0.0
  0
LINE
  5
52B6
330
18
100
AcDbEntity
  8
0
100
AcDbLine
 10
325.8059890098992
 20
126.9319081861119
 30
0.0
 11
325.8059890098991
 21
123.9319081861119
 31
0.0
  0
LINE
  5
52B7
330
18
100
AcDbEntity
  8
0
100
AcDbLine
 10
325.8059890098992
 20
177.8065019258094
 30
0.0
 11
325.8059890098992
 21
213.8065019258096
 31
0.0
  0
LINE
  5
52B8
330
18
100
AcDbEntity
  8
0
100
AcDbLine
 10
325.8059890098992
 20
213.8065019258096
 30
0.0
 11
283.6015670178992
 21
213.8065019258098
 31
0.0
  0
LINE
  5
52B9
330
18
100
AcDbEntity
  8
0
100
AcDbLine
 10
325.8059890098992
 20
177.8065019258094
 30
0.0
 11
283.6015670178992
 21
177.8065019258098
 31
0.0
  0
LINE
  5
52BA
330
18
100
AcDbEntity
  8
0
100
AcDbLine
 10
278.5669181748566
 20
153.6864619431735
 30
0.0
 11
278.5669181748566
 21
122.4114899221321
 31
0.0
  0
LINE
  5
52BB
330
18
100
AcDbEntity
  8
0
100
AcDbLine
 10
280.0669181748566
 20
151.6863207667029
 30
0.0
 11
278.5669181748566
 21
151.6863207667029
 31
0.0
  0
LINE
  5
52BC
330
18
100
AcDbEntity
  8
0
100
AcDbLine
 10
278.5669181748566
 20
154.436320766703
 30
0.0
 11
278.5669181748566
 21
153.6864619431736
 31
0.0
  0
LINE
  5
52BD
330
18
100
AcDbEntity
  8
0
100
AcDbLine
 10
327.8507628716768
 20
172.7718087853913
 30
0.0
 11
327.8507628716768
 21
174.2718530827706
 31
0.0
  0
LINE
  5
52BE
330
18
100
AcDbEntity
  8
0
100
AcDbLine
 10
322.7037780138992
 20
172.7718530827705
 30
0.0
 11
322.9537780138992
 21
172.7718530827705
 31
0.0
  0
LINE
  5
52BF
330
18
100
AcDbEntity
  8
0
100
AcDbLine
 10
278.5669181748567
 20
218.0257265394882
 30
0.0
 11
278.5669181748567
 21
217.9572672923654
 31
0.0
  0
LINE
  5
52C0
330
18
100
AcDbEntity
  8
0
100
AcDbLine
 10
282.2037780138995
 20
172.7718530827708
 30
0.0
 11
282.2037780138995
 21
174.2718530827708
 31
0.0
  0
CIRCLE
  5
52C1
330
18
100
AcDbEntity
  8
0
100
AcDbCircle
 10
281.9360514780415
 20
173.5218530827709
 30
0.0
 40
0.125
  0
LINE
  5
52C2
330
18
100
AcDbEntity
  8
0
100
AcDbLine
 10
280.6604750044597
 20
153.6864619431736
 30
0.0
 11
281.3169181748567
 21
153.6864619431735
 31
0.0
  0
LINE
  5
52C3
330
18
100
AcDbEntity
  8
0
  6
HIDDEN
100
AcDbLine
 10
283.6015670178992
 20
213.8065019258098
 30
0.0
 11
325.8059890098992
 21
177.8065019258094
 31
0.0
  0
LINE
  5
52C4
330
18
100
AcDbEntity
  8
0
  6
HIDDEN
100
AcDbLine
 10
325.8059890098992
 20
213.8065019258096
 30
0.0
 11
283.6015670178992
 21
177.8065019258097
 31
0.0
  0
LINE
  5
52C5
330
18
100
AcDbEntity
  8
0
100
AcDbLine
 10
278.5669181748566
 20
154.0613913549383
 30
0.0
 11
278.5669181748566
 21
134.1863120540435
 31
0.0
  0
LINE
  5
52C7
330
18
100
AcDbEntity
  8
0
100
AcDbLine
 10
280.5669181748566
 20
153.686459441844
 30
0.0
 11
329.0906385360747
 21
153.686464281704
 31
0.0
  0
ARC
  5
52C8
330
18
100
AcDbEntity
  8
0
100
AcDbCircle
 10
329.0906385668851
 20
153.186464281704
 30
0.0
 40
0.5
100
AcDbArc
 50
0.0000204544355946
 51
90.00000353060338
  0
LINE
  5
52D0
330
18
100
AcDbEntity
  8
0
100
AcDbLine
 10
286.4537780138993
 20
120.9114899221321
 30
0.0
 11
289.3184423384589
 21
120.9114899221321
 31
0.0
  0
LINE
  5
52D1
330
18
100
AcDbEntity
  8
0
100
AcDbLine
 10
289.3184423384589
 20
120.9114899221321
 30
0.0
 11
289.3184423384589
 21
122.1614899221321
 31
0.0
  0
LINE
  5
52D2
330
18
100
AcDbEntity
  8
0
100
AcDbLine
 10
289.3184423384589
 20
122.1614899221321
 30
0.0
 11
280.6604750044595
 21
122.1614899221321
 31
0.0
  0
LINE
  5
52D3
330
18
100
AcDbEntity
  8
0
100
AcDbLine
 10
281.4382385184162
 20
122.4114899221321
 30
0.0
 11
277.1955978312968
 21
122.4114899221321
 31
0.0
  0
CIRCLE
  5
52D4
330
18
100
AcDbEntity
  8
0
100
AcDbCircle
 10
288.3184423384589
 20
121.5364899221321
 30
0.0
 40
0.281
  0
CIRCLE
  5
52D5
330
18
100
AcDbEntity
  8
0
100
AcDbCircle
 10
285.8184423384589
 20
121.5364899221321
 30
0.0
 40
0.281
  0
LINE
  5
52D6
330
18
100
AcDbEntity
  8
0
100
AcDbLine
 10
280.6604750044595
 20
122.1614899221321
 30
0.0
 11
277.195597831297
 21
122.1614899221322
 31
0.0
  0
LINE
  5
52D7
330
18
100
AcDbEntity
  8
0
100
AcDbLine
 10
289.3184423384589
 20
120.9114899221321
 30
0.0
 11
277.195597831297
 21
120.9114899221321
 31
0.0
  0
LINE
  5
52D8
330
18
100
AcDbEntity
  8
0
100
AcDbLine
 10
283.559558861976
 20
183.8894937698903
 30
0.0
 11
283.559558861976
 21
177.7644937698902
 31
0.0
  0
LINE
  5
52D9
330
18
100
AcDbEntity
  8
0
100
AcDbLine
 10
283.559558861976
 20
177.7644937698902
 30
0.0
 11
289.684558861976
 21
177.7644937698902
 31
0.0
  0
LINE
  5
52DA
330
18
100
AcDbEntity
  8
0
100
AcDbLine
 10
283.559558861976
 20
178.6483772463735
 30
0.0
 11
280.2891899989882
 21
175.3780083833856
 31
0.0
  0
LINE
  5
52DB
330
18
100
AcDbEntity
  8
0
  6
HIDDEN
100
AcDbLine
 10
280.1758801779238
 20
175.2646985623213
 30
0.0
 11
277.6625281760582
 21
172.7513465604557
 31
0.0
  0
LINE
  5
52DC
330
18
100
AcDbEntity
  8
0
100
AcDbLine
 10
277.460762874242
 20
172.5495812586394
 30
0.0
 11
277.195597831297
 21
172.2844162156944
 31
0.0
  0
LINE
  5
52DD
330
18
100
AcDbEntity
  8
0
100
AcDbLine
 10
284.4434423384591
 20
177.7644937698902
 30
0.0
 11
281.1730734754713
 21
174.4941249069024
 31
0.0
  0
LINE
  5
52DE
330
18
100
AcDbEntity
  8
0
  6
HIDDEN
100
AcDbLine
 10
281.1034168188348
 20
174.4244682502659
 30
0.0
 11
278.4098267576486
 21
171.7308781890798
 31
0.0
  0
LINE
  5
52DF
330
18
100
AcDbEntity
  8
0
100
AcDbLine
 10
278.3446463507252
 20
171.6656977821562
 30
0.0
 11
278.0794813077802
 21
171.4005327392113
 31
0.0
  0
LINE
  5
52E0
330
18
100
AcDbEntity
  8
0
100
AcDbLine
 10
278.0794813077802
 20
171.4005327392113
 30
0.0
 11
277.195597831297
 21
172.2844162156944
 31
0.0
  0
CIRCLE
  5
52E1
330
18
100
AcDbEntity
  8
0
100
AcDbCircle
 10
278.2562580030768
 20
172.4611929109911
 30
0.0
 40
0.1875
  0
CIRCLE
  5
52E2
330
18
100
AcDbEntity
  8
0
100
AcDbCircle
 10
280.3775783466365
 20
174.5825132545508
 30
0.0
 40
0.1875
  0
LINE
  5
52E3
330
18
100
AcDbEntity
  8
0
100
AcDbLine
 10
280.0240249560433
 20
175.6431734263305
 30
0.0
 11
281.3953452996029
 21
174.2718530827709
 31
0.0
  0
LINE
  5
52E4
330
18
100
AcDbEntity
  8
0
100
AcDbLine
 10
281.4146131141843
 20
174.2525852681895
 30
0.0
 11
281.4382385184163
 21
174.2289598639574
 31
0.0
  0
LINE
  5
52E5
330
18
100
AcDbEntity
  8
0
  6
HIDDEN
100
AcDbLine
 10
281.4382385184163
 20
174.2289598639574
 30
0.0
 11
280.0788039924918
 21
172.8695253380329
 31
0.0
  0
LINE
  5
52E6
330
18
100
AcDbEntity
  8
0
100
AcDbLine
 10
279.9811317372298
 20
172.7718530827709
 30
0.0
 11
278.6098113936702
 21
171.4005327392113
 31
0.0
  0
LINE
  5
52E7
330
18
100
AcDbEntity
  8
0
100
AcDbLine
 10
278.6098113936702
 20
171.4005327392113
 30
0.0
 11
277.195597831297
 21
172.8147463015843
 31
0.0
  0
LINE
  5
52E8
330
18
100
AcDbEntity
  8
0
100
AcDbLine
 10
277.195597831297
 20
172.8147463015843
 30
0.0
 11
277.3655756945807
 21
172.9847241648679
 31
0.0
  0
LINE
  5
52E9
330
18
100
AcDbEntity
  8
0
  6
HIDDEN
100
AcDbLine
 10
277.4204946697067
 20
173.0396431399939
 30
0.0
 11
278.5174536463277
 21
174.136602116615
 31
0.0
  0
LINE
  5
52EA
330
18
100
AcDbEntity
  8
0
100
AcDbLine
 10
278.5669181748567
 20
174.1860666451439
 30
0.0
 11
280.0240249560433
 21
175.6431734263305
 31
0.0
  0
ARC
  5
52EB
330
18
100
AcDbEntity
  8
0
100
AcDbCircle
 10
280.5669181748566
 20
153.1864619431735
 30
0.0
 40
0.5
100
AcDbArc
 50
90.0
 51
180.0
  0
LINE
  5
52EC
330
18
100
AcDbEntity
  8
0
100
AcDbLine
 10
329.5906378529418
 20
155.186320766703
 30
0.0
 11
279.3169181748566
 21
155.1863207667027
 31
0.0
  0
LINE
  5
52ED
330
18
100
AcDbEntity
  8
0
100
AcDbLine
 10
325.8479971658225
 20
183.8894937698903
 30
0.0
 11
325.8479971658225
 21
177.7644937698902
 31
0.0
  0
LINE
  5
52EE
330
18
100
AcDbEntity
  8
0
100
AcDbLine
 10
325.8479971658225
 20
177.7644937698902
 30
0.0
 11
319.7229971658225
 21
177.7644937698902
 31
0.0
  0
LINE
  5
52EF
330
18
100
AcDbEntity
  8
0
100
AcDbLine
 10
325.8479971658225
 20
178.6483772463735
 30
0.0
 11
329.1183660288103
 21
175.3780083833856
 31
0.0
  0
LINE
  5
52F0
330
18
100
AcDbEntity
  8
0
  6
HIDDEN
100
AcDbLine
 10
329.2316758498747
 20
175.2646985623213
 30
0.0
 11
331.7450278517402
 21
172.7513465604557
 31
0.0
  0
LINE
  5
52F1
330
18
100
AcDbEntity
  8
0
100
AcDbLine
 10
331.9467931535565
 20
172.5495812586394
 30
0.0
 11
332.2119581965014
 21
172.2844162156944
 31
0.0
  0
LINE
  5
52F2
330
18
100
AcDbEntity
  8
0
100
AcDbLine
 10
324.9641136893394
 20
177.7644937698902
 30
0.0
 11
328.2344825523272
 21
174.4941249069024
 31
0.0
  0
LINE
  5
52F3
330
18
100
AcDbEntity
  8
0
  6
HIDDEN
100
AcDbLine
 10
328.3041392089637
 20
174.4244682502659
 30
0.0
 11
330.9977292701498
 21
171.7308781890798
 31
0.0
  0
LINE
  5
52F4
330
18
100
AcDbEntity
  8
0
100
AcDbLine
 10
331.0629096770733
 20
171.6656977821562
 30
0.0
 11
331.3280747200183
 21
171.4005327392113
 31
0.0
  0
LINE
  5
52F5
330
18
100
AcDbEntity
  8
0
100
AcDbLine
 10
331.3280747200183
 20
171.4005327392113
 30
0.0
 11
332.2119581965014
 21
172.2844162156944
 31
0.0
  0
CIRCLE
  5
52F6
330
18
100
AcDbEntity
  8
0
100
AcDbCircle
 10
331.1512980247217
 20
172.4611929109911
 30
0.0
 40
0.1875
  0
CIRCLE
  5
52F7
330
18
100
AcDbEntity
  8
0
100
AcDbCircle
 10
329.029977681162
 20
174.5825132545508
 30
0.0
 40
0.1875
  0
LINE
  5
52F8
330
18
100
AcDbEntity
  8
0
100
AcDbLine
 10
329.3835310717552
 20
175.6431734263305
 30
0.0
 11
328.012280368472
 21
174.2719227230473
 31
0.0
  0
LINE
  5
52F9
330
18
100
AcDbEntity
  8
0
  6
HIDDEN
100
AcDbLine
 10
327.9941480360599
 20
174.2537903906352
 30
0.0
 11
327.9693175093822
 21
174.2289598639574
 31
0.0
  0
LINE
  5
52FA
330
18
100
AcDbEntity
  8
0
  6
HIDDEN
100
AcDbLine
 10
327.9693175093822
 20
174.2289598639574
 30
0.0
 11
329.3927015698622
 21
172.8055758034773
 31
0.0
  0
LINE
  5
52FB
330
18
100
AcDbEntity
  8
0
100
AcDbLine
 10
329.426424290569
 20
172.7718530827705
 30
0.0
 11
330.7977446341283
 21
171.4005327392113
 31
0.0
  0
LINE
  5
52FC
330
18
100
AcDbEntity
  8
0
100
AcDbLine
 10
330.7977446341283
 20
171.4005327392113
 30
0.0
 11
332.2119581965014
 21
172.8147463015843
 31
0.0
  0
LINE
  5
52FD
330
18
100
AcDbEntity
  8
0
100
AcDbLine
 10
332.2119581965014
 20
172.8147463015843
 30
0.0
 11
329.5906515351429
 21
175.436052962943
 31
0.0
  0
LINE
  5
52FE
330
18
100
AcDbEntity
  8
0
100
AcDbLine
 10
329.5906515351429
 20
175.436052962943
 30
0.0
 11
329.3835310717552
 21
175.6431734263305
 31
0.0
  0
ARC
  5
52FF
330
18
100
AcDbEntity
  8
0
100
AcDbCircle
 10
279.3169181748567
 20
173.5218530827709
 30
0.0
 40
0.75
100
AcDbArc
 50
89.99999999999674
 51
270.0
  0
LINE
  5
5300
330
18
100
AcDbEntity
  8
0
100
AcDbLine
 10
279.3169181748567
 20
174.2718530827709
 30
0.0
 11
282.2037780138995
 21
174.2718530827708
 31
0.0
  0
CIRCLE
  5
5301
330
18
100
AcDbEntity
  8
0
100
AcDbCircle
 10
328.1007628716768
 20
173.5218309340809
 30
0.0
 40
0.125
  0
LINE
  5
5302
330
18
100
AcDbEntity
  8
0
100
AcDbLine
 10
319.7229971658225
 20
177.7644937698902
 30
0.0
 11
319.7229971658225
 21
177.8065019258094
 31
0.0
  0
LINE
  5
5303
330
18
100
AcDbEntity
  8
0
100
AcDbLine
 10
325.8479971658225
 20
183.8894937698903
 30
0.0
 11
325.8059890098992
 21
183.8894937698903
 31
0.0
  0
LINE
  5
5304
330
18
100
AcDbEntity
  8
0
100
AcDbLine
 10
289.684558861976
 20
177.7644937698902
 30
0.0
 11
289.684558861976
 21
177.8065019258097
 31
0.0
  0
LINE
  5
5305
330
18
100
AcDbEntity
  8
0
100
AcDbLine
 10
283.559558861976
 20
183.8894937698903
 30
0.0
 11
283.6015670178992
 21
183.8894937698903
 31
0.0
  0
LINE
  5
5306
330
18
100
AcDbEntity
  8
0
100
AcDbLine
 10
330.0906378529418
 20
174.2718530827709
 30
0.0
 11
282.2037780138995
 21
174.2718530827708
 31
0.0
  0
LINE
  5
5307
330
18
100
AcDbEntity
  8
0
100
AcDbLine
 10
325.8479971658225
 20
207.7235100817288
 30
0.0
 11
325.8479971658225
 21
213.8485100817288
 31
0.0
  0
LINE
  5
5308
330
18
100
AcDbEntity
  8
0
100
AcDbLine
 10
325.8479971658225
 20
213.8485100817288
 30
0.0
 11
319.7229971658225
 21
213.8485100817288
 31
0.0
  0
LINE
  5
5309
330
18
100
AcDbEntity
  8
0
100
AcDbLine
 10
325.8479971658225
 20
212.9646266052456
 30
0.0
 11
329.1183660288103
 21
216.2349954682334
 31
0.0
  0
LINE
  5
530A
330
18
100
AcDbEntity
  8
0
  6
HIDDEN
100
AcDbLine
 10
329.2316758498747
 20
216.3483052892978
 30
0.0
 11
331.7450278517403
 21
218.8616572911634
 31
0.0
  0
LINE
  5
530B
330
18
100
AcDbEntity
  8
0
100
AcDbLine
 10
331.9467931535565
 20
219.0634225929796
 30
0.0
 11
332.2119581965015
 21
219.3285876359246
 31
0.0
  0
LINE
  5
530C
330
18
100
AcDbEntity
  8
0
100
AcDbLine
 10
324.9641136893394
 20
213.8485100817288
 30
0.0
 11
328.2344825523272
 21
217.1188789447166
 31
0.0
  0
LINE
  5
530D
330
18
100
AcDbEntity
  8
0
  6
HIDDEN
100
AcDbLine
 10
328.3041392089637
 20
217.1885356013531
 30
0.0
 11
330.9977292701498
 21
219.8821256625393
 31
0.0
  0
LINE
  5
530E
330
18
100
AcDbEntity
  8
0
100
AcDbLine
 10
331.0629096770733
 20
219.9473060694627
 30
0.0
 11
331.3280747200183
 21
220.2124711124077
 31
0.0
  0
LINE
  5
530F
330
18
100
AcDbEntity
  8
0
100
AcDbLine
 10
331.3280747200183
 20
220.2124711124077
 30
0.0
 11
332.2119581965014
 21
219.3285876359246
 31
0.0
  0
CIRCLE
  5
5310
330
18
100
AcDbEntity
  8
0
100
AcDbCircle
 10
331.1512980247217
 20
219.1518109406279
 30
0.0
 40
0.1875
  0
CIRCLE
  5
5311
330
18
100
AcDbEntity
  8
0
100
AcDbCircle
 10
329.029977681162
 20
217.0304905970683
 30
0.0
 40
0.1875
  0
LINE
  5
5312
330
18
100
AcDbEntity
  8
0
100
AcDbLine
 10
329.3835310717553
 20
215.9698304252885
 30
0.0
 11
328.012280368472
 21
217.3410811285717
 31
0.0
  0
LINE
  5
5313
330
18
100
AcDbEntity
  8
0
  6
HIDDEN
100
AcDbLine
 10
328.0758745639221
 20
217.4066370712908
 30
0.0
 11
329.41115186636
 21
218.783104872058
 31
0.0
  0
LINE
  5
5314
330
18
100
AcDbEntity
  8
0
100
AcDbLine
 10
329.4570414511371
 20
218.830410054076
 30
0.0
 11
330.7977446341283
 21
220.2124711124078
 31
0.0
  0
LINE
  5
5315
330
18
100
AcDbEntity
  8
0
100
AcDbLine
 10
330.7977446341283
 20
220.2124711124078
 30
0.0
 11
332.2119581965014
 21
218.7982575500347
 31
0.0
  0
LINE
  5
5316
330
18
100
AcDbEntity
  8
0
100
AcDbLine
 10
332.2119581965014
 20
218.7982575500347
 30
0.0
 11
329.3835310717553
 21
215.9698304252885
 31
0.0
  0
LINE
  5
5317
330
18
100
AcDbEntity
  8
0
100
AcDbLine
 10
319.7229971658225
 20
213.8485100817288
 30
0.0
 11
319.7229971658225
 21
213.8065019258096
 31
0.0
  0
LINE
  5
5318
330
18
100
AcDbEntity
  8
0
100
AcDbLine
 10
325.8479971658225
 20
207.7235100817288
 30
0.0
 11
325.8059890098992
 21
207.7235100817288
 31
0.0
  0
LINE
  5
5319
330
18
100
AcDbEntity
  8
0
100
AcDbLine
 10
283.559558861976
 20
207.7235100817294
 30
0.0
 11
283.559558861976
 21
213.8485100817294
 31
0.0
  0
LINE
  5
531A
330
18
100
AcDbEntity
  8
0
100
AcDbLine
 10
283.559558861976
 20
213.8485100817294
 30
0.0
 11
289.684558861976
 21
213.8485100817294
 31
0.0
  0
LINE
  5
531B
330
18
100
AcDbEntity
  8
0
100
AcDbLine
 10
283.559558861976
 20
212.9646266052461
 30
0.0
 11
280.2891899989882
 21
216.234995468234
 31
0.0
  0
LINE
  5
531C
330
18
100
AcDbEntity
  8
0
  6
HIDDEN
100
AcDbLine
 10
280.1758801779238
 20
216.3483052892984
 30
0.0
 11
277.6625281760582
 21
218.861657291164
 31
0.0
  0
LINE
  5
531D
330
18
100
AcDbEntity
  8
0
100
AcDbLine
 10
277.460762874242
 20
219.0634225929802
 30
0.0
 11
277.195597831297
 21
219.3285876359252
 31
0.0
  0
LINE
  5
531E
330
18
100
AcDbEntity
  8
0
100
AcDbLine
 10
284.4434423384591
 20
213.8485100817294
 30
0.0
 11
281.1730734754713
 21
217.1188789447171
 31
0.0
  0
LINE
  5
531F
330
18
100
AcDbEntity
  8
0
  6
HIDDEN
100
AcDbLine
 10
281.1034168188348
 20
217.1885356013536
 30
0.0
 11
278.4098267576486
 21
219.8821256625398
 31
0.0
  0
LINE
  5
5320
330
18
100
AcDbEntity
  8
0
100
AcDbLine
 10
278.3446463507252
 20
219.9473060694633
 30
0.0
 11
278.0794813077802
 21
220.2124711124083
 31
0.0
  0
LINE
  5
5321
330
18
100
AcDbEntity
  8
0
100
AcDbLine
 10
278.0794813077802
 20
220.2124711124083
 30
0.0
 11
277.195597831297
 21
219.3285876359252
 31
0.0
  0
CIRCLE
  5
5322
330
18
100
AcDbEntity
  8
0
100
AcDbCircle
 10
278.2562580030768
 20
219.1518109406285
 30
0.0
 40
0.1875
  0
CIRCLE
  5
5323
330
18
100
AcDbEntity
  8
0
100
AcDbCircle
 10
280.3775783466365
 20
217.0304905970688
 30
0.0
 40
0.1875
  0
LINE
  5
5324
330
18
100
AcDbEntity
  8
0
100
AcDbLine
 10
280.0240249560433
 20
215.9698304252891
 30
0.0
 11
281.3953452996029
 21
217.3411507688487
 31
0.0
  0
LINE
  5
5325
330
18
100
AcDbEntity
  8
0
100
AcDbLine
 10
281.3953452996029
 20
217.3411507688487
 30
0.0
 11
278.6098113936702
 21
220.2124711124084
 31
0.0
  0
LINE
  5
5326
330
18
100
AcDbEntity
  8
0
100
AcDbLine
 10
278.6098113936702
 20
220.2124711124084
 30
0.0
 11
277.195597831297
 21
218.7982575500353
 31
0.0
  0
LINE
  5
5327
330
18
100
AcDbEntity
  8
0
100
AcDbLine
 10
277.195597831297
 20
218.7982575500353
 30
0.0
 11
277.3655756945807
 21
218.6282796867516
 31
0.0
  0
LINE
  5
5328
330
18
100
AcDbEntity
  8
0
100
AcDbLine
 10
277.3655756945807
 20
218.6282796867516
 30
0.0
 11
278.800524848861
 21
217.1933305324713
 31
0.0
  0
LINE
  5
5329
330
18
100
AcDbEntity
  8
0
  6
HIDDEN
100
AcDbLine
 10
278.9060850375367
 20
217.0877703437957
 30
0.0
 11
280.0240249560433
 21
215.9698304252891
 31
0.0
  0
LINE
  5
532A
330
18
100
AcDbEntity
  8
0
100
AcDbLine
 10
289.684558861976
 20
213.8485100817294
 30
0.0
 11
289.684558861976
 21
213.8065019258098
 31
0.0
  0
LINE
  5
532B
330
18
100
AcDbEntity
  8
0
100
AcDbLine
 10
283.559558861976
 20
207.7235100817294
 30
0.0
 11
283.6015670178992
 21
207.7235100817294
 31
0.0
  0
LINE
  5
532C
330
18
100
AcDbEntity
  8
0
100
AcDbLine
 10
284.443442338459
 20
122.1614899221322
 30
0.0
 11
284.443442338459
 21
120.9114899221321
 31
0.0
  0
LINE
  5
532D
330
18
100
AcDbEntity
  8
0
100
AcDbLine
 10
278.6098113936702
 20
122.4114899221321
 30
0.0
 11
278.6098113936702
 21
122.1614899221322
 31
0.0
  0
LINE
  5
532E
330
18
100
AcDbEntity
  8
0
100
AcDbLine
 10
281.4382385184162
 20
122.4114899221321
 30
0.0
 11
281.4382385184162
 21
122.1614899221321
 31
0.0
  0
LINE
  5
532F
330
18
100
AcDbEntity
  8
0
100
AcDbLine
 10
277.195597831297
 20
122.1614899221322
 30
0.0
 11
277.195597831297
 21
120.9114899221321
 31
0.0
  0
LINE
  5
5330
330
18
100
AcDbEntity
  8
0
100
AcDbLine
 10
278.07948130778
 20
122.1614899221322
 30
0.0
 11
278.07948130778
 21
120.9114899221321
 31
0.0
  0
LINE
  5
5331
330
18
100
AcDbEntity
  8
0
100
AcDbLine
 10
329.5906495534662
 20
122.4114899221321
 30
0.0
 11
329.5906460638272
 21
132.1864643604472
 31
0.0
  0
LINE
  5
5332
330
18
100
AcDbEntity
  8
0
100
AcDbLine
 10
329.5906451713853
 20
134.6863209452017
 30
0.0
 11
329.590638566885
 21
153.1864644602026
 31
0.0
  0
ARC
  5
5333
330
18
100
AcDbEntity
  8
0
100
AcDbCircle
 10
329.0906451713854
 20
134.686320766703
 30
0.0
 40
0.5
100
AcDbArc
 50
270.0
 51
0.0000204544355946
  0
LINE
  5
5334
330
18
100
AcDbEntity
  8
0
100
AcDbLine
 10
331.090649553466
 20
153.6864619431735
 30
0.0
 11
331.090649553466
 21
122.4114899221321
 31
0.0
  0
LINE
  5
5335
330
18
100
AcDbEntity
  8
0
100
AcDbLine
 10
329.590649553466
 20
151.6863207667029
 30
0.0
 11
331.090649553466
 21
151.6863207667029
 31
0.0
  0
LINE
  5
5336
330
18
100
AcDbEntity
  8
0
100
AcDbLine
 10
331.0906378529418
 20
154.436320766703
 30
0.0
 11
331.0906378529418
 21
153.6864619431736
 31
0.0
  0
LINE
  5
5337
330
18
100
AcDbEntity
  8
0
100
AcDbLine
 10
320.0891136893356
 20
120.9114899221321
 30
0.0
 11
320.0891136893356
 21
122.1614899221321
 31
0.0
  0
LINE
  5
5338
330
18
100
AcDbEntity
  8
0
100
AcDbLine
 10
320.0891136893356
 20
122.1614899221321
 30
0.0
 11
328.747081023335
 21
122.1614899221321
 31
0.0
  0
CIRCLE
  5
5339
330
18
100
AcDbEntity
  8
0
100
AcDbCircle
 10
321.0891136893356
 20
121.5364899221321
 30
0.0
 40
0.281
  0
CIRCLE
  5
533A
330
18
100
AcDbEntity
  8
0
100
AcDbCircle
 10
323.5891136893356
 20
121.5364899221321
 30
0.0
 40
0.281
  0
LINE
  5
533B
330
18
100
AcDbEntity
  8
0
100
AcDbLine
 10
328.747081023335
 20
122.1614899221321
 30
0.0
 11
332.2119581964975
 21
122.1614899221322
 31
0.0
  0
LINE
  5
533C
330
18
100
AcDbEntity
  8
0
100
AcDbLine
 10
327.9693175093823
 20
122.4114899221321
 30
0.0
 11
332.2119581964975
 21
122.411489922132
 31
0.0
  0
LINE
  5
533D
330
18
100
AcDbEntity
  8
0
100
AcDbLine
 10
320.0891136893356
 20
120.9114899221321
 30
0.0
 11
332.2119581964975
 21
120.9114899221321
 31
0.0
  0
LINE
  5
533E
330
18
100
AcDbEntity
  8
0
100
AcDbLine
 10
324.9641136893356
 20
122.1614899221322
 30
0.0
 11
324.9641136893356
 21
120.9114899221321
 31
0.0
  0
LINE
  5
533F
330
18
100
AcDbEntity
  8
0
100
AcDbLine
 10
332.2119581964975
 20
122.1614899221322
 30
0.0
 11
332.2119581964975
 21
120.9114899221321
 31
0.0
  0
LINE
  5
5340
330
18
100
AcDbEntity
  8
0
100
AcDbLine
 10
331.3280747200145
 20
122.1614899221322
 30
0.0
 11
331.3280747200145
 21
120.9114899221321
 31
0.0
  0
LINE
  5
5341
330
18
100
AcDbEntity
  8
0
100
AcDbLine
 10
330.7977446341285
 20
122.4114899221321
 30
0.0
 11
330.7977446341285
 21
122.1614899221321
 31
0.0
  0
LINE
  5
5342
330
18
100
AcDbEntity
  8
0
100
AcDbLine
 10
327.9693175093823
 20
122.4114899221321
 30
0.0
 11
327.9693175093823
 21
122.1614899221321
 31
0.0
  0
CIRCLE
  5
5343
330
18
100
AcDbEntity
  8
0
100
AcDbCircle
 10
330.0906378529418
 20
173.5218530827709
 30
0.0
 40
0.75
  0
LINE
  5
5344
330
18
100
AcDbEntity
  8
0
100
AcDbLine
 10
332.2119581964975
 20
122.411489922132
 30
0.0
 11
332.2119581964975
 21
122.1614899221322
 31
0.0
  0
LINE
  5
5345
330
18
100
AcDbEntity
  8
0
100
AcDbLine
 10
277.1955978312968
 20
122.4114899221321
 30
0.0
 11
277.1955978312968
 21
122.1614899221322
 31
0.0
  0
LINE
  5
5346
330
18
100
AcDbEntity
  8
0
100
AcDbLine
 10
330.3406378529418
 20
155.186320766703
 30
0.0
 11
329.5906378529418
 21
155.186320766703
 31
0.0
  0
ARC
  5
5347
330
18
100
AcDbEntity
  8
0
100
AcDbCircle
 10
330.3406378529418
 20
154.436320766703
 30
0.0
 40
0.75
100
AcDbArc
 50
0.0
 51
90.0
  0
LINE
  5
5348
330
18
100
AcDbEntity
  8
0
100
AcDbLine
 10
328.3406495534661
 20
155.186320766703
 30
0.0
 11
328.3406495534661
 21
153.6864619431737
 31
0.0
  0
CIRCLE
  5
5349
330
18
100
AcDbEntity
  8
0
100
AcDbCircle
 10
328.6950957070422
 20
154.4363913549385
 30
0.0
 40
0.125
  0
CIRCLE
  5
534A
330
18
100
AcDbEntity
  8
0
100
AcDbCircle
 10
330.3406495534661
 20
151.9540473025609
 30
0.0
 40
0.125
  0
ARC
  5
534B
330
18
100
AcDbEntity
  8
0
100
AcDbCircle
 10
279.3169181748566
 20
154.436320766703
 30
0.0
 40
0.75
100
AcDbArc
 50
90.0
 51
180.0
  0
LINE
  5
534C
330
18
100
AcDbEntity
  8
0
100
AcDbLine
 10
281.3169181748567
 20
155.186320766703
 30
0.0
 11
281.3169181748567
 21
153.6864619431737
 31
0.0
  0
LINE
  5
534D
330
18
100
AcDbEntity
  8
0
100
AcDbLine
 10
280.3775783466365
 20
217.0304905970688
 30
0.0
 11
278.2562580030768
 21
219.1518109406285
 31
0.0
  0
DIMENSION
  5
534E
330
18
100
AcDbEntity
  8
0
100
AcDbDimension
  2
*D5
 10
331.090649553466
 20
159.0791620672039
 30
0.0
 11
304.8287838641613
 21
159.0791620672039
 31
0.0
 70
    32
  1
AS REQ'D
 71
     5
 42
52.52373137860939
 73
     0
 74
     0
 75
     0
  3
STANDARD
100
AcDbAlignedDimension
 13
278.5669181748566
 23
153.6864619431735
 33
0.0
 14
331.090649553466
 24
153.6864619431735
 34
0.0
100
AcDbRotatedDimension
  0
LINE
  5
534F
330
18
100
AcDbEntity
  8
0
100
AcDbLine
 10
280.5669181748566
 20
132.6864595485446
 30
0.0
 11
329.0906460343312
 21
132.6864641819486
 31
0.0
  0
ARC
  5
5350
330
18
100
AcDbEntity
  8
0
100
AcDbCircle
 10
329.0906460638273
 20
132.1864641819486
 30
0.0
 40
0.5
100
AcDbArc
 50
0.0000204544355946
 51
90.00000337999511
  0
ARC
  5
5351
330
18
100
AcDbEntity
  8
0
100
AcDbCircle
 10
280.5669181748566
 20
132.1864619431735
 30
0.0
 40
0.5
100
AcDbArc
 50
90.0
 51
180.0
  0
LINE
  5
5352
330
18
100
AcDbEntity
  8
0
100
AcDbLine
 10
329.0906451713854
 20
134.186320766703
 30
0.0
 11
280.5669181748565
 21
134.1863207667027
 31
0.0
  0
LINE
  5
5353
330
18
100
AcDbEntity
  8
0
100
AcDbLine
 10
329.590649553466
 20
130.6863207667029
 30
0.0
 11
331.090649553466
 21
130.6863207667029
 31
0.0
  0
LINE
  5
5354
330
18
100
AcDbEntity
  8
0
100
AcDbLine
 10
328.3406495534661
 20
134.186320766703
 30
0.0
 11
328.3406495534661
 21
132.6864619431736
 31
0.0
  0
CIRCLE
  5
5355
330
18
100
AcDbEntity
  8
0
100
AcDbCircle
 10
328.6950957070422
 20
133.4363913549385
 30
0.0
 40
0.125
  0
CIRCLE
  5
5356
330
18
100
AcDbEntity
  8
0
100
AcDbCircle
 10
330.3406495534661
 20
130.9540473025609
 30
0.0
 40
0.125
  0
LINE
  5
5357
330
18
100
AcDbEntity
  8
0
100
AcDbLine
 10
281.3169181748567
 20
134.186320766703
 30
0.0
 11
281.3169181748567
 21
132.6864619431736
 31
0.0
  0
LINE
  5
5358
330
18
100
AcDbEntity
  8
0
100
AcDbLine
 10
329.5906475899816
 20
136.1863196957191
 30
0.0
 11
331.0906475899811
 21
136.1863207667108
 31
0.0
  0
CIRCLE
  5
5359
330
18
100
AcDbEntity
  8
0
100
AcDbCircle
 10
330.3406475899814
 20
135.811320231215
 30
0.0
 40
0.125
  0
LINE
  5
535A
330
18
100
AcDbEntity
  8
0
100
AcDbLine
 10
280.0669181748565
 20
130.6863207667026
 30
0.0
 11
278.5669181748565
 21
130.6863207667026
 31
0.0
  0
CIRCLE
  5
535B
330
18
100
AcDbEntity
  8
0
100
AcDbCircle
 10
279.3169181748565
 20
130.9540473025606
 30
0.0
 40
0.125
  0
LINE
  5
535C
330
18
100
AcDbEntity
  8
0
100
AcDbLine
 10
280.066920138341
 20
136.1863196957187
 30
0.0
 11
278.5669201383414
 21
136.1863207667106
 31
0.0
  0
CIRCLE
  5
535D
330
18
100
AcDbEntity
  8
0
100
AcDbCircle
 10
279.3169201383412
 20
135.8113202312147
 30
0.0
 40
0.125
  0
CIRCLE
  5
535E
330
18
100
AcDbEntity
  8
0
100
AcDbCircle
 10
280.9419181748566
 20
133.4363913549383
 30
0.0
 40
0.125
  0
ARC
  5
535F
330
18
100
AcDbEntity
  8
0
  6
HIDDEN
100
AcDbCircle
 10
279.3169181748565
 20
134.436383393995
 30
0.0
 40
0.7499999999999716
100
AcDbArc
 50
180.0
 51
0.0
  0
CIRCLE
  5
5363
330
18
100
AcDbEntity
  8
0
  6
HIDDEN
100
AcDbCircle
 10
279.3276588896291
 20
218.0804100540756
 30
0.0
 40
0.75
  0
LINE
  5
5364
330
18
100
AcDbEntity
  8
0
100
AcDbLine
 10
324.0623560219134
 20
122.686320766703
 30
0.0
 11
324.0623560219134
 21
123.9319081861119
 31
0.0
  0
LINE
  5
5365
330
18
100
AcDbEntity
  8
0
100
AcDbLine
 10
285.3452000058961
 20
122.6863207667031
 30
0.0
 11
285.3452000058961
 21
123.9319081861112
 31
0.0
  0
LINE
  5
5366
330
18
100
AcDbEntity
  8
0
100
AcDbLine
 10
279.3276588896291
 20
218.8304100540756
 30
0.0
 11
282.2145187286719
 21
218.8304100540757
 31
0.0
  0
LINE
  5
5367
330
18
100
AcDbEntity
  8
0
100
AcDbLine
 10
282.2145187286719
 20
218.8304100540757
 30
0.0
 11
330.1013785677143
 21
218.830410054076
 31
0.0
  0
LINE
  5
5368
330
18
100
AcDbEntity
  8
0
100
AcDbLine
 10
282.2145187286719
 20
218.8304100540757
 30
0.0
 11
282.2145187286719
 21
217.3304100540757
 31
0.0
  0
CIRCLE
  5
5369
330
18
100
AcDbEntity
  8
0
100
AcDbCircle
 10
281.9467921928139
 20
218.0804100540757
 30
0.0
 40
0.125
  0
ARC
  5
536A
330
18
100
AcDbEntity
  8
0
100
AcDbCircle
 10
279.3276588896291
 20
218.0804100540756
 30
0.0
 40
0.75
100
AcDbArc
 50
90.0
 51
270.0
  0
LINE
  5
536B
330
18
100
AcDbEntity
  8
0
100
AcDbLine
 10
279.3276588896291
 20
217.3304100540756
 30
0.0
 11
282.2145187286719
 21
217.3304100540757
 31
0.0
  0
LINE
  5
536C
330
18
100
AcDbEntity
  8
0
100
AcDbLine
 10
329.1013902682386
 20
217.3303394306542
 30
0.0
 11
282.2145187286719
 21
217.3304100540757
 31
0.0
  0
CIRCLE
  5
536D
330
18
100
AcDbEntity
  8
0
  6
HIDDEN
100
AcDbCircle
 10
330.1013785677143
 20
218.0804100540757
 30
0.0
 40
0.75
  0
LINE
  5
536E
330
18
100
AcDbEntity
  8
0
100
AcDbLine
 10
330.1013785677143
 20
218.8304100540757
 30
0.0
 11
327.2145187286714
 21
218.8304100540758
 31
0.0
  0
LINE
  5
536F
330
18
100
AcDbEntity
  8
0
100
AcDbLine
 10
327.2145187286714
 20
218.8304100540758
 30
0.0
 11
327.2145187286714
 21
217.3304100540758
 31
0.0
  0
CIRCLE
  5
5370
330
18
100
AcDbEntity
  8
0
100
AcDbCircle
 10
327.4822452645294
 20
218.0804100540758
 30
0.0
 40
0.125
  0
LINE
  5
5371
330
18
100
AcDbEntity
  8
0
100
AcDbLine
 10
330.1013785677143
 20
217.3304100540757
 30
0.0
 11
327.2145187286714
 21
217.3304100540758
 31
0.0
  0
LINE
  5
5376
330
18
100
AcDbEntity
  8
0
100
AcDbLine
 10
226.5962878893027
 20
120.5577149007271
 30
0.0
 11
226.5962878893027
 21
113.2488207667031
 31
0.0
  0
LINE
  5
5377
330
18
100
AcDbEntity
  8
0
100
AcDbLine
 10
230.5182878893031
 20
113.2488207667031
 30
0.0
 11
230.5182878893031
 21
113.1863207667032
 31
0.0
  0
LINE
  5
5378
330
18
100
AcDbEntity
  8
0
  6
HIDDEN
100
AcDbLine
 10
228.4905070412223
 20
122.1256066842367
 30
0.0
 11
228.4905070412223
 21
120.9114899221322
 31
0.0
  0
LINE
  5
5379
330
18
100
AcDbEntity
  8
0
100
AcDbLine
 10
228.4905070412223
 20
120.9114899221322
 30
0.0
 11
228.8442682998893
 21
120.5581445218985
 31
0.0
  0
LINE
  5
537A
330
18
100
AcDbEntity
  8
0
100
AcDbLine
 10
229.6047488853028
 20
126.931908186112
 30
0.0
 11
229.6047488853028
 21
123.931908186112
 31
0.0
  0
LINE
  5
537B
330
18
100
AcDbEntity
  8
0
100
AcDbLine
 10
227.9548658973022
 20
123.9319081861119
 30
0.0
 11
227.9548658973022
 21
122.686320766703
 31
0.0
  0
LINE
  5
537C
330
18
100
AcDbEntity
  8
0
100
AcDbLine
 10
227.9548658973022
 20
122.686320766703
 30
0.0
 11
228.4723218708513
 21
122.1694730803114
 31
0.0
  0
ARC
  5
537D
330
18
100
AcDbEntity
  8
0
100
AcDbCircle
 10
228.4285070412223
 20
122.1256066842367
 30
0.0
 40
0.062
100
AcDbArc
 50
0.0
 51
45.03369637388822
  0
LINE
  5
537E
330
18
100
AcDbEntity
  8
0
100
AcDbLine
 10
228.8442682998893
 20
120.5581445218985
 30
0.0
 11
194.3484116668003
 21
120.5515518708847
 31
0.0
  0
LINE
  5
537F
330
18
100
AcDbEntity
  8
0
100
AcDbLine
 10
192.6743920773865
 20
113.2422281156894
 30
0.0
 11
230.5182878893031
 21
113.248820766703
 31
0.0
  0
LINE
  5
5380
330
18
100
AcDbEntity
  8
0
  6
HIDDEN
100
AcDbLine
 10
194.7021729254673
 20
122.119014033223
 30
0.0
 11
194.7021729254673
 21
120.9048972711184
 31
0.0
  0
LINE
  5
5381
330
18
100
AcDbEntity
  8
0
100
AcDbLine
 10
194.7021729254673
 20
120.9048972711184
 30
0.0
 11
194.3484116668003
 21
120.5515518708847
 31
0.0
  0
ARC
  5
5382
330
18
100
AcDbEntity
  8
0
100
AcDbCircle
 10
194.7641729254673
 20
122.119014033223
 30
0.0
 40
0.062
100
AcDbArc
 50
134.9663036261117
 51
180.0
  0
LINE
  5
5383
330
18
100
AcDbEntity
  8
0
100
AcDbLine
 10
195.2378140693874
 20
123.9253155350982
 30
0.0
 11
195.2378140693874
 21
122.6797281156893
 31
0.0
  0
LINE
  5
5384
330
18
100
AcDbEntity
  8
0
100
AcDbLine
 10
195.2378140693874
 20
122.6797281156893
 30
0.0
 11
194.7203580958383
 21
122.1628804292977
 31
0.0
  0
LINE
  5
5385
330
18
100
AcDbEntity
  8
0
100
AcDbLine
 10
193.5879310813868
 20
126.9253155350982
 30
0.0
 11
193.5879310813869
 21
123.9253155350982
 31
0.0
  0
LINE
  5
5386
330
18
100
AcDbEntity
  8
0
100
AcDbLine
 10
196.5963920773869
 20
120.551981492056
 30
0.0
 11
196.5963920773869
 21
113.2422281156894
 31
0.0
  0
LINE
  5
5387
330
18
100
AcDbEntity
  8
0
100
AcDbLine
 10
196.6743920773862
 20
113.1797281156893
 30
0.0
 11
192.6743920773865
 21
113.1797281156893
 31
0.0
  0
LINE
  5
5388
330
18
100
AcDbEntity
  8
0
100
AcDbLine
 10
192.6743920773865
 20
113.2422281156893
 30
0.0
 11
192.6743920773865
 21
113.1797281156895
 31
0.0
  0
LINE
  5
5389
330
18
100
AcDbEntity
  8
0
100
AcDbLine
 10
192.6743920773865
 20
113.1797281156895
 30
0.0
 11
230.5182878893031
 21
113.1863207667032
 31
0.0
  0
LINE
  5
538A
330
18
100
AcDbEntity
  8
0
100
AcDbLine
 10
229.6047488853028
 20
126.931908186112
 30
0.0
 11
193.5879310813869
 21
126.9253155350982
 31
0.0
  0
LINE
  5
538B
330
18
100
AcDbEntity
  8
0
100
AcDbLine
 10
229.6047488853028
 20
123.931908186112
 30
0.0
 11
193.5879310813869
 21
123.9253155350982
 31
0.0
  0
LINE
  5
538C
330
18
100
AcDbEntity
  8
0
100
AcDbLine
 10
227.9548658973022
 20
122.6863207667031
 30
0.0
 11
195.2378140693874
 21
122.6797281156893
 31
0.0
  0
LINE
  5
538D
330
18
100
AcDbEntity
  8
0
100
AcDbLine
 10
228.4723218708513
 20
122.1694730803114
 30
0.0
 11
194.7203580958505
 21
122.1628804292977
 31
0.0
  0
DIMENSION
  5
538E
330
18
100
AcDbEntity
  8
0
100
AcDbDimension
  2
*D6
 10
196.5963920773869
 20
108.9384160983606
 30
0.0
 11
211.5963399833448
 21
108.9384160983606
 31
0.0
 70
    32
  1
AS REQ'D
 71
     5
 42
29.99989581191579
 73
     0
 74
     0
 75
     0
  3
STANDARD
100
AcDbAlignedDimension
 13
226.5962878893027
 23
113.2488207667031
 33
0.0
 14
196.5963920773869
 24
113.2422281156894
 34
0.0
100
AcDbRotatedDimension
  0
LINE
  5
538F
330
18
100
AcDbEntity
  8
0
100
AcDbLine
 10
190.2949551302567
 20
122.4049137209362
 30
0.0
 11
190.2949551302567
 21
133.1868442207663
 31
0.0
  0
ARC
  5
5390
330
18
100
AcDbEntity
  8
0
100
AcDbCircle
 10
190.7949549166059
 20
133.1863819970062
 30
0.0
 40
0.5
100
AcDbArc
 50
90.0
 51
180.0
  0
LINE
  5
5391
330
18
100
AcDbEntity
  8
0
100
AcDbLine
 10
190.2949549166059
 20
136.2500770854969
 30
0.0
 11
190.2949551302567
 21
151.936324417044
 31
0.0
  0
ARC
  5
5392
330
18
100
AcDbEntity
  8
0
100
AcDbCircle
 10
190.7949549166059
 20
135.6863819970062
 30
0.0
 40
0.5
100
AcDbArc
 50
180.0
 51
270.0
  0
LINE
  5
5393
330
18
100
AcDbEntity
  8
0
100
AcDbLine
 10
188.7949551302569
 20
154.1873107467548
 30
0.0
 11
188.794955130257
 21
151.9363255034941
 31
0.0
  0
LINE
  5
5394
330
18
100
AcDbEntity
  8
0
100
AcDbLine
 10
231.9293252045636
 20
155.185897638984
 30
0.0
 11
197.2666171829627
 21
155.1862845951061
 31
0.0
  0
ARC
  5
5395
330
18
100
AcDbEntity
  8
0
100
AcDbCircle
 10
195.0166171829626
 20
154.1863242572474
 30
0.0
 40
1.0
100
AcDbArc
 50
89.99943778703155
 51
180.0
  0
LINE
  5
5396
330
18
100
AcDbEntity
  8
0
100
AcDbLine
 10
231.9293252045636
 20
153.6858976390562
 30
0.0
 11
197.2666171829627
 21
153.6862597474375
 31
0.0
  0
ARC
  5
5397
330
18
100
AcDbEntity
  8
0
100
AcDbCircle
 10
233.1793285685878
 20
153.1859053827832
 30
0.0
 40
0.5
100
AcDbArc
 50
359.9997079983453
 51
89.99942273835259
  0
ARC
  5
5398
330
18
100
AcDbEntity
  8
0
100
AcDbCircle
 10
196.0166171829626
 20
153.1863207897789
 30
0.0
 40
0.5
100
AcDbArc
 50
89.99942273835259
 51
180.0
  0
LINE
  5
5399
330
18
100
AcDbEntity
  8
0
100
AcDbLine
 10
234.449875507065
 20
133.6863556604979
 30
0.0
 11
197.2666171829627
 21
133.686377349282
 31
0.0
  0
LINE
  5
539A
330
18
100
AcDbEntity
  8
0
100
AcDbLine
 10
233.1793252045636
 20
135.1859595145597
 30
0.0
 11
197.2666171829627
 21
135.1863586355431
 31
0.0
  0
LINE
  5
539B
330
18
100
AcDbEntity
  8
0
100
AcDbLine
 10
233.6793252045637
 20
135.6859595145598
 30
0.0
 11
233.6793252045637
 21
153.1877395072983
 31
0.0
  0
LINE
  5
539C
330
18
100
AcDbEntity
  8
0
100
AcDbLine
 10
188.7949544912923
 20
133.9995833112118
 30
0.0
 11
188.7949544912923
 21
136.4645187608468
 31
0.0
  0
CIRCLE
  5
539D
330
18
100
AcDbEntity
  8
0
100
AcDbCircle
 10
234.58932477925
 20
136.668170741417
 30
0.0
 40
0.125
  0
CIRCLE
  5
539E
330
18
100
AcDbEntity
  8
0
100
AcDbCircle
 10
189.5449549166059
 20
132.839541890969
 30
0.0
 40
0.125
  0
LINE
  5
539F
330
18
100
AcDbEntity
  8
0
100
AcDbLine
 10
233.8393247792501
 20
136.935897277275
 30
0.0
 11
235.33932477925
 21
136.935897277275
 31
0.0
  0
LINE
  5
53A0
330
18
100
AcDbEntity
  8
0
100
AcDbLine
 10
190.2949549166058
 20
132.6226869085155
 30
0.0
 11
188.794954916606
 21
132.6226869085155
 31
0.0
  0
ARC
  5
53A1
330
18
100
AcDbEntity
  8
0
100
AcDbCircle
 10
233.1793252045636
 20
135.6859595145598
 30
0.0
 40
0.5
100
AcDbArc
 50
270.0
 51
359.9999999999992
  0
CIRCLE
  5
53A2
330
18
100
AcDbEntity
  8
0
100
AcDbCircle
 10
189.5449544912924
 20
135.9818655232682
 30
0.0
 40
0.125
  0
LINE
  5
53A3
330
18
100
AcDbEntity
  8
0
100
AcDbLine
 10
233.6793252045637
 20
136.935897638984
 30
0.0
 11
235.3393252045637
 21
136.935897638984
 31
0.0
  0
ARC
  5
53A4
330
18
100
AcDbEntity
  8
0
100
AcDbCircle
 10
234.3393135040394
 20
134.685888891138
 30
0.0
 40
1.0
100
AcDbArc
 50
270.0
 51
0.0
  0
LINE
  5
53A5
330
18
100
AcDbEntity
  8
0
100
AcDbLine
 10
231.9293252045636
 20
133.6859152171806
 30
0.0
 11
231.9293252045636
 21
135.1859595145598
 31
0.0
  0
CIRCLE
  5
53A6
330
18
100
AcDbEntity
  8
0
100
AcDbCircle
 10
232.783769957238
 20
134.436029738068
 30
0.0
 40
0.125
  0
ARC
  5
53A7
330
18
100
AcDbEntity
  8
0
100
AcDbCircle
 10
234.3393252045636
 20
154.185897638984
 30
0.0
 40
1.0
100
AcDbArc
 50
0.0
 51
90.0
  0
LINE
  5
53A8
330
18
100
AcDbEntity
  8
0
100
AcDbLine
 10
231.9293252045636
 20
155.185897638984
 30
0.0
 11
231.9293252045636
 21
153.6858976390562
 31
0.0
  0
CIRCLE
  5
53A9
330
18
100
AcDbEntity
  8
0
100
AcDbCircle
 10
232.2837713581397
 20
154.3734682272192
 30
0.0
 40
0.125
  0
LINE
  5
53AA
330
18
100
AcDbEntity
  8
0
100
AcDbLine
 10
195.5166171829625
 20
136.9363819969418
 30
0.0
 11
195.5166171829626
 21
153.1863207897789
 31
0.0
  0
LINE
  5
53AB
330
18
100
AcDbEntity
  8
0
100
AcDbLine
 10
194.0166171829627
 20
136.9363819969418
 30
0.0
 11
194.0166171829626
 21
151.9363258272903
 31
0.0
  0
ARC
  5
53AC
330
18
100
AcDbEntity
  8
0
100
AcDbCircle
 10
196.0166171829626
 20
135.6863877028661
 30
0.0
 40
0.5
100
AcDbArc
 50
180.0
 51
270.0
  0
LINE
  5
53AD
330
18
100
AcDbEntity
  8
0
100
AcDbLine
 10
197.2666171829627
 20
155.1863258272903
 30
0.0
 11
197.2666171829627
 21
153.6863258273625
 31
0.0
  0
LINE
  5
53AE
330
18
100
AcDbEntity
  8
0
100
AcDbLine
 10
195.5166171829626
 20
151.9363258272903
 30
0.0
 11
194.0166171829626
 21
151.9363258272903
 31
0.0
  0
LINE
  5
53AF
330
18
100
AcDbEntity
  8
0
100
AcDbLine
 10
233.8624653655249
 20
155.1881241347736
 30
0.0
 11
233.8624653655249
 21
155.1883592898744
 31
0.0
  0
CIRCLE
  5
53B0
330
18
100
AcDbEntity
  8
0
100
AcDbCircle
 10
196.9121710293866
 20
154.3738964155256
 30
0.0
 40
0.125
  0
LINE
  5
53B1
330
18
100
AcDbEntity
  8
0
100
AcDbLine
 10
188.7949547049433
 20
151.9363258272904
 30
0.0
 11
188.7949515744381
 21
122.4049096607394
 31
0.0
  0
LINE
  5
53B2
330
18
100
AcDbEntity
  8
0
100
AcDbLine
 10
235.3393252045637
 20
142.5883243407046
 30
0.0
 11
235.3393252045637
 21
147.0883243407046
 31
0.0
  0
LINE
  5
53B3
330
18
100
AcDbEntity
  8
0
100
AcDbLine
 10
235.33932477925
 20
147.0883243407046
 30
0.0
 11
235.33932477925
 21
142.5883239789956
 31
0.0
  0
LINE
  5
53B4
330
18
100
AcDbEntity
  8
0
100
AcDbLine
 10
235.3393252045637
 20
151.4633243407046
 30
0.0
 11
235.3393252045637
 21
151.5258243407046
 31
0.0
  0
LINE
  5
53B5
330
18
100
AcDbEntity
  8
0
100
AcDbLine
 10
235.3393252045636
 20
151.4633243407046
 30
0.0
 11
235.3393252045636
 21
151.5258243407046
 31
0.0
  0
LINE
  5
53BA
330
18
100
AcDbEntity
  8
0
100
AcDbLine
 10
194.7021729254673
 20
120.9048972711184
 30
0.0
 11
187.2925296987043
 21
120.9048972711184
 31
0.0
  0
LINE
  5
53BB
330
18
100
AcDbEntity
  8
0
100
AcDbLine
 10
228.4905070412223
 20
120.9048972711183
 30
0.0
 11
236.1044680719012
 21
120.9048972711182
 31
0.0
  0
LINE
  5
53BC
330
18
100
AcDbEntity
  8
0
100
AcDbLine
 10
228.4905070412223
 20
120.9048972711183
 30
0.0
 11
223.6155070412223
 21
120.9048972711183
 31
0.0
  0
LINE
  5
53BD
330
18
100
AcDbEntity
  8
0
100
AcDbLine
 10
223.6155070412223
 20
120.9048972711183
 30
0.0
 11
223.6155070412223
 21
122.1548972711183
 31
0.0
  0
LINE
  5
53BE
330
18
100
AcDbEntity
  8
0
100
AcDbLine
 10
223.6155070412223
 20
122.1548972711183
 30
0.0
 11
236.1044680719012
 21
122.1548972711182
 31
0.0
  0
LINE
  5
53BF
330
18
100
AcDbEntity
  8
0
100
AcDbLine
 10
231.8618273847818
 20
122.4048972711183
 30
0.0
 11
236.1044680719012
 21
122.4048972711182
 31
0.0
  0
CIRCLE
  5
53C0
330
18
100
AcDbEntity
  8
0
100
AcDbCircle
 10
224.6155070412223
 20
121.5298972711183
 30
0.0
 40
0.281
  0
CIRCLE
  5
53C1
330
18
100
AcDbEntity
  8
0
100
AcDbCircle
 10
227.1155070412223
 20
121.5298972711183
 30
0.0
 40
0.281
  0
LINE
  5
53C2
330
18
100
AcDbEntity
  8
0
100
AcDbLine
 10
236.1044680719012
 20
122.4048972711182
 30
0.0
 11
236.1044680719012
 21
120.9048972711182
 31
0.0
  0
LINE
  5
53C3
330
18
100
AcDbEntity
  8
0
100
AcDbLine
 10
235.2205845954181
 20
122.1548972711182
 30
0.0
 11
235.2205845954181
 21
120.9048972711182
 31
0.0
  0
LINE
  5
53C4
330
18
100
AcDbEntity
  8
0
100
AcDbLine
 10
234.690254509528
 20
122.4048972711183
 30
0.0
 11
234.690254509528
 21
122.1548972711182
 31
0.0
  0
LINE
  5
53C5
330
18
100
AcDbEntity
  8
0
100
AcDbLine
 10
231.8618273847818
 20
122.4048972711183
 30
0.0
 11
231.8618273847818
 21
122.1548972711182
 31
0.0
  0
LINE
  5
53C6
330
18
100
AcDbEntity
  8
0
100
AcDbLine
 10
228.8566235647388
 20
122.1548972711183
 30
0.0
 11
228.8566235647385
 21
120.9048972711183
 31
0.0
  0
LINE
  5
53C7
330
18
100
AcDbEntity
  8
0
100
AcDbLine
 10
194.7021729254673
 20
120.9048972711184
 30
0.0
 11
199.7980829985217
 21
120.9049394901893
 31
0.0
  0
LINE
  5
53C8
330
18
100
AcDbEntity
  8
0
100
AcDbLine
 10
199.7978441056729
 20
122.1549394445335
 30
0.0
 11
187.2925296987043
 21
122.1549055938238
 31
0.0
  0
LINE
  5
53C9
330
18
100
AcDbEntity
  8
0
100
AcDbLine
 10
191.535423657242
 20
122.4049170789395
 30
0.0
 11
187.2925290219778
 21
122.4049055938229
 31
0.0
  0
CIRCLE
  5
53CA
330
18
100
AcDbEntity
  8
0
100
AcDbCircle
 10
198.5771729254673
 20
121.5298972711184
 30
0.0
 40
0.281
  0
CIRCLE
  5
53CB
330
18
100
AcDbEntity
  8
0
100
AcDbCircle
 10
196.0771729254673
 20
121.5298972711184
 30
0.0
 40
0.281
  0
LINE
  5
53CC
330
18
100
AcDbEntity
  8
0
100
AcDbLine
 10
199.7978441056728
 20
122.1549394445335
 30
0.0
 11
199.7980829985217
 21
120.9049394901893
 31
0.0
  0
LINE
  5
53CD
330
18
100
AcDbEntity
  8
0
100
AcDbLine
 10
194.5403742058666
 20
122.1548972711184
 30
0.0
 11
194.5403742058666
 21
120.9048972711184
 31
0.0
  0
LINE
  5
53CE
330
18
100
AcDbEntity
  8
0
100
AcDbLine
 10
188.1764131751876
 20
122.1549079864132
 30
0.0
 11
188.1764131751876
 21
120.9048972711184
 31
0.0
  0
LINE
  5
53CF
330
18
100
AcDbEntity
  8
0
100
AcDbLine
 10
187.2925296987043
 20
122.1549055938238
 30
0.0
 11
187.2925296987043
 21
120.9048972711184
 31
0.0
  0
LINE
  5
53D0
330
18
100
AcDbEntity
  8
0
100
AcDbLine
 10
191.535423657242
 20
122.4049170789395
 30
0.0
 11
191.5354243339685
 21
122.1549170789404
 31
0.0
  0
LINE
  5
53D1
330
18
100
AcDbEntity
  8
0
100
AcDbLine
 10
188.7070041888027
 20
122.4049094226741
 30
0.0
 11
188.7070048655292
 21
122.154909422675
 31
0.0
  0
LINE
  5
53D2
330
18
100
AcDbEntity
  8
0
100
AcDbLine
 10
187.292794454583
 20
122.4049055945414
 30
0.0
 11
187.2927951313095
 21
122.1549055945423
 31
0.0
  0
LINE
  5
53D3
330
18
100
AcDbEntity
  8
0
100
AcDbLine
 10
233.2760409471547
 20
122.4048972711183
 30
0.0
 11
233.2760409471548
 21
122.1548972711182
 31
0.0
  0
LINE
  5
53D4
330
18
100
AcDbEntity
  8
0
100
AcDbLine
 10
188.441840540363
 20
122.1549087049001
 30
0.0
 11
188.4415782181328
 21
120.9048972711184
 31
0.0
  0
LINE
  5
53D5
330
18
100
AcDbEntity
  8
0
100
AcDbLine
 10
234.9554195524728
 20
122.1548972711182
 30
0.0
 11
234.9554195524726
 21
120.9048972711182
 31
0.0
  0
ARC
  5
53D6
330
18
100
AcDbEntity
  8
0
100
AcDbCircle
 10
195.0166171829627
 20
134.6863842353977
 30
0.0
 40
1.0
100
AcDbArc
 50
180.0
 51
270.0005622129749
  0
LINE
  5
53D7
330
18
100
AcDbEntity
  8
0
100
AcDbLine
 10
197.2666171829627
 20
133.6863826653547
 30
0.0
 11
197.2666171829627
 21
135.1863826652826
 31
0.0
  0
CIRCLE
  5
53D8
330
18
100
AcDbEntity
  8
0
100
AcDbCircle
 10
196.9121710293867
 20
134.4988120771195
 30
0.0
 40
0.125
  0
LINE
  5
53D9
330
18
100
AcDbEntity
  8
0
100
AcDbLine
 10
235.3393252045638
 20
154.185897638984
 30
0.0
 11
235.3393252045638
 21
134.685888891138
 31
0.0
  0
LINE
  5
53DA
330
18
100
AcDbEntity
  8
0
100
AcDbLine
 10
235.3393252045638
 20
151.5258243407046
 30
0.0
 11
235.3393252045638
 21
151.4633243407046
 31
0.0
  0
LINE
  5
53DB
330
18
100
AcDbEntity
  8
0
100
AcDbLine
 10
235.3393252045637
 20
147.0883243407046
 30
0.0
 11
235.3393252045636
 21
142.5883243407046
 31
0.0
  0
LINE
  5
53DC
330
18
100
AcDbEntity
  8
0
100
AcDbLine
 10
233.2331477283414
 20
133.6863833942218
 30
0.0
 11
233.2331477283413
 21
122.4048972711183
 31
0.0
  0
LINE
  5
53DD
330
18
100
AcDbEntity
  8
0
100
AcDbLine
 10
234.7331477283414
 20
133.6863833942218
 30
0.0
 11
234.7331477283413
 21
122.4048972711183
 31
0.0
  0
DIMENSION
  5
53DE
330
18
100
AcDbEntity
  8
0
100
AcDbDimension
  2
*D7
 10
228.4905070412223
 20
119.3835932654015
 30
0.0
 11
236.282173707889
 21
119.3835932654015
 31
0.0
 70
    32
 71
     5
 42
4.875
 73
     0
 74
     0
 75
     0
  3
STANDARD
100
AcDbAlignedDimension
 13
223.6155070412223
 23
120.9048972711183
 33
0.0
 14
228.4905070412223
 24
120.9048972711183
 34
0.0
100
AcDbRotatedDimension
  0
DIMENSION
  5
53E2
330
18
100
AcDbEntity
  8
0
100
AcDbDimension
  2
*D8
 10
182.6839861600698
 20
155.1547173858169
 30
0.0
 11
182.6839861600697
 21
134.1672227507532
 31
0.0
 70
    32
 71
     5
 42
41.97498927012762
 73
     0
 74
     0
 75
     0
  3
STANDARD
100
AcDbAlignedDimension
 13
192.6743920761628
 23
113.1797281156893
 33
0.0
 14
189.5449551302569
 24
155.1547173858169
 34
0.0
 50
90.0
100
AcDbRotatedDimension
  0
LINE
  5
53E3
330
18
100
AcDbEntity
  8
0
100
AcDbLine
 10
197.2666171829627
 20
133.686377349282
 30
0.0
 11
195.0354460138759
 21
133.686383770262
 31
0.0
  0
LINE
  5
53E4
330
18
100
AcDbEntity
  8
0
100
AcDbLine
 10
197.2666171829626
 20
135.1863877028661
 30
0.0
 11
196.0166171829626
 21
135.1863877028661
 31
0.0
  0
LINE
  5
53E5
330
18
100
AcDbEntity
  8
0
100
AcDbLine
 10
197.2666171829627
 20
153.6863258273625
 30
0.0
 11
196.0166222205208
 21
153.6863207897536
 31
0.0
  0
LINE
  5
53E6
330
18
100
AcDbEntity
  8
0
100
AcDbLine
 10
197.2666171829627
 20
155.1863137927539
 30
0.0
 11
195.0166269954301
 21
155.1863242571992
 31
0.0
  0
LINE
  5
53E7
330
18
100
AcDbEntity
  8
0
100
AcDbLine
 10
277.0669770625677
 20
174.5750223522077
 30
0.0
 11
277.066988763092
 21
211.9979428208746
 31
0.0
  0
LINE
  5
53E8
330
18
100
AcDbEntity
  8
0
100
AcDbLine
 10
278.5669770625677
 20
174.5750223522077
 30
0.0
 11
278.5668475866214
 21
211.9979428208725
 31
0.0
  0
LINE
  5
53E9
330
18
100
AcDbEntity
  8
0
100
AcDbLine
 10
278.5669770625677
 20
209.7657305910304
 30
0.0
 11
277.0669770625677
 21
209.7657305910304
 31
0.0
  0
CIRCLE
  5
53EA
330
18
100
AcDbEntity
  8
0
100
AcDbCircle
 10
277.8169770625677
 20
210.0334571268885
 30
0.0
 40
0.125
  0
ARC
  5
53EB
330
18
100
AcDbEntity
  8
0
100
AcDbCircle
 10
277.8169181748567
 20
211.9876531478826
 30
0.0
 40
0.75
100
AcDbArc
 50
359.2139022247707
 51
180.7860977753921
  0
ARC
  5
53EC
330
18
100
AcDbEntity
  8
0
  6
HIDDEN
100
AcDbCircle
 10
277.8195332447866
 20
212.1156534613696
 30
0.0
 40
0.7528481452376982
100
AcDbArc
 50
184.9854230346641
 51
355.0145769653374
  0
LINE
  5
53ED
330
18
100
AcDbEntity
  8
0
100
AcDbLine
 10
278.5669770625677
 20
174.5750223522077
 30
0.0
 11
277.0669770625677
 21
174.5750223522077
 31
0.0
  0
CIRCLE
  5
53EE
330
18
100
AcDbEntity
  8
0
100
AcDbCircle
 10
277.8169770625677
 20
174.3072958163497
 30
0.0
 40
0.125
  0
ARC
  5
53EF
330
18
100
AcDbEntity
  8
0
100
AcDbCircle
 10
277.8169181748567
 20
172.3530997953556
 30
0.0
 40
0.75
100
AcDbArc
 50
179.2139022246078
 51
0.7860977752293228
  0
ARC
  5
53F0
330
18
100
AcDbEntity
  8
0
  6
HIDDEN
100
AcDbCircle
 10
277.8195332447866
 20
172.2250994818686
 30
0.0
 40
0.7528481452376982
100
AcDbArc
 50
4.985423034664121
 51
175.0145769653358
  0
LINE
  5
53F1
330
18
100
AcDbEntity
  8
0
100
AcDbLine
 10
277.0669770625677
 20
174.5750223522077
 30
0.0
 11
277.0695332447866
 21
172.2905237112324
 31
0.0
  0
LINE
  5
53F2
330
18
100
AcDbEntity
  8
0
100
AcDbLine
 10
278.5669770625677
 20
174.5750223522077
 30
0.0
 11
278.566235274659
 21
172.321101608784
 31
0.0
  0
LINE
  5
53F3
330
18
100
AcDbEntity
  8
0
  6
HIDDEN
100
AcDbLine
 10
277.0680645708346
 20
173.6030997953556
 30
0.0
 11
278.5666570307945
 21
173.602606593556
 31
0.0
  0
LINE
  5
53F4
330
18
100
AcDbEntity
  8
0
  6
HIDDEN
100
AcDbLine
 10
278.566852500534
 20
210.5776561538874
 30
0.0
 11
277.06698831903
 21
210.5776561538874
 31
0.0
  0
LINE
  5
53F5
330
18
100
AcDbEntity
  8
0
100
AcDbLine
 10
278.5669770625677
 20
215.7383797532719
 30
0.0
 11
278.566988763092
 21
217.9705919831159
 31
0.0
  0
LINE
  5
53F6
330
18
100
AcDbEntity
  8
0
100
AcDbLine
 10
280.0669770625677
 20
215.7383797532719
 30
0.0
 11
280.0668475866213
 21
217.9705919831139
 31
0.0
  0
LINE
  5
53F7
330
18
100
AcDbEntity
  8
0
100
AcDbLine
 10
280.0669770625677
 20
215.7383797532719
 30
0.0
 11
278.5669770625677
 21
215.7383797532719
 31
0.0
  0
CIRCLE
  5
53F8
330
18
100
AcDbEntity
  8
0
100
AcDbCircle
 10
279.3169770625677
 20
216.0061062891299
 30
0.0
 40
0.125
  0
ARC
  5
53F9
330
18
100
AcDbEntity
  8
0
  6
HIDDEN
100
AcDbCircle
 10
279.3195332447865
 20
218.088302623611
 30
0.0
 40
0.7528481452376982
100
AcDbArc
 50
184.9854230346641
 51
355.0145769653374
  0
LINE
  5
53FA
330
18
100
AcDbEntity
  8
0
100
AcDbLine
 10
280.0669770625677
 20
214.4947248669761
 30
0.0
 11
278.5669770625677
 21
214.4947248669761
 31
0.0
  0
CIRCLE
  5
53FB
330
18
100
AcDbEntity
  8
0
100
AcDbCircle
 10
279.3169770625677
 20
214.2269983311181
 30
0.0
 40
0.125
  0
LINE
  5
53FC
330
18
100
AcDbEntity
  8
0
100
AcDbLine
 10
278.5669770625677
 20
214.4947248669761
 30
0.0
 11
278.5699652265265
 21
213.5228016845992
 31
0.0
  0
LINE
  5
53FD
330
18
100
AcDbEntity
  8
0
100
AcDbLine
 10
280.0669770625677
 20
214.4947248669761
 30
0.0
 11
280.0666570307945
 21
213.5223091083244
 31
0.0
  0
LINE
  5
53FE
330
18
100
AcDbEntity
  8
0
  6
HIDDEN
100
AcDbLine
 10
278.5680645708346
 20
213.522802310124
 30
0.0
 11
280.0666570307945
 21
213.5223091083244
 31
0.0
  0
LINE
  5
53FF
330
18
100
AcDbEntity
  8
0
  6
HIDDEN
100
AcDbLine
 10
280.0668525005339
 20
216.5503053161287
 30
0.0
 11
278.5669883190299
 21
216.5503053161287
 31
0.0
  0
LINE
  5
5400
330
18
100
AcDbEntity
  8
0
100
AcDbLine
 10
278.5680645708346
 20
213.522802310124
 30
0.0
 11
278.5680645708346
 21
216.5503053161287
 31
0.0
  0
LINE
  5
5401
330
18
100
AcDbEntity
  8
0
100
AcDbLine
 10
280.0666570307945
 20
213.5223091083244
 30
0.0
 11
280.0666570307945
 21
216.5503053161287
 31
0.0
  0
ARC
  5
5402
330
18
100
AcDbEntity
  8
0
100
AcDbCircle
 10
279.3169181748567
 20
212.1128053161288
 30
0.0
 40
0.75
100
AcDbArc
 50
179.2139022246078
 51
0.7860977752293228
  0
ARC
  5
5403
330
18
100
AcDbEntity
  8
0
  6
HIDDEN
100
AcDbCircle
 10
279.3195332447865
 20
211.9848050026418
 30
0.0
 40
0.7528481452376982
100
AcDbArc
 50
4.985423034660902
 51
175.0145769653358
  0
LINE
  5
5404
330
18
100
AcDbEntity
  8
0
100
AcDbLine
 10
278.566988763092
 20
212.1230949891208
 30
0.0
 11
278.5699652265265
 21
213.5228016845991
 31
0.0
  0
LINE
  5
5405
330
18
100
AcDbEntity
  8
0
100
AcDbLine
 10
280.0668475866213
 20
212.1230949891186
 30
0.0
 11
280.0673080819424
 21
213.5223088940569
 31
0.0
  0
LINE
  5
5406
330
18
100
AcDbEntity
  8
0
100
AcDbLine
 10
231.9293252045636
 20
153.6858976390562
 30
0.0
 11
233.179333606146
 21
153.6859053827578
 31
0.0
  0
LINE
  5
5407
330
18
100
AcDbEntity
  8
0
100
AcDbLine
 10
231.9293252045636
 20
155.185897638984
 30
0.0
 11
234.3393252045636
 21
155.185897638984
 31
0.0
  0
LINE
  5
5408
330
18
100
AcDbEntity
  8
0
100
AcDbLine
 10
190.2949551302569
 20
151.9363253475971
 30
0.0
 11
188.794954643676
 21
151.9363255034941
 31
0.0
  0
LINE
  5
5409
330
18
100
AcDbEntity
  8
0
100
AcDbLine
 10
190.2949549166059
 20
136.2500770854969
 30
0.0
 11
188.7949544912923
 21
136.2500770854969
 31
0.0
  0
LINE
  5
540A
330
18
100
AcDbEntity
  8
0
  6
HIDDEN
100
AcDbLine
 10
233.1511705354897
 20
155.185897638984
 30
0.0
 11
233.1511798278222
 21
153.6859052083474
 31
0.0
  0
LINE
  5
540B
330
18
100
AcDbEntity
  8
0
  6
HIDDEN
100
AcDbLine
 10
196.1763508314519
 20
155.1863188634571
 30
0.0
 11
196.1763568765967
 21
153.6863214335007
 31
0.0
  0
ARC
  5
540C
330
18
100
AcDbEntity
  8
0
100
AcDbCircle
 10
189.7949546436761
 20
154.1863242572474
 30
0.0
 40
1.0
100
AcDbArc
 50
89.99943778703155
 51
180.0
  0
ARC
  5
540D
330
18
100
AcDbEntity
  8
0
100
AcDbCircle
 10
190.7949546436761
 20
153.186320789779
 30
0.0
 40
0.5
100
AcDbArc
 50
89.99942273835259
 51
180.0
  0
LINE
  5
540E
330
18
100
AcDbEntity
  8
0
100
AcDbLine
 10
191.5449549166059
 20
155.1863258272904
 30
0.0
 11
191.5449549166059
 21
153.6863258273625
 31
0.0
  0
LINE
  5
540F
330
18
100
AcDbEntity
  8
0
100
AcDbLine
 10
190.294954643676
 20
151.9363258272903
 30
0.0
 11
188.794954643676
 21
151.9363258272904
 31
0.0
  0
CIRCLE
  5
5410
330
18
100
AcDbEntity
  8
0
100
AcDbCircle
 10
189.5449546436761
 20
152.3113258272903
 30
0.0
 40
0.125
  0
CIRCLE
  5
5411
330
18
100
AcDbEntity
  8
0
100
AcDbCircle
 10
191.1905087630297
 20
154.3738964155256
 30
0.0
 40
0.125
  0
LINE
  5
5412
330
18
100
AcDbEntity
  8
0
100
AcDbLine
 10
191.5449549166059
 20
153.6863258273625
 30
0.0
 11
190.7949596812342
 21
153.6863207897536
 31
0.0
  0
LINE
  5
5413
330
18
100
AcDbEntity
  8
0
100
AcDbLine
 10
191.5449549166059
 20
155.1863137927539
 30
0.0
 11
189.7949644561435
 21
155.1863242571992
 31
0.0
  0
LINE
  5
5414
330
18
100
AcDbEntity
  8
0
  6
HIDDEN
100
AcDbLine
 10
190.6557844476405
 20
155.1863188634572
 30
0.0
 11
190.6557904927852
 21
153.6863214335007
 31
0.0
  0
LINE
  5
5415
330
18
100
AcDbEntity
  8
0
100
AcDbLine
 10
192.7666169100326
 20
155.1863258272904
 30
0.0
 11
192.7666169100326
 21
153.6863258273625
 31
0.0
  0
LINE
  5
5416
330
18
100
AcDbEntity
  8
0
100
AcDbLine
 10
194.4104411076421
 20
151.9363261920173
 30
0.0
 11
195.5166183109345
 21
151.9363261920174
 31
0.0
  0
CIRCLE
  5
5417
330
18
100
AcDbEntity
  8
0
100
AcDbCircle
 10
194.7666183109344
 20
152.3113261920173
 30
0.0
 40
0.125
  0
LINE
  5
5418
330
18
100
AcDbEntity
  8
0
100
AcDbLine
 10
191.5449549166059
 20
153.6863258273625
 30
0.0
 11
192.7666169100326
 21
153.6863258273625
 31
0.0
  0
LINE
  5
5419
330
18
100
AcDbEntity
  8
0
100
AcDbLine
 10
192.7666169100326
 20
155.1863258272904
 30
0.0
 11
191.5449549166059
 21
155.1863258272904
 31
0.0
  0
LINE
  5
541A
330
18
100
AcDbEntity
  8
0
100
AcDbLine
 10
190.2949549166059
 20
136.2500770854969
 30
0.0
 11
190.2949549166059
 21
135.6863819970061
 31
0.0
  0
LINE
  5
541B
330
18
100
AcDbEntity
  8
0
100
AcDbLine
 10
190.2949549166059
 20
133.1863819970062
 30
0.0
 11
190.2949549166058
 21
132.6226869085155
 31
0.0
  0
LINE
  5
541C
330
18
100
AcDbEntity
  8
0
100
AcDbLine
 10
190.7949549166059
 20
135.1863819970062
 30
0.0
 11
191.5449549166059
 21
135.1863819970062
 31
0.0
  0
LINE
  5
541D
330
18
100
AcDbEntity
  8
0
100
AcDbLine
 10
190.7949549166059
 20
133.6863819970061
 30
0.0
 11
191.5449549166059
 21
133.6863819970061
 31
0.0
  0
LINE
  5
541E
330
18
100
AcDbEntity
  8
0
100
AcDbLine
 10
191.5449549166059
 20
133.6863819970061
 30
0.0
 11
191.5449549166059
 21
135.1863819970062
 31
0.0
  0
LINE
  5
541F
330
18
100
AcDbEntity
  8
0
100
AcDbLine
 10
192.7666166963818
 20
133.6863819970061
 30
0.0
 11
192.7666166963818
 21
135.186381996934
 31
0.0
  0
CIRCLE
  5
5420
330
18
100
AcDbEntity
  8
0
100
AcDbCircle
 10
194.7666180972836
 20
136.5613823617332
 30
0.0
 40
0.125
  0
CIRCLE
  5
5421
330
18
100
AcDbEntity
  8
0
100
AcDbCircle
 10
191.148253005535
 20
134.4988114087709
 30
0.0
 40
0.125
  0
LINE
  5
5422
330
18
100
AcDbEntity
  8
0
100
AcDbLine
 10
191.5449549166059
 20
133.6863819970061
 30
0.0
 11
192.7666166963818
 21
133.6863940315426
 31
0.0
  0
LINE
  5
5423
330
18
100
AcDbEntity
  8
0
100
AcDbLine
 10
192.7666166963818
 20
135.186381996934
 30
0.0
 11
191.5449549166059
 21
135.186381996934
 31
0.0
  0
LINE
  5
5424
330
18
100
AcDbEntity
  8
0
100
AcDbLine
 10
195.5166180972837
 20
136.9363826855295
 30
0.0
 11
195.5166165383201
 21
151.9363258682209
 31
0.0
  0
LINE
  5
5428
330
18
100
AcDbEntity
  8
0
100
AcDbLine
 10
259.2311765093248
 20
125.1734653064488
 30
0.0
 11
259.2311765093248
 21
119.0484653064488
 31
0.0
  0
LINE
  5
5429
330
18
100
AcDbEntity
  8
0
100
AcDbLine
 10
259.2311765093248
 20
119.0484653064488
 30
0.0
 11
265.3561765093248
 21
119.0484653064488
 31
0.0
  0
LINE
  5
542A
330
18
100
AcDbEntity
  8
0
100
AcDbLine
 10
265.3561765093248
 20
119.0484653064488
 30
0.0
 11
265.3561765093248
 21
120.2984653064488
 31
0.0
  0
LINE
  5
542B
330
18
100
AcDbEntity
  8
0
100
AcDbLine
 10
265.3561765093248
 20
120.2984653064488
 30
0.0
 11
260.4811765093248
 21
120.2984653064488
 31
0.0
  0
LINE
  5
542C
330
18
100
AcDbEntity
  8
0
100
AcDbLine
 10
260.4811765093248
 20
120.2984653064488
 30
0.0
 11
260.4811765093248
 21
125.1734653064488
 31
0.0
  0
LINE
  5
542D
330
18
100
AcDbEntity
  8
0
100
AcDbLine
 10
260.4811765093248
 20
125.1734653064488
 30
0.0
 11
259.2311765093248
 21
125.1734653064488
 31
0.0
  0
LINE
  5
542E
330
18
100
AcDbEntity
  8
0
100
AcDbLine
 10
259.2311765093248
 20
119.932348782932
 30
0.0
 11
255.9608076463369
 21
116.6619799199442
 31
0.0
  0
LINE
  5
542F
330
18
100
AcDbEntity
  8
0
  6
HIDDEN
100
AcDbLine
 10
255.8474978252726
 20
116.5486700988799
 30
0.0
 11
253.334145823407
 21
114.0353180970142
 31
0.0
  0
LINE
  5
5430
330
18
100
AcDbEntity
  8
0
100
AcDbLine
 10
253.1323805215908
 20
113.833552795198
 30
0.0
 11
252.8672154786458
 21
113.568387752253
 31
0.0
  0
LINE
  5
5431
330
18
100
AcDbEntity
  8
0
100
AcDbLine
 10
260.1150599858079
 20
119.0484653064488
 30
0.0
 11
256.8446911228201
 21
115.778096443461
 31
0.0
  0
LINE
  5
5432
330
18
100
AcDbEntity
  8
0
  6
HIDDEN
100
AcDbLine
 10
256.7750344661836
 20
115.7084397868245
 30
0.0
 11
254.0814444049975
 21
113.0148497256383
 31
0.0
  0
LINE
  5
5433
330
18
100
AcDbEntity
  8
0
100
AcDbLine
 10
254.0162639980739
 20
112.9496693187148
 30
0.0
 11
253.7510989551289
 21
112.6845042757699
 31
0.0
  0
LINE
  5
5434
330
18
100
AcDbEntity
  8
0
100
AcDbLine
 10
253.7510989551289
 20
112.6845042757699
 30
0.0
 11
252.8672154786459
 21
113.568387752253
 31
0.0
  0
LINE
  5
5435
330
18
100
AcDbEntity
  8
0
100
AcDbLine
 10
259.2311765093248
 20
119.0484653064488
 30
0.0
 11
260.4811765093248
 21
120.2984653064488
 31
0.0
  0
LINE
  5
5436
330
18
100
AcDbEntity
  8
0
  6
HIDDEN
100
AcDbLine
 10
264.6371765093248
 20
119.0484653064488
 30
0.0
 11
264.6371765093248
 21
120.2984653064488
 31
0.0
  0
LINE
  5
5437
330
18
100
AcDbEntity
  8
0
  6
HIDDEN
100
AcDbLine
 10
264.0751765093248
 20
119.0484653064488
 30
0.0
 11
264.0751765093248
 21
120.2984653064488
 31
0.0
  0
LINE
  5
5438
330
18
100
AcDbEntity
  8
0
  6
HIDDEN
100
AcDbLine
 10
262.1371765093248
 20
119.0484653064488
 30
0.0
 11
262.1371765093248
 21
120.2984653064488
 31
0.0
  0
LINE
  5
5439
330
18
100
AcDbEntity
  8
0
  6
HIDDEN
100
AcDbLine
 10
261.5751765093248
 20
119.0484653064488
 30
0.0
 11
261.5751765093248
 21
120.2984653064488
 31
0.0
  0
LINE
  5
543A
330
18
100
AcDbEntity
  8
0
  6
HIDDEN
100
AcDbLine
 10
259.2311765093248
 20
121.3924653064488
 30
0.0
 11
260.4811765093248
 21
121.3924653064488
 31
0.0
  0
LINE
  5
543B
330
18
100
AcDbEntity
  8
0
  6
HIDDEN
100
AcDbLine
 10
259.2311765093248
 20
121.9544653064488
 30
0.0
 11
260.4811765093248
 21
121.9544653064488
 31
0.0
  0
LINE
  5
543C
330
18
100
AcDbEntity
  8
0
  6
HIDDEN
100
AcDbLine
 10
259.2311765093248
 20
123.8924653064488
 30
0.0
 11
260.4811765093248
 21
123.8924653064488
 31
0.0
  0
LINE
  5
543D
330
18
100
AcDbEntity
  8
0
  6
HIDDEN
100
AcDbLine
 10
259.2311765093248
 20
124.4544653064488
 30
0.0
 11
260.4811765093248
 21
124.4544653064488
 31
0.0
  0
CIRCLE
  5
543E
330
18
100
AcDbEntity
  8
0
100
AcDbCircle
 10
253.9278756504256
 20
113.7451644475497
 30
0.0
 40
0.1875
  0
CIRCLE
  5
543F
330
18
100
AcDbEntity
  8
0
100
AcDbCircle
 10
256.0491959939853
 20
115.8664847911093
 30
0.0
 40
0.1875
  0
LINE
  5
5440
330
18
100
AcDbEntity
  8
0
100
AcDbLine
 10
255.695642603392
 20
116.9271449628891
 30
0.0
 11
257.1098561657651
 21
115.512931400516
 31
0.0
  0
LINE
  5
5441
330
18
100
AcDbEntity
  8
0
100
AcDbLine
 10
257.1098561657651
 20
115.512931400516
 30
0.0
 11
254.281429041019
 21
112.6845042757698
 31
0.0
  0
LINE
  5
5442
330
18
100
AcDbEntity
  8
0
100
AcDbLine
 10
254.281429041019
 20
112.6845042757698
 30
0.0
 11
252.8672154786459
 21
114.0987178381429
 31
0.0
  0
LINE
  5
5443
330
18
100
AcDbEntity
  8
0
100
AcDbLine
 10
252.8672154786459
 20
114.0987178381429
 30
0.0
 11
255.695642603392
 21
116.9271449628891
 31
0.0
  0
CIRCLE
  5
5444
330
18
100
AcDbEntity
  8
0
100
AcDbCircle
 10
258.1139168631061
 20
117.9312056602301
 30
0.0
 40
8.698304741663013
  0
LINE
  5
5445
330
18
100
AcDbEntity
  8
0
100
AcDbLine
 10
241.3630192502517
 20
120.3622357895501
 30
0.0
 11
249.5404405760394
 21
119.3995413622897
 31
0.0
  0
CIRCLE
  5
5446
330
18
100
AcDbEntity
  8
0
100
AcDbCircle
 10
230.8003099991935
 20
121.5291185167374
 30
0.0
 40
10.62696767763025
  0
LEADER
  5
544C
330
18
100
AcDbEntity
  8
0
100
AcDbLeader
  3
STANDARD
 40
9.232142857142857
 41
16.89285714285713
 76
     3
 10
223.4464531638495
 20
155.186075314166
 30
0.0
 10
227.8383477947419
 20
162.2529392261233
 30
0.0
 10
230.722576603914
 20
162.2529392261233
 30
0.0
213
0.0
223
-0.6875
233
0.0
1001
ACAD
1000
DSTYLE
1002
{
1070
   147
1040
0.0625
1070
    77
1070
     0
1002
}
  0
TEXT
  5
544D
330
18
100
AcDbEntity
  8
0
100
AcDbText
 10
231.7047194610569
 20
168.7126578126044
 30
0.0
 40
1.375
  1
1-1/4" SCH 40
  7
ROMANS
100
AcDbText
  0
TEXT
  5
544E
330
18
100
AcDbEntity
  8
0
100
AcDbText
 10
232.0321004134378
 20
166.4209911459378
 30
0.0
 40
1.375
  1
ALUMINUM PIPE
  7
ROMANS
100
AcDbText
  0
TEXT
  5
544F
330
18
100
AcDbEntity
  8
0
100
AcDbText
 10
231.8356718420092
 20
164.1293244792711
 30
0.0
 40
1.375
  1
HANDRAILS
  7
ROMANS
100
AcDbText
  0
TEXT
  5
5450
330
18
100
AcDbEntity
  8
0
100
AcDbText
 10
231.8356718420092
 20
161.5757530506997
 30
0.0
 40
1.375
  1
(6005-T5)
  7
ROMANS
100
AcDbText
  0
LINE
  5
5453
330
18
100
AcDbEntity
  8
0
100
AcDbLine
 10
235.3393252045638
 20
151.936325695695
 30
0.0
 11
233.6793240765918
 21
151.9363258682211
 31
0.0
  0
CIRCLE
  5
5454
330
18
100
AcDbEntity
  8
0
100
AcDbCircle
 10
234.5093246405778
 20
152.3113261920174
 30
0.0
 40
0.125
  0
LINE
  5
5455
330
18
100
AcDbEntity
  8
0
100
AcDbLine
 10
190.294954643676
 20
153.186320789779
 30
0.0
 11
190.294954643676
 21
151.9363258272903
 31
0.0
  0
ARC
  5
5456
330
18
100
AcDbEntity
  8
0
100
AcDbCircle
 10
194.5166171829626
 20
154.1863242572474
 30
0.0
 40
1.0
100
AcDbArc
 50
75.52248781407008
 51
90.00056221296842
  0
ARC
  5
5457
330
18
100
AcDbEntity
  8
0
100
AcDbCircle
 10
193.5166171829626
 20
153.186320789779
 30
0.0
 40
0.5
100
AcDbArc
 50
0.0
 51
90.0005772616474
  0
CIRCLE
  5
5458
330
18
100
AcDbEntity
  8
0
100
AcDbCircle
 10
193.1210630636089
 20
154.3738964155256
 30
0.0
 40
0.125
  0
LINE
  5
5459
330
18
100
AcDbEntity
  8
0
100
AcDbLine
 10
192.7666169100327
 20
153.6863258273625
 30
0.0
 11
193.5166121454044
 21
153.6863207897536
 31
0.0
  0
LINE
  5
545A
330
18
100
AcDbEntity
  8
0
100
AcDbLine
 10
192.7666169100327
 20
155.1863137927539
 30
0.0
 11
194.5166073704951
 21
155.1863242571992
 31
0.0
  0
LINE
  5
545B
330
18
100
AcDbEntity
  8
0
  6
HIDDEN
100
AcDbLine
 10
193.6557877318818
 20
155.1863188634572
 30
0.0
 11
193.6557816867371
 21
153.6863214335007
 31
0.0
  0
LINE
  5
545C
330
18
100
AcDbEntity
  8
0
100
AcDbLine
 10
194.0166171829626
 20
154.1863242572474
 30
0.0
 11
194.0166171829626
 21
151.9363258272903
 31
0.0
  0
LINE
  5
545D
330
18
100
AcDbEntity
  8
0
100
AcDbLine
 10
188.794953042108
 20
136.2500770854969
 30
0.0
 11
188.794955130257
 21
151.936325503494
 31
0.0
  0
ARC
  5
545E
330
18
100
AcDbEntity
  8
0
100
AcDbCircle
 10
194.5166104221999
 20
134.6863835669847
 30
0.0
 40
1.0
100
AcDbArc
 50
269.9994377870315
 51
284.4777888129749
  0
ARC
  5
545F
330
18
100
AcDbEntity
  8
0
100
AcDbCircle
 10
193.5166104221999
 20
135.6863870344531
 30
0.0
 40
0.5
100
AcDbArc
 50
269.9994227383526
 51
0.0
  0
CIRCLE
  5
5460
330
18
100
AcDbEntity
  8
0
100
AcDbCircle
 10
193.1210563028462
 20
134.4988114087064
 30
0.0
 40
0.125
  0
LINE
  5
5461
330
18
100
AcDbEntity
  8
0
100
AcDbLine
 10
192.76661014927
 20
135.1863819968696
 30
0.0
 11
193.5166053846417
 21
135.1863870344785
 31
0.0
  0
LINE
  5
5462
330
18
100
AcDbEntity
  8
0
100
AcDbLine
 10
192.76661014927
 20
133.6863940314782
 30
0.0
 11
194.5166006097324
 21
133.6863835670329
 31
0.0
  0
LINE
  5
5463
330
18
100
AcDbEntity
  8
0
100
AcDbLine
 10
194.0166171829627
 20
134.6863842353977
 30
0.0
 11
194.0166104221999
 21
136.9363819969418
 31
0.0
  0
LINE
  5
5464
330
18
100
AcDbEntity
  8
0
100
AcDbLine
 10
194.0166104221999
 20
136.9363819969418
 30
0.0
 11
195.5166171829625
 21
136.9363819969418
 31
0.0
  0
LINE
  5
5465
330
18
100
AcDbEntity
  8
0
100
AcDbLine
 10
194.0166171829626
 20
151.9363258272903
 30
0.0
 11
194.5166157820609
 21
151.9363258272903
 31
0.0
  0
LINE
  5
5466
330
18
100
AcDbEntity
  8
0
100
AcDbLine
 10
193.1416171829626
 20
151.2705754157568
 30
0.0
 11
193.1416171829626
 21
149.9580754157568
 31
0.0
  0
LINE
  5
5467
330
18
100
AcDbEntity
  8
0
100
AcDbLine
 10
193.1416171829626
 20
148.2705754157568
 30
0.0
 11
193.1416171829626
 21
146.9580754157568
 31
0.0
  0
LINE
  5
5468
330
18
100
AcDbEntity
  8
0
100
AcDbLine
 10
193.7666171829626
 20
150.6768254157568
 30
0.0
 11
193.7666171829626
 21
149.9580754157568
 31
0.0
  0
LINE
  5
5469
330
18
100
AcDbEntity
  8
0
100
AcDbLine
 10
193.7666171829626
 20
148.2705754157568
 30
0.0
 11
193.7666171829626
 21
147.5518254157568
 31
0.0
  0
LINE
  5
546A
330
18
100
AcDbEntity
  8
0
100
AcDbLine
 10
193.1416171829626
 20
151.2705754157568
 30
0.0
 11
193.7666171829626
 21
151.2705754157568
 31
0.0
  0
LINE
  5
546B
330
18
100
AcDbEntity
  8
0
100
AcDbLine
 10
193.1416171829626
 20
150.6768254157568
 30
0.0
 11
193.7666171829626
 21
150.6768254157568
 31
0.0
  0
LINE
  5
546C
330
18
100
AcDbEntity
  8
0
100
AcDbLine
 10
193.1416171829626
 20
150.6143254157568
 30
0.0
 11
193.7666171829626
 21
150.6143254157568
 31
0.0
  0
LINE
  5
546D
330
18
100
AcDbEntity
  8
0
100
AcDbLine
 10
193.1416171829626
 20
149.9580754157568
 30
0.0
 11
193.7666171829626
 21
149.9580754157568
 31
0.0
  0
LINE
  5
546E
330
18
100
AcDbEntity
  8
0
100
AcDbLine
 10
193.2041171829626
 20
149.8643754157568
 30
0.0
 11
193.7041171829626
 21
149.8643754157568
 31
0.0
  0
LINE
  5
546F
330
18
100
AcDbEntity
  8
0
100
AcDbLine
 10
193.2041171829626
 20
149.7706754157568
 30
0.0
 11
193.7041171829626
 21
149.7706754157568
 31
0.0
  0
LINE
  5
5470
330
18
100
AcDbEntity
  8
0
100
AcDbLine
 10
193.2041171829626
 20
149.6769754157568
 30
0.0
 11
193.7041171829626
 21
149.6769754157568
 31
0.0
  0
LINE
  5
5471
330
18
100
AcDbEntity
  8
0
100
AcDbLine
 10
193.2041171829626
 20
149.5832754157568
 30
0.0
 11
193.7041171829626
 21
149.5832754157568
 31
0.0
  0
LINE
  5
5472
330
18
100
AcDbEntity
  8
0
100
AcDbLine
 10
193.2041171829626
 20
149.4895754157568
 30
0.0
 11
193.7041171829626
 21
149.4895754157568
 31
0.0
  0
LINE
  5
5473
330
18
100
AcDbEntity
  8
0
100
AcDbLine
 10
193.2041171829626
 20
149.3958754157567
 30
0.0
 11
193.7041171829626
 21
149.3958754157567
 31
0.0
  0
LINE
  5
5474
330
18
100
AcDbEntity
  8
0
100
AcDbLine
 10
193.2041171829626
 20
149.3021754157567
 30
0.0
 11
193.7041171829626
 21
149.3021754157567
 31
0.0
  0
LINE
  5
5475
330
18
100
AcDbEntity
  8
0
100
AcDbLine
 10
193.2041171829626
 20
149.2084754157566
 30
0.0
 11
193.7041171829626
 21
149.2084754157567
 31
0.0
  0
LINE
  5
5476
330
18
100
AcDbEntity
  8
0
100
AcDbLine
 10
193.2041171829626
 20
149.1147754157567
 30
0.0
 11
193.7041171829626
 21
149.1147754157567
 31
0.0
  0
LINE
  5
5477
330
18
100
AcDbEntity
  8
0
100
AcDbLine
 10
193.2041171829626
 20
149.0210754157567
 30
0.0
 11
193.7041171829626
 21
149.0210754157567
 31
0.0
  0
LINE
  5
5478
330
18
100
AcDbEntity
  8
0
100
AcDbLine
 10
193.2041171829626
 20
148.9273754157567
 30
0.0
 11
193.7041171829626
 21
148.9273754157567
 31
0.0
  0
LINE
  5
5479
330
18
100
AcDbEntity
  8
0
100
AcDbLine
 10
193.2041171829626
 20
148.8336754157566
 30
0.0
 11
193.7041171829626
 21
148.8336754157567
 31
0.0
  0
LINE
  5
547A
330
18
100
AcDbEntity
  8
0
100
AcDbLine
 10
193.2041171829626
 20
148.7399754157566
 30
0.0
 11
193.7041171829626
 21
148.7399754157566
 31
0.0
  0
LINE
  5
547B
330
18
100
AcDbEntity
  8
0
100
AcDbLine
 10
193.2041171829626
 20
148.6462754157566
 30
0.0
 11
193.7041171829626
 21
148.6462754157566
 31
0.0
  0
LINE
  5
547C
330
18
100
AcDbEntity
  8
0
100
AcDbLine
 10
193.2041171829626
 20
148.5525754157566
 30
0.0
 11
193.7041171829626
 21
148.5525754157566
 31
0.0
  0
LINE
  5
547D
330
18
100
AcDbEntity
  8
0
100
AcDbLine
 10
193.2041171829626
 20
148.4588754157566
 30
0.0
 11
193.7041171829626
 21
148.4588754157566
 31
0.0
  0
LINE
  5
547E
330
18
100
AcDbEntity
  8
0
100
AcDbLine
 10
193.2041171829626
 20
148.3651754157566
 30
0.0
 11
193.7041171829626
 21
148.3651754157566
 31
0.0
  0
ARC
  5
547F
330
18
100
AcDbEntity
  8
0
100
AcDbCircle
 10
193.4541171829626
 20
151.1039087490901
 30
0.0
 40
0.3541666666666622
100
AcDbArc
 50
28.07248693585293
 51
151.927513064147
  0
LINE
  5
5480
330
18
100
AcDbEntity
  8
0
100
AcDbLine
 10
193.1416171829626
 20
146.9580754157568
 30
0.0
 11
193.7666171829626
 21
146.9580754157568
 31
0.0
  0
LINE
  5
5481
330
18
100
AcDbEntity
  8
0
100
AcDbLine
 10
193.1416171829626
 20
147.6143254157568
 30
0.0
 11
193.7666171829626
 21
147.6143254157568
 31
0.0
  0
LINE
  5
5482
330
18
100
AcDbEntity
  8
0
100
AcDbLine
 10
193.1416171829626
 20
147.5518254157568
 30
0.0
 11
193.7666171829626
 21
147.5518254157568
 31
0.0
  0
LINE
  5
5483
330
18
100
AcDbEntity
  8
0
100
AcDbLine
 10
193.1416171829626
 20
148.2705754157568
 30
0.0
 11
193.7666171829626
 21
148.2705754157568
 31
0.0
  0
ARC
  5
5484
330
18
100
AcDbEntity
  8
0
100
AcDbCircle
 10
193.4541171829626
 20
147.1247420824234
 30
0.0
 40
0.3541666666666622
100
AcDbArc
 50
208.0724869358529
 51
331.927513064147
  0
LINE
  5
5485
330
18
100
AcDbEntity
  8
0
100
AcDbLine
 10
193.2041171829626
 20
149.9580754157568
 30
0.0
 11
193.2041171829626
 21
148.2705754157568
 31
0.0
  0
LINE
  5
5486
330
18
100
AcDbEntity
  8
0
100
AcDbLine
 10
193.7041171829626
 20
149.9580754157568
 30
0.0
 11
193.7041171829626
 21
148.2705754157568
 31
0.0
  0
LINE
  5
5487
330
18
100
AcDbEntity
  8
0
100
AcDbLine
 10
193.7666171829626
 20
151.2705754157568
 30
0.0
 11
194.0166171829626
 21
151.2705754157568
 31
0.0
  0
LINE
  5
5488
330
18
100
AcDbEntity
  8
0
100
AcDbLine
 10
193.7666171829626
 20
150.6768254157568
 30
0.0
 11
194.0166171829626
 21
150.6768254157568
 31
0.0
  0
LINE
  5
5489
330
18
100
AcDbEntity
  8
0
100
AcDbLine
 10
193.7666171829626
 20
146.9580754157568
 30
0.0
 11
194.0166171829626
 21
146.9580754157568
 31
0.0
  0
LINE
  5
548A
330
18
100
AcDbEntity
  8
0
100
AcDbLine
 10
193.7666171829626
 20
147.5518254157568
 30
0.0
 11
194.0166171829626
 21
147.5518254157568
 31
0.0
  0
LINE
  5
548B
330
18
100
AcDbEntity
  8
0
100
AcDbLine
 10
193.7666171829626
 20
150.6143254157568
 30
0.0
 11
194.0166171829626
 21
150.6143254157568
 31
0.0
  0
LINE
  5
548C
330
18
100
AcDbEntity
  8
0
100
AcDbLine
 10
193.7666171829626
 20
147.6143254157568
 30
0.0
 11
194.0166171829626
 21
147.6143254157568
 31
0.0
  0
LINE
  5
548D
330
18
100
AcDbEntity
  8
0
100
AcDbLine
 10
194.0166171829626
 20
146.9580754157568
 30
0.0
 11
194.0166171829626
 21
147.5518254157568
 31
0.0
  0
LINE
  5
548E
330
18
100
AcDbEntity
  8
0
100
AcDbLine
 10
194.0166171829626
 20
150.6768254157568
 30
0.0
 11
194.0166171829626
 21
151.2705754157568
 31
0.0
  0
LINE
  5
548F
330
18
100
AcDbEntity
  8
0
100
AcDbLine
 10
193.7666171829626
 20
149.9576003766804
 30
0.0
 11
194.0166171829626
 21
149.9576003766804
 31
0.0
  0
LINE
  5
5490
330
18
100
AcDbEntity
  8
0
100
AcDbLine
 10
193.7666171829626
 20
148.2701003766804
 30
0.0
 11
194.0166171829626
 21
148.2701003766804
 31
0.0
  0
LINE
  5
5491
330
18
100
AcDbEntity
  8
0
100
AcDbLine
 10
194.0166171829626
 20
147.6143254157568
 30
0.0
 11
194.0166171829626
 21
148.2701003766804
 31
0.0
  0
LINE
  5
5492
330
18
100
AcDbEntity
  8
0
100
AcDbLine
 10
194.0166171829626
 20
149.9576003766804
 30
0.0
 11
194.0166171829626
 21
150.6143254157568
 31
0.0
  0
LINE
  5
5493
330
18
100
AcDbEntity
  8
0
100
AcDbLine
 10
195.5166171829626
 20
135.6863877028661
 30
0.0
 11
195.5166171829625
 21
136.9363819969418
 31
0.0
  0
LINE
  5
5494
330
18
100
AcDbEntity
  8
0
100
AcDbLine
 10
193.1416171829626
 20
141.9103455962908
 30
0.0
 11
193.1416171829626
 21
140.5978455962908
 31
0.0
  0
LINE
  5
5495
330
18
100
AcDbEntity
  8
0
100
AcDbLine
 10
193.1416171829626
 20
138.9103455962908
 30
0.0
 11
193.1416171829626
 21
137.5978455962908
 31
0.0
  0
LINE
  5
5496
330
18
100
AcDbEntity
  8
0
100
AcDbLine
 10
193.7666171829626
 20
141.3165955962908
 30
0.0
 11
193.7666171829626
 21
140.5978455962908
 31
0.0
  0
LINE
  5
5497
330
18
100
AcDbEntity
  8
0
100
AcDbLine
 10
193.7666171829626
 20
138.9103455962908
 30
0.0
 11
193.7666171829626
 21
138.1915955962908
 31
0.0
  0
LINE
  5
5498
330
18
100
AcDbEntity
  8
0
100
AcDbLine
 10
193.1416171829626
 20
141.9103455962908
 30
0.0
 11
193.7666171829626
 21
141.9103455962908
 31
0.0
  0
LINE
  5
5499
330
18
100
AcDbEntity
  8
0
100
AcDbLine
 10
193.1416171829626
 20
141.3165955962908
 30
0.0
 11
193.7666171829626
 21
141.3165955962908
 31
0.0
  0
LINE
  5
549A
330
18
100
AcDbEntity
  8
0
100
AcDbLine
 10
193.1416171829626
 20
141.2540955962908
 30
0.0
 11
193.7666171829626
 21
141.2540955962908
 31
0.0
  0
LINE
  5
549B
330
18
100
AcDbEntity
  8
0
100
AcDbLine
 10
193.1416171829626
 20
140.5978455962908
 30
0.0
 11
193.7666171829626
 21
140.5978455962908
 31
0.0
  0
LINE
  5
549C
330
18
100
AcDbEntity
  8
0
100
AcDbLine
 10
193.2041171829626
 20
140.5041455962908
 30
0.0
 11
193.7041171829626
 21
140.5041455962908
 31
0.0
  0
LINE
  5
549D
330
18
100
AcDbEntity
  8
0
100
AcDbLine
 10
193.2041171829626
 20
140.4104455962908
 30
0.0
 11
193.7041171829626
 21
140.4104455962908
 31
0.0
  0
LINE
  5
549E
330
18
100
AcDbEntity
  8
0
100
AcDbLine
 10
193.2041171829626
 20
140.3167455962908
 30
0.0
 11
193.7041171829626
 21
140.3167455962908
 31
0.0
  0
LINE
  5
549F
330
18
100
AcDbEntity
  8
0
100
AcDbLine
 10
193.2041171829626
 20
140.2230455962908
 30
0.0
 11
193.7041171829626
 21
140.2230455962908
 31
0.0
  0
LINE
  5
54A0
330
18
100
AcDbEntity
  8
0
100
AcDbLine
 10
193.2041171829626
 20
140.1293455962908
 30
0.0
 11
193.7041171829626
 21
140.1293455962908
 31
0.0
  0
LINE
  5
54A1
330
18
100
AcDbEntity
  8
0
100
AcDbLine
 10
193.2041171829626
 20
140.0356455962907
 30
0.0
 11
193.7041171829626
 21
140.0356455962907
 31
0.0
  0
LINE
  5
54A2
330
18
100
AcDbEntity
  8
0
100
AcDbLine
 10
193.2041171829626
 20
139.9419455962907
 30
0.0
 11
193.7041171829626
 21
139.9419455962907
 31
0.0
  0
LINE
  5
54A3
330
18
100
AcDbEntity
  8
0
100
AcDbLine
 10
193.2041171829626
 20
139.8482455962907
 30
0.0
 11
193.7041171829626
 21
139.8482455962907
 31
0.0
  0
LINE
  5
54A4
330
18
100
AcDbEntity
  8
0
100
AcDbLine
 10
193.2041171829626
 20
139.7545455962907
 30
0.0
 11
193.7041171829626
 21
139.7545455962907
 31
0.0
  0
LINE
  5
54A5
330
18
100
AcDbEntity
  8
0
100
AcDbLine
 10
193.2041171829626
 20
139.6608455962907
 30
0.0
 11
193.7041171829626
 21
139.6608455962907
 31
0.0
  0
LINE
  5
54A6
330
18
100
AcDbEntity
  8
0
100
AcDbLine
 10
193.2041171829626
 20
139.5671455962907
 30
0.0
 11
193.7041171829626
 21
139.5671455962907
 31
0.0
  0
LINE
  5
54A7
330
18
100
AcDbEntity
  8
0
100
AcDbLine
 10
193.2041171829626
 20
139.4734455962906
 30
0.0
 11
193.7041171829626
 21
139.4734455962907
 31
0.0
  0
LINE
  5
54A8
330
18
100
AcDbEntity
  8
0
100
AcDbLine
 10
193.2041171829626
 20
139.3797455962907
 30
0.0
 11
193.7041171829626
 21
139.3797455962907
 31
0.0
  0
LINE
  5
54A9
330
18
100
AcDbEntity
  8
0
100
AcDbLine
 10
193.2041171829626
 20
139.2860455962906
 30
0.0
 11
193.7041171829626
 21
139.2860455962906
 31
0.0
  0
LINE
  5
54AA
330
18
100
AcDbEntity
  8
0
100
AcDbLine
 10
193.2041171829626
 20
139.1923455962906
 30
0.0
 11
193.7041171829626
 21
139.1923455962906
 31
0.0
  0
LINE
  5
54AB
330
18
100
AcDbEntity
  8
0
100
AcDbLine
 10
193.2041171829626
 20
139.0986455962906
 30
0.0
 11
193.7041171829626
 21
139.0986455962906
 31
0.0
  0
LINE
  5
54AC
330
18
100
AcDbEntity
  8
0
100
AcDbLine
 10
193.2041171829626
 20
139.0049455962906
 30
0.0
 11
193.7041171829626
 21
139.0049455962906
 31
0.0
  0
ARC
  5
54AD
330
18
100
AcDbEntity
  8
0
100
AcDbCircle
 10
193.4541171829626
 20
141.7436789296241
 30
0.0
 40
0.3541666666666622
100
AcDbArc
 50
28.07248693585293
 51
151.927513064147
  0
LINE
  5
54AE
330
18
100
AcDbEntity
  8
0
100
AcDbLine
 10
193.1416171829626
 20
137.5978455962908
 30
0.0
 11
193.7666171829626
 21
137.5978455962908
 31
0.0
  0
LINE
  5
54AF
330
18
100
AcDbEntity
  8
0
100
AcDbLine
 10
193.1416171829626
 20
138.2540955962908
 30
0.0
 11
193.7666171829626
 21
138.2540955962908
 31
0.0
  0
LINE
  5
54B0
330
18
100
AcDbEntity
  8
0
100
AcDbLine
 10
193.1416171829626
 20
138.1915955962908
 30
0.0
 11
193.7666171829626
 21
138.1915955962908
 31
0.0
  0
LINE
  5
54B1
330
18
100
AcDbEntity
  8
0
100
AcDbLine
 10
193.1416171829626
 20
138.9103455962908
 30
0.0
 11
193.7666171829626
 21
138.9103455962908
 31
0.0
  0
ARC
  5
54B2
330
18
100
AcDbEntity
  8
0
100
AcDbCircle
 10
193.4541171829626
 20
137.7645122629575
 30
0.0
 40
0.3541666666666622
100
AcDbArc
 50
208.0724869358529
 51
331.927513064147
  0
LINE
  5
54B3
330
18
100
AcDbEntity
  8
0
100
AcDbLine
 10
193.2041171829626
 20
140.5978455962908
 30
0.0
 11
193.2041171829626
 21
138.9103455962908
 31
0.0
  0
LINE
  5
54B4
330
18
100
AcDbEntity
  8
0
100
AcDbLine
 10
193.7041171829626
 20
140.5978455962908
 30
0.0
 11
193.7041171829626
 21
138.9103455962908
 31
0.0
  0
LINE
  5
54B5
330
18
100
AcDbEntity
  8
0
100
AcDbLine
 10
193.7666171829626
 20
141.9103455962908
 30
0.0
 11
194.0166171829626
 21
141.9103455962908
 31
0.0
  0
LINE
  5
54B6
330
18
100
AcDbEntity
  8
0
100
AcDbLine
 10
193.7666171829626
 20
141.3165955962908
 30
0.0
 11
194.0166171829626
 21
141.3165955962908
 31
0.0
  0
LINE
  5
54B7
330
18
100
AcDbEntity
  8
0
100
AcDbLine
 10
193.7666171829626
 20
137.5978455962908
 30
0.0
 11
194.0166171829626
 21
137.5978455962908
 31
0.0
  0
LINE
  5
54B8
330
18
100
AcDbEntity
  8
0
100
AcDbLine
 10
193.7666171829626
 20
138.1915955962908
 30
0.0
 11
194.0166171829626
 21
138.1915955962908
 31
0.0
  0
LINE
  5
54B9
330
18
100
AcDbEntity
  8
0
100
AcDbLine
 10
193.7666171829626
 20
141.2540955962908
 30
0.0
 11
194.0166171829626
 21
141.2540955962908
 31
0.0
  0
LINE
  5
54BA
330
18
100
AcDbEntity
  8
0
100
AcDbLine
 10
193.7666171829626
 20
138.2540955962908
 30
0.0
 11
194.0166171829626
 21
138.2540955962908
 31
0.0
  0
LINE
  5
54BB
330
18
100
AcDbEntity
  8
0
100
AcDbLine
 10
194.0166171829626
 20
137.5978455962908
 30
0.0
 11
194.0166171829626
 21
138.1915955962908
 31
0.0
  0
LINE
  5
54BC
330
18
100
AcDbEntity
  8
0
100
AcDbLine
 10
194.0166171829626
 20
141.3165955962908
 30
0.0
 11
194.0166171829626
 21
141.9103455962908
 31
0.0
  0
LINE
  5
54BD
330
18
100
AcDbEntity
  8
0
100
AcDbLine
 10
193.7666171829626
 20
140.5973705572145
 30
0.0
 11
194.0166171829626
 21
140.5973705572145
 31
0.0
  0
LINE
  5
54BE
330
18
100
AcDbEntity
  8
0
100
AcDbLine
 10
193.7666171829626
 20
138.9098705572145
 30
0.0
 11
194.0166171829626
 21
138.9098705572145
 31
0.0
  0
LINE
  5
54BF
330
18
100
AcDbEntity
  8
0
100
AcDbLine
 10
194.0166171829626
 20
138.2540955962908
 30
0.0
 11
194.0166171829626
 21
138.9098705572145
 31
0.0
  0
LINE
  5
54C0
330
18
100
AcDbEntity
  8
0
100
AcDbLine
 10
194.0166171829626
 20
140.5973705572145
 30
0.0
 11
194.0166171829626
 21
141.2540955962908
 31
0.0
  0
TEXT
  5
621D
330
18
100
AcDbEntity
  8
0
100
AcDbText
 10
171.5262608652162
 20
89.34723345467316
 30
0.0
 40
1.0218161911378
  1
Ph: (423) 586-2265 Fax: (423) 586-2091
  7
CAT_BORDER$0$ROMANS
100
AcDbText
  0
TEXT
  5
621E
330
18
100
AcDbEntity
  8
0
100
AcDbText
 10
170.9539120858449
 20
91.00160252603906
 30
0.0
 40
1.0218161911378
  1
P.O. BOX 2279 Morristown, TN 37816-2279
  7
CAT_BORDER$0$ROMANS
100
AcDbText
  0
POLYLINE
  5
621F
330
18
100
AcDbEntity
  8
0
100
AcDb2dPolyline
 66
     1
 10
0.0
 20
0.0
 30
0.0
1001
ACAD
1000
ASC_BOUNDS
1002
{
1070
    19
1002
}
  0
VERTEX
  5
6220
330
621F
100
AcDbEntity
  8
0
100
AcDbVertex
100
AcDb2dVertex
 10
167.1414082903326
 20
91.41867342756738
 30
0.0
  0
VERTEX
  5
6221
330
621F
100
AcDbEntity
  8
0
100
AcDbVertex
100
AcDb2dVertex
 10
167.3048453271657
 20
91.50194994327595
 30
0.0
1001
ACAD
1000
ASC_BOUNDS
1002
{
1070
    19
1002
}
  0
VERTEX
  5
6222
330
621F
100
AcDbEntity
  8
0
100
AcDbVertex
100
AcDb2dVertex
 10
168.4043421635445
 20
89.30176202726453
 30
0.0
1001
ACAD
1000
ASC_BOUNDS
1002
{
1070
    19
1002
}
  0
VERTEX
  5
6223
330
621F
100
AcDbEntity
  8
0
100
AcDbVertex
100
AcDb2dVertex
 10
168.0510508160191
 20
89.30399119214788
 30
0.0
  0
VERTEX
  5
6224
330
621F
100
AcDbEntity
  8
0
100
AcDbVertex
100
AcDb2dVertex
 10
167.024142719761
 20
91.35892278402279
 30
0.0
  0
SEQEND
  5
6225
330
621F
100
AcDbEntity
  8
0
  0
TEXT
  5
6226
330
18
100
AcDbEntity
  8
0
100
AcDbText
 10
167.3197645506428
 20
92.73955479318669
 30
0.0
 40
1.670248023467695
  1
Precision Ladders, LLC
  7
CAT_BORDER$0$STYLE1
100
AcDbText
  0
CIRCLE
  5
6227
330
18
100
AcDbEntity
  8
0
100
AcDbCircle
 10
166.0283070792447
 20
92.49467403697879
 30
0.0
 40
4.580521272936304
1001
ACAD
1000
ASC_BOUNDS
1002
{
1070
    19
1002
}
  0
INSERT
  5
6228
330
18
100
AcDbEntity
  8
0
100
AcDbBlockReference
  2
*X10
 10
179.7526903115657
 20
195.2757215835312
 30
0.0
 41
0.3706228668609128
 42
0.3706228668608986
 43
0.3706228668609017
1001
ACAD
1000
HATCH
1002
{
1070
    19
1000
ANSI31
1040
0.8843871093750001
1040
0.0
1002
}
  0
LWPOLYLINE
  5
6229
330
18
100
AcDbEntity
  8
0
100
AcDbPolyline
 90
        4
 70
     1
 43
0.0
 10
162.9880376071116
 20
94.83411380564218
 10
162.9880376071116
 20
95.16573572781615
 10
166.5198110782638
 20
95.16573572781615
 10
166.5198110782638
 20
94.83411380564218
1001
ACAD
1000
ASC_BOUNDS
1002
{
1070
    19
1005
0
1005
0
1002
}
  0
LINE
  5
622A
330
18
100
AcDbEntity
  8
0
100
AcDbLine
 10
163.111271132631
 20
94.79832169519642
 30
0.0
 11
164.5791648538112
 21
91.9174180570431
 31
0.0
1001
ACAD
1000
ASC_BOUNDS
1002
{
1070
    19
1002
}
  0
LWPOLYLINE
  5
622B
330
18
100
AcDbEntity
  8
0
100
AcDbPolyline
 90
        4
 70
     0
 43
0.0
 10
163.0366291532651
 20
94.83265964418832
 10
164.5909404124922
 20
91.78215203800421
 10
164.583848957383
 20
91.77853876115209
 10
163.0295376981558
 20
94.82904636733618
1001
ACAD
1000
ASC_BOUNDS
1002
{
1070
    19
1002
}
  0
LINE
  5
622C
330
18
100
AcDbEntity
  8
0
100
AcDbLine
 10
163.0669495381979
 20
94.77573871487056
 30
0.0
 11
163.111271132631
 21
94.79832169519642
 31
0.0
1001
ACAD
1000
ASC_BOUNDS
1002
{
1070
    19
1002
}
  0
LINE
  5
622D
330
18
100
AcDbEntity
  8
0
100
AcDbLine
 10
163.111271132631
 20
94.79832169519642
 30
0.0
 11
163.1815171046061
 21
94.83411380564218
 31
0.0
1001
ACAD
1000
ASC_BOUNDS
1002
{
1070
    19
1002
}
  0
LINE
  5
622E
330
18
100
AcDbEntity
  8
0
100
AcDbLine
 10
163.111271132631
 20
94.79832169519642
 30
0.0
 11
163.2016030539344
 21
94.62103531746391
 31
0.0
1001
ACAD
1000
ASC_BOUNDS
1002
{
1070
    19
1002
}
  0
LINE
  5
622F
330
18
100
AcDbEntity
  8
0
100
AcDbLine
 10
164.491845173732
 20
93.63763219673151
 30
0.0
 11
164.1500670255447
 21
92.94328866600473
 31
0.0
1001
ACAD
1000
ASC_BOUNDS
1002
{
1070
    19
1005
0
1002
}
  0
LWPOLYLINE
  5
6230
330
18
100
AcDbEntity
  8
0
100
AcDbPolyline
 90
        2
 70
     0
 43
0.0
 10
164.4116675893806
 20
93.64207693216611
 10
164.0838465595932
 20
92.97608815413488
1001
ACAD
1000
ASC_BOUNDS
1002
{
1070
    19
1005
0
1002
}
  0
LINE
  5
6231
330
18
100
AcDbEntity
  8
0
100
AcDbLine
 10
163.7629725130828
 20
94.83411380564218
 30
0.0
 11
164.3913632845223
 21
93.60082747605243
 31
0.0
1001
ACAD
1000
ASC_BOUNDS
1002
{
1070
    19
1002
}
  0
LINE
  5
6232
330
18
100
AcDbEntity
  8
0
100
AcDbLine
 10
163.7071443154482
 20
94.83411380564218
 30
0.0
 11
164.3639310681054
 21
93.54509722500042
 31
0.0
1001
ACAD
1000
ASC_BOUNDS
1002
{
1070
    19
1002
}
  0
LINE
  5
6233
330
18
100
AcDbEntity
  8
0
100
AcDbLine
 10
163.6497497808613
 20
94.43543488866943
 30
0.0
 11
164.23591405816
 21
93.28502272009126
 31
0.0
1001
ACAD
1000
ASC_BOUNDS
1002
{
1070
    19
1002
}
  0
LINE
  5
6234
330
18
100
AcDbEntity
  8
0
100
AcDbLine
 10
164.7871671083126
 20
91.75336193950798
 30
0.0
 11
167.024142719761
 21
91.35892278402279
 31
0.0
1001
ACAD
1000
ASC_BOUNDS
1002
{
1070
    19
1002
}
  0
POLYLINE
  5
6235
330
18
100
AcDbEntity
  8
0
100
AcDb2dPolyline
 66
     1
 10
0.0
 20
0.0
 30
0.0
1001
ACAD
1000
ASC_BOUNDS
1002
{
1070
    19
1002
}
  0
VERTEX
  5
6236
330
6235
100
AcDbEntity
  8
0
100
AcDbVertex
100
AcDb2dVertex
 10
164.8408599445223
 20
91.97977833510904
 30
0.0
  0
VERTEX
  5
6237
330
6235
100
AcDbEntity
  8
0
100
AcDbVertex
100
AcDb2dVertex
 10
164.8598682852211
 20
92.0604435991069
 30
0.0
1001
ACAD
1000
ASC_BOUNDS
1002
{
1070
    19
1002
}
  0
VERTEX
  5
6238
330
6235
100
AcDbEntity
  8
0
100
AcDbVertex
100
AcDb2dVertex
 10
167.0871372738262
 20
91.66771598312051
 30
0.0
1001
ACAD
1000
ASC_BOUNDS
1002
{
1070
    19
1002
}
  0
VERTEX
  5
6239
330
6235
100
AcDbEntity
  8
0
100
AcDbVertex
100
AcDb2dVertex
 10
167.0480975346313
 20
91.47634696500709
 30
0.0
  0
SEQEND
  5
623A
330
6235
100
AcDbEntity
  8
0
  0
LINE
  5
623B
330
18
100
AcDbEntity
  8
0
100
AcDbLine
 10
164.405824720034
 20
93.46287630361144
 30
0.0
 11
165.0481546526337
 21
92.20223282989095
 31
0.0
1001
ACAD
1000
ASC_BOUNDS
1002
{
1070
    19
1005
0
1002
}
  0
LWPOLYLINE
  5
623C
330
18
100
AcDbEntity
  8
0
100
AcDbPolyline
 90
        2
 70
     0
 43
0.0
 10
164.4332569364509
 20
93.51860655466344
 10
165.0909969381794
 20
92.22771911738002
1001
ACAD
1000
ASC_BOUNDS
1002
{
1070
    19
1002
}
  0
LWPOLYLINE
  5
623D
330
18
100
AcDbEntity
  8
0
100
AcDbPolyline
 90
        3
 70
     0
 43
0.0
 10
164.0844419251417
 20
92.8934202697914
 10
164.2036658488506
 20
92.95156966272093
 10
164.1784770673158
 20
93.00100542998192
1001
ACAD
1000
ASC_BOUNDS
1002
{
1070
    19
1002
}
  0
CIRCLE
  5
623E
330
18
100
AcDbEntity
  8
0
100
AcDbCircle
 10
164.1317160300063
 20
92.98871494177111
 30
0.0
 40
0.0124358220815221
1001
ACAD
1000
ASC_BOUNDS
1002
{
1070
    19
1002
}
  0
LINE
  5
623F
330
18
100
AcDbEntity
  8
0
100
AcDbLine
 10
164.1256934966443
 20
93.06110280523606
 30
0.0
 11
164.0242206442728
 21
93.01161118827975
 31
0.0
1001
ACAD
1000
ASC_BOUNDS
1002
{
1070
    19
1002
}
  0
LINE
  5
6240
330
18
100
AcDbEntity
  8
0
100
AcDbLine
 10
164.0080339432707
 20
93.03633054211656
 30
0.0
 11
164.0983658645741
 21
92.85904416438407
 31
0.0
1001
ACAD
1000
ASC_BOUNDS
1002
{
1070
    19
1002
}
  0
LINE
  5
6241
330
18
100
AcDbEntity
  8
0
100
AcDbLine
 10
164.1500148892948
 20
92.94321525659546
 30
0.0
 11
164.0837186345629
 21
92.97586128454602
 31
0.0
1001
ACAD
1000
ASC_BOUNDS
1002
{
1070
    19
1002
}
  0
LWPOLYLINE
  5
6242
330
18
100
AcDbEntity
  8
0
100
AcDbPolyline
 90
        2
 70
     1
 43
0.0
 10
164.1441518520878
 20
92.98871494177111
 42
-1.0
 10
164.1192802079248
 20
92.98871494177111
 42
-1.0
1001
ACAD
1000
ASC_BOUNDS
1002
{
1070
    19
1002
}
  0
LINE
  5
6243
330
18
100
AcDbEntity
  8
0
100
AcDbLine
 10
165.0913526311513
 20
92.22793283927929
 30
0.0
 11
165.0487143109688
 21
92.20231315182015
 31
0.0
1001
ACAD
1000
ASC_BOUNDS
1002
{
1070
    19
1002
}
  0
LINE
  5
6244
330
18
100
AcDbEntity
  8
0
100
AcDbLine
 10
164.7484706979353
 20
92.00368369337244
 30
0.0
 11
164.5337971289349
 21
91.89430204663299
 31
0.0
1001
ACAD
1000
ASC_BOUNDS
1002
{
1070
    19
1002
}
  0
POLYLINE
  5
6245
330
18
100
AcDbEntity
  8
0
100
AcDb2dPolyline
 66
     1
 10
0.0
 20
0.0
 30
0.0
1001
ACAD
1000
ASC_BOUNDS
1002
{
1070
    19
1002
}
  0
VERTEX
  5
6246
330
6245
100
AcDbEntity
  8
0
100
AcDbVertex
100
AcDb2dVertex
 10
164.7874926000278
 20
91.75330454653652
 30
0.0
  0
VERTEX
  5
6247
330
6245
100
AcDbEntity
  8
0
100
AcDbVertex
100
AcDb2dVertex
 10
164.8319089345186
 20
91.94179313711407
 30
0.0
1001
ACAD
1000
ASC_BOUNDS
1002
{
1070
    19
1002
}
  0
SEQEND
  5
6248
330
6245
100
AcDbEntity
  8
0
  0
LINE
  5
6249
330
18
100
AcDbEntity
  8
0
100
AcDbLine
 10
164.2778077100885
 20
93.20280179870223
 30
0.0
 11
164.6833223958789
 21
92.40693441623349
 31
0.0
1001
ACAD
1000
ASC_BOUNDS
1002
{
1070
    19
1002
}
  0
LINE
  5
624A
330
18
100
AcDbEntity
  8
0
100
AcDbLine
 10
164.707094751411
 20
92.36027854152561
 30
0.0
 11
164.8598682852211
 21
92.0604435991069
 31
0.0
1001
ACAD
1000
ASC_BOUNDS
1002
{
1070
    19
1002
}
  0
LWPOLYLINE
  5
624B
330
18
100
AcDbEntity
  8
0
100
AcDbPolyline
 90
        4
 70
     0
 43
0.0
 10
164.9157683999089
 20
92.46205548027299
 10
164.5721745488289
 20
92.29447356187039
 10
164.5495915685031
 20
92.33879515630354
 10
164.8901565032335
 20
92.51232165775411
1001
ACAD
1000
ASC_BOUNDS
1002
{
1070
    19
1005
0
1002
}
  0
LWPOLYLINE
  5
624C
330
18
100
AcDbEntity
  8
0
100
AcDbPolyline
 90
        5
 70
     0
 43
0.0
 10
164.8598682852368
 20
92.06044359917589
 10
164.868823292147
 20
92.04017644020501
 10
164.9791567960759
 20
91.81727200721162
 10
164.9048553184114
 20
91.78049417256874
 10
164.8112675970947
 20
91.98743523992479
1001
ACAD
1000
ASC_BOUNDS
1002
{
1070
    19
1002
}
  0
POLYLINE
  5
624D
330
18
100
AcDbEntity
  8
0
100
AcDb2dPolyline
 66
     1
 10
0.0
 20
0.0
 30
0.0
 70
     1
1001
ACAD
1000
ASC_BOUNDS
1002
{
1070
    19
1002
}
  0
VERTEX
  5
624E
330
624D
100
AcDbEntity
  8
0
100
AcDbVertex
100
AcDb2dVertex
 10
164.5802783284915
 20
92.04620802354543
 30
0.0
1001
ACAD
1000
ASC_BOUNDS
1002
{
1070
    19
1002
}
  0
VERTEX
  5
624F
330
624D
100
AcDbEntity
  8
0
100
AcDbVertex
100
AcDb2dVertex
 10
164.5956518388985
 20
92.12004092664116
 30
0.0
  0
VERTEX
  5
6250
330
624D
100
AcDbEntity
  8
0
100
AcDbVertex
100
AcDb2dVertex
 10
164.6170539030474
 20
92.11430494096463
 30
0.0
  0
VERTEX
  5
6251
330
624D
100
AcDbEntity
  8
0
100
AcDbVertex
100
AcDb2dVertex
 10
164.8598682852368
 20
92.06044359917589
 30
0.0
  0
VERTEX
  5
6252
330
624D
100
AcDbEntity
  8
0
100
AcDbVertex
100
AcDb2dVertex
 10
164.8419145046406
 20
91.97950547177947
 30
0.0
  0
VERTEX
  5
6253
330
624D
100
AcDbEntity
  8
0
100
AcDbVertex
100
AcDb2dVertex
 10
164.6011277721324
 20
92.0418081024246
 30
0.0
  0
SEQEND
  5
6254
330
624D
100
AcDbEntity
  8
0
  0
LWPOLYLINE
  5
6255
330
18
100
AcDbEntity
  8
0
100
AcDbPolyline
 90
        5
 70
     0
 43
0.0
 10
167.024142719761
 20
91.35892278402279
 10
167.0143154620374
 20
91.37878165828968
 10
166.8943998636676
 20
91.59668098735004
 10
166.9670329733544
 20
91.6366528534732
 10
167.0695249190241
 20
91.43397412244175
1001
ACAD
1000
ASC_BOUNDS
1002
{
1070
    19
1002
}
  0
LINE
  5
6256
330
18
100
AcDbEntity
  8
0
100
AcDbLine
 10
167.0407048227771
 20
91.44010860794097
 30
0.0
 11
167.024142719761
 21
91.35892278402279
 31
0.0
1001
ACAD
1000
ASC_BOUNDS
1002
{
1070
    19
1002
}
  0
POLYLINE
  5
6257
330
18
100
AcDbEntity
  8
0
100
AcDb2dPolyline
 66
     1
 10
0.0
 20
0.0
 30
0.0
 70
     1
1001
ACAD
1000
ASC_BOUNDS
1002
{
1070
    19
1002
}
  0
VERTEX
  5
6258
330
6257
100
AcDbEntity
  8
0
100
AcDbVertex
100
AcDb2dVertex
 10
167.302849964196
 20
91.38529450042232
 30
0.0
1001
ACAD
1000
ASC_BOUNDS
1002
{
1070
    19
1002
}
  0
VERTEX
  5
6259
330
6257
100
AcDbEntity
  8
0
100
AcDbVertex
100
AcDb2dVertex
 10
167.2906993863273
 20
91.31086328479856
 30
0.0
  0
VERTEX
  5
625A
330
6257
100
AcDbEntity
  8
0
100
AcDbVertex
100
AcDb2dVertex
 10
167.2690682815154
 20
91.31566382498986
 30
0.0
  0
VERTEX
  5
625B
330
6257
100
AcDbEntity
  8
0
100
AcDbVertex
100
AcDb2dVertex
 10
167.024142719761
 20
91.35892278402279
 30
0.0
  0
VERTEX
  5
625C
330
6257
100
AcDbEntity
  8
0
100
AcDbVertex
100
AcDb2dVertex
 10
167.038562372772
 20
91.44056463794091
 30
0.0
  0
VERTEX
  5
625D
330
6257
100
AcDbEntity
  8
0
100
AcDbVertex
100
AcDb2dVertex
 10
167.2818290165937
 20
91.38878425226222
 30
0.0
  0
SEQEND
  5
625E
330
6257
100
AcDbEntity
  8
0
  0
LINE
  5
625F
330
18
100
AcDbEntity
  8
0
100
AcDbLine
 10
167.0871372738262
 20
91.66771598312051
 30
0.0
 11
167.0480975346313
 21
91.47634696500709
 31
0.0
1001
ACAD
1000
ASC_BOUNDS
1002
{
1070
    19
1002
}
  0
LINE
  5
6260
330
18
100
AcDbEntity
  8
0
100
AcDbLine
 10
167.0480975346313
 20
91.47634696500709
 30
0.0
 11
167.0695249190241
 21
91.43397412244175
 31
0.0
1001
ACAD
1000
ASC_BOUNDS
1002
{
1070
    19
1002
}
  0
LINE
  5
6261
330
18
100
AcDbEntity
  8
0
100
AcDbLine
 10
167.0695249190241
 20
91.43397412244175
 30
0.0
 11
167.1414082903326
 21
91.41867342756738
 31
0.0
  0
LINE
  5
6262
330
18
100
AcDbEntity
  8
0
100
AcDbLine
 10
167.1414082903326
 20
91.41867342756738
 30
0.0
 11
167.3048453271657
 21
91.50194994327595
 31
0.0
1001
ACAD
1000
ASC_BOUNDS
1002
{
1070
    19
1002
}
  0
LINE
  5
6263
330
18
100
AcDbEntity
  8
0
100
AcDbLine
 10
163.4466127264868
 20
94.83411380564218
 30
0.0
 11
163.6283478343558
 21
94.47743857371944
 31
0.0
1001
ACAD
1000
ASC_BOUNDS
1002
{
1070
    19
1002
}
  0
LWPOLYLINE
  5
6264
330
18
100
AcDbEntity
  8
0
100
AcDbPolyline
 90
        4
 70
     0
 43
0.0
 10
163.8370214828537
 20
94.57921551246682
 10
163.4947640301943
 20
94.4122853991252
 10
163.5165700525429
 20
94.36757642773441
 10
163.8565838882159
 20
94.54082213019002
1001
ACAD
1000
ASC_BOUNDS
1002
{
1070
    19
1002
}
  0
LINE
  5
6265
330
18
100
AcDbEntity
  8
0
100
AcDbLine
 10
164.9488269549166
 20
94.83411380564218
 30
0.0
 11
164.5241107493789
 21
94.06647535769687
 31
0.0
1001
ACAD
1000
ASC_BOUNDS
1002
{
1070
    19
1002
}
  0
LINE
  5
6266
330
18
100
AcDbEntity
  8
0
100
AcDbLine
 10
164.8540781142914
 20
94.83411380564218
 30
0.0
 11
164.5376402887935
 21
94.26217932782121
 31
0.0
1001
ACAD
1000
ASC_BOUNDS
1002
{
1070
    19
1002
}
  0
CIRCLE
  5
6267
330
18
100
AcDbEntity
  8
0
100
AcDbCircle
 10
164.4550828636453
 20
93.65788472065894
 30
0.0
 40
0.0124358220815221
1001
ACAD
1000
ASC_BOUNDS
1002
{
1070
    19
1002
}
  0
LWPOLYLINE
  5
6268
330
18
100
AcDbEntity
  8
0
100
AcDbPolyline
 90
        2
 70
     1
 43
0.0
 10
164.4675186857268
 20
93.65788472065894
 42
-1.0
 10
164.4426470415637
 20
93.65788472065894
 42
-1.0
1001
ACAD
1000
ASC_BOUNDS
1002
{
1070
    19
1002
}
  0
LINE
  5
6269
330
18
100
AcDbEntity
  8
0
100
AcDbLine
 10
164.4943751775451
 20
93.63635210786245
 30
0.0
 11
164.4912150729479
 21
93.63635210786245
 31
0.0
  0
LINE
  5
626A
330
18
100
AcDbEntity
  8
0
100
AcDbLine
 10
164.5771796504905
 20
94.83411380564218
 30
0.0
 11
164.4939798886191
 21
93.6306342774329
 31
0.0
1001
ACAD
1000
ASC_BOUNDS
1002
{
1070
    19
1005
0
1002
}
  0
LWPOLYLINE
  5
626B
330
18
100
AcDbEntity
  8
0
100
AcDbPolyline
 90
        3
 70
     0
 43
0.0
 10
164.4940762898948
 20
94.83411380564218
 10
164.4112718169494
 20
93.63635210786245
 10
164.4941772974929
 20
93.63635210786245
1001
ACAD
1000
ASC_BOUNDS
1002
{
1070
    19
1005
0
1002
}
  0
TEXT
  5
626C
330
18
100
AcDbEntity
  8
0
100
AcDbText
 10
176.1805518790195
 20
87.50073331715723
 30
0.0
 40
1.17508861980847
  1
www.PrecisionLadders.com
  7
CAT_BORDER$0$ROMANS
100
AcDbText
  0
LWPOLYLINE
  5
626D
330
18
100
AcDbEntity
  8
0
100
AcDbPolyline
 90
        9
 70
     0
 43
0.0
 10
168.2886595948303
 20
89.25653329492368
 10
168.2888165244934
 20
89.28140444400156
 10
168.2142030772597
 20
89.28187523299079
 10
168.164460779104
 20
89.28218909231691
 10
168.1643038494409
 20
89.25731794323906
 42
0.4142135623730939
 10
168.1725419225792
 20
89.24897525032536
 10
168.2803169019166
 20
89.24829522178539
 42
0.4142135623730989
 10
168.2886595948303
 20
89.25653329492368
 42
-0.4142135623730944
 10
168.2803169019166
 20
89.24829522178539
1001
ACAD
1000
ASC_BOUNDS
1002
{
1070
    19
1002
}
  0
LINE
  5
626E
330
18
100
AcDbEntity
  8
0
100
AcDbLine
 10
168.2504950431032
 20
89.30273275751506
 30
0.0
 11
168.2502005439897
 21
89.28164809952347
 31
0.0
1001
ACAD
1000
ASC_BOUNDS
1002
{
1070
    19
1002
}
  0
LINE
  5
626F
330
18
100
AcDbEntity
  8
0
100
AcDbLine
 10
168.2048979364604
 20
89.30302046189735
 30
0.0
 11
168.2504950431032
 21
89.30273275751506
 31
0.0
1001
ACAD
1000
ASC_BOUNDS
1002
{
1070
    19
1002
}
  0
LINE
  5
6270
330
18
100
AcDbEntity
  8
0
100
AcDbLine
 10
168.2047816646818
 20
89.28459301686256
 30
0.0
 11
168.2048979364604
 21
89.30302046189735
 31
0.0
1001
ACAD
1000
ASC_BOUNDS
1002
{
1070
    19
1002
}
  0
TEXT
  5
6271
330
18
100
AcDbEntity
  8
0
100
AcDbText
 10
208.364013960098
 20
87.34961942465615
 30
0.0
 40
0.7928507812500075
  1
WORK ORDER: ( )
 50
90.0
 41
0.9
  7
CAT_BORDER$0$ROMANS
100
AcDbText
  0
TEXT
  5
6272
330
18
100
AcDbEntity
  8
0
100
AcDbText
 10
209.5560392475456
 20
89.30962449864363
 30
0.0
 40
0.7928507812500075
  1
CHECKED BY:
  7
CAT_BORDER$0$ROMANS
100
AcDbText
  0
TEXT
  5
6273
330
18
100
AcDbEntity
  8
0
100
AcDbText
 10
209.5560392475456
 20
96.70060494036277
 30
0.0
 40
0.7928507812500075
  1
DWG. CHECK
  7
CAT_BORDER$0$ROMANS
100
AcDbText
  0
TEXT
  5
6274
330
18
100
AcDbEntity
  8
0
100
AcDbText
 10
209.5560392475456
 20
93.0051147195032
 30
0.0
 40
0.7928507812500075
  1
BUILT BY:
  7
CAT_BORDER$0$ROMANS
100
AcDbText
  0
TEXT
  5
6275
330
18
100
AcDbEntity
  8
0
100
AcDbText
 10
232.1514567353641
 20
89.30962449864363
 30
0.0
 40
0.7928507812500075
  1
DRAWN BY:
  7
CAT_BORDER$0$ROMANS
100
AcDbText
  0
TEXT
  5
6276
330
18
100
AcDbEntity
  8
0
100
AcDbText
 10
232.1514567353641
 20
93.0051147195032
 30
0.0
 40
0.7928507812500075
  1
PURCHASE ORDER
  7
CAT_BORDER$0$ROMANS
100
AcDbText
  0
TEXT
  5
6277
330
18
100
AcDbEntity
  8
0
100
AcDbText
 10
232.1514567353641
 20
96.70060494036277
 30
0.0
 40
0.7928507812500075
  1
ARCH'T OR ENG'R.
  7
CAT_BORDER$0$ROMANS
100
AcDbText
  0
TEXT
  5
6278
330
18
100
AcDbEntity
  8
0
100
AcDbText
 10
319.0315070536026
 20
92.70430286131386
 30
0.0
 40
0.7928507812500075
  1
SERIAL#
  7
CAT_BORDER$0$ROMANS
100
AcDbText
  0
TEXT
  5
6279
330
18
100
AcDbEntity
  8
0
100
AcDbText
 10
318.931144235365
 20
96.70060494036277
 30
0.0
 40
0.7928507812500075
  1
PRECISION REP
  7
CAT_BORDER$0$ROMANS
100
AcDbText
  0
TEXT
  5
627A
330
18
100
AcDbEntity
  8
0
100
AcDbText
 10
263.7077067353644
 20
89.30962449864363
 30
0.0
 40
0.7928507812500075
  1
DATE
  7
CAT_BORDER$0$ROMANS
100
AcDbText
  0
TEXT
  5
627B
330
18
100
AcDbEntity
  8
0
100
AcDbText
 10
275.5413004853646
 20
89.30962449864363
 30
0.0
 40
0.7928507812500075
  1
MODEL#
  7
CAT_BORDER$0$ROMANS
100
AcDbText
  0
TEXT
  5
627C
330
18
100
AcDbEntity
  8
0
100
AcDbText
 10
263.7077067353644
 20
96.70060494036277
 30
0.0
 40
0.7928507812500075
  1
PROJECT
  7
CAT_BORDER$0$ROMANS
100
AcDbText
  0
TEXT
  5
627D
330
18
100
AcDbEntity
  8
0
100
AcDbText
 10
263.7077067353644
 20
93.0051147195032
 30
0.0
 40
0.7928507812500075
  1
REVISION
  7
CAT_BORDER$0$ROMANS
100
AcDbText
  0
TEXT
  5
627E
330
18
100
AcDbEntity
  8
0
100
AcDbText
 10
275.5413004853646
 20
93.0051147195032
 30
0.0
 40
0.7928507812500075
  1
PURCHASER
  7
CAT_BORDER$0$ROMANS
100
AcDbText
  0
TEXT
  5
627F
330
18
100
AcDbEntity
  8
0
100
AcDbText
 10
311.0420817353649
 20
89.30962449864363
 30
0.0
 40
0.7928507812500075
  1
QTY.
  7
CAT_BORDER$0$ROMANS
100
AcDbText
  0
LINE
  5
6280
330
18
100
AcDbEntity
  8
0
100
AcDbLine
 10
209.2601994037956
 20
90.49298387364364
 30
0.0
 11
318.6353043916149
 21
90.49298387364364
 31
0.0
  0
LINE
  5
6281
330
18
100
AcDbEntity
  8
0
100
AcDbLine
 10
358.0806168916152
 20
86.79749365278409
 30
0.0
 11
358.0806168916152
 21
229.8447930106025
 31
0.0
  0
LINE
  5
6282
330
18
100
AcDbEntity
  8
0
100
AcDbLine
 10
358.0806168916152
 20
229.8447930106025
 30
0.0
 11
160.8540543916134
 21
229.8447930106025
 31
0.0
  0
LINE
  5
6283
330
18
100
AcDbEntity
  8
0
100
AcDbLine
 10
160.8540543916134
 20
229.8447930106025
 30
0.0
 11
160.8540543916134
 21
86.79749365278409
 31
0.0
  0
LINE
  5
6284
330
18
100
AcDbEntity
  8
0
100
AcDbLine
 10
160.8540543916134
 20
86.79749365278409
 30
0.0
 11
358.0806168916152
 21
86.79749365278409
 31
0.0
  0
LINE
  5
6285
330
18
100
AcDbEntity
  8
0
100
AcDbLine
 10
209.2601994037956
 20
86.79749365278409
 30
0.0
 11
209.2601994037956
 21
97.88396431536277
 31
0.0
  0
LINE
  5
6286
330
18
100
AcDbEntity
  8
0
100
AcDbLine
 10
231.8556168916141
 20
86.79749365278409
 30
0.0
 11
231.8556168916141
 21
97.88396431536277
 31
0.0
  0
LINE
  5
6287
330
18
100
AcDbEntity
  8
0
100
AcDbLine
 10
263.4118668916144
 20
86.79749365278409
 30
0.0
 11
263.4118668916144
 21
97.88396431536277
 31
0.0
  0
LINE
  5
6288
330
18
100
AcDbEntity
  8
0
100
AcDbLine
 10
275.2454606416145
 20
86.79749365278409
 30
0.0
 11
275.2454606416145
 21
94.1884740945032
 31
0.0
  0
LINE
  5
6289
330
18
100
AcDbEntity
  8
0
100
AcDbLine
 10
318.6353043916149
 20
86.79749365278409
 30
0.0
 11
318.6353043916149
 21
97.88396431536277
 31
0.0
  0
LINE
  5
628A
330
18
100
AcDbEntity
  8
0
100
AcDbLine
 10
310.7462418916149
 20
86.79749365278409
 30
0.0
 11
310.7462418916149
 21
90.49298387364364
 31
0.0
  0
LINE
  5
628B
330
18
100
AcDbEntity
  8
0
100
AcDbLine
 10
160.8540543916134
 20
97.88396431536277
 30
0.0
 11
358.0806168916152
 21
97.88396431536277
 31
0.0
  0
LINE
  5
628C
330
18
100
AcDbEntity
  8
0
100
AcDbLine
 10
209.2601994037956
 20
94.1884740945032
 30
0.0
 11
358.0806168916152
 21
94.1884740945032
 31
0.0
  0
INSERT
  5
628D
330
18
100
AcDbEntity
  8
0
100
AcDbBlockReference
  2
CAT_BORDER$0$LINETYPE
 10
460.3092944241883
 20
88.75065443076323
 30
0.0
 41
0.7171874999999944
 42
0.7171875000000086
 43
0.7171875000000068
  0
INSERT
  5
628E
330
18
100
AcDbEntity
  8
0
100
AcDbBlockReference
  2
CAT_BORDER$0$LINETYPE
 10
433.176756522084
 20
50.97561287510891
 30
0.0
 41
0.7171874999999944
 42
0.7171875000000086
 43
0.7171875000000068
  0
ENDSEC
  0
SECTION
  2
OBJECTS
  0
DICTIONARY
  5
C
330
0
100
AcDbDictionary
281
     1
  3
ACAD_COLOR
350
4E62
  3
ACAD_GROUP
350
D
  3
ACAD_LAYOUT
350
1E6D
  3
ACAD_MATERIAL
350
4E4D
  3
ACAD_MLINESTYLE
350
E
  3
ACAD_PLOTSETTINGS
350
1E6E
  3
ACAD_PLOTSTYLENAME
350
1E6B
  3
ACAD_TABLESTYLE
350
4E63
  3
ACAD_VISUALSTYLE
350
4E51
  3
AcadDim
350
4FC5
  3
AcDbVariableDictionary
350
2A89
  0
DICTIONARY
  5
62D4
330
8
100
AcDbDictionary
280
     1
281
     1
  0
DICTIONARY
  5
5029
330
2
100
AcDbDictionary
280
     1
281
     1
  3
ACAD_LAYERSTATES
360
502A
  0
DICTIONARY
  5
4F43
330
18
100
AcDbDictionary
280
     1
281
     1
  3
ACAD_SORTENTS
360
4F44
  0
DICTIONARY
  5
4E62
102
{ACAD_REACTORS
330
C
102
}
330
C
100
AcDbDictionary
281
     1
  0
DICTIONARY
  5
D
102
{ACAD_REACTORS
330
C
102
}
330
C
100
AcDbDictionary
281
     1
  0
DICTIONARY
  5
1E6D
102
{ACAD_REACTORS
330
C
102
}
330
C
100
AcDbDictionary
281
     1
  3
Layout1
350
1E70
  3
Model
350
1E6F
  0
DICTIONARY
  5
4E4D
102
{ACAD_REACTORS
330
C
102
}
330
C
100
AcDbDictionary
281
     1
  3
ByBlock
350
4E4F
  3
ByLayer
350
4E4E
  3
Global
350
4E50
  0
DICTIONARY
  5
E
102
{ACAD_REACTORS
330
C
102
}
330
C
100
AcDbDictionary
281
     1
  3
STANDARD
350
1B
  0
DICTIONARY
  5
1E6E
102
{ACAD_REACTORS
330
C
102
}
330
C
100
AcDbDictionary
281
     1
  0
ACDBDICTIONARYWDFLT
  5
1E6B
102
{ACAD_REACTORS
330
C
102
}
330
C
100
AcDbDictionary
281
     1
  3
Normal
350
1E6C
100
AcDbDictionaryWithDefault
340
1E6C
  0
DICTIONARY
  5
4E63
102
{ACAD_REACTORS
330
C
102
}
330
C
100
AcDbDictionary
281
     1
  3
Standard
350
4E64
  0
DICTIONARY
  5
4E51
102
{ACAD_REACTORS
330
C
102
}
330
C
100
AcDbDictionary
281
     1
  3
2dWireframe
350
4E57
  3
3D Hidden
350
4E59
  3
3dWireframe
350
4E58
  3
Basic
350
4E56
  3
Brighten
350
4E5D
  3
ColorChange
350
4E61
  3
Conceptual
350
4E5A
  3
Dim
350
4E5C
  3
Facepattern
350
4E60
  3
Flat
350
4E52
  3
FlatWithEdges
350
4E53
  3
Gouraud
350
4E54
  3
GouraudWithEdges
350
4E55
  3
Linepattern
350
4E5F
  3
Realistic
350
4E5B
  3
Thicken
350
4E5E
  0
XRECORD
  5
4FC5
102
{ACAD_REACTORS
330
C
102
}
330
C
100
AcDbXrecord
280
     1
 90
   990106
  3

 60
     0
 61
     0
 62
     1
 63
     3
 64
     0
 65
     0
 66
     0
 67
     3
 68
     1
 69
     0
 70
     0
 71
     0
 72
     0
 40
0.0
170
     0
  0
DICTIONARY
  5
2A89
102
{ACAD_REACTORS
330
C
102
}
330
C
100
AcDbDictionary
281
     1
  3
CTABLESTYLE
350
4E73
  3
DIMASSOC
350
62EF
  3
INDEXCTL
350
62EE
  3
SORTENTS
350
2A8A
  0
DICTIONARY
  5
502A
102
{ACAD_REACTORS
330
5029
102
}
330
5029
100
AcDbDictionary
281
     1
  0
SORTENTSTABLE
  5
4F44
102
{ACAD_REACTORS
330
4F43
102
}
330
4F43
100
AcDbSortentsTable
330
18
331
46BE
  5
46BE
331
3639
  5
3639
331
3641
  5
3641
331
46E6
  5
46E6
331
44A7
  5
44A7
331
53F0
  5
53F0
331
537A
  5
537A
331
533B
  5
533B
331
5304
  5
5304
331
4F07
  5
4F07
331
52C5
  5
52C5
331
53B1
  5
53B1
331
546C
  5
546C
331
542D
  5
542D
331
54A3
  5
54A3
331
53F8
  5
53F8
331
5382
  5
5382
331
5343
  5
5343
331
5296
  5
5296
331
530C
  5
530C
331
5474
  5
5474
331
5435
  5
5435
331
54AB
  5
54AB
331
5400
  5
5400
331
538A
  5
538A
331
534B
  5
534B
331
5314
  5
5314
331
529E
  5
529E
331
52D5
  5
52D5
331
53C1
  5
53C1
331
547C
  5
547C
331
543D
  5
543D
331
54B3
  5
54B3
331
5353
  5
5353
331
52DD
  5
52DD
331
53C9
  5
53C9
331
5445
  5
5445
331
54BB
  5
54BB
331
6263
  5
6263
331
626B
  5
626B
331
622C
  5
622C
331
6234
  5
6234
331
6273
  5
6273
331
46EE
  5
46EE
331
3EA0
  5
3EA0
331
46F6
  5
46F6
331
34D2
  5
34D2
331
3EA8
  5
3EA8
331
4667
  5
4667
331
466F
  5
466F
331
3EB0
  5
3EB0
331
4A75
  5
4A75
331
5392
  5
5392
331
535B
  5
535B
331
531C
  5
531C
331
52A6
  5
52A6
331
4FB7
  5
4FB7
331
52E5
  5
52E5
331
53D1
  5
53D1
331
5484
  5
5484
331
540E
  5
540E
331
544D
  5
544D
331
5324
  5
5324
331
52AE
  5
52AE
331
52ED
  5
52ED
331
5363
  5
5363
331
539A
  5
539A
331
53D9
  5
53D9
331
5416
  5
5416
331
5455
  5
5455
331
548C
  5
548C
331
532C
  5
532C
331
52B6
  5
52B6
331
4FC7
  5
4FC7
331
52F5
  5
52F5
331
536B
  5
536B
331
53A2
  5
53A2
331
541E
  5
541E
331
545D
  5
545D
331
5494
  5
5494
331
53E9
  5
53E9
331
5334
  5
5334
331
52FD
  5
52FD
331
52BE
  5
52BE
331
53AA
  5
53AA
331
5465
  5
5465
331
549C
  5
549C
331
627B
  5
627B
331
623C
  5
623C
331
6283
  5
6283
331
6244
  5
6244
331
628B
  5
628B
331
624C
  5
624C
331
45D
  5
45D
331
3B61
  5
3B61
331
46BF
  5
46BF
331
4498
  5
4498
331
363A
  5
363A
331
3642
  5
3642
331
46E7
  5
46E7
331
53F1
  5
53F1
331
537B
  5
537B
331
533C
  5
533C
331
527F
  5
527F
331
4F08
  5
4F08
331
5305
  5
5305
331
53B2
  5
53B2
331
546D
  5
546D
331
542E
  5
542E
331
54A4
  5
54A4
331
53F9
  5
53F9
331
5383
  5
5383
331
5344
  5
5344
331
5297
  5
5297
331
530D
  5
530D
331
53BA
  5
53BA
331
5475
  5
5475
331
5436
  5
5436
331
54AC
  5
54AC
331
5401
  5
5401
331
538B
  5
538B
331
534C
  5
534C
331
5315
  5
5315
331
52D6
  5
52D6
331
53C2
  5
53C2
331
547D
  5
547D
331
543E
  5
543E
331
54B4
  5
54B4
331
5354
  5
5354
331
52DE
  5
52DE
331
53CA
  5
53CA
331
5446
  5
5446
331
54BC
  5
54BC
331
621D
  5
621D
331
6264
  5
6264
331
626C
  5
626C
331
622D
  5
622D
331
6235
  5
6235
331
6274
  5
6274
331
C35
  5
C35
331
46EF
  5
46EF
331
3EA1
  5
3EA1
331
3EA9
  5
3EA9
331
3B52
  5
3B52
331
4668
  5
4668
331
4670
  5
4670
331
4A76
  5
4A76
331
5393
  5
5393
331
535C
  5
535C
331
531D
  5
531D
331
52A7
  5
52A7
331
4FB8
  5
4FB8
331
52E6
  5
52E6
331
53D2
  5
53D2
331
5485
  5
5485
331
540F
  5
540F
331
544E
  5
544E
331
5325
  5
5325
331
52AF
  5
52AF
331
52EE
  5
52EE
331
5364
  5
5364
331
539B
  5
539B
331
53DA
  5
53DA
331
5417
  5
5417
331
5456
  5
5456
331
548D
  5
548D
331
532D
  5
532D
331
52B7
  5
52B7
331
52F6
  5
52F6
331
536C
  5
536C
331
53A3
  5
53A3
331
53E2
  5
53E2
331
541F
  5
541F
331
545E
  5
545E
331
5495
  5
5495
331
53EA
  5
53EA
331
5335
  5
5335
331
52FE
  5
52FE
331
52BF
  5
52BF
331
53AB
  5
53AB
331
5466
  5
5466
331
549D
  5
549D
331
627C
  5
627C
331
623D
  5
623D
331
6284
  5
6284
331
6245
  5
6245
331
628C
  5
628C
331
624D
  5
624D
331
6255
  5
6255
331
3513
  5
3513
331
3B62
  5
3B62
331
46C0
  5
46C0
331
4499
  5
4499
331
2F14
  5
2F14
331
363B
  5
363B
331
4AA6
  5
4AA6
331
44B9
  5
44B9
331
53F2
  5
53F2
331
537C
  5
537C
331
533D
  5
533D
331
5306
  5
5306
331
52C7
  5
52C7
331
53B3
  5
53B3
331
546E
  5
546E
331
53FA
  5
53FA
331
5384
  5
5384
331
5345
  5
5345
331
5298
  5
5298
331
530E
  5
530E
331
53BB
  5
53BB
331
542F
  5
542F
331
54A5
  5
54A5
331
5476
  5
5476
331
5402
  5
5402
331
538C
  5
538C
331
534D
  5
534D
331
5316
  5
5316
331
52D7
  5
52D7
331
53C3
  5
53C3
331
5437
  5
5437
331
54AD
  5
54AD
331
547E
  5
547E
331
5355
  5
5355
331
52DF
  5
52DF
331
53CB
  5
53CB
331
543F
  5
543F
331
54B5
  5
54B5
331
54BD
  5
54BD
331
621E
  5
621E
331
6265
  5
6265
331
6226
  5
6226
331
626D
  5
626D
331
622E
  5
622E
331
6275
  5
6275
331
46E8
  5
46E8
331
44E1
  5
44E1
331
46F0
  5
46F0
331
3EA2
  5
3EA2
331
3EAA
  5
3EAA
331
34D4
  5
34D4
331
3B53
  5
3B53
331
4669
  5
4669
331
D4E
  5
D4E
331
4671
  5
4671
331
5394
  5
5394
331
535D
  5
535D
331
531E
  5
531E
331
52E7
  5
52E7
331
52A8
  5
52A8
331
4FB9
  5
4FB9
331
53D3
  5
53D3
331
5408
  5
5408
331
5486
  5
5486
331
544F
  5
544F
331
5326
  5
5326
331
52B0
  5
52B0
331
52EF
  5
52EF
331
5365
  5
5365
331
539C
  5
539C
331
53DB
  5
53DB
331
5410
  5
5410
331
532E
  5
532E
331
52B8
  5
52B8
331
52F7
  5
52F7
331
536D
  5
536D
331
53A4
  5
53A4
331
53E3
  5
53E3
331
5418
  5
5418
331
5457
  5
5457
331
548E
  5
548E
331
53EB
  5
53EB
331
5336
  5
5336
331
52FF
  5
52FF
331
53AC
  5
53AC
331
5420
  5
5420
331
545F
  5
545F
331
5496
  5
5496
331
5467
  5
5467
331
549E
  5
549E
331
627D
  5
627D
331
623E
  5
623E
331
6285
  5
6285
331
628D
  5
628D
331
6256
  5
6256
331
46C1
  5
46C1
331
363C
  5
363C
331
4AA7
  5
4AA7
331
1796
  5
1796
331
52C0
  5
52C0
331
53F3
  5
53F3
331
537D
  5
537D
331
533E
  5
533E
331
5307
  5
5307
331
52C8
  5
52C8
331
53B4
  5
53B4
331
5428
  5
5428
331
546F
  5
546F
331
53FB
  5
53FB
331
5385
  5
5385
331
5346
  5
5346
331
530F
  5
530F
331
5299
  5
5299
331
52D0
  5
52D0
331
53BC
  5
53BC
331
5430
  5
5430
331
54A6
  5
54A6
331
5477
  5
5477
331
5403
  5
5403
331
538D
  5
538D
331
534E
  5
534E
331
5317
  5
5317
331
52D8
  5
52D8
331
53C4
  5
53C4
331
5438
  5
5438
331
54AE
  5
54AE
331
547F
  5
547F
331
5356
  5
5356
331
53CC
  5
53CC
331
5440
  5
5440
331
54B6
  5
54B6
331
54BE
  5
54BE
331
621F
  5
621F
331
6266
  5
6266
331
6227
  5
6227
331
626E
  5
626E
331
622F
  5
622F
331
6276
  5
6276
331
3E0
  5
3E0
331
438
  5
438
331
46E9
  5
46E9
331
46F1
  5
46F1
331
3EA3
  5
3EA3
331
34C5
  5
34C5
331
4662
  5
4662
331
3EAB
  5
3EAB
331
34D5
  5
34D5
331
466A
  5
466A
331
4672
  5
4672
331
52A1
  5
52A1
331
52E0
  5
52E0
331
5395
  5
5395
331
535E
  5
535E
331
52A9
  5
52A9
331
4FBA
  5
4FBA
331
52E8
  5
52E8
331
531F
  5
531F
331
53D4
  5
53D4
331
5409
  5
5409
331
5487
  5
5487
331
5327
  5
5327
331
52B1
  5
52B1
331
52F0
  5
52F0
331
5366
  5
5366
331
539D
  5
539D
331
53DC
  5
53DC
331
5411
  5
5411
331
5450
  5
5450
331
532F
  5
532F
331
52F8
  5
52F8
331
52B9
  5
52B9
331
536E
  5
536E
331
53A5
  5
53A5
331
53E4
  5
53E4
331
5419
  5
5419
331
5458
  5
5458
331
548F
  5
548F
331
5460
  5
5460
331
53EC
  5
53EC
331
5376
  5
5376
331
5337
  5
5337
331
53AD
  5
53AD
331
5421
  5
5421
331
5497
  5
5497
331
549F
  5
549F
331
627E
  5
627E
331
623F
  5
623F
331
6286
  5
6286
331
628E
  5
628E
331
6257
  5
6257
331
4493
  5
4493
331
2C16
  5
2C16
331
4A78
  5
4A78
331
363D
  5
363D
331
3B74
  5
3B74
331
46C2
  5
46C2
331
3B9C
  5
3B9C
331
1CCF
  5
1CCF
331
5300
  5
5300
331
52C1
  5
52C1
331
5468
  5
5468
331
53F4
  5
53F4
331
537E
  5
537E
331
533F
  5
533F
331
5308
  5
5308
331
53B5
  5
53B5
331
5429
  5
5429
331
54A7
  5
54A7
331
5470
  5
5470
331
53FC
  5
53FC
331
5386
  5
5386
331
5347
  5
5347
331
5310
  5
5310
331
529A
  5
529A
331
52D1
  5
52D1
331
53BD
  5
53BD
331
5431
  5
5431
331
5478
  5
5478
331
5404
  5
5404
331
538E
  5
538E
331
534F
  5
534F
331
52D9
  5
52D9
331
53C5
  5
53C5
331
5439
  5
5439
331
54AF
  5
54AF
331
5357
  5
5357
331
53CD
  5
53CD
331
5441
  5
5441
331
54B7
  5
54B7
331
54BF
  5
54BF
331
625F
  5
625F
331
6267
  5
6267
331
6228
  5
6228
331
6230
  5
6230
331
626F
  5
626F
331
3D1
  5
3D1
331
6277
  5
6277
331
3E1
  5
3E1
331
439
  5
439
331
46EA
  5
46EA
331
46F2
  5
46F2
331
3EA4
  5
3EA4
331
34C6
  5
34C6
331
3B4D
  5
3B4D
331
4663
  5
4663
331
3EAC
  5
3EAC
331
466B
  5
466B
331
4673
  5
4673
331
5318
  5
5318
331
52A2
  5
52A2
331
52E1
  5
52E1
331
5480
  5
5480
331
5396
  5
5396
331
535F
  5
535F
331
5320
  5
5320
331
52AA
  5
52AA
331
52E9
  5
52E9
331
53D5
  5
53D5
331
540A
  5
540A
331
5328
  5
5328
331
52B2
  5
52B2
331
52F1
  5
52F1
331
5367
  5
5367
331
539E
  5
539E
331
53DD
  5
53DD
331
5412
  5
5412
331
5488
  5
5488
331
5330
  5
5330
331
52BA
  5
52BA
331
52F9
  5
52F9
331
536F
  5
536F
331
53A6
  5
53A6
331
53E5
  5
53E5
331
541A
  5
541A
331
5459
  5
5459
331
5490
  5
5490
331
5461
  5
5461
331
53AE
  5
53AE
331
5377
  5
5377
331
53ED
  5
53ED
331
5422
  5
5422
331
5498
  5
5498
331
627F
  5
627F
331
6240
  5
6240
331
6287
  5
6287
331
46BB
  5
46BB
331
4494
  5
4494
331
4A79
  5
4A79
331
363E
  5
363E
331
46C3
  5
46C3
331
46E3
  5
46E3
331
44A4
  5
44A4
331
5338
  5
5338
331
5301
  5
5301
331
4F04
  5
4F04
331
52C2
  5
52C2
331
5469
  5
5469
331
53F5
  5
53F5
331
537F
  5
537F
331
5340
  5
5340
331
5309
  5
5309
331
542A
  5
542A
331
54A0
  5
54A0
331
5471
  5
5471
331
53FD
  5
53FD
331
5387
  5
5387
331
5348
  5
5348
331
5311
  5
5311
331
529B
  5
529B
331
52D2
  5
52D2
331
53BE
  5
53BE
331
5432
  5
5432
331
54A8
  5
54A8
331
5479
  5
5479
331
5405
  5
5405
331
538F
  5
538F
331
5350
  5
5350
331
52DA
  5
52DA
331
53C6
  5
53C6
331
543A
  5
543A
331
54B0
  5
54B0
331
53CE
  5
53CE
331
5442
  5
5442
331
54B8
  5
54B8
331
6260
  5
6260
331
6268
  5
6268
331
6229
  5
6229
331
6231
  5
6231
331
6270
  5
6270
331
3D2
  5
3D2
331
3E2
  5
3E2
331
3E9D
  5
3E9D
331
34BF
  5
34BF
331
46EB
  5
46EB
331
46F3
  5
46F3
331
3EA5
  5
3EA5
331
3B4E
  5
3B4E
331
4664
  5
4664
331
3EAD
  5
3EAD
331
466C
  5
466C
331
4674
  5
4674
331
34E7
  5
34E7
331
5358
  5
5358
331
5319
  5
5319
331
52A3
  5
52A3
331
52E2
  5
52E2
331
5481
  5
5481
331
5397
  5
5397
331
5321
  5
5321
331
52AB
  5
52AB
331
52EA
  5
52EA
331
53D6
  5
53D6
331
540B
  5
540B
331
54C0
  5
54C0
331
5329
  5
5329
331
4FC4
  5
4FC4
331
52B3
  5
52B3
331
52F2
  5
52F2
331
5368
  5
5368
331
539F
  5
539F
331
53DE
  5
53DE
331
5413
  5
5413
331
5489
  5
5489
331
5370
  5
5370
331
5331
  5
5331
331
52FA
  5
52FA
331
52BB
  5
52BB
331
53A7
  5
53A7
331
53E6
  5
53E6
331
541B
  5
541B
331
545A
  5
545A
331
5491
  5
5491
331
5462
  5
5462
331
53EE
  5
53EE
331
53AF
  5
53AF
331
5423
  5
5423
331
5499
  5
5499
331
6278
  5
6278
331
6280
  5
6280
331
6241
  5
6241
331
6288
  5
6288
331
6249
  5
6249
331
B8A
  5
B8A
331
46BC
  5
46BC
331
4495
  5
4495
331
4A7A
  5
4A7A
331
46C4
  5
46C4
331
363F
  5
363F
331
46E4
  5
46E4
331
5378
  5
5378
331
5339
  5
5339
331
5302
  5
5302
331
4F05
  5
4F05
331
52C3
  5
52C3
331
546A
  5
546A
331
53F6
  5
53F6
331
5380
  5
5380
331
5341
  5
5341
331
530A
  5
530A
331
542B
  5
542B
331
54A1
  5
54A1
331
5472
  5
5472
331
53FE
  5
53FE
331
5388
  5
5388
331
5349
  5
5349
331
5312
  5
5312
331
529C
  5
529C
331
52D3
  5
52D3
331
53BF
  5
53BF
331
5433
  5
5433
331
54A9
  5
54A9
331
547A
  5
547A
331
5406
  5
5406
331
5351
  5
5351
331
52DB
  5
52DB
331
53C7
  5
53C7
331
543B
  5
543B
331
54B1
  5
54B1
331
53CF
  5
53CF
331
5443
  5
5443
331
54B9
  5
54B9
331
6261
  5
6261
331
6269
  5
6269
331
622A
  5
622A
331
6232
  5
6232
331
6271
  5
6271
331
46EC
  5
46EC
331
34C0
  5
34C0
331
3E9E
  5
3E9E
331
46F4
  5
46F4
331
3EA6
  5
3EA6
331
3B4F
  5
3B4F
331
4665
  5
4665
331
3EAE
  5
3EAE
331
466D
  5
466D
331
4675
  5
4675
331
3B5F
  5
3B5F
331
5390
  5
5390
331
5359
  5
5359
331
531A
  5
531A
331
52A4
  5
52A4
331
52E3
  5
52E3
331
5482
  5
5482
331
53D7
  5
53D7
331
5322
  5
5322
331
52AC
  5
52AC
331
52EB
  5
52EB
331
5398
  5
5398
331
540C
  5
540C
331
532A
  5
532A
331
52B4
  5
52B4
331
52F3
  5
52F3
331
5369
  5
5369
331
53A0
  5
53A0
331
5414
  5
5414
331
5453
  5
5453
331
548A
  5
548A
331
5371
  5
5371
331
5332
  5
5332
331
52FB
  5
52FB
331
52BC
  5
52BC
331
53A8
  5
53A8
331
53E7
  5
53E7
331
541C
  5
541C
331
545B
  5
545B
331
5492
  5
5492
331
549A
  5
549A
331
53EF
  5
53EF
331
5424
  5
5424
331
5463
  5
5463
331
6279
  5
6279
331
6281
  5
6281
331
6242
  5
6242
331
6289
  5
6289
331
624A
  5
624A
331
46BD
  5
46BD
331
4A7B
  5
4A7B
331
3640
  5
3640
331
46E5
  5
46E5
331
44A6
  5
44A6
331
5379
  5
5379
331
533A
  5
533A
331
5303
  5
5303
331
4F06
  5
4F06
331
52C4
  5
52C4
331
53B0
  5
53B0
331
546B
  5
546B
331
53F7
  5
53F7
331
5381
  5
5381
331
5342
  5
5342
331
5295
  5
5295
331
530B
  5
530B
331
542C
  5
542C
331
54A2
  5
54A2
331
5473
  5
5473
331
53FF
  5
53FF
331
5389
  5
5389
331
534A
  5
534A
331
5313
  5
5313
331
52D4
  5
52D4
331
53C0
  5
53C0
331
5434
  5
5434
331
54AA
  5
54AA
331
547B
  5
547B
331
5407
  5
5407
331
5352
  5
5352
331
52DC
  5
52DC
331
53C8
  5
53C8
331
543C
  5
543C
331
54B2
  5
54B2
331
5444
  5
5444
331
54BA
  5
54BA
331
6262
  5
6262
331
626A
  5
626A
331
622B
  5
622B
331
6233
  5
6233
331
6272
  5
6272
331
46ED
  5
46ED
331
34C1
  5
34C1
331
3E9F
  5
3E9F
331
46F5
  5
46F5
331
3EA7
  5
3EA7
331
4666
  5
4666
331
3EAF
  5
3EAF
331
466E
  5
466E
331
5391
  5
5391
331
535A
  5
535A
331
531B
  5
531B
331
52A5
  5
52A5
331
52E4
  5
52E4
331
53D0
  5
53D0
331
5483
  5
5483
331
5323
  5
5323
331
52AD
  5
52AD
331
52EC
  5
52EC
331
5399
  5
5399
331
53D8
  5
53D8
331
540D
  5
540D
331
544C
  5
544C
331
532B
  5
532B
331
52B5
  5
52B5
331
4FC6
  5
4FC6
331
52F4
  5
52F4
331
536A
  5
536A
331
53A1
  5
53A1
331
5415
  5
5415
331
5454
  5
5454
331
548B
  5
548B
331
53E8
  5
53E8
331
5333
  5
5333
331
52FC
  5
52FC
331
52BD
  5
52BD
331
53A9
  5
53A9
331
541D
  5
541D
331
545C
  5
545C
331
5493
  5
5493
331
5464
  5
5464
331
549B
  5
549B
331
627A
  5
627A
331
623B
  5
623B
331
6282
  5
6282
331
6243
  5
6243
331
628A
  5
628A
331
624B
  5
624B
  0
LAYOUT
  5
1E70
102
{ACAD_REACTORS
330
1E6D
102
}
330
1E6D
100
AcDbPlotSettings
  1

  2
HP LaserJet 2100 Series PCL 6
  4

  6

 40
0.0
 41
0.0
 42
0.0
 43
0.0
 44
0.0
 45
0.0
 46
0.0
 47
0.0
 48
0.0
 49
0.0
140
0.0
141
0.0
142
1.0
143
1.0
 70
   688
 72
     0
 73
     0
 74
     5
  7
acad.ctb
 75
    16
147
1.0
 76
     0
 77
     2
 78
   300
148
0.0
149
0.0
100
AcDbLayout
  1
Layout1
 70
     1
 71
     1
 10
0.0
 20
0.0
 11
12.0
 21
9.0
 12
0.0
 22
0.0
 32
0.0
 14
1.000000000000000E+20
 24
1.000000000000000E+20
 34
1.000000000000000E+20
 15
-1.000000000000000E+20
 25
-1.000000000000000E+20
 35
-1.000000000000000E+20
146
0.0
 13
0.0
 23
0.0
 33
0.0
 16
1.0
 26
0.0
 36
0.0
 17
0.0
 27
1.0
 37
0.0
 76
     0
330
15
  0
LAYOUT
  5
1E6F
102
{ACAD_REACTORS
330
1E6D
102
}
330
1E6D
100
AcDbPlotSettings
  1

  2
PDF Pro 10
  4
Letter
  6

 40
3.174999952316284
 41
3.174999952316284
 42
3.175003051757812
 43
3.17498779296875
 44
215.8999938964844
 45
279.3999938964844
 46
5.749444408866234
 47
0.0065921514103341
 48
0.0
 49
0.0
140
0.0
141
0.0
142
1.0
143
18.35
 70
 11940
 72
     0
 73
     3
 74
     1
  7
acad.ctb
 75
     0
147
0.0544985442853711
 76
     0
 77
     2
 78
   300
148
-4085.623952107056
149
-2204.239360329454
100
AcDbLayout
  1
Model
 70
     1
 71
     0
 10
0.0
 20
0.0
 11
12.0
 21
9.0
 12
0.0
 22
0.0
 32
0.0
 14
0.0
 24
0.0
 34
0.0
 15
0.0
 25
0.0
 35
0.0
146
0.0
 13
0.0
 23
0.0
 33
0.0
 16
1.0
 26
0.0
 36
0.0
 17
0.0
 27
1.0
 37
0.0
 76
     0
330
18
331
4E4B
1001
ACAD_PSEXT
1000
PDF Pro 10
1000
Visage PDF
1000
VSP1:
1000

1070
     0
  0
MATERIAL
  5
4E4F
102
{ACAD_REACTORS
330
4E4D
102
}
330
4E4D
100
AcDbMaterial
  1
ByBlock
  0
MATERIAL
  5
4E4E
102
{ACAD_REACTORS
330
4E4D
102
}
330
4E4D
100
AcDbMaterial
  1
ByLayer
  0
MATERIAL
  5
4E50
102
{ACAD_REACTORS
330
4E4D
102
}
330
4E4D
100
AcDbMaterial
  1
Global
  0
MLINESTYLE
  5
1B
102
{ACAD_REACTORS
330
E
102
}
330
E
100
AcDbMlineStyle
  2
STANDARD
 70
     0
  3

 62
     0
 51
90.0
 52
90.0
 71
     2
 49
0.5
 62
   256
  6
BYLAYER
 49
-0.5
 62
   256
  6
BYLAYER
  0
ACDBPLACEHOLDER
  5
1E6C
102
{ACAD_REACTORS
330
1E6B
102
}
330
1E6B
  0
TABLESTYLE
  5
4E64
102
{ACAD_REACTORS
330
4E63
102
}
330
4E63
100
AcDbTableStyle
  3
Standard
 70
     0
 71
     0
 40
0.06
 41
0.06
280
     0
281
     0
  7
STANDARD
140
0.18
170
     2
 62
     0
 63
     7
283
     0
 90
      512
 91
        0
  1

274
    -2
284
     1
 64
     0
275
    -2
285
     1
 65
     0
276
    -2
286
     1
 66
     0
277
    -2
287
     1
 67
     0
278
    -2
288
     1
 68
     0
279
    -2
289
     1
 69
     0
  7
STANDARD
140
0.25
170
     5
 62
     0
 63
     7
283
     0
 90
      512
 91
        0
  1

274
    -2
284
     1
 64
     0
275
    -2
285
     1
 65
     0
276
    -2
286
     1
 66
     0
277
    -2
287
     1
 67
     0
278
    -2
288
     1
 68
     0
279
    -2
289
     1
 69
     0
  7
STANDARD
140
0.18
170
     5
 62
     0
 63
     7
283
     0
 90
      512
 91
        0
  1

274
    -2
284
     1
 64
     0
275
    -2
285
     1
 65
     0
276
    -2
286
     1
 66
     0
277
    -2
287
     1
 67
     0
278
    -2
288
     1
 68
     0
279
    -2
289
     1
 69
     0
  0
VISUALSTYLE
  5
4E57
102
{ACAD_REACTORS
330
4E51
102
}
330
4E51
100
AcDbVisualStyle
  2
2dWireframe
 70
     4
 71
     0
 72
     2
 73
     0
 90
        0
 40
-0.6
 41
-30.0
 62
     5
 63
     7
 74
     1
 91
        4
 64
     7
 65
   257
 75
     1
175
     1
 42
1.0
 92
        0
 66
   257
 43
1.0
 76
     1
 77
     6
 78
     2
 67
     7
 79
     5
170
     0
171
     0
290
     0
174
     0
 93
        1
 44
0.0
173
     0
291
     0
 45
0.0
  0
VISUALSTYLE
  5
4E59
102
{ACAD_REACTORS
330
4E51
102
}
330
4E51
100
AcDbVisualStyle
  2
3D Hidden
 70
     6
 71
     1
 72
     2
 73
     2
 90
        0
 40
-0.6
 41
-30.0
 62
     5
 63
     7
 74
     2
 91
        2
 64
     7
 65
   257
 75
     2
175
     1
 42
40.0
 92
        0
 66
   257
 43
1.0
 76
     1
 77
     6
 78
     2
 67
     7
 79
     3
170
     0
171
     0
290
     0
174
     0
 93
        1
 44
0.0
173
     0
291
     0
 45
0.0
  0
VISUALSTYLE
  5
4E58
102
{ACAD_REACTORS
330
4E51
102
}
330
4E51
100
AcDbVisualStyle
  2
3dWireframe
 70
     5
 71
     0
 72
     2
 73
     0
 90
        0
 40
-0.6
 41
-30.0
 62
     5
 63
     7
 74
     1
 91
        4
 64
     7
 65
   257
 75
     1
175
     1
 42
1.0
 92
        0
 66
   257
 43
1.0
 76
     1
 77
     6
 78
     2
 67
     7
 79
     5
170
     0
171
     0
290
     0
174
     0
 93
        1
 44
0.0
173
     0
291
     0
 45
0.0
  0
VISUALSTYLE
  5
4E56
102
{ACAD_REACTORS
330
4E51
102
}
330
4E51
100
AcDbVisualStyle
  2
Basic
 70
     7
 71
     1
 72
     0
 73
     1
 90
        0
 40
-0.6
 41
-30.0
 62
     5
 63
     7
 74
     0
 91
        4
 64
     7
 65
   257
 75
     1
175
     1
 42
1.0
 92
        8
 66
     7
 43
1.0
 76
     1
 77
     6
 78
     2
 67
     7
 79
     5
170
     0
171
     0
290
     0
174
     0
 93
        1
 44
0.0
173
     0
291
     1
 45
0.0
  0
VISUALSTYLE
  5
4E5D
102
{ACAD_REACTORS
330
4E51
102
}
330
4E51
100
AcDbVisualStyle
  2
Brighten
 70
    12
 71
     2
 72
     2
 73
     0
 90
        0
 40
-0.6
 41
-30.0
 62
     5
 63
     7
 74
     1
 91
        4
 64
     7
 65
   257
 75
     1
175
     1
 42
1.0
 92
        8
 66
     7
 43
1.0
 76
     1
 77
     6
 78
     2
 67
     7
 79
     5
170
     0
171
     0
290
     0
174
     0
 93
        1
 44
50.0
173
     0
291
     1
 45
0.0
  0
VISUALSTYLE
  5
4E61
102
{ACAD_REACTORS
330
4E51
102
}
330
4E51
100
AcDbVisualStyle
  2
ColorChange
 70
    16
 71
     2
 72
     2
 73
     3
 90
        0
 40
-0.6
 41
-30.0
 62
     5
 63
     8
 74
     1
 91
        4
 64
     7
 65
   257
 75
     1
175
     1
 42
1.0
 92
        8
 66
     8
 43
1.0
 76
     1
 77
     6
 78
     2
 67
     7
 79
     5
170
     0
171
     0
290
     0
174
     0
 93
        1
 44
0.0
173
     0
291
     1
 45
0.0
  0
VISUALSTYLE
  5
4E5A
102
{ACAD_REACTORS
330
4E51
102
}
330
4E51
100
AcDbVisualStyle
  2
Conceptual
 70
     9
 71
     3
 72
     2
 73
     0
 90
        0
 40
-0.6
 41
-30.0
 62
     5
 63
     7
 74
     2
 91
        2
 64
     7
 65
   257
 75
     1
175
     1
 42
40.0
 92
        8
 66
     7
 43
1.0
 76
     1
 77
     6
 78
     2
 67
     7
 79
     3
170
     0
171
     0
290
     0
174
     0
 93
        1
 44
0.0
173
     0
291
     0
 45
0.0
  0
VISUALSTYLE
  5
4E5C
102
{ACAD_REACTORS
330
4E51
102
}
330
4E51
100
AcDbVisualStyle
  2
Dim
 70
    11
 71
     2
 72
     2
 73
     0
 90
        0
 40
-0.6
 41
-30.0
 62
     5
 63
     7
 74
     1
 91
        4
 64
     7
 65
   257
 75
     1
175
     1
 42
1.0
 92
        8
 66
     7
 43
1.0
 76
     1
 77
     6
 78
     2
 67
     7
 79
     5
170
     0
171
     0
290
     0
174
     0
 93
        1
 44
-50.0
173
     0
291
     1
 45
0.0
  0
VISUALSTYLE
  5
4E60
102
{ACAD_REACTORS
330
4E51
102
}
330
4E51
100
AcDbVisualStyle
  2
Facepattern
 70
    15
 71
     2
 72
     2
 73
     0
 90
        0
 40
-0.6
 41
-30.0
 62
     5
 63
     7
 74
     1
 91
        4
 64
     7
 65
   257
 75
     1
175
     1
 42
1.0
 92
        8
 66
     7
 43
1.0
 76
     1
 77
     6
 78
     2
 67
     7
 79
     5
170
     0
171
     0
290
     0
174
     0
 93
        1
 44
0.0
173
     0
291
     1
 45
0.0
  0
VISUALSTYLE
  5
4E52
102
{ACAD_REACTORS
330
4E51
102
}
330
4E51
100
AcDbVisualStyle
  2
Flat
 70
     0
 71
     2
 72
     1
 73
     1
 90
        2
 40
-0.6
 41
30.0
 62
     5
 63
     7
 74
     0
 91
        4
 64
     7
 65
   257
 75
     1
175
     1
 42
1.0
 92
        8
 66
     7
 43
1.0
 76
     1
 77
     6
 78
     2
 67
     7
 79
     5
170
     0
171
     0
290
     0
174
     0
 93
       13
 44
0.0
173
     0
291
     1
 45
0.0
  0
VISUALSTYLE
  5
4E53
102
{ACAD_REACTORS
330
4E51
102
}
330
4E51
100
AcDbVisualStyle
  2
FlatWithEdges
 70
     1
 71
     2
 72
     1
 73
     1
 90
        2
 40
-0.6
 41
30.0
 62
     5
 63
     7
 74
     1
 91
        4
 64
     7
 65
   257
 75
     1
175
     1
 42
1.0
 92
        0
 66
   257
 43
1.0
 76
     1
 77
     6
 78
     2
 67
     7
 79
     5
170
     0
171
     0
290
     0
174
     0
 93
       13
 44
0.0
173
     0
291
     1
 45
0.0
  0
VISUALSTYLE
  5
4E54
102
{ACAD_REACTORS
330
4E51
102
}
330
4E51
100
AcDbVisualStyle
  2
Gouraud
 70
     2
 71
     2
 72
     2
 73
     1
 90
        2
 40
-0.6
 41
30.0
 62
     5
 63
     7
 74
     0
 91
        4
 64
     7
 65
   257
 75
     1
175
     1
 42
1.0
 92
        0
 66
     7
 43
1.0
 76
     1
 77
     6
 78
     2
 67
     7
 79
     5
170
     0
171
     0
290
     0
174
     0
 93
       13
 44
0.0
173
     0
291
     1
 45
0.0
  0
VISUALSTYLE
  5
4E55
102
{ACAD_REACTORS
330
4E51
102
}
330
4E51
100
AcDbVisualStyle
  2
GouraudWithEdges
 70
     3
 71
     2
 72
     2
 73
     1
 90
        2
 40
-0.6
 41
30.0
 62
     5
 63
     7
 74
     1
 91
        4
 64
     7
 65
   257
 75
     1
175
     1
 42
1.0
 92
        0
 66
   257
 43
1.0
 76
     1
 77
     6
 78
     2
 67
     7
 79
     5
170
     0
171
     0
290
     0
174
     0
 93
       13
 44
0.0
173
     0
291
     1
 45
0.0
  0
VISUALSTYLE
  5
4E5F
102
{ACAD_REACTORS
330
4E51
102
}
330
4E51
100
AcDbVisualStyle
  2
Linepattern
 70
    14
 71
     2
 72
     2
 73
     0
 90
        0
 40
-0.6
 41
-30.0
 62
     5
 63
     7
 74
     1
 91
        4
 64
     7
 65
   257
 75
     7
175
     7
 42
1.0
 92
        8
 66
     7
 43
1.0
 76
     1
 77
     6
 78
     2
 67
     7
 79
     5
170
     0
171
     0
290
     0
174
     0
 93
        1
 44
0.0
173
     0
291
     1
 45
0.0
  0
VISUALSTYLE
  5
4E5B
102
{ACAD_REACTORS
330
4E51
102
}
330
4E51
100
AcDbVisualStyle
  2
Realistic
 70
     8
 71
     2
 72
     2
 73
     0
 90
        0
 40
-0.6
 41
-30.0
 62
     5
 63
     7
 74
     1
 91
        0
 64
     7
 65
   257
 75
     1
175
     1
 42
1.0
 92
        8
 66
     8
 43
1.0
 76
     1
 77
     6
 78
     2
 67
     7
 79
     5
170
     0
171
     0
290
     0
174
     0
 93
       13
 44
0.0
173
     0
291
     0
 45
0.0
  0
VISUALSTYLE
  5
4E5E
102
{ACAD_REACTORS
330
4E51
102
}
330
4E51
100
AcDbVisualStyle
  2
Thicken
 70
    13
 71
     2
 72
     2
 73
     0
 90
        0
 40
-0.6
 41
-30.0
 62
     5
 63
     7
 74
     1
 91
        4
 64
     7
 65
   257
 75
     1
175
     1
 42
1.0
 92
       12
 66
     7
 43
1.0
 76
     1
 77
     6
 78
     2
 67
     7
 79
     5
170
     0
171
     0
290
     0
174
     0
 93
        1
 44
0.0
173
     0
291
     1
 45
0.0
  0
DICTIONARYVAR
  5
4E73
102
{ACAD_REACTORS
330
2A89
102
}
330
2A89
100
DictionaryVariables
280
     0
  1
STANDARD
  0
DICTIONARYVAR
  5
62EF
102
{ACAD_REACTORS
330
2A89
102
}
330
2A89
100
DictionaryVariables
280
     0
  1
1
  0
DICTIONARYVAR
  5
62EE
102
{ACAD_REACTORS
330
2A89
102
}
330
2A89
100
DictionaryVariables
280
     0
  1
0
  0
DICTIONARYVAR
  5
2A8A
102
{ACAD_REACTORS
330
2A89
102
}
330
2A89
100
DictionaryVariables
280
     0
  1
96
  0
ENDSEC
  0
EOF
