  0
SECTION
  2
HEADER
  9
$ACADVER
  1
AC1015
  9
$ACADMAINTVER
 70
    20
  9
$DWGCODEPAGE
  3
ANSI_1252
  9
$INSBASE
 10
0.0
 20
0.0
 30
0.0
  9
$EXTMIN
 10
436.4336740488942
 20
23.5837315870626
 30
0.0
  9
$EXTMAX
 10
763.9844552988943
 20
261.1544424813197
 30
0.0
  9
$LIMMIN
 10
0.0
 20
0.0
  9
$LIMMAX
 10
12.0
 20
9.0
  9
$ORTHOMODE
 70
     1
  9
$REGENMODE
 70
     1
  9
$FILLMODE
 70
     1
  9
$QTEXTMODE
 70
     0
  9
$MIRRTEXT
 70
     0
  9
$LTSCALE
 40
4.0
  9
$ATTMODE
 70
     1
  9
$TEXTSIZE
 40
2.210999999999999
  9
$TRACEWID
 40
0.05
  9
$TEXTSTYLE
  7
ROMANS
  9
$CLAYER
  8
0
  9
$CELTYPE
  6
BYLAYER
  9
$CECOLOR
 62
   256
  9
$CELTSCALE
 40
1.0
  9
$DISPSILH
 70
     0
  9
$DIMSCALE
 40
30.0
  9
$DIMASZ
 40
0.0625
  9
$DIMEXO
 40
0.0625
  9
$DIMDLI
 40
0.375
  9
$DIMRND
 40
0.0
  9
$DIMDLE
 40
0.0
  9
$DIMEXE
 40
0.0625
  9
$DIMTP
 40
0.0
  9
$DIMTM
 40
0.0
  9
$DIMTXT
 40
0.08203125
  9
$DIMCEN
 40
0.0625
  9
$DIMTSZ
 40
0.0
  9
$DIMTOL
 70
     0
  9
$DIMLIM
 70
     0
  9
$DIMTIH
 70
     1
  9
$DIMTOH
 70
     1
  9
$DIMSE1
 70
     0
  9
$DIMSE2
 70
     0
  9
$DIMTAD
 70
     0
  9
$DIMZIN
 70
     3
  9
$DIMBLK
  1

  9
$DIMASO
 70
     1
  9
$DIMSHO
 70
     1
  9
$DIMPOST
  1

  9
$DIMAPOST
  1

  9
$DIMALT
 70
     0
  9
$DIMALTD
 70
     2
  9
$DIMALTF
 40
25.4
  9
$DIMLFAC
 40
1.0
  9
$DIMTOFL
 70
     0
  9
$DIMTVP
 40
0.0
  9
$DIMTIX
 70
     0
  9
$DIMSOXD
 70
     0
  9
$DIMSAH
 70
     0
  9
$DIMBLK1
  1

  9
$DIMBLK2
  1

  9
$DIMSTYLE
  2
STANDARD
  9
$DIMCLRD
 70
     0
  9
$DIMCLRE
 70
     0
  9
$DIMCLRT
 70
     0
  9
$DIMTFAC
 40
1.0
  9
$DIMGAP
 40
0.0625
  9
$DIMJUST
 70
     0
  9
$DIMSD1
 70
     0
  9
$DIMSD2
 70
     0
  9
$DIMTOLJ
 70
     1
  9
$DIMTZIN
 70
     0
  9
$DIMALTZ
 70
     0
  9
$DIMALTTZ
 70
     0
  9
$DIMUPT
 70
     0
  9
$DIMDEC
 70
     4
  9
$DIMTDEC
 70
     4
  9
$DIMALTU
 70
     2
  9
$DIMALTTD
 70
     2
  9
$DIMTXSTY
  7
ROMANS
  9
$DIMAUNIT
 70
     0
  9
$DIMADEC
 70
     0
  9
$DIMALTRND
 40
0.0
  9
$DIMAZIN
 70
     0
  9
$DIMDSEP
 70
    46
  9
$DIMATFIT
 70
     3
  9
$DIMFRAC
 70
     2
  9
$DIMLDRBLK
  1

  9
$DIMLUNIT
 70
     4
  9
$DIMLWD
 70
    -2
  9
$DIMLWE
 70
    -2
  9
$DIMTMOVE
 70
     2
  9
$LUNITS
 70
     4
  9
$LUPREC
 70
     4
  9
$SKETCHINC
 40
0.1
  9
$FILLETRAD
 40
0.0
  9
$AUNITS
 70
     0
  9
$AUPREC
 70
     0
  9
$MENU
  1
acad
  9
$ELEVATION
 40
0.0
  9
$PELEVATION
 40
0.0
  9
$THICKNESS
 40
0.0
  9
$LIMCHECK
 70
     0
  9
$CHAMFERA
 40
0.0
  9
$CHAMFERB
 40
0.0
  9
$CHAMFERC
 40
0.0
  9
$CHAMFERD
 40
0.0
  9
$SKPOLY
 70
     0
  9
$TDCREATE
 40
2450687.337153472
  9
$TDUCREATE
 40
2450687.503820139
  9
$TDUPDATE
 40
2459472.706369723
  9
$TDUUPDATE
 40
2459472.873036389
  9
$TDINDWG
 40
0.3031703588
  9
$TDUSRTIMER
 40
0.3031703588
  9
$USRTIMER
 70
     1
  9
$ANGBASE
 50
0.0
  9
$ANGDIR
 70
     0
  9
$PDMODE
 70
    33
  9
$PDSIZE
 40
0.0
  9
$PLINEWID
 40
0.0
  9
$SPLFRAME
 70
     0
  9
$SPLINETYPE
 70
     6
  9
$SPLINESEGS
 70
     8
  9
$HANDSEED
  5
1F41
  9
$SURFTAB1
 70
     6
  9
$SURFTAB2
 70
     6
  9
$SURFTYPE
 70
     6
  9
$SURFU
 70
     6
  9
$SURFV
 70
     6
  9
$UCSBASE
  2

  9
$UCSNAME
  2

  9
$UCSORG
 10
0.0
 20
0.0
 30
0.0
  9
$UCSXDIR
 10
1.0
 20
0.0
 30
0.0
  9
$UCSYDIR
 10
0.0
 20
1.0
 30
0.0
  9
$UCSORTHOREF
  2

  9
$UCSORTHOVIEW
 70
     0
  9
$UCSORGTOP
 10
0.0
 20
0.0
 30
0.0
  9
$UCSORGBOTTOM
 10
0.0
 20
0.0
 30
0.0
  9
$UCSORGLEFT
 10
0.0
 20
0.0
 30
0.0
  9
$UCSORGRIGHT
 10
0.0
 20
0.0
 30
0.0
  9
$UCSORGFRONT
 10
0.0
 20
0.0
 30
0.0
  9
$UCSORGBACK
 10
0.0
 20
0.0
 30
0.0
  9
$PUCSBASE
  2

  9
$PUCSNAME
  2

  9
$PUCSORG
 10
0.0
 20
0.0
 30
0.0
  9
$PUCSXDIR
 10
1.0
 20
0.0
 30
0.0
  9
$PUCSYDIR
 10
0.0
 20
1.0
 30
0.0
  9
$PUCSORTHOREF
  2

  9
$PUCSORTHOVIEW
 70
     0
  9
$PUCSORGTOP
 10
0.0
 20
0.0
 30
0.0
  9
$PUCSORGBOTTOM
 10
0.0
 20
0.0
 30
0.0
  9
$PUCSORGLEFT
 10
0.0
 20
0.0
 30
0.0
  9
$PUCSORGRIGHT
 10
0.0
 20
0.0
 30
0.0
  9
$PUCSORGFRONT
 10
0.0
 20
0.0
 30
0.0
  9
$PUCSORGBACK
 10
0.0
 20
0.0
 30
0.0
  9
$USERI1
 70
     0
  9
$USERI2
 70
     0
  9
$USERI3
 70
     0
  9
$USERI4
 70
     0
  9
$USERI5
 70
     0
  9
$USERR1
 40
0.0
  9
$USERR2
 40
0.0
  9
$USERR3
 40
0.0
  9
$USERR4
 40
0.0
  9
$USERR5
 40
0.0
  9
$WORLDVIEW
 70
     1
  9
$SHADEDGE
 70
     3
  9
$SHADEDIF
 70
    70
  9
$TILEMODE
 70
     1
  9
$MAXACTVP
 70
    16
  9
$PINSBASE
 10
0.0
 20
0.0
 30
0.0
  9
$PLIMCHECK
 70
     0
  9
$PEXTMIN
 10
1.000000000000000E+20
 20
1.000000000000000E+20
 30
1.000000000000000E+20
  9
$PEXTMAX
 10
-1.000000000000000E+20
 20
-1.000000000000000E+20
 30
-1.000000000000000E+20
  9
$PLIMMIN
 10
0.0
 20
0.0
  9
$PLIMMAX
 10
12.0
 20
9.0
  9
$UNITMODE
 70
     0
  9
$VISRETAIN
 70
     0
  9
$PLINEGEN
 70
     0
  9
$PSLTSCALE
 70
     1
  9
$TREEDEPTH
 70
  3020
  9
$CMLSTYLE
  2
STANDARD
  9
$CMLJUST
 70
     0
  9
$CMLSCALE
 40
1.0
  9
$PROXYGRAPHICS
 70
     1
  9
$MEASUREMENT
 70
     0
  9
$CELWEIGHT
370
    -1
  9
$ENDCAPS
280
     0
  9
$JOINSTYLE
280
     0
  9
$LWDISPLAY
290
     0
  9
$INSUNITS
 70
     0
  9
$HYPERLINKBASE
  1

  9
$STYLESHEET
  1
acad.ctb
  9
$XEDIT
290
     1
  9
$CEPSNTYPE
380
     0
  9
$PSTYLEMODE
290
     1
  9
$FINGERPRINTGUID
  2
{1B3C157D-504B-11D6-8735-0010B50CF566}
  9
$VERSIONGUID
  2
{309524E8-FEC2-4AE4-8249-B94F606AC76B}
  9
$EXTNAMES
290
     1
  9
$PSVPSCALE
 40
0.0
  9
$OLESTARTUP
290
     0
  0
ENDSEC
  0
SECTION
  2
CLASSES
  0
CLASS
  1
ACDBDICTIONARYWDFLT
  2
AcDbDictionaryWithDefault
  3
ObjectDBX Classes
 90
        0
280
     0
281
     0
  0
CLASS
  1
ACDBPLACEHOLDER
  2
AcDbPlaceHolder
  3
ObjectDBX Classes
 90
        0
280
     0
281
     0
  0
CLASS
  1
LAYOUT
  2
AcDbLayout
  3
ObjectDBX Classes
 90
        0
280
     0
281
     0
  0
CLASS
  1
MATERIAL
  2
AcDbMaterial
  3
ObjectDBX Classes
 90
     1024
280
     0
281
     0
  0
CLASS
  1
VISUALSTYLE
  2
AcDbVisualStyle
  3
ObjectDBX Classes
 90
     4095
280
     0
281
     0
  0
CLASS
  1
TABLESTYLE
  2
AcDbTableStyle
  3
ObjectDBX Classes
 90
     4095
280
     0
281
     0
  0
CLASS
  1
SORTENTSTABLE
  2
AcDbSortentsTable
  3
ObjectDBX Classes
 90
        0
280
     0
281
     0
  0
CLASS
  1
DICTIONARYVAR
  2
AcDbDictionaryVar
  3
ObjectDBX Classes
 90
        0
280
     0
281
     0
  0
CLASS
  1
EXACXREFPANELOBJECT
  2
ExAcXREFPanelObject
  3
EXAC_ESW
 90
     1025
280
     0
281
     0
  0
CLASS
  1
NPOCOLLECTION
  2
AcDbImpNonPersistentObjectsCollection
  3
ObjectDBX Classes
 90
     1153
280
     0
281
     0
  0
CLASS
  1
EXACTERMXREFMAP
  2
ExAcTermXrefMap
  3
EXAC_SERVICE
 90
    33793
280
     0
281
     0
  0
CLASS
  1
ACAD_EVALUATION_GRAPH
  2
AcDbEvalGraph
  3
ObjectDBX Classes
 90
     1153
280
     0
281
     0
  0
CLASS
  1
ACAECUSTOBJ
  2
AcAeEditorObj
  3
AcAeEditorObj
 90
    33792
280
     0
281
     0
  0
CLASS
  1
ACDB_DYNAMICBLOCKPURGEPREVENTER_VERSION
  2
AcDbDynamicBlockPurgePreventer
  3
ObjectDBX Classes
 90
     1153
280
     0
281
     0
  0
ENDSEC
  0
SECTION
  2
TABLES
  0
TABLE
  2
VPORT
  5
46E
102
{ACAD_XDICTIONARY
360
1D61
102
}
330
0
100
AcDbSymbolTable
 70
     1
  0
VPORT
  5
16DE
330
46E
100
AcDbSymbolTableRecord
100
AcDbViewportTableRecord
  2
*Active
 70
     0
 10
0.0
 20
0.0
 11
1.0
 21
1.0
 12
562.7541316274703
 22
138.59347675044
 13
0.0
 23
0.0
 14
1.0
 24
1.0
 15
0.0
 25
0.0
 16
0.0
 26
0.0
 36
1.0
 17
0.0
 27
0.0
 37
0.0
 40
257.7995375931722
 41
2.153388822829964
 42
50.0
 43
0.0
 44
0.0
 50
0.0
 51
0.0
 71
     0
 72
   100
 73
     1
 74
     0
 75
     0
 76
     0
 77
     0
 78
     2
281
     0
 65
     1
110
0.0
120
0.0
130
0.0
111
1.0
121
0.0
131
0.0
112
0.0
122
1.0
132
0.0
 79
     0
146
0.0
  0
ENDTAB
  0
TABLE
  2
LTYPE
  5
46B
330
0
100
AcDbSymbolTable
 70
     2
  0
LTYPE
  5
478
330
46B
100
AcDbSymbolTableRecord
100
AcDbLinetypeTableRecord
  2
BYBLOCK
 70
     0
  3

 72
    65
 73
     0
 40
0.0
  0
LTYPE
  5
479
330
46B
100
AcDbSymbolTableRecord
100
AcDbLinetypeTableRecord
  2
BYLAYER
 70
     0
  3

 72
    65
 73
     0
 40
0.0
  0
LTYPE
  5
47A
330
46B
100
AcDbSymbolTableRecord
100
AcDbLinetypeTableRecord
  2
CONTINUOUS
 70
     0
  3
Solid line
 72
    65
 73
     0
 40
0.0
  0
LTYPE
  5
11F3
330
46B
100
AcDbSymbolTableRecord
100
AcDbLinetypeTableRecord
  2
HIDDEN
 70
     0
  3
Hidden __ __ __ __ __ __ __ __ __ __ __ __ __ _
 72
    65
 73
     2
 40
0.375
 49
0.25
 74
     0
 49
-0.125
 74
     0
  0
ENDTAB
  0
TABLE
  2
LAYER
  5
468
330
0
100
AcDbSymbolTable
 70
     2
  0
LAYER
  5
475
330
468
100
AcDbSymbolTableRecord
100
AcDbLayerTableRecord
  2
0
 70
     0
 62
     7
  6
CONTINUOUS
370
    -3
390
DD2
  0
LAYER
  5
4A5
330
468
100
AcDbSymbolTableRecord
100
AcDbLayerTableRecord
  2
DEFPOINTS
 70
     0
 62
     7
  6
CONTINUOUS
290
     0
370
    -3
390
DD2
  0
ENDTAB
  0
TABLE
  2
STYLE
  5
469
330
0
100
AcDbSymbolTable
 70
     6
  0
STYLE
  5
476
330
469
100
AcDbSymbolTableRecord
100
AcDbTextStyleTableRecord
  2
STANDARD
 70
     0
 40
0.0
 41
1.0
 50
0.0
 71
     0
 42
0.2
  3
txt
  4

  0
STYLE
  5
499
330
469
100
AcDbSymbolTableRecord
100
AcDbTextStyleTableRecord
  2
ROMANS
 70
     0
 40
0.0
 41
1.0
 50
0.0
 71
     0
 42
2.210999999999999
  3
romans
  4

  0
STYLE
  5
49A
330
469
100
AcDbSymbolTableRecord
100
AcDbTextStyleTableRecord
  2
ROMANC
 70
     0
 40
1.914299999999999
 41
1.0
 50
0.0
 71
     0
 42
2.210999999999999
  3
romanc
  4

  0
STYLE
  5
CFE
330
469
100
AcDbSymbolTableRecord
100
AcDbTextStyleTableRecord
  2
STYLE1
 70
     0
 40
0.0
 41
1.0
 50
0.0
 71
     0
 42
3.0954
  3
C:\Program Files\AutoCAD LT\romanc.shx
  4

  0
STYLE
  5
1A18
330
469
100
AcDbSymbolTableRecord
100
AcDbTextStyleTableRecord
  2
CAT_BORDER$0$ROMANS
 70
     0
 40
0.0
 41
1.0
 50
0.0
 71
     0
 42
1.768799999999999
  3
romans
  4

  0
STYLE
  5
1A19
330
469
100
AcDbSymbolTableRecord
100
AcDbTextStyleTableRecord
  2
CAT_BORDER$0$STYLE1
 70
     0
 40
0.0
 41
1.0
 50
0.0
 71
     0
 42
3.0954
  3
C:\Program Files\AutoCAD LT\romanc.shx
  4

  0
ENDTAB
  0
TABLE
  2
VIEW
  5
46C
330
0
100
AcDbSymbolTable
 70
     0
  0
ENDTAB
  0
TABLE
  2
UCS
  5
46D
330
0
100
AcDbSymbolTable
 70
     0
  0
ENDTAB
  0
TABLE
  2
APPID
  5
46F
330
0
100
AcDbSymbolTable
 70
     6
  0
APPID
  5
477
330
46F
100
AcDbSymbolTableRecord
100
AcDbRegAppTableRecord
  2
ACAD
 70
     0
  0
APPID
  5
1747
330
46F
100
AcDbSymbolTableRecord
100
AcDbRegAppTableRecord
  2
ACAD_PSEXT
 70
     0
  0
APPID
  5
1D87
330
46F
100
AcDbSymbolTableRecord
100
AcDbRegAppTableRecord
  2
ACAUTHENVIRON
 70
     0
  0
APPID
  5
1D8A
330
46F
100
AcDbSymbolTableRecord
100
AcDbRegAppTableRecord
  2
AcDbDynamicBlockTrueName
 70
     0
  0
APPID
  5
1D8B
330
46F
100
AcDbSymbolTableRecord
100
AcDbRegAppTableRecord
  2
AcDbDynamicBlockGUID
 70
     0
  0
APPID
  5
1D8D
330
46F
100
AcDbSymbolTableRecord
100
AcDbRegAppTableRecord
  2
AcDbBlockRepETag
 70
     0
  0
ENDTAB
  0
TABLE
  2
DIMSTYLE
  5
470
330
0
100
AcDbSymbolTable
 70
     2
100
AcDbDimStyleTable
 71
     2
340
4A3
340
104F
  0
DIMSTYLE
105
4A3
102
{ACAD_REACTORS
330
11C7
102
}
330
470
100
AcDbSymbolTableRecord
100
AcDbDimStyleTableRecord
  2
STANDARD
 70
     0
 40
28.0
 41
0.0625
 43
0.375
 44
0.0625
 78
     3
140
0.08203125
141
0.0625
147
0.0625
276
     2
277
     4
279
     2
340
499
  0
DIMSTYLE
105
104F
102
{ACAD_REACTORS
330
303
330
338
330
31E
330
1065
330
38A
330
1076
330
1071
330
1081
330
1085
330
1066
330
362
330
305
330
1060
330
1D1B
330
1EE5
330
1EF3
102
}
330
470
100
AcDbSymbolTableRecord
100
AcDbDimStyleTableRecord
  2
STANDARD$0
 70
     0
 40
24.0
 41
0.0625
 43
0.375
 44
0.0625
 78
     3
140
0.0804
141
0.0625
147
0.0625
276
     2
277
     4
279
     2
284
     3
340
499
  0
ENDTAB
  0
TABLE
  2
BLOCK_RECORD
  5
467
330
0
100
AcDbSymbolTable
 70
    21
  0
BLOCK_RECORD
  5
47E
102
{ACAD_XDICTIONARY
360
1713
102
}
330
467
100
AcDbSymbolTableRecord
100
AcDbBlockTableRecord
  2
*MODEL_SPACE
340
DD5
  0
BLOCK_RECORD
  5
47B
330
467
100
AcDbSymbolTableRecord
100
AcDbBlockTableRecord
  2
*PAPER_SPACE
340
DD6
  0
BLOCK_RECORD
  5
495
330
467
100
AcDbSymbolTableRecord
100
AcDbBlockTableRecord
  2
LINETYPE
340
0
102
{BLKREFS
331
386
102
}
  0
BLOCK_RECORD
  5
DE9
330
467
100
AcDbSymbolTableRecord
100
AcDbBlockTableRecord
  2
Border-t
340
0
102
{BLKREFS
331
1D0B
102
}
  0
BLOCK_RECORD
  5
1086
330
467
100
AcDbSymbolTableRecord
100
AcDbBlockTableRecord
  2
*D2
340
0
  0
BLOCK_RECORD
  5
1093
330
467
100
AcDbSymbolTableRecord
100
AcDbBlockTableRecord
  2
*D3
340
0
  0
BLOCK_RECORD
  5
10A0
330
467
100
AcDbSymbolTableRecord
100
AcDbBlockTableRecord
  2
*D4
340
0
  0
BLOCK_RECORD
  5
10AD
330
467
100
AcDbSymbolTableRecord
100
AcDbBlockTableRecord
  2
*D5
340
0
  0
BLOCK_RECORD
  5
10BA
330
467
100
AcDbSymbolTableRecord
100
AcDbBlockTableRecord
  2
*D6
340
0
  0
BLOCK_RECORD
  5
10C7
330
467
100
AcDbSymbolTableRecord
100
AcDbBlockTableRecord
  2
*D7
340
0
  0
BLOCK_RECORD
  5
10D4
330
467
100
AcDbSymbolTableRecord
100
AcDbBlockTableRecord
  2
*D8
340
0
  0
BLOCK_RECORD
  5
11F4
330
467
100
AcDbSymbolTableRecord
100
AcDbBlockTableRecord
  2
Ldr-trd
340
0
102
{BLKREFS
331
11F8
331
11F9
331
11FA
331
11FB
331
11FC
331
11FD
331
11FE
331
11FF
331
1200
331
1201
331
1202
102
}
  0
BLOCK_RECORD
  5
13B9
330
467
100
AcDbSymbolTableRecord
100
AcDbBlockTableRecord
  2
*D10
340
0
  0
BLOCK_RECORD
  5
13FA
330
467
100
AcDbSymbolTableRecord
100
AcDbBlockTableRecord
  2
*D11
340
0
  0
BLOCK_RECORD
  5
141B
330
467
100
AcDbSymbolTableRecord
100
AcDbBlockTableRecord
  2
*D12
340
0
  0
BLOCK_RECORD
  5
1441
330
467
100
AcDbSymbolTableRecord
100
AcDbBlockTableRecord
  2
*D13
340
0
  0
BLOCK_RECORD
  5
14A7
330
467
100
AcDbSymbolTableRecord
100
AcDbBlockTableRecord
  2
*D14
340
0
  0
BLOCK_RECORD
  5
14B4
330
467
100
AcDbSymbolTableRecord
100
AcDbBlockTableRecord
  2
*D15
340
0
  0
BLOCK_RECORD
  5
1715
102
{ACAD_XDICTIONARY
360
1D85
102
}
330
467
100
AcDbSymbolTableRecord
100
AcDbBlockTableRecord
  2
*U16
340
0
1001
ACAUTHENVIRON
1005
1D7C
1001
AcDbDynamicBlockTrueName
1000
A$C752B6804
1001
AcDbDynamicBlockGUID
1000
{48F1D7B8-20EA-4702-93A2-BE2A63882020}
1001
AcDbBlockRepETag
1070
     1
1071
        6
  0
BLOCK_RECORD
  5
17CB
330
467
100
AcDbSymbolTableRecord
100
AcDbBlockTableRecord
  2
*X17
340
0
102
{BLKREFS
331
1AA3
102
}
  0
BLOCK_RECORD
  5
1D1C
330
467
100
AcDbSymbolTableRecord
100
AcDbBlockTableRecord
  2
*D18
340
0
  0
BLOCK_RECORD
  5
1EE6
330
467
100
AcDbSymbolTableRecord
100
AcDbBlockTableRecord
  2
*D19
340
0
  0
BLOCK_RECORD
  5
1EF4
330
467
100
AcDbSymbolTableRecord
100
AcDbBlockTableRecord
  2
*D20
340
0
  0
ENDTAB
  0
ENDSEC
  0
SECTION
  2
BLOCKS
  0
BLOCK
  5
4A8
330
47E
100
AcDbEntity
  8
0
100
AcDbBlockBegin
  2
*MODEL_SPACE
 70
     0
 10
0.0
 20
0.0
 30
0.0
  3
*MODEL_SPACE
  1

  0
ENDBLK
  5
4A9
330
47E
100
AcDbEntity
  8
0
100
AcDbBlockEnd
  0
BLOCK
  5
4A6
330
47B
100
AcDbEntity
 67
     1
  8
0
100
AcDbBlockBegin
  2
*PAPER_SPACE
 70
     0
 10
0.0
 20
0.0
 30
0.0
  3
*PAPER_SPACE
  1

  0
ENDBLK
  5
4A7
330
47B
100
AcDbEntity
 67
     1
  8
0
100
AcDbBlockEnd
  0
BLOCK
  5
1C9
330
495
100
AcDbEntity
  8
0
100
AcDbBlockBegin
  2
LINETYPE
 70
     0
 10
0.0
 20
0.0
 30
0.0
  3
LINETYPE
  1

  0
ENDBLK
  5
1CA
330
495
100
AcDbEntity
  8
0
100
AcDbBlockEnd
  0
BLOCK
  5
DF8
330
DE9
100
AcDbEntity
  8
0
100
AcDbBlockBegin
  2
Border-t
 70
     2
 10
0.0
 20
0.0
 30
0.0
  3
Border-t
  1

  0
ATTDEF
  5
DEA
330
DE9
100
AcDbEntity
  8
0
 62
     5
100
AcDbText
 10
1.270598029493498
 20
16.95296065185261
 30
0.0
 40
2.25
  1

  7
ROMANS
100
AcDbAttributeDefinition
  3
SCALE
  2
SCALE
 70
     0
  0
ATTDEF
  5
DEB
330
DE9
100
AcDbEntity
  8
0
100
AcDbText
 10
267.5431072019895
 20
17.84606723821125
 30
0.0
 40
1.7518359375
  1

  7
ROMANS
 72
     4
 11
267.5431072019895
 21
17.84606723821125
 31
0.0
100
AcDbAttributeDefinition
  3
SAVED AS
  2
SAVEDAS
 70
     0
  0
ATTDEF
  5
DEC
330
DE9
100
AcDbEntity
  8
0
 62
     5
100
AcDbText
 10
65.77232295450201
 20
13.4910955979239
 30
0.0
 40
1.248161764705882
  1

 50
90.0
  7
ROMANS
 72
     4
 11
65.77232295450201
 21
13.4910955979239
 31
0.0
100
AcDbAttributeDefinition
  3
WORK ORDER (X)
  2
X
 70
     0
  0
ATTDEF
  5
DED
330
DE9
100
AcDbEntity
  8
0
100
AcDbText
 10
120.7768196578975
 20
11.16830391662092
 30
0.0
 40
1.769029714285714
  1

  7
ROMANS
 72
     1
 11
120.7768196578975
 21
11.16830391662092
 31
0.0
100
AcDbAttributeDefinition
  3
ARCHITECT OR ENGINEER
  2
ARCHORENG
 70
     0
  0
ATTDEF
  5
DEE
330
DE9
100
AcDbEntity
  8
0
100
AcDbText
 10
120.7768196578975
 20
6.014881478758579
 30
0.0
 40
1.769029714285714
  1

  7
ROMANS
 72
     1
 11
120.7768196578975
 21
6.014881478758579
 31
0.0
100
AcDbAttributeDefinition
  3
PURCHASE ORDER
  2
PURCHASEORDER
 70
     0
  0
ATTDEF
  5
DEF
330
DE9
100
AcDbEntity
  8
0
100
AcDbText
 10
118.4602331272852
 20
0.8614590408961362
 30
0.0
 40
1.769029714285714
  1
JEB
  7
ROMANS
 72
     1
 11
120.7768196578975
 21
0.8614590408961362
 31
0.0
100
AcDbAttributeDefinition
  3
WHO ARE YOU?
  2
DRAWNBY
 70
     0
  0
ATTDEF
  5
DF0
330
DE9
100
AcDbEntity
  8
0
100
AcDbText
 10
151.0307482293261
 20
6.014881478758579
 30
0.0
 40
1.769029714285714
  1

  7
ROMANS
 72
     1
 11
151.0307482293261
 21
6.014881478758579
 31
0.0
100
AcDbAttributeDefinition
  3
REVISION DATE or NO.
  2
REV
 70
     0
  0
ATTDEF
  5
DF1
330
DE9
100
AcDbEntity
  8
0
100
AcDbText
 10
151.0307482293261
 20
0.8614590408961362
 30
0.0
 40
1.769029714285714
  1

  7
ROMANS
 72
     1
 11
151.0307482293261
 21
0.8614590408961362
 31
0.0
100
AcDbAttributeDefinition
  3
TODAY'S DATE
  2
DATE
 70
     0
  0
ATTDEF
  5
DF2
330
DE9
100
AcDbEntity
  8
0
100
AcDbText
 10
181.2846768007546
 20
11.16830391662092
 30
0.0
 40
1.769029714285714
  1

  7
ROMANS
 72
     1
 11
181.2846768007546
 21
11.16830391662092
 31
0.0
100
AcDbAttributeDefinition
  3
PROJECT
  2
PROJECT
 70
     0
  0
ATTDEF
  5
DF3
330
DE9
100
AcDbEntity
  8
0
100
AcDbText
 10
189.535748229326
 20
6.014881478758579
 30
0.0
 40
1.769029714285714
  1

  7
ROMANS
 72
     1
 11
189.535748229326
 21
6.014881478758579
 31
0.0
100
AcDbAttributeDefinition
  3
PURCHASER
  2
PURCHASER
 70
     0
  0
ATTDEF
  5
DF4
330
DE9
100
AcDbEntity
  8
0
100
AcDbText
 10
184.0350339436118
 20
0.8614590408962374
 30
0.0
 40
1.769029714285714
  1

  7
ROMANS
 72
     1
 11
184.0350339436118
 21
0.8614590408962374
 31
0.0
100
AcDbAttributeDefinition
  3
MODEL #
  2
MODEL
 70
     0
  0
ATTDEF
  5
DF5
330
DE9
100
AcDbEntity
  8
0
100
AcDbText
 10
213.5729266783056
 20
0.8614590408961362
 30
0.0
 40
1.769029714285714
  1
1
  7
ROMANS
 72
     1
 11
214.2889625150403
 21
0.8614590408961362
 31
0.0
100
AcDbAttributeDefinition
  3
QUANTITY
  2
QTY
 70
     0
  0
ATTDEF
  5
DF6
330
DE9
100
AcDbEntity
  8
0
100
AcDbText
 10
247.2932482293261
 20
11.16763472788734
 30
0.0
 40
1.769029714285714
  1

  7
ROMANS
 72
     1
 11
247.2932482293261
 21
11.16763472788734
 31
0.0
100
AcDbAttributeDefinition
  3
PRECISION REP
  2
REP
 70
     0
  0
ATTDEF
  5
DF7
330
DE9
100
AcDbEntity
  8
0
100
AcDbText
 10
247.3274175489777
 20
3.153238685427304
 30
0.0
 40
3.455136160714285
  1

  7
ROMANS
 72
     1
 11
247.3274175489777
 21
3.153238685427304
 31
0.0
100
AcDbAttributeDefinition
  3
SERIAL #
  2
L010000
 70
     0
  0
ENDBLK
  5
DF9
330
DE9
100
AcDbEntity
  8
0
100
AcDbBlockEnd
  0
BLOCK
  5
1091
330
1086
100
AcDbEntity
  8
0
100
AcDbBlockBegin
  2
*D2
 70
     1
 10
0.0
 20
0.0
 30
0.0
  3
*D2
  1

  0
LINE
  5
1DE9
330
1086
100
AcDbEntity
  8
0
 62
     0
370
    -2
100
AcDbLine
 10
740.6320703529757
 20
207.0358017053767
 30
0.0
 11
749.0164339693754
 21
207.0358017053767
 31
0.0
  0
LINE
  5
1DEA
330
1086
100
AcDbEntity
  8
0
 62
     0
370
    -2
100
AcDbLine
 10
740.6320703529757
 20
225.7389267053766
 30
0.0
 11
749.0164339693754
 21
225.7389267053766
 31
0.0
  0
LINE
  5
1DEB
330
1086
100
AcDbEntity
  8
0
 62
     0
370
    -2
100
AcDbLine
 10
747.1414339693754
 20
208.9108017053767
 30
0.0
 11
747.1414339693754
 21
213.0766499196624
 31
0.0
  0
LINE
  5
1DEC
330
1086
100
AcDbEntity
  8
0
 62
     0
370
    -2
100
AcDbLine
 10
747.1414339693754
 20
223.8639267053767
 30
0.0
 11
747.1414339693754
 21
219.6980784910909
 31
0.0
  0
SOLID
  5
1DED
330
1086
100
AcDbEntity
  8
0
 62
     0
100
AcDbTrace
 10
746.8289339693754
 20
208.9108017053767
 30
0.0
 11
747.4539339693754
 21
208.9108017053767
 31
0.0
 12
747.1414339693754
 22
207.0358017053767
 32
0.0
 13
747.1414339693754
 23
207.0358017053767
 33
0.0
  0
SOLID
  5
1DEE
330
1086
100
AcDbEntity
  8
0
 62
     0
100
AcDbTrace
 10
746.8289339693754
 20
223.8639267053767
 30
0.0
 11
747.4539339693754
 21
223.8639267053767
 31
0.0
 12
747.1414339693754
 22
225.7389267053766
 32
0.0
 13
747.1414339693754
 23
225.7389267053766
 33
0.0
  0
MTEXT
  5
1DEF
330
1086
100
AcDbEntity
  8
0
 62
     0
100
AcDbMText
 10
747.1414339693754
 20
216.3873642053768
 30
0.0
 40
2.411999999999999
 41
0.0
 71
     5
 72
     1
  1
\A1;7"
  7
ROMANS
 73
     1
 44
1.0
1001
ACAD
1000
MTEXTBEGIN
1070
    73
1070
     1
1070
    44
1040
1.0
1070
    74
1070
     0
1000
MTEXTEND
  0
POINT
  5
1DF0
330
1086
100
AcDbEntity
  8
DEFPOINTS
 62
     0
100
AcDbPoint
 10
738.7570703529757
 20
207.0358017053767
 30
0.0
  0
POINT
  5
1DF1
330
1086
100
AcDbEntity
  8
DEFPOINTS
 62
     0
100
AcDbPoint
 10
738.7570703529757
 20
225.7389267053766
 30
0.0
  0
POINT
  5
1DF2
330
1086
100
AcDbEntity
  8
DEFPOINTS
 62
     0
100
AcDbPoint
 10
747.1414339693754
 20
225.7389267053766
 30
0.0
  0
ENDBLK
  5
1092
330
1086
100
AcDbEntity
  8
0
100
AcDbBlockEnd
  0
BLOCK
  5
109E
330
1093
100
AcDbEntity
  8
0
100
AcDbBlockBegin
  2
*D3
 70
     1
 10
0.0
 20
0.0
 30
0.0
  3
*D3
  1

  0
LINE
  5
1DF3
330
1093
100
AcDbEntity
  8
0
 62
     0
370
    -2
100
AcDbLine
 10
704.8974529613888
 20
129.9453231592816
 30
0.0
 11
710.6224038984432
 21
133.2506251238872
 31
0.0
  0
LINE
  5
1DF4
330
1093
100
AcDbEntity
  8
0
 62
     0
370
    -2
100
AcDbLine
 10
733.3347905159939
 20
113.5270186670942
 30
0.0
 11
739.0597414530484
 21
116.8323206316997
 31
0.0
  0
LINE
  5
1DF5
330
1093
100
AcDbEntity
  8
0
 62
     0
370
    -2
100
AcDbLine
 10
710.3712015305391
 20
131.2305933691567
 30
0.0
 11
716.5354628989021
 21
127.6716554087772
 31
0.0
  0
LINE
  5
1DF6
330
1093
100
AcDbEntity
  8
0
 62
     0
370
    -2
100
AcDbLine
 10
735.5609438209526
 20
116.6872888769692
 30
0.0
 11
729.39668245259
 21
120.2462268373486
 31
0.0
  0
SOLID
  5
1DF7
330
1093
100
AcDbEntity
  8
0
 62
     0
100
AcDbTrace
 10
710.527451530539
 20
131.5012263078393
 30
0.0
 11
710.2149515305391
 21
130.959960430474
 31
0.0
 12
708.7474038984432
 22
132.1680933691567
 32
0.0
 13
708.7474038984432
 23
132.1680933691567
 33
0.0
  0
SOLID
  5
1DF8
330
1093
100
AcDbEntity
  8
0
 62
     0
100
AcDbTrace
 10
735.7171938209526
 20
116.9579218156519
 30
0.0
 11
735.4046938209526
 21
116.4166559382866
 31
0.0
 12
737.1847414530484
 22
115.7497888769692
 32
0.0
 13
737.1847414530484
 23
115.7497888769692
 33
0.0
  0
MTEXT
  5
1DF9
330
1093
100
AcDbEntity
  8
0
 62
     0
100
AcDbMText
 10
722.9660726757458
 20
123.958941123063
 30
0.0
 40
2.411999999999999
 41
0.0
 71
     5
 72
     1
  1
\A1;8-1/2"
  7
ROMANS
 73
     1
 44
1.0
1001
ACAD
1000
MTEXTBEGIN
1070
    73
1070
     1
1070
    44
1040
1.0
1070
    74
1070
     0
1000
MTEXTEND
  0
POINT
  5
1DFA
330
1093
100
AcDbEntity
  8
DEFPOINTS
 62
     0
100
AcDbPoint
 10
703.0224529613888
 20
128.862791404551
 30
0.0
  0
POINT
  5
1DFB
330
1093
100
AcDbEntity
  8
DEFPOINTS
 62
     0
100
AcDbPoint
 10
731.4597905159939
 20
112.4444869123636
 30
0.0
  0
POINT
  5
1DFC
330
1093
100
AcDbEntity
  8
DEFPOINTS
 62
     0
100
AcDbPoint
 10
737.1847414530484
 20
115.7497888769692
 30
0.0
  0
ENDBLK
  5
109F
330
1093
100
AcDbEntity
  8
0
100
AcDbBlockEnd
  0
BLOCK
  5
10AB
330
10A0
100
AcDbEntity
  8
0
100
AcDbBlockBegin
  2
*D4
 70
     1
 10
0.0
 20
0.0
 30
0.0
  3
*D4
  1

  0
LINE
  5
1DFD
330
10A0
100
AcDbEntity
  8
0
 62
     0
370
    -2
100
AcDbLine
 10
735.4172266029756
 20
201.1529892053767
 30
0.0
 11
735.4172266029756
 21
193.6714569896211
 31
0.0
  0
LINE
  5
1DFE
330
10A0
100
AcDbEntity
  8
0
 62
     0
370
    -2
100
AcDbLine
 10
687.3234766029757
 20
201.1529892053767
 30
0.0
 11
687.3234766029757
 21
193.6714569896211
 31
0.0
  0
LINE
  5
1DFF
330
10A0
100
AcDbEntity
  8
0
 62
     0
370
    -2
100
AcDbLine
 10
733.5422266029756
 20
195.5464569896211
 30
0.0
 11
716.0593516029756
 21
195.5464569896211
 31
0.0
  0
LINE
  5
1E00
330
10A0
100
AcDbEntity
  8
0
 62
     0
370
    -2
100
AcDbLine
 10
689.1984766029757
 20
195.5464569896211
 30
0.0
 11
706.6813516029757
 21
195.5464569896211
 31
0.0
  0
SOLID
  5
1E01
330
10A0
100
AcDbEntity
  8
0
 62
     0
100
AcDbTrace
 10
733.5422266029756
 20
195.8589569896211
 30
0.0
 11
733.5422266029756
 21
195.2339569896211
 31
0.0
 12
735.4172266029756
 22
195.5464569896211
 32
0.0
 13
735.4172266029756
 23
195.5464569896211
 33
0.0
  0
SOLID
  5
1E02
330
10A0
100
AcDbEntity
  8
0
 62
     0
100
AcDbTrace
 10
689.1984766029757
 20
195.8589569896211
 30
0.0
 11
689.1984766029757
 21
195.2339569896211
 31
0.0
 12
687.3234766029757
 22
195.5464569896211
 32
0.0
 13
687.3234766029757
 23
195.5464569896211
 33
0.0
  0
MTEXT
  5
1E03
330
10A0
100
AcDbEntity
  8
0
 62
     0
100
AcDbMText
 10
711.3703516029756
 20
195.5464569896211
 30
0.0
 40
2.411999999999999
 41
0.0
 71
     5
 72
     1
  1
\A1;24"
  7
ROMANS
 73
     1
 44
1.0
1001
ACAD
1000
MTEXTBEGIN
1070
    73
1070
     1
1070
    44
1040
1.0
1070
    74
1070
     0
1000
MTEXTEND
  0
POINT
  5
1E04
330
10A0
100
AcDbEntity
  8
DEFPOINTS
 62
     0
100
AcDbPoint
 10
735.4172266029756
 20
203.0279892053767
 30
0.0
  0
POINT
  5
1E05
330
10A0
100
AcDbEntity
  8
DEFPOINTS
 62
     0
100
AcDbPoint
 10
687.3234766029757
 20
203.0279892053767
 30
0.0
  0
POINT
  5
1E06
330
10A0
100
AcDbEntity
  8
DEFPOINTS
 62
     0
100
AcDbPoint
 10
687.3234766029757
 20
195.5464569896211
 30
0.0
  0
ENDBLK
  5
10AC
330
10A0
100
AcDbEntity
  8
0
100
AcDbBlockEnd
  0
BLOCK
  5
10B8
330
10AD
100
AcDbEntity
  8
0
100
AcDbBlockBegin
  2
*D5
 70
     1
 10
0.0
 20
0.0
 30
0.0
  3
*D5
  1

  0
LINE
  5
1E07
330
10AD
100
AcDbEntity
  8
0
 62
     0
370
    -2
100
AcDbLine
 10
701.1474529613888
 20
129.9453231592815
 30
0.0
 11
697.609282332568
 21
131.9880869242703
 31
0.0
  0
LINE
  5
1E08
330
10AD
100
AcDbEntity
  8
0
 62
     0
370
    -2
100
AcDbLine
 10
687.7651764651042
 20
122.2190622217817
 30
0.0
 11
684.2270058362832
 21
124.2618259867704
 31
0.0
  0
LINE
  5
1E09
330
10AD
100
AcDbEntity
  8
0
 62
     0
370
    -2
100
AcDbLine
 10
701.1080799646638
 20
131.8430551695397
 30
0.0
 11
702.7318775967597
 21
132.7805551695397
 31
0.0
  0
LINE
  5
1E0A
330
10AD
100
AcDbEntity
  8
0
 62
     0
370
    -2
100
AcDbLine
 10
684.4782082041874
 20
122.2417942320398
 30
0.0
 11
682.8544105720916
 21
121.3042942320398
 31
0.0
  0
MTEXT
  5
1E0B
330
10AD
100
AcDbEntity
  8
0
 62
     0
100
AcDbMText
 10
690.412078064418
 20
127.5740014400454
 30
0.0
 40
2.411999999999999
 41
0.0
 71
     5
 72
     1
  1
\A1;4-1/2"
  7
ROMANS
 73
     1
 44
1.0
1001
ACAD
1000
MTEXTBEGIN
1070
    73
1070
     1
1070
    44
1040
1.0
1070
    74
1070
     0
1000
MTEXTEND
  0
SOLID
  5
1E0C
330
10AD
100
AcDbEntity
  8
0
 62
     0
100
AcDbTrace
 10
700.9518299646638
 20
132.1136881082223
 30
0.0
 11
701.2643299646638
 21
131.5724222308571
 31
0.0
 12
699.4842823325679
 22
130.9055551695397
 32
0.0
 13
699.4842823325679
 23
130.9055551695397
 33
0.0
  0
SOLID
  5
1E0D
330
10AD
100
AcDbEntity
  8
0
 62
     0
100
AcDbTrace
 10
684.3219582041874
 20
122.5124271707225
 30
0.0
 11
684.6344582041874
 21
121.9711612933572
 31
0.0
 12
686.1020058362832
 22
123.1792942320398
 32
0.0
 13
686.1020058362832
 23
123.1792942320398
 33
0.0
  0
POINT
  5
1E0E
330
10AD
100
AcDbEntity
  8
DEFPOINTS
 62
     0
100
AcDbPoint
 10
703.0224529613888
 20
128.862791404551
 30
0.0
  0
POINT
  5
1E0F
330
10AD
100
AcDbEntity
  8
DEFPOINTS
 62
     0
100
AcDbPoint
 10
689.6401764651042
 20
121.1365304670511
 30
0.0
  0
POINT
  5
1E10
330
10AD
100
AcDbEntity
  8
DEFPOINTS
 62
     0
100
AcDbPoint
 10
686.1020058362832
 20
123.1792942320398
 30
0.0
  0
ENDBLK
  5
10B9
330
10AD
100
AcDbEntity
  8
0
100
AcDbBlockEnd
  0
BLOCK
  5
10C5
330
10BA
100
AcDbEntity
  8
0
100
AcDbBlockBegin
  2
*D6
 70
     1
 10
0.0
 20
0.0
 30
0.0
  3
*D6
  1

  0
LINE
  5
1E11
330
10BA
100
AcDbEntity
  8
0
 62
     0
370
    -2
100
AcDbLine
 10
690.4765687461221
 20
106.8991842427462
 30
0.0
 11
690.4765687461223
 21
103.443493204257
 31
0.0
  0
LINE
  5
1E12
330
10BA
100
AcDbEntity
  8
0
 62
     0
370
    -2
100
AcDbLine
 10
689.6401764651042
 20
107.3820755513399
 30
0.0
 11
689.6401764651043
 21
103.9263845128508
 31
0.0
  0
LINE
  5
1E13
330
10BA
100
AcDbEntity
  8
0
 62
     0
370
    -2
100
AcDbLine
 10
692.100366378218
 20
104.6710567137181
 30
0.0
 11
693.7241640103138
 21
103.7335567137182
 31
0.0
  0
LINE
  5
1E14
330
10BA
100
AcDbEntity
  8
0
 62
     0
370
    -2
100
AcDbLine
 10
688.0163788330085
 20
107.0289480223118
 30
0.0
 11
686.3925812009126
 21
107.9664480223117
 31
0.0
  0
MTEXT
  5
1E15
330
10BA
100
AcDbEntity
  8
0
 62
     0
100
AcDbMText
 10
681.6127308529023
 20
108.3771239921876
 30
0.0
 40
2.411999999999999
 41
0.0
 71
     5
 72
     1
  1
\A1;1/4"
  7
ROMANS
 73
     1
 44
1.0
1001
ACAD
1000
MTEXTBEGIN
1070
    73
1070
     1
1070
    44
1040
1.0
1070
    74
1070
     0
1000
MTEXTEND
  0
SOLID
  5
1E16
330
10BA
100
AcDbEntity
  8
0
 62
     0
100
AcDbTrace
 10
692.2566163782179
 20
104.9416896524008
 30
0.0
 11
691.944116378218
 21
104.4004237750355
 31
0.0
 12
690.4765687461222
 22
105.6085567137181
 32
0.0
 13
690.4765687461222
 23
105.6085567137181
 33
0.0
  0
SOLID
  5
1E17
330
10BA
100
AcDbEntity
  8
0
 62
     0
100
AcDbTrace
 10
688.1726288330083
 20
107.2995809609944
 30
0.0
 11
687.8601288330084
 21
106.7583150836291
 31
0.0
 12
689.6401764651043
 22
106.0914480223118
 32
0.0
 13
689.6401764651043
 23
106.0914480223118
 33
0.0
  0
POINT
  5
1E18
330
10BA
100
AcDbEntity
  8
DEFPOINTS
 62
     0
100
AcDbPoint
 10
690.4765687461218
 20
109.0642477522074
 30
0.0
  0
POINT
  5
1E19
330
10BA
100
AcDbEntity
  8
DEFPOINTS
 62
     0
100
AcDbPoint
 10
689.6401764651041
 20
109.547139060801
 30
0.0
  0
POINT
  5
1E1A
330
10BA
100
AcDbEntity
  8
DEFPOINTS
 62
     0
100
AcDbPoint
 10
689.6401764651043
 20
106.0914480223118
 30
0.0
  0
ENDBLK
  5
10C6
330
10BA
100
AcDbEntity
  8
0
100
AcDbBlockEnd
  0
BLOCK
  5
10D2
330
10C7
100
AcDbEntity
  8
0
100
AcDbBlockBegin
  2
*D7
 70
     1
 10
0.0
 20
0.0
 30
0.0
  3
*D7
  1

  0
LINE
  5
1E1B
330
10C7
100
AcDbEntity
  8
0
 62
     0
370
    -2
100
AcDbLine
 10
733.3347905159939
 20
113.5270186670941
 30
0.0
 11
739.0597414530482
 21
116.8323206316998
 31
0.0
  0
LINE
  5
1E1C
330
10C7
100
AcDbEntity
  8
0
 62
     0
370
    -2
100
AcDbLine
 10
733.3347905159939
 20
101.9376272608441
 30
0.0
 11
739.0597414530482
 21
105.2429292254498
 31
0.0
  0
LINE
  5
1E1D
330
10C7
100
AcDbEntity
  8
0
 62
     0
370
    -2
100
AcDbLine
 10
737.1847414530482
 20
117.6247888769693
 30
0.0
 11
737.1847414530482
 21
119.4997888769693
 31
0.0
  0
LINE
  5
1E1E
330
10C7
100
AcDbEntity
  8
0
 62
     0
370
    -2
100
AcDbLine
 10
737.1847414530482
 20
102.2853974707192
 30
0.0
 11
737.1847414530482
 21
100.4103974707192
 31
0.0
  0
MTEXT
  5
1E1F
330
10C7
100
AcDbEntity
  8
0
 62
     0
100
AcDbMText
 10
737.8505157248353
 20
109.1866713960513
 30
0.0
 40
2.411999999999999
 41
0.0
 71
     5
 72
     1
  1
\A1;3"
  7
ROMANS
 73
     1
 44
1.0
1001
ACAD
1000
MTEXTBEGIN
1070
    73
1070
     1
1070
    44
1040
1.0
1070
    74
1070
     0
1000
MTEXTEND
  0
SOLID
  5
1E20
330
10C7
100
AcDbEntity
  8
0
 62
     0
100
AcDbTrace
 10
736.8722414530481
 20
117.6247888769693
 30
0.0
 11
737.4972414530482
 21
117.6247888769693
 31
0.0
 12
737.1847414530482
 22
115.7497888769693
 32
0.0
 13
737.1847414530482
 23
115.7497888769693
 33
0.0
  0
SOLID
  5
1E21
330
10C7
100
AcDbEntity
  8
0
 62
     0
100
AcDbTrace
 10
736.8722414530481
 20
102.2853974707192
 30
0.0
 11
737.4972414530482
 21
102.2853974707192
 31
0.0
 12
737.1847414530482
 22
104.1603974707192
 32
0.0
 13
737.1847414530482
 23
104.1603974707192
 33
0.0
  0
POINT
  5
1E22
330
10C7
100
AcDbEntity
  8
DEFPOINTS
 62
     0
100
AcDbPoint
 10
731.4597905159939
 20
112.4444869123636
 30
0.0
  0
POINT
  5
1E23
330
10C7
100
AcDbEntity
  8
DEFPOINTS
 62
     0
100
AcDbPoint
 10
731.4597905159939
 20
100.8550955061136
 30
0.0
  0
POINT
  5
1E24
330
10C7
100
AcDbEntity
  8
DEFPOINTS
 62
     0
100
AcDbPoint
 10
737.1847414530482
 20
104.1603974707192
 30
0.0
  0
ENDBLK
  5
10D3
330
10C7
100
AcDbEntity
  8
0
100
AcDbBlockEnd
  0
BLOCK
  5
10DF
330
10D4
100
AcDbEntity
  8
0
100
AcDbBlockBegin
  2
*D8
 70
     1
 10
0.0
 20
0.0
 30
0.0
  3
*D8
  1

  0
LINE
  5
1E25
330
10D4
100
AcDbEntity
  8
0
 62
     0
370
    -2
100
AcDbLine
 10
733.0793359779756
 20
226.9459579553767
 30
0.0
 11
733.0793359779756
 21
235.1296551581362
 31
0.0
  0
LINE
  5
1E26
330
10D4
100
AcDbEntity
  8
0
 62
     0
370
    -2
100
AcDbLine
 10
689.6613672279758
 20
226.9459579553767
 30
0.0
 11
689.6613672279758
 21
235.1296551581362
 31
0.0
  0
LINE
  5
1E27
330
10D4
100
AcDbEntity
  8
0
 62
     0
370
    -2
100
AcDbLine
 10
731.2043359779757
 20
233.2546551581362
 30
0.0
 11
721.11306588869
 21
233.2546551581362
 31
0.0
  0
LINE
  5
1E28
330
10D4
100
AcDbEntity
  8
0
 62
     0
370
    -2
100
AcDbLine
 10
691.5363672279758
 20
233.2546551581362
 30
0.0
 11
701.6276373172614
 21
233.2546551581362
 31
0.0
  0
SOLID
  5
1E29
330
10D4
100
AcDbEntity
  8
0
 62
     0
100
AcDbTrace
 10
731.2043359779757
 20
233.5671551581362
 30
0.0
 11
731.2043359779757
 21
232.9421551581362
 31
0.0
 12
733.0793359779756
 22
233.2546551581362
 32
0.0
 13
733.0793359779756
 23
233.2546551581362
 33
0.0
  0
SOLID
  5
1E2A
330
10D4
100
AcDbEntity
  8
0
 62
     0
100
AcDbTrace
 10
691.5363672279758
 20
233.5671551581362
 30
0.0
 11
691.5363672279758
 21
232.9421551581362
 31
0.0
 12
689.6613672279758
 22
233.2546551581362
 32
0.0
 13
689.6613672279758
 23
233.2546551581362
 33
0.0
  0
MTEXT
  5
1E2B
330
10D4
100
AcDbEntity
  8
0
 62
     0
100
AcDbMText
 10
711.3703516029756
 20
233.2546551581362
 30
0.0
 40
2.411999999999999
 41
0.0
 71
     5
 72
     1
  1
\A1;22-1/8"
  7
ROMANS
 73
     1
 44
1.0
1001
ACAD
1000
MTEXTBEGIN
1070
    73
1070
     1
1070
    44
1040
1.0
1070
    74
1070
     0
1000
MTEXTEND
  0
POINT
  5
1E2C
330
10D4
100
AcDbEntity
  8
DEFPOINTS
 62
     0
100
AcDbPoint
 10
733.0793359779756
 20
225.0709579553767
 30
0.0
  0
POINT
  5
1E2D
330
10D4
100
AcDbEntity
  8
DEFPOINTS
 62
     0
100
AcDbPoint
 10
689.6613672279758
 20
225.0709579553767
 30
0.0
  0
POINT
  5
1E2E
330
10D4
100
AcDbEntity
  8
DEFPOINTS
 62
     0
100
AcDbPoint
 10
689.6613672279758
 20
233.2546551581362
 30
0.0
  0
ENDBLK
  5
10E0
330
10D4
100
AcDbEntity
  8
0
100
AcDbBlockEnd
  0
BLOCK
  5
11F6
330
11F4
100
AcDbEntity
  8
0
100
AcDbBlockBegin
  2
Ldr-trd
 70
     0
 10
0.0
 20
0.0
 30
0.0
  3
Ldr-trd
  1

  0
LWPOLYLINE
  5
11F5
330
11F4
100
AcDbEntity
  8
0
  6
HIDDEN
100
AcDbPolyline
 90
        8
 70
     1
 43
0.0
 10
-0.75
 20
-0.75
 10
-1.125
 20
-0.75
 10
-1.125
 20
0.0
 10
1.125
 20
0.0000000000000284
 10
1.125
 20
-0.7499999999999716
 10
0.75
 20
-0.75
 10
0.75
 20
-0.21132790639885
 10
-0.75
 20
-0.21132790639885
  0
ENDBLK
  5
11F7
330
11F4
100
AcDbEntity
  8
0
100
AcDbBlockEnd
  0
BLOCK
  5
13C4
330
13B9
100
AcDbEntity
  8
0
100
AcDbBlockBegin
  2
*D10
 70
     1
 10
0.0
 20
0.0
 30
0.0
  3
*D10
  1

  0
LINE
  5
1DDF
330
13B9
100
AcDbEntity
  8
0
 62
     0
370
    -2
100
AcDbLine
 10
585.7184197074777
 20
57.34832833119185
 30
0.0
 11
585.7184197074777
 21
52.27170020513765
 31
0.0
  0
LINE
  5
1DE0
330
13B9
100
AcDbEntity
  8
0
 62
     0
370
    -2
100
AcDbLine
 10
611.7184197074777
 20
57.34832833119186
 30
0.0
 11
611.7184197074777
 21
52.27170020513765
 31
0.0
  0
LINE
  5
1DE1
330
13B9
100
AcDbEntity
  8
0
 62
     0
370
    -2
100
AcDbLine
 10
587.5934197074777
 20
54.14670020513765
 30
0.0
 11
594.0294197074778
 21
54.14670020513765
 31
0.0
  0
LINE
  5
1DE2
330
13B9
100
AcDbEntity
  8
0
 62
     0
370
    -2
100
AcDbLine
 10
609.8434197074777
 20
54.14670020513765
 30
0.0
 11
603.4074197074777
 21
54.14670020513765
 31
0.0
  0
SOLID
  5
1DE3
330
13B9
100
AcDbEntity
  8
0
 62
     0
100
AcDbTrace
 10
587.5934197074777
 20
54.45920020513765
 30
0.0
 11
587.5934197074777
 21
53.83420020513765
 31
0.0
 12
585.7184197074777
 22
54.14670020513765
 32
0.0
 13
585.7184197074777
 23
54.14670020513765
 33
0.0
  0
SOLID
  5
1DE4
330
13B9
100
AcDbEntity
  8
0
 62
     0
100
AcDbTrace
 10
609.8434197074777
 20
54.45920020513765
 30
0.0
 11
609.8434197074777
 21
53.83420020513765
 31
0.0
 12
611.7184197074777
 22
54.14670020513765
 32
0.0
 13
611.7184197074777
 23
54.14670020513765
 33
0.0
  0
MTEXT
  5
1DE5
330
13B9
100
AcDbEntity
  8
0
 62
     0
100
AcDbMText
 10
598.7184197074777
 20
54.14670020513765
 30
0.0
 40
2.411999999999999
 41
0.0
 71
     5
 72
     1
  1
\A1;26"
  7
ROMANS
 73
     1
 44
1.0
1001
ACAD
1000
MTEXTBEGIN
1070
    73
1070
     1
1070
    44
1040
1.0
1070
    74
1070
     0
1000
MTEXTEND
  0
POINT
  5
1DE6
330
13B9
100
AcDbEntity
  8
DEFPOINTS
 62
     0
100
AcDbPoint
 10
585.7184197074777
 20
59.22332833119185
 30
0.0
  0
POINT
  5
1DE7
330
13B9
100
AcDbEntity
  8
DEFPOINTS
 62
     0
100
AcDbPoint
 10
611.7184197074777
 20
59.22332833119186
 30
0.0
  0
POINT
  5
1DE8
330
13B9
100
AcDbEntity
  8
DEFPOINTS
 62
     0
100
AcDbPoint
 10
611.7184197074777
 20
54.14670020513765
 30
0.0
  0
ENDBLK
  5
13C5
330
13B9
100
AcDbEntity
  8
0
100
AcDbBlockEnd
  0
BLOCK
  5
1405
330
13FA
100
AcDbEntity
  8
0
100
AcDbBlockBegin
  2
*D11
 70
     1
 10
0.0
 20
0.0
 30
0.0
  3
*D11
  1

  0
LINE
  5
1D9A
330
13FA
100
AcDbEntity
  8
0
 62
     0
370
    -2
100
AcDbLine
 10
490.1486501921418
 20
184.2233283311918
 30
0.0
 11
481.3161708419065
 21
184.2233283311918
 31
0.0
  0
LINE
  5
1D9B
330
13FA
100
AcDbEntity
  8
0
 62
     0
370
    -2
100
AcDbLine
 10
490.1486501921418
 20
136.2233283311919
 30
0.0
 11
481.3161708419065
 21
136.2233283311919
 31
0.0
  0
LINE
  5
1D9C
330
13FA
100
AcDbEntity
  8
0
 62
     0
370
    -2
100
AcDbLine
 10
483.1911708419065
 20
182.3483283311918
 30
0.0
 11
483.1911708419065
 21
163.5340426169061
 31
0.0
  0
LINE
  5
1D9D
330
13FA
100
AcDbEntity
  8
0
 62
     0
370
    -2
100
AcDbLine
 10
483.1911708419065
 20
138.0983283311919
 30
0.0
 11
483.1911708419065
 21
156.9126140454775
 31
0.0
  0
SOLID
  5
1D9E
330
13FA
100
AcDbEntity
  8
0
 62
     0
100
AcDbTrace
 10
482.8786708419065
 20
182.3483283311918
 30
0.0
 11
483.5036708419065
 21
182.3483283311918
 31
0.0
 12
483.1911708419065
 22
184.2233283311918
 32
0.0
 13
483.1911708419065
 23
184.2233283311918
 33
0.0
  0
SOLID
  5
1D9F
330
13FA
100
AcDbEntity
  8
0
 62
     0
100
AcDbTrace
 10
482.8786708419065
 20
138.0983283311919
 30
0.0
 11
483.5036708419065
 21
138.0983283311919
 31
0.0
 12
483.1911708419065
 22
136.2233283311919
 32
0.0
 13
483.1911708419065
 23
136.2233283311919
 33
0.0
  0
MTEXT
  5
1DA0
330
13FA
100
AcDbEntity
  8
0
 62
     0
100
AcDbMText
 10
483.1911708419064
 20
160.2233283311919
 30
0.0
 40
2.411999999999999
 41
0.0
 71
     5
 72
     1
  1
\A1;4' TYP
  7
ROMANS
 73
     1
 44
1.0
1001
ACAD
1000
MTEXTBEGIN
1070
    73
1070
     1
1070
    44
1040
1.0
1070
    74
1070
     0
1000
MTEXTEND
  0
POINT
  5
1DA1
330
13FA
100
AcDbEntity
  8
DEFPOINTS
 62
     0
100
AcDbPoint
 10
492.0236501921419
 20
184.2233283311918
 30
0.0
  0
POINT
  5
1DA2
330
13FA
100
AcDbEntity
  8
DEFPOINTS
 62
     0
100
AcDbPoint
 10
492.0236501921419
 20
136.2233283311919
 30
0.0
  0
POINT
  5
1DA3
330
13FA
100
AcDbEntity
  8
DEFPOINTS
 62
     0
100
AcDbPoint
 10
483.1911708419065
 20
136.2233283311919
 30
0.0
  0
ENDBLK
  5
1406
330
13FA
100
AcDbEntity
  8
0
100
AcDbBlockEnd
  0
BLOCK
  5
1426
330
141B
100
AcDbEntity
  8
0
100
AcDbBlockBegin
  2
*D12
 70
     1
 10
0.0
 20
0.0
 30
0.0
  3
*D12
  1

  0
LINE
  5
1DB8
330
141B
100
AcDbEntity
  8
0
 62
     0
370
    -2
100
AcDbLine
 10
500.7736501921418
 20
236.6964045425452
 30
0.0
 11
500.7736501921418
 21
241.6018453006917
 31
0.0
  0
LINE
  5
1DB9
330
141B
100
AcDbEntity
  8
0
 62
     0
370
    -2
100
AcDbLine
 10
473.5236501921418
 20
234.0983283311918
 30
0.0
 11
473.5236501921418
 21
241.6018453006917
 31
0.0
  0
LINE
  5
1DBA
330
141B
100
AcDbEntity
  8
0
 62
     0
370
    -2
100
AcDbLine
 10
498.8986501921418
 20
239.7268453006918
 30
0.0
 11
491.8376501921419
 21
239.7268453006918
 31
0.0
  0
LINE
  5
1DBB
330
141B
100
AcDbEntity
  8
0
 62
     0
370
    -2
100
AcDbLine
 10
475.3986501921418
 20
239.7268453006918
 30
0.0
 11
482.4596501921418
 21
239.7268453006918
 31
0.0
  0
SOLID
  5
1DBC
330
141B
100
AcDbEntity
  8
0
 62
     0
100
AcDbTrace
 10
498.8986501921418
 20
240.0393453006917
 30
0.0
 11
498.8986501921418
 21
239.4143453006918
 31
0.0
 12
500.7736501921418
 22
239.7268453006918
 32
0.0
 13
500.7736501921418
 23
239.7268453006918
 33
0.0
  0
SOLID
  5
1DBD
330
141B
100
AcDbEntity
  8
0
 62
     0
100
AcDbTrace
 10
475.3986501921418
 20
240.0393453006917
 30
0.0
 11
475.3986501921418
 21
239.4143453006918
 31
0.0
 12
473.5236501921418
 22
239.7268453006918
 32
0.0
 13
473.5236501921418
 23
239.7268453006918
 33
0.0
  0
MTEXT
  5
1DBE
330
141B
100
AcDbEntity
  8
0
 62
     0
100
AcDbMText
 10
487.1486501921419
 20
239.7268453006918
 30
0.0
 40
2.411999999999999
 41
0.0
 71
     5
 72
     1
  1
\A1;27"
  7
ROMANS
 73
     1
 44
1.0
1001
ACAD
1000
MTEXTBEGIN
1070
    73
1070
     1
1070
    44
1040
1.0
1070
    74
1070
     0
1000
MTEXTEND
  0
POINT
  5
1DBF
330
141B
100
AcDbEntity
  8
DEFPOINTS
 62
     0
100
AcDbPoint
 10
500.7736501921418
 20
234.8214045425452
 30
0.0
  0
POINT
  5
1DC0
330
141B
100
AcDbEntity
  8
DEFPOINTS
 62
     0
100
AcDbPoint
 10
473.5236501921418
 20
232.2233283311919
 30
0.0
  0
POINT
  5
1DC1
330
141B
100
AcDbEntity
  8
DEFPOINTS
 62
     0
100
AcDbPoint
 10
473.5236501921418
 20
239.7268453006918
 30
0.0
  0
ENDBLK
  5
1427
330
141B
100
AcDbEntity
  8
0
100
AcDbBlockEnd
  0
BLOCK
  5
144C
330
1441
100
AcDbEntity
  8
0
100
AcDbBlockBegin
  2
*D13
 70
     1
 10
0.0
 20
0.0
 30
0.0
  3
*D13
  1

  0
LINE
  5
1DAE
330
1441
100
AcDbEntity
  8
0
 62
     0
370
    -2
100
AcDbLine
 10
490.1486501921418
 20
190.2233283311918
 30
0.0
 11
481.3161708419065
 21
190.2233283311918
 31
0.0
  0
LINE
  5
1DAF
330
1441
100
AcDbEntity
  8
0
 62
     0
370
    -2
100
AcDbLine
 10
490.1486501921418
 20
184.2233283311918
 30
0.0
 11
481.3161708419065
 21
184.2233283311918
 31
0.0
  0
LINE
  5
1DB0
330
1441
100
AcDbEntity
  8
0
 62
     0
370
    -2
100
AcDbLine
 10
483.1911708419065
 20
192.0983283311918
 30
0.0
 11
483.1911708419065
 21
193.9733283311918
 31
0.0
  0
LINE
  5
1DB1
330
1441
100
AcDbEntity
  8
0
 62
     0
370
    -2
100
AcDbLine
 10
483.1911708419065
 20
182.3483283311918
 30
0.0
 11
483.1911708419065
 21
180.4733283311918
 31
0.0
  0
MTEXT
  5
1DB2
330
1441
100
AcDbEntity
  8
0
 62
     0
100
AcDbMText
 10
483.6403178703593
 20
187.1093131893649
 30
0.0
 40
2.411999999999999
 41
0.0
 71
     5
 72
     1
  1
\A1;6"
  7
ROMANS
 73
     1
 44
1.0
1001
ACAD
1000
MTEXTBEGIN
1070
    73
1070
     1
1070
    44
1040
1.0
1070
    74
1070
     0
1000
MTEXTEND
  0
SOLID
  5
1DB3
330
1441
100
AcDbEntity
  8
0
 62
     0
100
AcDbTrace
 10
482.8786708419065
 20
192.0983283311918
 30
0.0
 11
483.5036708419065
 21
192.0983283311918
 31
0.0
 12
483.1911708419065
 22
190.2233283311918
 32
0.0
 13
483.1911708419065
 23
190.2233283311918
 33
0.0
  0
SOLID
  5
1DB4
330
1441
100
AcDbEntity
  8
0
 62
     0
100
AcDbTrace
 10
482.8786708419065
 20
182.3483283311918
 30
0.0
 11
483.5036708419065
 21
182.3483283311918
 31
0.0
 12
483.1911708419065
 22
184.2233283311918
 32
0.0
 13
483.1911708419065
 23
184.2233283311918
 33
0.0
  0
POINT
  5
1DB5
330
1441
100
AcDbEntity
  8
DEFPOINTS
 62
     0
100
AcDbPoint
 10
492.0236501921419
 20
190.2233283311918
 30
0.0
  0
POINT
  5
1DB6
330
1441
100
AcDbEntity
  8
DEFPOINTS
 62
     0
100
AcDbPoint
 10
492.0236501921419
 20
184.2233283311918
 30
0.0
  0
POINT
  5
1DB7
330
1441
100
AcDbEntity
  8
DEFPOINTS
 62
     0
100
AcDbPoint
 10
483.1911708419065
 20
184.2233283311918
 30
0.0
  0
ENDBLK
  5
144D
330
1441
100
AcDbEntity
  8
0
100
AcDbBlockEnd
  0
BLOCK
  5
14B2
330
14A7
100
AcDbEntity
  8
0
100
AcDbBlockBegin
  2
*D14
 70
     1
 10
0.0
 20
0.0
 30
0.0
  3
*D14
  1

  0
LINE
  5
1DCC
330
14A7
100
AcDbEntity
  8
0
 62
     0
370
    -2
100
AcDbLine
 10
612.5934197074777
 20
190.2233283311918
 30
0.0
 11
632.6018427510661
 21
190.2233283311918
 31
0.0
  0
LINE
  5
1DCD
330
14A7
100
AcDbEntity
  8
0
 62
     0
370
    -2
100
AcDbLine
 10
613.7184197074778
 20
235.2233283311918
 30
0.0
 11
632.6018427510661
 21
235.2233283311918
 31
0.0
  0
LINE
  5
1DCE
330
14A7
100
AcDbEntity
  8
0
 62
     0
370
    -2
100
AcDbLine
 10
630.7268427510661
 20
192.0983283311918
 30
0.0
 11
630.7268427510661
 21
209.4126140454775
 31
0.0
  0
LINE
  5
1DCF
330
14A7
100
AcDbEntity
  8
0
 62
     0
370
    -2
100
AcDbLine
 10
630.7268427510661
 20
233.3483283311919
 30
0.0
 11
630.7268427510661
 21
216.0340426169061
 31
0.0
  0
SOLID
  5
1DD0
330
14A7
100
AcDbEntity
  8
0
 62
     0
100
AcDbTrace
 10
630.4143427510661
 20
192.0983283311918
 30
0.0
 11
631.0393427510661
 21
192.0983283311918
 31
0.0
 12
630.7268427510661
 22
190.2233283311918
 32
0.0
 13
630.7268427510661
 23
190.2233283311918
 33
0.0
  0
SOLID
  5
1DD1
330
14A7
100
AcDbEntity
  8
0
 62
     0
100
AcDbTrace
 10
630.4143427510661
 20
233.3483283311919
 30
0.0
 11
631.0393427510661
 21
233.3483283311919
 31
0.0
 12
630.7268427510661
 22
235.2233283311918
 32
0.0
 13
630.7268427510661
 23
235.2233283311918
 33
0.0
  0
MTEXT
  5
1DD2
330
14A7
100
AcDbEntity
  8
0
 62
     0
100
AcDbMText
 10
630.7268427510661
 20
212.723328331192
 30
0.0
 40
2.411999999999999
 41
0.0
 71
     5
 72
     1
  1
\A1;45"
  7
ROMANS
 73
     1
 44
1.0
1001
ACAD
1000
MTEXTBEGIN
1070
    73
1070
     1
1070
    44
1040
1.0
1070
    74
1070
     0
1000
MTEXTEND
  0
POINT
  5
1DD3
330
14A7
100
AcDbEntity
  8
DEFPOINTS
 62
     0
100
AcDbPoint
 10
610.7184197074777
 20
190.2233283311918
 30
0.0
  0
POINT
  5
1DD4
330
14A7
100
AcDbEntity
  8
DEFPOINTS
 62
     0
100
AcDbPoint
 10
611.8434197074777
 20
235.2233283311918
 30
0.0
  0
POINT
  5
1DD5
330
14A7
100
AcDbEntity
  8
DEFPOINTS
 62
     0
100
AcDbPoint
 10
630.7268427510661
 20
235.2233283311918
 30
0.0
  0
ENDBLK
  5
14B3
330
14A7
100
AcDbEntity
  8
0
100
AcDbBlockEnd
  0
BLOCK
  5
14BE
330
14B4
100
AcDbEntity
  8
0
100
AcDbBlockBegin
  2
*D15
 70
     1
 10
0.0
 20
0.0
 30
0.0
  3
*D15
  1

  0
LINE
  5
1DA4
330
14B4
100
AcDbEntity
  8
0
 62
     0
370
    -2
100
AcDbLine
 10
612.5934197074777
 20
154.2233283311918
 30
0.0
 11
621.7080624950091
 21
154.2233283311918
 31
0.0
  0
LINE
  5
1DA5
330
14B4
100
AcDbEntity
  8
0
 62
     0
370
    -2
100
AcDbLine
 10
612.5934197074777
 20
166.2233283311918
 30
0.0
 11
621.7080624950091
 21
166.2233283311918
 31
0.0
  0
LINE
  5
1DA6
330
14B4
100
AcDbEntity
  8
0
 62
     0
370
    -2
100
AcDbLine
 10
619.8330624950091
 20
156.0983283311918
 30
0.0
 11
619.8330624950091
 21
156.5645150775382
 31
0.0
  0
LINE
  5
1DA7
330
14B4
100
AcDbEntity
  8
0
 62
     0
370
    -2
100
AcDbLine
 10
619.8330624950091
 20
164.3483283311918
 30
0.0
 11
619.8330624950091
 21
163.1859436489668
 31
0.0
  0
MTEXT
  5
1DA8
330
14B4
100
AcDbEntity
  8
0
 62
     0
100
AcDbMText
 10
619.9168325780735
 20
159.8752293632526
 30
0.0
 40
2.411999999999999
 41
0.0
 71
     5
 72
     1
  1
\A1;12" TYP
  7
ROMANS
 73
     1
 44
1.0
1001
ACAD
1000
MTEXTBEGIN
1070
    73
1070
     1
1070
    44
1040
1.0
1070
    74
1070
     0
1000
MTEXTEND
  0
SOLID
  5
1DA9
330
14B4
100
AcDbEntity
  8
0
 62
     0
100
AcDbTrace
 10
619.5205624950091
 20
156.0983283311918
 30
0.0
 11
620.1455624950091
 21
156.0983283311918
 31
0.0
 12
619.8330624950091
 22
154.2233283311918
 32
0.0
 13
619.8330624950091
 23
154.2233283311918
 33
0.0
  0
SOLID
  5
1DAA
330
14B4
100
AcDbEntity
  8
0
 62
     0
100
AcDbTrace
 10
619.5205624950091
 20
164.3483283311918
 30
0.0
 11
620.1455624950091
 21
164.3483283311918
 31
0.0
 12
619.8330624950091
 22
166.2233283311918
 32
0.0
 13
619.8330624950091
 23
166.2233283311918
 33
0.0
  0
POINT
  5
1DAB
330
14B4
100
AcDbEntity
  8
DEFPOINTS
 62
     0
100
AcDbPoint
 10
610.7184197074777
 20
154.2233283311918
 30
0.0
  0
POINT
  5
1DAC
330
14B4
100
AcDbEntity
  8
DEFPOINTS
 62
     0
100
AcDbPoint
 10
610.7184197074777
 20
166.2233283311918
 30
0.0
  0
POINT
  5
1DAD
330
14B4
100
AcDbEntity
  8
DEFPOINTS
 62
     0
100
AcDbPoint
 10
619.8330624950091
 20
166.2233283311918
 30
0.0
  0
ENDBLK
  5
14BF
330
14B4
100
AcDbEntity
  8
0
100
AcDbBlockEnd
  0
BLOCK
  5
171E
330
1715
100
AcDbEntity
  8
0
100
AcDbBlockBegin
  2
*U16
 70
     1
 10
0.0
 20
0.0
 30
0.0
  3
*U16
  1

  0
TEXT
  5
1D7F
330
1715
100
AcDbEntity
  8
0
  6
ByBlock
 62
     0
100
AcDbText
 10
-7.871159999999924
 20
-12.79046999999985
 30
0.0
 40
1.857239999999982
  1
24 FT MAX
  7
ROMANS
 72
     1
 11
0.0
 21
-11.86184999999986
 31
0.0
100
AcDbText
 73
     2
1001
AcDbBlockRepETag
1070
     1
1071
        0
1005
1D7F
  0
LINE
  5
1D80
330
1715
100
AcDbEntity
  8
0
  6
ByBlock
 62
     0
100
AcDbLine
 10
-9.049589999999909
 20
-14.23421999999983
 30
0.0
 11
9.049589999999909
 21
-14.23421999999983
 31
0.0
1001
AcDbBlockRepETag
1070
     1
1071
        1
1005
1D80
  0
LINE
  5
1D81
330
1715
100
AcDbEntity
  8
0
  6
ByBlock
 62
     0
100
AcDbLine
 10
9.049589999999909
 20
-14.23421999999983
 30
0.0
 11
9.049589999999909
 21
0.0
 31
0.0
1001
AcDbBlockRepETag
1070
     1
1071
        2
1005
1D81
  0
LINE
  5
1D82
330
1715
100
AcDbEntity
  8
0
  6
ByBlock
 62
     0
100
AcDbLine
 10
9.049589999999909
 20
-9.489479999999886
 30
0.0
 11
-9.049589999999909
 21
-9.489479999999886
 31
0.0
1001
AcDbBlockRepETag
1070
     1
1071
        3
1005
1D82
  0
LINE
  5
1D83
330
1715
100
AcDbEntity
  8
0
  6
ByBlock
 62
     0
100
AcDbLine
 10
-9.049589999999909
 20
0.0
 30
0.0
 11
-9.049589999999909
 21
-14.23421999999983
 31
0.0
1001
AcDbBlockRepETag
1070
     1
1071
        4
1005
1D83
  0
LINE
  5
1D84
330
1715
100
AcDbEntity
  8
0
  6
ByBlock
 62
     0
100
AcDbLine
 10
9.049589999999909
 20
0.0
 30
0.0
 11
-9.049589999999909
 21
0.0
 31
0.0
1001
AcDbBlockRepETag
1070
     1
1071
        5
1005
1D84
  0
ENDBLK
  5
171F
330
1715
100
AcDbEntity
  8
0
100
AcDbBlockEnd
  0
BLOCK
  5
17CC
330
17CB
100
AcDbEntity
  8
0
100
AcDbBlockBegin
  2
*X17
 70
     1
 10
0.0
 20
0.0
 30
0.0
  3
*X17
  1

  0
LINE
  5
17CD
330
17CB
100
AcDbEntity
  8
0
 62
     0
100
AcDbLine
 10
-39.38783740946116
 20
-279.4947837961181
 30
0.0
 11
-38.65407559127778
 21
-278.7610219779348
 31
0.0
  0
LINE
  5
17CE
330
17CB
100
AcDbEntity
  8
0
 62
     0
100
AcDbLine
 10
-39.50054631068232
 20
-279.4749101758668
 30
0.0
 11
-38.76678449249896
 21
-278.7411483576835
 31
0.0
  0
LINE
  5
17CF
330
17CB
100
AcDbEntity
  8
0
 62
     0
100
AcDbLine
 10
-39.61325521190351
 20
-279.4550365556156
 30
0.0
 11
-38.87949339372014
 21
-278.7212747374322
 31
0.0
  0
LINE
  5
17D0
330
17CB
100
AcDbEntity
  8
0
 62
     0
100
AcDbLine
 10
-39.7259641131247
 20
-279.4351629353642
 30
0.0
 11
-38.99220229494132
 21
-278.7014011171809
 31
0.0
  0
LINE
  5
17D1
330
17CB
100
AcDbEntity
  8
0
 62
     0
100
AcDbLine
 10
-39.83867301434587
 20
-279.415289315113
 30
0.0
 11
-39.1049111961625
 21
-278.6815274969296
 31
0.0
  0
LINE
  5
17D2
330
17CB
100
AcDbEntity
  8
0
 62
     0
100
AcDbLine
 10
-39.95138191556705
 20
-279.3954156948617
 30
0.0
 11
-39.21762009738368
 21
-278.6616538766783
 31
0.0
  0
LINE
  5
17D3
330
17CB
100
AcDbEntity
  8
0
 62
     0
100
AcDbLine
 10
-40.06409081678821
 20
-279.3755420746104
 30
0.0
 11
-39.33032899860484
 21
-278.641780256427
 31
0.0
  0
LINE
  5
17D4
330
17CB
100
AcDbEntity
  8
0
 62
     0
100
AcDbLine
 10
-40.1767997180094
 20
-279.3556684543591
 30
0.0
 11
-40.06372011526283
 21
-279.2425888516125
 31
0.0
  0
LINE
  5
17D5
330
17CB
100
AcDbEntity
  8
0
 62
     0
100
AcDbLine
 10
-39.89688315430998
 20
-279.0757518906596
 30
0.0
 11
-39.44303789982602
 21
-278.6219066361756
 31
0.0
  0
LINE
  5
17D6
330
17CB
100
AcDbEntity
  8
0
 62
     0
100
AcDbLine
 10
-40.06372011526283
 20
-279.2425888516125
 30
0.0
 11
-39.89688315430998
 21
-279.0757518906597
 31
0.0
  0
LINE
  5
17D7
330
17CB
100
AcDbEntity
  8
0
 62
     0
100
AcDbLine
 10
-40.28950861923056
 20
-279.3357948341077
 30
0.0
 11
-40.10500766087813
 21
-279.1512938757553
 31
0.0
  0
LINE
  5
17D8
330
17CB
100
AcDbEntity
  8
0
 62
     0
100
AcDbLine
 10
-39.94078059974761
 20
-278.9870668146248
 30
0.0
 11
-39.5557468010472
 21
-278.6020330159244
 31
0.0
  0
LINE
  5
17D9
330
17CB
100
AcDbEntity
  8
0
 62
     0
100
AcDbLine
 10
-40.10500766087811
 20
-279.1512938757553
 30
0.0
 11
-39.9407805997476
 21
-278.9870668146248
 31
0.0
  0
LINE
  5
17DA
330
17CB
100
AcDbEntity
  8
0
 62
     0
100
AcDbLine
 10
-40.36990717715883
 20
-279.2836108705636
 30
0.0
 11
-40.1462952064934
 21
-279.0599988998982
 31
0.0
  0
LINE
  5
17DB
330
17CB
100
AcDbEntity
  8
0
 62
     0
100
AcDbLine
 10
-39.98467804518519
 20
-278.8983817385899
 30
0.0
 11
-39.66845570226838
 21
-278.5821593956731
 31
0.0
  0
LINE
  5
17DC
330
17CB
100
AcDbEntity
  8
0
 62
     0
100
AcDbLine
 10
-40.14629520649338
 20
-279.0599988998981
 30
0.0
 11
-39.98467804518524
 21
-278.89838173859
 31
0.0
  0
LINE
  5
17DD
330
17CB
100
AcDbEntity
  8
0
 62
     0
100
AcDbLine
 10
-40.32903303677044
 20
-279.1101542087027
 30
0.0
 11
-40.18758275210868
 21
-278.968703924041
 31
0.0
  0
LINE
  5
17DE
330
17CB
100
AcDbEntity
  8
0
 62
     0
100
AcDbLine
 10
-40.02857549062279
 20
-278.8096966625551
 30
0.0
 11
-39.78116460348956
 21
-278.5622857754218
 31
0.0
  0
LINE
  5
17DF
330
17CB
100
AcDbEntity
  8
0
 62
     0
100
AcDbLine
 10
-40.18758275210866
 20
-278.9687039240409
 30
0.0
 11
-40.02857549062286
 21
-278.8096966625551
 31
0.0
  0
LINE
  5
17E0
330
17CB
100
AcDbEntity
  8
0
 62
     0
100
AcDbLine
 10
-40.28815889638206
 20
-278.9366975468419
 30
0.0
 11
-40.22887029772395
 21
-278.8774089481838
 31
0.0
  0
LINE
  5
17E1
330
17CB
100
AcDbEntity
  8
0
 62
     0
100
AcDbLine
 10
-40.07247293606041
 20
-278.7210115865202
 30
0.0
 11
-39.89387350471074
 21
-278.5424121551705
 31
0.0
  0
LINE
  5
17E2
330
17CB
100
AcDbEntity
  8
0
 62
     0
100
AcDbLine
 10
-40.22887029772394
 20
-278.8774089481837
 30
0.0
 11
-40.07247293606049
 21
-278.7210115865203
 31
0.0
  0
LINE
  5
17E3
330
17CB
100
AcDbEntity
  8
0
 62
     0
100
AcDbLine
 10
-40.27015784333923
 20
-278.7861139723266
 30
0.0
 11
-40.11637038149812
 21
-278.6323265104854
 31
0.0
  0
LINE
  5
17E4
330
17CB
100
AcDbEntity
  8
0
 62
     0
100
AcDbLine
 10
-40.116370381498
 20
-278.6323265104853
 30
0.0
 11
-40.00658240593192
 21
-278.5225385349192
 31
0.0
  0
LINE
  5
17E5
330
17CB
100
AcDbEntity
  8
0
 62
     0
100
AcDbLine
 10
-40.31144538895452
 20
-278.6948189964694
 30
0.0
 11
-40.30692854477254
 21
-278.6903021522874
 31
0.0
  0
LINE
  5
17E6
330
17CB
100
AcDbEntity
  8
0
 62
     0
100
AcDbLine
 10
-39.69215944246978
 20
-278.0755330499846
 30
0.0
 11
-39.59237083622737
 21
-277.9757444437422
 31
0.0
  0
LINE
  5
17E7
330
17CB
100
AcDbEntity
  8
0
 62
     0
100
AcDbLine
 10
-40.30692854477248
 20
-278.6903021522873
 30
0.0
 11
-40.20641061560525
 21
-278.5897842231201
 31
0.0
  0
LINE
  5
17E8
330
17CB
100
AcDbEntity
  8
0
 62
     0
100
AcDbLine
 10
-40.16017812122486
 20
-278.5435517287397
 30
0.0
 11
-40.11929130715309
 21
-278.5026649146679
 31
0.0
  0
LINE
  5
17E9
330
17CB
100
AcDbEntity
  8
0
 62
     0
100
AcDbLine
 10
-40.20466276288202
 20
-278.5880363703969
 30
0.0
 11
-40.16017812122502
 21
-278.5435517287398
 31
0.0
  0
LINE
  5
17EA
330
17CB
100
AcDbEntity
  8
0
 62
     0
100
AcDbLine
 10
-40.41225758634928
 20
-278.6630486723916
 30
0.0
 11
-40.23018407840633
 21
-278.4809751644487
 31
0.0
  0
LINE
  5
17EB
330
17CB
100
AcDbEntity
  8
0
 62
     0
100
AcDbLine
 10
-39.73691136690469
 20
-277.987702452947
 30
0.0
 11
-39.6371227606623
 21
-277.8879138467047
 31
0.0
  0
LINE
  5
17EC
330
17CB
100
AcDbEntity
  8
0
 62
     0
100
AcDbLine
 10
-40.23018407840633
 20
-278.4809751644486
 30
0.0
 11
-40.20259152936932
 21
-278.4533826154117
 31
0.0
  0
LINE
  5
17ED
330
17CB
100
AcDbEntity
  8
0
 62
     0
100
AcDbLine
 10
-40.57051962558798
 20
-278.6887281901577
 30
0.0
 11
-40.51758662792604
 21
-278.6357951924959
 31
0.0
  0
LINE
  5
17EE
330
17CB
100
AcDbEntity
  8
0
 62
     0
100
AcDbLine
 10
-39.78166329133961
 20
-277.8998718559094
 30
0.0
 11
-39.68187468509722
 21
-277.8000832496671
 31
0.0
  0
LINE
  5
17EF
330
17CB
100
AcDbEntity
  8
0
 62
     0
100
AcDbLine
 10
-40.51758662792603
 20
-278.6357951924959
 30
0.0
 11
-40.33869630383812
 21
-278.456904868408
 31
0.0
  0
LINE
  5
17F0
330
17CB
100
AcDbEntity
  8
0
 62
     0
100
AcDbLine
 10
-40.33869630383812
 20
-278.456904868408
 30
0.0
 11
-40.24734345380425
 21
-278.3655520183742
 31
0.0
  0
LINE
  5
17F1
330
17CB
100
AcDbEntity
  8
0
 62
     0
100
AcDbLine
 10
-40.84083440815077
 20
-278.8264604512481
 30
0.0
 11
-40.62291566950281
 21
-278.6085417126002
 31
0.0
  0
LINE
  5
17F2
330
17CB
100
AcDbEntity
  8
0
 62
     0
100
AcDbLine
 10
-39.82641521577454
 20
-277.812041258872
 30
0.0
 11
-39.72662660953214
 21
-277.7122526526295
 31
0.0
  0
LINE
  5
17F3
330
17CB
100
AcDbEntity
  8
0
 62
     0
100
AcDbLine
 10
-40.62291566950278
 20
-278.6085417126002
 30
0.0
 11
-40.44720852926992
 21
-278.4328345723673
 31
0.0
  0
LINE
  5
17F4
330
17CB
100
AcDbEntity
  8
0
 62
     0
100
AcDbLine
 10
-40.44720852926991
 20
-278.4328345723673
 30
0.0
 11
-40.29209537823916
 21
-278.2777214213366
 31
0.0
  0
LINE
  5
17F5
330
17CB
100
AcDbEntity
  8
0
 62
     0
100
AcDbLine
 10
-41.07098574326527
 20
-278.9240292648902
 30
0.0
 11
-40.96884180887604
 21
-278.821885330501
 31
0.0
  0
LINE
  5
17F6
330
17CB
100
AcDbEntity
  8
0
 62
     0
100
AcDbLine
 10
-39.87116714020946
 20
-277.7242106618344
 30
0.0
 11
-39.77137853396706
 21
-277.624422055592
 31
0.0
  0
LINE
  5
17F7
330
17CB
100
AcDbEntity
  8
0
 62
     0
100
AcDbLine
 10
-40.96884180887601
 20
-278.8218853305009
 30
0.0
 11
-40.72824471107957
 21
-278.5812882327045
 31
0.0
  0
LINE
  5
17F8
330
17CB
100
AcDbEntity
  8
0
 62
     0
100
AcDbLine
 10
-40.55572075470169
 20
-278.4087642763266
 30
0.0
 11
-40.33684730267409
 21
-278.189890824299
 31
0.0
  0
LINE
  5
17F9
330
17CB
100
AcDbEntity
  8
0
 62
     0
100
AcDbLine
 10
-40.72824471107958
 20
-278.5812882327045
 30
0.0
 11
-40.55572075470172
 21
-278.4087642763266
 31
0.0
  0
LINE
  5
17FA
330
17CB
100
AcDbEntity
  8
0
 62
     0
100
AcDbLine
 10
-41.11573766770019
 20
-278.8361986678526
 30
0.0
 11
-41.01359373331094
 21
-278.7340547334634
 31
0.0
  0
LINE
  5
17FB
330
17CB
100
AcDbEntity
  8
0
 62
     0
100
AcDbLine
 10
-39.91591906464438
 20
-277.6363800647968
 30
0.0
 11
-39.81613045840198
 21
-277.5365914585544
 31
0.0
  0
LINE
  5
17FC
330
17CB
100
AcDbEntity
  8
0
 62
     0
100
AcDbLine
 10
-41.01359373331097
 20
-278.7340547334634
 30
0.0
 11
-40.83357375265634
 21
-278.5540347528088
 31
0.0
  0
LINE
  5
17FD
330
17CB
100
AcDbEntity
  8
0
 62
     0
100
AcDbLine
 10
-40.66423298013347
 20
-278.3846939802859
 30
0.0
 11
-40.38159922710902
 21
-278.1020602272615
 31
0.0
  0
LINE
  5
17FE
330
17CB
100
AcDbEntity
  8
0
 62
     0
100
AcDbLine
 10
-40.83357375265634
 20
-278.5540347528088
 30
0.0
 11
-40.66423298013349
 21
-278.384693980286
 31
0.0
  0
LINE
  5
17FF
330
17CB
100
AcDbEntity
  8
0
 62
     0
100
AcDbLine
 10
-41.16048959213512
 20
-278.7483680708151
 30
0.0
 11
-41.05834565774588
 21
-278.6462241364259
 31
0.0
  0
LINE
  5
1800
330
17CB
100
AcDbEntity
  8
0
 62
     0
100
AcDbLine
 10
-39.96067098907931
 20
-277.5485494677593
 30
0.0
 11
-39.86088238283691
 21
-277.4487608615169
 31
0.0
  0
LINE
  5
1801
330
17CB
100
AcDbEntity
  8
0
 62
     0
100
AcDbLine
 10
-41.05834565774586
 20
-278.6462241364258
 30
0.0
 11
-40.93646758632097
 21
-278.524346065001
 31
0.0
  0
LINE
  5
1802
330
17CB
100
AcDbEntity
  8
0
 62
     0
100
AcDbLine
 10
-40.77274520556526
 20
-278.3606236842452
 30
0.0
 11
-40.42635115154395
 21
-278.0142296302239
 31
0.0
  0
LINE
  5
1803
330
17CB
100
AcDbEntity
  8
0
 62
     0
100
AcDbLine
 10
-40.93646758632099
 20
-278.524346065001
 30
0.0
 11
-40.77274520556528
 21
-278.3606236842453
 31
0.0
  0
LINE
  5
1804
330
17CB
100
AcDbEntity
  8
0
 62
     0
100
AcDbLine
 10
-41.20524151657004
 20
-278.6605374737775
 30
0.0
 11
-41.10309758218079
 21
-278.5583935393883
 31
0.0
  0
LINE
  5
1805
330
17CB
100
AcDbEntity
  8
0
 62
     0
100
AcDbLine
 10
-40.00542291351423
 20
-277.4607188707217
 30
0.0
 11
-39.90563430727183
 21
-277.3609302644794
 31
0.0
  0
LINE
  5
1806
330
17CB
100
AcDbEntity
  8
0
 62
     0
100
AcDbLine
 10
-41.10309758218081
 20
-278.5583935393883
 30
0.0
 11
-40.90160135388338
 21
-278.3568973110909
 31
0.0
  0
LINE
  5
1807
330
17CB
100
AcDbEntity
  8
0
 62
     0
100
AcDbLine
 10
-40.87969543086212
 20
-278.3349913880696
 30
0.0
 11
-40.47110307597886
 21
-277.9263990331864
 31
0.0
  0
LINE
  5
1808
330
17CB
100
AcDbEntity
  8
0
 62
     0
100
AcDbLine
 10
-40.9016013538834
 20
-278.3568973110909
 30
0.0
 11
-40.87969543086214
 21
-278.3349913880696
 31
0.0
  0
LINE
  5
1809
330
17CB
100
AcDbEntity
  8
0
 62
     0
100
AcDbLine
 10
-41.24999344100497
 20
-278.57270687674
 30
0.0
 11
-41.14784950661573
 21
-278.4705629423507
 31
0.0
  0
LINE
  5
180A
330
17CB
100
AcDbEntity
  8
0
 62
     0
100
AcDbLine
 10
-40.05017483794916
 20
-277.3728882736842
 30
0.0
 11
-39.95038623170675
 21
-277.2730996674417
 31
0.0
  0
LINE
  5
180B
330
17CB
100
AcDbEntity
  8
0
 62
     0
100
AcDbLine
 10
-41.14784950661571
 20
-278.4705629423507
 30
0.0
 11
-40.51585500041379
 21
-277.8385684361488
 31
0.0
  0
LINE
  5
180C
330
17CB
100
AcDbEntity
  8
0
 62
     0
100
AcDbLine
 10
-40.13520989857035
 20
-277.4579233343053
 30
0.0
 11
-40.05017483794913
 21
-277.3728882736842
 31
0.0
  0
LINE
  5
180D
330
17CB
100
AcDbEntity
  8
0
 62
     0
100
AcDbLine
 10
-41.29474536543989
 20
-278.4848762797024
 30
0.0
 11
-41.19260143105066
 21
-278.3827323453132
 31
0.0
  0
LINE
  5
180E
330
17CB
100
AcDbEntity
  8
0
 62
     0
100
AcDbLine
 10
-40.09492676238408
 20
-277.2850576766466
 30
0.0
 11
-39.99513815614167
 21
-277.1852690704042
 31
0.0
  0
LINE
  5
180F
330
17CB
100
AcDbEntity
  8
0
 62
     0
100
AcDbLine
 10
-41.19260143105065
 20
-278.3827323453131
 30
0.0
 11
-40.56060692484869
 21
-277.7507378391113
 31
0.0
  0
LINE
  5
1810
330
17CB
100
AcDbEntity
  8
0
 62
     0
100
AcDbLine
 10
-40.39402495983168
 20
-277.5841558740942
 30
0.0
 11
-40.09492676238404
 21
-277.2850576766466
 31
0.0
  0
LINE
  5
1811
330
17CB
100
AcDbEntity
  8
0
 62
     0
100
AcDbLine
 10
-41.3394972898748
 20
-278.3970456826649
 30
0.0
 11
-41.23735335548558
 21
-278.2949017482756
 31
0.0
  0
LINE
  5
1812
330
17CB
100
AcDbEntity
  8
0
 62
     0
100
AcDbLine
 10
-40.13967868681899
 20
-277.197227079609
 30
0.0
 11
-40.0398900805766
 21
-277.0974384733666
 31
0.0
  0
LINE
  5
1813
330
17CB
100
AcDbEntity
  8
0
 62
     0
100
AcDbLine
 10
-41.23735335548557
 20
-278.2949017482756
 30
0.0
 11
-40.65284002109301
 21
-277.7103884138831
 31
0.0
  0
LINE
  5
1814
330
17CB
100
AcDbEntity
  8
0
 62
     0
100
AcDbLine
 10
-40.65284002109302
 20
-277.710388413883
 30
0.0
 11
-40.33209807941335
 21
-277.3896464722034
 31
0.0
  0
LINE
  5
1815
330
17CB
100
AcDbEntity
  8
0
 62
     0
100
AcDbLine
 10
-41.38424921430973
 20
-278.3092150856273
 30
0.0
 11
-41.28210527992051
 21
-278.2070711512381
 31
0.0
  0
LINE
  5
1816
330
17CB
100
AcDbEntity
  8
0
 62
     0
100
AcDbLine
 10
-40.18443061125393
 20
-277.1093964825715
 30
0.0
 11
-40.08464200501151
 21
-277.0096078763291
 31
0.0
  0
LINE
  5
1817
330
17CB
100
AcDbEntity
  8
0
 62
     0
100
AcDbLine
 10
-41.2821052799205
 20
-278.2070711512381
 30
0.0
 11
-40.91165508235433
 21
-277.8366209536719
 31
0.0
  0
LINE
  5
1818
330
17CB
100
AcDbEntity
  8
0
 62
     0
100
AcDbLine
 10
-40.91165508235427
 20
-277.8366209536719
 30
0.0
 11
-40.60241286197611
 21
-277.5273787332937
 31
0.0
  0
LINE
  5
1819
330
17CB
100
AcDbEntity
  8
0
 62
     0
100
AcDbLine
 10
-41.42900113874467
 20
-278.2213844885897
 30
0.0
 11
-41.32685720435543
 21
-278.1192405542005
 31
0.0
  0
LINE
  5
181A
330
17CB
100
AcDbEntity
  8
0
 62
     0
100
AcDbLine
 10
-40.22918253568884
 20
-277.0215658855339
 30
0.0
 11
-40.12939392944644
 21
-276.9217772792915
 31
0.0
  0
LINE
  5
181B
330
17CB
100
AcDbEntity
  8
0
 62
     0
100
AcDbLine
 10
-41.32685720435541
 20
-278.1192405542005
 30
0.0
 11
-40.99595323982196
 21
-277.788336589667
 31
0.0
  0
LINE
  5
181C
330
17CB
100
AcDbEntity
  8
0
 62
     0
100
AcDbLine
 10
-40.87272764453877
 20
-277.6651109943838
 30
0.0
 11
-40.69486269815346
 21
-277.4872460479985
 31
0.0
  0
LINE
  5
181D
330
17CB
100
AcDbEntity
  8
0
 62
     0
100
AcDbLine
 10
-40.99595323982194
 20
-277.788336589667
 30
0.0
 11
-40.87272764453897
 21
-277.665110994384
 31
0.0
  0
LINE
  5
181E
330
17CB
100
AcDbEntity
  8
0
 62
     0
100
AcDbLine
 10
-41.47375306317957
 20
-278.1335538915521
 30
0.0
 11
-41.37160912879036
 21
-278.031409957163
 31
0.0
  0
LINE
  5
181F
330
17CB
100
AcDbEntity
  8
0
 62
     0
100
AcDbLine
 10
-40.27393446012377
 20
-276.9337352884964
 30
0.0
 11
-40.17414585388136
 21
-276.833946682254
 31
0.0
  0
LINE
  5
1820
330
17CB
100
AcDbEntity
  8
0
 62
     0
100
AcDbLine
 10
-41.37160912879035
 20
-278.0314099571629
 30
0.0
 11
-40.73961462258838
 21
-277.399415450961
 31
0.0
  0
LINE
  5
1821
330
17CB
100
AcDbEntity
  8
0
 62
     0
100
AcDbLine
 10
-41.51850498761451
 20
-278.0457232945146
 30
0.0
 11
-41.41636105322528
 21
-277.9435793601255
 31
0.0
  0
LINE
  5
1822
330
17CB
100
AcDbEntity
  8
0
 62
     0
100
AcDbLine
 10
-40.3186863845587
 20
-276.8459046914588
 30
0.0
 11
-40.21889777831629
 21
-276.7461160852164
 31
0.0
  0
LINE
  5
1823
330
17CB
100
AcDbEntity
  8
0
 62
     0
100
AcDbLine
 10
-41.41636105322527
 20
-277.9435793601254
 30
0.0
 11
-40.78436654702331
 21
-277.3115848539234
 31
0.0
  0
LINE
  5
1824
330
17CB
100
AcDbEntity
  8
0
 62
     0
100
AcDbLine
 10
-41.56325691204942
 20
-277.9578926974771
 30
0.0
 11
-41.46111297766021
 21
-277.8557487630879
 31
0.0
  0
LINE
  5
1825
330
17CB
100
AcDbEntity
  8
0
 62
     0
100
AcDbLine
 10
-40.36343830899361
 20
-276.7580740944213
 30
0.0
 11
-40.2636497027512
 21
-276.6582854881789
 31
0.0
  0
LINE
  5
1826
330
17CB
100
AcDbEntity
  8
0
 62
     0
100
AcDbLine
 10
-41.4611129776602
 20
-277.8557487630878
 30
0.0
 11
-40.82911847145823
 21
-277.2237542568859
 31
0.0
  0
LINE
  5
1827
330
17CB
100
AcDbEntity
  8
0
 62
     0
100
AcDbLine
 10
-41.60800883648435
 20
-277.8700621004395
 30
0.0
 11
-41.50586490209513
 21
-277.7679181660503
 31
0.0
  0
LINE
  5
1828
330
17CB
100
AcDbEntity
  8
0
 62
     0
100
AcDbLine
 10
-40.40819023342854
 20
-276.6702434973837
 30
0.0
 11
-40.30840162718615
 21
-276.5704548911414
 31
0.0
  0
LINE
  5
1829
330
17CB
100
AcDbEntity
  8
0
 62
     0
100
AcDbLine
 10
-41.50586490209512
 20
-277.7679181660503
 30
0.0
 11
-40.87387039589315
 21
-277.1359236598483
 31
0.0
  0
LINE
  5
182A
330
17CB
100
AcDbEntity
  8
0
 62
     0
100
AcDbLine
 10
-41.65276076091928
 20
-277.782231503402
 30
0.0
 11
-41.55061682653006
 21
-277.6800875690128
 31
0.0
  0
LINE
  5
182B
330
17CB
100
AcDbEntity
  8
0
 62
     0
100
AcDbLine
 10
-40.45294215786347
 20
-276.5824129003462
 30
0.0
 11
-40.35315355162107
 21
-276.4826242941037
 31
0.0
  0
LINE
  5
182C
330
17CB
100
AcDbEntity
  8
0
 62
     0
100
AcDbLine
 10
-41.55061682653004
 20
-277.6800875690128
 30
0.0
 11
-40.91862232032808
 21
-277.0480930628108
 31
0.0
  0
LINE
  5
182D
330
17CB
100
AcDbEntity
  8
0
 62
     0
100
AcDbLine
 10
-41.6975126853542
 20
-277.6944009063644
 30
0.0
 11
-41.59536875096497
 21
-277.5922569719752
 31
0.0
  0
LINE
  5
182E
330
17CB
100
AcDbEntity
  8
0
 62
     0
100
AcDbLine
 10
-40.49769408229838
 20
-276.4945823033086
 30
0.0
 11
-40.39790547605599
 21
-276.3947936970662
 31
0.0
  0
LINE
  5
182F
330
17CB
100
AcDbEntity
  8
0
 62
     0
100
AcDbLine
 10
-41.59536875096496
 20
-277.5922569719751
 30
0.0
 11
-40.963374244763
 21
-276.9602624657732
 31
0.0
  0
LINE
  5
1830
330
17CB
100
AcDbEntity
  8
0
 62
     0
100
AcDbLine
 10
-41.74226460978912
 20
-277.6065703093268
 30
0.0
 11
-41.6401206753999
 21
-277.5044263749377
 31
0.0
  0
LINE
  5
1831
330
17CB
100
AcDbEntity
  8
0
 62
     0
100
AcDbLine
 10
-40.54244600673332
 20
-276.4067517062711
 30
0.0
 11
-40.44265740049091
 21
-276.3069631000287
 31
0.0
  0
LINE
  5
1832
330
17CB
100
AcDbEntity
  8
0
 62
     0
100
AcDbLine
 10
-41.64012067539989
 20
-277.5044263749376
 30
0.0
 11
-41.00812616919793
 21
-276.8724318687357
 31
0.0
  0
LINE
  5
1833
330
17CB
100
AcDbEntity
  8
0
 62
     0
100
AcDbLine
 10
-41.78701653422404
 20
-277.5187397122893
 30
0.0
 11
-41.68487259983481
 21
-277.4165957779001
 31
0.0
  0
LINE
  5
1834
330
17CB
100
AcDbEntity
  8
0
 62
     0
100
AcDbLine
 10
-40.58719793116824
 20
-276.3189211092335
 30
0.0
 11
-40.48740932492584
 21
-276.2191325029911
 31
0.0
  0
LINE
  5
1835
330
17CB
100
AcDbEntity
  8
0
 62
     0
100
AcDbLine
 10
-41.68487259983482
 20
-277.4165957779001
 30
0.0
 11
-41.05287809363285
 21
-276.7846012716981
 31
0.0
  0
LINE
  5
1836
330
17CB
100
AcDbEntity
  8
0
 62
     0
100
AcDbLine
 10
-41.83176845865896
 20
-277.4309091152518
 30
0.0
 11
-41.72962452426975
 21
-277.3287651808626
 31
0.0
  0
LINE
  5
1837
330
17CB
100
AcDbEntity
  8
0
 62
     0
100
AcDbLine
 10
-40.63194985560315
 20
-276.2310905121959
 30
0.0
 11
-40.53216124936076
 21
-276.1313019059535
 31
0.0
  0
LINE
  5
1838
330
17CB
100
AcDbEntity
  8
0
 62
     0
100
AcDbLine
 10
-41.72962452426975
 20
-277.3287651808625
 30
0.0
 11
-41.09763001806778
 21
-276.6967706746606
 31
0.0
  0
LINE
  5
1839
330
17CB
100
AcDbEntity
  8
0
 62
     0
100
AcDbLine
 10
-41.8765203830939
 20
-277.3430785182142
 30
0.0
 11
-41.77437644870467
 21
-277.240934583825
 31
0.0
  0
LINE
  5
183A
330
17CB
100
AcDbEntity
  8
0
 62
     0
100
AcDbLine
 10
-40.67670178003808
 20
-276.1432599151584
 30
0.0
 11
-40.57691317379568
 21
-276.043471308916
 31
0.0
  0
LINE
  5
183B
330
17CB
100
AcDbEntity
  8
0
 62
     0
100
AcDbLine
 10
-41.77437644870467
 20
-277.240934583825
 30
0.0
 11
-41.1423819425027
 21
-276.608940077623
 31
0.0
  0
LINE
  5
183C
330
17CB
100
AcDbEntity
  8
0
 62
     0
100
AcDbLine
 10
-41.92127230752881
 20
-277.2552479211766
 30
0.0
 11
-41.8191283731396
 21
-277.1531039867875
 31
0.0
  0
LINE
  5
183D
330
17CB
100
AcDbEntity
  8
0
 62
     0
100
AcDbLine
 10
-40.72145370447301
 20
-276.0554293181209
 30
0.0
 11
-40.6216650982306
 21
-275.9556407118785
 31
0.0
  0
LINE
  5
183E
330
17CB
100
AcDbEntity
  8
0
 62
     0
100
AcDbLine
 10
-41.81912837313959
 20
-277.1531039867874
 30
0.0
 11
-41.18713386693762
 21
-276.5211094805855
 31
0.0
  0
LINE
  5
183F
330
17CB
100
AcDbEntity
  8
0
 62
     0
100
AcDbLine
 10
-41.96602423196374
 20
-277.1674173241391
 30
0.0
 11
-41.86388029757452
 21
-277.0652733897499
 31
0.0
  0
LINE
  5
1840
330
17CB
100
AcDbEntity
  8
0
 62
     0
100
AcDbLine
 10
-35.8061910555824
 20
-271.0075841477578
 30
0.0
 11
-35.70443277119299
 21
-270.9058258633683
 31
0.0
  0
LINE
  5
1841
330
17CB
100
AcDbEntity
  8
0
 62
     0
100
AcDbLine
 10
-41.86388029757451
 20
-277.0652733897498
 30
0.0
 11
-41.23188579137255
 21
-276.4332788835479
 31
0.0
  0
LINE
  5
1842
330
17CB
100
AcDbEntity
  8
0
 62
     0
100
AcDbLine
 10
-40.76620562890794
 20
-275.9675987210833
 30
0.0
 11
-40.66641702266553
 21
-275.8678101148409
 31
0.0
  0
LINE
  5
1843
330
17CB
100
AcDbEntity
  8
0
 62
     0
100
AcDbLine
 10
-42.01077615639866
 20
-277.0795867271015
 30
0.0
 11
-41.90863222200944
 21
-276.9774427927123
 31
0.0
  0
LINE
  5
1844
330
17CB
100
AcDbEntity
  8
0
 62
     0
100
AcDbLine
 10
-35.93877357705487
 20
-271.0075841477578
 30
0.0
 11
-35.70443277119299
 21
-270.7732433418959
 31
0.0
  0
LINE
  5
1845
330
17CB
100
AcDbEntity
  8
0
 62
     0
100
AcDbLine
 10
-41.90863222200944
 20
-276.9774427927123
 30
0.0
 11
-41.27663771580747
 21
-276.3454482865104
 31
0.0
  0
LINE
  5
1846
330
17CB
100
AcDbEntity
  8
0
 62
     0
100
AcDbLine
 10
-40.81095755334286
 20
-275.8797681240458
 30
0.0
 11
-40.71116894710044
 21
-275.7799795178034
 31
0.0
  0
LINE
  5
1847
330
17CB
100
AcDbEntity
  8
0
 62
     0
100
AcDbLine
 10
-42.05552808083359
 20
-276.991756130064
 30
0.0
 11
-41.95338414644437
 21
-276.8896121956748
 31
0.0
  0
LINE
  5
1848
330
17CB
100
AcDbEntity
  8
0
 62
     0
100
AcDbLine
 10
-36.07135609852736
 20
-271.0075841477578
 30
0.0
 11
-35.70443277119299
 21
-270.6406608204234
 31
0.0
  0
LINE
  5
1849
330
17CB
100
AcDbEntity
  8
0
 62
     0
100
AcDbLine
 10
-41.95338414644437
 20
-276.8896121956748
 30
0.0
 11
-41.32138964024239
 21
-276.2576176894728
 31
0.0
  0
LINE
  5
184A
330
17CB
100
AcDbEntity
  8
0
 62
     0
100
AcDbLine
 10
-40.85570947777777
 20
-275.7919375270082
 30
0.0
 11
-40.75592087153537
 21
-275.6921489207658
 31
0.0
  0
LINE
  5
184B
330
17CB
100
AcDbEntity
  8
0
 62
     0
100
AcDbLine
 10
-42.10028000526851
 20
-276.9039255330264
 30
0.0
 11
-41.99813607087929
 21
-276.8017815986373
 31
0.0
  0
LINE
  5
184C
330
17CB
100
AcDbEntity
  8
0
 62
     0
100
AcDbLine
 10
-36.20393861999985
 20
-271.0075841477578
 30
0.0
 11
-35.70443277119299
 21
-270.5080782989509
 31
0.0
  0
LINE
  5
184D
330
17CB
100
AcDbEntity
  8
0
 62
     0
100
AcDbLine
 10
-41.99813607087929
 20
-276.8017815986372
 30
0.0
 11
-41.36614156467731
 21
-276.1697870924352
 31
0.0
  0
LINE
  5
184E
330
17CB
100
AcDbEntity
  8
0
 62
     0
100
AcDbLine
 10
-40.90046140221271
 20
-275.7041069299706
 30
0.0
 11
-40.80067279597029
 21
-275.6043183237283
 31
0.0
  0
LINE
  5
184F
330
17CB
100
AcDbEntity
  8
0
 62
     0
100
AcDbLine
 10
-42.14503192970343
 20
-276.8160949359889
 30
0.0
 11
-42.04288799531422
 21
-276.7139510015997
 31
0.0
  0
LINE
  5
1850
330
17CB
100
AcDbEntity
  8
0
 62
     0
100
AcDbLine
 10
-36.33652114147233
 20
-271.0075841477578
 30
0.0
 11
-35.70443277119299
 21
-270.3754957774785
 31
0.0
  0
LINE
  5
1851
330
17CB
100
AcDbEntity
  8
0
 62
     0
100
AcDbLine
 10
-42.04288799531422
 20
-276.7139510015996
 30
0.0
 11
-41.41089348911224
 21
-276.0819564953977
 31
0.0
  0
LINE
  5
1852
330
17CB
100
AcDbEntity
  8
0
 62
     0
100
AcDbLine
 10
-40.94521332664762
 20
-275.6162763329331
 30
0.0
 11
-40.84542472040522
 21
-275.5164877266907
 31
0.0
  0
LINE
  5
1853
330
17CB
100
AcDbEntity
  8
0
 62
     0
100
AcDbLine
 10
-42.18978385413836
 20
-276.7282643389513
 30
0.0
 11
-42.08763991974914
 21
-276.6261204045621
 31
0.0
  0
LINE
  5
1854
330
17CB
100
AcDbEntity
  8
0
 62
     0
100
AcDbLine
 10
-36.46910366294478
 20
-271.0075841477578
 30
0.0
 11
-35.70443277119299
 21
-270.242913256006
 31
0.0
  0
LINE
  5
1855
330
17CB
100
AcDbEntity
  8
0
 62
     0
100
AcDbLine
 10
-42.08763991974914
 20
-276.6261204045621
 30
0.0
 11
-41.45564541354717
 21
-275.9941258983601
 31
0.0
  0
LINE
  5
1856
330
17CB
100
AcDbEntity
  8
0
 62
     0
100
AcDbLine
 10
-40.98996525108254
 20
-275.5284457358955
 30
0.0
 11
-40.89017664484013
 21
-275.4286571296531
 31
0.0
  0
LINE
  5
1857
330
17CB
100
AcDbEntity
  8
0
 62
     0
100
AcDbLine
 10
-42.23453577857329
 20
-276.6404337419138
 30
0.0
 11
-42.13239184418406
 21
-276.5382898075245
 31
0.0
  0
LINE
  5
1858
330
17CB
100
AcDbEntity
  8
0
 62
     0
100
AcDbLine
 10
-36.60168618441726
 20
-271.0075841477578
 30
0.0
 11
-35.7069169949642
 21
-270.1128149583047
 31
0.0
  0
LINE
  5
1859
330
17CB
100
AcDbEntity
  8
0
 62
     0
100
AcDbLine
 10
-42.13239184418408
 20
-276.5382898075245
 30
0.0
 11
-41.50039733798208
 21
-275.9062953013226
 31
0.0
  0
LINE
  5
185A
330
17CB
100
AcDbEntity
  8
0
 62
     0
100
AcDbLine
 10
-41.03471717551747
 20
-275.4406151388579
 30
0.0
 11
-40.93492856927506
 21
-275.3408265326156
 31
0.0
  0
LINE
  5
185B
330
17CB
100
AcDbEntity
  8
0
 62
     0
100
AcDbLine
 10
-42.2792877030082
 20
-276.5526031448762
 30
0.0
 11
-42.17714376861898
 21
-276.450459210487
 31
0.0
  0
LINE
  5
185C
330
17CB
100
AcDbEntity
  8
0
 62
     0
100
AcDbLine
 10
-36.73426870588975
 20
-271.0075841477578
 30
0.0
 11
-35.83949951643669
 21
-270.1128149583047
 31
0.0
  0
LINE
  5
185D
330
17CB
100
AcDbEntity
  8
0
 62
     0
100
AcDbLine
 10
-42.17714376861898
 20
-276.450459210487
 30
0.0
 11
-41.54514926241701
 21
-275.818464704285
 31
0.0
  0
LINE
  5
185E
330
17CB
100
AcDbEntity
  8
0
 62
     0
100
AcDbLine
 10
-41.0794690999524
 20
-275.3527845418204
 30
0.0
 11
-40.97968049370998
 21
-275.2529959355781
 31
0.0
  0
LINE
  5
185F
330
17CB
100
AcDbEntity
  8
0
 62
     0
100
AcDbLine
 10
-42.32403962744313
 20
-276.4647725478386
 30
0.0
 11
-42.22189569305391
 21
-276.3626286134495
 31
0.0
  0
LINE
  5
1860
330
17CB
100
AcDbEntity
  8
0
 62
     0
100
AcDbLine
 10
-36.86685122736224
 20
-271.0075841477578
 30
0.0
 11
-35.97208203790917
 21
-270.1128149583047
 31
0.0
  0
LINE
  5
1861
330
17CB
100
AcDbEntity
  8
0
 62
     0
100
AcDbLine
 10
-42.22189569305391
 20
-276.3626286134494
 30
0.0
 11
-41.58990118685194
 21
-275.7306341072474
 31
0.0
  0
LINE
  5
1862
330
17CB
100
AcDbEntity
  8
0
 62
     0
100
AcDbLine
 10
-41.12422102438733
 20
-275.2649539447828
 30
0.0
 11
-41.02443241814492
 21
-275.1651653385405
 31
0.0
  0
LINE
  5
1863
330
17CB
100
AcDbEntity
  8
0
 62
     0
100
AcDbLine
 10
-42.36879155187804
 20
-276.3769419508011
 30
0.0
 11
-42.2684645752521
 21
-276.2766149741751
 31
0.0
  0
LINE
  5
1864
330
17CB
100
AcDbEntity
  8
0
 62
     0
100
AcDbLine
 10
-36.99943374883472
 20
-271.0075841477578
 30
0.0
 11
-36.10466455938166
 21
-270.1128149583047
 31
0.0
  0
LINE
  5
1865
330
17CB
100
AcDbEntity
  8
0
 62
     0
100
AcDbLine
 10
-42.26664761748884
 20
-276.2747980164119
 30
0.0
 11
-42.19792528481469
 21
-276.2060756837377
 31
0.0
  0
LINE
  5
1866
330
17CB
100
AcDbEntity
  8
0
 62
     0
100
AcDbLine
 10
-41.16897294882225
 20
-275.1771233477454
 30
0.0
 11
-41.06918434257984
 21
-275.0773347415029
 31
0.0
  0
LINE
  5
1867
330
17CB
100
AcDbEntity
  8
0
 62
     0
100
AcDbLine
 10
-42.1979252848146
 20
-276.2060756837377
 30
0.0
 11
-42.10043854447298
 21
-276.108588943396
 31
0.0
  0
LINE
  5
1868
330
17CB
100
AcDbEntity
  8
0
 62
     0
100
AcDbLine
 10
-41.99598251496389
 20
-276.004132913887
 30
0.0
 11
-41.63465311128686
 21
-275.6428035102099
 31
0.0
  0
LINE
  5
1869
330
17CB
100
AcDbEntity
  8
0
 62
     0
100
AcDbLine
 10
-42.10043854447292
 20
-276.1085889433959
 30
0.0
 11
-42.09566753742882
 21
-276.1038179363519
 31
0.0
  0
LINE
  5
186A
330
17CB
100
AcDbEntity
  8
0
 62
     0
100
AcDbLine
 10
-42.09566753742871
 20
-276.1038179363518
 30
0.0
 11
-41.99598251496389
 21
-276.004132913887
 31
0.0
  0
LINE
  5
186B
330
17CB
100
AcDbEntity
  8
0
 62
     0
100
AcDbLine
 10
-42.41354347631298
 20
-276.2891113537635
 30
0.0
 11
-42.31321649968703
 21
-276.1887843771376
 31
0.0
  0
LINE
  5
186C
330
17CB
100
AcDbEntity
  8
0
 62
     0
100
AcDbLine
 10
-37.13201627030717
 20
-271.0075841477578
 30
0.0
 11
-36.23724708085414
 21
-270.1128149583047
 31
0.0
  0
LINE
  5
186D
330
17CB
100
AcDbEntity
  8
0
 62
     0
100
AcDbLine
 10
-42.31139954192374
 20
-276.1869674193743
 30
0.0
 11
-42.1892754338011
 21
-276.0648433112517
 31
0.0
  0
LINE
  5
186E
330
17CB
100
AcDbEntity
  8
0
 62
     0
100
AcDbLine
 10
-41.21372487325716
 20
-275.0892927507078
 30
0.0
 11
-41.11393626701477
 21
-274.9895041444653
 31
0.0
  0
LINE
  5
186F
330
17CB
100
AcDbEntity
  8
0
 62
     0
100
AcDbLine
 10
-42.18927543380108
 20
-276.0648433112517
 30
0.0
 11
-42.14458912338753
 21
-276.0201570008381
 31
0.0
  0
LINE
  5
1870
330
17CB
100
AcDbEntity
  8
0
 62
     0
100
AcDbLine
 10
-41.96714156490001
 20
-275.8427094423506
 30
0.0
 11
-41.67940503572178
 21
-275.5549729131724
 31
0.0
  0
LINE
  5
1871
330
17CB
100
AcDbEntity
  8
0
 62
     0
100
AcDbLine
 10
-42.11450619999326
 20
-275.9900740774438
 30
0.0
 11
-41.96714156489998
 21
-275.8427094423506
 31
0.0
  0
LINE
  5
1872
330
17CB
100
AcDbEntity
  8
0
 62
     0
100
AcDbLine
 10
-42.4582954007479
 20
-276.201280756726
 30
0.0
 11
-42.35796842412195
 21
-276.1009537801001
 31
0.0
  0
LINE
  5
1873
330
17CB
100
AcDbEntity
  8
0
 62
     0
100
AcDbLine
 10
-37.26459879177965
 20
-271.0075841477578
 30
0.0
 11
-36.36982960232659
 21
-270.1128149583047
 31
0.0
  0
LINE
  5
1874
330
17CB
100
AcDbEntity
  8
0
 62
     0
100
AcDbLine
 10
-42.35615146635868
 20
-276.0991368223368
 30
0.0
 11
-42.27628628029851
 21
-276.0192716362766
 31
0.0
  0
LINE
  5
1875
330
17CB
100
AcDbEntity
  8
0
 62
     0
100
AcDbLine
 10
-41.2584767976921
 20
-275.0014621536702
 30
0.0
 11
-41.15868819144969
 21
-274.9016735474278
 31
0.0
  0
LINE
  5
1876
330
17CB
100
AcDbEntity
  8
0
 62
     0
100
AcDbLine
 10
-42.27628628029848
 20
-276.0192716362765
 30
0.0
 11
-41.83861559237119
 21
-275.5816009483493
 31
0.0
  0
LINE
  5
1877
330
17CB
100
AcDbEntity
  8
0
 62
     0
100
AcDbLine
 10
-41.83861559237118
 20
-275.5816009483492
 30
0.0
 11
-41.72415696015671
 21
-275.4671423161348
 31
0.0
  0
LINE
  5
1878
330
17CB
100
AcDbEntity
  8
0
 62
     0
100
AcDbLine
 10
-42.50304732518282
 20
-276.1134501596885
 30
0.0
 11
-42.40272034855689
 21
-276.0131231830625
 31
0.0
  0
LINE
  5
1879
330
17CB
100
AcDbEntity
  8
0
 62
     0
100
AcDbLine
 10
-37.39718131325214
 20
-271.0075841477578
 30
0.0
 11
-36.50241212379908
 21
-270.1128149583047
 31
0.0
  0
LINE
  5
187A
330
17CB
100
AcDbEntity
  8
0
 62
     0
100
AcDbLine
 10
-42.4009033907936
 20
-276.0113062252992
 30
0.0
 11
-42.19714334742477
 21
-275.8075461819304
 31
0.0
  0
LINE
  5
187B
330
17CB
100
AcDbEntity
  8
0
 62
     0
100
AcDbLine
 10
-41.30322872212701
 20
-274.9136315566326
 30
0.0
 11
-41.20344011588461
 21
-274.8138429503903
 31
0.0
  0
LINE
  5
187C
330
17CB
100
AcDbEntity
  8
0
 62
     0
100
AcDbLine
 10
-42.19714334742469
 20
-275.8075461819303
 30
0.0
 11
-42.14776030776967
 21
-275.7581631422754
 31
0.0
  0
LINE
  5
187D
330
17CB
100
AcDbEntity
  8
0
 62
     0
100
AcDbLine
 10
-42.14776030776969
 20
-275.7581631422754
 30
0.0
 11
-41.71008961984234
 21
-275.320492454348
 31
0.0
  0
LINE
  5
187E
330
17CB
100
AcDbEntity
  8
0
 62
     0
100
AcDbLine
 10
-42.54779924961775
 20
-276.0256195626509
 30
0.0
 11
-42.44747227299181
 21
-275.925292586025
 31
0.0
  0
LINE
  5
187F
330
17CB
100
AcDbEntity
  8
0
 62
     0
100
AcDbLine
 10
-37.52976383472462
 20
-271.0075841477578
 30
0.0
 11
-36.63499464527156
 21
-270.1128149583047
 31
0.0
  0
LINE
  5
1880
330
17CB
100
AcDbEntity
  8
0
 62
     0
100
AcDbLine
 10
-42.44565531522854
 20
-275.9234756282617
 30
0.0
 11
-42.01923433524084
 21
-275.497054648274
 31
0.0
  0
LINE
  5
1881
330
17CB
100
AcDbEntity
  8
0
 62
     0
100
AcDbLine
 10
-41.34798064656194
 20
-274.8258009595951
 30
0.0
 11
-41.24819204031953
 21
-274.7260123533527
 31
0.0
  0
LINE
  5
1882
330
17CB
100
AcDbEntity
  8
0
 62
     0
100
AcDbLine
 10
-42.01923433524087
 20
-275.497054648274
 30
0.0
 11
-41.58156364731355
 21
-275.0593839603467
 31
0.0
  0
LINE
  5
1883
330
17CB
100
AcDbEntity
  8
0
 62
     0
100
AcDbLine
 10
-42.59255117405266
 20
-275.9377889656133
 30
0.0
 11
-42.49040723966347
 21
-275.8356450312241
 31
0.0
  0
LINE
  5
1884
330
17CB
100
AcDbEntity
  8
0
 62
     0
100
AcDbLine
 10
-37.6623463561971
 20
-271.0075841477578
 30
0.0
 11
-36.76757716674404
 21
-270.1128149583047
 31
0.0
  0
LINE
  5
1885
330
17CB
100
AcDbEntity
  8
0
 62
     0
100
AcDbLine
 10
-42.49040723966347
 20
-275.8356450312241
 30
0.0
 11
-41.89070836271205
 21
-275.2359461542728
 31
0.0
  0
LINE
  5
1886
330
17CB
100
AcDbEntity
  8
0
 62
     0
100
AcDbLine
 10
-41.39273257099687
 20
-274.7379703625575
 30
0.0
 11
-41.29294396475446
 21
-274.6381817563151
 31
0.0
  0
LINE
  5
1887
330
17CB
100
AcDbEntity
  8
0
 62
     0
100
AcDbLine
 10
-41.89070836271203
 20
-275.2359461542727
 30
0.0
 11
-41.45303767478471
 21
-274.7982754663454
 31
0.0
  0
LINE
  5
1888
330
17CB
100
AcDbEntity
  8
0
 62
     0
100
AcDbLine
 10
-42.63730309848759
 20
-275.8499583685758
 30
0.0
 11
-42.53515916409838
 21
-275.7478144341866
 31
0.0
  0
LINE
  5
1889
330
17CB
100
AcDbEntity
  8
0
 62
     0
100
AcDbLine
 10
-37.79492887766956
 20
-271.0075841477578
 30
0.0
 11
-36.90015968821653
 21
-270.1128149583047
 31
0.0
  0
LINE
  5
188A
330
17CB
100
AcDbEntity
  8
0
 62
     0
100
AcDbLine
 10
-42.53515916409839
 20
-275.7478144341866
 30
0.0
 11
-41.90316465789641
 21
-275.1158199279846
 31
0.0
  0
LINE
  5
188B
330
17CB
100
AcDbEntity
  8
0
 62
     0
100
AcDbLine
 10
-41.76218239018321
 20
-274.9748376602715
 30
0.0
 11
-41.32451170225591
 21
-274.5371669723441
 31
0.0
  0
LINE
  5
188C
330
17CB
100
AcDbEntity
  8
0
 62
     0
100
AcDbLine
 10
-42.68205502292253
 20
-275.7621277715383
 30
0.0
 11
-42.57991108853331
 21
-275.6599838371491
 31
0.0
  0
LINE
  5
188D
330
17CB
100
AcDbEntity
  8
0
 62
     0
100
AcDbLine
 10
-37.92751139914204
 20
-271.0075841477578
 30
0.0
 11
-37.03274220968898
 21
-270.1128149583047
 31
0.0
  0
LINE
  5
188E
330
17CB
100
AcDbEntity
  8
0
 62
     0
100
AcDbLine
 10
-42.57991108853332
 20
-275.659983837149
 30
0.0
 11
-41.94791658233133
 21
-275.027989330947
 31
0.0
  0
LINE
  5
188F
330
17CB
100
AcDbEntity
  8
0
 62
     0
100
AcDbLine
 10
-41.63365641765442
 20
-274.7137291662701
 30
0.0
 11
-41.19598572972707
 21
-274.2760584783428
 31
0.0
  0
LINE
  5
1890
330
17CB
100
AcDbEntity
  8
0
 62
     0
100
AcDbLine
 10
-42.72680694735743
 20
-275.6742971745007
 30
0.0
 11
-42.62466301296824
 21
-275.5721532401115
 31
0.0
  0
LINE
  5
1891
330
17CB
100
AcDbEntity
  8
0
 62
     0
100
AcDbLine
 10
-38.06009392061452
 20
-271.0075841477578
 30
0.0
 11
-37.16532473116146
 21
-270.1128149583047
 31
0.0
  0
LINE
  5
1892
330
17CB
100
AcDbEntity
  8
0
 62
     0
100
AcDbLine
 10
-42.62466301296824
 20
-275.5721532401115
 30
0.0
 11
-41.99266850676624
 21
-274.9401587339095
 31
0.0
  0
LINE
  5
1893
330
17CB
100
AcDbEntity
  8
0
 62
     0
100
AcDbLine
 10
-41.24320808781802
 20
-274.1906983149613
 30
0.0
 11
-41.16028905131896
 21
-274.1077792784622
 31
0.0
  0
LINE
  5
1894
330
17CB
100
AcDbEntity
  8
0
 62
     0
100
AcDbLine
 10
-41.52698834430164
 20
-274.4744785714449
 30
0.0
 11
-41.50513044512558
 21
-274.4526206722688
 31
0.0
  0
LINE
  5
1895
330
17CB
100
AcDbEntity
  8
0
 62
     0
100
AcDbLine
 10
-41.2918472873847
 20
-274.2393375145279
 30
0.0
 11
-41.26594175883485
 21
-274.2134319859781
 31
0.0
  0
LINE
  5
1896
330
17CB
100
AcDbEntity
  8
0
 62
     0
100
AcDbLine
 10
-41.50513044512556
 20
-274.4526206722688
 30
0.0
 11
-41.29184728738475
 21
-274.239337514528
 31
0.0
  0
LINE
  5
1897
330
17CB
100
AcDbEntity
  8
0
 62
     0
100
AcDbLine
 10
-42.77155887179236
 20
-275.5864665774631
 30
0.0
 11
-42.66941493740316
 21
-275.484322643074
 31
0.0
  0
LINE
  5
1898
330
17CB
100
AcDbEntity
  8
0
 62
     0
100
AcDbLine
 10
-38.192676442087
 20
-271.0075841477578
 30
0.0
 11
-37.29790725263395
 21
-270.1128149583047
 31
0.0
  0
LINE
  5
1899
330
17CB
100
AcDbEntity
  8
0
 62
     0
100
AcDbLine
 10
-42.66941493740316
 20
-275.484322643074
 30
0.0
 11
-42.03742043120118
 21
-274.8523281368719
 31
0.0
  0
LINE
  5
189A
330
17CB
100
AcDbEntity
  8
0
 62
     0
100
AcDbLine
 10
-41.39132135807054
 20
-274.2062290637413
 30
0.0
 11
-41.15044255176923
 21
-273.96535025744
 31
0.0
  0
LINE
  5
189B
330
17CB
100
AcDbEntity
  8
0
 62
     0
100
AcDbLine
 10
-41.57174026873658
 20
-274.3866479744074
 30
0.0
 11
-41.47195166249413
 21
-274.2868593681649
 31
0.0
  0
LINE
  5
189C
330
17CB
100
AcDbEntity
  8
0
 62
     0
100
AcDbLine
 10
-42.81631079622728
 20
-275.4986359804255
 30
0.0
 11
-42.71416686183809
 21
-275.3964920460364
 31
0.0
  0
LINE
  5
189D
330
17CB
100
AcDbEntity
  8
0
 62
     0
100
AcDbLine
 10
-38.32525896355949
 20
-271.0075841477578
 30
0.0
 11
-37.43048977410643
 21
-270.1128149583047
 31
0.0
  0
LINE
  5
189E
330
17CB
100
AcDbEntity
  8
0
 62
     0
100
AcDbLine
 10
-42.71416686183809
 20
-275.3964920460364
 30
0.0
 11
-42.0821723556361
 21
-274.7644975398344
 31
0.0
  0
LINE
  5
189F
330
17CB
100
AcDbEntity
  8
0
 62
     0
100
AcDbLine
 10
-41.3814748585208
 20
-274.0638000427191
 30
0.0
 11
-41.1405960522195
 21
-273.8229212364178
 31
0.0
  0
LINE
  5
18A0
330
17CB
100
AcDbEntity
  8
0
 62
     0
100
AcDbLine
 10
-41.6164921931715
 20
-274.2988173773698
 30
0.0
 11
-41.51670358692905
 21
-274.1990287711273
 31
0.0
  0
LINE
  5
18A1
330
17CB
100
AcDbEntity
  8
0
 62
     0
100
AcDbLine
 10
-42.86106272066221
 20
-275.410805383388
 30
0.0
 11
-42.75891878627302
 21
-275.3086614489988
 31
0.0
  0
LINE
  5
18A2
330
17CB
100
AcDbEntity
  8
0
 62
     0
100
AcDbLine
 10
-38.45784148503194
 20
-271.0075841477578
 30
0.0
 11
-37.56307229557891
 21
-270.1128149583047
 31
0.0
  0
LINE
  5
18A3
330
17CB
100
AcDbEntity
  8
0
 62
     0
100
AcDbLine
 10
-42.75891878627301
 20
-275.3086614489988
 30
0.0
 11
-42.12692428007102
 21
-274.6766669427968
 31
0.0
  0
LINE
  5
18A4
330
17CB
100
AcDbEntity
  8
0
 62
     0
100
AcDbLine
 10
-41.37162835897107
 20
-273.9213710216969
 30
0.0
 11
-41.13074955266977
 21
-273.6804922153956
 31
0.0
  0
LINE
  5
18A5
330
17CB
100
AcDbEntity
  8
0
 62
     0
100
AcDbLine
 10
-41.66124411760642
 20
-274.2109867803322
 30
0.0
 11
-41.56145551136398
 21
-274.1111981740898
 31
0.0
  0
LINE
  5
18A6
330
17CB
100
AcDbEntity
  8
0
 62
     0
100
AcDbLine
 10
-42.90581464509713
 20
-275.3229747863504
 30
0.0
 11
-42.80367071070794
 21
-275.2208308519613
 31
0.0
  0
LINE
  5
18A7
330
17CB
100
AcDbEntity
  8
0
 62
     0
100
AcDbLine
 10
-38.59042400650442
 20
-271.0075841477578
 30
0.0
 11
-37.69565481705136
 21
-270.1128149583047
 31
0.0
  0
LINE
  5
18A8
330
17CB
100
AcDbEntity
  8
0
 62
     0
100
AcDbLine
 10
-42.80367071070794
 20
-275.2208308519613
 30
0.0
 11
-42.17167620450595
 21
-274.5888363457593
 31
0.0
  0
LINE
  5
18A9
330
17CB
100
AcDbEntity
  8
0
 62
     0
100
AcDbLine
 10
-41.36178185942134
 20
-273.7789420006746
 30
0.0
 11
-41.12090305312004
 21
-273.5380631943733
 31
0.0
  0
LINE
  5
18AA
330
17CB
100
AcDbEntity
  8
0
 62
     0
100
AcDbLine
 10
-41.70599604204134
 20
-274.1231561832947
 30
0.0
 11
-41.60620743579889
 21
-274.0233675770522
 31
0.0
  0
LINE
  5
18AB
330
17CB
100
AcDbEntity
  8
0
 62
     0
100
AcDbLine
 10
-42.95056656953206
 20
-275.2351441893129
 30
0.0
 11
-42.84842263514287
 21
-275.1330002549237
 31
0.0
  0
LINE
  5
18AC
330
17CB
100
AcDbEntity
  8
0
 62
     0
100
AcDbLine
 10
-38.72300652797691
 20
-271.0075841477578
 30
0.0
 11
-37.82823733852385
 21
-270.1128149583047
 31
0.0
  0
LINE
  5
18AD
330
17CB
100
AcDbEntity
  8
0
 62
     0
100
AcDbLine
 10
-42.84842263514287
 20
-275.1330002549237
 30
0.0
 11
-42.21642812894087
 21
-274.5010057487217
 31
0.0
  0
LINE
  5
18AE
330
17CB
100
AcDbEntity
  8
0
 62
     0
100
AcDbLine
 10
-41.35193535987162
 20
-273.6365129796524
 30
0.0
 11
-41.11105655357031
 21
-273.3956341733511
 31
0.0
  0
LINE
  5
18AF
330
17CB
100
AcDbEntity
  8
0
 62
     0
100
AcDbLine
 10
-41.75074796647627
 20
-274.0353255862571
 30
0.0
 11
-41.65095936023383
 21
-273.9355369800147
 31
0.0
  0
LINE
  5
18B0
330
17CB
100
AcDbEntity
  8
0
 62
     0
100
AcDbLine
 10
-42.99531849396698
 20
-275.1473135922753
 30
0.0
 11
-42.89317455957778
 21
-275.0451696578862
 31
0.0
  0
LINE
  5
18B1
330
17CB
100
AcDbEntity
  8
0
 62
     0
100
AcDbLine
 10
-38.85558904944939
 20
-271.0075841477578
 30
0.0
 11
-37.96081985999633
 21
-270.1128149583047
 31
0.0
  0
LINE
  5
18B2
330
17CB
100
AcDbEntity
  8
0
 62
     0
100
AcDbLine
 10
-42.89317455957778
 20
-275.0451696578862
 30
0.0
 11
-42.2611800533758
 21
-274.4131751516842
 31
0.0
  0
LINE
  5
18B3
330
17CB
100
AcDbEntity
  8
0
 62
     0
100
AcDbLine
 10
-41.34208886032189
 20
-273.4940839586302
 30
0.0
 11
-41.10121005402058
 21
-273.2532051523289
 31
0.0
  0
LINE
  5
18B4
330
17CB
100
AcDbEntity
  8
0
 62
     0
100
AcDbLine
 10
-41.79549989091119
 20
-273.9474949892195
 30
0.0
 11
-41.69571128466874
 21
-273.8477063829771
 31
0.0
  0
LINE
  5
18B5
330
17CB
100
AcDbEntity
  8
0
 62
     0
100
AcDbLine
 10
-43.0400704184019
 20
-275.0594829952378
 30
0.0
 11
-42.93792648401271
 21
-274.9573390608487
 31
0.0
  0
LINE
  5
18B6
330
17CB
100
AcDbEntity
  8
0
 62
     0
100
AcDbLine
 10
-38.98817157092188
 20
-271.0075841477578
 30
0.0
 11
-38.09340238146882
 21
-270.1128149583047
 31
0.0
  0
LINE
  5
18B7
330
17CB
100
AcDbEntity
  8
0
 62
     0
100
AcDbLine
 10
-42.93792648401271
 20
-274.9573390608486
 30
0.0
 11
-42.30593197781072
 21
-274.3253445546466
 31
0.0
  0
LINE
  5
18B8
330
17CB
100
AcDbEntity
  8
0
 62
     0
100
AcDbLine
 10
-41.33224236077215
 20
-273.351654937608
 30
0.0
 11
-41.09136355447085
 21
-273.1107761313067
 31
0.0
  0
LINE
  5
18B9
330
17CB
100
AcDbEntity
  8
0
 62
     0
100
AcDbLine
 10
-41.84025181534611
 20
-273.859664392182
 30
0.0
 11
-41.74046320910367
 21
-273.7598757859395
 31
0.0
  0
LINE
  5
18BA
330
17CB
100
AcDbEntity
  8
0
 62
     0
100
AcDbLine
 10
-43.08482234283682
 20
-274.9716523982002
 30
0.0
 11
-42.98267840844763
 21
-274.8695084638111
 31
0.0
  0
LINE
  5
18BB
330
17CB
100
AcDbEntity
  8
0
 62
     0
100
AcDbLine
 10
-39.12075409239436
 20
-271.0075841477578
 30
0.0
 11
-38.2259849029413
 21
-270.1128149583047
 31
0.0
  0
LINE
  5
18BC
330
17CB
100
AcDbEntity
  8
0
 62
     0
100
AcDbLine
 10
-42.98267840844764
 20
-274.8695084638111
 30
0.0
 11
-42.35068390224564
 21
-274.2375139576091
 31
0.0
  0
LINE
  5
18BD
330
17CB
100
AcDbEntity
  8
0
 62
     0
100
AcDbLine
 10
-41.08151705492112
 20
-272.9683471102845
 30
0.0
 11
-40.96181643366968
 21
-272.848646489033
 31
0.0
  0
LINE
  5
18BE
330
17CB
100
AcDbEntity
  8
0
 62
     0
100
AcDbLine
 10
-41.88500373978103
 20
-273.7718337951445
 30
0.0
 11
-41.78521513353859
 21
-273.672045188902
 31
0.0
  0
LINE
  5
18BF
330
17CB
100
AcDbEntity
  8
0
 62
     0
100
AcDbLine
 10
-41.32239586122242
 20
-273.2092259165858
 30
0.0
 11
-41.08151705492112
 21
-272.9683471102845
 31
0.0
  0
LINE
  5
18C0
330
17CB
100
AcDbEntity
  8
0
 62
     0
100
AcDbLine
 10
-43.12957426727176
 20
-274.8838218011627
 30
0.0
 11
-43.02743033288257
 21
-274.7816778667736
 31
0.0
  0
LINE
  5
18C1
330
17CB
100
AcDbEntity
  8
0
 62
     0
100
AcDbLine
 10
-39.25333661386681
 20
-271.0075841477578
 30
0.0
 11
-38.35856742441375
 21
-270.1128149583047
 31
0.0
  0
LINE
  5
18C2
330
17CB
100
AcDbEntity
  8
0
 62
     0
100
AcDbLine
 10
-43.02743033288256
 20
-274.7816778667735
 30
0.0
 11
-42.39543582668058
 21
-274.1496833605715
 31
0.0
  0
LINE
  5
18C3
330
17CB
100
AcDbEntity
  8
0
 62
     0
100
AcDbLine
 10
-41.07167055537138
 20
-272.8259180892623
 30
0.0
 11
-40.79761027123158
 21
-272.5518578051226
 31
0.0
  0
LINE
  5
18C4
330
17CB
100
AcDbEntity
  8
0
 62
     0
100
AcDbLine
 10
-41.92975566421597
 20
-273.6840031981069
 30
0.0
 11
-41.82996705797352
 21
-273.5842145918645
 31
0.0
  0
LINE
  5
18C5
330
17CB
100
AcDbEntity
  8
0
 62
     0
100
AcDbLine
 10
-41.3125493616727
 20
-273.0667968955636
 30
0.0
 11
-41.07167055537138
 21
-272.8259180892623
 31
0.0
  0
LINE
  5
18C6
330
17CB
100
AcDbEntity
  8
0
 62
     0
100
AcDbLine
 10
-43.17432619170667
 20
-274.7959912041251
 30
0.0
 11
-43.07218225731747
 21
-274.693847269736
 31
0.0
  0
LINE
  5
18C7
330
17CB
100
AcDbEntity
  8
0
 62
     0
100
AcDbLine
 10
-39.3859191353393
 20
-271.0075841477578
 30
0.0
 11
-38.49114994588624
 21
-270.1128149583047
 31
0.0
  0
LINE
  5
18C8
330
17CB
100
AcDbEntity
  8
0
 62
     0
100
AcDbLine
 10
-43.07218225731748
 20
-274.693847269736
 30
0.0
 11
-42.44018775111549
 21
-274.0618527635339
 31
0.0
  0
LINE
  5
18C9
330
17CB
100
AcDbEntity
  8
0
 62
     0
100
AcDbLine
 10
-41.06182405582166
 20
-272.6834890682401
 30
0.0
 11
-40.63340410879347
 21
-272.2550691212119
 31
0.0
  0
LINE
  5
18CA
330
17CB
100
AcDbEntity
  8
0
 62
     0
100
AcDbLine
 10
-41.97450758865088
 20
-273.5961726010693
 30
0.0
 11
-41.87471898240843
 21
-273.4963839948269
 31
0.0
  0
LINE
  5
18CB
330
17CB
100
AcDbEntity
  8
0
 62
     0
100
AcDbLine
 10
-41.30270286212296
 20
-272.9243678745414
 30
0.0
 11
-41.06182405582166
 21
-272.6834890682401
 31
0.0
  0
LINE
  5
18CC
330
17CB
100
AcDbEntity
  8
0
 62
     0
100
AcDbLine
 10
-43.2190781161416
 20
-274.7081606070876
 30
0.0
 11
-43.11693418175241
 21
-274.6060166726984
 31
0.0
  0
LINE
  5
18CD
330
17CB
100
AcDbEntity
  8
0
 62
     0
100
AcDbLine
 10
-39.51850165681178
 20
-271.0075841477578
 30
0.0
 11
-38.62373246735872
 21
-270.1128149583047
 31
0.0
  0
LINE
  5
18CE
330
17CB
100
AcDbEntity
  8
0
 62
     0
100
AcDbLine
 10
-43.11693418175241
 20
-274.6060166726984
 30
0.0
 11
-42.48493967555043
 21
-273.9740221664964
 31
0.0
  0
LINE
  5
18CF
330
17CB
100
AcDbEntity
  8
0
 62
     0
100
AcDbLine
 10
-41.04147028864789
 20
-272.5305527795939
 30
0.0
 11
-40.46919794635537
 21
-271.9582804373014
 31
0.0
  0
LINE
  5
18D0
330
17CB
100
AcDbEntity
  8
0
 62
     0
100
AcDbLine
 10
-42.0192595130858
 20
-273.5083420040318
 30
0.0
 11
-41.91947090684336
 21
-273.4085533977893
 31
0.0
  0
LINE
  5
18D1
330
17CB
100
AcDbEntity
  8
0
 62
     0
100
AcDbLine
 10
-41.29285636257323
 20
-272.7819388535192
 30
0.0
 11
-41.05197755627193
 21
-272.5410600472179
 31
0.0
  0
LINE
  5
18D2
330
17CB
100
AcDbEntity
  8
0
 62
     0
100
AcDbLine
 10
-43.26383004057651
 20
-274.62033001005
 30
0.0
 11
-43.16168610618734
 21
-274.5181860756609
 31
0.0
  0
LINE
  5
18D3
330
17CB
100
AcDbEntity
  8
0
 62
     0
100
AcDbLine
 10
-39.65108417828427
 20
-271.0075841477578
 30
0.0
 11
-38.7563149888312
 21
-270.1128149583047
 31
0.0
  0
LINE
  5
18D4
330
17CB
100
AcDbEntity
  8
0
 62
     0
100
AcDbLine
 10
-43.16168610618732
 20
-274.5181860756608
 30
0.0
 11
-42.52969159998534
 21
-273.8861915694589
 31
0.0
  0
LINE
  5
18D5
330
17CB
100
AcDbEntity
  8
0
 62
     0
100
AcDbLine
 10
-40.87726412620977
 20
-272.2337640956832
 30
0.0
 11
-40.30499178391731
 21
-271.6614917533908
 31
0.0
  0
LINE
  5
18D6
330
17CB
100
AcDbEntity
  8
0
 62
     0
100
AcDbLine
 10
-42.06401143752072
 20
-273.4205114069942
 30
0.0
 11
-41.96422283127828
 21
-273.3207228007517
 31
0.0
  0
LINE
  5
18D7
330
17CB
100
AcDbEntity
  8
0
 62
     0
100
AcDbLine
 10
-41.2830098630235
 20
-272.639509832497
 30
0.0
 11
-41.04213105672219
 21
-272.3986310261957
 31
0.0
  0
LINE
  5
18D8
330
17CB
100
AcDbEntity
  8
0
 62
     0
100
AcDbLine
 10
-43.30858196501145
 20
-274.5324994130124
 30
0.0
 11
-43.20643803062226
 21
-274.4303554786233
 31
0.0
  0
LINE
  5
18D9
330
17CB
100
AcDbEntity
  8
0
 62
     0
100
AcDbLine
 10
-39.78366669975674
 20
-271.0075841477578
 30
0.0
 11
-38.88889751030369
 21
-270.1128149583047
 31
0.0
  0
LINE
  5
18DA
330
17CB
100
AcDbEntity
  8
0
 62
     0
100
AcDbLine
 10
-43.20643803062226
 20
-274.4303554786232
 30
0.0
 11
-42.57444352442026
 21
-273.7983609724213
 31
0.0
  0
LINE
  5
18DB
330
17CB
100
AcDbEntity
  8
0
 62
     0
100
AcDbLine
 10
-40.71305796377171
 20
-271.9369754117727
 30
0.0
 11
-40.14078562147921
 21
-271.3647030694802
 31
0.0
  0
LINE
  5
18DC
330
17CB
100
AcDbEntity
  8
0
 62
     0
100
AcDbLine
 10
-42.10876336195565
 20
-273.3326808099567
 30
0.0
 11
-42.00897475571321
 21
-273.2328922037142
 31
0.0
  0
LINE
  5
18DD
330
17CB
100
AcDbEntity
  8
0
 62
     0
100
AcDbLine
 10
-41.27316336347377
 20
-272.4970808114748
 30
0.0
 11
-41.03228455717245
 21
-272.2562020051735
 31
0.0
  0
LINE
  5
18DE
330
17CB
100
AcDbEntity
  8
0
 62
     0
100
AcDbLine
 10
-43.35333388944637
 20
-274.4446688159749
 30
0.0
 11
-43.25118995505717
 21
-274.3425248815857
 31
0.0
  0
LINE
  5
18DF
330
17CB
100
AcDbEntity
  8
0
 62
     0
100
AcDbLine
 10
-39.9162492212292
 20
-271.0075841477578
 30
0.0
 11
-39.02148003177617
 21
-270.1128149583047
 31
0.0
  0
LINE
  5
18E0
330
17CB
100
AcDbEntity
  8
0
 62
     0
100
AcDbLine
 10
-43.25118995505718
 20
-274.3425248815857
 30
0.0
 11
-42.61919544885519
 21
-273.7105303753837
 31
0.0
  0
LINE
  5
18E1
330
17CB
100
AcDbEntity
  8
0
 62
     0
100
AcDbLine
 10
-40.5488518013336
 20
-271.6401867278622
 30
0.0
 11
-39.97657945904111
 21
-271.0679143855696
 31
0.0
  0
LINE
  5
18E2
330
17CB
100
AcDbEntity
  8
0
 62
     0
100
AcDbLine
 10
-42.15351528639057
 20
-273.2448502129191
 30
0.0
 11
-42.05372668014815
 21
-273.1450616066767
 31
0.0
  0
LINE
  5
18E3
330
17CB
100
AcDbEntity
  8
0
 62
     0
100
AcDbLine
 10
-41.26331686392403
 20
-272.3546517904526
 30
0.0
 11
-41.02243805762273
 21
-272.1137729841512
 31
0.0
  0
LINE
  5
18E4
330
17CB
100
AcDbEntity
  8
0
 62
     0
100
AcDbLine
 10
-43.39808581388129
 20
-274.3568382189374
 30
0.0
 11
-43.29594187949211
 21
-274.2546942845482
 31
0.0
  0
LINE
  5
18E5
330
17CB
100
AcDbEntity
  8
0
 62
     0
100
AcDbLine
 10
-40.04883174270166
 20
-271.0075841477577
 30
0.0
 11
-39.15406255324862
 21
-270.1128149583047
 31
0.0
  0
LINE
  5
18E6
330
17CB
100
AcDbEntity
  8
0
 62
     0
100
AcDbLine
 10
-43.29594187949211
 20
-274.2546942845482
 30
0.0
 11
-42.66394737329011
 21
-273.6226997783461
 31
0.0
  0
LINE
  5
18E7
330
17CB
100
AcDbEntity
  8
0
 62
     0
100
AcDbLine
 10
-40.38464563889553
 20
-271.3433980439516
 30
0.0
 11
-40.04883174270168
 21
-271.0075841477578
 31
0.0
  0
LINE
  5
18E8
330
17CB
100
AcDbEntity
  8
0
 62
     0
100
AcDbLine
 10
-42.19826721082549
 20
-273.1570196158815
 30
0.0
 11
-42.09847860458307
 21
-273.0572310096391
 31
0.0
  0
LINE
  5
18E9
330
17CB
100
AcDbEntity
  8
0
 62
     0
100
AcDbLine
 10
-41.25347036437431
 20
-272.2122227694304
 30
0.0
 11
-41.01259155807299
 21
-271.971343963129
 31
0.0
  0
LINE
  5
18EA
330
17CB
100
AcDbEntity
  8
0
 62
     0
100
AcDbLine
 10
-43.44283773831622
 20
-274.2690076218998
 30
0.0
 11
-43.34069380392703
 21
-274.1668636875106
 31
0.0
  0
LINE
  5
18EB
330
17CB
100
AcDbEntity
  8
0
 62
     0
100
AcDbLine
 10
-40.18141426417416
 20
-271.0075841477577
 30
0.0
 11
-39.28664507472111
 21
-270.1128149583047
 31
0.0
  0
LINE
  5
18EC
330
17CB
100
AcDbEntity
  8
0
 62
     0
100
AcDbLine
 10
-43.34069380392703
 20
-274.1668636875106
 30
0.0
 11
-42.70869929772504
 21
-273.5348691813086
 31
0.0
  0
LINE
  5
18ED
330
17CB
100
AcDbEntity
  8
0
 62
     0
100
AcDbLine
 10
-40.22043947645742
 20
-271.046609360041
 30
0.0
 11
-40.18141426417416
 21
-271.0075841477578
 31
0.0
  0
LINE
  5
18EE
330
17CB
100
AcDbEntity
  8
0
 62
     0
100
AcDbLine
 10
-42.24301913526041
 20
-273.069189018844
 30
0.0
 11
-42.14323052901799
 21
-272.9694004126015
 31
0.0
  0
LINE
  5
18EF
330
17CB
100
AcDbEntity
  8
0
 62
     0
100
AcDbLine
 10
-41.24362386482458
 20
-272.0697937484081
 30
0.0
 11
-41.00274505852326
 21
-271.8289149421068
 31
0.0
  0
LINE
  5
18F0
330
17CB
100
AcDbEntity
  8
0
 62
     0
100
AcDbLine
 10
-43.48758966275113
 20
-274.1811770248623
 30
0.0
 11
-43.38544572836195
 21
-274.0790330904731
 31
0.0
  0
LINE
  5
18F1
330
17CB
100
AcDbEntity
  8
0
 62
     0
100
AcDbLine
 10
-40.31399678564665
 20
-271.0075841477578
 30
0.0
 11
-39.41922759619359
 21
-270.1128149583047
 31
0.0
  0
LINE
  5
18F2
330
17CB
100
AcDbEntity
  8
0
 62
     0
100
AcDbLine
 10
-43.38544572836195
 20
-274.0790330904731
 30
0.0
 11
-42.75345122215997
 21
-273.447038584271
 31
0.0
  0
LINE
  5
18F3
330
17CB
100
AcDbEntity
  8
0
 62
     0
100
AcDbLine
 10
-41.23377736527484
 20
-271.9273647273859
 30
0.0
 11
-40.99289855897352
 21
-271.6864859210846
 31
0.0
  0
LINE
  5
18F4
330
17CB
100
AcDbEntity
  8
0
 62
     0
100
AcDbLine
 10
-42.28777105969533
 20
-272.9813584218064
 30
0.0
 11
-42.18798245345292
 21
-272.881569815564
 31
0.0
  0
LINE
  5
18F5
330
17CB
100
AcDbEntity
  8
0
 62
     0
100
AcDbLine
 10
-43.53234158718605
 20
-274.0933464278247
 30
0.0
 11
-43.43019765279687
 21
-273.9912024934355
 31
0.0
  0
LINE
  5
18F6
330
17CB
100
AcDbEntity
  8
0
 62
     0
100
AcDbLine
 10
-40.44657930711912
 20
-271.0075841477578
 30
0.0
 11
-39.55181011766607
 21
-270.1128149583047
 31
0.0
  0
LINE
  5
18F7
330
17CB
100
AcDbEntity
  8
0
 62
     0
100
AcDbLine
 10
-43.43019765279688
 20
-273.9912024934355
 30
0.0
 11
-42.79820314659487
 21
-273.3592079872335
 31
0.0
  0
LINE
  5
18F8
330
17CB
100
AcDbEntity
  8
0
 62
     0
100
AcDbLine
 10
-41.22393086572511
 20
-271.7849357063637
 30
0.0
 11
-40.9830520594238
 21
-271.5440569000624
 31
0.0
  0
LINE
  5
18F9
330
17CB
100
AcDbEntity
  8
0
 62
     0
100
AcDbLine
 10
-42.33252298413026
 20
-272.8935278247689
 30
0.0
 11
-42.23273437788784
 21
-272.7937392185264
 31
0.0
  0
LINE
  5
18FA
330
17CB
100
AcDbEntity
  8
0
 62
     0
100
AcDbLine
 10
-43.57709351162099
 20
-274.0055158307872
 30
0.0
 11
-43.4749495772318
 21
-273.903371896398
 31
0.0
  0
LINE
  5
18FB
330
17CB
100
AcDbEntity
  8
0
 62
     0
100
AcDbLine
 10
-40.57916182859158
 20
-271.0075841477578
 30
0.0
 11
-39.68439263913856
 21
-270.1128149583047
 31
0.0
  0
LINE
  5
18FC
330
17CB
100
AcDbEntity
  8
0
 62
     0
100
AcDbLine
 10
-43.4749495772318
 20
-273.903371896398
 30
0.0
 11
-42.84295507102982
 21
-273.2713773901959
 31
0.0
  0
LINE
  5
18FD
330
17CB
100
AcDbEntity
  8
0
 62
     0
100
AcDbLine
 10
-41.21408436617539
 20
-271.6425066853415
 30
0.0
 11
-40.97320555987406
 21
-271.4016278790402
 31
0.0
  0
LINE
  5
18FE
330
17CB
100
AcDbEntity
  8
0
 62
     0
100
AcDbLine
 10
-42.37727490856518
 20
-272.8056972277314
 30
0.0
 11
-42.27748630232276
 21
-272.705908621489
 31
0.0
  0
LINE
  5
18FF
330
17CB
100
AcDbEntity
  8
0
 62
     0
100
AcDbLine
 10
-43.6218454360559
 20
-273.9176852337496
 30
0.0
 11
-43.51970150166672
 21
-273.8155412993604
 31
0.0
  0
LINE
  5
1900
330
17CB
100
AcDbEntity
  8
0
 62
     0
100
AcDbLine
 10
-40.71174435006406
 20
-271.0075841477578
 30
0.0
 11
-39.81697516061101
 21
-270.1128149583047
 31
0.0
  0
LINE
  5
1901
330
17CB
100
AcDbEntity
  8
0
 62
     0
100
AcDbLine
 10
-43.51970150166672
 20
-273.8155412993604
 30
0.0
 11
-42.88770699546473
 21
-273.1835467931584
 31
0.0
  0
LINE
  5
1902
330
17CB
100
AcDbEntity
  8
0
 62
     0
100
AcDbLine
 10
-41.20423786662565
 20
-271.5000776643193
 30
0.0
 11
-40.96335906032432
 21
-271.259198858018
 31
0.0
  0
LINE
  5
1903
330
17CB
100
AcDbEntity
  8
0
 62
     0
100
AcDbLine
 10
-42.4220268330001
 20
-272.7178666306938
 30
0.0
 11
-42.32223822675769
 21
-272.6180780244514
 31
0.0
  0
LINE
  5
1904
330
17CB
100
AcDbEntity
  8
0
 62
     0
100
AcDbLine
 10
-43.66659736049083
 20
-273.829854636712
 30
0.0
 11
-43.56445342610165
 21
-273.7277107023229
 31
0.0
  0
LINE
  5
1905
330
17CB
100
AcDbEntity
  8
0
 62
     0
100
AcDbLine
 10
-40.84432687153655
 20
-271.0075841477578
 30
0.0
 11
-39.94955768208349
 21
-270.1128149583047
 31
0.0
  0
LINE
  5
1906
330
17CB
100
AcDbEntity
  8
0
 62
     0
100
AcDbLine
 10
-43.56445342610164
 20
-273.7277107023228
 30
0.0
 11
-42.93245891989965
 21
-273.0957161961208
 31
0.0
  0
LINE
  5
1907
330
17CB
100
AcDbEntity
  8
0
 62
     0
100
AcDbLine
 10
-41.19439136707593
 20
-271.3576486432971
 30
0.0
 11
-40.95351256077459
 21
-271.1167698369958
 31
0.0
  0
LINE
  5
1908
330
17CB
100
AcDbEntity
  8
0
 62
     0
100
AcDbLine
 10
-42.46677875743502
 20
-272.6300360336562
 30
0.0
 11
-42.36699015119261
 21
-272.5302474274138
 31
0.0
  0
LINE
  5
1909
330
17CB
100
AcDbEntity
  8
0
 62
     0
100
AcDbLine
 10
-43.71134928492576
 20
-273.7420240396744
 30
0.0
 11
-43.60920535053657
 21
-273.6398801052853
 31
0.0
  0
LINE
  5
190A
330
17CB
100
AcDbEntity
  8
0
 62
     0
100
AcDbLine
 10
-40.97690939300903
 20
-271.0075841477578
 30
0.0
 11
-40.08214020355597
 21
-270.1128149583047
 31
0.0
  0
LINE
  5
190B
330
17CB
100
AcDbEntity
  8
0
 62
     0
100
AcDbLine
 10
-43.60920535053657
 20
-273.6398801052853
 30
0.0
 11
-42.97721084433458
 21
-273.0078855990833
 31
0.0
  0
LINE
  5
190C
330
17CB
100
AcDbEntity
  8
0
 62
     0
100
AcDbLine
 10
-41.1845448675262
 20
-271.2152196222749
 30
0.0
 11
-40.97690939300904
 21
-271.0075841477578
 31
0.0
  0
LINE
  5
190D
330
17CB
100
AcDbEntity
  8
0
 62
     0
100
AcDbLine
 10
-42.51153068186996
 20
-272.5422054366187
 30
0.0
 11
-42.41174207562753
 21
-272.4424168303762
 31
0.0
  0
LINE
  5
190E
330
17CB
100
AcDbEntity
  8
0
 62
     0
100
AcDbLine
 10
-43.75610120936068
 20
-273.6541934426369
 30
0.0
 11
-43.65395727497149
 21
-273.5520495082478
 31
0.0
  0
LINE
  5
190F
330
17CB
100
AcDbEntity
  8
0
 62
     0
100
AcDbLine
 10
-41.10949191448152
 20
-271.0075841477578
 30
0.0
 11
-40.21472272502846
 21
-270.1128149583047
 31
0.0
  0
LINE
  5
1910
330
17CB
100
AcDbEntity
  8
0
 62
     0
100
AcDbLine
 10
-43.65395727497149
 20
-273.5520495082478
 30
0.0
 11
-43.02196276876951
 21
-272.9200550020458
 31
0.0
  0
LINE
  5
1911
330
17CB
100
AcDbEntity
  8
0
 62
     0
100
AcDbLine
 10
-41.17469836797646
 20
-271.0727906012527
 30
0.0
 11
-41.10949191448153
 21
-271.0075841477578
 31
0.0
  0
LINE
  5
1912
330
17CB
100
AcDbEntity
  8
0
 62
     0
100
AcDbLine
 10
-42.55628260630487
 20
-272.4543748395811
 30
0.0
 11
-42.45649400006246
 21
-272.3545862333387
 31
0.0
  0
LINE
  5
1913
330
17CB
100
AcDbEntity
  8
0
 62
     0
100
AcDbLine
 10
-43.8008531337956
 20
-273.5663628455994
 30
0.0
 11
-43.69870919940642
 21
-273.4642189112102
 31
0.0
  0
LINE
  5
1914
330
17CB
100
AcDbEntity
  8
0
 62
     0
100
AcDbLine
 10
-41.242074435954
 20
-271.0075841477578
 30
0.0
 11
-40.34730524650094
 21
-270.1128149583047
 31
0.0
  0
LINE
  5
1915
330
17CB
100
AcDbEntity
  8
0
 62
     0
100
AcDbLine
 10
-43.69870919940643
 20
-273.4642189112102
 30
0.0
 11
-43.06671469320444
 21
-272.8322244050082
 31
0.0
  0
LINE
  5
1916
330
17CB
100
AcDbEntity
  8
0
 62
     0
100
AcDbLine
 10
-42.6010345307398
 20
-272.3665442425436
 30
0.0
 11
-42.50124592449738
 21
-272.2667556363012
 31
0.0
  0
LINE
  5
1917
330
17CB
100
AcDbEntity
  8
0
 62
     0
100
AcDbLine
 10
-43.84560505823052
 20
-273.4785322485618
 30
0.0
 11
-43.74346112384134
 21
-273.3763883141727
 31
0.0
  0
LINE
  5
1918
330
17CB
100
AcDbEntity
  8
0
 62
     0
100
AcDbLine
 10
-41.37465695742645
 20
-271.0075841477578
 30
0.0
 11
-40.47988776797339
 21
-270.1128149583047
 31
0.0
  0
LINE
  5
1919
330
17CB
100
AcDbEntity
  8
0
 62
     0
100
AcDbLine
 10
-43.74346112384134
 20
-273.3763883141726
 30
0.0
 11
-43.11146661763936
 21
-272.7443938079706
 31
0.0
  0
LINE
  5
191A
330
17CB
100
AcDbEntity
  8
0
 62
     0
100
AcDbLine
 10
-42.64578645517471
 20
-272.278713645506
 30
0.0
 11
-42.5459978489323
 21
-272.1789250392636
 31
0.0
  0
LINE
  5
191B
330
17CB
100
AcDbEntity
  8
0
 62
     0
100
AcDbLine
 10
-43.89035698266545
 20
-273.3907016515242
 30
0.0
 11
-43.78821304827627
 21
-273.2885577171351
 31
0.0
  0
LINE
  5
191C
330
17CB
100
AcDbEntity
  8
0
 62
     0
100
AcDbLine
 10
-41.50723947889893
 20
-271.0075841477578
 30
0.0
 11
-40.61247028944587
 21
-270.1128149583047
 31
0.0
  0
LINE
  5
191D
330
17CB
100
AcDbEntity
  8
0
 62
     0
100
AcDbLine
 10
-43.78821304827627
 20
-273.2885577171351
 30
0.0
 11
-43.15621854207427
 21
-272.6565632109331
 31
0.0
  0
LINE
  5
191E
330
17CB
100
AcDbEntity
  8
0
 62
     0
100
AcDbLine
 10
-42.69053837960965
 20
-272.1908830484685
 30
0.0
 11
-42.59074977336722
 21
-272.0910944422261
 31
0.0
  0
LINE
  5
191F
330
17CB
100
AcDbEntity
  8
0
 62
     0
100
AcDbLine
 10
-43.93510890710039
 20
-273.3028710544867
 30
0.0
 11
-43.83296497271119
 21
-273.2007271200976
 31
0.0
  0
LINE
  5
1920
330
17CB
100
AcDbEntity
  8
0
 62
     0
100
AcDbLine
 10
-41.63982200037142
 20
-271.0075841477578
 30
0.0
 11
-40.74505281091837
 21
-270.1128149583047
 31
0.0
  0
LINE
  5
1921
330
17CB
100
AcDbEntity
  8
0
 62
     0
100
AcDbLine
 10
-43.83296497271119
 20
-273.2007271200975
 30
0.0
 11
-43.2009704665092
 21
-272.5687326138955
 31
0.0
  0
LINE
  5
1922
330
17CB
100
AcDbEntity
  8
0
 62
     0
100
AcDbLine
 10
-42.73529030404456
 20
-272.1030524514309
 30
0.0
 11
-42.63550169780215
 21
-272.0032638451885
 31
0.0
  0
LINE
  5
1923
330
17CB
100
AcDbEntity
  8
0
 62
     0
100
AcDbLine
 10
-43.97986083153529
 20
-273.2150404574491
 30
0.0
 11
-43.87771689714611
 21
-273.11289652306
 31
0.0
  0
LINE
  5
1924
330
17CB
100
AcDbEntity
  8
0
 62
     0
100
AcDbLine
 10
-41.7724045218439
 20
-271.0075841477578
 30
0.0
 11
-40.87763533239084
 21
-270.1128149583047
 31
0.0
  0
LINE
  5
1925
330
17CB
100
AcDbEntity
  8
0
 62
     0
100
AcDbLine
 10
-43.87771689714612
 20
-273.11289652306
 30
0.0
 11
-43.24572239094412
 21
-272.480902016858
 31
0.0
  0
LINE
  5
1926
330
17CB
100
AcDbEntity
  8
0
 62
     0
100
AcDbLine
 10
-42.78004222847949
 20
-272.0152218543934
 30
0.0
 11
-42.68025362223707
 21
-271.9154332481509
 31
0.0
  0
LINE
  5
1927
330
17CB
100
AcDbEntity
  8
0
 62
     0
100
AcDbLine
 10
-44.02461275597022
 20
-273.1272098604116
 30
0.0
 11
-43.92246882158103
 21
-273.0250659260224
 31
0.0
  0
LINE
  5
1928
330
17CB
100
AcDbEntity
  8
0
 62
     0
100
AcDbLine
 10
-41.90498704331639
 20
-271.0075841477578
 30
0.0
 11
-41.01021785386333
 21
-270.1128149583047
 31
0.0
  0
LINE
  5
1929
330
17CB
100
AcDbEntity
  8
0
 62
     0
100
AcDbLine
 10
-43.92246882158103
 20
-273.0250659260224
 30
0.0
 11
-43.29047431537905
 21
-272.3930714198204
 31
0.0
  0
LINE
  5
192A
330
17CB
100
AcDbEntity
  8
0
 62
     0
100
AcDbLine
 10
-42.8247941529144
 20
-271.9273912573558
 30
0.0
 11
-42.72500554667199
 21
-271.8276026511134
 31
0.0
  0
LINE
  5
192B
330
17CB
100
AcDbEntity
  8
0
 62
     0
100
AcDbLine
 10
-44.06936468040514
 20
-273.0393792633741
 30
0.0
 11
-43.96722074601596
 21
-272.9372353289849
 31
0.0
  0
LINE
  5
192C
330
17CB
100
AcDbEntity
  8
0
 62
     0
100
AcDbLine
 10
-42.03756956478883
 20
-271.0075841477578
 30
0.0
 11
-41.14280037533577
 21
-270.1128149583047
 31
0.0
  0
LINE
  5
192D
330
17CB
100
AcDbEntity
  8
0
 62
     0
100
AcDbLine
 10
-43.96722074601596
 20
-272.9372353289849
 30
0.0
 11
-43.33522623981397
 21
-272.3052408227829
 31
0.0
  0
LINE
  5
192E
330
17CB
100
AcDbEntity
  8
0
 62
     0
100
AcDbLine
 10
-42.86954607734934
 20
-271.8395606603182
 30
0.0
 11
-42.76975747110692
 21
-271.7397720540759
 31
0.0
  0
LINE
  5
192F
330
17CB
100
AcDbEntity
  8
0
 62
     0
100
AcDbLine
 10
-44.11411660484007
 20
-272.9515486663365
 30
0.0
 11
-44.01197267045088
 21
-272.8494047319474
 31
0.0
  0
LINE
  5
1930
330
17CB
100
AcDbEntity
  8
0
 62
     0
100
AcDbLine
 10
-42.17015208626132
 20
-271.0075841477578
 30
0.0
 11
-41.27538289680827
 21
-270.1128149583047
 31
0.0
  0
LINE
  5
1931
330
17CB
100
AcDbEntity
  8
0
 62
     0
100
AcDbLine
 10
-44.01197267045089
 20
-272.8494047319474
 30
0.0
 11
-43.3799781642489
 21
-272.2174102257453
 31
0.0
  0
LINE
  5
1932
330
17CB
100
AcDbEntity
  8
0
 62
     0
100
AcDbLine
 10
-42.91429800178426
 20
-271.7517300632807
 30
0.0
 11
-42.81450939554184
 21
-271.6519414570383
 31
0.0
  0
LINE
  5
1933
330
17CB
100
AcDbEntity
  8
0
 62
     0
100
AcDbLine
 10
-43.03552049306387
 20
-271.8729525545603
 30
0.0
 11
-42.91429800178426
 21
-271.7517300632807
 31
0.0
  0
LINE
  5
1934
330
17CB
100
AcDbEntity
  8
0
 62
     0
100
AcDbLine
 10
-44.15886852927499
 20
-272.8637180692989
 30
0.0
 11
-44.0567245948858
 21
-272.7615741349098
 31
0.0
  0
LINE
  5
1935
330
17CB
100
AcDbEntity
  8
0
 62
     0
100
AcDbLine
 10
-42.30273460773381
 20
-271.0075841477578
 30
0.0
 11
-41.40796541828075
 21
-270.1128149583047
 31
0.0
  0
LINE
  5
1936
330
17CB
100
AcDbEntity
  8
0
 62
     0
100
AcDbLine
 10
-44.05672459488581
 20
-272.7615741349098
 30
0.0
 11
-43.42473008868381
 21
-272.1295796287078
 31
0.0
  0
LINE
  5
1937
330
17CB
100
AcDbEntity
  8
0
 62
     0
100
AcDbLine
 10
-42.95904992621917
 20
-271.6638994662432
 30
0.0
 11
-42.85926131997678
 21
-271.5641108600007
 31
0.0
  0
LINE
  5
1938
330
17CB
100
AcDbEntity
  8
0
 62
     0
100
AcDbLine
 10
-43.30583527562661
 20
-272.0106848156506
 30
0.0
 11
-43.03567928394395
 21
-271.7405288239679
 31
0.0
  0
LINE
  5
1939
330
17CB
100
AcDbEntity
  8
0
 62
     0
100
AcDbLine
 10
-44.20362045370992
 20
-272.7758874722614
 30
0.0
 11
-44.10147651932073
 21
-272.6737435378722
 31
0.0
  0
LINE
  5
193A
330
17CB
100
AcDbEntity
  8
0
 62
     0
100
AcDbLine
 10
-42.43531712920629
 20
-271.0075841477578
 30
0.0
 11
-41.54054793975324
 21
-270.1128149583047
 31
0.0
  0
LINE
  5
193B
330
17CB
100
AcDbEntity
  8
0
 62
     0
100
AcDbLine
 10
-44.10147651932073
 20
-272.6737435378722
 30
0.0
 11
-43.57615005818931
 21
-272.1484170767408
 31
0.0
  0
LINE
  5
193C
330
17CB
100
AcDbEntity
  8
0
 62
     0
100
AcDbLine
 10
-43.00380185065409
 20
-271.5760688692056
 30
0.0
 11
-42.9040132444117
 21
-271.4762802629631
 31
0.0
  0
LINE
  5
193D
330
17CB
100
AcDbEntity
  8
0
 62
     0
100
AcDbLine
 10
-43.57615005818945
 20
-272.1484170767408
 30
0.0
 11
-43.29449434520518
 21
-271.8667613637567
 31
0.0
  0
LINE
  5
193E
330
17CB
100
AcDbEntity
  8
0
 62
     0
100
AcDbLine
 10
-44.24837237814484
 20
-272.6880568752238
 30
0.0
 11
-44.14622844375565
 21
-272.5859129408347
 31
0.0
  0
LINE
  5
193F
330
17CB
100
AcDbEntity
  8
0
 62
     0
100
AcDbLine
 10
-42.56789965067877
 20
-271.0075841477578
 30
0.0
 11
-41.67313046122571
 21
-270.1128149583047
 31
0.0
  0
LINE
  5
1940
330
17CB
100
AcDbEntity
  8
0
 62
     0
100
AcDbLine
 10
-44.14622844375567
 20
-272.5859129408347
 30
0.0
 11
-43.81389900091518
 21
-272.2535834979942
 31
0.0
  0
LINE
  5
1941
330
17CB
100
AcDbEntity
  8
0
 62
     0
100
AcDbLine
 10
-43.04855377508903
 20
-271.488238272168
 30
0.0
 11
-42.94876516884662
 21
-271.3884496659257
 31
0.0
  0
LINE
  5
1942
330
17CB
100
AcDbEntity
  8
0
 62
     0
100
AcDbLine
 10
-43.81389900091516
 20
-272.2535834979942
 30
0.0
 11
-43.5533094064665
 21
-271.9929939035455
 31
0.0
  0
LINE
  5
1943
330
17CB
100
AcDbEntity
  8
0
 62
     0
100
AcDbLine
 10
-43.55330940646641
 20
-271.9929939035454
 30
0.0
 11
-43.51423393755367
 21
-271.9539184346327
 31
0.0
  0
LINE
  5
1944
330
17CB
100
AcDbEntity
  8
0
 62
     0
100
AcDbLine
 10
-44.29312430257975
 20
-272.6002262781863
 30
0.0
 11
-44.19098036819057
 21
-272.4980823437971
 31
0.0
  0
LINE
  5
1945
330
17CB
100
AcDbEntity
  8
0
 62
     0
100
AcDbLine
 10
-42.70048217215122
 20
-271.0075841477578
 30
0.0
 11
-41.80571298269817
 21
-270.1128149583047
 31
0.0
  0
LINE
  5
1946
330
17CB
100
AcDbEntity
  8
0
 62
     0
100
AcDbLine
 10
-44.19098036819058
 20
-272.4980823437971
 30
0.0
 11
-43.85736435006013
 21
-272.1644663256667
 31
0.0
  0
LINE
  5
1947
330
17CB
100
AcDbEntity
  8
0
 62
     0
100
AcDbLine
 10
-43.09330569952394
 20
-271.4004076751304
 30
0.0
 11
-42.99351709328155
 21
-271.3006190688881
 31
0.0
  0
LINE
  5
1948
330
17CB
100
AcDbEntity
  8
0
 62
     0
100
AcDbLine
 10
-43.85736435006017
 20
-272.1644663256666
 30
0.0
 11
-43.81212446772781
 21
-272.1192264433343
 31
0.0
  0
LINE
  5
1949
330
17CB
100
AcDbEntity
  8
0
 62
     0
100
AcDbLine
 10
-43.81212446772774
 20
-272.1192264433343
 30
0.0
 11
-43.5589858619886
 21
-271.8660878375951
 31
0.0
  0
LINE
  5
194A
330
17CB
100
AcDbEntity
  8
0
 62
     0
100
AcDbLine
 10
-44.33787622701468
 20
-272.5123956811487
 30
0.0
 11
-44.23573229262551
 21
-272.4102517467596
 31
0.0
  0
LINE
  5
194B
330
17CB
100
AcDbEntity
  8
0
 62
     0
100
AcDbLine
 10
-42.83306469362371
 20
-271.0075841477578
 30
0.0
 11
-41.93829550417065
 21
-270.1128149583047
 31
0.0
  0
LINE
  5
194C
330
17CB
100
AcDbEntity
  8
0
 62
     0
100
AcDbLine
 10
-44.23573229262551
 20
-272.4102517467596
 30
0.0
 11
-43.60373778642352
 21
-271.7782572405575
 31
0.0
  0
LINE
  5
194D
330
17CB
100
AcDbEntity
  8
0
 62
     0
100
AcDbLine
 10
-43.13805762395886
 20
-271.3125770780929
 30
0.0
 11
-43.03826901771647
 21
-271.2127884718505
 31
0.0
  0
LINE
  5
194E
330
17CB
100
AcDbEntity
  8
0
 62
     0
100
AcDbLine
 10
-44.38262815144962
 20
-272.4245650841112
 30
0.0
 11
-44.28048421706043
 21
-272.3224211497221
 31
0.0
  0
LINE
  5
194F
330
17CB
100
AcDbEntity
  8
0
 62
     0
100
AcDbLine
 10
-42.9656472150962
 20
-271.0075841477578
 30
0.0
 11
-42.07087802564314
 21
-270.1128149583047
 31
0.0
  0
LINE
  5
1950
330
17CB
100
AcDbEntity
  8
0
 62
     0
100
AcDbLine
 10
-44.28048421706043
 20
-272.322421149722
 30
0.0
 11
-43.64848971085844
 21
-271.69042664352
 31
0.0
  0
LINE
  5
1951
330
17CB
100
AcDbEntity
  8
0
 62
     0
100
AcDbLine
 10
-43.18280954839378
 20
-271.2247464810554
 30
0.0
 11
-43.08302094215139
 21
-271.1249578748129
 31
0.0
  0
LINE
  5
1952
330
17CB
100
AcDbEntity
  8
0
 62
     0
100
AcDbLine
 10
-44.42738007588452
 20
-272.3367344870736
 30
0.0
 11
-44.32523614149536
 21
-272.2345905526844
 31
0.0
  0
LINE
  5
1953
330
17CB
100
AcDbEntity
  8
0
 62
     0
100
AcDbLine
 10
-43.09822973656867
 20
-271.0075841477578
 30
0.0
 11
-42.20346054711562
 21
-270.1128149583047
 31
0.0
  0
LINE
  5
1954
330
17CB
100
AcDbEntity
  8
0
 62
     0
100
AcDbLine
 10
-44.32523614149537
 20
-272.2345905526844
 30
0.0
 11
-43.69324163529338
 21
-271.6025960464825
 31
0.0
  0
LINE
  5
1955
330
17CB
100
AcDbEntity
  8
0
 62
     0
100
AcDbLine
 10
-43.22756147282872
 20
-271.1369158840178
 30
0.0
 11
-43.12777286658632
 21
-271.0371272777754
 31
0.0
  0
LINE
  5
1956
330
17CB
100
AcDbEntity
  8
0
 62
     0
100
AcDbLine
 10
-44.47213200031946
 20
-272.2489038900361
 30
0.0
 11
-44.36998806593027
 21
-272.1467599556469
 31
0.0
  0
LINE
  5
1957
330
17CB
100
AcDbEntity
  8
0
 62
     0
100
AcDbLine
 10
-43.23081225804116
 20
-271.0075841477578
 30
0.0
 11
-42.3360430685881
 21
-270.1128149583047
 31
0.0
  0
LINE
  5
1958
330
17CB
100
AcDbEntity
  8
0
 62
     0
100
AcDbLine
 10
-44.36998806593028
 20
-272.1467599556469
 30
0.0
 11
-43.7379935597283
 21
-271.5147654494449
 31
0.0
  0
LINE
  5
1959
330
17CB
100
AcDbEntity
  8
0
 62
     0
100
AcDbLine
 10
-43.27231339726363
 20
-271.0490852869802
 30
0.0
 11
-43.23081225804115
 21
-271.0075841477578
 31
0.0
  0
LINE
  5
195A
330
17CB
100
AcDbEntity
  8
0
 62
     0
100
AcDbLine
 10
-44.51688392475437
 20
-272.1610732929985
 30
0.0
 11
-44.41473999036521
 21
-272.0589293586094
 31
0.0
  0
LINE
  5
195B
330
17CB
100
AcDbEntity
  8
0
 62
     0
100
AcDbLine
 10
-43.36339477951361
 20
-271.0075841477578
 30
0.0
 11
-42.46862559006059
 21
-270.1128149583047
 31
0.0
  0
LINE
  5
195C
330
17CB
100
AcDbEntity
  8
0
 62
     0
100
AcDbLine
 10
-44.4147399903652
 20
-272.0589293586093
 30
0.0
 11
-43.78274548416323
 21
-271.4269348524073
 31
0.0
  0
LINE
  5
195D
330
17CB
100
AcDbEntity
  8
0
 62
     0
100
AcDbLine
 10
-44.5616358491893
 20
-272.0732426959609
 30
0.0
 11
-44.45949191480012
 21
-271.9710987615718
 31
0.0
  0
LINE
  5
195E
330
17CB
100
AcDbEntity
  8
0
 62
     0
100
AcDbLine
 10
-43.4959773009861
 20
-271.0075841477578
 30
0.0
 11
-42.60120811153304
 21
-270.1128149583047
 31
0.0
  0
LINE
  5
195F
330
17CB
100
AcDbEntity
  8
0
 62
     0
100
AcDbLine
 10
-44.45949191480013
 20
-271.9710987615718
 30
0.0
 11
-43.82749740859814
 21
-271.3391042553698
 31
0.0
  0
LINE
  5
1960
330
17CB
100
AcDbEntity
  8
0
 62
     0
100
AcDbLine
 10
-44.60638777362423
 20
-271.9854120989233
 30
0.0
 11
-44.50424383923505
 21
-271.8832681645342
 31
0.0
  0
LINE
  5
1961
330
17CB
100
AcDbEntity
  8
0
 62
     0
100
AcDbLine
 10
-43.62855982245858
 20
-271.0075841477578
 30
0.0
 11
-42.73379063300552
 21
-270.1128149583047
 31
0.0
  0
LINE
  5
1962
330
17CB
100
AcDbEntity
  8
0
 62
     0
100
AcDbLine
 10
-44.50424383923506
 20
-271.8832681645342
 30
0.0
 11
-43.87224933303307
 21
-271.2512736583323
 31
0.0
  0
LINE
  5
1963
330
17CB
100
AcDbEntity
  8
0
 62
     0
100
AcDbLine
 10
-44.65113969805915
 20
-271.8975815018858
 30
0.0
 11
-44.54899576366996
 21
-271.7954375674967
 31
0.0
  0
LINE
  5
1964
330
17CB
100
AcDbEntity
  8
0
 62
     0
100
AcDbLine
 10
-43.76114234393106
 20
-271.0075841477578
 30
0.0
 11
-42.86637315447801
 21
-270.1128149583047
 31
0.0
  0
LINE
  5
1965
330
17CB
100
AcDbEntity
  8
0
 62
     0
100
AcDbLine
 10
-44.54899576366997
 20
-271.7954375674967
 30
0.0
 11
-43.91700125746799
 21
-271.1634430612947
 31
0.0
  0
LINE
  5
1966
330
17CB
100
AcDbEntity
  8
0
 62
     0
100
AcDbLine
 10
-44.69589162249408
 20
-271.8097509048483
 30
0.0
 11
-44.5937476881049
 21
-271.7076069704591
 31
0.0
  0
LINE
  5
1967
330
17CB
100
AcDbEntity
  8
0
 62
     0
100
AcDbLine
 10
-43.89372486540355
 20
-271.0075841477578
 30
0.0
 11
-42.99895567595049
 21
-270.1128149583047
 31
0.0
  0
LINE
  5
1968
330
17CB
100
AcDbEntity
  8
0
 62
     0
100
AcDbLine
 10
-44.59374768810491
 20
-271.7076069704591
 30
0.0
 11
-43.96175318190293
 21
-271.0756124642572
 31
0.0
  0
LINE
  5
1969
330
17CB
100
AcDbEntity
  8
0
 62
     0
100
AcDbLine
 10
-44.74064354692899
 20
-271.7219203078107
 30
0.0
 11
-44.63849961253981
 21
-271.6197763734216
 31
0.0
  0
LINE
  5
196A
330
17CB
100
AcDbEntity
  8
0
 62
     0
100
AcDbLine
 10
-44.02630738687596
 20
-271.0075841477577
 30
0.0
 11
-43.13153819742297
 21
-270.1128149583047
 31
0.0
  0
LINE
  5
196B
330
17CB
100
AcDbEntity
  8
0
 62
     0
100
AcDbLine
 10
-44.63849961253983
 20
-271.6197763734216
 30
0.0
 11
-44.02630738687603
 21
-271.0075841477578
 31
0.0
  0
LINE
  5
196C
330
17CB
100
AcDbEntity
  8
0
 62
     0
100
AcDbLine
 10
-44.78539547136391
 20
-271.6340897107732
 30
0.0
 11
-44.68325153697474
 21
-271.5319457763841
 31
0.0
  0
LINE
  5
196D
330
17CB
100
AcDbEntity
  8
0
 62
     0
100
AcDbLine
 10
-44.15888990834845
 20
-271.0075841477577
 30
0.0
 11
-43.26412071889542
 21
-270.1128149583047
 31
0.0
  0
LINE
  5
196E
330
17CB
100
AcDbEntity
  8
0
 62
     0
100
AcDbLine
 10
-44.68325153697477
 20
-271.531945776384
 30
0.0
 11
-44.15888990834848
 21
-271.0075841477578
 31
0.0
  0
LINE
  5
196F
330
17CB
100
AcDbEntity
  8
0
 62
     0
100
AcDbLine
 10
-44.83014739579885
 20
-271.5462591137356
 30
0.0
 11
-44.72800346140967
 21
-271.4441151793465
 31
0.0
  0
LINE
  5
1970
330
17CB
100
AcDbEntity
  8
0
 62
     0
100
AcDbLine
 10
-44.29147242982091
 20
-271.0075841477577
 30
0.0
 11
-43.39670324036791
 21
-270.1128149583047
 31
0.0
  0
LINE
  5
1971
330
17CB
100
AcDbEntity
  8
0
 62
     0
100
AcDbLine
 10
-44.72800346140968
 20
-271.4441151793465
 30
0.0
 11
-44.29147242982097
 21
-271.0075841477578
 31
0.0
  0
LINE
  5
1972
330
17CB
100
AcDbEntity
  8
0
 62
     0
100
AcDbLine
 10
-44.87489932023376
 20
-271.4584285166981
 30
0.0
 11
-44.7727553858446
 21
-271.3562845823089
 31
0.0
  0
LINE
  5
1973
330
17CB
100
AcDbEntity
  8
0
 62
     0
100
AcDbLine
 10
-44.42405495129341
 20
-271.0075841477577
 30
0.0
 11
-43.5292857618404
 21
-270.1128149583047
 31
0.0
  0
LINE
  5
1974
330
17CB
100
AcDbEntity
  8
0
 62
     0
100
AcDbLine
 10
-44.77275538584461
 20
-271.3562845823089
 30
0.0
 11
-44.42405495129345
 21
-271.0075841477578
 31
0.0
  0
LINE
  5
1975
330
17CB
100
AcDbEntity
  8
0
 62
     0
100
AcDbLine
 10
-44.91965124466869
 20
-271.3705979196606
 30
0.0
 11
-44.81750731027952
 21
-271.2684539852714
 31
0.0
  0
LINE
  5
1976
330
17CB
100
AcDbEntity
  8
0
 62
     0
100
AcDbLine
 10
-44.55663747276587
 20
-271.0075841477577
 30
0.0
 11
-43.66186828331287
 21
-270.1128149583047
 31
0.0
  0
LINE
  5
1977
330
17CB
100
AcDbEntity
  8
0
 62
     0
100
AcDbLine
 10
-44.81750731027953
 20
-271.2684539852714
 30
0.0
 11
-44.55663747276593
 21
-271.0075841477578
 31
0.0
  0
LINE
  5
1978
330
17CB
100
AcDbEntity
  8
0
 62
     0
100
AcDbLine
 10
-44.96440316910361
 20
-271.282767322623
 30
0.0
 11
-44.86225923471444
 21
-271.1806233882338
 31
0.0
  0
LINE
  5
1979
330
17CB
100
AcDbEntity
  8
0
 62
     0
100
AcDbLine
 10
-44.68921999423836
 20
-271.0075841477577
 30
0.0
 11
-43.79445080478536
 21
-270.1128149583047
 31
0.0
  0
LINE
  5
197A
330
17CB
100
AcDbEntity
  8
0
 62
     0
100
AcDbLine
 10
-44.86225923471446
 20
-271.1806233882338
 30
0.0
 11
-44.68921999423842
 21
-271.0075841477578
 31
0.0
  0
LINE
  5
197B
330
17CB
100
AcDbEntity
  8
0
 62
     0
100
AcDbLine
 10
-45.00915509353854
 20
-271.1949367255854
 30
0.0
 11
-44.93619626528839
 21
-271.1219778973352
 31
0.0
  0
LINE
  5
197C
330
17CB
100
AcDbEntity
  8
0
 62
     0
100
AcDbLine
 10
-44.82180251571087
 20
-271.0075841477578
 30
0.0
 11
-43.92703332625781
 21
-270.1128149583047
 31
0.0
  0
LINE
  5
197D
330
17CB
100
AcDbEntity
  8
0
 62
     0
100
AcDbLine
 10
-44.95438503718335
 20
-271.0075841477578
 30
0.0
 11
-44.0596158477303
 21
-270.1128149583047
 31
0.0
  0
LINE
  5
197E
330
17CB
100
AcDbEntity
  8
0
 62
     0
100
AcDbLine
 10
-45.08696755865584
 20
-271.0075841477578
 30
0.0
 11
-44.19219836920278
 21
-270.1128149583047
 31
0.0
  0
LINE
  5
197F
330
17CB
100
AcDbEntity
  8
0
 62
     0
100
AcDbLine
 10
-45.21955008012832
 20
-271.0075841477578
 30
0.0
 11
-44.32478089067527
 21
-270.1128149583047
 31
0.0
  0
LINE
  5
1980
330
17CB
100
AcDbEntity
  8
0
 62
     0
100
AcDbLine
 10
-45.23372463886881
 20
-270.8891761850257
 30
0.0
 11
-44.45736341214774
 21
-270.1128149583047
 31
0.0
  0
LINE
  5
1981
330
17CB
100
AcDbEntity
  8
0
 62
     0
100
AcDbLine
 10
-45.23372463886881
 20
-270.7565936635533
 30
0.0
 11
-44.5899459336202
 21
-270.1128149583047
 31
0.0
  0
LINE
  5
1982
330
17CB
100
AcDbEntity
  8
0
 62
     0
100
AcDbLine
 10
-45.23372463886881
 20
-270.6240111420808
 30
0.0
 11
-44.72252845509268
 21
-270.1128149583047
 31
0.0
  0
LINE
  5
1983
330
17CB
100
AcDbEntity
  8
0
 62
     0
100
AcDbLine
 10
-45.23372463886881
 20
-270.4914286206083
 30
0.0
 11
-44.85511097656517
 21
-270.1128149583047
 31
0.0
  0
LINE
  5
1984
330
17CB
100
AcDbEntity
  8
0
 62
     0
100
AcDbLine
 10
-45.2337246388688
 20
-270.3588460991359
 30
0.0
 11
-44.98769349803765
 21
-270.1128149583047
 31
0.0
  0
LINE
  5
1985
330
17CB
100
AcDbEntity
  8
0
 62
     0
100
AcDbLine
 10
-45.2337246388688
 20
-270.2262635776634
 30
0.0
 11
-45.12027601951014
 21
-270.1128149583047
 31
0.0
  0
LINE
  5
1986
330
17CB
100
AcDbEntity
  8
0
 62
     0
100
AcDbLine
 10
-39.27512850824
 20
-279.5146574163695
 30
0.0
 11
-38.5413666900566
 21
-278.7808955981861
 31
0.0
  0
LINE
  5
1987
330
17CB
100
AcDbEntity
  8
0
 62
     0
100
AcDbLine
 10
-39.16241960701883
 20
-279.5345310366208
 30
0.0
 11
-38.42865778883542
 21
-278.8007692184374
 31
0.0
  0
LINE
  5
1988
330
17CB
100
AcDbEntity
  8
0
 62
     0
100
AcDbLine
 10
-39.04971070579762
 20
-279.5544046568721
 30
0.0
 11
-38.31594888761424
 21
-278.8206428386887
 31
0.0
  0
LINE
  5
1989
330
17CB
100
AcDbEntity
  8
0
 62
     0
100
AcDbLine
 10
-38.93700180457646
 20
-279.5742782771234
 30
0.0
 11
-38.20323998639308
 21
-278.84051645894
 31
0.0
  0
LINE
  5
198A
330
17CB
100
AcDbEntity
  8
0
 62
     0
100
AcDbLine
 10
-38.82429290335529
 20
-279.5941518973747
 30
0.0
 11
-38.0905310851719
 21
-278.8603900791913
 31
0.0
  0
LINE
  5
198B
330
17CB
100
AcDbEntity
  8
0
 62
     0
100
AcDbLine
 10
-38.71158400213412
 20
-279.614025517626
 30
0.0
 11
-37.97782218395072
 21
-278.8802636994426
 31
0.0
  0
LINE
  5
198C
330
17CB
100
AcDbEntity
  8
0
 62
     0
100
AcDbLine
 10
-38.59887510091292
 20
-279.6338991378773
 30
0.0
 11
-37.86511328272954
 21
-278.9001373196939
 31
0.0
  0
LINE
  5
198D
330
17CB
100
AcDbEntity
  8
0
 62
     0
100
AcDbLine
 10
-38.48616619969174
 20
-279.6537727581286
 30
0.0
 11
-37.75240438150836
 21
-278.9200109399452
 31
0.0
  0
LINE
  5
198E
330
17CB
100
AcDbEntity
  8
0
 62
     0
100
AcDbLine
 10
-38.37345729847058
 20
-279.6736463783799
 30
0.0
 11
-37.63969548028717
 21
-278.9398845601965
 31
0.0
  0
LINE
  5
198F
330
17CB
100
AcDbEntity
  8
0
 62
     0
100
AcDbLine
 10
-38.26074839724942
 20
-279.6935199986312
 30
0.0
 11
-37.526986579066
 21
-278.9597581804478
 31
0.0
  0
LINE
  5
1990
330
17CB
100
AcDbEntity
  8
0
 62
     0
100
AcDbLine
 10
-38.14803949602821
 20
-279.7133936188825
 30
0.0
 11
-37.41427767784482
 21
-278.9796318006991
 31
0.0
  0
LINE
  5
1991
330
17CB
100
AcDbEntity
  8
0
 62
     0
100
AcDbLine
 10
-38.03533059480704
 20
-279.7332672391338
 30
0.0
 11
-37.30156877662363
 21
-278.9995054209504
 31
0.0
  0
LINE
  5
1992
330
17CB
100
AcDbEntity
  8
0
 62
     0
100
AcDbLine
 10
-37.92262169358588
 20
-279.7531408593851
 30
0.0
 11
-37.18885987540245
 21
-279.0193790412017
 31
0.0
  0
LINE
  5
1993
330
17CB
100
AcDbEntity
  8
0
 62
     0
100
AcDbLine
 10
-37.80991279236471
 20
-279.7730144796364
 30
0.0
 11
-37.07615097418127
 21
-279.039252661453
 31
0.0
  0
LINE
  5
1994
330
17CB
100
AcDbEntity
  8
0
 62
     0
100
AcDbLine
 10
-37.6972038911435
 20
-279.7928880998877
 30
0.0
 11
-36.96344207296009
 21
-279.0591262817043
 31
0.0
  0
LINE
  5
1995
330
17CB
100
AcDbEntity
  8
0
 62
     0
100
AcDbLine
 10
-37.58449498992233
 20
-279.812761720139
 30
0.0
 11
-36.85073317173891
 21
-279.0789999019556
 31
0.0
  0
LINE
  5
1996
330
17CB
100
AcDbEntity
  8
0
 62
     0
100
AcDbLine
 10
-37.47178608870117
 20
-279.8326353403903
 30
0.0
 11
-36.73802427051778
 21
-279.0988735222069
 31
0.0
  0
LINE
  5
1997
330
17CB
100
AcDbEntity
  8
0
 62
     0
100
AcDbLine
 10
-37.35907718748001
 20
-279.8525089606416
 30
0.0
 11
-36.62531536929659
 21
-279.1187471424582
 31
0.0
  0
LINE
  5
1998
330
17CB
100
AcDbEntity
  8
0
 62
     0
100
AcDbLine
 10
-37.24636828625879
 20
-279.8723825808929
 30
0.0
 11
-36.51260646807542
 21
-279.1386207627095
 31
0.0
  0
LINE
  5
1999
330
17CB
100
AcDbEntity
  8
0
 62
     0
100
AcDbLine
 10
-37.13365938503763
 20
-279.8922562011442
 30
0.0
 11
-36.39989756685424
 21
-279.1584943829608
 31
0.0
  0
LINE
  5
199A
330
17CB
100
AcDbEntity
  8
0
 62
     0
100
AcDbLine
 10
-37.02095048381647
 20
-279.9121298213955
 30
0.0
 11
-36.28718866563306
 21
-279.1783680032121
 31
0.0
  0
LINE
  5
199B
330
17CB
100
AcDbEntity
  8
0
 62
     0
100
AcDbLine
 10
-36.9082415825953
 20
-279.9320034416468
 30
0.0
 11
-36.17447976441188
 21
-279.1982416234634
 31
0.0
  0
LINE
  5
199C
330
17CB
100
AcDbEntity
  8
0
 62
     0
100
AcDbLine
 10
-36.79553268137409
 20
-279.9518770618981
 30
0.0
 11
-36.0617708631907
 21
-279.2181152437147
 31
0.0
  0
LINE
  5
199D
330
17CB
100
AcDbEntity
  8
0
 62
     0
100
AcDbLine
 10
-36.68282378015292
 20
-279.9717506821494
 30
0.0
 11
-35.94906196196951
 21
-279.237988863966
 31
0.0
  0
LINE
  5
199E
330
17CB
100
AcDbEntity
  8
0
 62
     0
100
AcDbLine
 10
-36.57011487893175
 20
-279.9916243024007
 30
0.0
 11
-35.83635306074833
 21
-279.2578624842173
 31
0.0
  0
LINE
  5
199F
330
17CB
100
AcDbEntity
  8
0
 62
     0
100
AcDbLine
 10
-36.45740597771059
 20
-280.011497922652
 30
0.0
 11
-35.72364415952716
 21
-279.2777361044686
 31
0.0
  0
LINE
  5
19A0
330
17CB
100
AcDbEntity
  8
0
 62
     0
100
AcDbLine
 10
-36.34469707648938
 20
-280.0313715429033
 30
0.0
 11
-35.61093525830597
 21
-279.2976097247199
 31
0.0
  0
LINE
  5
19A1
330
17CB
100
AcDbEntity
  8
0
 62
     0
100
AcDbLine
 10
-36.23198817526822
 20
-280.0512451631546
 30
0.0
 11
-35.49822635708479
 21
-279.3174833449712
 31
0.0
  0
LINE
  5
19A2
330
17CB
100
AcDbEntity
  8
0
 62
     0
100
AcDbLine
 10
-36.11927927404706
 20
-280.0711187834059
 30
0.0
 11
-35.38551745586361
 21
-279.3373569652225
 31
0.0
  0
LINE
  5
19A3
330
17CB
100
AcDbEntity
  8
0
 62
     0
100
AcDbLine
 10
-36.00657037282589
 20
-280.0909924036572
 30
0.0
 11
-35.27280855464243
 21
-279.3572305854738
 31
0.0
  0
LINE
  5
19A4
330
17CB
100
AcDbEntity
  8
0
 62
     0
100
AcDbLine
 10
-35.89386147160467
 20
-280.1108660239085
 30
0.0
 11
-35.16009965342125
 21
-279.3771042057251
 31
0.0
  0
LINE
  5
19A5
330
17CB
100
AcDbEntity
  8
0
 62
     0
100
AcDbLine
 10
-35.78115257038351
 20
-280.1307396441598
 30
0.0
 11
-35.04739075220007
 21
-279.3969778259764
 31
0.0
  0
LINE
  5
19A6
330
17CB
100
AcDbEntity
  8
0
 62
     0
100
AcDbLine
 10
-35.66844366916234
 20
-280.1506132644111
 30
0.0
 11
-34.93468185097889
 21
-279.4168514462277
 31
0.0
  0
LINE
  5
19A7
330
17CB
100
AcDbEntity
  8
0
 62
     0
100
AcDbLine
 10
-35.55573476794118
 20
-280.1704868846624
 30
0.0
 11
-34.82197294975771
 21
-279.436725066479
 31
0.0
  0
LINE
  5
19A8
330
17CB
100
AcDbEntity
  8
0
 62
     0
100
AcDbLine
 10
-35.44302586671997
 20
-280.1903605049137
 30
0.0
 11
-34.70926404853658
 21
-279.4565986867303
 31
0.0
  0
LINE
  5
19A9
330
17CB
100
AcDbEntity
  8
0
 62
     0
100
AcDbLine
 10
-35.3303169654988
 20
-280.210234125165
 30
0.0
 11
-34.59655514731539
 21
-279.4764723069816
 31
0.0
  0
LINE
  5
19AA
330
17CB
100
AcDbEntity
  8
0
 62
     0
100
AcDbLine
 10
-35.21760806427764
 20
-280.2301077454163
 30
0.0
 11
-34.48384624609421
 21
-279.496345927233
 31
0.0
  0
LINE
  5
19AB
330
17CB
100
AcDbEntity
  8
0
 62
     0
100
AcDbLine
 10
-35.10489916305647
 20
-280.2499813656676
 30
0.0
 11
-34.65961316436878
 21
-279.80469536698
 31
0.0
  0
LINE
  5
19AC
330
17CB
100
AcDbEntity
  8
0
 62
     0
100
AcDbLine
 10
-34.49507239555112
 20
-279.6401545981623
 30
0.0
 11
-34.37113734487303
 21
-279.5162195474842
 31
0.0
  0
LINE
  5
19AD
330
17CB
100
AcDbEntity
  8
0
 62
     0
100
AcDbLine
 10
-34.65961316436874
 20
-279.8046953669799
 30
0.0
 11
-34.49507239555113
 21
-279.6401545981623
 31
0.0
  0
LINE
  5
19AE
330
17CB
100
AcDbEntity
  8
0
 62
     0
100
AcDbLine
 10
-34.99219026183526
 20
-280.2698549859189
 30
0.0
 11
-34.61254978408334
 21
-279.890214508167
 31
0.0
  0
LINE
  5
19AF
330
17CB
100
AcDbEntity
  8
0
 62
     0
100
AcDbLine
 10
-34.4505443932725
 20
-279.7282091173562
 30
0.0
 11
-34.25842844365185
 21
-279.5360931677355
 31
0.0
  0
LINE
  5
19B0
330
17CB
100
AcDbEntity
  8
0
 62
     0
100
AcDbLine
 10
-34.61254978408327
 20
-279.8902145081669
 30
0.0
 11
-34.45054439327251
 21
-279.7282091173562
 31
0.0
  0
LINE
  5
19B1
330
17CB
100
AcDbEntity
  8
0
 62
     0
100
AcDbLine
 10
-34.8794813606141
 20
-280.2897286061702
 30
0.0
 11
-34.56548640379791
 21
-279.975733649354
 31
0.0
  0
LINE
  5
19B2
330
17CB
100
AcDbEntity
  8
0
 62
     0
100
AcDbLine
 10
-34.40601639099387
 20
-279.81626363655
 30
0.0
 11
-34.18212969867614
 21
-279.5923769442322
 31
0.0
  0
LINE
  5
19B3
330
17CB
100
AcDbEntity
  8
0
 62
     0
100
AcDbLine
 10
-34.5654864037978
 20
-279.975733649354
 30
0.0
 11
-34.4060163909939
 21
-279.81626363655
 31
0.0
  0
LINE
  5
19B4
330
17CB
100
AcDbEntity
  8
0
 62
     0
100
AcDbLine
 10
-34.76677245939293
 20
-280.3096022264215
 30
0.0
 11
-34.51842302351247
 21
-280.0612527905411
 31
0.0
  0
LINE
  5
19B5
330
17CB
100
AcDbEntity
  8
0
 62
     0
100
AcDbLine
 10
-34.36148838871525
 20
-279.9043181557439
 30
0.0
 11
-34.21610863625688
 21
-279.7589384032855
 31
0.0
  0
LINE
  5
19B6
330
17CB
100
AcDbEntity
  8
0
 62
     0
100
AcDbLine
 10
-34.51842302351233
 20
-280.0612527905409
 30
0.0
 11
-34.36148838871528
 21
-279.9043181557439
 31
0.0
  0
LINE
  5
19B7
330
17CB
100
AcDbEntity
  8
0
 62
     0
100
AcDbLine
 10
-34.65406355817177
 20
-280.3294758466728
 30
0.0
 11
-34.47135964322703
 21
-280.1467719317281
 31
0.0
  0
LINE
  5
19B8
330
17CB
100
AcDbEntity
  8
0
 62
     0
100
AcDbLine
 10
-34.31696038643663
 20
-279.9923726749377
 30
0.0
 11
-34.25008757383762
 21
-279.9254998623387
 31
0.0
  0
LINE
  5
19B9
330
17CB
100
AcDbEntity
  8
0
 62
     0
100
AcDbLine
 10
-34.47135964322686
 20
-280.1467719317279
 30
0.0
 11
-34.31696038643667
 21
-279.9923726749378
 31
0.0
  0
LINE
  5
19BA
330
17CB
100
AcDbEntity
  8
0
 62
     0
100
AcDbLine
 10
-34.54135465695056
 20
-280.3493494669242
 30
0.0
 11
-34.4242962629416
 21
-280.2322910729151
 31
0.0
  0
LINE
  5
19BB
330
17CB
100
AcDbEntity
  8
0
 62
     0
100
AcDbLine
 10
-34.42429626294139
 20
-280.232291072915
 30
0.0
 11
-34.27243238415805
 21
-280.0804271941316
 31
0.0
  0
LINE
  5
19BC
330
17CB
100
AcDbEntity
  8
0
 62
     0
100
AcDbLine
 10
-34.42864575572939
 20
-280.3692230871754
 30
0.0
 11
-34.37723288265617
 21
-280.3178102141022
 31
0.0
  0
LINE
  5
19BD
330
17CB
100
AcDbEntity
  8
0
 62
     0
100
AcDbLine
 10
-34.23763487951733
 20
-280.1782122109634
 30
0.0
 11
-34.22790438187941
 21
-280.1684817133254
 31
0.0
  0
LINE
  5
19BE
330
17CB
100
AcDbEntity
  8
0
 62
     0
100
AcDbLine
 10
-34.37723288265592
 20
-280.317810214102
 30
0.0
 11
-34.32222178119469
 21
-280.2627991126407
 31
0.0
  0
LINE
  5
19BF
330
17CB
100
AcDbEntity
  8
0
 62
     0
100
AcDbLine
 10
-34.3180454489991
 20
-280.2586227804452
 30
0.0
 11
-34.23763487951734
 21
-280.1782122109634
 31
0.0
  0
LINE
  5
19C0
330
17CB
100
AcDbEntity
  8
0
 62
     0
100
AcDbLine
 10
-34.33279649784393
 20
-280.4059563507625
 30
0.0
 11
-34.31594377963411
 21
-280.3891036325526
 31
0.0
  0
LINE
  5
19C1
330
17CB
100
AcDbEntity
  8
0
 62
     0
100
AcDbLine
 10
-34.31594377963405
 20
-280.3891036325526
 30
0.0
 11
-34.12832042519916
 21
-280.2014802781177
 31
0.0
  0
LINE
  5
19C2
330
17CB
100
AcDbEntity
  8
0
 62
     0
100
AcDbLine
 10
-34.2886183190611
 20
-280.4943606934521
 30
0.0
 11
-34.20326302751831
 21
-280.4090054019093
 31
0.0
  0
LINE
  5
19C3
330
17CB
100
AcDbEntity
  8
0
 62
     0
100
AcDbLine
 10
-34.01900597088106
 20
-280.224748345272
 30
0.0
 11
-34.00684354492805
 21
-280.2125859193191
 31
0.0
  0
LINE
  5
19C4
330
17CB
100
AcDbEntity
  8
0
 62
     0
100
AcDbLine
 10
-34.20326302751827
 20
-280.4090054019093
 30
0.0
 11
-34.01900597088101
 21
-280.224748345272
 31
0.0
  0
LINE
  5
19C5
330
17CB
100
AcDbEntity
  8
0
 62
     0
100
AcDbLine
 10
-34.24444014027825
 20
-280.5827650361417
 30
0.0
 11
-34.09058227540249
 21
-280.4289071712659
 31
0.0
  0
LINE
  5
19C6
330
17CB
100
AcDbEntity
  8
0
 62
     0
100
AcDbLine
 10
-33.90969151656292
 20
-280.2480164124263
 30
0.0
 11
-33.73652476279732
 21
-280.0748496586608
 31
0.0
  0
LINE
  5
19C7
330
17CB
100
AcDbEntity
  8
0
 62
     0
100
AcDbLine
 10
-34.09058227540246
 20
-280.4289071712659
 30
0.0
 11
-33.90969151656286
 21
-280.2480164124263
 31
0.0
  0
LINE
  5
19C8
330
17CB
100
AcDbEntity
  8
0
 62
     0
100
AcDbLine
 10
-34.20026196149541
 20
-280.6711693788314
 30
0.0
 11
-33.9779015232867
 21
-280.4488089406227
 31
0.0
  0
LINE
  5
19C9
330
17CB
100
AcDbEntity
  8
0
 62
     0
100
AcDbLine
 10
-33.80037706224471
 20
-280.2712844795807
 30
0.0
 11
-33.56665993146914
 21
-280.0375673488051
 31
0.0
  0
LINE
  5
19CA
330
17CB
100
AcDbEntity
  8
0
 62
     0
100
AcDbLine
 10
-33.97790152328667
 20
-280.4488089406226
 30
0.0
 11
-33.80037706224476
 21
-280.2712844795808
 31
0.0
  0
LINE
  5
19CB
330
17CB
100
AcDbEntity
  8
0
 62
     0
100
AcDbLine
 10
-34.15608378271257
 20
-280.759573721521
 30
0.0
 11
-33.86522077117088
 21
-280.4687107099793
 31
0.0
  0
LINE
  5
19CC
330
17CB
100
AcDbEntity
  8
0
 62
     0
100
AcDbLine
 10
-33.69106260792654
 20
-280.294552546735
 30
0.0
 11
-33.52248175268631
 21
-280.1259716914947
 31
0.0
  0
LINE
  5
19CD
330
17CB
100
AcDbEntity
  8
0
 62
     0
100
AcDbLine
 10
-33.86522077117085
 20
-280.4687107099793
 30
0.0
 11
-33.69106260792662
 21
-280.2945525467351
 31
0.0
  0
LINE
  5
19CE
330
17CB
100
AcDbEntity
  8
0
 62
     0
100
AcDbLine
 10
-34.11190560392971
 20
-280.8479780642106
 30
0.0
 11
-33.75254001905505
 21
-280.488612479336
 31
0.0
  0
LINE
  5
19CF
330
17CB
100
AcDbEntity
  8
0
 62
     0
100
AcDbLine
 10
-33.59453372366715
 20
-280.330606183948
 30
0.0
 11
-33.47830357390347
 21
-280.2143760341844
 31
0.0
  0
LINE
  5
19D0
330
17CB
100
AcDbEntity
  8
0
 62
     0
100
AcDbLine
 10
-33.75254001905507
 20
-280.4886124793359
 30
0.0
 11
-33.59453372366719
 21
-280.3306061839481
 31
0.0
  0
LINE
  5
19D1
330
17CB
100
AcDbEntity
  8
0
 62
     0
100
AcDbLine
 10
-34.06772742514688
 20
-280.9363824069003
 30
0.0
 11
-33.64145204273529
 21
-280.5101070244887
 31
0.0
  0
LINE
  5
19D2
330
17CB
100
AcDbEntity
  8
0
 62
     0
100
AcDbLine
 10
-33.62039977625162
 20
-280.489054758005
 30
0.0
 11
-33.43412539512061
 21
-280.302780376874
 31
0.0
  0
LINE
  5
19D3
330
17CB
100
AcDbEntity
  8
0
 62
     0
100
AcDbLine
 10
-33.64145204273528
 20
-280.5101070244887
 30
0.0
 11
-33.62039977625164
 21
-280.489054758005
 31
0.0
  0
LINE
  5
19D4
330
17CB
100
AcDbEntity
  8
0
 62
     0
100
AcDbLine
 10
-34.02354924636404
 20
-281.0247867495899
 30
0.0
 11
-33.38994721633778
 21
-280.3911847195636
 31
0.0
  0
LINE
  5
19D5
330
17CB
100
AcDbEntity
  8
0
 62
     0
100
AcDbLine
 10
-33.97937106758119
 20
-281.1131910922795
 30
0.0
 11
-33.34576903755494
 21
-280.4795890622533
 31
0.0
  0
LINE
  5
19D6
330
17CB
100
AcDbEntity
  8
0
 62
     0
100
AcDbLine
 10
-33.93519288879836
 20
-281.2015954349691
 30
0.0
 11
-33.30159085877209
 21
-280.567993404943
 31
0.0
  0
LINE
  5
19D7
330
17CB
100
AcDbEntity
  8
0
 62
     0
100
AcDbLine
 10
-33.89101471001551
 20
-281.2899997776588
 30
0.0
 11
-33.25741267998925
 21
-280.6563977476325
 31
0.0
  0
LINE
  5
19D8
330
17CB
100
AcDbEntity
  8
0
 62
     0
100
AcDbLine
 10
-33.84683653123266
 20
-281.3784041203485
 30
0.0
 11
-33.21323450120642
 21
-280.7448020903222
 31
0.0
  0
LINE
  5
19D9
330
17CB
100
AcDbEntity
  8
0
 62
     0
100
AcDbLine
 10
-33.80265835244982
 20
-281.4668084630381
 30
0.0
 11
-33.16905632242356
 21
-280.8332064330118
 31
0.0
  0
LINE
  5
19DA
330
17CB
100
AcDbEntity
  8
0
 62
     0
100
AcDbLine
 10
-33.75848017366698
 20
-281.5552128057277
 30
0.0
 11
-33.12487814364072
 21
-280.9216107757015
 31
0.0
  0
LINE
  5
19DB
330
17CB
100
AcDbEntity
  8
0
 62
     0
100
AcDbLine
 10
-33.71430199488414
 20
-281.6436171484174
 30
0.0
 11
-33.08069996485789
 21
-281.010015118391
 31
0.0
  0
LINE
  5
19DC
330
17CB
100
AcDbEntity
  8
0
 62
     0
100
AcDbLine
 10
-33.6701238161013
 20
-281.732021491107
 30
0.0
 11
-33.03652178607503
 21
-281.0984194610807
 31
0.0
  0
LINE
  5
19DD
330
17CB
100
AcDbEntity
  8
0
 62
     0
100
AcDbLine
 10
-33.62594563731845
 20
-281.8204258337966
 30
0.0
 11
-32.9923436072922
 21
-281.1868238037704
 31
0.0
  0
LINE
  5
19DE
330
17CB
100
AcDbEntity
  8
0
 62
     0
100
AcDbLine
 10
-33.58176745853561
 20
-281.9088301764862
 30
0.0
 11
-32.94816542850937
 21
-281.2752281464601
 31
0.0
  0
LINE
  5
19DF
330
17CB
100
AcDbEntity
  8
0
 62
     0
100
AcDbLine
 10
-33.53758927975277
 20
-281.9972345191759
 30
0.0
 11
-32.90398724972653
 21
-281.3636324891497
 31
0.0
  0
LINE
  5
19E0
330
17CB
100
AcDbEntity
  8
0
 62
     0
100
AcDbLine
 10
-33.49341110096992
 20
-282.0856388618656
 30
0.0
 11
-32.85980907094367
 21
-281.4520368318393
 31
0.0
  0
LINE
  5
19E1
330
17CB
100
AcDbEntity
  8
0
 62
     0
100
AcDbLine
 10
-33.44923292218708
 20
-282.1740432045552
 30
0.0
 11
-32.81563089216084
 21
-281.5404411745289
 31
0.0
  0
LINE
  5
19E2
330
17CB
100
AcDbEntity
  8
0
 62
     0
100
AcDbLine
 10
-33.40505474340423
 20
-282.2624475472448
 30
0.0
 11
-32.771452713378
 21
-281.6288455172186
 31
0.0
  0
LINE
  5
19E3
330
17CB
100
AcDbEntity
  8
0
 62
     0
100
AcDbLine
 10
-33.36087656462139
 20
-282.3508518899345
 30
0.0
 11
-32.72727453459515
 21
-281.7172498599082
 31
0.0
  0
LINE
  5
19E4
330
17CB
100
AcDbEntity
  8
0
 62
     0
100
AcDbLine
 10
-33.31669838583855
 20
-282.4392562326241
 30
0.0
 11
-32.68309635581231
 21
-281.8056542025978
 31
0.0
  0
LINE
  5
19E5
330
17CB
100
AcDbEntity
  8
0
 62
     0
100
AcDbLine
 10
-33.27252020705571
 20
-282.5276605753137
 30
0.0
 11
-32.63891817702948
 21
-281.8940585452875
 31
0.0
  0
LINE
  5
19E6
330
17CB
100
AcDbEntity
  8
0
 62
     0
100
AcDbLine
 10
-33.22834202827287
 20
-282.6160649180033
 30
0.0
 11
-32.59473999824662
 21
-281.9824628879771
 31
0.0
  0
LINE
  5
19E7
330
17CB
100
AcDbEntity
  8
0
 62
     0
100
AcDbLine
 10
-33.18416384949003
 20
-282.704469260693
 30
0.0
 11
-32.55056181946378
 21
-282.0708672306667
 31
0.0
  0
LINE
  5
19E8
330
17CB
100
AcDbEntity
  8
0
 62
     0
100
AcDbLine
 10
-33.13998567070718
 20
-282.7928736033826
 30
0.0
 11
-32.50638364068095
 21
-282.1592715733564
 31
0.0
  0
LINE
  5
19E9
330
17CB
100
AcDbEntity
  8
0
 62
     0
100
AcDbLine
 10
-33.09580749192433
 20
-282.8812779460723
 30
0.0
 11
-32.46220546189811
 21
-282.247675916046
 31
0.0
  0
LINE
  5
19EA
330
17CB
100
AcDbEntity
  8
0
 62
     0
100
AcDbLine
 10
-33.0516293131415
 20
-282.9696822887619
 30
0.0
 11
-32.41802728311526
 21
-282.3360802587357
 31
0.0
  0
LINE
  5
19EB
330
17CB
100
AcDbEntity
  8
0
 62
     0
100
AcDbLine
 10
-33.00745113435866
 20
-283.0580866314516
 30
0.0
 11
-32.37384910433242
 21
-282.4244846014253
 31
0.0
  0
LINE
  5
19EC
330
17CB
100
AcDbEntity
  8
0
 62
     0
100
AcDbLine
 10
-32.96327295557581
 20
-283.1464909741411
 30
0.0
 11
-32.32967092554959
 21
-282.5128889441149
 31
0.0
  0
LINE
  5
19ED
330
17CB
100
AcDbEntity
  8
0
 62
     0
100
AcDbLine
 10
-32.91909477679296
 20
-283.2348953168308
 30
0.0
 11
-32.28549274676673
 21
-282.6012932868045
 31
0.0
  0
LINE
  5
19EE
330
17CB
100
AcDbEntity
  8
0
 62
     0
100
AcDbLine
 10
-32.87491659801013
 20
-283.3232996595204
 30
0.0
 11
-32.24131456798389
 21
-282.6896976294942
 31
0.0
  0
LINE
  5
19EF
330
17CB
100
AcDbEntity
  8
0
 62
     0
100
AcDbLine
 10
-32.83073841922728
 20
-283.4117040022101
 30
0.0
 11
-32.19713638920106
 21
-282.7781019721838
 31
0.0
  0
LINE
  5
19F0
330
17CB
100
AcDbEntity
  8
0
 62
     0
100
AcDbLine
 10
-32.78656024044444
 20
-283.5001083448997
 30
0.0
 11
-32.1529582104182
 21
-282.8665063148735
 31
0.0
  0
LINE
  5
19F1
330
17CB
100
AcDbEntity
  8
0
 62
     0
100
AcDbLine
 10
-32.7423820616616
 20
-283.5885126875893
 30
0.0
 11
-32.10878003163537
 21
-282.9549106575631
 31
0.0
  0
LINE
  5
19F2
330
17CB
100
AcDbEntity
  8
0
 62
     0
100
AcDbLine
 10
-32.69820388287876
 20
-283.6769170302789
 30
0.0
 11
-32.06460185285254
 21
-283.0433150002527
 31
0.0
  0
LINE
  5
19F3
330
17CB
100
AcDbEntity
  8
0
 62
     0
100
AcDbLine
 10
-32.65402570409591
 20
-283.7653213729686
 30
0.0
 11
-32.0204236740697
 21
-283.1317193429424
 31
0.0
  0
LINE
  5
19F4
330
17CB
100
AcDbEntity
  8
0
 62
     0
100
AcDbLine
 10
-32.60984752531307
 20
-283.8537257156582
 30
0.0
 11
-31.97624549528684
 21
-283.220123685632
 31
0.0
  0
LINE
  5
19F5
330
17CB
100
AcDbEntity
  8
0
 62
     0
100
AcDbLine
 10
-32.56566934653022
 20
-283.9421300583479
 30
0.0
 11
-31.93206731650401
 21
-283.3085280283216
 31
0.0
  0
LINE
  5
19F6
330
17CB
100
AcDbEntity
  8
0
 62
     0
100
AcDbLine
 10
-32.52149116774738
 20
-284.0305344010375
 30
0.0
 11
-31.88788913772117
 21
-283.3969323710113
 31
0.0
  0
LINE
  5
19F7
330
17CB
100
AcDbEntity
  8
0
 62
     0
100
AcDbLine
 10
-32.47731298896454
 20
-284.1189387437271
 30
0.0
 11
-31.84371095893832
 21
-283.4853367137009
 31
0.0
  0
LINE
  5
19F8
330
17CB
100
AcDbEntity
  8
0
 62
     0
100
AcDbLine
 10
-32.43313481018169
 20
-284.2073430864168
 30
0.0
 11
-31.79953278015548
 21
-283.5737410563906
 31
0.0
  0
LINE
  5
19F9
330
17CB
100
AcDbEntity
  8
0
 62
     0
100
AcDbLine
 10
-32.38895663139885
 20
-284.2957474291064
 30
0.0
 11
-31.75535460137264
 21
-283.6621453990801
 31
0.0
  0
LINE
  5
19FA
330
17CB
100
AcDbEntity
  8
0
 62
     0
100
AcDbLine
 10
-32.34477845261601
 20
-284.384151771796
 30
0.0
 11
-31.71117642258979
 21
-283.7505497417698
 31
0.0
  0
LINE
  5
19FB
330
17CB
100
AcDbEntity
  8
0
 62
     0
100
AcDbLine
 10
-32.30060027383317
 20
-284.4725561144857
 30
0.0
 11
-31.66699824380695
 21
-283.8389540844595
 31
0.0
  0
LINE
  5
19FC
330
17CB
100
AcDbEntity
  8
0
 62
     0
100
AcDbLine
 10
-32.25642209505032
 20
-284.5609604571753
 30
0.0
 11
-31.62282006502412
 21
-283.9273584271491
 31
0.0
  0
LINE
  5
19FD
330
17CB
100
AcDbEntity
  8
0
 62
     0
100
AcDbLine
 10
-32.21224391626749
 20
-284.649364799865
 30
0.0
 11
-31.57864188624126
 21
-284.0157627698387
 31
0.0
  0
LINE
  5
19FE
330
17CB
100
AcDbEntity
  8
0
 62
     0
100
AcDbLine
 10
-32.16806573748464
 20
-284.7377691425545
 30
0.0
 11
-31.53446370745843
 21
-284.1041671125284
 31
0.0
  0
LINE
  5
19FF
330
17CB
100
AcDbEntity
  8
0
 62
     0
100
AcDbLine
 10
-32.1238875587018
 20
-284.8261734852442
 30
0.0
 11
-31.49028552867559
 21
-284.192571455218
 31
0.0
  0
LINE
  5
1A00
330
17CB
100
AcDbEntity
  8
0
 62
     0
100
AcDbLine
 10
-32.07970937991895
 20
-284.9145778279338
 30
0.0
 11
-31.44610734989275
 21
-284.2809757979077
 31
0.0
  0
LINE
  5
1A01
330
17CB
100
AcDbEntity
  8
0
 62
     0
100
AcDbLine
 10
-32.03553120113612
 20
-285.0029821706235
 30
0.0
 11
-31.4019291711099
 21
-284.3693801405972
 31
0.0
  0
LINE
  5
1A02
330
17CB
100
AcDbEntity
  8
0
 62
     0
100
AcDbLine
 10
-31.99135302235327
 20
-285.0913865133131
 30
0.0
 11
-31.35775099232706
 21
-284.4577844832869
 31
0.0
  0
LINE
  5
1A03
330
17CB
100
AcDbEntity
  8
0
 62
     0
100
AcDbLine
 10
-31.94717484357042
 20
-285.1797908560028
 30
0.0
 11
-31.31357281354423
 21
-284.5461888259766
 31
0.0
  0
LINE
  5
1A04
330
17CB
100
AcDbEntity
  8
0
 62
     0
100
AcDbLine
 10
-31.90299666478758
 20
-285.2681951986924
 30
0.0
 11
-31.26939463476138
 21
-284.6345931686662
 31
0.0
  0
LINE
  5
1A05
330
17CB
100
AcDbEntity
  8
0
 62
     0
100
AcDbLine
 10
-31.85881848600474
 20
-285.356599541382
 30
0.0
 11
-31.22521645597854
 21
-284.7229975113558
 31
0.0
  0
LINE
  5
1A06
330
17CB
100
AcDbEntity
  8
0
 62
     0
100
AcDbLine
 10
-31.8146403072219
 20
-285.4450038840717
 30
0.0
 11
-31.1810382771957
 21
-284.8114018540455
 31
0.0
  0
LINE
  5
1A07
330
17CB
100
AcDbEntity
  8
0
 62
     0
100
AcDbLine
 10
-31.77046212843906
 20
-285.5334082267613
 30
0.0
 11
-31.13686009841285
 21
-284.8998061967351
 31
0.0
  0
LINE
  5
1A08
330
17CB
100
AcDbEntity
  8
0
 62
     0
100
AcDbLine
 10
-31.72628394965622
 20
-285.6218125694509
 30
0.0
 11
-31.09268191963001
 21
-284.9882105394248
 31
0.0
  0
LINE
  5
1A09
330
17CB
100
AcDbEntity
  8
0
 62
     0
100
AcDbLine
 10
-31.68210577087337
 20
-285.7102169121406
 30
0.0
 11
-31.04850374084718
 21
-285.0766148821143
 31
0.0
  0
LINE
  5
1A0A
330
17CB
100
AcDbEntity
  8
0
 62
     0
100
AcDbLine
 10
-31.63792759209052
 20
-285.7986212548302
 30
0.0
 11
-31.00432556206434
 21
-285.165019224804
 31
0.0
  0
LINE
  5
1A0B
330
17CB
100
AcDbEntity
  8
0
 62
     0
100
AcDbLine
 10
-31.59374941330769
 20
-285.8870255975199
 30
0.0
 11
-30.96014738328149
 21
-285.2534235674937
 31
0.0
  0
LINE
  5
1A0C
330
17CB
100
AcDbEntity
  8
0
 62
     0
100
AcDbLine
 10
-31.50332316272872
 20
-285.9291818684134
 30
0.0
 11
-30.91596920449865
 21
-285.3418279101833
 31
0.0
  0
LINE
  5
1A0D
330
17CB
100
AcDbEntity
  8
0
 62
     0
100
AcDbLine
 10
-31.37157195278595
 20
-285.9300131799431
 30
0.0
 11
-30.87179102571581
 21
-285.4302322528729
 31
0.0
  0
LINE
  5
1A0E
330
17CB
100
AcDbEntity
  8
0
 62
     0
100
AcDbLine
 10
-31.23982074284319
 20
-285.9308444914728
 30
0.0
 11
-30.82761284693296
 21
-285.5186365955626
 31
0.0
  0
LINE
  5
1A0F
330
17CB
100
AcDbEntity
  8
0
 62
     0
100
AcDbLine
 10
-31.25232952633624
 20
-286.0759357964383
 30
0.0
 11
-31.16460760049095
 21
-285.988213870593
 31
0.0
  0
LINE
  5
1A10
330
17CB
100
AcDbEntity
  8
0
 62
     0
100
AcDbLine
 10
-31.10806953290039
 20
-285.9316758030024
 30
0.0
 11
-30.78343466815012
 21
-285.6070409382521
 31
0.0
  0
LINE
  5
1A11
330
17CB
100
AcDbEntity
  8
0
 62
     0
100
AcDbLine
 10
-31.15811563536502
 20
-285.981721905467
 30
0.0
 11
-31.10806953290039
 21
-285.9316758030025
 31
0.0
  0
LINE
  5
1A12
330
17CB
100
AcDbEntity
  8
0
 62
     0
100
AcDbLine
 10
-31.12177404626793
 20
-286.0779628378424
 30
0.0
 11
-31.0328563905482
 21
-285.9890451821227
 31
0.0
  0
LINE
  5
1A13
330
17CB
100
AcDbEntity
  8
0
 62
     0
100
AcDbLine
 10
-30.97631832295762
 20
-285.9325071145322
 30
0.0
 11
-30.73925648936729
 21
-285.6954452809418
 31
0.0
  0
LINE
  5
1A14
330
17CB
100
AcDbEntity
  8
0
 62
     0
100
AcDbLine
 10
-30.99002283632514
 20
-286.0787941493721
 30
0.0
 11
-30.93156545569635
 21
-286.0203367687433
 31
0.0
  0
LINE
  5
1A15
330
17CB
100
AcDbEntity
  8
0
 62
     0
100
AcDbLine
 10
-30.84456711301486
 20
-285.9333384260619
 30
0.0
 11
-30.69507831058443
 21
-285.7838496236314
 31
0.0
  0
LINE
  5
1A16
330
17CB
100
AcDbEntity
  8
0
 62
     0
100
AcDbLine
 10
-30.7128159030721
 20
-285.9341697375916
 30
0.0
 11
-30.6509001318016
 21
-285.8722539663211
 31
0.0
  0
ENDBLK
  5
1A17
330
17CB
100
AcDbEntity
  8
0
100
AcDbBlockEnd
  0
BLOCK
  5
1D27
330
1D1C
100
AcDbEntity
  8
0
100
AcDbBlockBegin
  2
*D18
 70
     1
 10
0.0
 20
0.0
 30
0.0
  3
*D18
  1

  0
LINE
  5
1E2F
330
1D1C
100
AcDbEntity
  8
0
 62
     0
370
    -2
100
AcDbLine
 10
490.1486501921418
 20
59.22332833119185
 30
0.0
 11
482.4572194298867
 21
59.22332833119185
 31
0.0
  0
LINE
  5
1E30
330
1D1C
100
AcDbEntity
  8
0
 62
     0
370
    -2
100
AcDbLine
 10
490.1486501921418
 20
69.22332833119188
 30
0.0
 11
482.4572194298867
 21
69.22332833119188
 31
0.0
  0
LINE
  5
1E31
330
1D1C
100
AcDbEntity
  8
0
 62
     0
370
    -2
100
AcDbLine
 10
484.3322194298868
 20
57.34832833119185
 30
0.0
 11
484.3322194298868
 21
55.47332833119185
 31
0.0
  0
LINE
  5
1E32
330
1D1C
100
AcDbEntity
  8
0
 62
     0
370
    -2
100
AcDbLine
 10
484.3322194298868
 20
71.09832833119188
 30
0.0
 11
484.3322194298868
 21
72.97332833119188
 31
0.0
  0
MTEXT
  5
1E33
330
1D1C
100
AcDbEntity
  8
0
 62
     0
100
AcDbMText
 10
482.5904797519751
 20
64.22332833119195
 30
0.0
 40
2.411999999999999
 41
0.0
 71
     5
 72
     1
  1
\A1;AS REQ'D
  7
ROMANS
 73
     1
 44
1.0
1001
ACAD
1000
MTEXTBEGIN
1070
    73
1070
     1
1070
    44
1040
1.0
1070
    74
1070
     0
1000
MTEXTEND
  0
SOLID
  5
1E34
330
1D1C
100
AcDbEntity
  8
0
 62
     0
100
AcDbTrace
 10
484.0197194298867
 20
57.34832833119185
 30
0.0
 11
484.6447194298868
 21
57.34832833119185
 31
0.0
 12
484.3322194298868
 22
59.22332833119185
 32
0.0
 13
484.3322194298868
 23
59.22332833119185
 33
0.0
  0
SOLID
  5
1E35
330
1D1C
100
AcDbEntity
  8
0
 62
     0
100
AcDbTrace
 10
484.0197194298867
 20
71.09832833119188
 30
0.0
 11
484.6447194298868
 21
71.09832833119188
 31
0.0
 12
484.3322194298868
 22
69.22332833119188
 32
0.0
 13
484.3322194298868
 23
69.22332833119188
 33
0.0
  0
POINT
  5
1E36
330
1D1C
100
AcDbEntity
  8
DEFPOINTS
 62
     0
100
AcDbPoint
 10
492.0236501921419
 20
59.22332833119185
 30
0.0
  0
POINT
  5
1E37
330
1D1C
100
AcDbEntity
  8
DEFPOINTS
 62
     0
100
AcDbPoint
 10
492.0236501921419
 20
69.22332833119188
 30
0.0
  0
POINT
  5
1E38
330
1D1C
100
AcDbEntity
  8
DEFPOINTS
 62
     0
100
AcDbPoint
 10
484.3322194298868
 20
69.22332833119188
 30
0.0
  0
ENDBLK
  5
1D28
330
1D1C
100
AcDbEntity
  8
0
100
AcDbBlockEnd
  0
BLOCK
  5
1EF1
330
1EE6
100
AcDbEntity
  8
0
100
AcDbBlockBegin
  2
*D19
 70
     1
 10
0.0
 20
0.0
 30
0.0
  3
*D19
  1

  0
LINE
  5
1EE7
330
1EE6
100
AcDbEntity
  8
0
 62
     0
370
    -2
100
AcDbLine
 10
471.6486501921418
 20
202.2233283311919
 30
0.0
 11
463.3098983539043
 21
202.2233283311919
 31
0.0
  0
LINE
  5
1EE8
330
1EE6
100
AcDbEntity
  8
0
 62
     0
370
    -2
100
AcDbLine
 10
471.6486501921418
 20
232.2233283311919
 30
0.0
 11
463.3098983539043
 21
232.2233283311919
 31
0.0
  0
LINE
  5
1EE9
330
1EE6
100
AcDbEntity
  8
0
 62
     0
370
    -2
100
AcDbLine
 10
465.1848983539044
 20
204.0983283311919
 30
0.0
 11
465.1848983539044
 21
213.9126140454776
 31
0.0
  0
LINE
  5
1EEA
330
1EE6
100
AcDbEntity
  8
0
 62
     0
370
    -2
100
AcDbLine
 10
465.1848983539044
 20
230.3483283311919
 30
0.0
 11
465.1848983539044
 21
220.5340426169061
 31
0.0
  0
SOLID
  5
1EEB
330
1EE6
100
AcDbEntity
  8
0
 62
     0
100
AcDbTrace
 10
464.8723983539043
 20
204.0983283311919
 30
0.0
 11
465.4973983539044
 21
204.0983283311919
 31
0.0
 12
465.1848983539044
 22
202.2233283311919
 32
0.0
 13
465.1848983539044
 23
202.2233283311919
 33
0.0
  0
SOLID
  5
1EEC
330
1EE6
100
AcDbEntity
  8
0
 62
     0
100
AcDbTrace
 10
464.8723983539043
 20
230.3483283311919
 30
0.0
 11
465.4973983539044
 21
230.3483283311919
 31
0.0
 12
465.1848983539044
 22
232.2233283311919
 32
0.0
 13
465.1848983539044
 23
232.2233283311919
 33
0.0
  0
MTEXT
  5
1EED
330
1EE6
100
AcDbEntity
  8
0
 62
     0
100
AcDbMText
 10
465.1848983539043
 20
217.223328331192
 30
0.0
 40
2.411999999999999
 41
0.0
 71
     5
 72
     1
  1
\A1;2'-6"
  7
ROMANS
 73
     1
 44
1.0
1001
ACAD
1000
MTEXTBEGIN
1070
    73
1070
     1
1070
    44
1040
1.0
1070
    74
1070
     0
1000
MTEXTEND
  0
POINT
  5
1EEE
330
1EE6
100
AcDbEntity
  8
DEFPOINTS
 62
     0
100
AcDbPoint
 10
473.5236501921418
 20
202.2233283311919
 30
0.0
  0
POINT
  5
1EEF
330
1EE6
100
AcDbEntity
  8
DEFPOINTS
 62
     0
100
AcDbPoint
 10
473.5236501921418
 20
232.2233283311919
 30
0.0
  0
POINT
  5
1EF0
330
1EE6
100
AcDbEntity
  8
DEFPOINTS
 62
     0
100
AcDbPoint
 10
465.1848983539044
 20
232.2233283311919
 30
0.0
  0
ENDBLK
  5
1EF2
330
1EE6
100
AcDbEntity
  8
0
100
AcDbBlockEnd
  0
BLOCK
  5
1EFE
330
1EF4
100
AcDbEntity
  8
0
100
AcDbBlockBegin
  2
*D20
 70
     1
 10
0.0
 20
0.0
 30
0.0
  3
*D20
  1

  0
LINE
  5
1EF5
330
1EF4
100
AcDbEntity
  8
0
 62
     0
370
    -2
100
AcDbLine
 10
471.6486501921418
 20
202.2233283311919
 30
0.0
 11
463.3098983539043
 21
202.2233283311919
 31
0.0
  0
LINE
  5
1EF6
330
1EF4
100
AcDbEntity
  8
0
 62
     0
370
    -2
100
AcDbLine
 10
471.6486501921418
 20
190.2233283311918
 30
0.0
 11
463.3098983539043
 21
190.2233283311918
 31
0.0
  0
LINE
  5
1EF7
330
1EF4
100
AcDbEntity
  8
0
 62
     0
370
    -2
100
AcDbLine
 10
465.1848983539044
 20
200.3483283311918
 30
0.0
 11
465.1848983539044
 21
192.0983283311918
 31
0.0
  0
MTEXT
  5
1EF8
330
1EF4
100
AcDbEntity
  8
0
 62
     0
100
AcDbMText
 10
459.5009697824757
 20
196.2233283311919
 30
0.0
 40
2.411999999999999
 41
0.0
 71
     5
 72
     1
  1
\A1;1'-0"
  7
ROMANS
 73
     1
 44
1.0
1001
ACAD
1000
MTEXTBEGIN
1070
    73
1070
     1
1070
    44
1040
1.0
1070
    74
1070
     0
1000
MTEXTEND
  0
SOLID
  5
1EF9
330
1EF4
100
AcDbEntity
  8
0
 62
     0
100
AcDbTrace
 10
464.8723983539043
 20
200.3483283311918
 30
0.0
 11
465.4973983539044
 21
200.3483283311918
 31
0.0
 12
465.1848983539044
 22
202.2233283311919
 32
0.0
 13
465.1848983539044
 23
202.2233283311919
 33
0.0
  0
SOLID
  5
1EFA
330
1EF4
100
AcDbEntity
  8
0
 62
     0
100
AcDbTrace
 10
464.8723983539043
 20
192.0983283311918
 30
0.0
 11
465.4973983539044
 21
192.0983283311918
 31
0.0
 12
465.1848983539044
 22
190.2233283311918
 32
0.0
 13
465.1848983539044
 23
190.2233283311918
 33
0.0
  0
POINT
  5
1EFB
330
1EF4
100
AcDbEntity
  8
DEFPOINTS
 62
     0
100
AcDbPoint
 10
473.5236501921418
 20
202.2233283311919
 30
0.0
  0
POINT
  5
1EFC
330
1EF4
100
AcDbEntity
  8
DEFPOINTS
 62
     0
100
AcDbPoint
 10
473.5236501921418
 20
190.2233283311918
 30
0.0
  0
POINT
  5
1EFD
330
1EF4
100
AcDbEntity
  8
DEFPOINTS
 62
     0
100
AcDbPoint
 10
465.1848983539044
 20
190.2233283311918
 30
0.0
  0
ENDBLK
  5
1EFF
330
1EF4
100
AcDbEntity
  8
0
100
AcDbBlockEnd
  0
ENDSEC
  0
SECTION
  2
ENTITIES
  0
LINE
  5
26F
330
47E
100
AcDbEntity
  8
0
 62
     7
100
AcDbLine
 10
586.7184197074777
 20
59.22332833119185
 30
0.0
 11
586.7184197074777
 21
232.7233283311918
 31
0.0
  0
LINE
  5
270
330
47E
100
AcDbEntity
  8
0
 62
     7
100
AcDbLine
 10
610.7184197074777
 20
59.22332833119186
 30
0.0
 11
610.7184197074777
 21
232.7233283311918
 31
0.0
  0
LINE
  5
271
330
47E
100
AcDbEntity
  8
0
 62
     7
100
AcDbLine
 10
611.7184197074777
 20
59.22332833119186
 30
0.0
 11
611.7184197074777
 21
232.7233283311918
 31
0.0
  0
LINE
  5
272
330
47E
100
AcDbEntity
  8
0
 62
     7
100
AcDbLine
 10
585.7184197074777
 20
59.22332833119185
 30
0.0
 11
585.7184197074777
 21
232.7233283311918
 31
0.0
  0
LINE
  5
275
330
47E
100
AcDbEntity
  8
0
 62
     7
100
AcDbLine
 10
610.7184197074777
 20
178.2233283311918
 30
0.0
 11
586.7184197074777
 21
178.2233283311918
 31
0.0
  0
LINE
  5
276
330
47E
100
AcDbEntity
  8
0
 62
     7
100
AcDbLine
 10
610.7184197074777
 20
177.4733283311918
 30
0.0
 11
586.7184197074777
 21
177.4733283311918
 31
0.0
  0
LINE
  5
277
330
47E
100
AcDbEntity
  8
0
 62
     7
100
AcDbLine
 10
610.7184197074777
 20
165.4733283311918
 30
0.0
 11
586.7184197074777
 21
165.4733283311918
 31
0.0
  0
LINE
  5
278
330
47E
100
AcDbEntity
  8
0
 62
     7
100
AcDbLine
 10
610.7184197074777
 20
166.2233283311918
 30
0.0
 11
586.7184197074777
 21
166.2233283311918
 31
0.0
  0
LINE
  5
279
330
47E
100
AcDbEntity
  8
0
 62
     7
100
AcDbLine
 10
610.7184197074777
 20
153.4733283311918
 30
0.0
 11
586.7184197074777
 21
153.4733283311918
 31
0.0
  0
LINE
  5
27A
330
47E
100
AcDbEntity
  8
0
 62
     7
100
AcDbLine
 10
610.7184197074777
 20
154.2233283311918
 30
0.0
 11
586.7184197074777
 21
154.2233283311918
 31
0.0
  0
LINE
  5
27B
330
47E
100
AcDbEntity
  8
0
 62
     7
100
AcDbLine
 10
610.7184197074777
 20
141.4733283311919
 30
0.0
 11
586.7184197074777
 21
141.4733283311919
 31
0.0
  0
LINE
  5
27C
330
47E
100
AcDbEntity
  8
0
 62
     7
100
AcDbLine
 10
610.7184197074777
 20
142.2233283311919
 30
0.0
 11
586.7184197074777
 21
142.2233283311919
 31
0.0
  0
LINE
  5
27D
330
47E
100
AcDbEntity
  8
0
 62
     7
100
AcDbLine
 10
610.7184197074777
 20
129.4733283311918
 30
0.0
 11
586.7184197074777
 21
129.4733283311918
 31
0.0
  0
LINE
  5
27E
330
47E
100
AcDbEntity
  8
0
 62
     7
100
AcDbLine
 10
610.7184197074777
 20
130.2233283311919
 30
0.0
 11
586.7184197074777
 21
130.2233283311919
 31
0.0
  0
LINE
  5
27F
330
47E
100
AcDbEntity
  8
0
 62
     7
100
AcDbLine
 10
610.7184197074777
 20
117.4733283311919
 30
0.0
 11
586.7184197074777
 21
117.4733283311919
 31
0.0
  0
LINE
  5
280
330
47E
100
AcDbEntity
  8
0
 62
     7
100
AcDbLine
 10
610.7184197074777
 20
118.2233283311919
 30
0.0
 11
586.7184197074777
 21
118.2233283311919
 31
0.0
  0
LINE
  5
281
330
47E
100
AcDbEntity
  8
0
 62
     7
100
AcDbLine
 10
610.7184197074777
 20
105.4733283311918
 30
0.0
 11
586.7184197074777
 21
105.4733283311918
 31
0.0
  0
LINE
  5
282
330
47E
100
AcDbEntity
  8
0
 62
     7
100
AcDbLine
 10
610.7184197074777
 20
106.2233283311919
 30
0.0
 11
586.7184197074777
 21
106.2233283311919
 31
0.0
  0
LINE
  5
283
330
47E
100
AcDbEntity
  8
0
 62
     7
100
AcDbLine
 10
610.7184197074777
 20
93.47332833119187
 30
0.0
 11
586.7184197074777
 21
93.47332833119187
 31
0.0
  0
LINE
  5
284
330
47E
100
AcDbEntity
  8
0
 62
     7
100
AcDbLine
 10
610.7184197074777
 20
94.22332833119188
 30
0.0
 11
586.7184197074777
 21
94.22332833119188
 31
0.0
  0
LINE
  5
285
330
47E
100
AcDbEntity
  8
0
 62
     7
100
AcDbLine
 10
610.7184197074777
 20
81.47332833119188
 30
0.0
 11
586.7184197074777
 21
81.47332833119188
 31
0.0
  0
LINE
  5
286
330
47E
100
AcDbEntity
  8
0
 62
     7
100
AcDbLine
 10
610.7184197074777
 20
82.22332833119187
 30
0.0
 11
586.7184197074777
 21
82.22332833119187
 31
0.0
  0
LINE
  5
287
330
47E
100
AcDbEntity
  8
0
 62
     7
100
AcDbLine
 10
610.7184197074777
 20
69.47332833119188
 30
0.0
 11
586.7184197074777
 21
69.47332833119188
 31
0.0
  0
LINE
  5
288
330
47E
100
AcDbEntity
  8
0
 62
     7
100
AcDbLine
 10
610.7184197074777
 20
70.22332833119188
 30
0.0
 11
586.7184197074777
 21
70.22332833119188
 31
0.0
  0
LINE
  5
28B
330
47E
100
AcDbEntity
  8
0
100
AcDbLine
 10
492.0236501921419
 20
59.22332833119186
 30
0.0
 11
492.0236501921419
 21
190.2233283311918
 31
0.0
  0
LINE
  5
28C
330
47E
100
AcDbEntity
  8
0
100
AcDbLine
 10
492.0236501921419
 20
59.22332833119185
 30
0.0
 11
516.0236501921418
 21
59.22332833119185
 31
0.0
  0
LINE
  5
28D
330
47E
100
AcDbEntity
  8
0
 62
     6
100
AcDbLine
 10
463.8481428911191
 20
190.2233283311918
 30
0.0
 11
492.0236501921419
 21
190.2233283311918
 31
0.0
  0
LINE
  5
28E
330
47E
100
AcDbEntity
  8
0
 62
     7
100
AcDbLine
 10
500.5236501921419
 20
59.22332833119186
 30
0.0
 11
500.5236501921419
 21
232.7233283311918
 31
0.0
  0
LINE
  5
28F
330
47E
100
AcDbEntity
  8
0
 62
     7
100
AcDbLine
 10
497.5236501921418
 20
59.22332833119185
 30
0.0
 11
497.5236501921418
 21
66.22332833119187
 31
0.0
  0
LINE
  5
294
330
47E
100
AcDbEntity
  8
0
 62
     7
100
AcDbLine
 10
492.0236501921419
 20
184.2233283311918
 30
0.0
 11
500.5236501921419
 21
184.2233283311918
 31
0.0
  0
LINE
  5
295
330
47E
100
AcDbEntity
  8
0
 62
     7
100
AcDbLine
 10
492.0236501921419
 20
181.2233283311918
 30
0.0
 11
500.5236501921419
 21
181.2233283311918
 31
0.0
  0
LINE
  5
2A2
330
47E
100
AcDbEntity
  8
0
 62
     7
100
AcDbLine
 10
492.0236501921419
 20
136.2233283311919
 30
0.0
 11
500.5236501921419
 21
136.2233283311919
 31
0.0
  0
LINE
  5
2A3
330
47E
100
AcDbEntity
  8
0
 62
     7
100
AcDbLine
 10
492.0236501921419
 20
133.2233283311919
 30
0.0
 11
500.5236501921419
 21
133.2233283311919
 31
0.0
  0
LINE
  5
2B0
330
47E
100
AcDbEntity
  8
0
 62
     7
100
AcDbLine
 10
492.0236501921419
 20
88.22332833119189
 30
0.0
 11
500.5236501921419
 21
88.22332833119189
 31
0.0
  0
LINE
  5
2B1
330
47E
100
AcDbEntity
  8
0
 62
     7
100
AcDbLine
 10
492.0236501921419
 20
85.22332833119188
 30
0.0
 11
500.5236501921419
 21
85.22332833119188
 31
0.0
  0
LINE
  5
2BE
330
47E
100
AcDbEntity
  8
0
 62
     7
100
AcDbLine
 10
492.0236501921419
 20
66.22332833119187
 30
0.0
 11
500.5236501921419
 21
66.22332833119187
 31
0.0
  0
LINE
  5
2BF
330
47E
100
AcDbEntity
  8
0
 62
     7
100
AcDbLine
 10
492.0236501921419
 20
69.22332833119188
 30
0.0
 11
500.5236501921419
 21
69.22332833119188
 31
0.0
  0
LINE
  5
2CC
330
47E
100
AcDbEntity
  8
0
 62
     7
100
AcDbLine
 10
497.5236501921418
 20
184.2233283311918
 30
0.0
 11
497.5236501921418
 21
202.2233283311919
 31
0.0
  0
LINE
  5
2CD
330
47E
100
AcDbEntity
  8
0
 62
     7
100
AcDbLine
 10
497.5236501921418
 20
136.2233283311919
 30
0.0
 11
497.5236501921418
 21
181.2233283311918
 31
0.0
  0
LINE
  5
2CE
330
47E
100
AcDbEntity
  8
0
 62
     7
100
AcDbLine
 10
497.5236501921418
 20
88.22332833119189
 30
0.0
 11
497.5236501921418
 21
133.2233283311919
 31
0.0
  0
LINE
  5
2CF
330
47E
100
AcDbEntity
  8
0
 62
     7
100
AcDbLine
 10
497.5236501921418
 20
69.22332833119188
 30
0.0
 11
497.5236501921418
 21
85.22332833119188
 31
0.0
  0
TEXT
  5
2FA
330
47E
100
AcDbEntity
  8
0
100
AcDbText
 10
524.4821803935598
 20
253.7949105948343
 30
0.0
 40
4.500997874999999
  1
TUBULAR FIXED LADDER w/WALK-THRU
  7
ROMANC
100
AcDbText
  0
DIMENSION
  5
303
330
47E
100
AcDbEntity
  8
0
 62
     7
100
AcDbDimension
  2
*D11
 10
483.1911708419065
 20
136.2233283311919
 30
0.0
 11
483.1911708419064
 21
160.2233283311919
 31
0.0
 70
    32
  1
4' TYP
 71
     5
 42
47.99999999999997
  3
STANDARD$0
100
AcDbAlignedDimension
 13
492.0236501921419
 23
184.2233283311918
 33
0.0
 14
492.0236501921419
 24
136.2233283311919
 34
0.0
 50
90.0
100
AcDbRotatedDimension
1001
ACAD
1000
DSTYLE
1002
{
1070
    40
1040
30.0
1002
}
  0
DIMENSION
  5
305
330
47E
100
AcDbEntity
  8
0
 62
     7
100
AcDbDimension
  2
*D15
 10
619.8330624950091
 20
166.2233283311918
 30
0.0
 11
619.9168325780735
 21
159.8752293632526
 31
0.0
 70
   160
  1
12" TYP
 71
     5
 42
12.0
  3
STANDARD$0
100
AcDbAlignedDimension
 13
610.7184197074777
 23
154.2233283311918
 33
0.0
 14
610.7184197074777
 24
166.2233283311918
 34
0.0
 50
90.0
100
AcDbRotatedDimension
1001
ACAD
1000
DSTYLE
1002
{
1070
    40
1040
30.0
1002
}
  0
TEXT
  5
306
330
47E
100
AcDbEntity
  8
0
100
AcDbText
 10
689.131208547559
 20
59.57771879729548
 30
0.0
 40
3.50075
  1
FACTORY FINISH
  7
ROMANS
 72
     1
 11
710.2190597380351
 21
59.57771879729548
 31
0.0
100
AcDbText
  0
TEXT
  5
307
330
47E
100
AcDbEntity
  8
0
100
AcDbText
 10
680.0709341427971
 20
53.90983784491452
 30
0.0
 40
3.50075
  1
%%OALUMINUM-MILL FINISH
  7
ROMANS
 72
     1
 11
710.2190597380351
 21
53.90983784491452
 31
0.0
100
AcDbText
  0
TEXT
  5
308
330
47E
100
AcDbEntity
  8
0
100
AcDbText
 10
688.5477502142256
 20
88.85747958292105
 30
0.0
 40
3.50075
  1
BRACKET DETAIL
  7
ROMANS
 72
     1
 11
710.2190597380351
 21
88.85747958292105
 31
0.0
100
AcDbText
  0
TEXT
  5
309
330
47E
100
AcDbEntity
  8
0
100
AcDbText
 10
703.7176668808923
 20
182.6666614367243
 30
0.0
 40
3.50075
  1
PLAN
  7
ROMANS
 72
     1
 11
710.2190597380351
 21
182.6666614367243
 31
0.0
100
AcDbText
  0
TEXT
  5
30A
330
47E
100
AcDbEntity
  8
0
 62
     7
100
AcDbText
 10
508.1192529092829
 20
243.7002745351811
 30
0.0
 40
2.210999999999999
  1
1/8" MOLDED
  7
ROMANS
 72
     1
 11
519.9112529092828
 21
243.7002745351811
 31
0.0
100
AcDbText
  0
TEXT
  5
30B
330
47E
100
AcDbEntity
  8
0
 62
     7
100
AcDbText
 10
507.32961005214
 20
240.1205602494668
 30
0.0
 40
2.210999999999999
  1
POLYURETHANE
  7
ROMANS
 72
     1
 11
519.9112529092828
 21
240.1205602494668
 31
0.0
100
AcDbText
  0
TEXT
  5
30C
330
47E
100
AcDbEntity
  8
0
 62
     7
100
AcDbText
 10
508.8562529092828
 20
236.5408459637525
 30
0.0
 40
2.210999999999999
  1
SAFETY CAPS
  7
ROMANS
 72
     1
 11
519.9112529092828
 21
236.5408459637525
 31
0.0
100
AcDbText
  0
TEXT
  5
30D
330
47E
100
AcDbEntity
  8
0
 62
     7
100
AcDbText
 10
503.1851291269935
 20
120.6847944511169
 30
0.0
 40
2.210999999999999
  1
ALUMINUM TUBULAR
  7
ROMANS
 72
     1
 11
519.6623434127078
 21
120.6847944511169
 31
0.0
100
AcDbText
  0
TEXT
  5
30E
330
47E
100
AcDbEntity
  8
0
 62
     7
100
AcDbText
 10
512.6082005555649
 20
117.1050801654026
 30
0.0
 40
2.210999999999999
  1
SIDERAIL
  7
ROMANS
 72
     1
 11
519.6623434127078
 21
117.1050801654026
 31
0.0
100
AcDbText
  0
TEXT
  5
30F
330
47E
100
AcDbEntity
  8
0
 62
     7
100
AcDbText
 10
510.7130576984221
 20
113.5253658796884
 30
0.0
 40
2.210999999999999
  1
(6005-T5)
  7
ROMANS
 72
     1
 11
519.6623434127078
 21
113.5253658796884
 31
0.0
100
AcDbText
  0
TEXT
  5
310
330
47E
100
AcDbEntity
  8
0
 62
     7
100
AcDbText
 10
551.7935118747796
 20
80.82176704945428
 30
0.0
 40
2.210999999999999
  1
2-1/4" SERRATED
  7
ROMANS
 72
     1
 11
567.481083303351
 21
80.82176704945428
 31
0.0
100
AcDbText
  0
TEXT
  5
311
330
47E
100
AcDbEntity
  8
0
 62
     7
100
AcDbText
 10
553.6886547319225
 20
77.24205276373999
 30
0.0
 40
2.210999999999999
  1
ALUMINUM RUNG
  7
ROMANS
 72
     1
 11
567.481083303351
 21
77.24205276373999
 31
0.0
100
AcDbText
  0
TEXT
  5
312
330
47E
100
AcDbEntity
  8
0
 62
     7
100
AcDbText
 10
558.5317975890653
 20
73.6623384780257
 30
0.0
 40
2.210999999999999
  1
(6005-T5)
  7
ROMANS
 72
     1
 11
567.481083303351
 21
73.6623384780257
 31
0.0
100
AcDbText
  0
SOLID
  5
313
330
47E
100
AcDbEntity
  8
0
 62
     7
100
AcDbTrace
 10
502.0657849863622
 20
234.387058417882
 30
0.0
 11
501.6514053418916
 21
234.748706741877
 31
0.0
 12
500.7736501921419
 22
233.3247436464676
 32
0.0
 13
500.7736501921419
 23
233.3247436464676
 33
0.0
  0
LINE
  5
314
330
47E
100
AcDbEntity
  8
0
 62
     7
100
AcDbLine
 10
501.8585951641269
 20
234.5678825798795
 30
0.0
 11
504.6456789674883
 21
237.7613462818228
 31
0.0
  0
LINE
  5
315
330
47E
100
AcDbEntity
  8
0
 62
     7
100
AcDbLine
 10
504.6456789674883
 20
237.7613462818228
 30
0.0
 11
507.5961973770493
 21
237.7613462818228
 31
0.0
  0
LINE
  5
316
330
47E
100
AcDbEntity
  8
0
 62
     7
100
AcDbLine
 10
589.6998228712392
 20
74.65993096654711
 30
0.0
 11
577.1819292849649
 21
74.65993096654711
 31
0.0
  0
LINE
  5
317
330
47E
100
AcDbEntity
  8
0
 62
     7
100
AcDbLine
 10
592.4869066746006
 20
71.46646726460372
 30
0.0
 11
589.6998228712392
 21
74.65993096654711
 31
0.0
  0
SOLID
  5
318
330
47E
100
AcDbEntity
  8
0
 62
     7
100
AcDbTrace
 10
592.2797168523653
 20
71.28564310260623
 30
0.0
 11
592.6940964968359
 21
71.64729142660125
 31
0.0
 12
593.5718516465856
 22
70.22332833119188
 32
0.0
 13
593.5718516465856
 23
70.22332833119188
 33
0.0
  0
LINE
  5
319
330
47E
100
AcDbEntity
  8
0
 62
     7
100
AcDbLine
 10
504.3956789674884
 20
114.4795064426338
 30
0.0
 11
509.554286925943
 21
114.4795064426338
 31
0.0
  0
LINE
  5
31A
330
47E
100
AcDbEntity
  8
0
 62
     7
100
AcDbLine
 10
501.6085951641269
 20
111.2860427406904
 30
0.0
 11
504.3956789674884
 21
114.4795064426338
 31
0.0
  0
SOLID
  5
31B
330
47E
100
AcDbEntity
  8
0
 62
     7
100
AcDbTrace
 10
501.8157849863622
 20
111.1052185786929
 30
0.0
 11
501.4014053418916
 21
111.4668669026879
 31
0.0
 12
500.5236501921419
 22
110.0429038072785
 32
0.0
 13
500.5236501921419
 23
110.0429038072785
 33
0.0
  0
LINE
  5
31C
330
47E
100
AcDbEntity
  8
0
 62
     7
100
AcDbLine
 10
610.7184197074777
 20
189.4733283311918
 30
0.0
 11
586.7184197074777
 21
189.4733283311918
 31
0.0
  0
LINE
  5
31D
330
47E
100
AcDbEntity
  8
0
 62
     7
100
AcDbLine
 10
610.7184197074777
 20
190.2233283311918
 30
0.0
 11
586.7184197074777
 21
190.2233283311918
 31
0.0
  0
DIMENSION
  5
31E
330
47E
100
AcDbEntity
  8
0
 62
     7
100
AcDbDimension
  2
*D13
 10
483.1911708419065
 20
184.2233283311918
 30
0.0
 11
483.6403178703593
 21
187.1093131893649
 31
0.0
 70
   160
  1
6"
 71
     5
 42
6.0
  3
STANDARD$0
100
AcDbAlignedDimension
 13
492.0236501921419
 23
190.2233283311918
 33
0.0
 14
492.0236501921419
 24
184.2233283311918
 34
0.0
 50
90.0
100
AcDbRotatedDimension
1001
ACAD
1000
DSTYLE
1002
{
1070
    40
1040
30.0
1002
}
  0
LINE
  5
31F
330
47E
100
AcDbEntity
  8
0
 62
     7
100
AcDbLine
 10
473.5236501921418
 20
232.2233283311919
 30
0.0
 11
500.5236501921419
 21
232.2233283311919
 31
0.0
  0
LINE
  5
320
330
47E
100
AcDbEntity
  8
0
 62
     7
100
AcDbLine
 10
473.5236501921418
 20
202.2233283311919
 30
0.0
 11
473.5236501921418
 21
232.2233283311919
 31
0.0
  0
LINE
  5
321
330
47E
100
AcDbEntity
  8
0
 62
     7
100
AcDbLine
 10
474.7736501921418
 20
202.2233283311919
 30
0.0
 11
474.7736501921418
 21
230.9733283311918
 31
0.0
  0
LINE
  5
322
330
47E
100
AcDbEntity
  8
0
 62
     7
100
AcDbLine
 10
473.5236501921418
 20
230.9733283311918
 30
0.0
 11
500.5236501921419
 21
230.9733283311918
 31
0.0
  0
LINE
  5
323
330
47E
100
AcDbEntity
  8
0
 62
     7
100
AcDbLine
 10
474.7736501921418
 20
217.8483283311919
 30
0.0
 11
500.5236501921419
 21
217.8483283311919
 31
0.0
  0
LINE
  5
324
330
47E
100
AcDbEntity
  8
0
 62
     7
100
AcDbLine
 10
474.7736501921418
 20
216.5983283311919
 30
0.0
 11
500.5236501921419
 21
216.5983283311919
 31
0.0
  0
LINE
  5
325
330
47E
100
AcDbEntity
  8
0
 62
     7
100
AcDbLine
 10
497.5236501921418
 20
217.8483283311919
 30
0.0
 11
497.5236501921418
 21
230.9733283311918
 31
0.0
  0
LINE
  5
326
330
47E
100
AcDbEntity
  8
0
 62
     7
100
AcDbLine
 10
497.5236501921418
 20
232.2233283311919
 30
0.0
 11
497.5236501921418
 21
232.7233283311918
 31
0.0
  0
LINE
  5
32D
330
47E
100
AcDbEntity
  8
0
 62
     7
100
AcDbLine
 10
584.4684197074777
 20
214.8483283311918
 30
0.0
 11
585.7184197074777
 21
214.8483283311918
 31
0.0
  0
LINE
  5
32E
330
47E
100
AcDbEntity
  8
0
 62
     7
100
AcDbLine
 10
584.4684197074777
 20
213.5983283311919
 30
0.0
 11
585.7184197074777
 21
213.5983283311919
 31
0.0
  0
LINE
  5
32F
330
47E
100
AcDbEntity
  8
0
 62
     7
100
AcDbLine
 10
584.4684197074777
 20
230.9733283311918
 30
0.0
 11
585.7184197074777
 21
230.9733283311918
 31
0.0
  0
LINE
  5
330
330
47E
100
AcDbEntity
  8
0
 62
     7
100
AcDbLine
 10
584.4684197074777
 20
232.2233283311919
 30
0.0
 11
585.7184197074777
 21
232.2233283311919
 31
0.0
  0
LINE
  5
331
330
47E
100
AcDbEntity
  8
0
 62
     7
100
AcDbLine
 10
584.4684197074777
 20
196.2233283311918
 30
0.0
 11
584.4684197074777
 21
232.2233283311919
 31
0.0
  0
TEXT
  5
332
330
47E
100
AcDbEntity
  8
0
 62
     7
100
AcDbText
 10
501.1142159167873
 20
228.4391720154484
 30
0.0
 40
2.210999999999999
  1
1-1/4" ALUMINUM
  7
ROMANS
100
AcDbText
  0
TEXT
  5
333
330
47E
100
AcDbEntity
  8
0
 62
     7
100
AcDbText
 10
505.4511736760858
 20
224.3894491307714
 30
0.0
 40
2.210999999999999
  1
SQUARE TUBING
  7
ROMANS
100
AcDbText
  0
TEXT
  5
334
330
47E
100
AcDbEntity
  8
0
 62
     7
100
AcDbText
 10
509.7881314353844
 20
220.8097348450571
 30
0.0
 40
2.210999999999999
  1
SAFETY BARS
  7
ROMANS
100
AcDbText
  0
LINE
  5
335
330
47E
100
AcDbEntity
  8
0
 62
     7
100
AcDbLine
 10
491.9198770579878
 20
219.0914672646037
 30
0.0
 11
494.7069608613492
 21
222.2849309665471
 31
0.0
  0
SOLID
  5
336
330
47E
100
AcDbEntity
  8
0
 62
     7
100
AcDbTrace
 10
492.1270668802231
 20
218.9106431026062
 30
0.0
 11
491.7126872357525
 21
219.2722914266013
 31
0.0
 12
490.8349320860028
 22
217.8483283311919
 32
0.0
 13
490.8349320860028
 23
217.8483283311919
 33
0.0
  0
LINE
  5
337
330
47E
100
AcDbEntity
  8
0
 62
     7
100
AcDbLine
 10
494.7069608613492
 20
222.2849309665471
 30
0.0
 11
508.6964538049241
 21
222.2849309665471
 31
0.0
  0
DIMENSION
  5
338
330
47E
100
AcDbEntity
  8
0
 62
     7
100
AcDbDimension
  2
*D12
 10
473.5236501921418
 20
239.7268453006918
 30
0.0
 11
487.1486501921419
 21
239.7268453006918
 31
0.0
 70
    32
  1
27"
 71
     5
 42
27.25
  3
STANDARD$0
100
AcDbAlignedDimension
 13
500.7736501921418
 23
234.8214045425452
 33
0.0
 14
473.5236501921418
 24
232.2233283311919
 34
0.0
100
AcDbRotatedDimension
1001
ACAD
1000
DSTYLE
1002
{
1070
    40
1040
30.0
1002
}
  0
LINE
  5
355
330
47E
100
AcDbEntity
  8
0
 62
     7
100
AcDbLine
 10
473.5236501921418
 20
202.2233283311919
 30
0.0
 11
500.5236501921418
 21
202.2233283311919
 31
0.0
  0
LINE
  5
356
330
47E
100
AcDbEntity
  8
0
 62
     7
100
AcDbLine
 10
474.7736501921418
 20
203.4733283311918
 30
0.0
 11
500.5236501921418
 21
203.4733283311918
 31
0.0
  0
LINE
  5
357
330
47E
100
AcDbEntity
  8
0
 62
     7
100
AcDbLine
 10
497.5236501921418
 20
203.4733283311918
 30
0.0
 11
497.5236501921418
 21
216.5983283311919
 31
0.0
  0
LINE
  5
359
330
47E
100
AcDbEntity
  8
0
 62
     7
100
AcDbLine
 10
584.4684197074777
 20
197.4733283311918
 30
0.0
 11
585.7184197074777
 21
197.4733283311918
 31
0.0
  0
LINE
  5
35A
330
47E
100
AcDbEntity
  8
0
 62
     7
100
AcDbLine
 10
584.4684197074777
 20
196.2233283311918
 30
0.0
 11
585.7184197074777
 21
196.2233283311918
 31
0.0
  0
LINE
  5
35B
330
47E
100
AcDbEntity
  8
0
 62
     7
100
AcDbLine
 10
612.9684197074777
 20
196.2233283311918
 30
0.0
 11
612.9684197074777
 21
232.2233283311919
 31
0.0
  0
LINE
  5
35C
330
47E
100
AcDbEntity
  8
0
 62
     7
100
AcDbLine
 10
612.9684197074777
 20
197.4733283311918
 30
0.0
 11
611.7184197074777
 21
197.4733283311918
 31
0.0
  0
LINE
  5
35D
330
47E
100
AcDbEntity
  8
0
 62
     7
100
AcDbLine
 10
612.9684197074777
 20
196.2233283311918
 30
0.0
 11
611.7184197074777
 21
196.2233283311918
 31
0.0
  0
LINE
  5
35E
330
47E
100
AcDbEntity
  8
0
 62
     7
100
AcDbLine
 10
612.9684197074777
 20
214.8483283311918
 30
0.0
 11
611.7184197074777
 21
214.8483283311918
 31
0.0
  0
LINE
  5
35F
330
47E
100
AcDbEntity
  8
0
 62
     7
100
AcDbLine
 10
612.9684197074777
 20
213.5983283311919
 30
0.0
 11
611.7184197074777
 21
213.5983283311919
 31
0.0
  0
LINE
  5
360
330
47E
100
AcDbEntity
  8
0
 62
     7
100
AcDbLine
 10
612.9684197074777
 20
232.2233283311919
 30
0.0
 11
611.7184197074777
 21
232.2233283311919
 31
0.0
  0
LINE
  5
361
330
47E
100
AcDbEntity
  8
0
 62
     7
100
AcDbLine
 10
612.9684197074777
 20
230.9733283311918
 30
0.0
 11
611.7184197074777
 21
230.9733283311918
 31
0.0
  0
DIMENSION
  5
362
330
47E
100
AcDbEntity
  8
0
 62
     7
100
AcDbDimension
  2
*D14
 10
630.7268427510661
 20
235.2233283311918
 30
0.0
 11
630.7268427510661
 21
212.723328331192
 31
0.0
 70
    32
  1
45"
 71
     5
 42
45.0
  3
STANDARD$0
100
AcDbAlignedDimension
 13
610.7184197074777
 23
190.2233283311918
 33
0.0
 14
611.8434197074777
 24
235.2233283311918
 34
0.0
 50
90.0
100
AcDbRotatedDimension
1001
ACAD
1000
DSTYLE
1002
{
1070
    40
1040
30.0
1002
}
  0
TEXT
  5
363
330
47E
100
AcDbEntity
  8
0
 62
     7
100
AcDbText
 10
505.8172719841364
 20
124.2381291451993
 30
0.0
 40
2.210999999999999
  1
3" x 1" x 1/8"
  7
ROMANS
 72
     1
 11
519.6623434127078
 21
124.2381291451993
 31
0.0
100
AcDbText
  0
TEXT
  5
364
330
47E
100
AcDbEntity
  8
0
 62
     7
100
AcDbText
 10
691.9995935560702
 20
177.0079108602185
 30
0.0
 40
2.100449999999999
  1
(SAFETY BARS OMITTED
  7
ROMANS
 72
     1
 11
710.603579270356
 21
177.0079108602185
 31
0.0
100
AcDbText
  0
TEXT
  5
365
330
47E
100
AcDbEntity
  8
0
 62
     7
100
AcDbText
 10
699.8512756989274
 20
173.6071822887899
 30
0.0
 40
2.100449999999999
  1
FOR CLARITY)
  7
ROMANS
 72
     1
 11
710.603579270356
 21
173.6071822887899
 31
0.0
100
AcDbText
  0
TEXT
  5
366
330
47E
100
AcDbEntity
  8
0
 62
     7
100
AcDbText
 10
691.6723770085034
 20
82.35446830014693
 30
0.0
 40
2.100449999999999
  1
NOTE:
  7
ROMANS
100
AcDbText
  0
TEXT
  5
367
330
47E
100
AcDbEntity
  8
0
 62
     7
100
AcDbText
 10
691.6723770085034
 20
78.95373972871833
 30
0.0
 40
2.100449999999999
  1
ALL BOLTS/FASTENERS
  7
ROMANS
100
AcDbText
  0
TEXT
  5
368
330
47E
100
AcDbEntity
  8
0
 62
     7
100
AcDbText
 10
691.6723770085034
 20
75.55301115728977
 30
0.0
 40
2.100449999999999
  1
NECESSARY TO ANCHOR
  7
ROMANS
100
AcDbText
  0
TEXT
  5
369
330
47E
100
AcDbEntity
  8
0
 62
     7
100
AcDbText
 10
691.6723770085034
 20
72.15228258586119
 30
0.0
 40
2.100449999999999
  1
LADDER ARE BY OTHERS.
  7
ROMANS
100
AcDbText
  0
INSERT
  5
386
330
47E
100
AcDbEntity
  8
0
100
AcDbBlockReference
  2
LINETYPE
 10
0.0
 20
0.0
 30
0.0
  0
LINE
  5
387
330
47E
100
AcDbEntity
  8
0
 62
     7
100
AcDbLine
 10
585.7184197074777
 20
59.22332833119185
 30
0.0
 11
586.7184197074777
 21
59.22332833119185
 31
0.0
  0
LINE
  5
388
330
47E
100
AcDbEntity
  8
0
 62
     7
100
AcDbLine
 10
610.7184197074777
 20
59.22332833119186
 30
0.0
 11
611.7184197074777
 21
59.22332833119186
 31
0.0
  0
DIMENSION
  5
38A
330
47E
100
AcDbEntity
  8
0
 62
     7
100
AcDbDimension
  2
*D10
 10
611.7184197074777
 20
54.14670020513765
 30
0.0
 11
598.7184197074777
 21
54.14670020513765
 31
0.0
 70
    32
  1
26"
 71
     5
 42
26.0
  3
STANDARD$0
100
AcDbAlignedDimension
 13
585.7184197074777
 23
59.22332833119185
 33
0.0
 14
611.7184197074777
 24
59.22332833119186
 34
0.0
100
AcDbRotatedDimension
1001
ACAD
1000
DSTYLE
1002
{
1070
    40
1040
30.0
1002
}
  0
POINT
  5
41B
330
47E
100
AcDbEntity
  8
DEFPOINTS
  6
ByBlock
 62
     7
100
AcDbPoint
 10
492.0236501921419
 20
69.22332833119188
 30
0.0
  0
LWPOLYLINE
  5
4AE
330
47E
100
AcDbEntity
  8
0
 62
     7
100
AcDbPolyline
 90
        4
 70
     1
 43
0.0
 10
500.7736501921418
 20
232.7233283311918
 10
500.7736501921418
 20
234.8214045425452
 42
0.2296707363695335
 10
497.2736501921418
 20
234.8214045425452
 10
497.2736501921418
 20
232.7233283311918
  0
LWPOLYLINE
  5
4B4
330
47E
100
AcDbEntity
  8
0
 62
     7
100
AcDbPolyline
 90
        4
 70
     1
 43
0.0
 10
585.5934197074778
 20
232.7233283311918
 10
585.5934197074778
 20
235.2233283311918
 10
586.8434197074777
 20
235.2233283311918
 10
586.8434197074777
 20
232.7233283311918
  0
LWPOLYLINE
  5
4BA
330
47E
100
AcDbEntity
  8
0
 62
     7
100
AcDbPolyline
 90
        4
 70
     1
 43
0.0
 10
610.5934197074778
 20
232.7233283311919
 10
610.5934197074778
 20
235.2233283311918
 10
611.8434197074777
 20
235.2233283311918
 10
611.8434197074777
 20
232.7233283311918
  0
LINE
  5
1050
330
47E
100
AcDbEntity
  8
0
 62
     7
100
AcDbLine
 10
586.7184197074777
 20
184.2233283311918
 30
0.0
 11
589.9059197074778
 21
184.2233283311919
 31
0.0
  0
LINE
  5
1051
330
47E
100
AcDbEntity
  8
0
 62
     7
100
AcDbLine
 10
586.7184197074777
 20
181.2233283311918
 30
0.0
 11
589.9059197074778
 21
181.2233283311918
 31
0.0
  0
LINE
  5
1052
330
47E
100
AcDbEntity
  8
0
 62
     7
100
AcDbLine
 10
585.4059197074778
 20
184.2233283311918
 30
0.0
 11
585.6559197074777
 21
184.2233283311918
 31
0.0
  0
CIRCLE
  5
1053
330
47E
100
AcDbEntity
  8
0
 62
     7
100
AcDbCircle
 10
587.6559197074778
 20
182.7233283311919
 30
0.0
 40
0.28125
  0
LINE
  5
1054
330
47E
100
AcDbEntity
  8
0
 62
     7
100
AcDbLine
 10
585.4059197074778
 20
181.2233283311918
 30
0.0
 11
585.6559197074777
 21
181.2233283311918
 31
0.0
  0
LINE
  5
1055
330
47E
100
AcDbEntity
  8
0
 62
     7
100
AcDbLine
 10
585.4059197074778
 20
181.2233283311918
 30
0.0
 11
585.4059197074778
 21
184.2233283311918
 31
0.0
  0
LINE
  5
1056
330
47E
100
AcDbEntity
  8
0
 62
     7
100
AcDbLine
 10
589.9059197074778
 20
181.2233283311918
 30
0.0
 11
589.9059197074778
 21
184.2233283311919
 31
0.0
  0
CIRCLE
  5
1057
330
47E
100
AcDbEntity
  8
0
 62
     7
100
AcDbCircle
 10
609.7809197074777
 20
182.7233283311919
 30
0.0
 40
0.28125
  0
LINE
  5
1058
330
47E
100
AcDbEntity
  8
0
 62
     7
100
AcDbLine
 10
610.7184197074777
 20
184.2233283311918
 30
0.0
 11
607.5309197074777
 21
184.2233283311919
 31
0.0
  0
LINE
  5
1059
330
47E
100
AcDbEntity
  8
0
 62
     7
100
AcDbLine
 10
610.7184197074777
 20
181.2233283311918
 30
0.0
 11
607.5309197074777
 21
181.2233283311918
 31
0.0
  0
LINE
  5
105A
330
47E
100
AcDbEntity
  8
0
 62
     7
100
AcDbLine
 10
607.5309197074777
 20
181.2233283311918
 30
0.0
 11
607.5309197074777
 21
184.2233283311919
 31
0.0
  0
LINE
  5
105B
330
47E
100
AcDbEntity
  8
0
 62
     7
100
AcDbLine
 10
612.0309197074777
 20
184.2233283311918
 30
0.0
 11
611.7809197074778
 21
184.2233283311918
 31
0.0
  0
LINE
  5
105C
330
47E
100
AcDbEntity
  8
0
 62
     7
100
AcDbLine
 10
612.0309197074777
 20
181.2233283311918
 30
0.0
 11
611.7809197074778
 21
181.2233283311918
 31
0.0
  0
LINE
  5
105D
330
47E
100
AcDbEntity
  8
0
 62
     7
100
AcDbLine
 10
612.0309197074777
 20
181.2233283311918
 30
0.0
 11
612.0309197074777
 21
184.2233283311918
 31
0.0
  0
LWPOLYLINE
  5
105E
330
47E
100
AcDbEntity
  8
0
 62
     7
100
AcDbPolyline
 90
        6
 70
     1
 43
0.0
 10
683.9836328529758
 20
203.0279892053767
 10
684.6516016029758
 20
203.0279892053767
 10
684.6516016029758
 20
225.0709579553767
 10
694.6711328529758
 20
225.0709579553767
 10
694.6711328529758
 20
225.7389267053766
 10
683.9836328529758
 20
225.7389267053766
  0
LWPOLYLINE
  5
105F
330
47E
100
AcDbEntity
  8
0
 62
     7
100
AcDbPolyline
 90
        6
 70
     1
 43
0.0
 10
738.0891016029757
 20
203.0279892053767
 10
738.7570703529757
 20
203.0279892053767
 10
738.7570703529757
 20
225.7389267053766
 10
728.0695703529756
 20
225.7389267053766
 10
728.0695703529756
 20
225.0709579553767
 10
738.0891016029757
 20
225.0709579553767
  0
DIMENSION
  5
1060
330
47E
100
AcDbEntity
  8
0
 62
     7
100
AcDbDimension
  2
*D2
 10
747.1414339693754
 20
225.7389267053766
 30
0.0
 11
747.1414339693754
 21
216.3873642053768
 31
0.0
 70
    32
  1
7"
 71
     5
 42
18.70312499999997
  3
STANDARD$0
100
AcDbAlignedDimension
 13
738.7570703529757
 23
207.0358017053767
 33
0.0
 14
738.7570703529757
 24
225.7389267053766
 34
0.0
 50
90.0
100
AcDbRotatedDimension
1001
ACAD
1000
DSTYLE
1002
{
1070
    40
1040
30.0
1002
}
  0
LINE
  5
1061
330
47E
100
AcDbEntity
  8
0
 62
     7
100
AcDbLine
 10
731.4597905159939
 20
112.4444869123636
 30
0.0
 11
703.0224529613888
 21
128.862791404551
 31
0.0
  0
LINE
  5
1062
330
47E
100
AcDbEntity
  8
0
 62
     7
100
AcDbLine
 10
730.6233982349762
 20
111.9615956037698
 30
0.0
 11
703.0224529613888
 21
127.8970087873635
 31
0.0
  0
LINE
  5
1064
330
47E
100
AcDbEntity
  8
0
 62
     7
100
AcDbLine
 10
730.6233982349762
 20
100.3722041975198
 30
0.0
 11
703.0224529613888
 21
116.3076173811135
 31
0.0
  0
DIMENSION
  5
1065
330
47E
100
AcDbEntity
  8
0
 62
     7
100
AcDbDimension
  2
*D3
 10
737.1847414530484
 20
115.7497888769692
 30
0.0
 11
722.9660726757458
 21
123.958941123063
 31
0.0
 70
    33
  1
8-1/2"
 71
     5
 42
32.83660898437506
  3
STANDARD$0
100
AcDbAlignedDimension
 13
703.0224529613888
 23
128.8627914045511
 33
0.0
 14
731.4597905159939
 24
112.4444869123636
 34
0.0
1001
ACAD
1000
DSTYLE
1002
{
1070
    40
1040
30.0
1002
}
  0
DIMENSION
  5
1066
330
47E
100
AcDbEntity
  8
0
 62
     7
100
AcDbDimension
  2
*D4
 10
687.3234766029757
 20
195.5464569896211
 30
0.0
 11
711.3703516029756
 21
195.5464569896211
 31
0.0
 70
    32
  1
24"
 71
     5
 42
48.09374999999988
  3
STANDARD$0
100
AcDbAlignedDimension
 13
735.4172266029756
 23
203.0279892053767
 33
0.0
 14
687.3234766029757
 24
203.0279892053767
 34
0.0
100
AcDbRotatedDimension
1001
ACAD
1000
DSTYLE
1002
{
1070
    40
1040
30.0
1002
}
  0
LINE
  5
1067
330
47E
100
AcDbEntity
  8
0
 62
     7
100
AcDbLine
 10
687.3234766029757
 20
210.0416610803767
 30
0.0
 11
735.4172266029756
 21
210.0416610803767
 31
0.0
  0
LINE
  5
1068
330
47E
100
AcDbEntity
  8
0
 62
     7
100
AcDbLine
 10
735.4172266029756
 20
204.0299423303767
 30
0.0
 11
687.3234766029757
 21
204.0299423303767
 31
0.0
  0
LINE
  5
1069
330
47E
100
AcDbEntity
  8
0
 62
     7
100
AcDbLine
 10
735.4172266029756
 20
207.0358017053767
 30
0.0
 11
687.3234766029757
 21
207.0358017053767
 31
0.0
  0
LINE
  5
106A
330
47E
100
AcDbEntity
  8
0
 62
     7
100
AcDbLine
 10
735.4172266029756
 20
208.0377548303767
 30
0.0
 11
687.3234766029757
 21
208.0377548303767
 31
0.0
  0
LINE
  5
106B
330
47E
100
AcDbEntity
  8
0
 62
     7
100
AcDbLine
 10
735.4172266029756
 20
209.0397079553767
 30
0.0
 11
687.3234766029757
 21
209.0397079553767
 31
0.0
  0
LINE
  5
106C
330
47E
100
AcDbEntity
  8
0
 62
     7
100
AcDbLine
 10
735.4172266029756
 20
206.0338485803767
 30
0.0
 11
687.3234766029757
 21
206.0338485803767
 31
0.0
  0
LINE
  5
106D
330
47E
100
AcDbEntity
  8
0
 62
     7
100
AcDbLine
 10
735.4172266029756
 20
205.0318954553767
 30
0.0
 11
687.3234766029757
 21
205.0318954553767
 31
0.0
  0
LINE
  5
106E
330
47E
100
AcDbEntity
  8
0
 62
     7
100
AcDbLine
 10
689.6401764651042
 20
121.1365304670511
 30
0.0
 11
703.0224529613888
 21
128.862791404551
 31
0.0
  0
LINE
  5
106F
330
47E
100
AcDbEntity
  8
0
 62
     7
100
AcDbLine
 10
690.4765687461219
 20
120.6536391584573
 30
0.0
 11
703.0224529613888
 21
127.8970087873635
 31
0.0
  0
LINE
  5
1070
330
47E
100
AcDbEntity
  8
0
 62
     7
100
AcDbLine
 10
703.0224529613888
 20
127.8970087873635
 30
0.0
 11
703.0224529613888
 21
116.3076173811135
 31
0.0
  0
DIMENSION
  5
1071
330
47E
100
AcDbEntity
  8
0
 62
     7
100
AcDbDimension
  2
*D5
 10
686.1020058362832
 20
123.1792942320398
 30
0.0
 11
690.412078064418
 21
127.5740014400454
 31
0.0
 70
   161
  1
4-1/2"
 71
     5
 42
15.45252187499989
  3
STANDARD$0
100
AcDbAlignedDimension
 13
703.0224529613888
 23
128.862791404551
 33
0.0
 14
689.6401764651041
 24
121.1365304670511
 34
0.0
1001
ACAD
1000
DSTYLE
1002
{
1070
    40
1040
30.0
1002
}
  0
LWPOLYLINE
  5
1072
330
47E
100
AcDbEntity
  8
0
 62
     7
100
AcDbPolyline
 90
       16
 70
     1
 43
0.0
 10
695.7766779590464
 20
118.6872383036347
 42
0.0587518675353646
 10
695.5640834713981
 20
118.1930121633147
 42
0.0723410840576763
 10
695.5010826282459
 20
117.7598478977237
 42
0.106617054391126
 10
695.5874019996554
 20
117.3596391194067
 42
0.1568512196706424
 10
695.7766779590464
 20
117.1506875686626
 42
0.1568512196706761
 10
696.0522732898464
 20
117.0912455548765
 42
0.1066170543910004
 10
696.442023944391
 20
117.2165951755557
 42
0.0723410840577375
 10
696.7856547808285
 20
117.4877376389809
 42
0.0587518675353654
 10
697.1073699297356
 20
117.9189629361486
 42
0.0587518675353444
 10
697.3199644173839
 20
118.4131890764685
 42
0.0723410840576672
 10
697.3829652605361
 20
118.8463533420596
 42
0.1066170543911832
 10
697.2966458891266
 20
119.2465621203764
 42
0.1568512196709102
 10
697.1073699297356
 20
119.4555136711207
 42
0.1568512196706761
 10
696.8317745989354
 20
119.5149556849068
 42
0.1066170543910004
 10
696.442023944391
 20
119.3896060642276
 42
0.0723410840577166
 10
696.0983931079537
 20
119.1184636008025
 42
0.0587518675353862
  0
LWPOLYLINE
  5
1073
330
47E
100
AcDbEntity
  8
0
 62
     7
100
AcDbPolyline
 90
        7
 70
     0
 43
0.0
 10
695.507323991017
 20
117.6499354280032
 42
0.0283695723264663
 10
695.6056316633732
 20
117.6994864841494
 42
0.0723410840577375
 10
695.9492624998106
 20
117.9706289475746
 42
0.0587518675353654
 10
696.2709776487179
 20
118.4018542447424
 42
0.0587518675353444
 10
696.4835721363662
 20
118.8960803850623
 42
0.0723410840576672
 10
696.5465729795184
 20
119.3292446506534
 42
0.0283695723264929
 10
696.5403316167472
 20
119.4391571203738
 42
0.1568512196709102
  0
LINE
  5
1074
330
47E
100
AcDbEntity
  8
0
 62
     7
100
AcDbLine
 10
690.4765687461219
 20
109.0642477522074
 30
0.0
 11
703.0224529613888
 21
116.3076173811135
 31
0.0
  0
TEXT
  5
1075
330
47E
100
AcDbEntity
  8
0
 62
     7
100
AcDbText
 10
691.8490580164857
 20
98.30286833117577
 30
0.0
 40
1.95231576375
  1
%%C9/16"
  7
ROMANS
 72
     2
 11
702.3543761738071
 21
99.27902621305078
 31
0.0
100
AcDbText
 73
     2
  0
DIMENSION
  5
1076
330
47E
100
AcDbEntity
  8
0
 62
     7
100
AcDbDimension
  2
*D6
 10
689.6401764651043
 20
106.0914480223118
 30
0.0
 11
681.6127308529023
 21
108.3771239921876
 31
0.0
 70
   161
  1
1/4"
 71
     5
 42
0.9657826171875285
  3
STANDARD$0
100
AcDbAlignedDimension
 13
690.4765687461219
 23
109.0642477522074
 33
0.0
 14
689.6401764651041
 24
109.5471390608011
 34
0.0
1001
ACAD
1000
DSTYLE
1002
{
1070
    40
1040
30.0
1002
}
  0
LINE
  5
1077
330
47E
100
AcDbEntity
  8
0
 62
     7
100
AcDbLine
 10
689.6401764651042
 20
109.5471390608011
 30
0.0
 11
689.6401764651042
 21
121.1365304670511
 31
0.0
  0
LINE
  5
1078
330
47E
100
AcDbEntity
  8
0
 62
     7
100
AcDbLine
 10
690.4765687461219
 20
109.0642477522074
 30
0.0
 11
690.4765687461219
 21
120.6536391584573
 31
0.0
  0
LINE
  5
1079
330
47E
100
AcDbEntity
  8
0
 62
     7
100
AcDbLine
 10
690.4765687461219
 20
109.0642477522074
 30
0.0
 11
689.6401764651042
 21
109.5471390608011
 31
0.0
  0
LINE
  5
107A
330
47E
100
AcDbEntity
  8
0
 62
     7
100
AcDbLine
 10
690.4765687461219
 20
120.6536391584573
 30
0.0
 11
689.6401764651042
 21
121.1365304670511
 31
0.0
  0
MTEXT
  5
107C
330
47E
100
AcDbEntity
  8
0
 62
     7
100
AcDbMText
 10
604.1914518264324
 20
121.6480541996631
 30
0.0
 40
1.4472
 41
0.0
 71
     9
 72
     1
  1
 
  7
ROMANS
 73
     1
 44
1.0
1001
ACAD
1000
MTEXTBEGIN
1070
    73
1070
     1
1070
    44
1040
1.0
1070
    74
1070
     0
1000
MTEXTEND
  0
LWPOLYLINE
  5
107D
330
47E
100
AcDbEntity
  8
0
 62
     7
100
AcDbPolyline
 90
        4
 70
     0
 43
0.0
 10
684.6516016029758
 20
203.0279892053767
 10
687.3234766029757
 20
203.0279892053767
 10
687.3234766029757
 20
211.0436142053767
 10
684.6516016029758
 20
211.0436142053767
  0
LINE
  5
107F
330
47E
100
AcDbEntity
  8
0
 62
     7
100
AcDbLine
 10
730.6233982349762
 20
100.3722041975198
 30
0.0
 11
730.6233982349762
 21
111.9615956037698
 31
0.0
  0
LINE
  5
1080
330
47E
100
AcDbEntity
  8
0
 62
     7
100
AcDbLine
 10
731.4597905159939
 20
100.8550955061136
 30
0.0
 11
731.4597905159939
 21
112.4444869123636
 31
0.0
  0
DIMENSION
  5
1081
330
47E
100
AcDbEntity
  8
0
 62
     7
100
AcDbDimension
  2
*D7
 10
737.1847414530482
 20
104.1603974707192
 30
0.0
 11
737.8505157248353
 21
109.1866713960513
 31
0.0
 70
   161
  1
3"
 71
     5
 42
11.58939140625003
  3
STANDARD$0
100
AcDbAlignedDimension
 13
731.4597905159939
 23
112.4444869123636
 33
0.0
 14
731.4597905159939
 24
100.8550955061136
 34
0.0
1001
ACAD
1000
DSTYLE
1002
{
1070
    40
1040
30.0
1002
}
  0
LINE
  5
1082
330
47E
100
AcDbEntity
  8
0
 62
     7
100
AcDbLine
 10
730.6233982349762
 20
100.3722041975198
 30
0.0
 11
731.4597905159939
 21
100.8550955061136
 31
0.0
  0
LINE
  5
1083
330
47E
100
AcDbEntity
  8
0
 62
     7
100
AcDbLine
 10
730.6233982349762
 20
111.9615956037698
 30
0.0
 11
731.4597905159939
 21
112.4444869123636
 31
0.0
  0
LWPOLYLINE
  5
1084
330
47E
100
AcDbEntity
  8
0
 62
     7
100
AcDbPolyline
 90
        4
 70
     0
 43
0.0
 10
738.0891016029758
 20
203.0279892053767
 10
735.4172266029756
 20
203.0279892053767
 10
735.4172266029756
 20
211.0436142053767
 10
738.0891016029758
 20
211.0436142053767
  0
DIMENSION
  5
1085
330
47E
100
AcDbEntity
  8
0
 62
     7
100
AcDbDimension
  2
*D8
 10
689.6613672279758
 20
233.2546551581362
 30
0.0
 11
711.3703516029756
 21
233.2546551581362
 31
0.0
 70
    32
  1
22-1/8"
 71
     5
 42
43.41796874999988
  3
STANDARD$0
100
AcDbAlignedDimension
 13
733.0793359779756
 23
225.0709579553767
 33
0.0
 14
689.6613672279758
 24
225.0709579553767
 34
0.0
100
AcDbRotatedDimension
1001
ACAD
1000
DSTYLE
1002
{
1070
    40
1040
30.0
1002
}
  0
LEADER
  5
11C7
330
47E
100
AcDbEntity
  8
0
100
AcDbLeader
  3
STANDARD
 73
     0
 40
2.296875
 41
2.296875
 76
     3
 10
696.7856547808278
 20
117.4877376389802
 30
0.0
 10
706.2727918461592
 20
99.39685131717661
 30
0.0
 10
703.2804551434939
 20
99.39685131717661
 30
0.0
340
11C8
213
-9.106630032495957
223
-1.784963382587886
233
0.0
1001
ACAD
1000
DSTYLE
1002
{
1070
    40
1040
30.0
1002
}
  0
MTEXT
  5
11C8
102
{ACAD_REACTORS
330
11C7
102
}
330
47E
100
AcDbEntity
  8
0
100
AcDbMText
 10
274.8472511538362
 20
78.5663680024126
 30
0.0
 40
2.296875
 41
0.0
 71
     9
 72
     1
  1
\A1; 
  7
ROMANS
 73
     1
 44
1.0
1001
ACAD
1000
MTEXTBEGIN
1070
    73
1070
     1
1070
    44
1040
1.0
1070
    74
1070
     0
1000
MTEXTEND
  0
LINE
  5
11C9
330
47E
100
AcDbEntity
  8
0
 62
     7
100
AcDbLine
 10
586.7184197074777
 20
136.2233283311919
 30
0.0
 11
589.9059197074778
 21
136.2233283311919
 31
0.0
  0
LINE
  5
11CA
330
47E
100
AcDbEntity
  8
0
 62
     7
100
AcDbLine
 10
586.7184197074777
 20
133.2233283311919
 30
0.0
 11
589.9059197074778
 21
133.2233283311919
 31
0.0
  0
CIRCLE
  5
11CB
330
47E
100
AcDbEntity
  8
0
 62
     7
100
AcDbCircle
 10
587.6559197074778
 20
134.7233283311919
 30
0.0
 40
0.28125
  0
LINE
  5
11CC
330
47E
100
AcDbEntity
  8
0
 62
     7
100
AcDbLine
 10
585.4059197074778
 20
136.2233283311919
 30
0.0
 11
585.6559197074777
 21
136.2233283311919
 31
0.0
  0
LINE
  5
11CD
330
47E
100
AcDbEntity
  8
0
 62
     7
100
AcDbLine
 10
585.4059197074778
 20
133.2233283311919
 30
0.0
 11
585.6559197074777
 21
133.2233283311919
 31
0.0
  0
LINE
  5
11CE
330
47E
100
AcDbEntity
  8
0
 62
     7
100
AcDbLine
 10
585.4059197074778
 20
133.2233283311919
 30
0.0
 11
585.4059197074778
 21
136.2233283311919
 31
0.0
  0
LINE
  5
11CF
330
47E
100
AcDbEntity
  8
0
 62
     7
100
AcDbLine
 10
589.9059197074778
 20
133.2233283311919
 30
0.0
 11
589.9059197074778
 21
136.2233283311919
 31
0.0
  0
LINE
  5
11D0
330
47E
100
AcDbEntity
  8
0
 62
     7
100
AcDbLine
 10
610.7184197074777
 20
133.2233283311919
 30
0.0
 11
607.5309197074777
 21
133.2233283311919
 31
0.0
  0
LINE
  5
11D1
330
47E
100
AcDbEntity
  8
0
 62
     7
100
AcDbLine
 10
610.7184197074777
 20
136.2233283311919
 30
0.0
 11
607.5309197074777
 21
136.2233283311919
 31
0.0
  0
LINE
  5
11D2
330
47E
100
AcDbEntity
  8
0
 62
     7
100
AcDbLine
 10
607.5309197074777
 20
133.2233283311919
 30
0.0
 11
607.5309197074777
 21
136.2233283311919
 31
0.0
  0
CIRCLE
  5
11D3
330
47E
100
AcDbEntity
  8
0
 62
     7
100
AcDbCircle
 10
609.7809197074777
 20
134.7233283311919
 30
0.0
 40
0.28125
  0
LINE
  5
11D4
330
47E
100
AcDbEntity
  8
0
 62
     7
100
AcDbLine
 10
612.0309197074777
 20
133.2233283311919
 30
0.0
 11
612.0309197074777
 21
136.2233283311919
 31
0.0
  0
LINE
  5
11D5
330
47E
100
AcDbEntity
  8
0
 62
     7
100
AcDbLine
 10
612.0309197074777
 20
133.2233283311919
 30
0.0
 11
611.7809197074778
 21
133.2233283311919
 31
0.0
  0
LINE
  5
11D6
330
47E
100
AcDbEntity
  8
0
 62
     7
100
AcDbLine
 10
612.0309197074777
 20
136.2233283311919
 30
0.0
 11
611.7809197074778
 21
136.2233283311919
 31
0.0
  0
LINE
  5
11D7
330
47E
100
AcDbEntity
  8
0
 62
     7
100
AcDbLine
 10
586.7184197074777
 20
85.22332833119188
 30
0.0
 11
589.9059197074778
 21
85.22332833119191
 31
0.0
  0
LINE
  5
11D8
330
47E
100
AcDbEntity
  8
0
 62
     7
100
AcDbLine
 10
586.7184197074777
 20
88.22332833119189
 30
0.0
 11
589.9059197074778
 21
88.2233283311919
 31
0.0
  0
LINE
  5
11D9
330
47E
100
AcDbEntity
  8
0
 62
     7
100
AcDbLine
 10
585.4059197074778
 20
85.22332833119188
 30
0.0
 11
585.4059197074778
 21
88.22332833119189
 31
0.0
  0
LINE
  5
11DA
330
47E
100
AcDbEntity
  8
0
 62
     7
100
AcDbLine
 10
585.4059197074778
 20
85.22332833119188
 30
0.0
 11
585.6559197074777
 21
85.22332833119188
 31
0.0
  0
LINE
  5
11DB
330
47E
100
AcDbEntity
  8
0
 62
     7
100
AcDbLine
 10
585.4059197074778
 20
88.22332833119189
 30
0.0
 11
585.6559197074777
 21
88.22332833119189
 31
0.0
  0
CIRCLE
  5
11DC
330
47E
100
AcDbEntity
  8
0
 62
     7
100
AcDbCircle
 10
587.6559197074778
 20
86.7233283311919
 30
0.0
 40
0.28125
  0
LINE
  5
11DD
330
47E
100
AcDbEntity
  8
0
 62
     7
100
AcDbLine
 10
589.9059197074778
 20
85.22332833119191
 30
0.0
 11
589.9059197074778
 21
88.2233283311919
 31
0.0
  0
LINE
  5
11DE
330
47E
100
AcDbEntity
  8
0
 62
     7
100
AcDbLine
 10
610.7184197074777
 20
88.22332833119189
 30
0.0
 11
607.5309197074777
 21
88.2233283311919
 31
0.0
  0
LINE
  5
11DF
330
47E
100
AcDbEntity
  8
0
 62
     7
100
AcDbLine
 10
610.7184197074777
 20
85.22332833119188
 30
0.0
 11
607.5309197074777
 21
85.22332833119191
 31
0.0
  0
LINE
  5
11E0
330
47E
100
AcDbEntity
  8
0
 62
     7
100
AcDbLine
 10
607.5309197074777
 20
85.22332833119191
 30
0.0
 11
607.5309197074777
 21
88.2233283311919
 31
0.0
  0
CIRCLE
  5
11E1
330
47E
100
AcDbEntity
  8
0
 62
     7
100
AcDbCircle
 10
609.7809197074777
 20
86.7233283311919
 30
0.0
 40
0.28125
  0
LINE
  5
11E2
330
47E
100
AcDbEntity
  8
0
 62
     7
100
AcDbLine
 10
612.0309197074777
 20
88.22332833119189
 30
0.0
 11
611.7809197074778
 21
88.22332833119189
 31
0.0
  0
LINE
  5
11E3
330
47E
100
AcDbEntity
  8
0
 62
     7
100
AcDbLine
 10
612.0309197074777
 20
85.22332833119188
 30
0.0
 11
611.7809197074778
 21
85.22332833119188
 31
0.0
  0
LINE
  5
11E4
330
47E
100
AcDbEntity
  8
0
 62
     7
100
AcDbLine
 10
612.0309197074777
 20
85.22332833119188
 30
0.0
 11
612.0309197074777
 21
88.22332833119189
 31
0.0
  0
LINE
  5
11E5
330
47E
100
AcDbEntity
  8
0
 62
     7
100
AcDbLine
 10
589.9059197074778
 20
66.22332833119191
 30
0.0
 11
589.9059197074778
 21
69.22332833119191
 31
0.0
  0
LINE
  5
11E6
330
47E
100
AcDbEntity
  8
0
 62
     7
100
AcDbLine
 10
585.4059197074778
 20
66.22332833119187
 30
0.0
 11
585.4059197074778
 21
69.22332833119188
 31
0.0
  0
LINE
  5
11E7
330
47E
100
AcDbEntity
  8
0
 62
     7
100
AcDbLine
 10
586.7184197074777
 20
66.22332833119187
 30
0.0
 11
589.9059197074778
 21
66.22332833119191
 31
0.0
  0
CIRCLE
  5
11E8
330
47E
100
AcDbEntity
  8
0
 62
     7
100
AcDbCircle
 10
587.6559197074778
 20
67.7233283311919
 30
0.0
 40
0.28125
  0
LINE
  5
11E9
330
47E
100
AcDbEntity
  8
0
 62
     7
100
AcDbLine
 10
585.4059197074778
 20
66.22332833119187
 30
0.0
 11
585.6559197074777
 21
66.22332833119187
 31
0.0
  0
LINE
  5
11EA
330
47E
100
AcDbEntity
  8
0
 62
     7
100
AcDbLine
 10
586.7184197074777
 20
69.22332833119188
 30
0.0
 11
589.9059197074778
 21
69.22332833119191
 31
0.0
  0
LINE
  5
11EB
330
47E
100
AcDbEntity
  8
0
 62
     7
100
AcDbLine
 10
585.4059197074778
 20
69.22332833119188
 30
0.0
 11
585.6559197074777
 21
69.22332833119188
 31
0.0
  0
LINE
  5
11EC
330
47E
100
AcDbEntity
  8
0
 62
     7
100
AcDbLine
 10
607.5309197074777
 20
66.22332833119191
 30
0.0
 11
607.5309197074777
 21
69.22332833119191
 31
0.0
  0
LINE
  5
11ED
330
47E
100
AcDbEntity
  8
0
 62
     7
100
AcDbLine
 10
610.7184197074777
 20
66.22332833119187
 30
0.0
 11
607.5309197074777
 21
66.22332833119191
 31
0.0
  0
CIRCLE
  5
11EE
330
47E
100
AcDbEntity
  8
0
 62
     7
100
AcDbCircle
 10
609.7809197074777
 20
67.7233283311919
 30
0.0
 40
0.28125
  0
LINE
  5
11EF
330
47E
100
AcDbEntity
  8
0
 62
     7
100
AcDbLine
 10
610.7184197074777
 20
69.22332833119188
 30
0.0
 11
607.5309197074777
 21
69.22332833119191
 31
0.0
  0
LINE
  5
11F0
330
47E
100
AcDbEntity
  8
0
 62
     7
100
AcDbLine
 10
612.0309197074777
 20
66.22332833119187
 30
0.0
 11
612.0309197074777
 21
69.22332833119188
 31
0.0
  0
LINE
  5
11F1
330
47E
100
AcDbEntity
  8
0
 62
     7
100
AcDbLine
 10
612.0309197074777
 20
66.22332833119187
 30
0.0
 11
611.7809197074778
 21
66.22332833119187
 31
0.0
  0
LINE
  5
11F2
330
47E
100
AcDbEntity
  8
0
 62
     7
100
AcDbLine
 10
612.0309197074777
 20
69.22332833119188
 30
0.0
 11
611.7809197074778
 21
69.22332833119188
 31
0.0
  0
INSERT
  5
11F8
330
47E
100
AcDbEntity
  8
0
100
AcDbBlockReference
  2
Ldr-trd
 10
498.9743371234474
 20
190.2233283311918
 30
0.0
  0
INSERT
  5
11F9
330
47E
100
AcDbEntity
  8
0
100
AcDbBlockReference
  2
Ldr-trd
 10
498.9743371234474
 20
178.2233283311918
 30
0.0
  0
INSERT
  5
11FA
330
47E
100
AcDbEntity
  8
0
100
AcDbBlockReference
  2
Ldr-trd
 10
498.9743371234474
 20
166.2233283311918
 30
0.0
  0
INSERT
  5
11FB
330
47E
100
AcDbEntity
  8
0
100
AcDbBlockReference
  2
Ldr-trd
 10
498.9743371234474
 20
154.2233283311918
 30
0.0
  0
INSERT
  5
11FC
330
47E
100
AcDbEntity
  8
0
100
AcDbBlockReference
  2
Ldr-trd
 10
498.9743371234474
 20
142.2233283311918
 30
0.0
  0
INSERT
  5
11FD
330
47E
100
AcDbEntity
  8
0
100
AcDbBlockReference
  2
Ldr-trd
 10
498.9743371234474
 20
130.2233283311918
 30
0.0
  0
INSERT
  5
11FE
330
47E
100
AcDbEntity
  8
0
100
AcDbBlockReference
  2
Ldr-trd
 10
498.9743371234474
 20
118.2233283311918
 30
0.0
  0
INSERT
  5
11FF
330
47E
100
AcDbEntity
  8
0
100
AcDbBlockReference
  2
Ldr-trd
 10
498.9743371234474
 20
106.2233283311918
 30
0.0
  0
INSERT
  5
1200
330
47E
100
AcDbEntity
  8
0
100
AcDbBlockReference
  2
Ldr-trd
 10
498.9743371234474
 20
94.22332833119185
 30
0.0
  0
INSERT
  5
1201
330
47E
100
AcDbEntity
  8
0
100
AcDbBlockReference
  2
Ldr-trd
 10
498.9743371234474
 20
82.22332833119185
 30
0.0
  0
INSERT
  5
1202
330
47E
100
AcDbEntity
  8
0
100
AcDbBlockReference
  2
Ldr-trd
 10
498.9743371234474
 20
70.22332833119185
 30
0.0
  0
LINE
  5
170C
330
47E
100
AcDbEntity
  8
0
100
AcDbLine
 10
612.5934197074777
 20
190.2233283311918
 30
0.0
 11
632.6018427510661
 21
190.2233283311918
 31
0.0
  0
LINE
  5
170D
330
47E
100
AcDbEntity
  8
0
100
AcDbLine
 10
613.5934197074777
 20
59.22332833119186
 30
0.0
 11
632.6018427510661
 21
59.22332833119186
 31
0.0
  0
LINE
  5
170E
330
47E
100
AcDbEntity
  8
0
100
AcDbLine
 10
630.7268427510661
 20
188.3483283311918
 30
0.0
 11
630.7268427510661
 21
128.0340426169061
 31
0.0
  0
LINE
  5
170F
330
47E
100
AcDbEntity
  8
0
100
AcDbLine
 10
630.7268427510661
 20
61.09832833119186
 30
0.0
 11
630.726842751066
 21
111.4247051815896
 31
0.0
  0
SOLID
  5
1710
330
47E
100
AcDbEntity
  8
0
100
AcDbTrace
 10
630.4143427510661
 20
188.3483283311918
 30
0.0
 11
631.0393427510661
 21
188.3483283311918
 31
0.0
 12
630.7268427510661
 22
190.2233283311918
 32
0.0
 13
630.7268427510661
 23
190.2233283311918
 33
0.0
  0
SOLID
  5
1711
330
47E
100
AcDbEntity
  8
0
100
AcDbTrace
 10
630.4143427510661
 20
61.09832833119186
 30
0.0
 11
631.0393427510661
 21
61.09832833119186
 31
0.0
 12
630.7268427510661
 22
59.22332833119186
 32
0.0
 13
630.7268427510661
 23
59.22332833119186
 33
0.0
  0
TEXT
  5
1A98
330
47E
100
AcDbEntity
  8
0
 62
     7
100
AcDbText
 10
454.1579071530931
 20
27.81829945412146
 30
0.0
 40
1.69701630175237
  1
Ph: (423) 586-2265 Fax: (423) 586-2091
  7
CAT_BORDER$0$ROMANS
100
AcDbText
  0
TEXT
  5
1A99
330
47E
100
AcDbEntity
  8
0
 62
     7
100
AcDbText
 10
453.2073592783334
 20
30.56584965695855
 30
0.0
 40
1.69701630175237
  1
P.O. BOX 2279 Morristown, TN 37816-2279
  7
CAT_BORDER$0$ROMANS
100
AcDbText
  0
POLYLINE
  5
1A9A
330
47E
100
AcDbEntity
  8
0
 62
     7
100
AcDb2dPolyline
 66
     1
 10
0.0
 20
0.0
 30
0.0
1001
ACAD
1000
ASC_BOUNDS
1002
{
1070
    19
1002
}
  0
VERTEX
  5
1A9B
330
1A9A
100
AcDbEntity
  8
0
 62
     7
100
AcDbVertex
100
AcDb2dVertex
 10
446.8756127787278
 20
31.25851446792812
 30
0.0
  0
VERTEX
  5
1A9C
330
1A9A
100
AcDbEntity
  8
0
 62
     7
100
AcDbVertex
100
AcDb2dVertex
 10
447.147046445782
 20
31.39681879891862
 30
0.0
1001
ACAD
1000
ASC_BOUNDS
1002
{
1070
    19
1002
}
  0
VERTEX
  5
1A9D
330
1A9A
100
AcDbEntity
  8
0
 62
     7
100
AcDbVertex
100
AcDb2dVertex
 10
448.9730735446308
 20
27.74278122075852
 30
0.0
1001
ACAD
1000
ASC_BOUNDS
1002
{
1070
    19
1002
}
  0
VERTEX
  5
1A9E
330
1A9A
100
AcDbEntity
  8
0
 62
     7
100
AcDbVertex
100
AcDb2dVertex
 10
448.3863328164855
 20
27.7464833828295
 30
0.0
  0
VERTEX
  5
1A9F
330
1A9A
100
AcDbEntity
  8
0
 62
     7
100
AcDbVertex
100
AcDb2dVertex
 10
446.6808599585823
 20
31.15928153639428
 30
0.0
  0
SEQEND
  5
1AA0
330
1A9A
100
AcDbEntity
  8
0
 62
     7
  0
TEXT
  5
1AA1
330
47E
100
AcDbEntity
  8
0
 62
     7
100
AcDbText
 10
447.1718240581058
 20
33.45221352024094
 30
0.0
 40
2.773921717406126
  1
Precision Ladders, LLC
  7
CAT_BORDER$0$STYLE1
100
AcDbText
  0
CIRCLE
  5
1AA2
330
47E
100
AcDbEntity
  8
0
100
AcDbCircle
 10
445.0269917477642
 20
33.04551940159765
 30
0.0
 40
7.607257878778459
1001
ACAD
1000
ASC_BOUNDS
1002
{
1070
    19
1002
}
  0
INSERT
  5
1AA3
330
47E
100
AcDbEntity
  8
0
100
AcDbBlockReference
  2
*X17
 10
467.8202321355598
 20
203.7426709151842
 30
0.0
 41
0.6155246435905469
 42
0.6155246435905506
 43
0.6155246435905509
1001
ACAD
1000
HATCH
1002
{
1070
    19
1000
ANSI31
1040
0.8843871093750001
1040
0.0
1002
}
  0
LWPOLYLINE
  5
1AA4
330
47E
100
AcDbEntity
  8
0
 62
     7
100
AcDbPolyline
 90
        4
 70
     1
 43
0.0
 10
439.977759898947
 20
36.93082427229937
 10
439.977759898947
 20
37.48157675873339
 10
445.8432738794685
 20
37.48157675873339
 10
445.8432738794685
 20
36.93082427229937
1001
ACAD
1000
ASC_BOUNDS
1002
{
1070
    19
1005
0
1005
0
1002
}
  0
LINE
  5
1AA5
330
47E
100
AcDbEntity
  8
0
 62
     7
100
AcDbLine
 10
440.1824242050548
 20
36.87138129671591
 30
0.0
 11
442.6202790714071
 21
32.08682172511624
 31
0.0
1001
ACAD
1000
ASC_BOUNDS
1002
{
1070
    19
1002
}
  0
LWPOLYLINE
  5
1AA6
330
47E
100
AcDbEntity
  8
0
 62
     7
100
AcDbPolyline
 90
        4
 70
     0
 43
0.0
 10
440.0584599765785
 20
36.92840922376716
 10
442.6398357345498
 20
31.86217404251634
 10
442.6280583571428
 20
31.85617316899919
 10
440.0466825991715
 20
36.92240835024996
1001
ACAD
1000
ASC_BOUNDS
1002
{
1070
    19
1002
}
  0
LINE
  5
1AA7
330
47E
100
AcDbEntity
  8
0
 62
     7
100
AcDbLine
 10
440.108815596261
 20
36.83387583723354
 30
0.0
 11
440.1824242050548
 21
36.87138129671591
 31
0.0
1001
ACAD
1000
ASC_BOUNDS
1002
{
1070
    19
1002
}
  0
LINE
  5
1AA8
330
47E
100
AcDbEntity
  8
0
 62
     7
100
AcDbLine
 10
440.1824242050548
 20
36.87138129671591
 30
0.0
 11
440.2990876134134
 21
36.93082427229937
 31
0.0
1001
ACAD
1000
ASC_BOUNDS
1002
{
1070
    19
1002
}
  0
LINE
  5
1AA9
330
47E
100
AcDbEntity
  8
0
 62
     7
100
AcDbLine
 10
440.1824242050548
 20
36.87138129671591
 30
0.0
 11
440.3324460429842
 21
36.57694686154057
 31
0.0
1001
ACAD
1000
ASC_BOUNDS
1002
{
1070
    19
1002
}
  0
LINE
  5
1AAA
330
47E
100
AcDbEntity
  8
0
 62
     7
100
AcDbLine
 10
442.4752599164519
 20
34.94372638455952
 30
0.0
 11
441.9076401291682
 21
33.7905715403917
 31
0.0
1001
ACAD
1000
ASC_BOUNDS
1002
{
1070
    19
1005
0
1002
}
  0
LWPOLYLINE
  5
1AAB
330
47E
100
AcDbEntity
  8
0
 62
     7
100
AcDbPolyline
 90
        2
 70
     0
 43
0.0
 10
442.3421022420487
 20
34.95110813144793
 10
441.7976622180685
 20
33.84504441577648
1001
ACAD
1000
ASC_BOUNDS
1002
{
1070
    19
1005
0
1002
}
  0
LINE
  5
1AAC
330
47E
100
AcDbEntity
  8
0
 62
     7
100
AcDbLine
 10
441.2647596349422
 20
36.93082427229937
 30
0.0
 11
442.308381171039
 21
34.88260168178462
 31
0.0
1001
ACAD
1000
ASC_BOUNDS
1002
{
1070
    19
1002
}
  0
LINE
  5
1AAD
330
47E
100
AcDbEntity
  8
0
 62
     7
100
AcDbLine
 10
441.1720410400472
 20
36.93082427229937
 30
0.0
 11
442.2628221763231
 21
34.79004575503746
 31
0.0
1001
ACAD
1000
ASC_BOUNDS
1002
{
1070
    19
1002
}
  0
LINE
  5
1AAE
330
47E
100
AcDbEntity
  8
0
 62
     7
100
AcDbLine
 10
441.0767210973117
 20
36.26870458077795
 30
0.0
 11
442.0502135343156
 21
34.35811809688444
 31
0.0
1001
ACAD
1000
ASC_BOUNDS
1002
{
1070
    19
1002
}
  0
LINE
  5
1AAF
330
47E
100
AcDbEntity
  8
0
 62
     7
100
AcDbLine
 10
442.9657259529025
 20
31.8143598985432
 30
0.0
 11
446.6808599585823
 21
31.15928153639428
 31
0.0
1001
ACAD
1000
ASC_BOUNDS
1002
{
1070
    19
1002
}
  0
POLYLINE
  5
1AB0
330
47E
100
AcDbEntity
  8
0
 62
     7
100
AcDb2dPolyline
 66
     1
 10
0.0
 20
0.0
 30
0.0
1001
ACAD
1000
ASC_BOUNDS
1002
{
1070
    19
1002
}
  0
VERTEX
  5
1AB1
330
1AB0
100
AcDbEntity
  8
0
 62
     7
100
AcDbVertex
100
AcDb2dVertex
 10
443.0548981730389
 20
32.1903886967277
 30
0.0
  0
VERTEX
  5
1AB2
330
1AB0
100
AcDbEntity
  8
0
 62
     7
100
AcDbVertex
100
AcDb2dVertex
 10
443.0864669271014
 20
32.32435630183785
 30
0.0
1001
ACAD
1000
ASC_BOUNDS
1002
{
1070
    19
1002
}
  0
VERTEX
  5
1AB3
330
1AB0
100
AcDbEntity
  8
0
 62
     7
100
AcDbVertex
100
AcDb2dVertex
 10
446.785480325824
 20
31.67212043764087
 30
0.0
1001
ACAD
1000
ASC_BOUNDS
1002
{
1070
    19
1002
}
  0
VERTEX
  5
1AB4
330
1AB0
100
AcDbEntity
  8
0
 62
     7
100
AcDbVertex
100
AcDb2dVertex
 10
446.7206437393571
 20
31.35429777422506
 30
0.0
  0
SEQEND
  5
1AB5
330
1AB0
100
AcDbEntity
  8
0
 62
     7
  0
LINE
  5
1AB6
330
47E
100
AcDbEntity
  8
0
 62
     7
100
AcDbLine
 10
442.3323984962908
 20
34.65349453853463
 30
0.0
 11
443.3991699725886
 21
32.55983763217923
 31
0.0
1001
ACAD
1000
ASC_BOUNDS
1002
{
1070
    19
1005
0
1002
}
  0
LWPOLYLINE
  5
1AB7
330
47E
100
AcDbEntity
  8
0
 62
     7
100
AcDbPolyline
 90
        2
 70
     0
 43
0.0
 10
442.3779574910066
 20
34.74605046528173
 10
443.4703217683871
 20
32.60216485865615
1001
ACAD
1000
ASC_BOUNDS
1002
{
1070
    19
1002
}
  0
LWPOLYLINE
  5
1AB8
330
47E
100
AcDbEntity
  8
0
 62
     7
100
AcDbPolyline
 90
        3
 70
     0
 43
0.0
 10
441.7986509918324
 20
33.70775089020995
 10
441.9966562141489
 20
33.80432448983996
 10
441.9548230808941
 20
33.88642663664402
1001
ACAD
1000
ASC_BOUNDS
1002
{
1070
    19
1002
}
  0
CIRCLE
  5
1AB9
330
47E
100
AcDbEntity
  8
0
 62
     7
100
AcDbCircle
 10
441.8771630836369
 20
33.86601478661546
 30
0.0
 40
0.0206532182412728
1001
ACAD
1000
ASC_BOUNDS
1002
{
1070
    19
1002
}
  0
LINE
  5
1ABA
330
47E
100
AcDbEntity
  8
0
 62
     7
100
AcDbLine
 10
441.8671609547004
 20
33.98623541476216
 30
0.0
 11
441.6986364332128
 21
33.90404051366021
 31
0.0
1001
ACAD
1000
ASC_BOUNDS
1002
{
1070
    19
1002
}
  0
LINE
  5
1ABB
330
47E
100
AcDbEntity
  8
0
 62
     7
100
AcDbLine
 10
441.6717538140976
 20
33.94509402875783
 30
0.0
 11
441.821775652027
 21
33.6506595935825
 31
0.0
1001
ACAD
1000
ASC_BOUNDS
1002
{
1070
    19
1002
}
  0
LINE
  5
1ABC
330
47E
100
AcDbEntity
  8
0
 62
     7
100
AcDbLine
 10
441.9075535421023
 20
33.79044962319632
 30
0.0
 11
441.7974497621848
 21
33.84466763432204
 31
0.0
1001
ACAD
1000
ASC_BOUNDS
1002
{
1070
    19
1002
}
  0
LWPOLYLINE
  5
1ABD
330
47E
100
AcDbEntity
  8
0
 62
     1
100
AcDbPolyline
 90
        2
 70
     1
 43
0.0
 10
441.8978163018781
 20
33.86601478661546
 42
-1.0
 10
441.8565098653956
 20
33.86601478661546
 42
-1.0
1001
ACAD
1000
ASC_BOUNDS
1002
{
1070
    19
1002
}
  0
LINE
  5
1ABE
330
47E
100
AcDbEntity
  8
0
 62
     7
100
AcDbLine
 10
443.4709124976953
 20
32.60251980463396
 30
0.0
 11
443.4000994443726
 21
32.55997102957927
 31
0.0
1001
ACAD
1000
ASC_BOUNDS
1002
{
1070
    19
1002
}
  0
LINE
  5
1ABF
330
47E
100
AcDbEntity
  8
0
 62
     7
100
AcDbLine
 10
442.9014595615503
 20
32.23009034074553
 30
0.0
 11
442.544933065583
 21
32.04843101763119
 31
0.0
1001
ACAD
1000
ASC_BOUNDS
1002
{
1070
    19
1002
}
  0
POLYLINE
  5
1AC0
330
47E
100
AcDbEntity
  8
0
 62
     7
100
AcDb2dPolyline
 66
     1
 10
0.0
 20
0.0
 30
0.0
1001
ACAD
1000
ASC_BOUNDS
1002
{
1070
    19
1002
}
  0
VERTEX
  5
1AC1
330
1AC0
100
AcDbEntity
  8
0
 62
     7
100
AcDbVertex
100
AcDb2dVertex
 10
442.9662665244372
 20
31.81426458119648
 30
0.0
  0
VERTEX
  5
1AC2
330
1AC0
100
AcDbEntity
  8
0
 62
     7
100
AcDbVertex
100
AcDb2dVertex
 10
443.0400324760328
 20
32.12730347574387
 30
0.0
1001
ACAD
1000
ASC_BOUNDS
1002
{
1070
    19
1002
}
  0
SEQEND
  5
1AC3
330
1AC0
100
AcDbEntity
  8
0
 62
     7
  0
LINE
  5
1AC4
330
47E
100
AcDbEntity
  8
0
 62
     7
100
AcDbLine
 10
442.1197898542833
 20
34.22156688038148
 30
0.0
 11
442.7932622834291
 21
32.89980281577163
 31
0.0
1001
ACAD
1000
ASC_BOUNDS
1002
{
1070
    19
1002
}
  0
LINE
  5
1AC5
330
47E
100
AcDbEntity
  8
0
 62
     7
100
AcDbLine
 10
442.8327430385972
 20
32.82231747091364
 30
0.0
 11
443.0864669271014
 21
32.32435630183785
 31
0.0
1001
ACAD
1000
ASC_BOUNDS
1002
{
1070
    19
1002
}
  0
LWPOLYLINE
  5
1AC6
330
47E
100
AcDbEntity
  8
0
 62
     7
100
AcDbPolyline
 90
        4
 70
     0
 43
0.0
 10
443.1793049607104
 20
32.99134701428429
 10
442.6086696825442
 20
32.71302959293722
 10
442.5711642230619
 20
32.78663820173111
 10
443.1367691244672
 20
33.07482829335587
1001
ACAD
1000
ASC_BOUNDS
1002
{
1070
    19
1005
0
1002
}
  0
LWPOLYLINE
  5
1AC7
330
47E
100
AcDbEntity
  8
0
 62
     7
100
AcDbPolyline
 90
        5
 70
     0
 43
0.0
 10
443.0864669271276
 20
32.32435630195246
 10
443.1013392621333
 20
32.29069692224983
 10
443.2845794147367
 20
31.92050073647453
 10
443.161180686145
 20
31.85942068560684
 10
443.0057516666249
 20
32.20310516413738
1001
ACAD
1000
ASC_BOUNDS
1002
{
1070
    19
1002
}
  0
POLYLINE
  5
1AC8
330
47E
100
AcDbEntity
  8
0
 62
     7
100
AcDb2dPolyline
 66
     1
 10
0.0
 20
0.0
 30
0.0
 70
     1
1001
ACAD
1000
ASC_BOUNDS
1002
{
1070
    19
1002
}
  0
VERTEX
  5
1AC9
330
1AC8
100
AcDbEntity
  8
0
 62
     7
100
AcDbVertex
100
AcDb2dVertex
 10
442.6221283126898
 20
32.30071408124851
 30
0.0
1001
ACAD
1000
ASC_BOUNDS
1002
{
1070
    19
1002
}
  0
VERTEX
  5
1ACA
330
1AC8
100
AcDbEntity
  8
0
 62
     7
100
AcDbVertex
100
AcDb2dVertex
 10
442.6476603976206
 20
32.42333460854672
 30
0.0
  0
VERTEX
  5
1ACB
330
1AC8
100
AcDbEntity
  8
0
 62
     7
100
AcDbVertex
100
AcDb2dVertex
 10
442.6832046100405
 20
32.41380837351137
 30
0.0
  0
VERTEX
  5
1ACC
330
1AC8
100
AcDbEntity
  8
0
 62
     7
100
AcDbVertex
100
AcDb2dVertex
 10
443.0864669271276
 20
32.32435630195246
 30
0.0
  0
VERTEX
  5
1ACD
330
1AC8
100
AcDbEntity
  8
0
 62
     7
100
AcDbVertex
100
AcDb2dVertex
 10
443.0566495699413
 20
32.18993552959015
 30
0.0
  0
VERTEX
  5
1ACE
330
1AC8
100
AcDbEntity
  8
0
 62
     7
100
AcDbVertex
100
AcDb2dVertex
 10
442.6567547416383
 20
32.2934067612694
 30
0.0
  0
SEQEND
  5
1ACF
330
1AC8
100
AcDbEntity
  8
0
 62
     7
  0
LWPOLYLINE
  5
1AD0
330
47E
100
AcDbEntity
  8
0
 62
     7
100
AcDbPolyline
 90
        5
 70
     0
 43
0.0
 10
446.6808599585823
 20
31.15928153639428
 10
446.664539003108
 20
31.19226284326496
 10
446.4653850583645
 20
31.5541466309397
 10
446.5860129875895
 20
31.62053127918741
 10
446.756230003241
 20
31.28392562196455
1001
ACAD
1000
ASC_BOUNDS
1002
{
1070
    19
1002
}
  0
LINE
  5
1AD1
330
47E
100
AcDbEntity
  8
0
 62
     7
100
AcDbLine
 10
446.7083660394739
 20
31.29411367925445
 30
0.0
 11
446.6808599585823
 21
31.15928153639428
 31
0.0
1001
ACAD
1000
ASC_BOUNDS
1002
{
1070
    19
1002
}
  0
POLYLINE
  5
1AD2
330
47E
100
AcDbEntity
  8
0
 62
     7
100
AcDb2dPolyline
 66
     1
 10
0.0
 20
0.0
 30
0.0
 70
     1
1001
ACAD
1000
ASC_BOUNDS
1002
{
1070
    19
1002
}
  0
VERTEX
  5
1AD3
330
1AD2
100
AcDbEntity
  8
0
 62
     7
100
AcDbVertex
100
AcDb2dVertex
 10
447.1437325782615
 20
31.20307926931663
 30
0.0
1001
ACAD
1000
ASC_BOUNDS
1002
{
1070
    19
1002
}
  0
VERTEX
  5
1AD4
330
1AD2
100
AcDbEntity
  8
0
 62
     7
100
AcDbVertex
100
AcDb2dVertex
 10
447.1235530891347
 20
31.07946507395716
 30
0.0
  0
VERTEX
  5
1AD5
330
1AD2
100
AcDbEntity
  8
0
 62
     7
100
AcDbVertex
100
AcDb2dVertex
 10
447.0876284895744
 20
31.08743773580427
 30
0.0
  0
VERTEX
  5
1AD6
330
1AD2
100
AcDbEntity
  8
0
 62
     7
100
AcDbVertex
100
AcDb2dVertex
 10
446.6808599585823
 20
31.15928153639428
 30
0.0
  0
VERTEX
  5
1AD7
330
1AD2
100
AcDbEntity
  8
0
 62
     7
100
AcDbVertex
100
AcDb2dVertex
 10
446.7048078921124
 20
31.29487104672495
 30
0.0
  0
VERTEX
  5
1AD8
330
1AD2
100
AcDbEntity
  8
0
 62
     7
100
AcDbVertex
100
AcDb2dVertex
 10
447.1088213182241
 20
31.2088749944311
 30
0.0
  0
SEQEND
  5
1AD9
330
1AD2
100
AcDbEntity
  8
0
 62
     7
  0
LINE
  5
1ADA
330
47E
100
AcDbEntity
  8
0
 62
     1
100
AcDbLine
 10
446.785480325824
 20
31.67212043764087
 30
0.0
 11
446.7206437393571
 21
31.35429777422506
 31
0.0
1001
ACAD
1000
ASC_BOUNDS
1002
{
1070
    19
1002
}
  0
LINE
  5
1ADB
330
47E
100
AcDbEntity
  8
0
 62
     1
100
AcDbLine
 10
446.7206437393571
 20
31.35429777422506
 30
0.0
 11
446.756230003241
 21
31.28392562196455
 31
0.0
1001
ACAD
1000
ASC_BOUNDS
1002
{
1070
    19
1002
}
  0
LINE
  5
1ADC
330
47E
100
AcDbEntity
  8
0
 62
     1
100
AcDbLine
 10
446.756230003241
 20
31.28392562196455
 30
0.0
 11
446.8756127787279
 21
31.25851446792812
 31
0.0
  0
LINE
  5
1ADD
330
47E
100
AcDbEntity
  8
0
 62
     1
100
AcDbLine
 10
446.8756127787279
 20
31.25851446792812
 30
0.0
 11
447.147046445782
 21
31.39681879891862
 31
0.0
1001
ACAD
1000
ASC_BOUNDS
1002
{
1070
    19
1002
}
  0
LINE
  5
1ADE
330
47E
100
AcDbEntity
  8
0
 62
     7
100
AcDbLine
 10
440.7393542638701
 20
36.93082427229937
 30
0.0
 11
441.0411770802722
 21
36.33846364202766
 31
0.0
1001
ACAD
1000
ASC_BOUNDS
1002
{
1070
    19
1002
}
  0
LWPOLYLINE
  5
1ADF
330
47E
100
AcDbEntity
  8
0
 62
     7
100
AcDbPolyline
 90
        4
 70
     0
 43
0.0
 10
441.3877390023855
 20
36.50749318539832
 10
440.819323193753
 20
36.23025827167217
 10
440.8555382936143
 20
36.15600631330352
 10
441.4202279383497
 20
36.44373005836214
1001
ACAD
1000
ASC_BOUNDS
1002
{
1070
    19
1002
}
  0
LINE
  5
1AE0
330
47E
100
AcDbEntity
  8
0
 62
     7
100
AcDbLine
 10
443.2342080903017
 20
36.93082427229937
 30
0.0
 11
442.5288460783596
 21
35.65594237933922
 31
0.0
1001
ACAD
1000
ASC_BOUNDS
1002
{
1070
    19
1002
}
  0
LINE
  5
1AE1
330
47E
100
AcDbEntity
  8
0
 62
     7
100
AcDbLine
 10
443.0768507020475
 20
36.93082427229937
 30
0.0
 11
442.5513157251914
 21
35.98096446305552
 31
0.0
1001
ACAD
1000
ASC_BOUNDS
1002
{
1070
    19
1002
}
  0
CIRCLE
  5
1AE2
330
47E
100
AcDbEntity
  8
0
 62
     7
100
AcDbCircle
 10
442.4142056485235
 20
34.97736145861152
 30
0.0
 40
0.0206532182412728
1001
ACAD
1000
ASC_BOUNDS
1002
{
1070
    19
1002
}
  0
LWPOLYLINE
  5
1AE3
330
47E
100
AcDbEntity
  8
0
 62
     1
100
AcDbPolyline
 90
        2
 70
     1
 43
0.0
 10
442.4348588667648
 20
34.97736145861152
 42
-1.0
 10
442.3935524302823
 20
34.97736145861152
 42
-1.0
1001
ACAD
1000
ASC_BOUNDS
1002
{
1070
    19
1002
}
  0
LINE
  5
1AE4
330
47E
100
AcDbEntity
  8
0
 62
     1
100
AcDbLine
 10
442.4794617070983
 20
34.9416004330456
 30
0.0
 11
442.4742134549536
 21
34.9416004330456
 31
0.0
  0
LINE
  5
1AE5
330
47E
100
AcDbEntity
  8
0
 62
     7
100
AcDbLine
 10
442.6169820768724
 20
36.93082427229937
 30
0.0
 11
442.4788052174506
 21
34.93210434995965
 31
0.0
1001
ACAD
1000
ASC_BOUNDS
1002
{
1070
    19
1005
0
1002
}
  0
LWPOLYLINE
  5
1AE6
330
47E
100
AcDbEntity
  8
0
 62
     7
100
AcDbPolyline
 90
        3
 70
     0
 43
0.0
 10
442.4789653191772
 20
36.93082427229937
 10
442.3414449494031
 20
34.9416004330456
 10
442.4791330710116
 20
34.9416004330456
1001
ACAD
1000
ASC_BOUNDS
1002
{
1070
    19
1005
0
1002
}
  0
TEXT
  5
1AE7
330
47E
100
AcDbEntity
  8
0
 62
     7
100
AcDbText
 10
461.8876806603312
 20
24.75166099044311
 30
0.0
 40
1.951568747015226
  1
www.PrecisionLadders.com
  7
CAT_BORDER$0$ROMANS
100
AcDbText
  0
LWPOLYLINE
  5
1AE8
330
47E
100
AcDbEntity
  8
0
 62
     7
100
AcDbPolyline
 90
        9
 70
     0
 43
0.0
 10
448.7809497491387
 20
27.66766605155714
 10
448.7812103754614
 20
27.70897166581003
 10
448.6572935327028
 20
27.70975354477842
 10
448.5746823041971
 20
27.71027479742393
 10
448.5744216778743
 20
27.66896918317114
 42
0.4142135623730939
 10
448.5881033405177
 20
27.65511376964582
 10
448.7670943356134
 20
27.65398438891377
 42
0.4142135623730989
 10
448.7809497491387
 20
27.66766605155714
 42
-0.4142135623730944
 10
448.7670943356134
 20
27.65398438891377
1001
ACAD
1000
ASC_BOUNDS
1002
{
1070
    19
1002
}
  0
LINE
  5
1AE9
330
47E
100
AcDbEntity
  8
0
 62
     7
100
AcDbLine
 10
448.7175666602899
 20
27.74439339433146
 30
0.0
 11
448.7170775607818
 21
27.70937632507878
 31
0.0
1001
ACAD
1000
ASC_BOUNDS
1002
{
1070
    19
1002
}
  0
LINE
  5
1AEA
330
47E
100
AcDbEntity
  8
0
 62
     7
100
AcDbLine
 10
448.6418397008263
 20
27.74487120925656
 30
0.0
 11
448.7175666602899
 21
27.74439339433146
 31
0.0
1001
ACAD
1000
ASC_BOUNDS
1002
{
1070
    19
1002
}
  0
LINE
  5
1AEB
330
47E
100
AcDbEntity
  8
0
 62
     7
100
AcDbLine
 10
448.6416465984802
 20
27.71426719760072
 30
0.0
 11
448.6418397008263
 21
27.74487120925656
 31
0.0
1001
ACAD
1000
ASC_BOUNDS
1002
{
1070
    19
1002
}
  0
TEXT
  5
1AEC
330
47E
100
AcDbEntity
  8
0
100
AcDbText
 10
515.3374696459649
 20
24.50069340819129
 30
0.0
 40
1.316754140625
  1
WORK ORDER: ( )
 50
90.0
 41
0.9
  7
CAT_BORDER$0$ROMANS
100
AcDbText
  0
TEXT
  5
1AED
330
47E
100
AcDbEntity
  8
0
100
AcDbText
 10
517.3171665449221
 20
27.75583908989203
 30
0.0
 40
1.316754140625
  1
CHECKED BY:
  7
CAT_BORDER$0$ROMANS
100
AcDbText
  0
TEXT
  5
1AEE
330
47E
100
AcDbEntity
  8
0
100
AcDbText
 10
517.3171665449221
 20
40.03066347055095
 30
0.0
 40
1.316754140625
  1
DWG. CHECK
  7
CAT_BORDER$0$ROMANS
100
AcDbText
  0
TEXT
  5
1AEF
330
47E
100
AcDbEntity
  8
0
100
AcDbText
 10
517.3171665449221
 20
33.89325128022149
 30
0.0
 40
1.316754140625
  1
BUILT BY:
  7
CAT_BORDER$0$ROMANS
100
AcDbText
  0
TEXT
  5
1AF0
330
47E
100
AcDbEntity
  8
0
100
AcDbText
 10
554.8432814707693
 20
27.75583908989203
 30
0.0
 40
1.316754140625
  1
DRAWN BY:
  7
CAT_BORDER$0$ROMANS
100
AcDbText
  0
TEXT
  5
1AF1
330
47E
100
AcDbEntity
  8
0
100
AcDbText
 10
554.8432814707693
 20
33.89325128022149
 30
0.0
 40
1.316754140625
  1
PURCHASE ORDER
  7
CAT_BORDER$0$ROMANS
100
AcDbText
  0
TEXT
  5
1AF2
330
47E
100
AcDbEntity
  8
0
100
AcDbText
 10
554.8432814707693
 20
40.03066347055095
 30
0.0
 40
1.316754140625
  1
ARCH'T OR ENG'R.
  7
CAT_BORDER$0$ROMANS
100
AcDbText
  0
TEXT
  5
1AF3
330
47E
100
AcDbEntity
  8
0
100
AcDbText
 10
699.1323062149797
 20
33.39366766475805
 30
0.0
 40
1.316754140625
  1
SERIAL#
  7
CAT_BORDER$0$ROMANS
100
AcDbText
  0
TEXT
  5
1AF4
330
47E
100
AcDbEntity
  8
0
100
AcDbText
 10
698.9656252207694
 20
40.03066347055095
 30
0.0
 40
1.316754140625
  1
PRECISION REP
  7
CAT_BORDER$0$ROMANS
100
AcDbText
  0
TEXT
  5
1AF5
330
47E
100
AcDbEntity
  8
0
100
AcDbText
 10
607.2514064707693
 20
27.75583908989203
 30
0.0
 40
1.316754140625
  1
DATE
  7
CAT_BORDER$0$ROMANS
100
AcDbText
  0
TEXT
  5
1AF6
330
47E
100
AcDbEntity
  8
0
100
AcDbText
 10
626.9044533457693
 20
27.75583908989203
 30
0.0
 40
1.316754140625
  1
MODEL#
  7
CAT_BORDER$0$ROMANS
100
AcDbText
  0
TEXT
  5
1AF7
330
47E
100
AcDbEntity
  8
0
100
AcDbText
 10
607.2514064707693
 20
40.03066347055095
 30
0.0
 40
1.316754140625
  1
PROJECT
  7
CAT_BORDER$0$ROMANS
100
AcDbText
  0
TEXT
  5
1AF8
330
47E
100
AcDbEntity
  8
0
100
AcDbText
 10
607.2514064707693
 20
33.89325128022149
 30
0.0
 40
1.316754140625
  1
REVISION
  7
CAT_BORDER$0$ROMANS
100
AcDbText
  0
TEXT
  5
1AF9
330
47E
100
AcDbEntity
  8
0
100
AcDbText
 10
626.9044533457693
 20
33.89325128022149
 30
0.0
 40
1.316754140625
  1
PURCHASER
  7
CAT_BORDER$0$ROMANS
100
AcDbText
  0
TEXT
  5
1AFA
330
47E
100
AcDbEntity
  8
0
100
AcDbText
 10
685.8635939707693
 20
27.75583908989203
 30
0.0
 40
1.316754140625
  1
QTY.
  7
CAT_BORDER$0$ROMANS
100
AcDbText
  0
LINE
  5
1AFB
330
47E
100
AcDbEntity
  8
0
100
AcDbLine
 10
516.8258403730469
 20
29.72114377739206
 30
0.0
 11
698.4742990488943
 21
29.72114377739206
 31
0.0
  0
LINE
  5
1AFC
330
47E
100
AcDbEntity
  8
0
100
AcDbLine
 10
763.9844552988943
 20
23.5837315870626
 30
0.0
 11
763.9844552988943
 21
261.1544424813197
 31
0.0
  0
LINE
  5
1AFD
330
47E
100
AcDbEntity
  8
0
100
AcDbLine
 10
763.9844552988943
 20
261.1544424813197
 30
0.0
 11
436.4336740488942
 21
261.1544424813197
 31
0.0
  0
LINE
  5
1AFE
330
47E
100
AcDbEntity
  8
0
100
AcDbLine
 10
436.4336740488942
 20
261.1544424813197
 30
0.0
 11
436.4336740488942
 21
23.5837315870626
 31
0.0
  0
LINE
  5
1AFF
330
47E
100
AcDbEntity
  8
0
100
AcDbLine
 10
436.4336740488942
 20
23.5837315870626
 30
0.0
 11
763.9844552988943
 21
23.5837315870626
 31
0.0
  0
LINE
  5
1B00
330
47E
100
AcDbEntity
  8
0
100
AcDbLine
 10
516.8258403730469
 20
23.5837315870626
 30
0.0
 11
516.8258403730469
 21
41.99596815805093
 31
0.0
  0
LINE
  5
1B01
330
47E
100
AcDbEntity
  8
0
100
AcDbLine
 10
554.3519552988942
 20
23.5837315870626
 30
0.0
 11
554.3519552988942
 21
41.99596815805093
 31
0.0
  0
LINE
  5
1B02
330
47E
100
AcDbEntity
  8
0
100
AcDbLine
 10
606.7600802988943
 20
23.5837315870626
 30
0.0
 11
606.7600802988943
 21
41.99596815805093
 31
0.0
  0
LINE
  5
1B03
330
47E
100
AcDbEntity
  8
0
100
AcDbLine
 10
626.4131271738943
 20
23.5837315870626
 30
0.0
 11
626.4131271738943
 21
35.85855596772147
 31
0.0
  0
LINE
  5
1B04
330
47E
100
AcDbEntity
  8
0
100
AcDbLine
 10
698.4742990488943
 20
23.5837315870626
 30
0.0
 11
698.4742990488943
 21
41.99596815805093
 31
0.0
  0
LINE
  5
1B05
330
47E
100
AcDbEntity
  8
0
100
AcDbLine
 10
685.3722677988941
 20
23.5837315870626
 30
0.0
 11
685.3722677988941
 21
29.72114377739206
 31
0.0
  0
LINE
  5
1B06
330
47E
100
AcDbEntity
  8
0
100
AcDbLine
 10
436.4336740488942
 20
41.99596815805093
 30
0.0
 11
763.9844552988943
 21
41.99596815805093
 31
0.0
  0
LINE
  5
1B07
330
47E
100
AcDbEntity
  8
0
100
AcDbLine
 10
516.8258403730469
 20
35.85855596772147
 30
0.0
 11
763.9844552988943
 21
35.85855596772147
 31
0.0
  0
TEXT
  5
1B08
330
47E
100
AcDbEntity
  8
0
100
AcDbText
 10
662.2976526489305
 20
44.3240460682422
 30
0.0
 40
1.836382324218749
  1
LADDER RATED AT 1,500 LBS
  7
ROMANS
100
AcDbText
  0
TEXT
  5
1B0B
330
47E
100
AcDbEntity
  8
0
100
AcDbText
 10
481.3184396693574
 20
45.51156186044265
 30
0.0
 40
1.836382324218749
  1
LADDERS MANUFACTURED BY PRECISION LADDERS, LLC
  7
ROMANS
100
AcDbText
  0
TEXT
  5
1B0C
330
47E
100
AcDbEntity
  8
0
100
AcDbText
 10
481.3184396693574
 20
42.53837143075517
 30
0.0
 40
1.836382324218749
  1
COMPLY WITH OSHA 1910 SUBPART D AND ANSI 14.3
  7
ROMANS
100
AcDbText
  0
LINE
  5
1B0D
330
47E
100
AcDbEntity
  8
0
100
AcDbLine
 10
763.9844552988943
 20
48.61303789540368
 30
0.0
 11
436.4336740488942
 21
48.61303789540366
 31
0.0
  0
LINE
  5
1B0E
330
47E
100
AcDbEntity
  8
0
100
AcDbLine
 10
600.2090646738943
 20
48.61303789540366
 30
0.0
 11
600.2090646738943
 21
41.99596815805093
 31
0.0
  0
INSERT
  5
1D0B
330
47E
100
AcDbEntity
  8
0
100
AcDbBlockReference
 66
     1
  2
Border-t
 10
452.5579373911752
 20
23.61308216496382
 30
0.0
 41
1.092025000000035
 42
1.092024999999999
 43
1.092025
  0
ATTRIB
  5
1D0C
330
1D0B
100
AcDbEntity
  8
0
 62
     5
100
AcDbText
 10
453.9454622043328
 20
42.12613902080317
 30
0.0
 40
2.457056249999999
  1

  7
ROMANS
100
AcDbAttribute
  2
SCALE
 70
     0
  0
ATTRIB
  5
1D0D
330
1D0B
100
AcDbEntity
  8
0
100
AcDbText
 10
750.7096129362809
 20
49.86313074604526
 30
0.0
 40
1.913048639648437
  1
FLH-04
  7
ROMANS
 72
     4
 11
756.4032100780917
 21
50.81965506586948
 31
0.0
100
AcDbAttribute
  2
SAVEDAS
 70
     0
  0
ATTRIB
  5
1D0E
330
1D0B
100
AcDbEntity
  8
0
 62
     5
100
AcDbText
 10
524.3829583655654
 20
38.34569583528664
 30
0.0
 40
1.363023851102941
  1

 50
90.0
  7
ROMANS
 72
     4
 11
524.3829583655654
 21
38.34569583528664
 31
0.0
100
AcDbAttribute
  2
X
 70
     0
  0
ATTRIB
  5
1D0F
330
1D0B
100
AcDbEntity
  8
0
100
AcDbText
 10
584.4492438780908
 20
35.80914924951179
 30
0.0
 40
1.931824673742857
  1

  7
ROMANS
 72
     1
 11
584.4492438780908
 21
35.80914924951179
 31
0.0
100
AcDbAttribute
  2
ARCHORENG
 70
     0
  0
ATTRIB
  5
1D10
330
1D0B
100
AcDbEntity
  8
0
100
AcDbText
 10
584.4492438780908
 20
30.18148311180517
 30
0.0
 40
1.931824673742857
  1

  7
ROMANS
 72
     1
 11
584.4492438780908
 21
30.18148311180517
 31
0.0
100
AcDbAttribute
  2
PURCHASEORDER
 70
     0
  0
ATTRIB
  5
1D11
330
1D0B
100
AcDbEntity
  8
0
100
AcDbText
 10
581.4595152163458
 20
24.55381697409841
 30
0.0
 40
1.931824673742857
  1
DNH
  7
ROMANS
 72
     1
 11
584.4492438780908
 21
24.55381697409841
 31
0.0
100
AcDbAttribute
  2
DRAWNBY
 70
     0
  0
ATTRIB
  5
1D12
330
1D0B
100
AcDbEntity
  8
0
100
AcDbText
 10
617.4872902263051
 20
30.18148311180517
 30
0.0
 40
1.931824673742857
  1

  7
ROMANS
 72
     1
 11
617.4872902263051
 21
30.18148311180517
 31
0.0
100
AcDbAttribute
  2
REV
 70
     0
  0
ATTRIB
  5
1D13
330
1D0B
100
AcDbEntity
  8
0
100
AcDbText
 10
612.059782809599
 20
24.55381697409841
 30
0.0
 40
1.931824673742857
  1
9/1/21
  7
ROMANS
 72
     1
 11
617.4872902263051
 21
24.55381697409841
 31
0.0
100
AcDbAttribute
  2
DATE
 70
     0
  0
ATTRIB
  5
1D14
330
1D0B
100
AcDbEntity
  8
0
100
AcDbText
 10
650.5253365745194
 20
35.80914924951179
 30
0.0
 40
1.931824673742857
  1

  7
ROMANS
 72
     1
 11
650.5253365745194
 21
35.80914924951179
 31
0.0
100
AcDbAttribute
  2
PROJECT
 70
     0
  0
ATTRIB
  5
1D15
330
1D0B
100
AcDbEntity
  8
0
100
AcDbText
 10
659.5357128513049
 20
30.18148311180517
 30
0.0
 40
1.931824673742857
  1

  7
ROMANS
 72
     1
 11
659.5357128513049
 21
30.18148311180517
 31
0.0
100
AcDbAttribute
  2
PURCHASER
 70
     0
  0
ATTRIB
  5
1D16
330
1D0B
100
AcDbEntity
  8
0
100
AcDbText
 10
649.7111418115276
 20
24.55381697409851
 30
0.0
 40
1.931824673742857
  1
FLH-
  7
ROMANS
 72
     1
 11
653.528795333448
 21
24.55381697409851
 31
0.0
100
AcDbAttribute
  2
MODEL
 70
     0
  0
ATTRIB
  5
1D17
330
1D0B
100
AcDbEntity
  8
0
100
AcDbText
 10
686.5668416816621
 20
24.55381697409841
 30
0.0
 40
1.931824673742857
  1

  7
ROMANS
 72
     1
 11
686.5668416816621
 21
24.55381697409841
 31
0.0
100
AcDbAttribute
  2
QTY
 70
     0
  0
ATTRIB
  5
1D18
330
1D0B
100
AcDbEntity
  8
0
100
AcDbText
 10
722.6083467888051
 20
35.808418478685
 30
0.0
 40
1.931824673742857
  1

  7
ROMANS
 72
     1
 11
722.6083467888051
 21
35.808418478685
 31
0.0
100
AcDbAttribute
  2
REP
 70
     0
  0
ATTRIB
  5
1D19
330
1D0B
100
AcDbEntity
  8
0
100
AcDbText
 10
722.6456605400976
 20
27.05649764041756
 30
0.0
 40
3.773095065904018
  1

  7
ROMANS
 72
     1
 11
722.6456605400976
 21
27.05649764041756
 31
0.0
100
AcDbAttribute
  2
L010000
 70
     0
  0
SEQEND
  5
1D1A
330
1D0B
100
AcDbEntity
  8
0
  0
DIMENSION
  5
1D1B
330
47E
100
AcDbEntity
  8
0
100
AcDbDimension
  2
*D18
 10
484.3322194298868
 20
69.22332833119188
 30
0.0
 11
482.5904797519751
 21
64.22332833119195
 31
0.0
 70
   160
  1
AS REQ'D
 71
     5
 42
10.00000000000003
  3
STANDARD$0
100
AcDbAlignedDimension
 13
492.0236501921419
 23
59.22332833119185
 33
0.0
 14
492.0236501921419
 24
69.22332833119188
 34
0.0
 50
90.0
100
AcDbRotatedDimension
1001
ACAD
1000
DSTYLE
1002
{
1070
    40
1040
30.0
1002
}
  0
TEXT
  5
1E9B
330
47E
100
AcDbEntity
  8
0
100
AcDbText
 10
438.7111856985848
 20
50.79064995126792
 30
0.0
 40
1.836382324218749
  1
NOTE: FALL ARREST SYSTEM REQUIRED ON LADDERS EXCEEDING 24'-0" (SEE DETAIL FLH-06-FAS)
  7
ROMANS
100
AcDbText
  0
DIMENSION
  5
1EE5
330
47E
100
AcDbEntity
  8
0
100
AcDbDimension
  2
*D19
 10
465.1848983539044
 20
232.2233283311919
 30
0.0
 11
465.1848983539043
 21
217.223328331192
 31
0.0
 70
    32
 71
     5
 42
30.0
  3
STANDARD$0
100
AcDbAlignedDimension
 13
473.5236501921418
 23
202.2233283311919
 33
0.0
 14
473.5236501921418
 24
232.2233283311919
 34
0.0
 50
90.0
100
AcDbRotatedDimension
1001
ACAD
1000
DSTYLE
1002
{
1070
    40
1040
30.0
1002
}
  0
DIMENSION
  5
1EF3
330
47E
100
AcDbEntity
  8
0
100
AcDbDimension
  2
*D20
 10
465.1848983539044
 20
190.2233283311918
 30
0.0
 11
459.5009697824757
 21
196.2233283311919
 31
0.0
 70
    32
 71
     5
 42
12.0
  3
STANDARD$0
100
AcDbAlignedDimension
 13
473.5236501921418
 23
202.2233283311919
 33
0.0
 14
473.5236501921418
 24
190.2233283311918
 34
0.0
 50
90.0
100
AcDbRotatedDimension
1001
ACAD
1000
DSTYLE
1002
{
1070
    40
1040
30.0
1002
}
  0
TEXT
  5
1F2C
330
47E
100
AcDbEntity
  8
0
  6
ByBlock
 62
     0
100
AcDbText
 10
622.4134827510662
 20
115.2435726169062
 30
0.0
 40
1.857239999999982
  1
GROUND TO
  7
ROMANS
 72
     1
 11
630.7268427510661
 21
116.1721926169063
 31
0.0
100
AcDbText
 73
     2
1001
AcDbBlockRepETag
1070
     1
1071
        0
1005
1F2C
  0
LINE
  5
1F2F
330
47E
100
AcDbEntity
  8
0
  6
ByBlock
 62
     0
100
AcDbLine
 10
639.776432751066
 20
118.5445626169062
 30
0.0
 11
621.6772527510661
 21
118.5445626169062
 31
0.0
1001
AcDbBlockRepETag
1070
     1
1071
        3
1005
1F2F
  0
TEXT
  5
1F32
330
47E
100
AcDbEntity
  8
0
  6
ByBlock
 62
     0
100
AcDbText
 10
622.0155027510661
 20
112.3693344350899
 30
0.0
 40
1.857239999999982
  1
ROOF LEVEL
  7
ROMANS
 72
     1
 11
630.7268427510661
 21
113.2979544350898
 31
0.0
100
AcDbText
 73
     2
1001
AcDbBlockRepETag
1070
     1
1071
        0
1005
1F2C
  0
LWPOLYLINE
  5
1F33
330
47E
100
AcDbEntity
  8
0
100
AcDbPolyline
 90
        4
 70
     1
 43
0.0
 10
639.7764327510661
 20
128.0340426169061
 10
621.6772527510661
 20
128.0340426169061
 10
621.6772527510661
 20
111.4247051815896
 10
639.7764327510661
 20
111.4247051815896
  0
ENDSEC
  0
SECTION
  2
OBJECTS
  0
DICTIONARY
  5
472
330
0
100
AcDbDictionary
281
     1
  3
ACAD_COLOR
350
16F5
  3
ACAD_GROUP
350
473
  3
ACAD_LAYOUT
350
DD3
  3
ACAD_MATERIAL
350
16E0
  3
ACAD_MLINESTYLE
350
474
  3
ACAD_PLOTSETTINGS
350
DD4
  3
ACAD_PLOTSTYLENAME
350
DD1
  3
ACAD_TABLESTYLE
350
16F6
  3
ACAD_VISUALSTYLE
350
16E4
  3
AcDbVariableDictionary
350
1721
  3
DWGPROPS
350
1F34
  0
DICTIONARY
  5
1D61
330
46E
100
AcDbDictionary
280
     1
281
     1
  0
DICTIONARY
  5
1713
330
47E
100
AcDbDictionary
280
     1
281
     1
  3
ACAD_SORTENTS
360
1714
  0
DICTIONARY
  5
1D85
330
1715
100
AcDbDictionary
280
     1
281
     1
  3
ACAD_ENHANCEDBLOCK
360
1D88
  3
ACAD_SORTENTS
360
1D86
  3
AcDbDynamicBlockRoundTripPurgePreventer
360
1D8C
  0
DICTIONARY
  5
16F5
102
{ACAD_REACTORS
330
472
102
}
330
472
100
AcDbDictionary
281
     1
  0
DICTIONARY
  5
473
102
{ACAD_REACTORS
330
472
102
}
330
472
100
AcDbDictionary
281
     1
  0
DICTIONARY
  5
DD3
102
{ACAD_REACTORS
330
472
102
}
330
472
100
AcDbDictionary
281
     1
  3
Layout1
350
DD6
  3
Model
350
DD5
  0
DICTIONARY
  5
16E0
102
{ACAD_REACTORS
330
472
102
}
330
472
100
AcDbDictionary
281
     1
  3
ByBlock
350
16E2
  3
ByLayer
350
16E1
  3
Global
350
16E3
  0
DICTIONARY
  5
474
102
{ACAD_REACTORS
330
472
102
}
330
472
100
AcDbDictionary
281
     1
  3
STANDARD
350
481
  0
DICTIONARY
  5
DD4
102
{ACAD_REACTORS
330
472
102
}
330
472
100
AcDbDictionary
281
     1
  0
ACDBDICTIONARYWDFLT
  5
DD1
102
{ACAD_REACTORS
330
472
102
}
330
472
100
AcDbDictionary
281
     1
  3
Normal
350
DD2
100
AcDbDictionaryWithDefault
340
DD2
  0
DICTIONARY
  5
16F6
102
{ACAD_REACTORS
330
472
102
}
330
472
100
AcDbDictionary
281
     1
  3
Standard
350
16F7
  0
DICTIONARY
  5
16E4
102
{ACAD_REACTORS
330
472
102
}
330
472
100
AcDbDictionary
281
     1
  3
2dWireframe
350
16EA
  3
3D Hidden
350
16EC
  3
3dWireframe
350
16EB
  3
Basic
350
16E9
  3
Brighten
350
16F0
  3
ColorChange
350
16F4
  3
Conceptual
350
16ED
  3
Dim
350
16EF
  3
Facepattern
350
16F3
  3
Flat
350
16E5
  3
FlatWithEdges
350
16E6
  3
Gouraud
350
16E7
  3
GouraudWithEdges
350
16E8
  3
Linepattern
350
16F2
  3
Realistic
350
16EE
  3
Thicken
350
16F1
  0
DICTIONARY
  5
1721
102
{ACAD_REACTORS
330
472
102
}
330
472
100
AcDbDictionary
281
     1
  3
CTABLESTYLE
350
1722
  3
DIMASSOC
350
1D75
  3
INDEXCTL
350
1D74
  3
SORTENTS
350
1D73
  0
XRECORD
  5
1F34
102
{ACAD_REACTORS
330
472
102
}
330
472
100
AcDbXrecord
280
     1
  1
DWGPROPS COOKIE
  2

  3

  4

  6

  7

  8
XPMUser
  9

300
=
301
=
302
=
303
=
304
=
305
=
306
=
307
=
308
=
309
=
 40
0.3031703587962963
 41
2450687.337153472
 42
2459472.706369723
  1

 90
        0
  0
SORTENTSTABLE
  5
1714
102
{ACAD_REACTORS
330
1713
102
}
330
1713
100
AcDbSortentsTable
330
47E
331
1F2C
  5
1A98
331
1AC0
  5
1AD0
331
338
  5
338
331
11E2
  5
11E2
331
1B07
  5
1D0B
331
1AC8
  5
1ADC
331
107C
  5
107C
331
1AD0
  5
1ADD
331
1A99
  5
1AA5
331
4AE
  5
4AE
331
1084
  5
1084
331
11EA
  5
11EA
331
11F2
  5
11F2
331
360
  5
360
331
1055
  5
1055
331
11FA
  5
11FA
331
303
  5
303
331
284
  5
284
331
28C
  5
28C
331
30B
  5
30B
331
294
  5
294
331
313
  5
313
331
1EE5
  5
1F30
331
1AE0
  5
1AE6
331
1AA1
  5
1AA7
331
319
  5
319
331
368
  5
368
331
1AE8
  5
1AEE
331
1AA9
  5
1AAF
331
321
  5
321
331
105D
  5
105D
331
1202
  5
1202
331
11CB
  5
11CB
331
1AF0
  5
1AF6
331
388
  5
388
331
1065
  5
1065
331
11D3
  5
11D3
331
1AF8
  5
1AFE
331
1AB9
  5
1ABF
331
331
  5
331
331
106D
  5
106D
331
1075
  5
1075
331
11DB
  5
11DB
331
2CC
  5
2CC
331
275
  5
275
331
1710
  5
1710
331
27D
  5
27D
331
1B00
  5
1B06
331
11E3
  5
11E3
331
1B08
  5
1D1B
331
107D
  5
107D
331
11EB
  5
11EB
331
1AD1
  5
1ADE
331
1A9A
  5
1AA6
331
359
  5
359
331
1085
  5
1085
331
361
  5
361
331
1056
  5
1056
331
11FB
  5
11FB
331
285
  5
285
331
30C
  5
30C
331
28D
  5
28D
331
314
  5
314
331
295
  5
295
331
1AE1
  5
1AE7
331
1AA2
  5
1AA8
331
369
  5
369
331
31A
  5
31A
331
1AE9
  5
1AEF
331
1AAA
  5
1AB0
331
322
  5
322
331
105E
  5
105E
331
1AF1
  5
1AF7
331
1066
  5
1066
331
11CC
  5
11CC
331
11D4
  5
11D4
331
1AF9
  5
1AFF
331
1ABA
  5
1AC0
331
332
  5
332
331
106E
  5
106E
331
11DC
  5
11DC
331
1076
  5
1076
331
276
  5
276
331
2CD
  5
2CD
331
1711
  5
1711
331
27E
  5
27E
331
1B01
  5
1B07
331
11E4
  5
11E4
331
1AD2
  5
1ADF
331
35A
  5
35A
331
11EC
  5
11EC
331
1ADA
  5
1AE0
331
362
  5
362
331
1057
  5
1057
331
11FC
  5
11FC
331
305
  5
305
331
286
  5
286
331
28E
  5
28E
331
30D
  5
30D
331
315
  5
315
331
1AE2
  5
1AE8
331
1AA3
  5
1AA9
331
31B
  5
31B
331
1AEA
  5
1AF0
331
1AAB
  5
1AB6
331
323
  5
323
331
105F
  5
105F
331
11CD
  5
11CD
331
1AF2
  5
1AF8
331
38A
  5
38A
331
1067
  5
1067
331
1AFA
  5
1B00
331
1ABB
  5
1AC4
331
333
  5
333
331
106F
  5
106F
331
11D5
  5
11D5
331
1077
  5
1077
331
11DD
  5
11DD
331
2BE
  5
2BE
331
26F
  5
26F
331
277
  5
277
331
2CE
  5
2CE
331
27F
  5
27F
331
1F2F
  5
1AA1
331
1B02
  5
1B08
331
11E5
  5
11E5
331
107F
  5
107F
331
11ED
  5
11ED
331
35B
  5
35B
331
1050
  5
1050
331
1ADB
  5
1AE1
331
363
  5
363
331
11FD
  5
11FD
331
287
  5
287
331
306
  5
306
331
28F
  5
28F
331
30E
  5
30E
331
316
  5
316
331
1AE3
  5
1AE9
331
1AA4
  5
1AAA
331
31C
  5
31C
331
1058
  5
1058
331
1AEB
  5
1AF1
331
1AAC
  5
1AB7
331
324
  5
324
331
1060
  5
1060
331
11CE
  5
11CE
331
1AF3
  5
1AF9
331
1068
  5
1068
331
1AFB
  5
1B01
331
1070
  5
1070
331
1ABC
  5
1AC5
331
334
  5
334
331
41B
  5
41B
331
11D6
  5
11D6
331
11DE
  5
11DE
331
270
  5
270
331
2BF
  5
2BF
331
278
  5
278
331
2CF
  5
2CF
331
1B03
  5
1B0B
331
1AC4
  5
1AD1
331
1078
  5
1078
331
1B0B
  5
1E9B
331
1080
  5
1080
331
11E6
  5
11E6
331
11EE
  5
11EE
331
1D0B
  5
1F2D
331
35C
  5
35C
331
1051
  5
1051
331
1ADC
  5
1AE2
331
4BA
  5
4BA
331
364
  5
364
331
11FE
  5
11FE
331
280
  5
280
331
288
  5
288
331
307
  5
307
331
30F
  5
30F
331
317
  5
317
331
1AE4
  5
1AEA
331
1AA5
  5
1AAB
331
31D
  5
31D
331
1059
  5
1059
331
1D1B
  5
1F2E
331
1AEC
  5
1AF2
331
1AAD
  5
1AB8
331
325
  5
325
331
1061
  5
1061
331
11C7
  5
11C7
331
11CF
  5
11CF
331
1AF4
  5
1AFA
331
32D
  5
32D
331
1069
  5
1069
331
11D7
  5
11D7
331
1AFC
  5
1B02
331
1ABD
  5
1AC6
331
335
  5
335
331
1071
  5
1071
331
11DF
  5
11DF
331
2B0
  5
2B0
331
271
  5
271
331
170C
  5
170C
331
279
  5
279
331
1B04
  5
1B0C
331
1AC5
  5
1AD2
331
1079
  5
1079
331
1B0C
  5
1EE5
331
355
  5
355
331
1081
  5
1081
331
11E7
  5
11E7
331
11EF
  5
11EF
331
35D
  5
35D
331
1052
  5
1052
331
1ADD
  5
1AE3
331
365
  5
365
331
11FF
  5
11FF
331
281
  5
281
331
308
  5
308
331
310
  5
310
331
1AE5
  5
1AEB
331
1AA6
  5
1AAC
331
31E
  5
31E
331
105A
  5
105A
331
1AED
  5
1AF3
331
1AAE
  5
1AB9
331
326
  5
326
331
1062
  5
1062
331
11C8
  5
11C8
331
11D0
  5
11D0
331
1AF5
  5
1AFB
331
1AB6
  5
1ABC
331
32E
  5
32E
331
106A
  5
106A
331
11D8
  5
11D8
331
1AFD
  5
1B03
331
1ABE
  5
1AC7
331
336
  5
336
331
1072
  5
1072
331
2B1
  5
2B1
331
272
  5
272
331
170D
  5
170D
331
27A
  5
27A
331
11E0
  5
11E0
331
1B05
  5
1B0D
331
1AC6
  5
1ADA
331
107A
  5
107A
331
1B0D
  5
1EF3
331
356
  5
356
331
1082
  5
1082
331
11E8
  5
11E8
331
11F0
  5
11F0
331
35E
  5
35E
331
4B4
  5
4B4
331
1053
  5
1053
331
1ADE
  5
1AE4
331
366
  5
366
331
11F8
  5
11F8
331
282
  5
282
331
309
  5
309
331
311
  5
311
331
2A2
  5
2A2
331
1E9B
  5
1F2F
331
1EF3
  5
1F31
331
1AE6
  5
1AEC
331
1AA7
  5
1AAD
331
31F
  5
31F
331
105B
  5
105B
331
1200
  5
1200
331
1AEE
  5
1AF4
331
1AAF
  5
1ABA
331
386
  5
386
331
11C9
  5
11C9
331
11D1
  5
11D1
331
1AF6
  5
1AFC
331
1AB7
  5
1ABD
331
32F
  5
32F
331
106B
  5
106B
331
1AFE
  5
1B04
331
1ABF
  5
1AC8
331
337
  5
337
331
1073
  5
1073
331
11D9
  5
11D9
331
170E
  5
170E
331
27B
  5
27B
331
2FA
  5
2FA
331
1B06
  5
1B0E
331
1AC7
  5
1ADB
331
11E1
  5
11E1
331
11E9
  5
11E9
331
1B0E
  5
1F2C
331
1A98
  5
1AA4
331
357
  5
357
331
1083
  5
1083
331
11F1
  5
11F1
331
35F
  5
35F
331
1054
  5
1054
331
1ADF
  5
1AE5
331
367
  5
367
331
11F9
  5
11F9
331
283
  5
283
331
28B
  5
28B
331
30A
  5
30A
331
312
  5
312
331
2A3
  5
2A3
331
318
  5
318
331
1201
  5
1201
331
1AE7
  5
1AED
331
1AA8
  5
1AAE
331
320
  5
320
331
105C
  5
105C
331
1AEF
  5
1AF5
331
1AB0
  5
1ABB
331
387
  5
387
331
1064
  5
1064
331
11CA
  5
11CA
331
11D2
  5
11D2
331
1AF7
  5
1AFD
331
1AB8
  5
1ABE
331
330
  5
330
331
106C
  5
106C
331
11DA
  5
11DA
331
1AFF
  5
1B05
331
1074
  5
1074
331
170F
  5
170F
331
27C
  5
27C
  0
ACAD_EVALUATION_GRAPH
  5
1D88
102
{ACAD_REACTORS
330
1D85
102
}
330
1D85
100
AcDbEvalGraph
 96
        0
 97
        0
  0
SORTENTSTABLE
  5
1D86
102
{ACAD_REACTORS
330
1D85
102
}
330
1D85
100
AcDbSortentsTable
330
1715
  0
ACDB_DYNAMICBLOCKPURGEPREVENTER_VERSION
  5
1D8C
102
{ACAD_REACTORS
330
1D85
102
}
330
1D85
100
AcDbDynamicBlockPurgePreventer
 70
     1
  0
LAYOUT
  5
DD6
102
{ACAD_XDICTIONARY
360
1F37
102
}
102
{ACAD_REACTORS
330
DD3
102
}
330
DD3
100
AcDbPlotSettings
  1

  2
HP LaserJet 2100 Series PCL 6
  4

  6

 40
0.0
 41
0.0
 42
0.0
 43
0.0
 44
0.0
 45
0.0
 46
0.0
 47
0.0
 48
0.0
 49
0.0
140
0.0
141
0.0
142
1.0
143
1.0
 70
   688
 72
     0
 73
     0
 74
     5
  7
Erik.ctb
 75
    16
147
1.0
148
0.0
149
0.0
100
AcDbLayout
  1
Layout1
 70
     1
 71
     1
 10
0.0
 20
0.0
 11
12.0
 21
9.0
 12
0.0
 22
0.0
 32
0.0
 14
1.000000000000000E+20
 24
1.000000000000000E+20
 34
1.000000000000000E+20
 15
-1.000000000000000E+20
 25
-1.000000000000000E+20
 35
-1.000000000000000E+20
146
0.0
 13
0.0
 23
0.0
 33
0.0
 16
1.0
 26
0.0
 36
0.0
 17
0.0
 27
1.0
 37
0.0
 76
     0
330
47B
  0
LAYOUT
  5
DD5
102
{ACAD_XDICTIONARY
360
1F35
102
}
102
{ACAD_REACTORS
330
DD3
102
}
330
DD3
100
AcDbPlotSettings
  1

  2
PDF Pro 10
  4
Letter
  6

 40
3.174999952316284
 41
3.174999952316284
 42
3.175003051757812
 43
3.17498779296875
 44
215.8999938964844
 45
279.3999938964844
 46
5.775258878675339
 47
0.0
 48
0.0
 49
0.0
140
0.0
141
0.0
142
1.0
143
30.47846715647719
 70
  3764
 72
     0
 73
     1
 74
     1
  7
acad.ctb
 75
     0
147
0.0328100489721473
148
-11084.25120185575
149
-599.0183918854986
100
AcDbLayout
  1
Model
 70
     1
 71
     0
 10
0.0
 20
0.0
 11
12.0
 21
9.0
 12
0.0
 22
0.0
 32
0.0
 14
0.0
 24
0.0
 34
0.0
 15
0.0
 25
0.0
 35
0.0
146
0.0
 13
0.0
 23
0.0
 33
0.0
 16
1.0
 26
0.0
 36
0.0
 17
0.0
 27
1.0
 37
0.0
 76
     0
330
47E
331
16DE
1001
ACAD_PSEXT
1000
PDF Pro 10
1000
Visage PDF
1000
VSP1:
1000

1070
     0
  0
MATERIAL
  5
16E2
102
{ACAD_XDICTIONARY
360
1F3B
102
}
102
{ACAD_REACTORS
330
16E0
102
}
330
16E0
100
AcDbMaterial
  1
ByBlock
  0
MATERIAL
  5
16E1
102
{ACAD_XDICTIONARY
360
1F39
102
}
102
{ACAD_REACTORS
330
16E0
102
}
330
16E0
100
AcDbMaterial
  1
ByLayer
  0
MATERIAL
  5
16E3
102
{ACAD_XDICTIONARY
360
1F3D
102
}
102
{ACAD_REACTORS
330
16E0
102
}
330
16E0
100
AcDbMaterial
  1
Global
  0
MLINESTYLE
  5
481
102
{ACAD_REACTORS
330
474
102
}
330
474
100
AcDbMlineStyle
  2
STANDARD
 70
     0
  3

 62
     0
 51
90.0
 52
90.0
 71
     2
 49
0.5
 62
   256
  6
BYLAYER
 49
-0.5
 62
   256
  6
BYLAYER
  0
ACDBPLACEHOLDER
  5
DD2
102
{ACAD_REACTORS
330
DD1
102
}
330
DD1
  0
TABLESTYLE
  5
16F7
102
{ACAD_XDICTIONARY
360
1F3F
102
}
102
{ACAD_REACTORS
330
16F6
102
}
330
16F6
100
AcDbTableStyle
  3
Standard
 70
     0
 71
     0
 40
0.06
 41
0.06
280
     0
281
     0
  7
STANDARD
140
0.18
170
     2
 62
     0
 63
     7
283
     0
274
    -2
284
     1
 64
     0
275
    -2
285
     1
 65
     0
276
    -2
286
     1
 66
     0
277
    -2
287
     1
 67
     0
278
    -2
288
     1
 68
     0
279
    -2
289
     1
 69
     0
  7
STANDARD
140
0.25
170
     5
 62
     0
 63
     7
283
     0
274
    -2
284
     1
 64
     0
275
    -2
285
     1
 65
     0
276
    -2
286
     1
 66
     0
277
    -2
287
     1
 67
     0
278
    -2
288
     1
 68
     0
279
    -2
289
     1
 69
     0
  7
STANDARD
140
0.18
170
     5
 62
     0
 63
     7
283
     0
274
    -2
284
     1
 64
     0
275
    -2
285
     1
 65
     0
276
    -2
286
     1
 66
     0
277
    -2
287
     1
 67
     0
278
    -2
288
     1
 68
     0
279
    -2
289
     1
 69
     0
  0
VISUALSTYLE
  5
16EA
102
{ACAD_REACTORS
330
16E4
102
}
330
16E4
100
AcDbVisualStyle
  2
2dWireframe
 70
     4
 71
     0
 72
     2
 73
     0
 90
        0
 40
-0.6
 41
-30.0
 62
     5
 63
     7
 74
     1
 91
        4
 64
     7
 65
   257
 75
     1
175
     1
 42
1.0
 92
        0
 66
   257
 43
1.0
 76
     1
 77
     6
 78
     2
 67
     7
 79
     5
170
     0
171
     0
290
     0
174
     0
 93
        1
 44
0.0
173
     0
291
     0
 45
0.0
1001
ACAD
1000
AcDbSavedByObjectVersion
1070
     0
  0
VISUALSTYLE
  5
16EC
102
{ACAD_REACTORS
330
16E4
102
}
330
16E4
100
AcDbVisualStyle
  2
3D Hidden
 70
     6
 71
     1
 72
     2
 73
     2
 90
        0
 40
-0.6
 41
-30.0
 62
     5
 63
     7
 74
     2
 91
        2
 64
     7
 65
   257
 75
     2
175
     1
 42
40.0
 92
        0
 66
   257
 43
1.0
 76
     1
 77
     6
 78
     2
 67
     7
 79
     3
170
     0
171
     0
290
     0
174
     0
 93
        1
 44
0.0
173
     0
291
     0
 45
0.0
1001
ACAD
1000
AcDbSavedByObjectVersion
1070
     0
  0
VISUALSTYLE
  5
16EB
102
{ACAD_REACTORS
330
16E4
102
}
330
16E4
100
AcDbVisualStyle
  2
3dWireframe
 70
     5
 71
     0
 72
     2
 73
     0
 90
        0
 40
-0.6
 41
-30.0
 62
     5
 63
     7
 74
     1
 91
        4
 64
     7
 65
   257
 75
     1
175
     1
 42
1.0
 92
        0
 66
   257
 43
1.0
 76
     1
 77
     6
 78
     2
 67
     7
 79
     5
170
     0
171
     0
290
     0
174
     0
 93
        1
 44
0.0
173
     0
291
     0
 45
0.0
1001
ACAD
1000
AcDbSavedByObjectVersion
1070
     0
  0
VISUALSTYLE
  5
16E9
102
{ACAD_REACTORS
330
16E4
102
}
330
16E4
100
AcDbVisualStyle
  2
Basic
 70
     7
 71
     1
 72
     0
 73
     1
 90
        0
 40
-0.6
 41
-30.0
 62
     5
 63
     7
 74
     0
 91
        4
 64
     7
 65
   257
 75
     1
175
     1
 42
1.0
 92
        8
 66
     7
 43
1.0
 76
     1
 77
     6
 78
     2
 67
     7
 79
     5
170
     0
171
     0
290
     0
174
     0
 93
        1
 44
0.0
173
     0
291
     1
 45
0.0
1001
ACAD
1000
AcDbSavedByObjectVersion
1070
     0
  0
VISUALSTYLE
  5
16F0
102
{ACAD_REACTORS
330
16E4
102
}
330
16E4
100
AcDbVisualStyle
  2
Brighten
 70
    12
 71
     2
 72
     2
 73
     0
 90
        0
 40
-0.6
 41
-30.0
 62
     5
 63
     7
 74
     1
 91
        4
 64
     7
 65
   257
 75
     1
175
     1
 42
1.0
 92
        8
 66
     7
 43
1.0
 76
     1
 77
     6
 78
     2
 67
     7
 79
     5
170
     0
171
     0
290
     0
174
     0
 93
        1
 44
50.0
173
     0
291
     1
 45
0.0
1001
ACAD
1000
AcDbSavedByObjectVersion
1070
     0
  0
VISUALSTYLE
  5
16F4
102
{ACAD_REACTORS
330
16E4
102
}
330
16E4
100
AcDbVisualStyle
  2
ColorChange
 70
    16
 71
     2
 72
     2
 73
     3
 90
        0
 40
-0.6
 41
-30.0
 62
     5
 63
     8
 74
     1
 91
        4
 64
     7
 65
   257
 75
     1
175
     1
 42
1.0
 92
        8
 66
     8
 43
1.0
 76
     1
 77
     6
 78
     2
 67
     7
 79
     5
170
     0
171
     0
290
     0
174
     0
 93
        1
 44
0.0
173
     0
291
     1
 45
0.0
1001
ACAD
1000
AcDbSavedByObjectVersion
1070
     0
  0
VISUALSTYLE
  5
16ED
102
{ACAD_REACTORS
330
16E4
102
}
330
16E4
100
AcDbVisualStyle
  2
Conceptual
 70
     9
 71
     3
 72
     2
 73
     0
 90
        0
 40
-0.6
 41
-30.0
 62
     5
 63
     7
 74
     2
 91
        2
 64
     7
 65
   257
 75
     1
175
     1
 42
40.0
 92
        8
 66
     7
 43
1.0
 76
     1
 77
     6
 78
     2
 67
     7
 79
     3
170
     0
171
     0
290
     0
174
     0
 93
        1
 44
0.0
173
     0
291
     0
 45
0.0
1001
ACAD
1000
AcDbSavedByObjectVersion
1070
     0
  0
VISUALSTYLE
  5
16EF
102
{ACAD_REACTORS
330
16E4
102
}
330
16E4
100
AcDbVisualStyle
  2
Dim
 70
    11
 71
     2
 72
     2
 73
     0
 90
        0
 40
-0.6
 41
-30.0
 62
     5
 63
     7
 74
     1
 91
        4
 64
     7
 65
   257
 75
     1
175
     1
 42
1.0
 92
        8
 66
     7
 43
1.0
 76
     1
 77
     6
 78
     2
 67
     7
 79
     5
170
     0
171
     0
290
     0
174
     0
 93
        1
 44
-50.0
173
     0
291
     1
 45
0.0
1001
ACAD
1000
AcDbSavedByObjectVersion
1070
     0
  0
VISUALSTYLE
  5
16F3
102
{ACAD_REACTORS
330
16E4
102
}
330
16E4
100
AcDbVisualStyle
  2
Facepattern
 70
    15
 71
     2
 72
     2
 73
     0
 90
        0
 40
-0.6
 41
-30.0
 62
     5
 63
     7
 74
     1
 91
        4
 64
     7
 65
   257
 75
     1
175
     1
 42
1.0
 92
        8
 66
     7
 43
1.0
 76
     1
 77
     6
 78
     2
 67
     7
 79
     5
170
     0
171
     0
290
     0
174
     0
 93
        1
 44
0.0
173
     0
291
     1
 45
0.0
1001
ACAD
1000
AcDbSavedByObjectVersion
1070
     0
  0
VISUALSTYLE
  5
16E5
102
{ACAD_REACTORS
330
16E4
102
}
330
16E4
100
AcDbVisualStyle
  2
Flat
 70
     0
 71
     2
 72
     1
 73
     1
 90
        2
 40
-0.6
 41
30.0
 62
     5
 63
     7
 74
     0
 91
        4
 64
     7
 65
   257
 75
     1
175
     1
 42
1.0
 92
        8
 66
     7
 43
1.0
 76
     1
 77
     6
 78
     2
 67
     7
 79
     5
170
     0
171
     0
290
     0
174
     0
 93
       13
 44
0.0
173
     0
291
     1
 45
0.0
1001
ACAD
1000
AcDbSavedByObjectVersion
1070
     0
  0
VISUALSTYLE
  5
16E6
102
{ACAD_REACTORS
330
16E4
102
}
330
16E4
100
AcDbVisualStyle
  2
FlatWithEdges
 70
     1
 71
     2
 72
     1
 73
     1
 90
        2
 40
-0.6
 41
30.0
 62
     5
 63
     7
 74
     1
 91
        4
 64
     7
 65
   257
 75
     1
175
     1
 42
1.0
 92
        0
 66
   257
 43
1.0
 76
     1
 77
     6
 78
     2
 67
     7
 79
     5
170
     0
171
     0
290
     0
174
     0
 93
       13
 44
0.0
173
     0
291
     1
 45
0.0
1001
ACAD
1000
AcDbSavedByObjectVersion
1070
     0
  0
VISUALSTYLE
  5
16E7
102
{ACAD_REACTORS
330
16E4
102
}
330
16E4
100
AcDbVisualStyle
  2
Gouraud
 70
     2
 71
     2
 72
     2
 73
     1
 90
        2
 40
-0.6
 41
30.0
 62
     5
 63
     7
 74
     0
 91
        4
 64
     7
 65
   257
 75
     1
175
     1
 42
1.0
 92
        0
 66
     7
 43
1.0
 76
     1
 77
     6
 78
     2
 67
     7
 79
     5
170
     0
171
     0
290
     0
174
     0
 93
       13
 44
0.0
173
     0
291
     1
 45
0.0
1001
ACAD
1000
AcDbSavedByObjectVersion
1070
     0
  0
VISUALSTYLE
  5
16E8
102
{ACAD_REACTORS
330
16E4
102
}
330
16E4
100
AcDbVisualStyle
  2
GouraudWithEdges
 70
     3
 71
     2
 72
     2
 73
     1
 90
        2
 40
-0.6
 41
30.0
 62
     5
 63
     7
 74
     1
 91
        4
 64
     7
 65
   257
 75
     1
175
     1
 42
1.0
 92
        0
 66
   257
 43
1.0
 76
     1
 77
     6
 78
     2
 67
     7
 79
     5
170
     0
171
     0
290
     0
174
     0
 93
       13
 44
0.0
173
     0
291
     1
 45
0.0
1001
ACAD
1000
AcDbSavedByObjectVersion
1070
     0
  0
VISUALSTYLE
  5
16F2
102
{ACAD_REACTORS
330
16E4
102
}
330
16E4
100
AcDbVisualStyle
  2
Linepattern
 70
    14
 71
     2
 72
     2
 73
     0
 90
        0
 40
-0.6
 41
-30.0
 62
     5
 63
     7
 74
     1
 91
        4
 64
     7
 65
   257
 75
     7
175
     7
 42
1.0
 92
        8
 66
     7
 43
1.0
 76
     1
 77
     6
 78
     2
 67
     7
 79
     5
170
     0
171
     0
290
     0
174
     0
 93
        1
 44
0.0
173
     0
291
     1
 45
0.0
1001
ACAD
1000
AcDbSavedByObjectVersion
1070
     0
  0
VISUALSTYLE
  5
16EE
102
{ACAD_REACTORS
330
16E4
102
}
330
16E4
100
AcDbVisualStyle
  2
Realistic
 70
     8
 71
     2
 72
     2
 73
     0
 90
        0
 40
-0.6
 41
-30.0
 62
     5
 63
     7
 74
     1
 91
        0
 64
     7
 65
   257
 75
     1
175
     1
 42
1.0
 92
        8
 66
     8
 43
1.0
 76
     1
 77
     6
 78
     2
 67
     7
 79
     5
170
     0
171
     0
290
     0
174
     0
 93
       13
 44
0.0
173
     0
291
     0
 45
0.0
1001
ACAD
1000
AcDbSavedByObjectVersion
1070
     0
  0
VISUALSTYLE
  5
16F1
102
{ACAD_REACTORS
330
16E4
102
}
330
16E4
100
AcDbVisualStyle
  2
Thicken
 70
    13
 71
     2
 72
     2
 73
     0
 90
        0
 40
-0.6
 41
-30.0
 62
     5
 63
     7
 74
     1
 91
        4
 64
     7
 65
   257
 75
     1
175
     1
 42
1.0
 92
       12
 66
     7
 43
1.0
 76
     1
 77
     6
 78
     2
 67
     7
 79
     5
170
     0
171
     0
290
     0
174
     0
 93
        1
 44
0.0
173
     0
291
     1
 45
0.0
1001
ACAD
1000
AcDbSavedByObjectVersion
1070
     0
  0
DICTIONARYVAR
  5
1722
102
{ACAD_REACTORS
330
1721
102
}
330
1721
100
DictionaryVariables
280
     0
  1
STANDARD
  0
DICTIONARYVAR
  5
1D75
102
{ACAD_REACTORS
330
1721
102
}
330
1721
100
DictionaryVariables
280
     0
  1
1
  0
DICTIONARYVAR
  5
1D74
102
{ACAD_REACTORS
330
1721
102
}
330
1721
100
DictionaryVariables
280
     0
  1
0
  0
DICTIONARYVAR
  5
1D73
102
{ACAD_REACTORS
330
1721
102
}
330
1721
100
DictionaryVariables
280
     0
  1
127
  0
DICTIONARY
  5
1F37
330
DD6
100
AcDbDictionary
280
     1
281
     1
  3
ACAD_XREC_ROUNDTRIP
360
1F38
  0
DICTIONARY
  5
1F35
330
DD5
100
AcDbDictionary
280
     1
281
     1
  3
ACAD_XREC_ROUNDTRIP
360
1F36
  0
DICTIONARY
  5
1F3B
330
16E2
100
AcDbDictionary
280
     1
281
     1
  3
ACAD_XREC_ROUNDTRIP
360
1F3C
  0
DICTIONARY
  5
1F39
330
16E1
100
AcDbDictionary
280
     1
281
     1
  3
ACAD_XREC_ROUNDTRIP
360
1F3A
  0
DICTIONARY
  5
1F3D
330
16E3
100
AcDbDictionary
280
     1
281
     1
  3
ACAD_XREC_ROUNDTRIP
360
1F3E
  0
DICTIONARY
  5
1F3F
330
16F7
100
AcDbDictionary
280
     1
281
     1
  3
ACAD_XREC_ROUNDTRIP
360
1F40
  0
XRECORD
  5
1F38
102
{ACAD_REACTORS
330
1F37
102
}
330
1F37
100
AcDbXrecord
280
     1
102
SHADEPLOT
 70
     0
102
SHADEPLOTRESLEVEL
 70
     2
102
SHADEPLOTCUSTOMDPI
 70
   300
  0
XRECORD
  5
1F36
102
{ACAD_REACTORS
330
1F35
102
}
330
1F35
100
AcDbXrecord
280
     1
102
SHADEPLOT
 70
     0
102
SHADEPLOTRESLEVEL
 70
     2
102
SHADEPLOTCUSTOMDPI
 70
   300
  0
XRECORD
  5
1F3C
102
{ACAD_REACTORS
330
1F3B
102
}
330
1F3B
100
AcDbXrecord
280
     1
102
MATERIAL
148
0.0
149
0.0
149
0.0
 93
        0
 94
       63
282
     0
 72
     1
 77
     1
171
     1
175
     1
179
     1
273
     0
  0
XRECORD
  5
1F3A
102
{ACAD_REACTORS
330
1F39
102
}
330
1F39
100
AcDbXrecord
280
     1
102
MATERIAL
148
0.0
149
0.0
149
0.0
 93
        0
 94
       63
282
     0
 72
     1
 77
     1
171
     1
175
     1
179
     1
273
     0
  0
XRECORD
  5
1F3E
102
{ACAD_REACTORS
330
1F3D
102
}
330
1F3D
100
AcDbXrecord
280
     1
102
MATERIAL
148
0.0
149
0.0
149
0.0
 93
        0
 94
       63
282
     0
 72
     1
 77
     1
171
     1
175
     1
179
     1
273
     0
  0
XRECORD
  5
1F40
102
{ACAD_REACTORS
330
1F3F
102
}
330
1F3F
100
AcDbXrecord
280
     1
102
ACAD_ROUNDTRIP_PRE2007_TABLESTYLE
 90
      512
 91
        0
  1

 92
      512
 93
        0
  2

 94
      512
 95
        0
  3

  0
ENDSEC
  0
EOF
