  0
SECTION
  2
HEADER
  9
$ACADVER
  1
AC1015
  9
$ACADMAINTVER
 70
    20
  9
$DWGCODEPAGE
  3
ANSI_1252
  9
$INSBASE
 10
0.0
 20
0.0
 30
0.0
  9
$EXTMIN
 10
8.271089758993525
 20
0.2332136892482595
 30
-0.000000000000001
  9
$EXTMAX
 10
342.4063635881778
 20
242.5897730005703
 30
0.0000000000000142
  9
$LIMMIN
 10
0.0
 20
0.0
  9
$LIMMAX
 10
12.0
 20
9.0
  9
$ORTHOMODE
 70
     1
  9
$REGENMODE
 70
     1
  9
$FILLMODE
 70
     1
  9
$QTEXTMODE
 70
     0
  9
$MIRRTEXT
 70
     0
  9
$LTSCALE
 40
4.0
  9
$ATTMODE
 70
     1
  9
$TEXTSIZE
 40
2.210999999999999
  9
$TRACEWID
 40
0.05
  9
$TEXTSTYLE
  7
ROMANS
  9
$CLAYER
  8
0
  9
$CELTYPE
  6
BYLAYER
  9
$CECOLOR
 62
   256
  9
$CELTSCALE
 40
1.0
  9
$DISPSILH
 70
     0
  9
$DIMSCALE
 40
28.0
  9
$DIMASZ
 40
0.0625
  9
$DIMEXO
 40
0.0625
  9
$DIMDLI
 40
0.375
  9
$DIMRND
 40
0.0
  9
$DIMDLE
 40
0.0
  9
$DIMEXE
 40
0.0625
  9
$DIMTP
 40
0.0
  9
$DIMTM
 40
0.0
  9
$DIMTXT
 40
0.08203125
  9
$DIMCEN
 40
0.0625
  9
$DIMTSZ
 40
0.0
  9
$DIMTOL
 70
     0
  9
$DIMLIM
 70
     0
  9
$DIMTIH
 70
     1
  9
$DIMTOH
 70
     1
  9
$DIMSE1
 70
     0
  9
$DIMSE2
 70
     0
  9
$DIMTAD
 70
     0
  9
$DIMZIN
 70
     3
  9
$DIMBLK
  1

  9
$DIMASO
 70
     1
  9
$DIMSHO
 70
     1
  9
$DIMPOST
  1

  9
$DIMAPOST
  1

  9
$DIMALT
 70
     0
  9
$DIMALTD
 70
     2
  9
$DIMALTF
 40
25.4
  9
$DIMLFAC
 40
1.0
  9
$DIMTOFL
 70
     0
  9
$DIMTVP
 40
0.0
  9
$DIMTIX
 70
     0
  9
$DIMSOXD
 70
     0
  9
$DIMSAH
 70
     0
  9
$DIMBLK1
  1

  9
$DIMBLK2
  1

  9
$DIMSTYLE
  2
STANDARD
  9
$DIMCLRD
 70
     0
  9
$DIMCLRE
 70
     0
  9
$DIMCLRT
 70
     0
  9
$DIMTFAC
 40
1.0
  9
$DIMGAP
 40
0.0625
  9
$DIMJUST
 70
     0
  9
$DIMSD1
 70
     0
  9
$DIMSD2
 70
     0
  9
$DIMTOLJ
 70
     1
  9
$DIMTZIN
 70
     0
  9
$DIMALTZ
 70
     0
  9
$DIMALTTZ
 70
     0
  9
$DIMUPT
 70
     0
  9
$DIMDEC
 70
     4
  9
$DIMTDEC
 70
     4
  9
$DIMALTU
 70
     2
  9
$DIMALTTD
 70
     2
  9
$DIMTXSTY
  7
ROMANS
  9
$DIMAUNIT
 70
     0
  9
$DIMADEC
 70
     0
  9
$DIMALTRND
 40
0.0
  9
$DIMAZIN
 70
     0
  9
$DIMDSEP
 70
    46
  9
$DIMATFIT
 70
     3
  9
$DIMFRAC
 70
     2
  9
$DIMLDRBLK
  1

  9
$DIMLUNIT
 70
     4
  9
$DIMLWD
 70
    -2
  9
$DIMLWE
 70
    -2
  9
$DIMTMOVE
 70
     2
  9
$LUNITS
 70
     4
  9
$LUPREC
 70
     4
  9
$SKETCHINC
 40
0.1
  9
$FILLETRAD
 40
0.0
  9
$AUNITS
 70
     0
  9
$AUPREC
 70
     0
  9
$MENU
  1
acad
  9
$ELEVATION
 40
0.0
  9
$PELEVATION
 40
0.0
  9
$THICKNESS
 40
0.0
  9
$LIMCHECK
 70
     0
  9
$CHAMFERA
 40
0.0
  9
$CHAMFERB
 40
0.0
  9
$CHAMFERC
 40
0.0
  9
$CHAMFERD
 40
0.0
  9
$SKPOLY
 70
     0
  9
$TDCREATE
 40
2450687.337153472
  9
$TDUCREATE
 40
2450687.503820139
  9
$TDUPDATE
 40
2459472.710457894
  9
$TDUUPDATE
 40
2459472.877124560
  9
$TDINDWG
 40
0.3139317477
  9
$TDUSRTIMER
 40
0.3139317477
  9
$USRTIMER
 70
     1
  9
$ANGBASE
 50
0.0
  9
$ANGDIR
 70
     0
  9
$PDMODE
 70
    33
  9
$PDSIZE
 40
0.0
  9
$PLINEWID
 40
0.0
  9
$SPLFRAME
 70
     0
  9
$SPLINETYPE
 70
     6
  9
$SPLINESEGS
 70
     8
  9
$HANDSEED
  5
2898
  9
$SURFTAB1
 70
     6
  9
$SURFTAB2
 70
     6
  9
$SURFTYPE
 70
     6
  9
$SURFU
 70
     6
  9
$SURFV
 70
     6
  9
$UCSBASE
  2

  9
$UCSNAME
  2

  9
$UCSORG
 10
0.0
 20
0.0
 30
0.0
  9
$UCSXDIR
 10
1.0
 20
0.0
 30
0.0
  9
$UCSYDIR
 10
0.0
 20
1.0
 30
0.0
  9
$UCSORTHOREF
  2

  9
$UCSORTHOVIEW
 70
     0
  9
$UCSORGTOP
 10
0.0
 20
0.0
 30
0.0
  9
$UCSORGBOTTOM
 10
0.0
 20
0.0
 30
0.0
  9
$UCSORGLEFT
 10
0.0
 20
0.0
 30
0.0
  9
$UCSORGRIGHT
 10
0.0
 20
0.0
 30
0.0
  9
$UCSORGFRONT
 10
0.0
 20
0.0
 30
0.0
  9
$UCSORGBACK
 10
0.0
 20
0.0
 30
0.0
  9
$PUCSBASE
  2

  9
$PUCSNAME
  2

  9
$PUCSORG
 10
0.0
 20
0.0
 30
0.0
  9
$PUCSXDIR
 10
1.0
 20
0.0
 30
0.0
  9
$PUCSYDIR
 10
0.0
 20
1.0
 30
0.0
  9
$PUCSORTHOREF
  2

  9
$PUCSORTHOVIEW
 70
     0
  9
$PUCSORGTOP
 10
0.0
 20
0.0
 30
0.0
  9
$PUCSORGBOTTOM
 10
0.0
 20
0.0
 30
0.0
  9
$PUCSORGLEFT
 10
0.0
 20
0.0
 30
0.0
  9
$PUCSORGRIGHT
 10
0.0
 20
0.0
 30
0.0
  9
$PUCSORGFRONT
 10
0.0
 20
0.0
 30
0.0
  9
$PUCSORGBACK
 10
0.0
 20
0.0
 30
0.0
  9
$USERI1
 70
     0
  9
$USERI2
 70
     0
  9
$USERI3
 70
     0
  9
$USERI4
 70
     0
  9
$USERI5
 70
     0
  9
$USERR1
 40
0.0
  9
$USERR2
 40
0.0
  9
$USERR3
 40
0.0
  9
$USERR4
 40
0.0
  9
$USERR5
 40
0.0
  9
$WORLDVIEW
 70
     1
  9
$SHADEDGE
 70
     3
  9
$SHADEDIF
 70
    70
  9
$TILEMODE
 70
     1
  9
$MAXACTVP
 70
    16
  9
$PINSBASE
 10
0.0
 20
0.0
 30
0.0
  9
$PLIMCHECK
 70
     0
  9
$PEXTMIN
 10
1.000000000000000E+20
 20
1.000000000000000E+20
 30
1.000000000000000E+20
  9
$PEXTMAX
 10
-1.000000000000000E+20
 20
-1.000000000000000E+20
 30
-1.000000000000000E+20
  9
$PLIMMIN
 10
0.0
 20
0.0
  9
$PLIMMAX
 10
12.0
 20
9.0
  9
$UNITMODE
 70
     0
  9
$VISRETAIN
 70
     0
  9
$PLINEGEN
 70
     0
  9
$PSLTSCALE
 70
     1
  9
$TREEDEPTH
 70
  3020
  9
$CMLSTYLE
  2
STANDARD
  9
$CMLJUST
 70
     0
  9
$CMLSCALE
 40
1.0
  9
$PROXYGRAPHICS
 70
     1
  9
$MEASUREMENT
 70
     0
  9
$CELWEIGHT
370
    -1
  9
$ENDCAPS
280
     0
  9
$JOINSTYLE
280
     0
  9
$LWDISPLAY
290
     0
  9
$INSUNITS
 70
     0
  9
$HYPERLINKBASE
  1

  9
$STYLESHEET
  1
acad.ctb
  9
$XEDIT
290
     1
  9
$CEPSNTYPE
380
     0
  9
$PSTYLEMODE
290
     1
  9
$FINGERPRINTGUID
  2
{5E27459D-619D-11D6-8735-0010B50CF566}
  9
$VERSIONGUID
  2
{644BC9AF-4578-4800-A463-14B5DC1E2C21}
  9
$EXTNAMES
290
     1
  9
$PSVPSCALE
 40
0.0
  9
$OLESTARTUP
290
     0
  0
ENDSEC
  0
SECTION
  2
CLASSES
  0
CLASS
  1
ACDBDICTIONARYWDFLT
  2
AcDbDictionaryWithDefault
  3
ObjectDBX Classes
 90
        0
280
     0
281
     0
  0
CLASS
  1
ACDBPLACEHOLDER
  2
AcDbPlaceHolder
  3
ObjectDBX Classes
 90
        0
280
     0
281
     0
  0
CLASS
  1
LAYOUT
  2
AcDbLayout
  3
ObjectDBX Classes
 90
        0
280
     0
281
     0
  0
CLASS
  1
MATERIAL
  2
AcDbMaterial
  3
ObjectDBX Classes
 90
     1024
280
     0
281
     0
  0
CLASS
  1
VISUALSTYLE
  2
AcDbVisualStyle
  3
ObjectDBX Classes
 90
     4095
280
     0
281
     0
  0
CLASS
  1
TABLESTYLE
  2
AcDbTableStyle
  3
ObjectDBX Classes
 90
     4095
280
     0
281
     0
  0
CLASS
  1
DICTIONARYVAR
  2
AcDbDictionaryVar
  3
ObjectDBX Classes
 90
        0
280
     0
281
     0
  0
CLASS
  1
SORTENTSTABLE
  2
AcDbSortentsTable
  3
ObjectDBX Classes
 90
        0
280
     0
281
     0
  0
CLASS
  1
EXACXREFPANELOBJECT
  2
ExAcXREFPanelObject
  3
EXAC_ESW
 90
     1025
280
     0
281
     0
  0
CLASS
  1
NPOCOLLECTION
  2
AcDbImpNonPersistentObjectsCollection
  3
ObjectDBX Classes
 90
     1153
280
     0
281
     0
  0
ENDSEC
  0
SECTION
  2
TABLES
  0
TABLE
  2
VPORT
  5
40D
102
{ACAD_XDICTIONARY
360
22B0
102
}
330
0
100
AcDbSymbolTable
 70
     1
  0
VPORT
  5
21BB
330
40D
100
AcDbSymbolTableRecord
100
AcDbViewportTableRecord
  2
*Active
 70
     0
 10
0.0
 20
0.0
 11
1.0
 21
1.0
 12
175.3387266735856
 22
121.4114933449092
 13
0.0
 23
0.0
 14
1.0
 24
1.0
 15
0.0
 25
0.0
 16
0.0
 26
0.0
 36
1.0
 17
0.0
 27
0.0
 37
0.0
 40
244.0835656722103
 41
2.153388822829964
 42
50.0
 43
0.0
 44
0.0
 50
0.0
 51
0.0
 71
     0
 72
   100
 73
     1
 74
     0
 75
     0
 76
     0
 77
     0
 78
     2
281
     0
 65
     1
110
0.0
120
0.0
130
0.0
111
1.0
121
0.0
131
0.0
112
0.0
122
1.0
132
0.0
 79
     0
146
0.0
  0
ENDTAB
  0
TABLE
  2
LTYPE
  5
40A
330
0
100
AcDbSymbolTable
 70
     2
  0
LTYPE
  5
417
330
40A
100
AcDbSymbolTableRecord
100
AcDbLinetypeTableRecord
  2
BYBLOCK
 70
     0
  3

 72
    65
 73
     0
 40
0.0
  0
LTYPE
  5
418
330
40A
100
AcDbSymbolTableRecord
100
AcDbLinetypeTableRecord
  2
BYLAYER
 70
     0
  3

 72
    65
 73
     0
 40
0.0
  0
LTYPE
  5
419
330
40A
100
AcDbSymbolTableRecord
100
AcDbLinetypeTableRecord
  2
CONTINUOUS
 70
     0
  3
Solid line
 72
    65
 73
     0
 40
0.0
  0
LTYPE
  5
1A3F
330
40A
100
AcDbSymbolTableRecord
100
AcDbLinetypeTableRecord
  2
HIDDEN
 70
     0
  3
Hidden __ __ __ __ __ __ __ __ __ __ __ __ __ _
 72
    65
 73
     2
 40
0.375
 49
0.25
 74
     0
 49
-0.125
 74
     0
  0
ENDTAB
  0
TABLE
  2
LAYER
  5
407
330
0
100
AcDbSymbolTable
 70
     2
  0
LAYER
  5
414
330
407
100
AcDbSymbolTableRecord
100
AcDbLayerTableRecord
  2
0
 70
     0
 62
     7
  6
CONTINUOUS
370
    -3
390
11FB
  0
LAYER
  5
44A
330
407
100
AcDbSymbolTableRecord
100
AcDbLayerTableRecord
  2
DEFPOINTS
 70
     0
 62
     7
  6
CONTINUOUS
290
     0
370
    -3
390
11FB
  0
ENDTAB
  0
TABLE
  2
STYLE
  5
408
330
0
100
AcDbSymbolTable
 70
     6
  0
STYLE
  5
415
330
408
100
AcDbSymbolTableRecord
100
AcDbTextStyleTableRecord
  2
STANDARD
 70
     0
 40
0.0
 41
1.0
 50
0.0
 71
     0
 42
0.2
  3
txt
  4

  0
STYLE
  5
43F
330
408
100
AcDbSymbolTableRecord
100
AcDbTextStyleTableRecord
  2
ROMANS
 70
     0
 40
0.0
 41
1.0
 50
0.0
 71
     0
 42
2.210999999999999
  3
romans
  4

  0
STYLE
  5
440
330
408
100
AcDbSymbolTableRecord
100
AcDbTextStyleTableRecord
  2
ROMANC
 70
     0
 40
1.914299999999999
 41
1.0
 50
0.0
 71
     0
 42
2.210999999999999
  3
romanc
  4

  0
STYLE
  5
21B0
330
408
100
AcDbSymbolTableRecord
100
AcDbTextStyleTableRecord
  2
CAT_BORDER$0$STANDARD
 70
     0
 40
0.0
 41
1.0
 50
0.0
 71
     0
 42
0.2
  3

  4

1001
ACAD
1000
Arial Black
1071
       34
  0
STYLE
  5
1ABE
330
408
100
AcDbSymbolTableRecord
100
AcDbTextStyleTableRecord
  2
CAT_BORDER$0$ROMANS
 70
     0
 40
0.0
 41
1.0
 50
0.0
 71
     0
 42
1.768799999999999
  3
romans
  4

  0
STYLE
  5
1AC8
330
408
100
AcDbSymbolTableRecord
100
AcDbTextStyleTableRecord
  2
CAT_BORDER$0$STYLE1
 70
     0
 40
0.0
 41
1.0
 50
0.0
 71
     0
 42
3.0954
  3
C:\Program Files\AutoCAD LT\romanc.shx
  4

  0
ENDTAB
  0
TABLE
  2
VIEW
  5
40B
330
0
100
AcDbSymbolTable
 70
     0
  0
ENDTAB
  0
TABLE
  2
UCS
  5
40C
330
0
100
AcDbSymbolTable
 70
     0
  0
ENDTAB
  0
TABLE
  2
APPID
  5
40E
330
0
100
AcDbSymbolTable
 70
     3
  0
APPID
  5
416
330
40E
100
AcDbSymbolTableRecord
100
AcDbRegAppTableRecord
  2
ACAD
 70
     0
  0
APPID
  5
21DD
330
40E
100
AcDbSymbolTableRecord
100
AcDbRegAppTableRecord
  2
ACAD_PSEXT
 70
     0
  0
APPID
  5
21F5
330
40E
100
AcDbSymbolTableRecord
100
AcDbRegAppTableRecord
  2
ACAD_EXEMPT_FROM_CAD_STANDARDS
 70
     0
  0
ENDTAB
  0
TABLE
  2
DIMSTYLE
  5
40F
330
0
100
AcDbSymbolTable
 70
     4
100
AcDbDimStyleTable
 71
     2
340
449
340
7E0
  0
DIMSTYLE
105
449
102
{ACAD_REACTORS
330
37C
330
38B
330
38D
330
38C
330
30F
330
310
330
386
102
}
330
40F
100
AcDbSymbolTableRecord
100
AcDbDimStyleTableRecord
  2
STANDARD
 70
     0
 40
28.0
 41
0.0625
 43
0.375
 44
0.0625
 78
     3
140
0.08203125
141
0.0625
147
0.0625
276
     2
277
     4
279
     2
340
43F
  0
DIMSTYLE
105
7E0
102
{ACAD_REACTORS
330
37D
330
1216
330
1224
330
127B
330
12DD
330
174F
102
}
330
40F
100
AcDbSymbolTableRecord
100
AcDbDimStyleTableRecord
  2
STANDARD$0
 70
     0
 40
28.0
 41
0.0625
 43
0.375
 44
0.0625
 78
     3
140
0.08203125
141
0.0625
147
0.0625
276
     2
277
     4
279
     2
340
43F
  0
DIMSTYLE
105
21B1
330
40F
100
AcDbSymbolTableRecord
100
AcDbDimStyleTableRecord
  2
CAT_BORDER$0$STANDARD
 70
     0
 40
22.0
 41
0.0625
 43
0.375
 44
0.0625
 78
     3
140
0.0804
141
0.0625
147
0.0625
276
     2
277
     4
279
     2
340
1ABE
  0
DIMSTYLE
105
21B2
330
40F
100
AcDbSymbolTableRecord
100
AcDbDimStyleTableRecord
  2
CAT_BORDER$0$STANDARD$0
 70
     0
 40
50.0
 41
0.0625
 43
0.375
 44
0.0625
 78
     3
140
0.0625
141
0.0625
147
0.0625
276
     2
277
     4
279
     2
284
     3
340
1ABE
  0
ENDTAB
  0
TABLE
  2
BLOCK_RECORD
  5
406
330
0
100
AcDbSymbolTable
 70
    30
  0
BLOCK_RECORD
  5
41D
102
{ACAD_XDICTIONARY
360
2727
102
}
330
406
100
AcDbSymbolTableRecord
100
AcDbBlockTableRecord
  2
*MODEL_SPACE
340
11FE
  0
BLOCK_RECORD
  5
41A
330
406
100
AcDbSymbolTableRecord
100
AcDbBlockTableRecord
  2
*PAPER_SPACE
340
11FF
  0
BLOCK_RECORD
  5
43A
330
406
100
AcDbSymbolTableRecord
100
AcDbBlockTableRecord
  2
LINETYPE
340
0
102
{BLKREFS
331
3E0
102
}
  0
BLOCK_RECORD
  5
7E1
330
406
100
AcDbSymbolTableRecord
100
AcDbBlockTableRecord
  2
*D1
340
0
  0
BLOCK_RECORD
  5
11D6
330
406
100
AcDbSymbolTableRecord
100
AcDbBlockTableRecord
  2
BORDER-T
340
0
102
{BLKREFS
331
11E7
102
}
  0
BLOCK_RECORD
  5
1217
330
406
100
AcDbSymbolTableRecord
100
AcDbBlockTableRecord
  2
*D3
340
0
  0
BLOCK_RECORD
  5
1225
330
406
100
AcDbSymbolTableRecord
100
AcDbBlockTableRecord
  2
*D4
340
0
  0
BLOCK_RECORD
  5
1257
330
406
100
AcDbSymbolTableRecord
100
AcDbBlockTableRecord
  2
*D5
340
0
  0
BLOCK_RECORD
  5
1264
330
406
100
AcDbSymbolTableRecord
100
AcDbBlockTableRecord
  2
*D6
340
0
  0
BLOCK_RECORD
  5
127C
330
406
100
AcDbSymbolTableRecord
100
AcDbBlockTableRecord
  2
*D7
340
0
  0
BLOCK_RECORD
  5
129E
330
406
100
AcDbSymbolTableRecord
100
AcDbBlockTableRecord
  2
*D8
340
0
  0
BLOCK_RECORD
  5
12DE
330
406
100
AcDbSymbolTableRecord
100
AcDbBlockTableRecord
  2
*D9
340
0
  0
BLOCK_RECORD
  5
16F7
330
406
100
AcDbSymbolTableRecord
100
AcDbBlockTableRecord
  2
*D10
340
0
  0
BLOCK_RECORD
  5
1718
330
406
100
AcDbSymbolTableRecord
100
AcDbBlockTableRecord
  2
*D11
340
0
  0
BLOCK_RECORD
  5
1750
330
406
100
AcDbSymbolTableRecord
100
AcDbBlockTableRecord
  2
*D12
340
0
  0
BLOCK_RECORD
  5
176A
330
406
100
AcDbSymbolTableRecord
100
AcDbBlockTableRecord
  2
*D13
340
0
  0
BLOCK_RECORD
  5
184D
330
406
100
AcDbSymbolTableRecord
100
AcDbBlockTableRecord
  2
CAT_BORDER
340
0
  0
BLOCK_RECORD
  5
18F3
330
406
100
AcDbSymbolTableRecord
100
AcDbBlockTableRecord
  2
*D15
340
0
  0
BLOCK_RECORD
  5
1900
330
406
100
AcDbSymbolTableRecord
100
AcDbBlockTableRecord
  2
*D16
340
0
  0
BLOCK_RECORD
  5
190D
330
406
100
AcDbSymbolTableRecord
100
AcDbBlockTableRecord
  2
*D17
340
0
  0
BLOCK_RECORD
  5
191A
330
406
100
AcDbSymbolTableRecord
100
AcDbBlockTableRecord
  2
*D18
340
0
  0
BLOCK_RECORD
  5
1927
330
406
100
AcDbSymbolTableRecord
100
AcDbBlockTableRecord
  2
*D19
340
0
  0
BLOCK_RECORD
  5
1934
330
406
100
AcDbSymbolTableRecord
100
AcDbBlockTableRecord
  2
*D20
340
0
  0
BLOCK_RECORD
  5
1941
330
406
100
AcDbSymbolTableRecord
100
AcDbBlockTableRecord
  2
*D21
340
0
  0
BLOCK_RECORD
  5
1A40
330
406
100
AcDbSymbolTableRecord
100
AcDbBlockTableRecord
  2
Ldr-trd
340
0
102
{BLKREFS
331
1A44
331
1A45
331
1A46
331
1A47
331
1A48
331
1A49
331
1A4A
331
1A4B
331
1A4C
331
1A4D
331
1A4E
331
1A4F
331
1A53
331
1A54
331
1A55
331
1A56
331
1A57
331
1A58
331
1A59
331
1A5A
331
1A5B
331
1A5C
331
1A5D
102
}
  0
BLOCK_RECORD
  5
1ACB
330
406
100
AcDbSymbolTableRecord
100
AcDbBlockTableRecord
  2
*X23
340
0
102
{BLKREFS
331
1ACA
331
26C0
102
}
  0
BLOCK_RECORD
  5
1D84
330
406
100
AcDbSymbolTableRecord
100
AcDbBlockTableRecord
  2
CAT_BORDER$0$BORDER-T
340
0
  0
BLOCK_RECORD
  5
1E68
330
406
100
AcDbSymbolTableRecord
100
AcDbBlockTableRecord
  2
CAT_BORDER$0$TB-ATT
340
0
  0
BLOCK_RECORD
  5
1D7D
330
406
100
AcDbSymbolTableRecord
100
AcDbBlockTableRecord
  2
CAT_BORDER$0$LINETYPE
340
0
102
{BLKREFS
331
1D7C
331
1D80
331
2725
331
2726
102
}
  0
BLOCK_RECORD
  5
21FB
330
406
100
AcDbSymbolTableRecord
100
AcDbBlockTableRecord
  2
*D27
340
0
  0
BLOCK_RECORD
  5
2207
330
406
100
AcDbSymbolTableRecord
100
AcDbBlockTableRecord
  2
*D28
340
0
  0
BLOCK_RECORD
  5
2228
330
406
100
AcDbSymbolTableRecord
100
AcDbBlockTableRecord
  2
*D29
340
0
  0
ENDTAB
  0
ENDSEC
  0
SECTION
  2
BLOCKS
  0
BLOCK
  5
44D
330
41D
100
AcDbEntity
  8
0
100
AcDbBlockBegin
  2
*MODEL_SPACE
 70
     0
 10
0.0
 20
0.0
 30
0.0
  3
*MODEL_SPACE
  1

  0
ENDBLK
  5
44E
330
41D
100
AcDbEntity
  8
0
100
AcDbBlockEnd
  0
BLOCK
  5
44B
330
41A
100
AcDbEntity
 67
     1
  8
0
100
AcDbBlockBegin
  2
*PAPER_SPACE
 70
     0
 10
0.0
 20
0.0
 30
0.0
  3
*PAPER_SPACE
  1

  0
ENDBLK
  5
44C
330
41A
100
AcDbEntity
 67
     1
  8
0
100
AcDbBlockEnd
  0
BLOCK
  5
212
330
43A
100
AcDbEntity
  8
0
100
AcDbBlockBegin
  2
LINETYPE
 70
     0
 10
0.0
 20
0.0
 30
0.0
  3
LINETYPE
  1

  0
ENDBLK
  5
213
330
43A
100
AcDbEntity
  8
0
100
AcDbBlockEnd
  0
BLOCK
  5
7E2
330
7E1
100
AcDbEntity
  8
0
100
AcDbBlockBegin
  2
*D1
 70
     1
 10
0.0
 20
0.0
 30
0.0
  3
*D1
  1

  0
LINE
  5
221E
330
7E1
100
AcDbEntity
  8
0
 62
     0
370
    -2
100
AcDbLine
 10
222.7641557271899
 20
179.8303282669452
 30
0.0
 11
244.6502090200489
 21
179.8303282669452
 31
0.0
  0
LINE
  5
221F
330
7E1
100
AcDbEntity
  8
0
 62
     0
370
    -2
100
AcDbLine
 10
223.7641557271899
 20
221.8303282669452
 30
0.0
 11
244.650209020049
 21
221.8303282669452
 31
0.0
  0
LINE
  5
2220
330
7E1
100
AcDbEntity
  8
0
 62
     0
370
    -2
100
AcDbLine
 10
242.9002090200489
 20
181.5803282669451
 30
0.0
 11
242.900209020049
 21
197.7131407669451
 31
0.0
  0
LINE
  5
2221
330
7E1
100
AcDbEntity
  8
0
 62
     0
370
    -2
100
AcDbLine
 10
242.900209020049
 20
220.0803282669452
 30
0.0
 11
242.900209020049
 21
203.9475157669452
 31
0.0
  0
SOLID
  5
2222
330
7E1
100
AcDbEntity
  8
0
 62
     0
100
AcDbTrace
 10
242.6085423533823
 20
181.5803282669451
 30
0.0
 11
243.1918756867156
 21
181.5803282669451
 31
0.0
 12
242.9002090200489
 22
179.8303282669452
 32
0.0
 13
242.9002090200489
 23
179.8303282669452
 33
0.0
  0
SOLID
  5
2223
330
7E1
100
AcDbEntity
  8
0
 62
     0
100
AcDbTrace
 10
242.6085423533823
 20
220.0803282669452
 30
0.0
 11
243.1918756867156
 21
220.0803282669452
 31
0.0
 12
242.900209020049
 22
221.8303282669452
 32
0.0
 13
242.900209020049
 23
221.8303282669452
 33
0.0
  0
MTEXT
  5
2224
330
7E1
100
AcDbEntity
  8
0
 62
     0
100
AcDbMText
 10
242.9002090200489
 20
200.8303282669452
 30
0.0
 40
2.296875
 41
0.0
 71
     5
 72
     1
  1
\A1;42"
  7
ROMANS
 73
     1
 44
1.0
1001
ACAD
1000
MTEXTBEGIN
1070
    73
1070
     1
1070
    44
1040
1.0
1070
    74
1070
     0
1000
MTEXTEND
  0
POINT
  5
2225
330
7E1
100
AcDbEntity
  8
DEFPOINTS
 62
     0
100
AcDbPoint
 10
221.0141557271899
 20
179.8303282669452
 30
0.0
  0
POINT
  5
2226
330
7E1
100
AcDbEntity
  8
DEFPOINTS
 62
     0
100
AcDbPoint
 10
222.0141557271899
 20
221.8303282669452
 30
0.0
  0
POINT
  5
2227
330
7E1
100
AcDbEntity
  8
DEFPOINTS
 62
     0
100
AcDbPoint
 10
242.900209020049
 20
221.8303282669452
 30
0.0
  0
ENDBLK
  5
7ED
330
7E1
100
AcDbEntity
  8
0
100
AcDbBlockEnd
  0
BLOCK
  5
11E5
330
11D6
100
AcDbEntity
  8
0
100
AcDbBlockBegin
  2
BORDER-T
 70
     2
 10
0.0
 20
0.0
 30
0.0
  3
BORDER-T
  1

  0
ATTDEF
  5
11D7
330
11D6
100
AcDbEntity
  8
0
 62
     5
100
AcDbText
 10
1.270598029493498
 20
16.95296065185261
 30
0.0
 40
2.25
  1

  7
ROMANS
100
AcDbAttributeDefinition
  3
SCALE
  2
SCALE
 70
     0
  0
ATTDEF
  5
11D8
330
11D6
100
AcDbEntity
  8
0
100
AcDbText
 10
261.9539163537752
 20
16.97014926946124
 30
0.0
 40
1.7518359375
  1

  7
ROMANS
 72
     4
 11
267.5431072019895
 21
17.84606723821125
 31
0.0
100
AcDbAttributeDefinition
  3
SAVED AS
  2
SAVEDAS
 70
     0
  0
ATTDEF
  5
11D9
330
11D6
100
AcDbEntity
  8
0
 62
     5
100
AcDbText
 10
66.39640383685495
 20
12.89673285282586
 30
0.0
 40
1.248161764705882
  1

 50
90.0
  7
ROMANS
 72
     4
 11
65.77232295450201
 21
13.4910955979239
 31
0.0
100
AcDbAttributeDefinition
  3
WORK ORDER (X)
  2
X
 70
     0
  0
ATTDEF
  5
11DA
330
11D6
100
AcDbEntity
  8
0
100
AcDbText
 10
112.9846649640199
 20
11.16830391662092
 30
0.0
 40
1.769029714285714
  1

  7
ROMANS
 72
     1
 11
120.7768196578975
 21
11.16830391662092
 31
0.0
100
AcDbAttributeDefinition
  3
ARCHITECT OR ENGINEER
  2
ARCHORENG
 70
     0
  0
ATTDEF
  5
11DB
330
11D6
100
AcDbEntity
  8
0
100
AcDbText
 10
109.4466055354485
 20
6.014881478758579
 30
0.0
 40
1.769029714285714
  1

  7
ROMANS
 72
     1
 11
120.7768196578975
 21
6.014881478758579
 31
0.0
100
AcDbAttributeDefinition
  3
PURCHASE ORDER
  2
PURCHASEORDER
 70
     0
  0
ATTDEF
  5
11DC
330
11D6
100
AcDbEntity
  8
0
100
AcDbText
 10
114.5430959027954
 20
0.8614590408961362
 30
0.0
 40
1.769029714285714
  1
JEB
  7
ROMANS
 72
     1
 11
120.7768196578975
 21
0.8614590408961362
 31
0.0
100
AcDbAttributeDefinition
  3
WHO ARE YOU?
  2
DRAWNBY
 70
     0
  0
ATTDEF
  5
11DD
330
11D6
100
AcDbEntity
  8
0
100
AcDbText
 10
147.829646841571
 20
6.014881478758579
 30
0.0
 40
1.769029714285714
  1

  7
ROMANS
 72
     1
 11
151.0307482293261
 21
6.014881478758579
 31
0.0
100
AcDbAttributeDefinition
  3
WORK ORDER DATE?
  2
DATE
 70
     0
  0
ATTDEF
  5
11DE
330
11D6
100
AcDbEntity
  8
0
100
AcDbText
 10
147.829646841571
 20
0.8614590408961362
 30
0.0
 40
1.769029714285714
  1

  7
ROMANS
 72
     1
 11
151.0307482293261
 21
0.8614590408961362
 31
0.0
100
AcDbAttributeDefinition
  3
WHAT IS TODAY'S DATE?
  2
DATE
 70
     0
  0
ATTDEF
  5
11DF
330
11D6
100
AcDbEntity
  8
0
100
AcDbText
 10
175.430030841571
 20
11.16830391662092
 30
0.0
 40
1.769029714285714
  1

  7
ROMANS
 72
     1
 11
181.2846768007546
 21
11.16830391662092
 31
0.0
100
AcDbAttributeDefinition
  3
PROJECT
  2
PROJECT
 70
     0
  0
ATTDEF
  5
11E0
330
11D6
100
AcDbEntity
  8
0
100
AcDbText
 10
181.7014737803464
 20
6.014881478758579
 30
0.0
 40
1.769029714285714
  1

  7
ROMANS
 72
     1
 11
189.535748229326
 21
6.014881478758579
 31
0.0
100
AcDbAttributeDefinition
  3
PURCHASER
  2
PURCHASER
 70
     0
  0
ATTDEF
  5
11E1
330
11D6
100
AcDbEntity
  8
0
100
AcDbText
 10
179.5703399027954
 20
0.8614590408962374
 30
0.0
 40
1.769029714285714
  1

  7
ROMANS
 72
     1
 11
184.0350339436118
 21
0.8614590408962374
 31
0.0
100
AcDbAttributeDefinition
  3
MODEL #
  2
MODEL
 70
     0
  0
ATTDEF
  5
11E2
330
11D6
100
AcDbEntity
  8
0
100
AcDbText
 10
211.8460167191219
 20
0.8614590408961362
 30
0.0
 40
1.769029714285714
  1
1
  7
ROMANS
 72
     1
 11
214.2889625150403
 21
0.8614590408961362
 31
0.0
100
AcDbAttributeDefinition
  3
QUANTITY
  2
QTY
 70
     0
  0
ATTDEF
  5
11E3
330
11D6
100
AcDbEntity
  8
0
100
AcDbText
 10
244.6818234129996
 20
11.16763472788734
 30
0.0
 40
1.769029714285714
  1

  7
ROMANS
 72
     1
 11
247.2932482293261
 21
11.16763472788734
 31
0.0
100
AcDbAttributeDefinition
  3
PRECISION REP
  2
REP
 70
     0
  0
ATTDEF
  5
11E4
330
11D6
100
AcDbEntity
  8
0
100
AcDbText
 10
235.9748273066308
 20
3.153238685427304
 30
0.0
 40
3.455136160714285
  1

  7
ROMANS
 72
     1
 11
247.3274175489777
 21
3.153238685427304
 31
0.0
100
AcDbAttributeDefinition
  3
SERIAL #
  2
L010000
 70
     0
  0
ENDBLK
  5
11E6
330
11D6
100
AcDbEntity
  8
0
100
AcDbBlockEnd
  0
BLOCK
  5
1222
330
1217
100
AcDbEntity
  8
0
100
AcDbBlockBegin
  2
*D3
 70
     1
 10
0.0
 20
0.0
 30
0.0
  3
*D3
  1

  0
LINE
  5
2792
330
1217
100
AcDbEntity
  8
0
 62
     0
370
    -2
100
AcDbLine
 10
139.4302677351704
 20
223.5803282669452
 30
0.0
 11
139.4302677351704
 21
230.1437360032212
 31
0.0
  0
LINE
  5
2793
330
1217
100
AcDbEntity
  8
0
 62
     0
370
    -2
100
AcDbLine
 10
114.4302677351703
 20
223.5803282669453
 30
0.0
 11
114.4302677351703
 21
230.1437360032212
 31
0.0
  0
LINE
  5
2794
330
1217
100
AcDbEntity
  8
0
 62
     0
370
    -2
100
AcDbLine
 10
141.1802677351704
 20
228.3937360032212
 30
0.0
 11
142.9302677351704
 21
228.3937360032212
 31
0.0
  0
LINE
  5
2795
330
1217
100
AcDbEntity
  8
0
 62
     0
370
    -2
100
AcDbLine
 10
112.6802677351703
 20
228.3937360032212
 30
0.0
 11
110.9302677351704
 21
228.3937360032212
 31
0.0
  0
SOLID
  5
2796
330
1217
100
AcDbEntity
  8
0
 62
     0
100
AcDbTrace
 10
141.1802677351704
 20
228.6854026698879
 30
0.0
 11
141.1802677351704
 21
228.1020693365545
 31
0.0
 12
139.4302677351704
 22
228.3937360032212
 32
0.0
 13
139.4302677351704
 23
228.3937360032212
 33
0.0
  0
SOLID
  5
2797
330
1217
100
AcDbEntity
  8
0
 62
     0
100
AcDbTrace
 10
112.6802677351703
 20
228.6854026698879
 30
0.0
 11
112.6802677351703
 21
228.1020693365545
 31
0.0
 12
114.4302677351703
 22
228.3937360032212
 32
0.0
 13
114.4302677351703
 23
228.3937360032212
 33
0.0
  0
MTEXT
  5
2798
330
1217
100
AcDbEntity
  8
0
 62
     0
100
AcDbMText
 10
126.9302677351704
 20
228.3937360032212
 30
0.0
 40
2.296875
 41
0.0
 71
     5
 72
     1
  1
\A1;24" MIN.\PX + 17"
  7
ROMANS
 73
     1
 44
1.0
1001
ACAD
1000
MTEXTBEGIN
1070
    73
1070
     1
1070
    44
1040
1.0
1070
    74
1070
     0
1000
MTEXTEND
  0
POINT
  5
2799
330
1217
100
AcDbEntity
  8
DEFPOINTS
 62
     0
100
AcDbPoint
 10
139.4302677351704
 20
221.8303282669452
 30
0.0
  0
POINT
  5
279A
330
1217
100
AcDbEntity
  8
DEFPOINTS
 62
     0
100
AcDbPoint
 10
114.4302677351703
 20
221.8303282669453
 30
0.0
  0
POINT
  5
279B
330
1217
100
AcDbEntity
  8
DEFPOINTS
 62
     0
100
AcDbPoint
 10
114.4302677351703
 20
228.3937360032212
 30
0.0
  0
ENDBLK
  5
1223
330
1217
100
AcDbEntity
  8
0
100
AcDbBlockEnd
  0
BLOCK
  5
122F
330
1225
100
AcDbEntity
  8
0
100
AcDbBlockBegin
  2
*D4
 70
     1
 10
0.0
 20
0.0
 30
0.0
  3
*D4
  1

  0
LINE
  5
225D
330
1225
100
AcDbEntity
  8
0
 62
     0
370
    -2
100
AcDbLine
 10
122.9302677351703
 20
136.0803282669452
 30
0.0
 11
122.9302677351703
 21
131.7101651218063
 31
0.0
  0
LINE
  5
225E
330
1225
100
AcDbEntity
  8
0
 62
     0
370
    -2
100
AcDbLine
 10
130.9302677351704
 20
136.0803282669452
 30
0.0
 11
130.9302677351704
 21
131.7101651218063
 31
0.0
  0
LINE
  5
225F
330
1225
100
AcDbEntity
  8
0
 62
     0
370
    -2
100
AcDbLine
 10
121.1802677351704
 20
133.4601651218063
 30
0.0
 11
119.4302677351704
 21
133.4601651218063
 31
0.0
  0
LINE
  5
2260
330
1225
100
AcDbEntity
  8
0
 62
     0
370
    -2
100
AcDbLine
 10
132.6802677351704
 20
133.4601651218063
 30
0.0
 11
134.4302677351704
 21
133.4601651218063
 31
0.0
  0
MTEXT
  5
2261
330
1225
100
AcDbEntity
  8
0
 62
     0
100
AcDbMText
 10
126.7554324334649
 20
133.6489481171386
 30
0.0
 40
2.296875
 41
0.0
 71
     5
 72
     1
  1
\A1;X
  7
ROMANS
 73
     1
 44
1.0
1001
ACAD
1000
MTEXTBEGIN
1070
    73
1070
     1
1070
    44
1040
1.0
1070
    74
1070
     0
1000
MTEXTEND
  0
SOLID
  5
2262
330
1225
100
AcDbEntity
  8
0
 62
     0
100
AcDbTrace
 10
121.1802677351704
 20
133.7518317884729
 30
0.0
 11
121.1802677351704
 21
133.1684984551396
 31
0.0
 12
122.9302677351703
 22
133.4601651218063
 32
0.0
 13
122.9302677351703
 23
133.4601651218063
 33
0.0
  0
SOLID
  5
2263
330
1225
100
AcDbEntity
  8
0
 62
     0
100
AcDbTrace
 10
132.6802677351704
 20
133.7518317884729
 30
0.0
 11
132.6802677351704
 21
133.1684984551396
 31
0.0
 12
130.9302677351704
 22
133.4601651218063
 32
0.0
 13
130.9302677351704
 23
133.4601651218063
 33
0.0
  0
POINT
  5
2264
330
1225
100
AcDbEntity
  8
DEFPOINTS
 62
     0
100
AcDbPoint
 10
122.9302677351703
 20
137.8303282669451
 30
0.0
  0
POINT
  5
2265
330
1225
100
AcDbEntity
  8
DEFPOINTS
 62
     0
100
AcDbPoint
 10
130.9302677351704
 20
137.8303282669451
 30
0.0
  0
POINT
  5
2266
330
1225
100
AcDbEntity
  8
DEFPOINTS
 62
     0
100
AcDbPoint
 10
130.9302677351704
 20
133.4601651218063
 30
0.0
  0
ENDBLK
  5
1230
330
1225
100
AcDbEntity
  8
0
100
AcDbBlockEnd
  0
BLOCK
  5
1262
330
1257
100
AcDbEntity
  8
0
100
AcDbBlockBegin
  2
*D5
 70
     1
 10
0.0
 20
0.0
 30
0.0
  3
*D5
  1

  0
LINE
  5
2214
330
1257
100
AcDbEntity
  8
0
 62
     0
370
    -2
100
AcDbLine
 10
40.76884709526204
 20
179.8303282669452
 30
0.0
 11
23.10468019726444
 21
179.8303282669452
 31
0.0
  0
LINE
  5
2215
330
1257
100
AcDbEntity
  8
0
 62
     0
370
    -2
100
AcDbLine
 10
39.76884709526205
 20
221.8303282669452
 30
0.0
 11
23.10468019726445
 21
221.8303282669452
 31
0.0
  0
LINE
  5
2216
330
1257
100
AcDbEntity
  8
0
 62
     0
370
    -2
100
AcDbLine
 10
24.85468019726444
 20
181.5803282669451
 30
0.0
 11
24.85468019726444
 21
197.7131407669451
 31
0.0
  0
LINE
  5
2217
330
1257
100
AcDbEntity
  8
0
 62
     0
370
    -2
100
AcDbLine
 10
24.85468019726445
 20
220.0803282669452
 30
0.0
 11
24.85468019726445
 21
203.9475157669452
 31
0.0
  0
SOLID
  5
2218
330
1257
100
AcDbEntity
  8
0
 62
     0
100
AcDbTrace
 10
24.56301353059777
 20
181.5803282669451
 30
0.0
 11
25.14634686393111
 21
181.5803282669451
 31
0.0
 12
24.85468019726444
 22
179.8303282669452
 32
0.0
 13
24.85468019726444
 23
179.8303282669452
 33
0.0
  0
SOLID
  5
2219
330
1257
100
AcDbEntity
  8
0
 62
     0
100
AcDbTrace
 10
24.56301353059779
 20
220.0803282669452
 30
0.0
 11
25.14634686393112
 21
220.0803282669452
 31
0.0
 12
24.85468019726445
 22
221.8303282669452
 32
0.0
 13
24.85468019726445
 23
221.8303282669452
 33
0.0
  0
MTEXT
  5
221A
330
1257
100
AcDbEntity
  8
0
 62
     0
100
AcDbMText
 10
24.85468019726441
 20
200.8303282669452
 30
0.0
 40
2.296875
 41
0.0
 71
     5
 72
     1
  1
\A1;42"
  7
ROMANS
 73
     1
 44
1.0
1001
ACAD
1000
MTEXTBEGIN
1070
    73
1070
     1
1070
    44
1040
1.0
1070
    74
1070
     0
1000
MTEXTEND
  0
POINT
  5
221B
330
1257
100
AcDbEntity
  8
DEFPOINTS
 62
     0
100
AcDbPoint
 10
42.51884709526204
 20
179.8303282669452
 30
0.0
  0
POINT
  5
221C
330
1257
100
AcDbEntity
  8
DEFPOINTS
 62
     0
100
AcDbPoint
 10
41.51884709526204
 20
221.8303282669452
 30
0.0
  0
POINT
  5
221D
330
1257
100
AcDbEntity
  8
DEFPOINTS
 62
     0
100
AcDbPoint
 10
24.85468019726445
 20
221.8303282669452
 30
0.0
  0
ENDBLK
  5
1263
330
1257
100
AcDbEntity
  8
0
100
AcDbBlockEnd
  0
BLOCK
  5
126F
330
1264
100
AcDbEntity
  8
0
100
AcDbBlockBegin
  2
*D6
 70
     1
 10
0.0
 20
0.0
 30
0.0
  3
*D6
  1

  0
LINE
  5
2235
330
1264
100
AcDbEntity
  8
0
 62
     0
370
    -2
100
AcDbLine
 10
41.51884709526204
 20
140.0803282669452
 30
0.0
 11
41.51884709526204
 21
135.0239070816004
 31
0.0
  0
LINE
  5
2236
330
1264
100
AcDbEntity
  8
0
 62
     0
370
    -2
100
AcDbLine
 10
67.51884709526206
 20
140.0803282669452
 30
0.0
 11
67.51884709526206
 21
135.0239070816004
 31
0.0
  0
LINE
  5
2237
330
1264
100
AcDbEntity
  8
0
 62
     0
370
    -2
100
AcDbLine
 10
43.26884709526204
 20
136.7739070816004
 30
0.0
 11
50.08915959526206
 21
136.7739070816004
 31
0.0
  0
LINE
  5
2238
330
1264
100
AcDbEntity
  8
0
 62
     0
370
    -2
100
AcDbLine
 10
65.76884709526206
 20
136.7739070816004
 30
0.0
 11
58.94853459526205
 21
136.7739070816004
 31
0.0
  0
SOLID
  5
2239
330
1264
100
AcDbEntity
  8
0
 62
     0
100
AcDbTrace
 10
43.26884709526204
 20
137.0655737482671
 30
0.0
 11
43.26884709526204
 21
136.4822404149338
 31
0.0
 12
41.51884709526204
 22
136.7739070816004
 32
0.0
 13
41.51884709526204
 23
136.7739070816004
 33
0.0
  0
SOLID
  5
223A
330
1264
100
AcDbEntity
  8
0
 62
     0
100
AcDbTrace
 10
65.76884709526206
 20
137.0655737482671
 30
0.0
 11
65.76884709526206
 21
136.4822404149338
 31
0.0
 12
67.51884709526206
 22
136.7739070816004
 32
0.0
 13
67.51884709526206
 23
136.7739070816004
 33
0.0
  0
MTEXT
  5
223B
330
1264
100
AcDbEntity
  8
0
 62
     0
100
AcDbMText
 10
54.51884709526205
 20
136.7739070816004
 30
0.0
 40
2.296875
 41
0.0
 71
     5
 72
     1
  1
\A1;26"
  7
ROMANS
 73
     1
 44
1.0
1001
ACAD
1000
MTEXTBEGIN
1070
    73
1070
     1
1070
    44
1040
1.0
1070
    74
1070
     0
1000
MTEXTEND
  0
POINT
  5
223C
330
1264
100
AcDbEntity
  8
DEFPOINTS
 62
     0
100
AcDbPoint
 10
41.51884709526204
 20
141.8303282669451
 30
0.0
  0
POINT
  5
223D
330
1264
100
AcDbEntity
  8
DEFPOINTS
 62
     0
100
AcDbPoint
 10
67.51884709526206
 20
141.8303282669451
 30
0.0
  0
POINT
  5
223E
330
1264
100
AcDbEntity
  8
DEFPOINTS
 62
     0
100
AcDbPoint
 10
67.51884709526206
 20
136.7739070816004
 30
0.0
  0
ENDBLK
  5
1270
330
1264
100
AcDbEntity
  8
0
100
AcDbBlockEnd
  0
BLOCK
  5
1287
330
127C
100
AcDbEntity
  8
0
100
AcDbBlockBegin
  2
*D7
 70
     1
 10
0.0
 20
0.0
 30
0.0
  3
*D7
  1

  0
LINE
  5
2267
330
127C
100
AcDbEntity
  8
0
 62
     0
370
    -2
100
AcDbLine
 10
40.76884709526204
 20
179.8303282669452
 30
0.0
 11
23.10468019726444
 21
179.8303282669452
 31
0.0
  0
LINE
  5
2268
330
127C
100
AcDbEntity
  8
0
 62
     0
370
    -2
100
AcDbLine
 10
39.76884709526205
 20
141.8303282669451
 30
0.0
 11
23.10468019726444
 21
141.8303282669451
 31
0.0
  0
LINE
  5
2269
330
127C
100
AcDbEntity
  8
0
 62
     0
370
    -2
100
AcDbLine
 10
24.85468019726444
 20
178.0803282669451
 30
0.0
 11
24.85468019726444
 21
164.0568907669452
 31
0.0
  0
LINE
  5
226A
330
127C
100
AcDbEntity
  8
0
 62
     0
370
    -2
100
AcDbLine
 10
24.85468019726444
 20
143.5803282669452
 30
0.0
 11
24.85468019726444
 21
157.6037657669451
 31
0.0
  0
SOLID
  5
226B
330
127C
100
AcDbEntity
  8
0
 62
     0
100
AcDbTrace
 10
24.56301353059778
 20
178.0803282669451
 30
0.0
 11
25.14634686393111
 21
178.0803282669451
 31
0.0
 12
24.85468019726444
 22
179.8303282669452
 32
0.0
 13
24.85468019726444
 23
179.8303282669452
 33
0.0
  0
SOLID
  5
226C
330
127C
100
AcDbEntity
  8
0
 62
     0
100
AcDbTrace
 10
24.56301353059777
 20
143.5803282669452
 30
0.0
 11
25.1463468639311
 21
143.5803282669452
 31
0.0
 12
24.85468019726444
 22
141.8303282669451
 32
0.0
 13
24.85468019726444
 23
141.8303282669451
 33
0.0
  0
MTEXT
  5
226D
330
127C
100
AcDbEntity
  8
0
 62
     0
100
AcDbMText
 10
24.85468019726442
 20
160.8303282669451
 30
0.0
 40
2.296875
 41
0.0
 71
     5
 72
     1
  1
\A1;AS REQ'D
  7
ROMANS
 73
     1
 44
1.0
1001
ACAD
1000
MTEXTBEGIN
1070
    73
1070
     1
1070
    44
1040
1.0
1070
    74
1070
     0
1000
MTEXTEND
  0
POINT
  5
226E
330
127C
100
AcDbEntity
  8
DEFPOINTS
 62
     0
100
AcDbPoint
 10
42.51884709526204
 20
179.8303282669452
 30
0.0
  0
POINT
  5
226F
330
127C
100
AcDbEntity
  8
DEFPOINTS
 62
     0
100
AcDbPoint
 10
41.51884709526204
 20
141.8303282669451
 30
0.0
  0
POINT
  5
2270
330
127C
100
AcDbEntity
  8
DEFPOINTS
 62
     0
100
AcDbPoint
 10
24.85468019726444
 20
141.8303282669451
 30
0.0
  0
ENDBLK
  5
1288
330
127C
100
AcDbEntity
  8
0
100
AcDbBlockEnd
  0
BLOCK
  5
12A9
330
129E
100
AcDbEntity
  8
0
100
AcDbBlockBegin
  2
*D8
 70
     1
 10
0.0
 20
0.0
 30
0.0
  3
*D8
  1

  0
LINE
  5
2869
330
129E
100
AcDbEntity
  8
0
 62
     0
370
    -2
100
AcDbLine
 10
222.7641557271899
 20
179.8303282669452
 30
0.0
 11
244.650209020049
 21
179.8303282669452
 31
0.0
  0
LINE
  5
286A
330
129E
100
AcDbEntity
  8
0
 62
     0
370
    -2
100
AcDbLine
 10
223.7641557271899
 20
35.83032826694517
 30
0.0
 11
244.6502090200489
 21
35.83032826694517
 31
0.0
  0
LINE
  5
286B
330
129E
100
AcDbEntity
  8
0
 62
     0
370
    -2
100
AcDbLine
 10
242.900209020049
 20
178.0803282669451
 30
0.0
 11
242.900209020049
 21
118.6037657669452
 31
0.0
  0
LINE
  5
286C
330
129E
100
AcDbEntity
  8
0
 62
     0
370
    -2
100
AcDbLine
 10
242.9002090200489
 20
37.58032826694517
 30
0.0
 11
242.900209020049
 21
97.05689076694518
 31
0.0
  0
SOLID
  5
286D
330
129E
100
AcDbEntity
  8
0
 62
     0
100
AcDbTrace
 10
242.6085423533823
 20
178.0803282669451
 30
0.0
 11
243.1918756867156
 21
178.0803282669451
 31
0.0
 12
242.900209020049
 22
179.8303282669452
 32
0.0
 13
242.900209020049
 23
179.8303282669452
 33
0.0
  0
SOLID
  5
286E
330
129E
100
AcDbEntity
  8
0
 62
     0
100
AcDbTrace
 10
242.6085423533823
 20
37.58032826694517
 30
0.0
 11
243.1918756867156
 21
37.58032826694517
 31
0.0
 12
242.9002090200489
 22
35.83032826694517
 32
0.0
 13
242.9002090200489
 23
35.83032826694517
 33
0.0
  0
MTEXT
  5
286F
330
129E
100
AcDbEntity
  8
0
 62
     0
100
AcDbMText
 10
242.9002090200489
 20
107.8303282669452
 30
0.0
 40
2.296875
 41
0.0
 71
     5
 72
     1
  1
\A1;\P\P\PWALL HEIGHT\P +6" 
  7
ROMANS
 73
     1
 44
1.0
1001
ACAD
1000
MTEXTBEGIN
1070
    73
1070
     1
1070
    44
1040
1.0
1070
    74
1070
     0
1000
MTEXTEND
  0
POINT
  5
2870
330
129E
100
AcDbEntity
  8
DEFPOINTS
 62
     0
100
AcDbPoint
 10
221.0141557271899
 20
179.8303282669452
 30
0.0
  0
POINT
  5
2871
330
129E
100
AcDbEntity
  8
DEFPOINTS
 62
     0
100
AcDbPoint
 10
222.0141557271899
 20
35.83032826694517
 30
0.0
  0
POINT
  5
2872
330
129E
100
AcDbEntity
  8
DEFPOINTS
 62
     0
100
AcDbPoint
 10
242.9002090200489
 20
35.83032826694517
 30
0.0
  0
ENDBLK
  5
12AA
330
129E
100
AcDbEntity
  8
0
100
AcDbBlockEnd
  0
BLOCK
  5
12E8
330
12DE
100
AcDbEntity
  8
0
100
AcDbBlockBegin
  2
*D9
 70
     1
 10
0.0
 20
0.0
 30
0.0
  3
*D9
  1

  0
LINE
  5
227B
330
12DE
100
AcDbEntity
  8
0
 62
     0
370
    -2
100
AcDbLine
 10
141.1802677351704
 20
44.83032826694517
 30
0.0
 11
152.7064869452525
 21
44.83032826694516
 31
0.0
  0
LINE
  5
227C
330
12DE
100
AcDbEntity
  8
0
 62
     0
370
    -2
100
AcDbLine
 10
141.1802677351704
 20
35.83032826694517
 30
0.0
 11
152.7064869452525
 21
35.83032826694517
 31
0.0
  0
LINE
  5
227D
330
12DE
100
AcDbEntity
  8
0
 62
     0
370
    -2
100
AcDbLine
 10
150.9564869452525
 20
46.58032826694516
 30
0.0
 11
150.9564869452525
 21
48.33032826694516
 31
0.0
  0
LINE
  5
227E
330
12DE
100
AcDbEntity
  8
0
 62
     0
370
    -2
100
AcDbLine
 10
150.9564869452525
 20
34.08032826694517
 30
0.0
 11
150.9564869452525
 21
32.33032826694517
 31
0.0
  0
MTEXT
  5
227F
330
12DE
100
AcDbEntity
  8
0
 62
     0
100
AcDbMText
 10
151.1497991047659
 20
40.43960603800836
 30
0.0
 40
2.296875
 41
0.0
 71
     5
 72
     1
  1
\A1;AS REQ'D
  7
ROMANS
 73
     1
 44
1.0
1001
ACAD
1000
MTEXTBEGIN
1070
    73
1070
     1
1070
    44
1040
1.0
1070
    74
1070
     0
1000
MTEXTEND
  0
SOLID
  5
2280
330
12DE
100
AcDbEntity
  8
0
 62
     0
100
AcDbTrace
 10
150.6648202785859
 20
46.58032826694516
 30
0.0
 11
151.2481536119192
 21
46.58032826694516
 31
0.0
 12
150.9564869452525
 22
44.83032826694516
 32
0.0
 13
150.9564869452525
 23
44.83032826694516
 33
0.0
  0
SOLID
  5
2281
330
12DE
100
AcDbEntity
  8
0
 62
     0
100
AcDbTrace
 10
150.6648202785859
 20
34.08032826694517
 30
0.0
 11
151.2481536119192
 21
34.08032826694517
 31
0.0
 12
150.9564869452525
 22
35.83032826694517
 32
0.0
 13
150.9564869452525
 23
35.83032826694517
 33
0.0
  0
POINT
  5
2282
330
12DE
100
AcDbEntity
  8
DEFPOINTS
 62
     0
100
AcDbPoint
 10
139.4302677351704
 20
44.83032826694517
 30
0.0
  0
POINT
  5
2283
330
12DE
100
AcDbEntity
  8
DEFPOINTS
 62
     0
100
AcDbPoint
 10
139.4302677351704
 20
35.83032826694517
 30
0.0
  0
POINT
  5
2284
330
12DE
100
AcDbEntity
  8
DEFPOINTS
 62
     0
100
AcDbPoint
 10
150.9564869452525
 20
35.83032826694517
 30
0.0
  0
ENDBLK
  5
12E9
330
12DE
100
AcDbEntity
  8
0
100
AcDbBlockEnd
  0
BLOCK
  5
1702
330
16F7
100
AcDbEntity
  8
0
100
AcDbBlockBegin
  2
*D10
 70
     1
 10
0.0
 20
0.0
 30
0.0
  3
*D10
  1

  0
LINE
  5
2249
330
16F7
100
AcDbEntity
  8
0
 62
     0
370
    -2
100
AcDbLine
 10
141.1802677351704
 20
118.8303282669451
 30
0.0
 11
152.7064869452526
 21
118.8303282669451
 31
0.0
  0
LINE
  5
224A
330
16F7
100
AcDbEntity
  8
0
 62
     0
370
    -2
100
AcDbLine
 10
141.1802677351704
 20
166.8303282669451
 30
0.0
 11
152.7064869452526
 21
166.8303282669451
 31
0.0
  0
LINE
  5
224B
330
16F7
100
AcDbEntity
  8
0
 62
     0
370
    -2
100
AcDbLine
 10
150.9564869452526
 20
120.5803282669452
 30
0.0
 11
150.9564869452526
 21
139.7131407669451
 31
0.0
  0
LINE
  5
224C
330
16F7
100
AcDbEntity
  8
0
 62
     0
370
    -2
100
AcDbLine
 10
150.9564869452526
 20
165.0803282669452
 30
0.0
 11
150.9564869452526
 21
145.9475157669452
 31
0.0
  0
SOLID
  5
224D
330
16F7
100
AcDbEntity
  8
0
 62
     0
100
AcDbTrace
 10
150.6648202785859
 20
120.5803282669452
 30
0.0
 11
151.2481536119192
 21
120.5803282669452
 31
0.0
 12
150.9564869452526
 22
118.8303282669451
 32
0.0
 13
150.9564869452526
 23
118.8303282669451
 33
0.0
  0
SOLID
  5
224E
330
16F7
100
AcDbEntity
  8
0
 62
     0
100
AcDbTrace
 10
150.6648202785859
 20
165.0803282669452
 30
0.0
 11
151.2481536119192
 21
165.0803282669452
 31
0.0
 12
150.9564869452526
 22
166.8303282669451
 32
0.0
 13
150.9564869452526
 23
166.8303282669451
 33
0.0
  0
MTEXT
  5
224F
330
16F7
100
AcDbEntity
  8
0
 62
     0
100
AcDbMText
 10
150.9564869452526
 20
142.8303282669452
 30
0.0
 40
2.296875
 41
0.0
 71
     5
 72
     1
  1
\A1;4' TYP
  7
ROMANS
 73
     1
 44
1.0
1001
ACAD
1000
MTEXTBEGIN
1070
    73
1070
     1
1070
    44
1040
1.0
1070
    74
1070
     0
1000
MTEXTEND
  0
POINT
  5
2250
330
16F7
100
AcDbEntity
  8
DEFPOINTS
 62
     0
100
AcDbPoint
 10
139.4302677351704
 20
118.8303282669451
 30
0.0
  0
POINT
  5
2251
330
16F7
100
AcDbEntity
  8
DEFPOINTS
 62
     0
100
AcDbPoint
 10
139.4302677351704
 20
166.8303282669451
 30
0.0
  0
POINT
  5
2252
330
16F7
100
AcDbEntity
  8
DEFPOINTS
 62
     0
100
AcDbPoint
 10
150.9564869452526
 20
166.8303282669451
 30
0.0
  0
ENDBLK
  5
1703
330
16F7
100
AcDbEntity
  8
0
100
AcDbBlockEnd
  0
BLOCK
  5
1722
330
1718
100
AcDbEntity
  8
0
100
AcDbBlockBegin
  2
*D11
 70
     1
 10
0.0
 20
0.0
 30
0.0
  3
*D11
  1

  0
LINE
  5
223F
330
1718
100
AcDbEntity
  8
0
 62
     0
370
    -2
100
AcDbLine
 10
138.1802677351704
 20
179.8303282669452
 30
0.0
 11
152.7064869452526
 21
179.8303282669452
 31
0.0
  0
LINE
  5
2240
330
1718
100
AcDbEntity
  8
0
 62
     0
370
    -2
100
AcDbLine
 10
141.1802677351704
 20
166.8303282669451
 30
0.0
 11
152.7064869452526
 21
166.8303282669451
 31
0.0
  0
LINE
  5
2241
330
1718
100
AcDbEntity
  8
0
 62
     0
370
    -2
100
AcDbLine
 10
150.9564869452526
 20
178.0803282669451
 30
0.0
 11
150.9564869452526
 21
177.0571501745399
 31
0.0
  0
LINE
  5
2242
330
1718
100
AcDbEntity
  8
0
 62
     0
370
    -2
100
AcDbLine
 10
150.9564869452526
 20
168.5803282669452
 30
0.0
 11
150.9564869452526
 21
170.8227751745399
 31
0.0
  0
MTEXT
  5
2243
330
1718
100
AcDbEntity
  8
0
 62
     0
100
AcDbMText
 10
150.8695154114635
 20
173.9399626745399
 30
0.0
 40
2.296875
 41
0.0
 71
     5
 72
     1
  1
\A1;13"
  7
ROMANS
 73
     1
 44
1.0
1001
ACAD
1000
MTEXTBEGIN
1070
    73
1070
     1
1070
    44
1040
1.0
1070
    74
1070
     0
1000
MTEXTEND
  0
SOLID
  5
2244
330
1718
100
AcDbEntity
  8
0
 62
     0
100
AcDbTrace
 10
150.6648202785859
 20
178.0803282669451
 30
0.0
 11
151.2481536119192
 21
178.0803282669451
 31
0.0
 12
150.9564869452526
 22
179.8303282669452
 32
0.0
 13
150.9564869452526
 23
179.8303282669452
 33
0.0
  0
SOLID
  5
2245
330
1718
100
AcDbEntity
  8
0
 62
     0
100
AcDbTrace
 10
150.6648202785859
 20
168.5803282669452
 30
0.0
 11
151.2481536119192
 21
168.5803282669452
 31
0.0
 12
150.9564869452526
 22
166.8303282669451
 32
0.0
 13
150.9564869452526
 23
166.8303282669451
 33
0.0
  0
POINT
  5
2246
330
1718
100
AcDbEntity
  8
DEFPOINTS
 62
     0
100
AcDbPoint
 10
136.4302677351704
 20
179.8303282669452
 30
0.0
  0
POINT
  5
2247
330
1718
100
AcDbEntity
  8
DEFPOINTS
 62
     0
100
AcDbPoint
 10
139.4302677351704
 20
166.8303282669451
 30
0.0
  0
POINT
  5
2248
330
1718
100
AcDbEntity
  8
DEFPOINTS
 62
     0
100
AcDbPoint
 10
150.9564869452526
 20
166.8303282669451
 30
0.0
  0
ENDBLK
  5
1723
330
1718
100
AcDbEntity
  8
0
100
AcDbBlockEnd
  0
BLOCK
  5
175B
330
1750
100
AcDbEntity
  8
0
100
AcDbBlockBegin
  2
*D12
 70
     1
 10
0.0
 20
0.0
 30
0.0
  3
*D12
  1

  0
LINE
  5
2285
330
1750
100
AcDbEntity
  8
0
 62
     0
370
    -2
100
AcDbLine
 10
121.1802677351704
 20
173.8303282669451
 30
0.0
 11
97.05294560514731
 21
173.8303282669451
 31
0.0
  0
LINE
  5
2286
330
1750
100
AcDbEntity
  8
0
 62
     0
370
    -2
100
AcDbLine
 10
102.1239412491804
 20
137.8303282669451
 30
0.0
 11
97.0529456051473
 21
137.8303282669451
 31
0.0
  0
LINE
  5
2287
330
1750
100
AcDbEntity
  8
0
 62
     0
370
    -2
100
AcDbLine
 10
98.80294560514732
 20
172.0803282669451
 30
0.0
 11
98.80294560514732
 21
166.3850157669451
 31
0.0
  0
LINE
  5
2288
330
1750
100
AcDbEntity
  8
0
 62
     0
370
    -2
100
AcDbLine
 10
98.8029456051473
 20
139.5803282669451
 30
0.0
 11
98.8029456051473
 21
145.2756407669451
 31
0.0
  0
SOLID
  5
2289
330
1750
100
AcDbEntity
  8
0
 62
     0
100
AcDbTrace
 10
98.51127893848065
 20
172.0803282669451
 30
0.0
 11
99.09461227181399
 21
172.0803282669451
 31
0.0
 12
98.80294560514732
 22
173.8303282669451
 32
0.0
 13
98.80294560514732
 23
173.8303282669451
 33
0.0
  0
SOLID
  5
228A
330
1750
100
AcDbEntity
  8
0
 62
     0
100
AcDbTrace
 10
98.51127893848063
 20
139.5803282669451
 30
0.0
 11
99.09461227181397
 21
139.5803282669451
 31
0.0
 12
98.8029456051473
 22
137.8303282669451
 32
0.0
 13
98.8029456051473
 23
137.8303282669451
 33
0.0
  0
MTEXT
  5
228B
330
1750
100
AcDbEntity
  8
0
 62
     0
100
AcDbMText
 10
98.80294560514728
 20
155.8303282669452
 30
0.0
 40
2.296875
 41
0.0
 71
     5
 72
     1
  1
\A1;\P\P\PPARAPET\PHEIGHT
  7
ROMANS
 73
     1
 44
1.0
1001
ACAD
1000
MTEXTBEGIN
1070
    73
1070
     1
1070
    44
1040
1.0
1070
    74
1070
     0
1000
MTEXTEND
  0
POINT
  5
228C
330
1750
100
AcDbEntity
  8
DEFPOINTS
 62
     0
100
AcDbPoint
 10
122.9302677351703
 20
173.8303282669451
 30
0.0
  0
POINT
  5
228D
330
1750
100
AcDbEntity
  8
DEFPOINTS
 62
     0
100
AcDbPoint
 10
103.8739412491804
 20
137.8303282669451
 30
0.0
  0
POINT
  5
228E
330
1750
100
AcDbEntity
  8
DEFPOINTS
 62
     0
100
AcDbPoint
 10
98.8029456051473
 20
137.8303282669451
 30
0.0
  0
ENDBLK
  5
175C
330
1750
100
AcDbEntity
  8
0
100
AcDbBlockEnd
  0
BLOCK
  5
1775
330
176A
100
AcDbEntity
  8
0
100
AcDbBlockBegin
  2
*D13
 70
     1
 10
0.0
 20
0.0
 30
0.0
  3
*D13
  1

  0
LINE
  5
287A
330
176A
100
AcDbEntity
  8
0
 62
     0
370
    -2
100
AcDbLine
 10
121.1802677351704
 20
173.8303282669451
 30
0.0
 11
80.32836181456406
 21
173.8303282669451
 31
0.0
  0
LINE
  5
287B
330
176A
100
AcDbEntity
  8
0
 62
     0
370
    -2
100
AcDbLine
 10
129.1802677351704
 20
35.83032826694517
 30
0.0
 11
80.32836181456403
 21
35.83032826694518
 31
0.0
  0
LINE
  5
287C
330
176A
100
AcDbEntity
  8
0
 62
     0
370
    -2
100
AcDbLine
 10
82.07836181456405
 20
172.0803282669451
 30
0.0
 11
82.07836181456405
 21
106.1962413764874
 31
0.0
  0
LINE
  5
287D
330
176A
100
AcDbEntity
  8
0
 62
     0
370
    -2
100
AcDbLine
 10
82.07836181456404
 20
37.58032826694518
 30
0.0
 11
82.07836181456404
 21
88.91499137648747
 31
0.0
  0
MTEXT
  5
287E
330
176A
100
AcDbEntity
  8
0
 62
     0
100
AcDbMText
 10
82.07836181456404
 20
97.55561637648748
 30
0.0
 40
2.296875
 41
0.0
 71
     5
 72
     1
  1
\A1;\P\P\PWALL HEIGHT
  7
ROMANS
 73
     1
 44
1.0
1001
ACAD
1000
MTEXTBEGIN
1070
    73
1070
     1
1070
    44
1040
1.0
1070
    74
1070
     0
1000
MTEXTEND
  0
SOLID
  5
287F
330
176A
100
AcDbEntity
  8
0
 62
     0
100
AcDbTrace
 10
81.78669514789739
 20
172.0803282669451
 30
0.0
 11
82.37002848123074
 21
172.0803282669451
 31
0.0
 12
82.07836181456405
 22
173.8303282669451
 32
0.0
 13
82.07836181456405
 23
173.8303282669451
 33
0.0
  0
SOLID
  5
2880
330
176A
100
AcDbEntity
  8
0
 62
     0
100
AcDbTrace
 10
81.78669514789737
 20
37.58032826694518
 30
0.0
 11
82.3700284812307
 21
37.58032826694518
 31
0.0
 12
82.07836181456404
 22
35.83032826694518
 32
0.0
 13
82.07836181456404
 23
35.83032826694518
 33
0.0
  0
POINT
  5
2881
330
176A
100
AcDbEntity
  8
DEFPOINTS
 62
     0
100
AcDbPoint
 10
122.9302677351703
 20
173.8303282669451
 30
0.0
  0
POINT
  5
2882
330
176A
100
AcDbEntity
  8
DEFPOINTS
 62
     0
100
AcDbPoint
 10
130.9302677351704
 20
35.83032826694517
 30
0.0
  0
POINT
  5
2883
330
176A
100
AcDbEntity
  8
DEFPOINTS
 62
     0
100
AcDbPoint
 10
82.07836181456404
 20
35.83032826694518
 30
0.0
  0
ENDBLK
  5
1776
330
176A
100
AcDbEntity
  8
0
100
AcDbBlockEnd
  0
BLOCK
  5
184E
330
184D
100
AcDbEntity
  8
0
100
AcDbBlockBegin
  2
CAT_BORDER
 70
     0
 10
-0.7091800116219247
 20
15.8157349101412
 30
0.0
  3
CAT_BORDER
  1
G:\DWG\STAIR\STANDARD\X-REF\CAT_BORDER.dwg
  0
TEXT
  5
1ABD
330
184D
100
AcDbEntity
  8
0
 62
     7
100
AcDbText
 10
14.88063647735445
 20
3.555192752089299
 30
0.0
 40
1.424754602022191
  1
Ph: (423) 586-2265 Fax: (423) 586-2091
  7
CAT_BORDER$0$ROMANS
100
AcDbText
  0
TEXT
  5
1ABF
330
184D
100
AcDbEntity
  8
0
 62
     7
100
AcDbText
 10
14.08259024903724
 20
5.861938298220397
 30
0.0
 40
1.424754602022191
  1
P.O. BOX 2279 Morristown, TN 37816-2279
  7
CAT_BORDER$0$ROMANS
100
AcDbText
  0
POLYLINE
  5
1AC0
330
184D
100
AcDbEntity
  8
0
 62
     7
100
AcDb2dPolyline
 66
     1
 10
0.0
 20
0.0
 30
0.0
1001
ACAD
1000
ASC_BOUNDS
1002
{
1070
    19
1002
}
  0
VERTEX
  5
1AC1
330
1AC0
100
AcDbEntity
  8
0
 62
     7
100
AcDbVertex
100
AcDb2dVertex
 10
8.766680817386179
 20
6.443475067235914
 30
0.0
  0
VERTEX
  5
1AC2
330
1AC0
100
AcDbEntity
  8
0
 62
     7
100
AcDbVertex
100
AcDb2dVertex
 10
8.994566881815797
 20
6.559590470402541
 30
0.0
1001
ACAD
1000
ASC_BOUNDS
1002
{
1070
    19
1002
}
  0
VERTEX
  5
1AC3
330
1AC0
100
AcDbEntity
  8
0
 62
     7
100
AcDbVertex
100
AcDb2dVertex
 10
10.52763436609123
 20
3.491790326072928
 30
0.0
1001
ACAD
1000
ASC_BOUNDS
1002
{
1070
    19
1002
}
  0
VERTEX
  5
1AC4
330
1AC0
100
AcDbEntity
  8
0
 62
     7
100
AcDbVertex
100
AcDb2dVertex
 10
10.03502769416031
 20
3.494898529831843
 30
0.0
  0
VERTEX
  5
1AC5
330
1AC0
100
AcDbEntity
  8
0
 62
     7
100
AcDbVertex
100
AcDb2dVertex
 10
8.60317326800528
 20
6.36016262307789
 30
0.0
  0
SEQEND
  5
1AC6
330
1AC0
100
AcDbEntity
  8
0
 62
     7
  0
TEXT
  5
1AC7
330
184D
100
AcDbEntity
  8
0
 62
     7
100
AcDbText
 10
9.015369284921122
 20
8.285226862434919
 30
0.0
 40
2.328886132939683
  1
Precision Ladders, LLC
  7
CAT_BORDER$0$STYLE1
100
AcDbText
  0
CIRCLE
  5
1AC9
330
184D
100
AcDbEntity
  8
0
100
AcDbCircle
 10
7.214644270335539
 20
7.943780927853118
 30
0.0
 40
6.386783474246639
1001
ACAD
1000
ASC_BOUNDS
1002
{
1070
    19
1002
}
  0
INSERT
  5
1ACA
330
184D
100
AcDbEntity
  8
0
100
AcDbBlockReference
  2
*X23
 10
26.35103919121864
 20
151.2550454807789
 30
0.0
 41
0.5167726248169388
 42
0.5167726248169388
 43
0.5167726248169388
1001
ACAD
1000
HATCH
1002
{
1070
    19
1000
ANSI31
1040
0.8843871093750001
1040
0.0
1002
}
  0
LWPOLYLINE
  5
1D18
330
184D
100
AcDbEntity
  8
0
 62
     7
100
AcDbPolyline
 90
        4
 70
     1
 43
0.0
 10
2.975488579343775
 20
11.20574487544475
 10
2.975488579343775
 20
11.66813709808382
 10
7.899965750449309
 20
11.66813709808382
 10
7.899965750449309
 20
11.20574487544475
1001
ACAD
1000
ASC_BOUNDS
1002
{
1070
    19
1005
0
1005
0
1002
}
  0
LINE
  5
1D19
330
184D
100
AcDbEntity
  8
0
 62
     7
100
AcDbLine
 10
3.147317460242413
 20
11.15583866480141
 30
0.0
 11
5.194053803500192
 21
7.138892415524502
 31
0.0
1001
ACAD
1000
ASC_BOUNDS
1002
{
1070
    19
1002
}
  0
LWPOLYLINE
  5
1D1A
330
184D
100
AcDbEntity
  8
0
 62
     7
100
AcDbPolyline
 90
        4
 70
     0
 43
0.0
 10
3.043241497727863
 20
11.20371728648946
 10
5.210472883142562
 20
6.950286201614057
 10
5.200585015452042
 20
6.945248081384521
 10
3.033353630037338
 20
11.19867916625988
1001
ACAD
1000
ASC_BOUNDS
1002
{
1070
    19
1002
}
  0
LINE
  5
1D1B
330
184D
100
AcDbEntity
  8
0
 62
     7
100
AcDbLine
 10
3.085518287176609
 20
11.12435041336665
 30
0.0
 11
3.147317460242413
 21
11.15583866480141
 31
0.0
1001
ACAD
1000
ASC_BOUNDS
1002
{
1070
    19
1002
}
  0
LINE
  5
1D1C
330
184D
100
AcDbEntity
  8
0
 62
     7
100
AcDbLine
 10
3.147317460242413
 20
11.15583866480141
 30
0.0
 11
3.245263913540979
 21
11.20574487544475
 31
0.0
1001
ACAD
1000
ASC_BOUNDS
1002
{
1070
    19
1002
}
  0
LINE
  5
1D1D
330
184D
100
AcDbEntity
  8
0
 62
     7
100
AcDbLine
 10
3.147317460242413
 20
11.15583866480141
 30
0.0
 11
3.273270465981351
 21
10.90864197253824
 31
0.0
1001
ACAD
1000
ASC_BOUNDS
1002
{
1070
    19
1002
}
  0
LINE
  5
1D1E
330
184D
100
AcDbEntity
  8
0
 62
     7
100
AcDbLine
 10
5.072300872670789
 20
9.53744807870658
 30
0.0
 11
4.595747463433541
 21
8.569300236298861
 31
0.0
1001
ACAD
1000
ASC_BOUNDS
1002
{
1070
    19
1005
0
1002
}
  0
LWPOLYLINE
  5
1D1F
330
184D
100
AcDbEntity
  8
0
 62
     7
100
AcDbPolyline
 90
        2
 70
     0
 43
0.0
 10
4.960506419544628
 20
9.543645531164383
 10
4.503413916137342
 20
8.615033727373582
1001
ACAD
1000
ASC_BOUNDS
1002
{
1070
    19
1005
0
1002
}
  0
LINE
  5
1D20
330
184D
100
AcDbEntity
  8
0
 62
     7
100
AcDbLine
 10
4.056007838214296
 20
11.20574487544475
 30
0.0
 11
4.932195406234607
 21
9.486129949655111
 31
0.0
1001
ACAD
1000
ASC_BOUNDS
1002
{
1070
    19
1002
}
  0
LINE
  5
1D21
330
184D
100
AcDbEntity
  8
0
 62
     7
100
AcDbLine
 10
3.978164599682429
 20
11.20574487544475
 30
0.0
 11
4.89394569271214
 21
9.408423281521596
 31
0.0
1001
ACAD
1000
ASC_BOUNDS
1002
{
1070
    19
1002
}
  0
LINE
  5
1D22
330
184D
100
AcDbEntity
  8
0
 62
     7
100
AcDbLine
 10
3.898137361914258
 20
10.64985270363088
 30
0.0
 11
4.715447029607361
 21
9.045792163565488
 31
0.0
1001
ACAD
1000
ASC_BOUNDS
1002
{
1070
    19
1002
}
  0
LINE
  5
1D23
330
184D
100
AcDbEntity
  8
0
 62
     7
100
AcDbLine
 10
5.484078733523913
 20
6.910143144887292
 30
0.0
 11
8.60317326800528
 21
6.36016262307789
 31
0.0
1001
ACAD
1000
ASC_BOUNDS
1002
{
1070
    19
1002
}
  0
POLYLINE
  5
1D24
330
184D
100
AcDbEntity
  8
0
 62
     7
100
AcDb2dPolyline
 66
     1
 10
0.0
 20
0.0
 30
0.0
1001
ACAD
1000
ASC_BOUNDS
1002
{
1070
    19
1002
}
  0
VERTEX
  5
1D25
330
1D24
100
AcDbEntity
  8
0
 62
     7
100
AcDbVertex
100
AcDb2dVertex
 10
5.558944561790159
 20
7.225843565768938
 30
0.0
  0
VERTEX
  5
1D26
330
1D24
100
AcDbEntity
  8
0
 62
     7
100
AcDbVertex
100
AcDb2dVertex
 10
5.585448566250245
 20
7.338318007944597
 30
0.0
1001
ACAD
1000
ASC_BOUNDS
1002
{
1070
    19
1002
}
  0
VERTEX
  5
1D27
330
1D24
100
AcDbEntity
  8
0
 62
     7
100
AcDbVertex
100
AcDb2dVertex
 10
8.691008811799827
 20
6.790723946438539
 30
0.0
1001
ACAD
1000
ASC_BOUNDS
1002
{
1070
    19
1002
}
  0
VERTEX
  5
1D28
330
1D24
100
AcDbEntity
  8
0
 62
     7
100
AcDbVertex
100
AcDb2dVertex
 10
8.636574317061807
 20
6.523891328589764
 30
0.0
  0
SEQEND
  5
1D29
330
1D24
100
AcDbEntity
  8
0
 62
     7
  0
LINE
  5
1D2A
330
184D
100
AcDbEntity
  8
0
 62
     7
100
AcDbLine
 10
4.952359499322798
 20
9.293779731001041
 30
0.0
 11
5.847982934755883
 21
7.536019767643502
 31
0.0
1001
ACAD
1000
ASC_BOUNDS
1002
{
1070
    19
1005
0
1002
}
  0
LWPOLYLINE
  5
1D2B
330
184D
100
AcDbEntity
  8
0
 62
     7
100
AcDbPolyline
 90
        2
 70
     0
 43
0.0
 10
4.99060921284524
 20
9.371486399134514
 10
5.907719454906815
 20
7.571556203358091
1001
ACAD
1000
ASC_BOUNDS
1002
{
1070
    19
1002
}
  0
LWPOLYLINE
  5
1D2C
330
184D
100
AcDbEntity
  8
0
 62
     7
100
AcDbPolyline
 90
        3
 70
     0
 43
0.0
 10
4.504244055464261
 20
8.499766960532987
 10
4.67048220616947
 20
8.580846724094861
 10
4.635360593571968
 20
8.649776769948978
1001
ACAD
1000
ASC_BOUNDS
1002
{
1070
    19
1002
}
  0
CIRCLE
  5
1D2D
330
184D
100
AcDbEntity
  8
0
 62
     7
100
AcDbCircle
 10
4.570160018674124
 20
8.632639705777027
 30
0.0
 40
0.0173397083489631
1001
ACAD
1000
ASC_BOUNDS
1002
{
1070
    19
1002
}
  0
LINE
  5
1D2E
330
184D
100
AcDbEntity
  8
0
 62
     7
100
AcDbLine
 10
4.561762586535443
 20
8.733572674442768
 30
0.0
 11
4.420275384971654
 21
8.664564755375142
 31
0.0
1001
ACAD
1000
ASC_BOUNDS
1002
{
1070
    19
1002
}
  0
LINE
  5
1D2F
330
184D
100
AcDbEntity
  8
0
 62
     7
100
AcDbLine
 10
4.397705692942639
 20
8.699031828263084
 30
0.0
 11
4.523658698681582
 21
8.451835135999914
 31
0.0
1001
ACAD
1000
ASC_BOUNDS
1002
{
1070
    19
1002
}
  0
LINE
  5
1D30
330
184D
100
AcDbEntity
  8
0
 62
     7
100
AcDbLine
 10
4.59567476800885
 20
8.569197878952618
 30
0.0
 11
4.503235545724734
 21
8.614717395049247
 31
0.0
1001
ACAD
1000
ASC_BOUNDS
1002
{
1070
    19
1002
}
  0
LWPOLYLINE
  5
1D31
330
184D
100
AcDbEntity
  8
0
 62
     1
100
AcDbPolyline
 90
        2
 70
     1
 43
0.0
 10
4.587499727023091
 20
8.632639705777027
 42
-1.0
 10
4.552820310325168
 20
8.632639705777027
 42
-1.0
1001
ACAD
1000
ASC_BOUNDS
1002
{
1070
    19
1002
}
  0
LINE
  5
1D32
330
184D
100
AcDbEntity
  8
0
 62
     7
100
AcDbLine
 10
5.908215410248867
 20
7.571854203391933
 30
0.0
 11
5.848763286247105
 21
7.536131763361761
 31
0.0
1001
ACAD
1000
ASC_BOUNDS
1002
{
1070
    19
1002
}
  0
LINE
  5
1D33
330
184D
100
AcDbEntity
  8
0
 62
     7
100
AcDbLine
 10
5.430122954348513
 20
7.259175655722259
 30
0.0
 11
5.130795973607245
 21
7.106660941314304
 31
0.0
1001
ACAD
1000
ASC_BOUNDS
1002
{
1070
    19
1002
}
  0
POLYLINE
  5
1D34
330
184D
100
AcDbEntity
  8
0
 62
     7
100
AcDb2dPolyline
 66
     1
 10
0.0
 20
0.0
 30
0.0
1001
ACAD
1000
ASC_BOUNDS
1002
{
1070
    19
1002
}
  0
VERTEX
  5
1D35
330
1D34
100
AcDbEntity
  8
0
 62
     7
100
AcDbVertex
100
AcDb2dVertex
 10
5.484532578181231
 20
6.910063119829048
 30
0.0
  0
VERTEX
  5
1D36
330
1D34
100
AcDbEntity
  8
0
 62
     7
100
AcDbVertex
100
AcDb2dVertex
 10
5.546463850673874
 20
7.172879455274841
 30
0.0
1001
ACAD
1000
ASC_BOUNDS
1002
{
1070
    19
1002
}
  0
SEQEND
  5
1D37
330
1D34
100
AcDbEntity
  8
0
 62
     7
  0
LINE
  5
1D38
330
184D
100
AcDbEntity
  8
0
 62
     7
100
AcDbLine
 10
4.773860836218019
 20
8.931148613044847
 30
0.0
 11
5.339284363245941
 21
7.821442458840061
 31
0.0
1001
ACAD
1000
ASC_BOUNDS
1002
{
1070
    19
1002
}
  0
LINE
  5
1D39
330
184D
100
AcDbEntity
  8
0
 62
     7
100
AcDbLine
 10
5.372431002767807
 20
7.756388515892252
 30
0.0
 11
5.585448566250245
 21
7.338318007944597
 31
0.0
1001
ACAD
1000
ASC_BOUNDS
1002
{
1070
    19
1002
}
  0
LWPOLYLINE
  5
1D3A
330
184D
100
AcDbEntity
  8
0
 62
     7
100
AcDbPolyline
 90
        4
 70
     0
 43
0.0
 10
5.663392081283444
 20
7.898299715888605
 10
5.184306973023733
 20
7.664634295893689
 10
5.152818721589007
 20
7.726433468959521
 10
5.627680504219661
 20
7.968387632202145
1001
ACAD
1000
ASC_BOUNDS
1002
{
1070
    19
1005
0
1002
}
  0
LWPOLYLINE
  5
1D3B
330
184D
100
AcDbEntity
  8
0
 62
     7
100
AcDbPolyline
 90
        5
 70
     0
 43
0.0
 10
5.58544856627228
 20
7.338318008040809
 10
5.597934850417206
 20
7.310058788560708
 10
5.751776773106651
 20
6.999255221859684
 10
5.648175584206336
 20
6.94797458096329
 10
5.517682900888962
 20
7.236519860065415
1001
ACAD
1000
ASC_BOUNDS
1002
{
1070
    19
1002
}
  0
POLYLINE
  5
1D3C
330
184D
100
AcDbEntity
  8
0
 62
     7
100
AcDb2dPolyline
 66
     1
 10
0.0
 20
0.0
 30
0.0
 70
     1
1001
ACAD
1000
ASC_BOUNDS
1002
{
1070
    19
1002
}
  0
VERTEX
  5
1D3D
330
1D3C
100
AcDbEntity
  8
0
 62
     7
100
AcDbVertex
100
AcDb2dVertex
 10
5.195606360788609
 20
7.318468839405722
 30
0.0
1001
ACAD
1000
ASC_BOUNDS
1002
{
1070
    19
1002
}
  0
VERTEX
  5
1D3E
330
1D3C
100
AcDbEntity
  8
0
 62
     7
100
AcDbVertex
100
AcDb2dVertex
 10
5.217042192292937
 20
7.421416678144872
 30
0.0
  0
VERTEX
  5
1D3F
330
1D3C
100
AcDbEntity
  8
0
 62
     7
100
AcDbVertex
100
AcDb2dVertex
 10
5.246883850365481
 20
7.413418789619857
 30
0.0
  0
VERTEX
  5
1D40
330
1D3C
100
AcDbEntity
  8
0
 62
     7
100
AcDbVertex
100
AcDb2dVertex
 10
5.58544856627228
 20
7.338318008040809
 30
0.0
  0
VERTEX
  5
1D41
330
1D3C
100
AcDbEntity
  8
0
 62
     7
100
AcDbVertex
100
AcDb2dVertex
 10
5.560414972412595
 20
7.225463102738594
 30
0.0
  0
VERTEX
  5
1D42
330
1D3C
100
AcDbEntity
  8
0
 62
     7
100
AcDbVertex
100
AcDb2dVertex
 10
5.22467748046209
 20
7.312333873137024
 30
0.0
  0
SEQEND
  5
1D43
330
1D3C
100
AcDbEntity
  8
0
 62
     7
  0
LWPOLYLINE
  5
1D44
330
184D
100
AcDbEntity
  8
0
 62
     7
100
AcDbPolyline
 90
        5
 70
     0
 43
0.0
 10
8.603173268005274
 20
6.36016262307789
 10
8.589470773575794
 20
6.387852556696197
 10
8.422268196328207
 20
6.691677329242223
 10
8.523543120510186
 20
6.74741152165798
 10
8.666451280049757
 20
6.464809369457237
1001
ACAD
1000
ASC_BOUNDS
1002
{
1070
    19
1002
}
  0
LINE
  5
1D45
330
184D
100
AcDbEntity
  8
0
 62
     7
100
AcDbLine
 10
8.626266396393788
 20
6.473362900436553
 30
0.0
 11
8.60317326800528
 21
6.36016262307789
 31
0.0
1001
ACAD
1000
ASC_BOUNDS
1002
{
1070
    19
1002
}
  0
POLYLINE
  5
1D46
330
184D
100
AcDbEntity
  8
0
 62
     7
100
AcDb2dPolyline
 66
     1
 10
0.0
 20
0.0
 30
0.0
 70
     1
1001
ACAD
1000
ASC_BOUNDS
1002
{
1070
    19
1002
}
  0
VERTEX
  5
1D47
330
1D46
100
AcDbEntity
  8
0
 62
     7
100
AcDbVertex
100
AcDb2dVertex
 10
8.991784676367734
 20
6.396933643765679
 30
0.0
1001
ACAD
1000
ASC_BOUNDS
1002
{
1070
    19
1002
}
  0
VERTEX
  5
1D48
330
1D46
100
AcDbEntity
  8
0
 62
     7
100
AcDbVertex
100
AcDb2dVertex
 10
8.974842694154414
 20
6.293151556621431
 30
0.0
  0
VERTEX
  5
1D49
330
1D46
100
AcDbEntity
  8
0
 62
     7
100
AcDbVertex
100
AcDb2dVertex
 10
8.944681676551669
 20
6.299845120286859
 30
0.0
  0
VERTEX
  5
1D4A
330
1D46
100
AcDbEntity
  8
0
 62
     7
100
AcDbVertex
100
AcDb2dVertex
 10
8.603173268005274
 20
6.36016262307789
 30
0.0
  0
VERTEX
  5
1D4B
330
1D46
100
AcDbEntity
  8
0
 62
     7
100
AcDbVertex
100
AcDb2dVertex
 10
8.623279102268954
 20
6.473998759260005
 30
0.0
  0
VERTEX
  5
1D4C
330
1D46
100
AcDbEntity
  8
0
 62
     7
100
AcDbVertex
100
AcDb2dVertex
 10
8.962474422630362
 20
6.401799528684035
 30
0.0
  0
SEQEND
  5
1D4D
330
1D46
100
AcDbEntity
  8
0
 62
     7
  0
LINE
  5
1D4E
330
184D
100
AcDbEntity
  8
0
 62
     1
100
AcDbLine
 10
8.691008811799827
 20
6.790723946438539
 30
0.0
 11
8.636574317061807
 21
6.523891328589764
 31
0.0
1001
ACAD
1000
ASC_BOUNDS
1002
{
1070
    19
1002
}
  0
LINE
  5
1D4F
330
184D
100
AcDbEntity
  8
0
 62
     1
100
AcDbLine
 10
8.636574317061807
 20
6.523891328589764
 30
0.0
 11
8.666451280049757
 21
6.464809369457237
 31
0.0
1001
ACAD
1000
ASC_BOUNDS
1002
{
1070
    19
1002
}
  0
LINE
  5
1D50
330
184D
100
AcDbEntity
  8
0
 62
     1
100
AcDbLine
 10
8.666451280049757
 20
6.464809369457237
 30
0.0
 11
8.766680817386195
 21
6.443475067235914
 31
0.0
  0
LINE
  5
1D51
330
184D
100
AcDbEntity
  8
0
 62
     1
100
AcDbLine
 10
8.766680817386195
 20
6.443475067235914
 30
0.0
 11
8.994566881815797
 21
6.559590470402541
 31
0.0
1001
ACAD
1000
ASC_BOUNDS
1002
{
1070
    19
1002
}
  0
LINE
  5
1D52
330
184D
100
AcDbEntity
  8
0
 62
     7
100
AcDbLine
 10
3.61489615320033
 20
11.20574487544475
 30
0.0
 11
3.86829586787606
 21
10.70841993333023
 31
0.0
1001
ACAD
1000
ASC_BOUNDS
1002
{
1070
    19
1002
}
  0
LWPOLYLINE
  5
1D53
330
184D
100
AcDbEntity
  8
0
 62
     7
100
AcDbPolyline
 90
        4
 70
     0
 43
0.0
 10
4.159256946391717
 20
10.85033113332658
 10
3.68203522590797
 20
10.61757454827512
 10
3.712440137243662
 20
10.5552352417607
 10
4.186533502887983
 20
10.79679787699292
1001
ACAD
1000
ASC_BOUNDS
1002
{
1070
    19
1002
}
  0
LINE
  5
1D54
330
184D
100
AcDbEntity
  8
0
 62
     7
100
AcDbLine
 10
5.709486798505537
 20
11.20574487544475
 30
0.0
 11
5.11728991060976
 21
10.13539932711142
 31
0.0
1001
ACAD
1000
ASC_BOUNDS
1002
{
1070
    19
1002
}
  0
LINE
  5
1D55
330
184D
100
AcDbEntity
  8
0
 62
     7
100
AcDbLine
 10
5.577375125302518
 20
11.20574487544475
 30
0.0
 11
5.136154627876379
 21
10.40827632249176
 31
0.0
1001
ACAD
1000
ASC_BOUNDS
1002
{
1070
    19
1002
}
  0
CIRCLE
  5
1D56
330
184D
100
AcDbEntity
  8
0
 62
     7
100
AcDbCircle
 10
5.02104187821431
 20
9.565686892025851
 30
0.0
 40
0.0173397083489631
1001
ACAD
1000
ASC_BOUNDS
1002
{
1070
    19
1002
}
  0
LWPOLYLINE
  5
1D57
330
184D
100
AcDbEntity
  8
0
 62
     1
100
AcDbPolyline
 90
        2
 70
     1
 43
0.0
 10
5.038381586563275
 20
9.565686892025851
 42
-1.0
 10
5.00370216986535
 20
9.565686892025851
 42
-1.0
1001
ACAD
1000
ASC_BOUNDS
1002
{
1070
    19
1002
}
  0
LINE
  5
1D58
330
184D
100
AcDbEntity
  8
0
 62
     1
100
AcDbLine
 10
5.075828546832791
 20
9.535663205337947
 30
0.0
 11
5.071422300771323
 21
9.535663205337947
 31
0.0
  0
LINE
  5
1D59
330
184D
100
AcDbEntity
  8
0
 62
     7
100
AcDbLine
 10
5.191285764011571
 20
11.20574487544475
 30
0.0
 11
5.075277381445791
 21
9.52769063131852
 31
0.0
1001
ACAD
1000
ASC_BOUNDS
1002
{
1070
    19
1005
0
1002
}
  0
LWPOLYLINE
  5
1D5A
330
184D
100
AcDbEntity
  8
0
 62
     7
100
AcDbPolyline
 90
        3
 70
     0
 43
0.0
 10
5.075411797167864
 20
11.20574487544475
 10
4.9599545799891
 20
9.535663205337947
 10
5.075552635648853
 20
9.535663205337947
1001
ACAD
1000
ASC_BOUNDS
1002
{
1070
    19
1005
0
1002
}
  0
TEXT
  5
1D5B
330
184D
100
AcDbEntity
  8
0
 62
     7
100
AcDbText
 10
21.37027972100177
 20
0.9805520374701943
 30
0.0
 40
1.638467792325521
  1
www.PrecisionLadders.com
  7
CAT_BORDER$0$ROMANS
100
AcDbText
  0
LWPOLYLINE
  5
1D5C
330
184D
100
AcDbEntity
  8
0
 62
     7
100
AcDbPolyline
 90
        9
 70
     0
 43
0.0
 10
10.36633405241562
 20
3.428726298408117
 10
10.36655286501771
 20
3.463405024791232
 10
10.26251668586843
 20
3.464061462597571
 10
10.19315923310223
 20
3.464499087801723
 10
10.19294042050013
 20
3.429820361418695
 42
0.4142135623730939
 10
10.20442705842713
 20
3.418187848423535
 10
10.35470153942054
 20
3.417239660481108
 42
0.4142135623730989
 10
10.3663340524156
 20
3.428726298408117
 42
-0.4142135623730944
 10
10.35470153942054
 20
3.417239660481108
1001
ACAD
1000
ASC_BOUNDS
1002
{
1070
    19
1002
}
  0
LINE
  5
1D5D
330
184D
100
AcDbEntity
  8
0
 62
     7
100
AcDbLine
 10
10.31311986264362
 20
3.493143849733797
 30
0.0
 11
10.3127092320714
 21
3.463744762338132
 31
0.0
1001
ACAD
1000
ASC_BOUNDS
1002
{
1070
    19
1002
}
  0
LINE
  5
1D5E
330
184D
100
AcDbEntity
  8
0
 62
     7
100
AcDbLine
 10
10.24954219760794
 20
3.493545006170977
 30
0.0
 11
10.31311986264362
 21
3.493143849733797
 31
0.0
1001
ACAD
1000
ASC_BOUNDS
1002
{
1070
    19
1002
}
  0
LINE
  5
1D5F
330
184D
100
AcDbEntity
  8
0
 62
     7
100
AcDbLine
 10
10.24938007573792
 20
3.467850965163846
 30
0.0
 11
10.24954219760794
 21
3.493545006170977
 31
0.0
1001
ACAD
1000
ASC_BOUNDS
1002
{
1070
    19
1002
}
  0
TEXT
  5
1D60
330
184D
100
AcDbEntity
  8
0
100
AcDbText
 10
66.24482379919353
 20
0.7698485708019974
 30
0.0
 40
1.1055
  1
WORK ORDER: ( )
 50
90.0
 41
0.9
  7
CAT_BORDER$0$ROMANS
100
AcDbText
  0
TEXT
  5
1D61
330
184D
100
AcDbEntity
  8
0
100
AcDbText
 10
67.90690698866296
 20
3.502753249128737
 30
0.0
 40
1.1055
  1
CHECKED BY:
  7
CAT_BORDER$0$ROMANS
100
AcDbText
  0
TEXT
  5
1D62
330
184D
100
AcDbEntity
  8
0
100
AcDbText
 10
67.90690698866296
 20
13.80825974738626
 30
0.0
 40
1.1055
  1
DWG. CHECK
  7
CAT_BORDER$0$ROMANS
100
AcDbText
  0
TEXT
  5
1D63
330
184D
100
AcDbEntity
  8
0
100
AcDbText
 10
67.90690698866296
 20
8.655506498257498
 30
0.0
 40
1.1055
  1
BUILT BY:
  7
CAT_BORDER$0$ROMANS
100
AcDbText
  0
TEXT
  5
1D64
330
184D
100
AcDbEntity
  8
0
100
AcDbText
 10
99.41250000000003
 20
3.502753249128737
 30
0.0
 40
1.1055
  1
DRAWN BY:
  7
CAT_BORDER$0$ROMANS
100
AcDbText
  0
TEXT
  5
1D65
330
184D
100
AcDbEntity
  8
0
100
AcDbText
 10
99.41250000000003
 20
8.655506498257498
 30
0.0
 40
1.1055
  1
PURCHASE ORDER
  7
CAT_BORDER$0$ROMANS
100
AcDbText
  0
TEXT
  5
1D66
330
184D
100
AcDbEntity
  8
0
100
AcDbText
 10
99.41250000000003
 20
13.80825974738626
 30
0.0
 40
1.1055
  1
ARCH'T OR ENG'R.
  7
CAT_BORDER$0$ROMANS
100
AcDbText
  0
TEXT
  5
1D67
330
184D
100
AcDbEntity
  8
0
100
AcDbText
 10
220.5524394415514
 20
8.236073841958663
 30
0.0
 40
1.1055
  1
SERIAL#
  7
CAT_BORDER$0$ROMANS
100
AcDbText
  0
TEXT
  5
1D68
330
184D
100
AcDbEntity
  8
0
100
AcDbText
 10
220.4125000000001
 20
13.80825974738626
 30
0.0
 40
1.1055
  1
PRECISION REP
  7
CAT_BORDER$0$ROMANS
100
AcDbText
  0
TEXT
  5
1D69
330
184D
100
AcDbEntity
  8
0
100
AcDbText
 10
143.4125
 20
3.502753249128737
 30
0.0
 40
1.1055
  1
DATE
  7
CAT_BORDER$0$ROMANS
100
AcDbText
  0
TEXT
  5
1D6A
330
184D
100
AcDbEntity
  8
0
100
AcDbText
 10
159.9125
 20
3.502753249128737
 30
0.0
 40
1.1055
  1
MODEL#
  7
CAT_BORDER$0$ROMANS
100
AcDbText
  0
TEXT
  5
1D6B
330
184D
100
AcDbEntity
  8
0
100
AcDbText
 10
143.4125
 20
13.80825974738626
 30
0.0
 40
1.1055
  1
PROJECT
  7
CAT_BORDER$0$ROMANS
100
AcDbText
  0
TEXT
  5
1D6C
330
184D
100
AcDbEntity
  8
0
100
AcDbText
 10
143.4125
 20
8.655506498257498
 30
0.0
 40
1.1055
  1
REVISION
  7
CAT_BORDER$0$ROMANS
100
AcDbText
  0
TEXT
  5
1D6D
330
184D
100
AcDbEntity
  8
0
100
AcDbText
 10
159.9125
 20
8.655506498257498
 30
0.0
 40
1.1055
  1
PURCHASER
  7
CAT_BORDER$0$ROMANS
100
AcDbText
  0
TEXT
  5
1D6E
330
184D
100
AcDbEntity
  8
0
100
AcDbText
 10
209.4125
 20
3.502753249128737
 30
0.0
 40
1.1055
  1
QTY.
  7
CAT_BORDER$0$ROMANS
100
AcDbText
  0
LINE
  5
1D6F
330
184D
100
AcDbEntity
  8
0
 62
     1
100
AcDbLine
 10
67.49440698866294
 20
5.15275324912876
 30
0.0
 11
220.0
 21
5.15275324912876
 31
0.0
  0
LINE
  5
1D70
330
184D
100
AcDbEntity
  8
0
 62
     1
100
AcDbLine
 10
275.0
 20
0.0
 30
0.0
 11
275.0
 21
199.455929387806
 31
0.0
  0
LINE
  5
1D71
330
184D
100
AcDbEntity
  8
0
 62
     1
100
AcDbLine
 10
275.0
 20
199.455929387806
 30
0.0
 11
0.0
 21
199.455929387806
 31
0.0
  0
LINE
  5
1D72
330
184D
100
AcDbEntity
  8
0
 62
     1
100
AcDbLine
 10
0.0
 20
199.455929387806
 30
0.0
 11
0.0
 21
0.0
 31
0.0
  0
LINE
  5
1D73
330
184D
100
AcDbEntity
  8
0
 62
     1
100
AcDbLine
 10
0.0
 20
0.0
 30
0.0
 11
275.0
 21
0.0
 31
0.0
  0
LINE
  5
1D74
330
184D
100
AcDbEntity
  8
0
 62
     1
100
AcDbLine
 10
67.49440698866294
 20
0.0
 30
0.0
 11
67.49440698866294
 21
15.45825974738624
 31
0.0
  0
LINE
  5
1D75
330
184D
100
AcDbEntity
  8
0
 62
     1
100
AcDbLine
 10
99.0
 20
0.0
 30
0.0
 11
99.0
 21
15.45825974738624
 31
0.0
  0
LINE
  5
1D76
330
184D
100
AcDbEntity
  8
0
 62
     1
100
AcDbLine
 10
143.0
 20
0.0
 30
0.0
 11
143.0
 21
15.45825974738624
 31
0.0
  0
LINE
  5
1D77
330
184D
100
AcDbEntity
  8
0
 62
     1
100
AcDbLine
 10
159.5
 20
0.0
 30
0.0
 11
159.5
 21
10.30550649825748
 31
0.0
  0
LINE
  5
1D78
330
184D
100
AcDbEntity
  8
0
 62
     1
100
AcDbLine
 10
220.0
 20
0.0
 30
0.0
 11
220.0
 21
15.45825974738624
 31
0.0
  0
LINE
  5
1D79
330
184D
100
AcDbEntity
  8
0
 62
     1
100
AcDbLine
 10
209.0
 20
0.0
 30
0.0
 11
209.0
 21
5.15275324912876
 31
0.0
  0
LINE
  5
1D7A
330
184D
100
AcDbEntity
  8
0
 62
     1
100
AcDbLine
 10
0.0
 20
15.45825974738624
 30
0.0
 11
275.0
 21
15.45825974738624
 31
0.0
  0
LINE
  5
1D7B
330
184D
100
AcDbEntity
  8
0
 62
     1
100
AcDbLine
 10
67.49440698866294
 20
10.30550649825748
 30
0.0
 11
275.0
 21
10.30550649825748
 31
0.0
  0
INSERT
  5
1D7C
330
184D
100
AcDbEntity
  8
0
100
AcDbBlockReference
  2
CAT_BORDER$0$LINETYPE
 10
417.5410754266801
 20
2.723361433347804
 30
0.0
  0
INSERT
  5
1D80
330
184D
100
AcDbEntity
  8
0
100
AcDbBlockReference
  2
CAT_BORDER$0$LINETYPE
 10
379.7092142995633
 20
-49.94772047431786
 30
0.0
  0
ENDBLK
  5
184F
330
184D
100
AcDbEntity
  8
0
100
AcDbBlockEnd
  0
BLOCK
  5
18FE
330
18F3
100
AcDbEntity
  8
0
100
AcDbBlockBegin
  2
*D15
 70
     1
 10
0.0
 20
0.0
 30
0.0
  3
*D15
  1

  0
LINE
  5
1A9F
330
18F3
100
AcDbEntity
  8
0
 62
     0
370
    -2
100
AcDbLine
 10
325.1305660173119
 20
196.16660903483
 30
0.0
 11
333.6031860928315
 21
196.16660903483
 31
0.0
  0
LINE
  5
1AA0
330
18F3
100
AcDbEntity
  8
0
 62
     0
370
    -2
100
AcDbLine
 10
325.1305660173119
 20
215.06660903483
 30
0.0
 11
333.6031860928315
 21
215.06660903483
 31
0.0
  0
LINE
  5
1AA1
330
18F3
100
AcDbEntity
  8
0
 62
     0
370
    -2
100
AcDbLine
 10
331.8531860928315
 20
197.91660903483
 30
0.0
 11
331.8531860928315
 21
202.49942153483
 31
0.0
  0
LINE
  5
1AA2
330
18F3
100
AcDbEntity
  8
0
 62
     0
370
    -2
100
AcDbLine
 10
331.8531860928315
 20
213.31660903483
 30
0.0
 11
331.8531860928315
 21
208.73379653483
 31
0.0
  0
SOLID
  5
1AA3
330
18F3
100
AcDbEntity
  8
0
 62
     0
100
AcDbTrace
 10
331.5615194261649
 20
197.91660903483
 30
0.0
 11
332.1448527594982
 21
197.91660903483
 31
0.0
 12
331.8531860928315
 22
196.16660903483
 32
0.0
 13
331.8531860928315
 23
196.16660903483
 33
0.0
  0
SOLID
  5
1AA4
330
18F3
100
AcDbEntity
  8
0
 62
     0
100
AcDbTrace
 10
331.5615194261649
 20
213.31660903483
 30
0.0
 11
332.1448527594982
 21
213.31660903483
 31
0.0
 12
331.8531860928315
 22
215.06660903483
 32
0.0
 13
331.8531860928315
 23
215.06660903483
 33
0.0
  0
MTEXT
  5
1AA5
330
18F3
100
AcDbEntity
  8
0
 62
     0
100
AcDbMText
 10
331.8531860928315
 20
205.61660903483
 30
0.0
 40
2.296875
 41
0.0
 71
     5
 72
     1
  1
\A1;7"
  7
ROMANS
 73
     1
 44
1.0
1001
ACAD
1000
MTEXTBEGIN
1070
    73
1070
     1
1070
    44
1040
1.0
1070
    74
1070
     0
1000
MTEXTEND
  0
POINT
  5
1AA6
330
18F3
100
AcDbEntity
  8
DEFPOINTS
 62
     0
100
AcDbPoint
 10
323.3805660173119
 20
196.16660903483
 30
0.0
  0
POINT
  5
1AA7
330
18F3
100
AcDbEntity
  8
DEFPOINTS
 62
     0
100
AcDbPoint
 10
323.3805660173119
 20
215.06660903483
 30
0.0
  0
POINT
  5
1AA8
330
18F3
100
AcDbEntity
  8
DEFPOINTS
 62
     0
100
AcDbPoint
 10
331.8531860928315
 20
215.06660903483
 30
0.0
  0
ENDBLK
  5
18FF
330
18F3
100
AcDbEntity
  8
0
100
AcDbBlockEnd
  0
BLOCK
  5
190B
330
1900
100
AcDbEntity
  8
0
100
AcDbBlockBegin
  2
*D16
 70
     1
 10
0.0
 20
0.0
 30
0.0
  3
*D16
  1

  0
LINE
  5
1A63
330
1900
100
AcDbEntity
  8
0
 62
     0
370
    -2
100
AcDbLine
 10
289.2706683068547
 20
104.0728232030458
 30
0.0
 11
295.0558818853515
 21
107.4129178199105
 31
0.0
  0
LINE
  5
1A64
330
1900
100
AcDbEntity
  8
0
 62
     0
370
    -2
100
AcDbLine
 10
318.0073462567715
 20
87.48169445304588
 30
0.0
 11
323.7925598352683
 21
90.82178906991059
 31
0.0
  0
LINE
  5
1A65
330
1900
100
AcDbEntity
  8
0
 62
     0
370
    -2
100
AcDbLine
 10
294.8214263419743
 20
105.5275548488286
 30
0.0
 11
301.6120430338188
 21
101.6069904738287
 31
0.0
  0
LINE
  5
1A66
330
1900
100
AcDbEntity
  8
0
 62
     0
370
    -2
100
AcDbLine
 10
320.5270153786456
 20
90.68642609882873
 30
0.0
 11
313.736398686801
 21
94.60699047382869
 31
0.0
  0
SOLID
  5
1A67
330
1900
100
AcDbEntity
  8
0
 62
     0
100
AcDbTrace
 10
294.9672596753076
 20
105.7801455915991
 30
0.0
 11
294.6755930086409
 21
105.2749641060582
 31
0.0
 12
293.3058818853515
 22
106.4025548488286
 32
0.0
 13
293.3058818853515
 23
106.4025548488286
 33
0.0
  0
SOLID
  5
1A68
330
1900
100
AcDbEntity
  8
0
 62
     0
100
AcDbTrace
 10
320.6728487119789
 20
90.93901684159918
 30
0.0
 11
320.3811820453122
 21
90.43383535605828
 31
0.0
 12
322.0425598352683
 22
89.81142609882873
 32
0.0
 13
322.0425598352683
 23
89.81142609882873
 33
0.0
  0
MTEXT
  5
1A69
330
1900
100
AcDbEntity
  8
0
 62
     0
100
AcDbMText
 10
307.6742208603099
 20
98.10699047382868
 30
0.0
 40
2.296875
 41
0.0
 71
     5
 72
     1
  1
\A1;8-1/2"
  7
ROMANS
 73
     1
 44
1.0
1001
ACAD
1000
MTEXTBEGIN
1070
    73
1070
     1
1070
    44
1040
1.0
1070
    74
1070
     0
1000
MTEXTEND
  0
POINT
  5
1A6A
330
1900
100
AcDbEntity
  8
DEFPOINTS
 62
     0
100
AcDbPoint
 10
287.5206683068546
 20
103.0624602319639
 30
0.0
  0
POINT
  5
1A6B
330
1900
100
AcDbEntity
  8
DEFPOINTS
 62
     0
100
AcDbPoint
 10
316.2573462567715
 20
86.47133148196406
 30
0.0
  0
POINT
  5
1A6C
330
1900
100
AcDbEntity
  8
DEFPOINTS
 62
     0
100
AcDbPoint
 10
322.0425598352683
 20
89.81142609882873
 30
0.0
  0
ENDBLK
  5
190C
330
1900
100
AcDbEntity
  8
0
100
AcDbBlockEnd
  0
BLOCK
  5
1918
330
190D
100
AcDbEntity
  8
0
100
AcDbBlockBegin
  2
*D17
 70
     1
 10
0.0
 20
0.0
 30
0.0
  3
*D17
  1

  0
LINE
  5
1A95
330
190D
100
AcDbEntity
  8
0
 62
     0
370
    -2
100
AcDbLine
 10
320.0055660173117
 20
190.36660903483
 30
0.0
 11
320.0055660173117
 21
182.8063238483823
 31
0.0
  0
LINE
  5
1A96
330
190D
100
AcDbEntity
  8
0
 62
     0
370
    -2
100
AcDbLine
 10
271.4055660173119
 20
190.36660903483
 30
0.0
 11
271.4055660173119
 21
182.8063238483823
 31
0.0
  0
LINE
  5
1A97
330
190D
100
AcDbEntity
  8
0
 62
     0
370
    -2
100
AcDbLine
 10
318.2555660173117
 20
184.5563238483823
 30
0.0
 11
300.1352535173118
 21
184.5563238483823
 31
0.0
  0
LINE
  5
1A98
330
190D
100
AcDbEntity
  8
0
 62
     0
370
    -2
100
AcDbLine
 10
273.1555660173119
 20
184.5563238483823
 30
0.0
 11
291.2758785173118
 21
184.5563238483823
 31
0.0
  0
SOLID
  5
1A99
330
190D
100
AcDbEntity
  8
0
 62
     0
100
AcDbTrace
 10
318.2555660173117
 20
184.8479905150489
 30
0.0
 11
318.2555660173117
 21
184.2646571817156
 31
0.0
 12
320.0055660173117
 22
184.5563238483823
 32
0.0
 13
320.0055660173117
 23
184.5563238483823
 33
0.0
  0
SOLID
  5
1A9A
330
190D
100
AcDbEntity
  8
0
 62
     0
100
AcDbTrace
 10
273.1555660173119
 20
184.8479905150489
 30
0.0
 11
273.1555660173119
 21
184.2646571817156
 31
0.0
 12
271.4055660173119
 22
184.5563238483823
 32
0.0
 13
271.4055660173119
 23
184.5563238483823
 33
0.0
  0
MTEXT
  5
1A9B
330
190D
100
AcDbEntity
  8
0
 62
     0
100
AcDbMText
 10
295.7055660173118
 20
184.5563238483823
 30
0.0
 40
2.296875
 41
0.0
 71
     5
 72
     1
  1
\A1;24"
  7
ROMANS
 73
     1
 44
1.0
1001
ACAD
1000
MTEXTBEGIN
1070
    73
1070
     1
1070
    44
1040
1.0
1070
    74
1070
     0
1000
MTEXTEND
  0
POINT
  5
1A9C
330
190D
100
AcDbEntity
  8
DEFPOINTS
 62
     0
100
AcDbPoint
 10
320.0055660173117
 20
192.11660903483
 30
0.0
  0
POINT
  5
1A9D
330
190D
100
AcDbEntity
  8
DEFPOINTS
 62
     0
100
AcDbPoint
 10
271.4055660173119
 20
192.11660903483
 30
0.0
  0
POINT
  5
1A9E
330
190D
100
AcDbEntity
  8
DEFPOINTS
 62
     0
100
AcDbPoint
 10
271.4055660173119
 20
184.5563238483823
 30
0.0
  0
ENDBLK
  5
1919
330
190D
100
AcDbEntity
  8
0
100
AcDbBlockEnd
  0
BLOCK
  5
1925
330
191A
100
AcDbEntity
  8
0
100
AcDbBlockBegin
  2
*D18
 70
     1
 10
0.0
 20
0.0
 30
0.0
  3
*D18
  1

  0
LINE
  5
1A77
330
191A
100
AcDbEntity
  8
0
 62
     0
370
    -2
100
AcDbLine
 10
285.7706683068546
 20
104.0728232030458
 30
0.0
 11
282.1952537766776
 21
106.137089744508
 31
0.0
  0
LINE
  5
1A78
330
191A
100
AcDbEntity
  8
0
 62
     0
370
    -2
100
AcDbLine
 10
272.2475257421881
 20
96.26523320304587
 30
0.0
 11
268.6721112120111
 21
98.32949974450809
 31
0.0
  0
LINE
  5
1A79
330
191A
100
AcDbEntity
  8
0
 62
     0
370
    -2
100
AcDbLine
 10
285.4607982333004
 20
106.0017267734261
 30
0.0
 11
286.9763426899232
 21
106.8767267734261
 31
0.0
  0
LINE
  5
1A7A
330
191A
100
AcDbEntity
  8
0
 62
     0
370
    -2
100
AcDbLine
 10
268.9065667553883
 20
96.44413677342623
 30
0.0
 11
267.3910222987656
 21
95.56913677342622
 31
0.0
  0
MTEXT
  5
1A7B
330
191A
100
AcDbEntity
  8
0
 62
     0
100
AcDbMText
 10
274.7775526214947
 20
101.7601040573056
 30
0.0
 40
2.296875
 41
0.0
 71
     5
 72
     1
  1
\A1;4-1/2"
  7
ROMANS
 73
     1
 44
1.0
1001
ACAD
1000
MTEXTBEGIN
1070
    73
1070
     1
1070
    44
1040
1.0
1070
    74
1070
     0
1000
MTEXTEND
  0
SOLID
  5
1A7C
330
191A
100
AcDbEntity
  8
0
 62
     0
100
AcDbTrace
 10
285.3149648999671
 20
106.2543175161966
 30
0.0
 11
285.6066315666337
 21
105.7491360306557
 31
0.0
 12
283.9452537766776
 22
105.1267267734261
 32
0.0
 13
283.9452537766776
 23
105.1267267734261
 33
0.0
  0
SOLID
  5
1A7D
330
191A
100
AcDbEntity
  8
0
 62
     0
100
AcDbTrace
 10
268.760733422055
 20
96.69672751619669
 30
0.0
 11
269.0524000887216
 21
96.19154603065576
 31
0.0
 12
270.4221112120111
 22
97.31913677342623
 32
0.0
 13
270.4221112120111
 23
97.31913677342623
 33
0.0
  0
POINT
  5
1A7E
330
191A
100
AcDbEntity
  8
DEFPOINTS
 62
     0
100
AcDbPoint
 10
287.5206683068546
 20
103.062460231964
 30
0.0
  0
POINT
  5
1A7F
330
191A
100
AcDbEntity
  8
DEFPOINTS
 62
     0
100
AcDbPoint
 10
273.9975257421881
 20
95.25487023196403
 30
0.0
  0
POINT
  5
1A80
330
191A
100
AcDbEntity
  8
DEFPOINTS
 62
     0
100
AcDbPoint
 10
270.4221112120111
 20
97.31913677342623
 30
0.0
  0
ENDBLK
  5
1926
330
191A
100
AcDbEntity
  8
0
100
AcDbBlockEnd
  0
BLOCK
  5
1932
330
1927
100
AcDbEntity
  8
0
100
AcDbBlockBegin
  2
*D19
 70
     1
 10
0.0
 20
0.0
 30
0.0
  3
*D19
  1

  0
LINE
  5
1A6D
330
1927
100
AcDbEntity
  8
0
 62
     0
370
    -2
100
AcDbLine
 10
274.8427221524799
 20
81.03478491480032
 30
0.0
 11
274.84272215248
 21
77.54271818116922
 31
0.0
  0
LINE
  5
1A6E
330
1927
100
AcDbEntity
  8
0
 62
     0
370
    -2
100
AcDbLine
 10
273.9975257421881
 20
81.52275928980037
 30
0.0
 11
273.9975257421883
 21
78.03069255616925
 31
0.0
  0
LINE
  5
1A6F
330
1927
100
AcDbEntity
  8
0
 62
     0
370
    -2
100
AcDbLine
 10
276.3582666091027
 20
78.68844412333297
 30
0.0
 11
277.8738110657255
 21
77.813444123333
 31
0.0
  0
LINE
  5
1A70
330
1927
100
AcDbEntity
  8
0
 62
     0
370
    -2
100
AcDbLine
 10
272.4819812855654
 20
80.92641849833293
 30
0.0
 11
270.9664368289426
 21
81.8014184983329
 31
0.0
  0
MTEXT
  5
1A71
330
1927
100
AcDbEntity
  8
0
 62
     0
100
AcDbMText
 10
265.8855807024896
 20
82.36115421525996
 30
0.0
 40
2.296875
 41
0.0
 71
     5
 72
     1
  1
\A1;1/4"
  7
ROMANS
 73
     1
 44
1.0
1001
ACAD
1000
MTEXTBEGIN
1070
    73
1070
     1
1070
    44
1040
1.0
1070
    74
1070
     0
1000
MTEXTEND
  0
SOLID
  5
1A72
330
1927
100
AcDbEntity
  8
0
 62
     0
100
AcDbTrace
 10
276.504099942436
 20
78.94103486610342
 30
0.0
 11
276.2124332757694
 21
78.43585338056252
 31
0.0
 12
274.8427221524799
 22
79.56344412333294
 32
0.0
 13
274.8427221524799
 23
79.56344412333294
 33
0.0
  0
SOLID
  5
1A73
330
1927
100
AcDbEntity
  8
0
 62
     0
100
AcDbTrace
 10
272.6278146188987
 20
81.17900924110339
 30
0.0
 11
272.3361479522321
 21
80.67382775556248
 31
0.0
 12
273.9975257421881
 22
80.05141849833297
 32
0.0
 13
273.9975257421881
 23
80.05141849833297
 33
0.0
  0
POINT
  5
1A74
330
1927
100
AcDbEntity
  8
DEFPOINTS
 62
     0
100
AcDbPoint
 10
274.8427221524798
 20
83.05551085696404
 30
0.0
  0
POINT
  5
1A75
330
1927
100
AcDbEntity
  8
DEFPOINTS
 62
     0
100
AcDbPoint
 10
273.9975257421881
 20
83.54348523196405
 30
0.0
  0
POINT
  5
1A76
330
1927
100
AcDbEntity
  8
DEFPOINTS
 62
     0
100
AcDbPoint
 10
273.9975257421881
 20
80.05141849833297
 30
0.0
  0
ENDBLK
  5
1933
330
1927
100
AcDbEntity
  8
0
100
AcDbBlockEnd
  0
BLOCK
  5
193F
330
1934
100
AcDbEntity
  8
0
100
AcDbBlockBegin
  2
*D20
 70
     1
 10
0.0
 20
0.0
 30
0.0
  3
*D20
  1

  0
LINE
  5
1A81
330
1934
100
AcDbEntity
  8
0
 62
     0
370
    -2
100
AcDbLine
 10
318.0073462567715
 20
87.48169445304588
 30
0.0
 11
323.7925598352684
 21
90.82178906991057
 31
0.0
  0
LINE
  5
1A82
330
1934
100
AcDbEntity
  8
0
 62
     0
370
    -2
100
AcDbLine
 10
318.0073462567715
 20
75.77030945304587
 30
0.0
 11
323.7925598352684
 21
79.11040406991055
 31
0.0
  0
LINE
  5
1A83
330
1934
100
AcDbEntity
  8
0
 62
     0
370
    -2
100
AcDbLine
 10
322.0425598352684
 20
88.06142609882872
 30
0.0
 11
322.0425598352684
 21
86.29641067074322
 31
0.0
  0
LINE
  5
1A84
330
1934
100
AcDbEntity
  8
0
 62
     0
370
    -2
100
AcDbLine
 10
322.0425598352684
 20
79.85004109882871
 30
0.0
 11
322.0425598352684
 21
80.06203567074321
 31
0.0
  0
MTEXT
  5
1A85
330
1934
100
AcDbEntity
  8
0
 62
     0
100
AcDbMText
 10
322.7153422572848
 20
83.17922317074325
 30
0.0
 40
2.296875
 41
0.0
 71
     5
 72
     1
  1
\A1;3"
  7
ROMANS
 73
     1
 44
1.0
1001
ACAD
1000
MTEXTBEGIN
1070
    73
1070
     1
1070
    44
1040
1.0
1070
    74
1070
     0
1000
MTEXTEND
  0
SOLID
  5
1A86
330
1934
100
AcDbEntity
  8
0
 62
     0
100
AcDbTrace
 10
321.7508931686018
 20
88.06142609882872
 30
0.0
 11
322.3342265019351
 21
88.06142609882872
 31
0.0
 12
322.0425598352684
 22
89.81142609882871
 32
0.0
 13
322.0425598352684
 23
89.81142609882871
 33
0.0
  0
SOLID
  5
1A87
330
1934
100
AcDbEntity
  8
0
 62
     0
100
AcDbTrace
 10
321.7508931686018
 20
79.85004109882871
 30
0.0
 11
322.3342265019351
 21
79.85004109882871
 31
0.0
 12
322.0425598352684
 22
78.10004109882871
 32
0.0
 13
322.0425598352684
 23
78.10004109882871
 33
0.0
  0
POINT
  5
1A88
330
1934
100
AcDbEntity
  8
DEFPOINTS
 62
     0
100
AcDbPoint
 10
316.2573462567715
 20
86.47133148196402
 30
0.0
  0
POINT
  5
1A89
330
1934
100
AcDbEntity
  8
DEFPOINTS
 62
     0
100
AcDbPoint
 10
316.2573462567715
 20
74.75994648196402
 30
0.0
  0
POINT
  5
1A8A
330
1934
100
AcDbEntity
  8
DEFPOINTS
 62
     0
100
AcDbPoint
 10
322.0425598352684
 20
78.10004109882871
 30
0.0
  0
ENDBLK
  5
1940
330
1934
100
AcDbEntity
  8
0
100
AcDbBlockEnd
  0
BLOCK
  5
194C
330
1941
100
AcDbEntity
  8
0
100
AcDbBlockBegin
  2
*D21
 70
     1
 10
0.0
 20
0.0
 30
0.0
  3
*D21
  1

  0
LINE
  5
1A8B
330
1941
100
AcDbEntity
  8
0
 62
     0
370
    -2
100
AcDbLine
 10
317.6430660173119
 20
216.14160903483
 30
0.0
 11
317.6430660173119
 21
224.4114504186712
 31
0.0
  0
LINE
  5
1A8C
330
1941
100
AcDbEntity
  8
0
 62
     0
370
    -2
100
AcDbLine
 10
273.7680660173119
 20
216.14160903483
 30
0.0
 11
273.7680660173119
 21
224.4114504186712
 31
0.0
  0
LINE
  5
1A8D
330
1941
100
AcDbEntity
  8
0
 62
     0
370
    -2
100
AcDbLine
 10
315.8930660173119
 20
222.6614504186712
 30
0.0
 11
304.9477535173119
 21
222.6614504186712
 31
0.0
  0
LINE
  5
1A8E
330
1941
100
AcDbEntity
  8
0
 62
     0
370
    -2
100
AcDbLine
 10
275.5180660173119
 20
222.6614504186712
 30
0.0
 11
286.4633785173118
 21
222.6614504186712
 31
0.0
  0
SOLID
  5
1A8F
330
1941
100
AcDbEntity
  8
0
 62
     0
100
AcDbTrace
 10
315.8930660173119
 20
222.9531170853379
 30
0.0
 11
315.8930660173119
 21
222.3697837520045
 31
0.0
 12
317.6430660173119
 22
222.6614504186712
 32
0.0
 13
317.6430660173119
 23
222.6614504186712
 33
0.0
  0
SOLID
  5
1A90
330
1941
100
AcDbEntity
  8
0
 62
     0
100
AcDbTrace
 10
275.5180660173119
 20
222.9531170853379
 30
0.0
 11
275.5180660173119
 21
222.3697837520045
 31
0.0
 12
273.7680660173119
 22
222.6614504186712
 32
0.0
 13
273.7680660173119
 23
222.6614504186712
 33
0.0
  0
MTEXT
  5
1A91
330
1941
100
AcDbEntity
  8
0
 62
     0
100
AcDbMText
 10
295.7055660173119
 20
222.6614504186712
 30
0.0
 40
2.296875
 41
0.0
 71
     5
 72
     1
  1
\A1;22-1/8"
  7
ROMANS
 73
     1
 44
1.0
1001
ACAD
1000
MTEXTBEGIN
1070
    73
1070
     1
1070
    44
1040
1.0
1070
    74
1070
     0
1000
MTEXTEND
  0
POINT
  5
1A92
330
1941
100
AcDbEntity
  8
DEFPOINTS
 62
     0
100
AcDbPoint
 10
317.6430660173119
 20
214.39160903483
 30
0.0
  0
POINT
  5
1A93
330
1941
100
AcDbEntity
  8
DEFPOINTS
 62
     0
100
AcDbPoint
 10
273.7680660173119
 20
214.39160903483
 30
0.0
  0
POINT
  5
1A94
330
1941
100
AcDbEntity
  8
DEFPOINTS
 62
     0
100
AcDbPoint
 10
273.7680660173119
 20
222.6614504186712
 30
0.0
  0
ENDBLK
  5
194D
330
1941
100
AcDbEntity
  8
0
100
AcDbBlockEnd
  0
BLOCK
  5
1A42
330
1A40
100
AcDbEntity
  8
0
100
AcDbBlockBegin
  2
Ldr-trd
 70
     0
 10
0.0
 20
0.0
 30
0.0
  3
Ldr-trd
  1

  0
LWPOLYLINE
  5
1A41
330
1A40
100
AcDbEntity
  8
0
  6
HIDDEN
100
AcDbPolyline
 90
        8
 70
     1
 43
0.0
 10
-0.75
 20
-0.75
 10
-1.125
 20
-0.75
 10
-1.125
 20
0.0
 10
1.125
 20
0.0000000000000284
 10
1.125
 20
-0.7499999999999716
 10
0.75
 20
-0.75
 10
0.75
 20
-0.21132790639885
 10
-0.75
 20
-0.21132790639885
  0
ENDBLK
  5
1A43
330
1A40
100
AcDbEntity
  8
0
100
AcDbBlockEnd
  0
BLOCK
  5
1D16
330
1ACB
100
AcDbEntity
  8
0
100
AcDbBlockBegin
  2
*X23
 70
     1
 10
0.0
 20
0.0
 30
0.0
  3
*X23
  1

  0
LINE
  5
1ACC
330
1ACB
100
AcDbEntity
  8
0
 62
     0
100
AcDbLine
 10
-39.38783740946116
 20
-279.4947837961181
 30
0.0
 11
-38.65407559127778
 21
-278.7610219779348
 31
0.0
  0
LINE
  5
1ACD
330
1ACB
100
AcDbEntity
  8
0
 62
     0
100
AcDbLine
 10
-39.50054631068232
 20
-279.4749101758668
 30
0.0
 11
-38.76678449249896
 21
-278.7411483576835
 31
0.0
  0
LINE
  5
1ACE
330
1ACB
100
AcDbEntity
  8
0
 62
     0
100
AcDbLine
 10
-39.61325521190351
 20
-279.4550365556156
 30
0.0
 11
-38.87949339372014
 21
-278.7212747374322
 31
0.0
  0
LINE
  5
1ACF
330
1ACB
100
AcDbEntity
  8
0
 62
     0
100
AcDbLine
 10
-39.7259641131247
 20
-279.4351629353642
 30
0.0
 11
-38.99220229494132
 21
-278.7014011171809
 31
0.0
  0
LINE
  5
1AD0
330
1ACB
100
AcDbEntity
  8
0
 62
     0
100
AcDbLine
 10
-39.83867301434587
 20
-279.415289315113
 30
0.0
 11
-39.1049111961625
 21
-278.6815274969296
 31
0.0
  0
LINE
  5
1AD1
330
1ACB
100
AcDbEntity
  8
0
 62
     0
100
AcDbLine
 10
-39.95138191556705
 20
-279.3954156948617
 30
0.0
 11
-39.21762009738368
 21
-278.6616538766783
 31
0.0
  0
LINE
  5
1AD2
330
1ACB
100
AcDbEntity
  8
0
 62
     0
100
AcDbLine
 10
-40.06409081678821
 20
-279.3755420746104
 30
0.0
 11
-39.33032899860484
 21
-278.641780256427
 31
0.0
  0
LINE
  5
1AD3
330
1ACB
100
AcDbEntity
  8
0
 62
     0
100
AcDbLine
 10
-40.1767997180094
 20
-279.3556684543591
 30
0.0
 11
-40.06372011526283
 21
-279.2425888516125
 31
0.0
  0
LINE
  5
1AD4
330
1ACB
100
AcDbEntity
  8
0
 62
     0
100
AcDbLine
 10
-39.89688315430998
 20
-279.0757518906596
 30
0.0
 11
-39.44303789982602
 21
-278.6219066361756
 31
0.0
  0
LINE
  5
1AD5
330
1ACB
100
AcDbEntity
  8
0
 62
     0
100
AcDbLine
 10
-40.06372011526283
 20
-279.2425888516125
 30
0.0
 11
-39.89688315430998
 21
-279.0757518906597
 31
0.0
  0
LINE
  5
1AD6
330
1ACB
100
AcDbEntity
  8
0
 62
     0
100
AcDbLine
 10
-40.28950861923056
 20
-279.3357948341077
 30
0.0
 11
-40.10500766087813
 21
-279.1512938757553
 31
0.0
  0
LINE
  5
1AD7
330
1ACB
100
AcDbEntity
  8
0
 62
     0
100
AcDbLine
 10
-39.94078059974761
 20
-278.9870668146248
 30
0.0
 11
-39.5557468010472
 21
-278.6020330159244
 31
0.0
  0
LINE
  5
1AD8
330
1ACB
100
AcDbEntity
  8
0
 62
     0
100
AcDbLine
 10
-40.10500766087811
 20
-279.1512938757553
 30
0.0
 11
-39.9407805997476
 21
-278.9870668146248
 31
0.0
  0
LINE
  5
1AD9
330
1ACB
100
AcDbEntity
  8
0
 62
     0
100
AcDbLine
 10
-40.36990717715883
 20
-279.2836108705636
 30
0.0
 11
-40.1462952064934
 21
-279.0599988998982
 31
0.0
  0
LINE
  5
1ADA
330
1ACB
100
AcDbEntity
  8
0
 62
     0
100
AcDbLine
 10
-39.98467804518519
 20
-278.8983817385899
 30
0.0
 11
-39.66845570226838
 21
-278.5821593956731
 31
0.0
  0
LINE
  5
1ADB
330
1ACB
100
AcDbEntity
  8
0
 62
     0
100
AcDbLine
 10
-40.14629520649338
 20
-279.0599988998981
 30
0.0
 11
-39.98467804518524
 21
-278.89838173859
 31
0.0
  0
LINE
  5
1ADC
330
1ACB
100
AcDbEntity
  8
0
 62
     0
100
AcDbLine
 10
-40.32903303677044
 20
-279.1101542087027
 30
0.0
 11
-40.18758275210868
 21
-278.968703924041
 31
0.0
  0
LINE
  5
1ADD
330
1ACB
100
AcDbEntity
  8
0
 62
     0
100
AcDbLine
 10
-40.02857549062279
 20
-278.8096966625551
 30
0.0
 11
-39.78116460348956
 21
-278.5622857754218
 31
0.0
  0
LINE
  5
1ADE
330
1ACB
100
AcDbEntity
  8
0
 62
     0
100
AcDbLine
 10
-40.18758275210866
 20
-278.9687039240409
 30
0.0
 11
-40.02857549062286
 21
-278.8096966625551
 31
0.0
  0
LINE
  5
1ADF
330
1ACB
100
AcDbEntity
  8
0
 62
     0
100
AcDbLine
 10
-40.28815889638206
 20
-278.9366975468419
 30
0.0
 11
-40.22887029772395
 21
-278.8774089481838
 31
0.0
  0
LINE
  5
1AE0
330
1ACB
100
AcDbEntity
  8
0
 62
     0
100
AcDbLine
 10
-40.07247293606041
 20
-278.7210115865202
 30
0.0
 11
-39.89387350471074
 21
-278.5424121551705
 31
0.0
  0
LINE
  5
1AE1
330
1ACB
100
AcDbEntity
  8
0
 62
     0
100
AcDbLine
 10
-40.22887029772394
 20
-278.8774089481837
 30
0.0
 11
-40.07247293606049
 21
-278.7210115865203
 31
0.0
  0
LINE
  5
1AE2
330
1ACB
100
AcDbEntity
  8
0
 62
     0
100
AcDbLine
 10
-40.27015784333923
 20
-278.7861139723266
 30
0.0
 11
-40.11637038149812
 21
-278.6323265104854
 31
0.0
  0
LINE
  5
1AE3
330
1ACB
100
AcDbEntity
  8
0
 62
     0
100
AcDbLine
 10
-40.116370381498
 20
-278.6323265104853
 30
0.0
 11
-40.00658240593192
 21
-278.5225385349192
 31
0.0
  0
LINE
  5
1AE4
330
1ACB
100
AcDbEntity
  8
0
 62
     0
100
AcDbLine
 10
-40.31144538895452
 20
-278.6948189964694
 30
0.0
 11
-40.30692854477254
 21
-278.6903021522874
 31
0.0
  0
LINE
  5
1AE5
330
1ACB
100
AcDbEntity
  8
0
 62
     0
100
AcDbLine
 10
-39.69215944246978
 20
-278.0755330499846
 30
0.0
 11
-39.59237083622737
 21
-277.9757444437422
 31
0.0
  0
LINE
  5
1AE6
330
1ACB
100
AcDbEntity
  8
0
 62
     0
100
AcDbLine
 10
-40.30692854477248
 20
-278.6903021522873
 30
0.0
 11
-40.20641061560525
 21
-278.5897842231201
 31
0.0
  0
LINE
  5
1AE7
330
1ACB
100
AcDbEntity
  8
0
 62
     0
100
AcDbLine
 10
-40.16017812122486
 20
-278.5435517287397
 30
0.0
 11
-40.11929130715309
 21
-278.5026649146679
 31
0.0
  0
LINE
  5
1AE8
330
1ACB
100
AcDbEntity
  8
0
 62
     0
100
AcDbLine
 10
-40.20466276288202
 20
-278.5880363703969
 30
0.0
 11
-40.16017812122502
 21
-278.5435517287398
 31
0.0
  0
LINE
  5
1AE9
330
1ACB
100
AcDbEntity
  8
0
 62
     0
100
AcDbLine
 10
-40.41225758634928
 20
-278.6630486723916
 30
0.0
 11
-40.23018407840633
 21
-278.4809751644487
 31
0.0
  0
LINE
  5
1AEA
330
1ACB
100
AcDbEntity
  8
0
 62
     0
100
AcDbLine
 10
-39.73691136690469
 20
-277.987702452947
 30
0.0
 11
-39.6371227606623
 21
-277.8879138467047
 31
0.0
  0
LINE
  5
1AEB
330
1ACB
100
AcDbEntity
  8
0
 62
     0
100
AcDbLine
 10
-40.23018407840633
 20
-278.4809751644486
 30
0.0
 11
-40.20259152936932
 21
-278.4533826154117
 31
0.0
  0
LINE
  5
1AEC
330
1ACB
100
AcDbEntity
  8
0
 62
     0
100
AcDbLine
 10
-40.57051962558798
 20
-278.6887281901577
 30
0.0
 11
-40.51758662792604
 21
-278.6357951924959
 31
0.0
  0
LINE
  5
1AED
330
1ACB
100
AcDbEntity
  8
0
 62
     0
100
AcDbLine
 10
-39.78166329133961
 20
-277.8998718559094
 30
0.0
 11
-39.68187468509722
 21
-277.8000832496671
 31
0.0
  0
LINE
  5
1AEE
330
1ACB
100
AcDbEntity
  8
0
 62
     0
100
AcDbLine
 10
-40.51758662792603
 20
-278.6357951924959
 30
0.0
 11
-40.33869630383812
 21
-278.456904868408
 31
0.0
  0
LINE
  5
1AEF
330
1ACB
100
AcDbEntity
  8
0
 62
     0
100
AcDbLine
 10
-40.33869630383812
 20
-278.456904868408
 30
0.0
 11
-40.24734345380425
 21
-278.3655520183742
 31
0.0
  0
LINE
  5
1AF0
330
1ACB
100
AcDbEntity
  8
0
 62
     0
100
AcDbLine
 10
-40.84083440815077
 20
-278.8264604512481
 30
0.0
 11
-40.62291566950281
 21
-278.6085417126002
 31
0.0
  0
LINE
  5
1AF1
330
1ACB
100
AcDbEntity
  8
0
 62
     0
100
AcDbLine
 10
-39.82641521577454
 20
-277.812041258872
 30
0.0
 11
-39.72662660953214
 21
-277.7122526526295
 31
0.0
  0
LINE
  5
1AF2
330
1ACB
100
AcDbEntity
  8
0
 62
     0
100
AcDbLine
 10
-40.62291566950278
 20
-278.6085417126002
 30
0.0
 11
-40.44720852926992
 21
-278.4328345723673
 31
0.0
  0
LINE
  5
1AF3
330
1ACB
100
AcDbEntity
  8
0
 62
     0
100
AcDbLine
 10
-40.44720852926991
 20
-278.4328345723673
 30
0.0
 11
-40.29209537823916
 21
-278.2777214213366
 31
0.0
  0
LINE
  5
1AF4
330
1ACB
100
AcDbEntity
  8
0
 62
     0
100
AcDbLine
 10
-41.07098574326527
 20
-278.9240292648902
 30
0.0
 11
-40.96884180887604
 21
-278.821885330501
 31
0.0
  0
LINE
  5
1AF5
330
1ACB
100
AcDbEntity
  8
0
 62
     0
100
AcDbLine
 10
-39.87116714020946
 20
-277.7242106618344
 30
0.0
 11
-39.77137853396706
 21
-277.624422055592
 31
0.0
  0
LINE
  5
1AF6
330
1ACB
100
AcDbEntity
  8
0
 62
     0
100
AcDbLine
 10
-40.96884180887601
 20
-278.8218853305009
 30
0.0
 11
-40.72824471107957
 21
-278.5812882327045
 31
0.0
  0
LINE
  5
1AF7
330
1ACB
100
AcDbEntity
  8
0
 62
     0
100
AcDbLine
 10
-40.55572075470169
 20
-278.4087642763266
 30
0.0
 11
-40.33684730267409
 21
-278.189890824299
 31
0.0
  0
LINE
  5
1AF8
330
1ACB
100
AcDbEntity
  8
0
 62
     0
100
AcDbLine
 10
-40.72824471107958
 20
-278.5812882327045
 30
0.0
 11
-40.55572075470172
 21
-278.4087642763266
 31
0.0
  0
LINE
  5
1AF9
330
1ACB
100
AcDbEntity
  8
0
 62
     0
100
AcDbLine
 10
-41.11573766770019
 20
-278.8361986678526
 30
0.0
 11
-41.01359373331094
 21
-278.7340547334634
 31
0.0
  0
LINE
  5
1AFA
330
1ACB
100
AcDbEntity
  8
0
 62
     0
100
AcDbLine
 10
-39.91591906464438
 20
-277.6363800647968
 30
0.0
 11
-39.81613045840198
 21
-277.5365914585544
 31
0.0
  0
LINE
  5
1AFB
330
1ACB
100
AcDbEntity
  8
0
 62
     0
100
AcDbLine
 10
-41.01359373331097
 20
-278.7340547334634
 30
0.0
 11
-40.83357375265634
 21
-278.5540347528088
 31
0.0
  0
LINE
  5
1AFC
330
1ACB
100
AcDbEntity
  8
0
 62
     0
100
AcDbLine
 10
-40.66423298013347
 20
-278.3846939802859
 30
0.0
 11
-40.38159922710902
 21
-278.1020602272615
 31
0.0
  0
LINE
  5
1AFD
330
1ACB
100
AcDbEntity
  8
0
 62
     0
100
AcDbLine
 10
-40.83357375265634
 20
-278.5540347528088
 30
0.0
 11
-40.66423298013349
 21
-278.384693980286
 31
0.0
  0
LINE
  5
1AFE
330
1ACB
100
AcDbEntity
  8
0
 62
     0
100
AcDbLine
 10
-41.16048959213512
 20
-278.7483680708151
 30
0.0
 11
-41.05834565774588
 21
-278.6462241364259
 31
0.0
  0
LINE
  5
1AFF
330
1ACB
100
AcDbEntity
  8
0
 62
     0
100
AcDbLine
 10
-39.96067098907931
 20
-277.5485494677593
 30
0.0
 11
-39.86088238283691
 21
-277.4487608615169
 31
0.0
  0
LINE
  5
1B00
330
1ACB
100
AcDbEntity
  8
0
 62
     0
100
AcDbLine
 10
-41.05834565774586
 20
-278.6462241364258
 30
0.0
 11
-40.93646758632097
 21
-278.524346065001
 31
0.0
  0
LINE
  5
1B01
330
1ACB
100
AcDbEntity
  8
0
 62
     0
100
AcDbLine
 10
-40.77274520556526
 20
-278.3606236842452
 30
0.0
 11
-40.42635115154395
 21
-278.0142296302239
 31
0.0
  0
LINE
  5
1B02
330
1ACB
100
AcDbEntity
  8
0
 62
     0
100
AcDbLine
 10
-40.93646758632099
 20
-278.524346065001
 30
0.0
 11
-40.77274520556528
 21
-278.3606236842453
 31
0.0
  0
LINE
  5
1B03
330
1ACB
100
AcDbEntity
  8
0
 62
     0
100
AcDbLine
 10
-41.20524151657004
 20
-278.6605374737775
 30
0.0
 11
-41.10309758218079
 21
-278.5583935393883
 31
0.0
  0
LINE
  5
1B04
330
1ACB
100
AcDbEntity
  8
0
 62
     0
100
AcDbLine
 10
-40.00542291351423
 20
-277.4607188707217
 30
0.0
 11
-39.90563430727183
 21
-277.3609302644794
 31
0.0
  0
LINE
  5
1B05
330
1ACB
100
AcDbEntity
  8
0
 62
     0
100
AcDbLine
 10
-41.10309758218081
 20
-278.5583935393883
 30
0.0
 11
-40.90160135388338
 21
-278.3568973110909
 31
0.0
  0
LINE
  5
1B06
330
1ACB
100
AcDbEntity
  8
0
 62
     0
100
AcDbLine
 10
-40.87969543086212
 20
-278.3349913880696
 30
0.0
 11
-40.47110307597886
 21
-277.9263990331864
 31
0.0
  0
LINE
  5
1B07
330
1ACB
100
AcDbEntity
  8
0
 62
     0
100
AcDbLine
 10
-40.9016013538834
 20
-278.3568973110909
 30
0.0
 11
-40.87969543086214
 21
-278.3349913880696
 31
0.0
  0
LINE
  5
1B08
330
1ACB
100
AcDbEntity
  8
0
 62
     0
100
AcDbLine
 10
-41.24999344100497
 20
-278.57270687674
 30
0.0
 11
-41.14784950661573
 21
-278.4705629423507
 31
0.0
  0
LINE
  5
1B09
330
1ACB
100
AcDbEntity
  8
0
 62
     0
100
AcDbLine
 10
-40.05017483794916
 20
-277.3728882736842
 30
0.0
 11
-39.95038623170675
 21
-277.2730996674417
 31
0.0
  0
LINE
  5
1B0A
330
1ACB
100
AcDbEntity
  8
0
 62
     0
100
AcDbLine
 10
-41.14784950661571
 20
-278.4705629423507
 30
0.0
 11
-40.51585500041379
 21
-277.8385684361488
 31
0.0
  0
LINE
  5
1B0B
330
1ACB
100
AcDbEntity
  8
0
 62
     0
100
AcDbLine
 10
-40.13520989857035
 20
-277.4579233343053
 30
0.0
 11
-40.05017483794913
 21
-277.3728882736842
 31
0.0
  0
LINE
  5
1B0C
330
1ACB
100
AcDbEntity
  8
0
 62
     0
100
AcDbLine
 10
-41.29474536543989
 20
-278.4848762797024
 30
0.0
 11
-41.19260143105066
 21
-278.3827323453132
 31
0.0
  0
LINE
  5
1B0D
330
1ACB
100
AcDbEntity
  8
0
 62
     0
100
AcDbLine
 10
-40.09492676238408
 20
-277.2850576766466
 30
0.0
 11
-39.99513815614167
 21
-277.1852690704042
 31
0.0
  0
LINE
  5
1B0E
330
1ACB
100
AcDbEntity
  8
0
 62
     0
100
AcDbLine
 10
-41.19260143105065
 20
-278.3827323453131
 30
0.0
 11
-40.56060692484869
 21
-277.7507378391113
 31
0.0
  0
LINE
  5
1B0F
330
1ACB
100
AcDbEntity
  8
0
 62
     0
100
AcDbLine
 10
-40.39402495983168
 20
-277.5841558740942
 30
0.0
 11
-40.09492676238404
 21
-277.2850576766466
 31
0.0
  0
LINE
  5
1B10
330
1ACB
100
AcDbEntity
  8
0
 62
     0
100
AcDbLine
 10
-41.3394972898748
 20
-278.3970456826649
 30
0.0
 11
-41.23735335548558
 21
-278.2949017482756
 31
0.0
  0
LINE
  5
1B11
330
1ACB
100
AcDbEntity
  8
0
 62
     0
100
AcDbLine
 10
-40.13967868681899
 20
-277.197227079609
 30
0.0
 11
-40.0398900805766
 21
-277.0974384733666
 31
0.0
  0
LINE
  5
1B12
330
1ACB
100
AcDbEntity
  8
0
 62
     0
100
AcDbLine
 10
-41.23735335548557
 20
-278.2949017482756
 30
0.0
 11
-40.65284002109301
 21
-277.7103884138831
 31
0.0
  0
LINE
  5
1B13
330
1ACB
100
AcDbEntity
  8
0
 62
     0
100
AcDbLine
 10
-40.65284002109302
 20
-277.710388413883
 30
0.0
 11
-40.33209807941335
 21
-277.3896464722034
 31
0.0
  0
LINE
  5
1B14
330
1ACB
100
AcDbEntity
  8
0
 62
     0
100
AcDbLine
 10
-41.38424921430973
 20
-278.3092150856273
 30
0.0
 11
-41.28210527992051
 21
-278.2070711512381
 31
0.0
  0
LINE
  5
1B15
330
1ACB
100
AcDbEntity
  8
0
 62
     0
100
AcDbLine
 10
-40.18443061125393
 20
-277.1093964825715
 30
0.0
 11
-40.08464200501151
 21
-277.0096078763291
 31
0.0
  0
LINE
  5
1B16
330
1ACB
100
AcDbEntity
  8
0
 62
     0
100
AcDbLine
 10
-41.2821052799205
 20
-278.2070711512381
 30
0.0
 11
-40.91165508235433
 21
-277.8366209536719
 31
0.0
  0
LINE
  5
1B17
330
1ACB
100
AcDbEntity
  8
0
 62
     0
100
AcDbLine
 10
-40.91165508235427
 20
-277.8366209536719
 30
0.0
 11
-40.60241286197611
 21
-277.5273787332937
 31
0.0
  0
LINE
  5
1B18
330
1ACB
100
AcDbEntity
  8
0
 62
     0
100
AcDbLine
 10
-41.42900113874467
 20
-278.2213844885897
 30
0.0
 11
-41.32685720435543
 21
-278.1192405542005
 31
0.0
  0
LINE
  5
1B19
330
1ACB
100
AcDbEntity
  8
0
 62
     0
100
AcDbLine
 10
-40.22918253568884
 20
-277.0215658855339
 30
0.0
 11
-40.12939392944644
 21
-276.9217772792915
 31
0.0
  0
LINE
  5
1B1A
330
1ACB
100
AcDbEntity
  8
0
 62
     0
100
AcDbLine
 10
-41.32685720435541
 20
-278.1192405542005
 30
0.0
 11
-40.99595323982196
 21
-277.788336589667
 31
0.0
  0
LINE
  5
1B1B
330
1ACB
100
AcDbEntity
  8
0
 62
     0
100
AcDbLine
 10
-40.87272764453877
 20
-277.6651109943838
 30
0.0
 11
-40.69486269815346
 21
-277.4872460479985
 31
0.0
  0
LINE
  5
1B1C
330
1ACB
100
AcDbEntity
  8
0
 62
     0
100
AcDbLine
 10
-40.99595323982194
 20
-277.788336589667
 30
0.0
 11
-40.87272764453897
 21
-277.665110994384
 31
0.0
  0
LINE
  5
1B1D
330
1ACB
100
AcDbEntity
  8
0
 62
     0
100
AcDbLine
 10
-41.47375306317957
 20
-278.1335538915521
 30
0.0
 11
-41.37160912879036
 21
-278.031409957163
 31
0.0
  0
LINE
  5
1B1E
330
1ACB
100
AcDbEntity
  8
0
 62
     0
100
AcDbLine
 10
-40.27393446012377
 20
-276.9337352884964
 30
0.0
 11
-40.17414585388136
 21
-276.833946682254
 31
0.0
  0
LINE
  5
1B1F
330
1ACB
100
AcDbEntity
  8
0
 62
     0
100
AcDbLine
 10
-41.37160912879035
 20
-278.0314099571629
 30
0.0
 11
-40.73961462258838
 21
-277.399415450961
 31
0.0
  0
LINE
  5
1B20
330
1ACB
100
AcDbEntity
  8
0
 62
     0
100
AcDbLine
 10
-41.51850498761451
 20
-278.0457232945146
 30
0.0
 11
-41.41636105322528
 21
-277.9435793601255
 31
0.0
  0
LINE
  5
1B21
330
1ACB
100
AcDbEntity
  8
0
 62
     0
100
AcDbLine
 10
-40.3186863845587
 20
-276.8459046914588
 30
0.0
 11
-40.21889777831629
 21
-276.7461160852164
 31
0.0
  0
LINE
  5
1B22
330
1ACB
100
AcDbEntity
  8
0
 62
     0
100
AcDbLine
 10
-41.41636105322527
 20
-277.9435793601254
 30
0.0
 11
-40.78436654702331
 21
-277.3115848539234
 31
0.0
  0
LINE
  5
1B23
330
1ACB
100
AcDbEntity
  8
0
 62
     0
100
AcDbLine
 10
-41.56325691204942
 20
-277.9578926974771
 30
0.0
 11
-41.46111297766021
 21
-277.8557487630879
 31
0.0
  0
LINE
  5
1B24
330
1ACB
100
AcDbEntity
  8
0
 62
     0
100
AcDbLine
 10
-40.36343830899361
 20
-276.7580740944213
 30
0.0
 11
-40.2636497027512
 21
-276.6582854881789
 31
0.0
  0
LINE
  5
1B25
330
1ACB
100
AcDbEntity
  8
0
 62
     0
100
AcDbLine
 10
-41.4611129776602
 20
-277.8557487630878
 30
0.0
 11
-40.82911847145823
 21
-277.2237542568859
 31
0.0
  0
LINE
  5
1B26
330
1ACB
100
AcDbEntity
  8
0
 62
     0
100
AcDbLine
 10
-41.60800883648435
 20
-277.8700621004395
 30
0.0
 11
-41.50586490209513
 21
-277.7679181660503
 31
0.0
  0
LINE
  5
1B27
330
1ACB
100
AcDbEntity
  8
0
 62
     0
100
AcDbLine
 10
-40.40819023342854
 20
-276.6702434973837
 30
0.0
 11
-40.30840162718615
 21
-276.5704548911414
 31
0.0
  0
LINE
  5
1B28
330
1ACB
100
AcDbEntity
  8
0
 62
     0
100
AcDbLine
 10
-41.50586490209512
 20
-277.7679181660503
 30
0.0
 11
-40.87387039589315
 21
-277.1359236598483
 31
0.0
  0
LINE
  5
1B29
330
1ACB
100
AcDbEntity
  8
0
 62
     0
100
AcDbLine
 10
-41.65276076091928
 20
-277.782231503402
 30
0.0
 11
-41.55061682653006
 21
-277.6800875690128
 31
0.0
  0
LINE
  5
1B2A
330
1ACB
100
AcDbEntity
  8
0
 62
     0
100
AcDbLine
 10
-40.45294215786347
 20
-276.5824129003462
 30
0.0
 11
-40.35315355162107
 21
-276.4826242941037
 31
0.0
  0
LINE
  5
1B2B
330
1ACB
100
AcDbEntity
  8
0
 62
     0
100
AcDbLine
 10
-41.55061682653004
 20
-277.6800875690128
 30
0.0
 11
-40.91862232032808
 21
-277.0480930628108
 31
0.0
  0
LINE
  5
1B2C
330
1ACB
100
AcDbEntity
  8
0
 62
     0
100
AcDbLine
 10
-41.6975126853542
 20
-277.6944009063644
 30
0.0
 11
-41.59536875096497
 21
-277.5922569719752
 31
0.0
  0
LINE
  5
1B2D
330
1ACB
100
AcDbEntity
  8
0
 62
     0
100
AcDbLine
 10
-40.49769408229838
 20
-276.4945823033086
 30
0.0
 11
-40.39790547605599
 21
-276.3947936970662
 31
0.0
  0
LINE
  5
1B2E
330
1ACB
100
AcDbEntity
  8
0
 62
     0
100
AcDbLine
 10
-41.59536875096496
 20
-277.5922569719751
 30
0.0
 11
-40.963374244763
 21
-276.9602624657732
 31
0.0
  0
LINE
  5
1B2F
330
1ACB
100
AcDbEntity
  8
0
 62
     0
100
AcDbLine
 10
-41.74226460978912
 20
-277.6065703093268
 30
0.0
 11
-41.6401206753999
 21
-277.5044263749377
 31
0.0
  0
LINE
  5
1B30
330
1ACB
100
AcDbEntity
  8
0
 62
     0
100
AcDbLine
 10
-40.54244600673332
 20
-276.4067517062711
 30
0.0
 11
-40.44265740049091
 21
-276.3069631000287
 31
0.0
  0
LINE
  5
1B31
330
1ACB
100
AcDbEntity
  8
0
 62
     0
100
AcDbLine
 10
-41.64012067539989
 20
-277.5044263749376
 30
0.0
 11
-41.00812616919793
 21
-276.8724318687357
 31
0.0
  0
LINE
  5
1B32
330
1ACB
100
AcDbEntity
  8
0
 62
     0
100
AcDbLine
 10
-41.78701653422404
 20
-277.5187397122893
 30
0.0
 11
-41.68487259983481
 21
-277.4165957779001
 31
0.0
  0
LINE
  5
1B33
330
1ACB
100
AcDbEntity
  8
0
 62
     0
100
AcDbLine
 10
-40.58719793116824
 20
-276.3189211092335
 30
0.0
 11
-40.48740932492584
 21
-276.2191325029911
 31
0.0
  0
LINE
  5
1B34
330
1ACB
100
AcDbEntity
  8
0
 62
     0
100
AcDbLine
 10
-41.68487259983482
 20
-277.4165957779001
 30
0.0
 11
-41.05287809363285
 21
-276.7846012716981
 31
0.0
  0
LINE
  5
1B35
330
1ACB
100
AcDbEntity
  8
0
 62
     0
100
AcDbLine
 10
-41.83176845865896
 20
-277.4309091152518
 30
0.0
 11
-41.72962452426975
 21
-277.3287651808626
 31
0.0
  0
LINE
  5
1B36
330
1ACB
100
AcDbEntity
  8
0
 62
     0
100
AcDbLine
 10
-40.63194985560315
 20
-276.2310905121959
 30
0.0
 11
-40.53216124936076
 21
-276.1313019059535
 31
0.0
  0
LINE
  5
1B37
330
1ACB
100
AcDbEntity
  8
0
 62
     0
100
AcDbLine
 10
-41.72962452426975
 20
-277.3287651808625
 30
0.0
 11
-41.09763001806778
 21
-276.6967706746606
 31
0.0
  0
LINE
  5
1B38
330
1ACB
100
AcDbEntity
  8
0
 62
     0
100
AcDbLine
 10
-41.8765203830939
 20
-277.3430785182142
 30
0.0
 11
-41.77437644870467
 21
-277.240934583825
 31
0.0
  0
LINE
  5
1B39
330
1ACB
100
AcDbEntity
  8
0
 62
     0
100
AcDbLine
 10
-40.67670178003808
 20
-276.1432599151584
 30
0.0
 11
-40.57691317379568
 21
-276.043471308916
 31
0.0
  0
LINE
  5
1B3A
330
1ACB
100
AcDbEntity
  8
0
 62
     0
100
AcDbLine
 10
-41.77437644870467
 20
-277.240934583825
 30
0.0
 11
-41.1423819425027
 21
-276.608940077623
 31
0.0
  0
LINE
  5
1B3B
330
1ACB
100
AcDbEntity
  8
0
 62
     0
100
AcDbLine
 10
-41.92127230752881
 20
-277.2552479211766
 30
0.0
 11
-41.8191283731396
 21
-277.1531039867875
 31
0.0
  0
LINE
  5
1B3C
330
1ACB
100
AcDbEntity
  8
0
 62
     0
100
AcDbLine
 10
-40.72145370447301
 20
-276.0554293181209
 30
0.0
 11
-40.6216650982306
 21
-275.9556407118785
 31
0.0
  0
LINE
  5
1B3D
330
1ACB
100
AcDbEntity
  8
0
 62
     0
100
AcDbLine
 10
-41.81912837313959
 20
-277.1531039867874
 30
0.0
 11
-41.18713386693762
 21
-276.5211094805855
 31
0.0
  0
LINE
  5
1B3E
330
1ACB
100
AcDbEntity
  8
0
 62
     0
100
AcDbLine
 10
-41.96602423196374
 20
-277.1674173241391
 30
0.0
 11
-41.86388029757452
 21
-277.0652733897499
 31
0.0
  0
LINE
  5
1B3F
330
1ACB
100
AcDbEntity
  8
0
 62
     0
100
AcDbLine
 10
-35.8061910555824
 20
-271.0075841477578
 30
0.0
 11
-35.70443277119299
 21
-270.9058258633683
 31
0.0
  0
LINE
  5
1B40
330
1ACB
100
AcDbEntity
  8
0
 62
     0
100
AcDbLine
 10
-41.86388029757451
 20
-277.0652733897498
 30
0.0
 11
-41.23188579137255
 21
-276.4332788835479
 31
0.0
  0
LINE
  5
1B41
330
1ACB
100
AcDbEntity
  8
0
 62
     0
100
AcDbLine
 10
-40.76620562890794
 20
-275.9675987210833
 30
0.0
 11
-40.66641702266553
 21
-275.8678101148409
 31
0.0
  0
LINE
  5
1B42
330
1ACB
100
AcDbEntity
  8
0
 62
     0
100
AcDbLine
 10
-42.01077615639866
 20
-277.0795867271015
 30
0.0
 11
-41.90863222200944
 21
-276.9774427927123
 31
0.0
  0
LINE
  5
1B43
330
1ACB
100
AcDbEntity
  8
0
 62
     0
100
AcDbLine
 10
-35.93877357705487
 20
-271.0075841477578
 30
0.0
 11
-35.70443277119299
 21
-270.7732433418959
 31
0.0
  0
LINE
  5
1B44
330
1ACB
100
AcDbEntity
  8
0
 62
     0
100
AcDbLine
 10
-41.90863222200944
 20
-276.9774427927123
 30
0.0
 11
-41.27663771580747
 21
-276.3454482865104
 31
0.0
  0
LINE
  5
1B45
330
1ACB
100
AcDbEntity
  8
0
 62
     0
100
AcDbLine
 10
-40.81095755334286
 20
-275.8797681240458
 30
0.0
 11
-40.71116894710044
 21
-275.7799795178034
 31
0.0
  0
LINE
  5
1B46
330
1ACB
100
AcDbEntity
  8
0
 62
     0
100
AcDbLine
 10
-42.05552808083359
 20
-276.991756130064
 30
0.0
 11
-41.95338414644437
 21
-276.8896121956748
 31
0.0
  0
LINE
  5
1B47
330
1ACB
100
AcDbEntity
  8
0
 62
     0
100
AcDbLine
 10
-36.07135609852736
 20
-271.0075841477578
 30
0.0
 11
-35.70443277119299
 21
-270.6406608204234
 31
0.0
  0
LINE
  5
1B48
330
1ACB
100
AcDbEntity
  8
0
 62
     0
100
AcDbLine
 10
-41.95338414644437
 20
-276.8896121956748
 30
0.0
 11
-41.32138964024239
 21
-276.2576176894728
 31
0.0
  0
LINE
  5
1B49
330
1ACB
100
AcDbEntity
  8
0
 62
     0
100
AcDbLine
 10
-40.85570947777777
 20
-275.7919375270082
 30
0.0
 11
-40.75592087153537
 21
-275.6921489207658
 31
0.0
  0
LINE
  5
1B4A
330
1ACB
100
AcDbEntity
  8
0
 62
     0
100
AcDbLine
 10
-42.10028000526851
 20
-276.9039255330264
 30
0.0
 11
-41.99813607087929
 21
-276.8017815986373
 31
0.0
  0
LINE
  5
1B4B
330
1ACB
100
AcDbEntity
  8
0
 62
     0
100
AcDbLine
 10
-36.20393861999985
 20
-271.0075841477578
 30
0.0
 11
-35.70443277119299
 21
-270.5080782989509
 31
0.0
  0
LINE
  5
1B4C
330
1ACB
100
AcDbEntity
  8
0
 62
     0
100
AcDbLine
 10
-41.99813607087929
 20
-276.8017815986372
 30
0.0
 11
-41.36614156467731
 21
-276.1697870924352
 31
0.0
  0
LINE
  5
1B4D
330
1ACB
100
AcDbEntity
  8
0
 62
     0
100
AcDbLine
 10
-40.90046140221271
 20
-275.7041069299706
 30
0.0
 11
-40.80067279597029
 21
-275.6043183237283
 31
0.0
  0
LINE
  5
1B4E
330
1ACB
100
AcDbEntity
  8
0
 62
     0
100
AcDbLine
 10
-42.14503192970343
 20
-276.8160949359889
 30
0.0
 11
-42.04288799531422
 21
-276.7139510015997
 31
0.0
  0
LINE
  5
1B4F
330
1ACB
100
AcDbEntity
  8
0
 62
     0
100
AcDbLine
 10
-36.33652114147233
 20
-271.0075841477578
 30
0.0
 11
-35.70443277119299
 21
-270.3754957774785
 31
0.0
  0
LINE
  5
1B50
330
1ACB
100
AcDbEntity
  8
0
 62
     0
100
AcDbLine
 10
-42.04288799531422
 20
-276.7139510015996
 30
0.0
 11
-41.41089348911224
 21
-276.0819564953977
 31
0.0
  0
LINE
  5
1B51
330
1ACB
100
AcDbEntity
  8
0
 62
     0
100
AcDbLine
 10
-40.94521332664762
 20
-275.6162763329331
 30
0.0
 11
-40.84542472040522
 21
-275.5164877266907
 31
0.0
  0
LINE
  5
1B52
330
1ACB
100
AcDbEntity
  8
0
 62
     0
100
AcDbLine
 10
-42.18978385413836
 20
-276.7282643389513
 30
0.0
 11
-42.08763991974914
 21
-276.6261204045621
 31
0.0
  0
LINE
  5
1B53
330
1ACB
100
AcDbEntity
  8
0
 62
     0
100
AcDbLine
 10
-36.46910366294478
 20
-271.0075841477578
 30
0.0
 11
-35.70443277119299
 21
-270.242913256006
 31
0.0
  0
LINE
  5
1B54
330
1ACB
100
AcDbEntity
  8
0
 62
     0
100
AcDbLine
 10
-42.08763991974914
 20
-276.6261204045621
 30
0.0
 11
-41.45564541354717
 21
-275.9941258983601
 31
0.0
  0
LINE
  5
1B55
330
1ACB
100
AcDbEntity
  8
0
 62
     0
100
AcDbLine
 10
-40.98996525108254
 20
-275.5284457358955
 30
0.0
 11
-40.89017664484013
 21
-275.4286571296531
 31
0.0
  0
LINE
  5
1B56
330
1ACB
100
AcDbEntity
  8
0
 62
     0
100
AcDbLine
 10
-42.23453577857329
 20
-276.6404337419138
 30
0.0
 11
-42.13239184418406
 21
-276.5382898075245
 31
0.0
  0
LINE
  5
1B57
330
1ACB
100
AcDbEntity
  8
0
 62
     0
100
AcDbLine
 10
-36.60168618441726
 20
-271.0075841477578
 30
0.0
 11
-35.7069169949642
 21
-270.1128149583047
 31
0.0
  0
LINE
  5
1B58
330
1ACB
100
AcDbEntity
  8
0
 62
     0
100
AcDbLine
 10
-42.13239184418408
 20
-276.5382898075245
 30
0.0
 11
-41.50039733798208
 21
-275.9062953013226
 31
0.0
  0
LINE
  5
1B59
330
1ACB
100
AcDbEntity
  8
0
 62
     0
100
AcDbLine
 10
-41.03471717551747
 20
-275.4406151388579
 30
0.0
 11
-40.93492856927506
 21
-275.3408265326156
 31
0.0
  0
LINE
  5
1B5A
330
1ACB
100
AcDbEntity
  8
0
 62
     0
100
AcDbLine
 10
-42.2792877030082
 20
-276.5526031448762
 30
0.0
 11
-42.17714376861898
 21
-276.450459210487
 31
0.0
  0
LINE
  5
1B5B
330
1ACB
100
AcDbEntity
  8
0
 62
     0
100
AcDbLine
 10
-36.73426870588975
 20
-271.0075841477578
 30
0.0
 11
-35.83949951643669
 21
-270.1128149583047
 31
0.0
  0
LINE
  5
1B5C
330
1ACB
100
AcDbEntity
  8
0
 62
     0
100
AcDbLine
 10
-42.17714376861898
 20
-276.450459210487
 30
0.0
 11
-41.54514926241701
 21
-275.818464704285
 31
0.0
  0
LINE
  5
1B5D
330
1ACB
100
AcDbEntity
  8
0
 62
     0
100
AcDbLine
 10
-41.0794690999524
 20
-275.3527845418204
 30
0.0
 11
-40.97968049370998
 21
-275.2529959355781
 31
0.0
  0
LINE
  5
1B5E
330
1ACB
100
AcDbEntity
  8
0
 62
     0
100
AcDbLine
 10
-42.32403962744313
 20
-276.4647725478386
 30
0.0
 11
-42.22189569305391
 21
-276.3626286134495
 31
0.0
  0
LINE
  5
1B5F
330
1ACB
100
AcDbEntity
  8
0
 62
     0
100
AcDbLine
 10
-36.86685122736224
 20
-271.0075841477578
 30
0.0
 11
-35.97208203790917
 21
-270.1128149583047
 31
0.0
  0
LINE
  5
1B60
330
1ACB
100
AcDbEntity
  8
0
 62
     0
100
AcDbLine
 10
-42.22189569305391
 20
-276.3626286134494
 30
0.0
 11
-41.58990118685194
 21
-275.7306341072474
 31
0.0
  0
LINE
  5
1B61
330
1ACB
100
AcDbEntity
  8
0
 62
     0
100
AcDbLine
 10
-41.12422102438733
 20
-275.2649539447828
 30
0.0
 11
-41.02443241814492
 21
-275.1651653385405
 31
0.0
  0
LINE
  5
1B62
330
1ACB
100
AcDbEntity
  8
0
 62
     0
100
AcDbLine
 10
-42.36879155187804
 20
-276.3769419508011
 30
0.0
 11
-42.2684645752521
 21
-276.2766149741751
 31
0.0
  0
LINE
  5
1B63
330
1ACB
100
AcDbEntity
  8
0
 62
     0
100
AcDbLine
 10
-36.99943374883472
 20
-271.0075841477578
 30
0.0
 11
-36.10466455938166
 21
-270.1128149583047
 31
0.0
  0
LINE
  5
1B64
330
1ACB
100
AcDbEntity
  8
0
 62
     0
100
AcDbLine
 10
-42.26664761748884
 20
-276.2747980164119
 30
0.0
 11
-42.19792528481469
 21
-276.2060756837377
 31
0.0
  0
LINE
  5
1B65
330
1ACB
100
AcDbEntity
  8
0
 62
     0
100
AcDbLine
 10
-41.16897294882225
 20
-275.1771233477454
 30
0.0
 11
-41.06918434257984
 21
-275.0773347415029
 31
0.0
  0
LINE
  5
1B66
330
1ACB
100
AcDbEntity
  8
0
 62
     0
100
AcDbLine
 10
-42.1979252848146
 20
-276.2060756837377
 30
0.0
 11
-42.10043854447298
 21
-276.108588943396
 31
0.0
  0
LINE
  5
1B67
330
1ACB
100
AcDbEntity
  8
0
 62
     0
100
AcDbLine
 10
-41.99598251496389
 20
-276.004132913887
 30
0.0
 11
-41.63465311128686
 21
-275.6428035102099
 31
0.0
  0
LINE
  5
1B68
330
1ACB
100
AcDbEntity
  8
0
 62
     0
100
AcDbLine
 10
-42.10043854447292
 20
-276.1085889433959
 30
0.0
 11
-42.09566753742882
 21
-276.1038179363519
 31
0.0
  0
LINE
  5
1B69
330
1ACB
100
AcDbEntity
  8
0
 62
     0
100
AcDbLine
 10
-42.09566753742871
 20
-276.1038179363518
 30
0.0
 11
-41.99598251496389
 21
-276.004132913887
 31
0.0
  0
LINE
  5
1B6A
330
1ACB
100
AcDbEntity
  8
0
 62
     0
100
AcDbLine
 10
-42.41354347631298
 20
-276.2891113537635
 30
0.0
 11
-42.31321649968703
 21
-276.1887843771376
 31
0.0
  0
LINE
  5
1B6B
330
1ACB
100
AcDbEntity
  8
0
 62
     0
100
AcDbLine
 10
-37.13201627030717
 20
-271.0075841477578
 30
0.0
 11
-36.23724708085414
 21
-270.1128149583047
 31
0.0
  0
LINE
  5
1B6C
330
1ACB
100
AcDbEntity
  8
0
 62
     0
100
AcDbLine
 10
-42.31139954192374
 20
-276.1869674193743
 30
0.0
 11
-42.1892754338011
 21
-276.0648433112517
 31
0.0
  0
LINE
  5
1B6D
330
1ACB
100
AcDbEntity
  8
0
 62
     0
100
AcDbLine
 10
-41.21372487325716
 20
-275.0892927507078
 30
0.0
 11
-41.11393626701477
 21
-274.9895041444653
 31
0.0
  0
LINE
  5
1B6E
330
1ACB
100
AcDbEntity
  8
0
 62
     0
100
AcDbLine
 10
-42.18927543380108
 20
-276.0648433112517
 30
0.0
 11
-42.14458912338753
 21
-276.0201570008381
 31
0.0
  0
LINE
  5
1B6F
330
1ACB
100
AcDbEntity
  8
0
 62
     0
100
AcDbLine
 10
-41.96714156490001
 20
-275.8427094423506
 30
0.0
 11
-41.67940503572178
 21
-275.5549729131724
 31
0.0
  0
LINE
  5
1B70
330
1ACB
100
AcDbEntity
  8
0
 62
     0
100
AcDbLine
 10
-42.11450619999326
 20
-275.9900740774438
 30
0.0
 11
-41.96714156489998
 21
-275.8427094423506
 31
0.0
  0
LINE
  5
1B71
330
1ACB
100
AcDbEntity
  8
0
 62
     0
100
AcDbLine
 10
-42.4582954007479
 20
-276.201280756726
 30
0.0
 11
-42.35796842412195
 21
-276.1009537801001
 31
0.0
  0
LINE
  5
1B72
330
1ACB
100
AcDbEntity
  8
0
 62
     0
100
AcDbLine
 10
-37.26459879177965
 20
-271.0075841477578
 30
0.0
 11
-36.36982960232659
 21
-270.1128149583047
 31
0.0
  0
LINE
  5
1B73
330
1ACB
100
AcDbEntity
  8
0
 62
     0
100
AcDbLine
 10
-42.35615146635868
 20
-276.0991368223368
 30
0.0
 11
-42.27628628029851
 21
-276.0192716362766
 31
0.0
  0
LINE
  5
1B74
330
1ACB
100
AcDbEntity
  8
0
 62
     0
100
AcDbLine
 10
-41.2584767976921
 20
-275.0014621536702
 30
0.0
 11
-41.15868819144969
 21
-274.9016735474278
 31
0.0
  0
LINE
  5
1B75
330
1ACB
100
AcDbEntity
  8
0
 62
     0
100
AcDbLine
 10
-42.27628628029848
 20
-276.0192716362765
 30
0.0
 11
-41.83861559237119
 21
-275.5816009483493
 31
0.0
  0
LINE
  5
1B76
330
1ACB
100
AcDbEntity
  8
0
 62
     0
100
AcDbLine
 10
-41.83861559237118
 20
-275.5816009483492
 30
0.0
 11
-41.72415696015671
 21
-275.4671423161348
 31
0.0
  0
LINE
  5
1B77
330
1ACB
100
AcDbEntity
  8
0
 62
     0
100
AcDbLine
 10
-42.50304732518282
 20
-276.1134501596885
 30
0.0
 11
-42.40272034855689
 21
-276.0131231830625
 31
0.0
  0
LINE
  5
1B78
330
1ACB
100
AcDbEntity
  8
0
 62
     0
100
AcDbLine
 10
-37.39718131325214
 20
-271.0075841477578
 30
0.0
 11
-36.50241212379908
 21
-270.1128149583047
 31
0.0
  0
LINE
  5
1B79
330
1ACB
100
AcDbEntity
  8
0
 62
     0
100
AcDbLine
 10
-42.4009033907936
 20
-276.0113062252992
 30
0.0
 11
-42.19714334742477
 21
-275.8075461819304
 31
0.0
  0
LINE
  5
1B7A
330
1ACB
100
AcDbEntity
  8
0
 62
     0
100
AcDbLine
 10
-41.30322872212701
 20
-274.9136315566326
 30
0.0
 11
-41.20344011588461
 21
-274.8138429503903
 31
0.0
  0
LINE
  5
1B7B
330
1ACB
100
AcDbEntity
  8
0
 62
     0
100
AcDbLine
 10
-42.19714334742469
 20
-275.8075461819303
 30
0.0
 11
-42.14776030776967
 21
-275.7581631422754
 31
0.0
  0
LINE
  5
1B7C
330
1ACB
100
AcDbEntity
  8
0
 62
     0
100
AcDbLine
 10
-42.14776030776969
 20
-275.7581631422754
 30
0.0
 11
-41.71008961984234
 21
-275.320492454348
 31
0.0
  0
LINE
  5
1B7D
330
1ACB
100
AcDbEntity
  8
0
 62
     0
100
AcDbLine
 10
-42.54779924961775
 20
-276.0256195626509
 30
0.0
 11
-42.44747227299181
 21
-275.925292586025
 31
0.0
  0
LINE
  5
1B7E
330
1ACB
100
AcDbEntity
  8
0
 62
     0
100
AcDbLine
 10
-37.52976383472462
 20
-271.0075841477578
 30
0.0
 11
-36.63499464527156
 21
-270.1128149583047
 31
0.0
  0
LINE
  5
1B7F
330
1ACB
100
AcDbEntity
  8
0
 62
     0
100
AcDbLine
 10
-42.44565531522854
 20
-275.9234756282617
 30
0.0
 11
-42.01923433524084
 21
-275.497054648274
 31
0.0
  0
LINE
  5
1B80
330
1ACB
100
AcDbEntity
  8
0
 62
     0
100
AcDbLine
 10
-41.34798064656194
 20
-274.8258009595951
 30
0.0
 11
-41.24819204031953
 21
-274.7260123533527
 31
0.0
  0
LINE
  5
1B81
330
1ACB
100
AcDbEntity
  8
0
 62
     0
100
AcDbLine
 10
-42.01923433524087
 20
-275.497054648274
 30
0.0
 11
-41.58156364731355
 21
-275.0593839603467
 31
0.0
  0
LINE
  5
1B82
330
1ACB
100
AcDbEntity
  8
0
 62
     0
100
AcDbLine
 10
-42.59255117405266
 20
-275.9377889656133
 30
0.0
 11
-42.49040723966347
 21
-275.8356450312241
 31
0.0
  0
LINE
  5
1B83
330
1ACB
100
AcDbEntity
  8
0
 62
     0
100
AcDbLine
 10
-37.6623463561971
 20
-271.0075841477578
 30
0.0
 11
-36.76757716674404
 21
-270.1128149583047
 31
0.0
  0
LINE
  5
1B84
330
1ACB
100
AcDbEntity
  8
0
 62
     0
100
AcDbLine
 10
-42.49040723966347
 20
-275.8356450312241
 30
0.0
 11
-41.89070836271205
 21
-275.2359461542728
 31
0.0
  0
LINE
  5
1B85
330
1ACB
100
AcDbEntity
  8
0
 62
     0
100
AcDbLine
 10
-41.39273257099687
 20
-274.7379703625575
 30
0.0
 11
-41.29294396475446
 21
-274.6381817563151
 31
0.0
  0
LINE
  5
1B86
330
1ACB
100
AcDbEntity
  8
0
 62
     0
100
AcDbLine
 10
-41.89070836271203
 20
-275.2359461542727
 30
0.0
 11
-41.45303767478471
 21
-274.7982754663454
 31
0.0
  0
LINE
  5
1B87
330
1ACB
100
AcDbEntity
  8
0
 62
     0
100
AcDbLine
 10
-42.63730309848759
 20
-275.8499583685758
 30
0.0
 11
-42.53515916409838
 21
-275.7478144341866
 31
0.0
  0
LINE
  5
1B88
330
1ACB
100
AcDbEntity
  8
0
 62
     0
100
AcDbLine
 10
-37.79492887766956
 20
-271.0075841477578
 30
0.0
 11
-36.90015968821653
 21
-270.1128149583047
 31
0.0
  0
LINE
  5
1B89
330
1ACB
100
AcDbEntity
  8
0
 62
     0
100
AcDbLine
 10
-42.53515916409839
 20
-275.7478144341866
 30
0.0
 11
-41.90316465789641
 21
-275.1158199279846
 31
0.0
  0
LINE
  5
1B8A
330
1ACB
100
AcDbEntity
  8
0
 62
     0
100
AcDbLine
 10
-41.76218239018321
 20
-274.9748376602715
 30
0.0
 11
-41.32451170225591
 21
-274.5371669723441
 31
0.0
  0
LINE
  5
1B8B
330
1ACB
100
AcDbEntity
  8
0
 62
     0
100
AcDbLine
 10
-42.68205502292253
 20
-275.7621277715383
 30
0.0
 11
-42.57991108853331
 21
-275.6599838371491
 31
0.0
  0
LINE
  5
1B8C
330
1ACB
100
AcDbEntity
  8
0
 62
     0
100
AcDbLine
 10
-37.92751139914204
 20
-271.0075841477578
 30
0.0
 11
-37.03274220968898
 21
-270.1128149583047
 31
0.0
  0
LINE
  5
1B8D
330
1ACB
100
AcDbEntity
  8
0
 62
     0
100
AcDbLine
 10
-42.57991108853332
 20
-275.659983837149
 30
0.0
 11
-41.94791658233133
 21
-275.027989330947
 31
0.0
  0
LINE
  5
1B8E
330
1ACB
100
AcDbEntity
  8
0
 62
     0
100
AcDbLine
 10
-41.63365641765442
 20
-274.7137291662701
 30
0.0
 11
-41.19598572972707
 21
-274.2760584783428
 31
0.0
  0
LINE
  5
1B8F
330
1ACB
100
AcDbEntity
  8
0
 62
     0
100
AcDbLine
 10
-42.72680694735743
 20
-275.6742971745007
 30
0.0
 11
-42.62466301296824
 21
-275.5721532401115
 31
0.0
  0
LINE
  5
1B90
330
1ACB
100
AcDbEntity
  8
0
 62
     0
100
AcDbLine
 10
-38.06009392061452
 20
-271.0075841477578
 30
0.0
 11
-37.16532473116146
 21
-270.1128149583047
 31
0.0
  0
LINE
  5
1B91
330
1ACB
100
AcDbEntity
  8
0
 62
     0
100
AcDbLine
 10
-42.62466301296824
 20
-275.5721532401115
 30
0.0
 11
-41.99266850676624
 21
-274.9401587339095
 31
0.0
  0
LINE
  5
1B92
330
1ACB
100
AcDbEntity
  8
0
 62
     0
100
AcDbLine
 10
-41.24320808781802
 20
-274.1906983149613
 30
0.0
 11
-41.16028905131896
 21
-274.1077792784622
 31
0.0
  0
LINE
  5
1B93
330
1ACB
100
AcDbEntity
  8
0
 62
     0
100
AcDbLine
 10
-41.52698834430164
 20
-274.4744785714449
 30
0.0
 11
-41.50513044512558
 21
-274.4526206722688
 31
0.0
  0
LINE
  5
1B94
330
1ACB
100
AcDbEntity
  8
0
 62
     0
100
AcDbLine
 10
-41.2918472873847
 20
-274.2393375145279
 30
0.0
 11
-41.26594175883485
 21
-274.2134319859781
 31
0.0
  0
LINE
  5
1B95
330
1ACB
100
AcDbEntity
  8
0
 62
     0
100
AcDbLine
 10
-41.50513044512556
 20
-274.4526206722688
 30
0.0
 11
-41.29184728738475
 21
-274.239337514528
 31
0.0
  0
LINE
  5
1B96
330
1ACB
100
AcDbEntity
  8
0
 62
     0
100
AcDbLine
 10
-42.77155887179236
 20
-275.5864665774631
 30
0.0
 11
-42.66941493740316
 21
-275.484322643074
 31
0.0
  0
LINE
  5
1B97
330
1ACB
100
AcDbEntity
  8
0
 62
     0
100
AcDbLine
 10
-38.192676442087
 20
-271.0075841477578
 30
0.0
 11
-37.29790725263395
 21
-270.1128149583047
 31
0.0
  0
LINE
  5
1B98
330
1ACB
100
AcDbEntity
  8
0
 62
     0
100
AcDbLine
 10
-42.66941493740316
 20
-275.484322643074
 30
0.0
 11
-42.03742043120118
 21
-274.8523281368719
 31
0.0
  0
LINE
  5
1B99
330
1ACB
100
AcDbEntity
  8
0
 62
     0
100
AcDbLine
 10
-41.39132135807054
 20
-274.2062290637413
 30
0.0
 11
-41.15044255176923
 21
-273.96535025744
 31
0.0
  0
LINE
  5
1B9A
330
1ACB
100
AcDbEntity
  8
0
 62
     0
100
AcDbLine
 10
-41.57174026873658
 20
-274.3866479744074
 30
0.0
 11
-41.47195166249413
 21
-274.2868593681649
 31
0.0
  0
LINE
  5
1B9B
330
1ACB
100
AcDbEntity
  8
0
 62
     0
100
AcDbLine
 10
-42.81631079622728
 20
-275.4986359804255
 30
0.0
 11
-42.71416686183809
 21
-275.3964920460364
 31
0.0
  0
LINE
  5
1B9C
330
1ACB
100
AcDbEntity
  8
0
 62
     0
100
AcDbLine
 10
-38.32525896355949
 20
-271.0075841477578
 30
0.0
 11
-37.43048977410643
 21
-270.1128149583047
 31
0.0
  0
LINE
  5
1B9D
330
1ACB
100
AcDbEntity
  8
0
 62
     0
100
AcDbLine
 10
-42.71416686183809
 20
-275.3964920460364
 30
0.0
 11
-42.0821723556361
 21
-274.7644975398344
 31
0.0
  0
LINE
  5
1B9E
330
1ACB
100
AcDbEntity
  8
0
 62
     0
100
AcDbLine
 10
-41.3814748585208
 20
-274.0638000427191
 30
0.0
 11
-41.1405960522195
 21
-273.8229212364178
 31
0.0
  0
LINE
  5
1B9F
330
1ACB
100
AcDbEntity
  8
0
 62
     0
100
AcDbLine
 10
-41.6164921931715
 20
-274.2988173773698
 30
0.0
 11
-41.51670358692905
 21
-274.1990287711273
 31
0.0
  0
LINE
  5
1BA0
330
1ACB
100
AcDbEntity
  8
0
 62
     0
100
AcDbLine
 10
-42.86106272066221
 20
-275.410805383388
 30
0.0
 11
-42.75891878627302
 21
-275.3086614489988
 31
0.0
  0
LINE
  5
1BA1
330
1ACB
100
AcDbEntity
  8
0
 62
     0
100
AcDbLine
 10
-38.45784148503194
 20
-271.0075841477578
 30
0.0
 11
-37.56307229557891
 21
-270.1128149583047
 31
0.0
  0
LINE
  5
1BA2
330
1ACB
100
AcDbEntity
  8
0
 62
     0
100
AcDbLine
 10
-42.75891878627301
 20
-275.3086614489988
 30
0.0
 11
-42.12692428007102
 21
-274.6766669427968
 31
0.0
  0
LINE
  5
1BA3
330
1ACB
100
AcDbEntity
  8
0
 62
     0
100
AcDbLine
 10
-41.37162835897107
 20
-273.9213710216969
 30
0.0
 11
-41.13074955266977
 21
-273.6804922153956
 31
0.0
  0
LINE
  5
1BA4
330
1ACB
100
AcDbEntity
  8
0
 62
     0
100
AcDbLine
 10
-41.66124411760642
 20
-274.2109867803322
 30
0.0
 11
-41.56145551136398
 21
-274.1111981740898
 31
0.0
  0
LINE
  5
1BA5
330
1ACB
100
AcDbEntity
  8
0
 62
     0
100
AcDbLine
 10
-42.90581464509713
 20
-275.3229747863504
 30
0.0
 11
-42.80367071070794
 21
-275.2208308519613
 31
0.0
  0
LINE
  5
1BA6
330
1ACB
100
AcDbEntity
  8
0
 62
     0
100
AcDbLine
 10
-38.59042400650442
 20
-271.0075841477578
 30
0.0
 11
-37.69565481705136
 21
-270.1128149583047
 31
0.0
  0
LINE
  5
1BA7
330
1ACB
100
AcDbEntity
  8
0
 62
     0
100
AcDbLine
 10
-42.80367071070794
 20
-275.2208308519613
 30
0.0
 11
-42.17167620450595
 21
-274.5888363457593
 31
0.0
  0
LINE
  5
1BA8
330
1ACB
100
AcDbEntity
  8
0
 62
     0
100
AcDbLine
 10
-41.36178185942134
 20
-273.7789420006746
 30
0.0
 11
-41.12090305312004
 21
-273.5380631943733
 31
0.0
  0
LINE
  5
1BA9
330
1ACB
100
AcDbEntity
  8
0
 62
     0
100
AcDbLine
 10
-41.70599604204134
 20
-274.1231561832947
 30
0.0
 11
-41.60620743579889
 21
-274.0233675770522
 31
0.0
  0
LINE
  5
1BAA
330
1ACB
100
AcDbEntity
  8
0
 62
     0
100
AcDbLine
 10
-42.95056656953206
 20
-275.2351441893129
 30
0.0
 11
-42.84842263514287
 21
-275.1330002549237
 31
0.0
  0
LINE
  5
1BAB
330
1ACB
100
AcDbEntity
  8
0
 62
     0
100
AcDbLine
 10
-38.72300652797691
 20
-271.0075841477578
 30
0.0
 11
-37.82823733852385
 21
-270.1128149583047
 31
0.0
  0
LINE
  5
1BAC
330
1ACB
100
AcDbEntity
  8
0
 62
     0
100
AcDbLine
 10
-42.84842263514287
 20
-275.1330002549237
 30
0.0
 11
-42.21642812894087
 21
-274.5010057487217
 31
0.0
  0
LINE
  5
1BAD
330
1ACB
100
AcDbEntity
  8
0
 62
     0
100
AcDbLine
 10
-41.35193535987162
 20
-273.6365129796524
 30
0.0
 11
-41.11105655357031
 21
-273.3956341733511
 31
0.0
  0
LINE
  5
1BAE
330
1ACB
100
AcDbEntity
  8
0
 62
     0
100
AcDbLine
 10
-41.75074796647627
 20
-274.0353255862571
 30
0.0
 11
-41.65095936023383
 21
-273.9355369800147
 31
0.0
  0
LINE
  5
1BAF
330
1ACB
100
AcDbEntity
  8
0
 62
     0
100
AcDbLine
 10
-42.99531849396698
 20
-275.1473135922753
 30
0.0
 11
-42.89317455957778
 21
-275.0451696578862
 31
0.0
  0
LINE
  5
1BB0
330
1ACB
100
AcDbEntity
  8
0
 62
     0
100
AcDbLine
 10
-38.85558904944939
 20
-271.0075841477578
 30
0.0
 11
-37.96081985999633
 21
-270.1128149583047
 31
0.0
  0
LINE
  5
1BB1
330
1ACB
100
AcDbEntity
  8
0
 62
     0
100
AcDbLine
 10
-42.89317455957778
 20
-275.0451696578862
 30
0.0
 11
-42.2611800533758
 21
-274.4131751516842
 31
0.0
  0
LINE
  5
1BB2
330
1ACB
100
AcDbEntity
  8
0
 62
     0
100
AcDbLine
 10
-41.34208886032189
 20
-273.4940839586302
 30
0.0
 11
-41.10121005402058
 21
-273.2532051523289
 31
0.0
  0
LINE
  5
1BB3
330
1ACB
100
AcDbEntity
  8
0
 62
     0
100
AcDbLine
 10
-41.79549989091119
 20
-273.9474949892195
 30
0.0
 11
-41.69571128466874
 21
-273.8477063829771
 31
0.0
  0
LINE
  5
1BB4
330
1ACB
100
AcDbEntity
  8
0
 62
     0
100
AcDbLine
 10
-43.0400704184019
 20
-275.0594829952378
 30
0.0
 11
-42.93792648401271
 21
-274.9573390608487
 31
0.0
  0
LINE
  5
1BB5
330
1ACB
100
AcDbEntity
  8
0
 62
     0
100
AcDbLine
 10
-38.98817157092188
 20
-271.0075841477578
 30
0.0
 11
-38.09340238146882
 21
-270.1128149583047
 31
0.0
  0
LINE
  5
1BB6
330
1ACB
100
AcDbEntity
  8
0
 62
     0
100
AcDbLine
 10
-42.93792648401271
 20
-274.9573390608486
 30
0.0
 11
-42.30593197781072
 21
-274.3253445546466
 31
0.0
  0
LINE
  5
1BB7
330
1ACB
100
AcDbEntity
  8
0
 62
     0
100
AcDbLine
 10
-41.33224236077215
 20
-273.351654937608
 30
0.0
 11
-41.09136355447085
 21
-273.1107761313067
 31
0.0
  0
LINE
  5
1BB8
330
1ACB
100
AcDbEntity
  8
0
 62
     0
100
AcDbLine
 10
-41.84025181534611
 20
-273.859664392182
 30
0.0
 11
-41.74046320910367
 21
-273.7598757859395
 31
0.0
  0
LINE
  5
1BB9
330
1ACB
100
AcDbEntity
  8
0
 62
     0
100
AcDbLine
 10
-43.08482234283682
 20
-274.9716523982002
 30
0.0
 11
-42.98267840844763
 21
-274.8695084638111
 31
0.0
  0
LINE
  5
1BBA
330
1ACB
100
AcDbEntity
  8
0
 62
     0
100
AcDbLine
 10
-39.12075409239436
 20
-271.0075841477578
 30
0.0
 11
-38.2259849029413
 21
-270.1128149583047
 31
0.0
  0
LINE
  5
1BBB
330
1ACB
100
AcDbEntity
  8
0
 62
     0
100
AcDbLine
 10
-42.98267840844764
 20
-274.8695084638111
 30
0.0
 11
-42.35068390224564
 21
-274.2375139576091
 31
0.0
  0
LINE
  5
1BBC
330
1ACB
100
AcDbEntity
  8
0
 62
     0
100
AcDbLine
 10
-41.08151705492112
 20
-272.9683471102845
 30
0.0
 11
-40.96181643366968
 21
-272.848646489033
 31
0.0
  0
LINE
  5
1BBD
330
1ACB
100
AcDbEntity
  8
0
 62
     0
100
AcDbLine
 10
-41.88500373978103
 20
-273.7718337951445
 30
0.0
 11
-41.78521513353859
 21
-273.672045188902
 31
0.0
  0
LINE
  5
1BBE
330
1ACB
100
AcDbEntity
  8
0
 62
     0
100
AcDbLine
 10
-41.32239586122242
 20
-273.2092259165858
 30
0.0
 11
-41.08151705492112
 21
-272.9683471102845
 31
0.0
  0
LINE
  5
1BBF
330
1ACB
100
AcDbEntity
  8
0
 62
     0
100
AcDbLine
 10
-43.12957426727176
 20
-274.8838218011627
 30
0.0
 11
-43.02743033288257
 21
-274.7816778667736
 31
0.0
  0
LINE
  5
1BC0
330
1ACB
100
AcDbEntity
  8
0
 62
     0
100
AcDbLine
 10
-39.25333661386681
 20
-271.0075841477578
 30
0.0
 11
-38.35856742441375
 21
-270.1128149583047
 31
0.0
  0
LINE
  5
1BC1
330
1ACB
100
AcDbEntity
  8
0
 62
     0
100
AcDbLine
 10
-43.02743033288256
 20
-274.7816778667735
 30
0.0
 11
-42.39543582668058
 21
-274.1496833605715
 31
0.0
  0
LINE
  5
1BC2
330
1ACB
100
AcDbEntity
  8
0
 62
     0
100
AcDbLine
 10
-41.07167055537138
 20
-272.8259180892623
 30
0.0
 11
-40.79761027123158
 21
-272.5518578051226
 31
0.0
  0
LINE
  5
1BC3
330
1ACB
100
AcDbEntity
  8
0
 62
     0
100
AcDbLine
 10
-41.92975566421597
 20
-273.6840031981069
 30
0.0
 11
-41.82996705797352
 21
-273.5842145918645
 31
0.0
  0
LINE
  5
1BC4
330
1ACB
100
AcDbEntity
  8
0
 62
     0
100
AcDbLine
 10
-41.3125493616727
 20
-273.0667968955636
 30
0.0
 11
-41.07167055537138
 21
-272.8259180892623
 31
0.0
  0
LINE
  5
1BC5
330
1ACB
100
AcDbEntity
  8
0
 62
     0
100
AcDbLine
 10
-43.17432619170667
 20
-274.7959912041251
 30
0.0
 11
-43.07218225731747
 21
-274.693847269736
 31
0.0
  0
LINE
  5
1BC6
330
1ACB
100
AcDbEntity
  8
0
 62
     0
100
AcDbLine
 10
-39.3859191353393
 20
-271.0075841477578
 30
0.0
 11
-38.49114994588624
 21
-270.1128149583047
 31
0.0
  0
LINE
  5
1BC7
330
1ACB
100
AcDbEntity
  8
0
 62
     0
100
AcDbLine
 10
-43.07218225731748
 20
-274.693847269736
 30
0.0
 11
-42.44018775111549
 21
-274.0618527635339
 31
0.0
  0
LINE
  5
1BC8
330
1ACB
100
AcDbEntity
  8
0
 62
     0
100
AcDbLine
 10
-41.06182405582166
 20
-272.6834890682401
 30
0.0
 11
-40.63340410879347
 21
-272.2550691212119
 31
0.0
  0
LINE
  5
1BC9
330
1ACB
100
AcDbEntity
  8
0
 62
     0
100
AcDbLine
 10
-41.97450758865088
 20
-273.5961726010693
 30
0.0
 11
-41.87471898240843
 21
-273.4963839948269
 31
0.0
  0
LINE
  5
1BCA
330
1ACB
100
AcDbEntity
  8
0
 62
     0
100
AcDbLine
 10
-41.30270286212296
 20
-272.9243678745414
 30
0.0
 11
-41.06182405582166
 21
-272.6834890682401
 31
0.0
  0
LINE
  5
1BCB
330
1ACB
100
AcDbEntity
  8
0
 62
     0
100
AcDbLine
 10
-43.2190781161416
 20
-274.7081606070876
 30
0.0
 11
-43.11693418175241
 21
-274.6060166726984
 31
0.0
  0
LINE
  5
1BCC
330
1ACB
100
AcDbEntity
  8
0
 62
     0
100
AcDbLine
 10
-39.51850165681178
 20
-271.0075841477578
 30
0.0
 11
-38.62373246735872
 21
-270.1128149583047
 31
0.0
  0
LINE
  5
1BCD
330
1ACB
100
AcDbEntity
  8
0
 62
     0
100
AcDbLine
 10
-43.11693418175241
 20
-274.6060166726984
 30
0.0
 11
-42.48493967555043
 21
-273.9740221664964
 31
0.0
  0
LINE
  5
1BCE
330
1ACB
100
AcDbEntity
  8
0
 62
     0
100
AcDbLine
 10
-41.04147028864789
 20
-272.5305527795939
 30
0.0
 11
-40.46919794635537
 21
-271.9582804373014
 31
0.0
  0
LINE
  5
1BCF
330
1ACB
100
AcDbEntity
  8
0
 62
     0
100
AcDbLine
 10
-42.0192595130858
 20
-273.5083420040318
 30
0.0
 11
-41.91947090684336
 21
-273.4085533977893
 31
0.0
  0
LINE
  5
1BD0
330
1ACB
100
AcDbEntity
  8
0
 62
     0
100
AcDbLine
 10
-41.29285636257323
 20
-272.7819388535192
 30
0.0
 11
-41.05197755627193
 21
-272.5410600472179
 31
0.0
  0
LINE
  5
1BD1
330
1ACB
100
AcDbEntity
  8
0
 62
     0
100
AcDbLine
 10
-43.26383004057651
 20
-274.62033001005
 30
0.0
 11
-43.16168610618734
 21
-274.5181860756609
 31
0.0
  0
LINE
  5
1BD2
330
1ACB
100
AcDbEntity
  8
0
 62
     0
100
AcDbLine
 10
-39.65108417828427
 20
-271.0075841477578
 30
0.0
 11
-38.7563149888312
 21
-270.1128149583047
 31
0.0
  0
LINE
  5
1BD3
330
1ACB
100
AcDbEntity
  8
0
 62
     0
100
AcDbLine
 10
-43.16168610618732
 20
-274.5181860756608
 30
0.0
 11
-42.52969159998534
 21
-273.8861915694589
 31
0.0
  0
LINE
  5
1BD4
330
1ACB
100
AcDbEntity
  8
0
 62
     0
100
AcDbLine
 10
-40.87726412620977
 20
-272.2337640956832
 30
0.0
 11
-40.30499178391731
 21
-271.6614917533908
 31
0.0
  0
LINE
  5
1BD5
330
1ACB
100
AcDbEntity
  8
0
 62
     0
100
AcDbLine
 10
-42.06401143752072
 20
-273.4205114069942
 30
0.0
 11
-41.96422283127828
 21
-273.3207228007517
 31
0.0
  0
LINE
  5
1BD6
330
1ACB
100
AcDbEntity
  8
0
 62
     0
100
AcDbLine
 10
-41.2830098630235
 20
-272.639509832497
 30
0.0
 11
-41.04213105672219
 21
-272.3986310261957
 31
0.0
  0
LINE
  5
1BD7
330
1ACB
100
AcDbEntity
  8
0
 62
     0
100
AcDbLine
 10
-43.30858196501145
 20
-274.5324994130124
 30
0.0
 11
-43.20643803062226
 21
-274.4303554786233
 31
0.0
  0
LINE
  5
1BD8
330
1ACB
100
AcDbEntity
  8
0
 62
     0
100
AcDbLine
 10
-39.78366669975674
 20
-271.0075841477578
 30
0.0
 11
-38.88889751030369
 21
-270.1128149583047
 31
0.0
  0
LINE
  5
1BD9
330
1ACB
100
AcDbEntity
  8
0
 62
     0
100
AcDbLine
 10
-43.20643803062226
 20
-274.4303554786232
 30
0.0
 11
-42.57444352442026
 21
-273.7983609724213
 31
0.0
  0
LINE
  5
1BDA
330
1ACB
100
AcDbEntity
  8
0
 62
     0
100
AcDbLine
 10
-40.71305796377171
 20
-271.9369754117727
 30
0.0
 11
-40.14078562147921
 21
-271.3647030694802
 31
0.0
  0
LINE
  5
1BDB
330
1ACB
100
AcDbEntity
  8
0
 62
     0
100
AcDbLine
 10
-42.10876336195565
 20
-273.3326808099567
 30
0.0
 11
-42.00897475571321
 21
-273.2328922037142
 31
0.0
  0
LINE
  5
1BDC
330
1ACB
100
AcDbEntity
  8
0
 62
     0
100
AcDbLine
 10
-41.27316336347377
 20
-272.4970808114748
 30
0.0
 11
-41.03228455717245
 21
-272.2562020051735
 31
0.0
  0
LINE
  5
1BDD
330
1ACB
100
AcDbEntity
  8
0
 62
     0
100
AcDbLine
 10
-43.35333388944637
 20
-274.4446688159749
 30
0.0
 11
-43.25118995505717
 21
-274.3425248815857
 31
0.0
  0
LINE
  5
1BDE
330
1ACB
100
AcDbEntity
  8
0
 62
     0
100
AcDbLine
 10
-39.9162492212292
 20
-271.0075841477578
 30
0.0
 11
-39.02148003177617
 21
-270.1128149583047
 31
0.0
  0
LINE
  5
1BDF
330
1ACB
100
AcDbEntity
  8
0
 62
     0
100
AcDbLine
 10
-43.25118995505718
 20
-274.3425248815857
 30
0.0
 11
-42.61919544885519
 21
-273.7105303753837
 31
0.0
  0
LINE
  5
1BE0
330
1ACB
100
AcDbEntity
  8
0
 62
     0
100
AcDbLine
 10
-40.5488518013336
 20
-271.6401867278622
 30
0.0
 11
-39.97657945904111
 21
-271.0679143855696
 31
0.0
  0
LINE
  5
1BE1
330
1ACB
100
AcDbEntity
  8
0
 62
     0
100
AcDbLine
 10
-42.15351528639057
 20
-273.2448502129191
 30
0.0
 11
-42.05372668014815
 21
-273.1450616066767
 31
0.0
  0
LINE
  5
1BE2
330
1ACB
100
AcDbEntity
  8
0
 62
     0
100
AcDbLine
 10
-41.26331686392403
 20
-272.3546517904526
 30
0.0
 11
-41.02243805762273
 21
-272.1137729841512
 31
0.0
  0
LINE
  5
1BE3
330
1ACB
100
AcDbEntity
  8
0
 62
     0
100
AcDbLine
 10
-43.39808581388129
 20
-274.3568382189374
 30
0.0
 11
-43.29594187949211
 21
-274.2546942845482
 31
0.0
  0
LINE
  5
1BE4
330
1ACB
100
AcDbEntity
  8
0
 62
     0
100
AcDbLine
 10
-40.04883174270166
 20
-271.0075841477577
 30
0.0
 11
-39.15406255324862
 21
-270.1128149583047
 31
0.0
  0
LINE
  5
1BE5
330
1ACB
100
AcDbEntity
  8
0
 62
     0
100
AcDbLine
 10
-43.29594187949211
 20
-274.2546942845482
 30
0.0
 11
-42.66394737329011
 21
-273.6226997783461
 31
0.0
  0
LINE
  5
1BE6
330
1ACB
100
AcDbEntity
  8
0
 62
     0
100
AcDbLine
 10
-40.38464563889553
 20
-271.3433980439516
 30
0.0
 11
-40.04883174270168
 21
-271.0075841477578
 31
0.0
  0
LINE
  5
1BE7
330
1ACB
100
AcDbEntity
  8
0
 62
     0
100
AcDbLine
 10
-42.19826721082549
 20
-273.1570196158815
 30
0.0
 11
-42.09847860458307
 21
-273.0572310096391
 31
0.0
  0
LINE
  5
1BE8
330
1ACB
100
AcDbEntity
  8
0
 62
     0
100
AcDbLine
 10
-41.25347036437431
 20
-272.2122227694304
 30
0.0
 11
-41.01259155807299
 21
-271.971343963129
 31
0.0
  0
LINE
  5
1BE9
330
1ACB
100
AcDbEntity
  8
0
 62
     0
100
AcDbLine
 10
-43.44283773831622
 20
-274.2690076218998
 30
0.0
 11
-43.34069380392703
 21
-274.1668636875106
 31
0.0
  0
LINE
  5
1BEA
330
1ACB
100
AcDbEntity
  8
0
 62
     0
100
AcDbLine
 10
-40.18141426417416
 20
-271.0075841477577
 30
0.0
 11
-39.28664507472111
 21
-270.1128149583047
 31
0.0
  0
LINE
  5
1BEB
330
1ACB
100
AcDbEntity
  8
0
 62
     0
100
AcDbLine
 10
-43.34069380392703
 20
-274.1668636875106
 30
0.0
 11
-42.70869929772504
 21
-273.5348691813086
 31
0.0
  0
LINE
  5
1BEC
330
1ACB
100
AcDbEntity
  8
0
 62
     0
100
AcDbLine
 10
-40.22043947645742
 20
-271.046609360041
 30
0.0
 11
-40.18141426417416
 21
-271.0075841477578
 31
0.0
  0
LINE
  5
1BED
330
1ACB
100
AcDbEntity
  8
0
 62
     0
100
AcDbLine
 10
-42.24301913526041
 20
-273.069189018844
 30
0.0
 11
-42.14323052901799
 21
-272.9694004126015
 31
0.0
  0
LINE
  5
1BEE
330
1ACB
100
AcDbEntity
  8
0
 62
     0
100
AcDbLine
 10
-41.24362386482458
 20
-272.0697937484081
 30
0.0
 11
-41.00274505852326
 21
-271.8289149421068
 31
0.0
  0
LINE
  5
1BEF
330
1ACB
100
AcDbEntity
  8
0
 62
     0
100
AcDbLine
 10
-43.48758966275113
 20
-274.1811770248623
 30
0.0
 11
-43.38544572836195
 21
-274.0790330904731
 31
0.0
  0
LINE
  5
1BF0
330
1ACB
100
AcDbEntity
  8
0
 62
     0
100
AcDbLine
 10
-40.31399678564665
 20
-271.0075841477578
 30
0.0
 11
-39.41922759619359
 21
-270.1128149583047
 31
0.0
  0
LINE
  5
1BF1
330
1ACB
100
AcDbEntity
  8
0
 62
     0
100
AcDbLine
 10
-43.38544572836195
 20
-274.0790330904731
 30
0.0
 11
-42.75345122215997
 21
-273.447038584271
 31
0.0
  0
LINE
  5
1BF2
330
1ACB
100
AcDbEntity
  8
0
 62
     0
100
AcDbLine
 10
-41.23377736527484
 20
-271.9273647273859
 30
0.0
 11
-40.99289855897352
 21
-271.6864859210846
 31
0.0
  0
LINE
  5
1BF3
330
1ACB
100
AcDbEntity
  8
0
 62
     0
100
AcDbLine
 10
-42.28777105969533
 20
-272.9813584218064
 30
0.0
 11
-42.18798245345292
 21
-272.881569815564
 31
0.0
  0
LINE
  5
1BF4
330
1ACB
100
AcDbEntity
  8
0
 62
     0
100
AcDbLine
 10
-43.53234158718605
 20
-274.0933464278247
 30
0.0
 11
-43.43019765279687
 21
-273.9912024934355
 31
0.0
  0
LINE
  5
1BF5
330
1ACB
100
AcDbEntity
  8
0
 62
     0
100
AcDbLine
 10
-40.44657930711912
 20
-271.0075841477578
 30
0.0
 11
-39.55181011766607
 21
-270.1128149583047
 31
0.0
  0
LINE
  5
1BF6
330
1ACB
100
AcDbEntity
  8
0
 62
     0
100
AcDbLine
 10
-43.43019765279688
 20
-273.9912024934355
 30
0.0
 11
-42.79820314659487
 21
-273.3592079872335
 31
0.0
  0
LINE
  5
1BF7
330
1ACB
100
AcDbEntity
  8
0
 62
     0
100
AcDbLine
 10
-41.22393086572511
 20
-271.7849357063637
 30
0.0
 11
-40.9830520594238
 21
-271.5440569000624
 31
0.0
  0
LINE
  5
1BF8
330
1ACB
100
AcDbEntity
  8
0
 62
     0
100
AcDbLine
 10
-42.33252298413026
 20
-272.8935278247689
 30
0.0
 11
-42.23273437788784
 21
-272.7937392185264
 31
0.0
  0
LINE
  5
1BF9
330
1ACB
100
AcDbEntity
  8
0
 62
     0
100
AcDbLine
 10
-43.57709351162099
 20
-274.0055158307872
 30
0.0
 11
-43.4749495772318
 21
-273.903371896398
 31
0.0
  0
LINE
  5
1BFA
330
1ACB
100
AcDbEntity
  8
0
 62
     0
100
AcDbLine
 10
-40.57916182859158
 20
-271.0075841477578
 30
0.0
 11
-39.68439263913856
 21
-270.1128149583047
 31
0.0
  0
LINE
  5
1BFB
330
1ACB
100
AcDbEntity
  8
0
 62
     0
100
AcDbLine
 10
-43.4749495772318
 20
-273.903371896398
 30
0.0
 11
-42.84295507102982
 21
-273.2713773901959
 31
0.0
  0
LINE
  5
1BFC
330
1ACB
100
AcDbEntity
  8
0
 62
     0
100
AcDbLine
 10
-41.21408436617539
 20
-271.6425066853415
 30
0.0
 11
-40.97320555987406
 21
-271.4016278790402
 31
0.0
  0
LINE
  5
1BFD
330
1ACB
100
AcDbEntity
  8
0
 62
     0
100
AcDbLine
 10
-42.37727490856518
 20
-272.8056972277314
 30
0.0
 11
-42.27748630232276
 21
-272.705908621489
 31
0.0
  0
LINE
  5
1BFE
330
1ACB
100
AcDbEntity
  8
0
 62
     0
100
AcDbLine
 10
-43.6218454360559
 20
-273.9176852337496
 30
0.0
 11
-43.51970150166672
 21
-273.8155412993604
 31
0.0
  0
LINE
  5
1BFF
330
1ACB
100
AcDbEntity
  8
0
 62
     0
100
AcDbLine
 10
-40.71174435006406
 20
-271.0075841477578
 30
0.0
 11
-39.81697516061101
 21
-270.1128149583047
 31
0.0
  0
LINE
  5
1C00
330
1ACB
100
AcDbEntity
  8
0
 62
     0
100
AcDbLine
 10
-43.51970150166672
 20
-273.8155412993604
 30
0.0
 11
-42.88770699546473
 21
-273.1835467931584
 31
0.0
  0
LINE
  5
1C01
330
1ACB
100
AcDbEntity
  8
0
 62
     0
100
AcDbLine
 10
-41.20423786662565
 20
-271.5000776643193
 30
0.0
 11
-40.96335906032432
 21
-271.259198858018
 31
0.0
  0
LINE
  5
1C02
330
1ACB
100
AcDbEntity
  8
0
 62
     0
100
AcDbLine
 10
-42.4220268330001
 20
-272.7178666306938
 30
0.0
 11
-42.32223822675769
 21
-272.6180780244514
 31
0.0
  0
LINE
  5
1C03
330
1ACB
100
AcDbEntity
  8
0
 62
     0
100
AcDbLine
 10
-43.66659736049083
 20
-273.829854636712
 30
0.0
 11
-43.56445342610165
 21
-273.7277107023229
 31
0.0
  0
LINE
  5
1C04
330
1ACB
100
AcDbEntity
  8
0
 62
     0
100
AcDbLine
 10
-40.84432687153655
 20
-271.0075841477578
 30
0.0
 11
-39.94955768208349
 21
-270.1128149583047
 31
0.0
  0
LINE
  5
1C05
330
1ACB
100
AcDbEntity
  8
0
 62
     0
100
AcDbLine
 10
-43.56445342610164
 20
-273.7277107023228
 30
0.0
 11
-42.93245891989965
 21
-273.0957161961208
 31
0.0
  0
LINE
  5
1C06
330
1ACB
100
AcDbEntity
  8
0
 62
     0
100
AcDbLine
 10
-41.19439136707593
 20
-271.3576486432971
 30
0.0
 11
-40.95351256077459
 21
-271.1167698369958
 31
0.0
  0
LINE
  5
1C07
330
1ACB
100
AcDbEntity
  8
0
 62
     0
100
AcDbLine
 10
-42.46677875743502
 20
-272.6300360336562
 30
0.0
 11
-42.36699015119261
 21
-272.5302474274138
 31
0.0
  0
LINE
  5
1C08
330
1ACB
100
AcDbEntity
  8
0
 62
     0
100
AcDbLine
 10
-43.71134928492576
 20
-273.7420240396744
 30
0.0
 11
-43.60920535053657
 21
-273.6398801052853
 31
0.0
  0
LINE
  5
1C09
330
1ACB
100
AcDbEntity
  8
0
 62
     0
100
AcDbLine
 10
-40.97690939300903
 20
-271.0075841477578
 30
0.0
 11
-40.08214020355597
 21
-270.1128149583047
 31
0.0
  0
LINE
  5
1C0A
330
1ACB
100
AcDbEntity
  8
0
 62
     0
100
AcDbLine
 10
-43.60920535053657
 20
-273.6398801052853
 30
0.0
 11
-42.97721084433458
 21
-273.0078855990833
 31
0.0
  0
LINE
  5
1C0B
330
1ACB
100
AcDbEntity
  8
0
 62
     0
100
AcDbLine
 10
-41.1845448675262
 20
-271.2152196222749
 30
0.0
 11
-40.97690939300904
 21
-271.0075841477578
 31
0.0
  0
LINE
  5
1C0C
330
1ACB
100
AcDbEntity
  8
0
 62
     0
100
AcDbLine
 10
-42.51153068186996
 20
-272.5422054366187
 30
0.0
 11
-42.41174207562753
 21
-272.4424168303762
 31
0.0
  0
LINE
  5
1C0D
330
1ACB
100
AcDbEntity
  8
0
 62
     0
100
AcDbLine
 10
-43.75610120936068
 20
-273.6541934426369
 30
0.0
 11
-43.65395727497149
 21
-273.5520495082478
 31
0.0
  0
LINE
  5
1C0E
330
1ACB
100
AcDbEntity
  8
0
 62
     0
100
AcDbLine
 10
-41.10949191448152
 20
-271.0075841477578
 30
0.0
 11
-40.21472272502846
 21
-270.1128149583047
 31
0.0
  0
LINE
  5
1C0F
330
1ACB
100
AcDbEntity
  8
0
 62
     0
100
AcDbLine
 10
-43.65395727497149
 20
-273.5520495082478
 30
0.0
 11
-43.02196276876951
 21
-272.9200550020458
 31
0.0
  0
LINE
  5
1C10
330
1ACB
100
AcDbEntity
  8
0
 62
     0
100
AcDbLine
 10
-41.17469836797646
 20
-271.0727906012527
 30
0.0
 11
-41.10949191448153
 21
-271.0075841477578
 31
0.0
  0
LINE
  5
1C11
330
1ACB
100
AcDbEntity
  8
0
 62
     0
100
AcDbLine
 10
-42.55628260630487
 20
-272.4543748395811
 30
0.0
 11
-42.45649400006246
 21
-272.3545862333387
 31
0.0
  0
LINE
  5
1C12
330
1ACB
100
AcDbEntity
  8
0
 62
     0
100
AcDbLine
 10
-43.8008531337956
 20
-273.5663628455994
 30
0.0
 11
-43.69870919940642
 21
-273.4642189112102
 31
0.0
  0
LINE
  5
1C13
330
1ACB
100
AcDbEntity
  8
0
 62
     0
100
AcDbLine
 10
-41.242074435954
 20
-271.0075841477578
 30
0.0
 11
-40.34730524650094
 21
-270.1128149583047
 31
0.0
  0
LINE
  5
1C14
330
1ACB
100
AcDbEntity
  8
0
 62
     0
100
AcDbLine
 10
-43.69870919940643
 20
-273.4642189112102
 30
0.0
 11
-43.06671469320444
 21
-272.8322244050082
 31
0.0
  0
LINE
  5
1C15
330
1ACB
100
AcDbEntity
  8
0
 62
     0
100
AcDbLine
 10
-42.6010345307398
 20
-272.3665442425436
 30
0.0
 11
-42.50124592449738
 21
-272.2667556363012
 31
0.0
  0
LINE
  5
1C16
330
1ACB
100
AcDbEntity
  8
0
 62
     0
100
AcDbLine
 10
-43.84560505823052
 20
-273.4785322485618
 30
0.0
 11
-43.74346112384134
 21
-273.3763883141727
 31
0.0
  0
LINE
  5
1C17
330
1ACB
100
AcDbEntity
  8
0
 62
     0
100
AcDbLine
 10
-41.37465695742645
 20
-271.0075841477578
 30
0.0
 11
-40.47988776797339
 21
-270.1128149583047
 31
0.0
  0
LINE
  5
1C18
330
1ACB
100
AcDbEntity
  8
0
 62
     0
100
AcDbLine
 10
-43.74346112384134
 20
-273.3763883141726
 30
0.0
 11
-43.11146661763936
 21
-272.7443938079706
 31
0.0
  0
LINE
  5
1C19
330
1ACB
100
AcDbEntity
  8
0
 62
     0
100
AcDbLine
 10
-42.64578645517471
 20
-272.278713645506
 30
0.0
 11
-42.5459978489323
 21
-272.1789250392636
 31
0.0
  0
LINE
  5
1C1A
330
1ACB
100
AcDbEntity
  8
0
 62
     0
100
AcDbLine
 10
-43.89035698266545
 20
-273.3907016515242
 30
0.0
 11
-43.78821304827627
 21
-273.2885577171351
 31
0.0
  0
LINE
  5
1C1B
330
1ACB
100
AcDbEntity
  8
0
 62
     0
100
AcDbLine
 10
-41.50723947889893
 20
-271.0075841477578
 30
0.0
 11
-40.61247028944587
 21
-270.1128149583047
 31
0.0
  0
LINE
  5
1C1C
330
1ACB
100
AcDbEntity
  8
0
 62
     0
100
AcDbLine
 10
-43.78821304827627
 20
-273.2885577171351
 30
0.0
 11
-43.15621854207427
 21
-272.6565632109331
 31
0.0
  0
LINE
  5
1C1D
330
1ACB
100
AcDbEntity
  8
0
 62
     0
100
AcDbLine
 10
-42.69053837960965
 20
-272.1908830484685
 30
0.0
 11
-42.59074977336722
 21
-272.0910944422261
 31
0.0
  0
LINE
  5
1C1E
330
1ACB
100
AcDbEntity
  8
0
 62
     0
100
AcDbLine
 10
-43.93510890710039
 20
-273.3028710544867
 30
0.0
 11
-43.83296497271119
 21
-273.2007271200976
 31
0.0
  0
LINE
  5
1C1F
330
1ACB
100
AcDbEntity
  8
0
 62
     0
100
AcDbLine
 10
-41.63982200037142
 20
-271.0075841477578
 30
0.0
 11
-40.74505281091837
 21
-270.1128149583047
 31
0.0
  0
LINE
  5
1C20
330
1ACB
100
AcDbEntity
  8
0
 62
     0
100
AcDbLine
 10
-43.83296497271119
 20
-273.2007271200975
 30
0.0
 11
-43.2009704665092
 21
-272.5687326138955
 31
0.0
  0
LINE
  5
1C21
330
1ACB
100
AcDbEntity
  8
0
 62
     0
100
AcDbLine
 10
-42.73529030404456
 20
-272.1030524514309
 30
0.0
 11
-42.63550169780215
 21
-272.0032638451885
 31
0.0
  0
LINE
  5
1C22
330
1ACB
100
AcDbEntity
  8
0
 62
     0
100
AcDbLine
 10
-43.97986083153529
 20
-273.2150404574491
 30
0.0
 11
-43.87771689714611
 21
-273.11289652306
 31
0.0
  0
LINE
  5
1C23
330
1ACB
100
AcDbEntity
  8
0
 62
     0
100
AcDbLine
 10
-41.7724045218439
 20
-271.0075841477578
 30
0.0
 11
-40.87763533239084
 21
-270.1128149583047
 31
0.0
  0
LINE
  5
1C24
330
1ACB
100
AcDbEntity
  8
0
 62
     0
100
AcDbLine
 10
-43.87771689714612
 20
-273.11289652306
 30
0.0
 11
-43.24572239094412
 21
-272.480902016858
 31
0.0
  0
LINE
  5
1C25
330
1ACB
100
AcDbEntity
  8
0
 62
     0
100
AcDbLine
 10
-42.78004222847949
 20
-272.0152218543934
 30
0.0
 11
-42.68025362223707
 21
-271.9154332481509
 31
0.0
  0
LINE
  5
1C26
330
1ACB
100
AcDbEntity
  8
0
 62
     0
100
AcDbLine
 10
-44.02461275597022
 20
-273.1272098604116
 30
0.0
 11
-43.92246882158103
 21
-273.0250659260224
 31
0.0
  0
LINE
  5
1C27
330
1ACB
100
AcDbEntity
  8
0
 62
     0
100
AcDbLine
 10
-41.90498704331639
 20
-271.0075841477578
 30
0.0
 11
-41.01021785386333
 21
-270.1128149583047
 31
0.0
  0
LINE
  5
1C28
330
1ACB
100
AcDbEntity
  8
0
 62
     0
100
AcDbLine
 10
-43.92246882158103
 20
-273.0250659260224
 30
0.0
 11
-43.29047431537905
 21
-272.3930714198204
 31
0.0
  0
LINE
  5
1C29
330
1ACB
100
AcDbEntity
  8
0
 62
     0
100
AcDbLine
 10
-42.8247941529144
 20
-271.9273912573558
 30
0.0
 11
-42.72500554667199
 21
-271.8276026511134
 31
0.0
  0
LINE
  5
1C2A
330
1ACB
100
AcDbEntity
  8
0
 62
     0
100
AcDbLine
 10
-44.06936468040514
 20
-273.0393792633741
 30
0.0
 11
-43.96722074601596
 21
-272.9372353289849
 31
0.0
  0
LINE
  5
1C2B
330
1ACB
100
AcDbEntity
  8
0
 62
     0
100
AcDbLine
 10
-42.03756956478883
 20
-271.0075841477578
 30
0.0
 11
-41.14280037533577
 21
-270.1128149583047
 31
0.0
  0
LINE
  5
1C2C
330
1ACB
100
AcDbEntity
  8
0
 62
     0
100
AcDbLine
 10
-43.96722074601596
 20
-272.9372353289849
 30
0.0
 11
-43.33522623981397
 21
-272.3052408227829
 31
0.0
  0
LINE
  5
1C2D
330
1ACB
100
AcDbEntity
  8
0
 62
     0
100
AcDbLine
 10
-42.86954607734934
 20
-271.8395606603182
 30
0.0
 11
-42.76975747110692
 21
-271.7397720540759
 31
0.0
  0
LINE
  5
1C2E
330
1ACB
100
AcDbEntity
  8
0
 62
     0
100
AcDbLine
 10
-44.11411660484007
 20
-272.9515486663365
 30
0.0
 11
-44.01197267045088
 21
-272.8494047319474
 31
0.0
  0
LINE
  5
1C2F
330
1ACB
100
AcDbEntity
  8
0
 62
     0
100
AcDbLine
 10
-42.17015208626132
 20
-271.0075841477578
 30
0.0
 11
-41.27538289680827
 21
-270.1128149583047
 31
0.0
  0
LINE
  5
1C30
330
1ACB
100
AcDbEntity
  8
0
 62
     0
100
AcDbLine
 10
-44.01197267045089
 20
-272.8494047319474
 30
0.0
 11
-43.3799781642489
 21
-272.2174102257453
 31
0.0
  0
LINE
  5
1C31
330
1ACB
100
AcDbEntity
  8
0
 62
     0
100
AcDbLine
 10
-42.91429800178426
 20
-271.7517300632807
 30
0.0
 11
-42.81450939554184
 21
-271.6519414570383
 31
0.0
  0
LINE
  5
1C32
330
1ACB
100
AcDbEntity
  8
0
 62
     0
100
AcDbLine
 10
-43.03552049306387
 20
-271.8729525545603
 30
0.0
 11
-42.91429800178426
 21
-271.7517300632807
 31
0.0
  0
LINE
  5
1C33
330
1ACB
100
AcDbEntity
  8
0
 62
     0
100
AcDbLine
 10
-44.15886852927499
 20
-272.8637180692989
 30
0.0
 11
-44.0567245948858
 21
-272.7615741349098
 31
0.0
  0
LINE
  5
1C34
330
1ACB
100
AcDbEntity
  8
0
 62
     0
100
AcDbLine
 10
-42.30273460773381
 20
-271.0075841477578
 30
0.0
 11
-41.40796541828075
 21
-270.1128149583047
 31
0.0
  0
LINE
  5
1C35
330
1ACB
100
AcDbEntity
  8
0
 62
     0
100
AcDbLine
 10
-44.05672459488581
 20
-272.7615741349098
 30
0.0
 11
-43.42473008868381
 21
-272.1295796287078
 31
0.0
  0
LINE
  5
1C36
330
1ACB
100
AcDbEntity
  8
0
 62
     0
100
AcDbLine
 10
-42.95904992621917
 20
-271.6638994662432
 30
0.0
 11
-42.85926131997678
 21
-271.5641108600007
 31
0.0
  0
LINE
  5
1C37
330
1ACB
100
AcDbEntity
  8
0
 62
     0
100
AcDbLine
 10
-43.30583527562661
 20
-272.0106848156506
 30
0.0
 11
-43.03567928394395
 21
-271.7405288239679
 31
0.0
  0
LINE
  5
1C38
330
1ACB
100
AcDbEntity
  8
0
 62
     0
100
AcDbLine
 10
-44.20362045370992
 20
-272.7758874722614
 30
0.0
 11
-44.10147651932073
 21
-272.6737435378722
 31
0.0
  0
LINE
  5
1C39
330
1ACB
100
AcDbEntity
  8
0
 62
     0
100
AcDbLine
 10
-42.43531712920629
 20
-271.0075841477578
 30
0.0
 11
-41.54054793975324
 21
-270.1128149583047
 31
0.0
  0
LINE
  5
1C3A
330
1ACB
100
AcDbEntity
  8
0
 62
     0
100
AcDbLine
 10
-44.10147651932073
 20
-272.6737435378722
 30
0.0
 11
-43.57615005818931
 21
-272.1484170767408
 31
0.0
  0
LINE
  5
1C3B
330
1ACB
100
AcDbEntity
  8
0
 62
     0
100
AcDbLine
 10
-43.00380185065409
 20
-271.5760688692056
 30
0.0
 11
-42.9040132444117
 21
-271.4762802629631
 31
0.0
  0
LINE
  5
1C3C
330
1ACB
100
AcDbEntity
  8
0
 62
     0
100
AcDbLine
 10
-43.57615005818945
 20
-272.1484170767408
 30
0.0
 11
-43.29449434520518
 21
-271.8667613637567
 31
0.0
  0
LINE
  5
1C3D
330
1ACB
100
AcDbEntity
  8
0
 62
     0
100
AcDbLine
 10
-44.24837237814484
 20
-272.6880568752238
 30
0.0
 11
-44.14622844375565
 21
-272.5859129408347
 31
0.0
  0
LINE
  5
1C3E
330
1ACB
100
AcDbEntity
  8
0
 62
     0
100
AcDbLine
 10
-42.56789965067877
 20
-271.0075841477578
 30
0.0
 11
-41.67313046122571
 21
-270.1128149583047
 31
0.0
  0
LINE
  5
1C3F
330
1ACB
100
AcDbEntity
  8
0
 62
     0
100
AcDbLine
 10
-44.14622844375567
 20
-272.5859129408347
 30
0.0
 11
-43.81389900091518
 21
-272.2535834979942
 31
0.0
  0
LINE
  5
1C40
330
1ACB
100
AcDbEntity
  8
0
 62
     0
100
AcDbLine
 10
-43.04855377508903
 20
-271.488238272168
 30
0.0
 11
-42.94876516884662
 21
-271.3884496659257
 31
0.0
  0
LINE
  5
1C41
330
1ACB
100
AcDbEntity
  8
0
 62
     0
100
AcDbLine
 10
-43.81389900091516
 20
-272.2535834979942
 30
0.0
 11
-43.5533094064665
 21
-271.9929939035455
 31
0.0
  0
LINE
  5
1C42
330
1ACB
100
AcDbEntity
  8
0
 62
     0
100
AcDbLine
 10
-43.55330940646641
 20
-271.9929939035454
 30
0.0
 11
-43.51423393755367
 21
-271.9539184346327
 31
0.0
  0
LINE
  5
1C43
330
1ACB
100
AcDbEntity
  8
0
 62
     0
100
AcDbLine
 10
-44.29312430257975
 20
-272.6002262781863
 30
0.0
 11
-44.19098036819057
 21
-272.4980823437971
 31
0.0
  0
LINE
  5
1C44
330
1ACB
100
AcDbEntity
  8
0
 62
     0
100
AcDbLine
 10
-42.70048217215122
 20
-271.0075841477578
 30
0.0
 11
-41.80571298269817
 21
-270.1128149583047
 31
0.0
  0
LINE
  5
1C45
330
1ACB
100
AcDbEntity
  8
0
 62
     0
100
AcDbLine
 10
-44.19098036819058
 20
-272.4980823437971
 30
0.0
 11
-43.85736435006013
 21
-272.1644663256667
 31
0.0
  0
LINE
  5
1C46
330
1ACB
100
AcDbEntity
  8
0
 62
     0
100
AcDbLine
 10
-43.09330569952394
 20
-271.4004076751304
 30
0.0
 11
-42.99351709328155
 21
-271.3006190688881
 31
0.0
  0
LINE
  5
1C47
330
1ACB
100
AcDbEntity
  8
0
 62
     0
100
AcDbLine
 10
-43.85736435006017
 20
-272.1644663256666
 30
0.0
 11
-43.81212446772781
 21
-272.1192264433343
 31
0.0
  0
LINE
  5
1C48
330
1ACB
100
AcDbEntity
  8
0
 62
     0
100
AcDbLine
 10
-43.81212446772774
 20
-272.1192264433343
 30
0.0
 11
-43.5589858619886
 21
-271.8660878375951
 31
0.0
  0
LINE
  5
1C49
330
1ACB
100
AcDbEntity
  8
0
 62
     0
100
AcDbLine
 10
-44.33787622701468
 20
-272.5123956811487
 30
0.0
 11
-44.23573229262551
 21
-272.4102517467596
 31
0.0
  0
LINE
  5
1C4A
330
1ACB
100
AcDbEntity
  8
0
 62
     0
100
AcDbLine
 10
-42.83306469362371
 20
-271.0075841477578
 30
0.0
 11
-41.93829550417065
 21
-270.1128149583047
 31
0.0
  0
LINE
  5
1C4B
330
1ACB
100
AcDbEntity
  8
0
 62
     0
100
AcDbLine
 10
-44.23573229262551
 20
-272.4102517467596
 30
0.0
 11
-43.60373778642352
 21
-271.7782572405575
 31
0.0
  0
LINE
  5
1C4C
330
1ACB
100
AcDbEntity
  8
0
 62
     0
100
AcDbLine
 10
-43.13805762395886
 20
-271.3125770780929
 30
0.0
 11
-43.03826901771647
 21
-271.2127884718505
 31
0.0
  0
LINE
  5
1C4D
330
1ACB
100
AcDbEntity
  8
0
 62
     0
100
AcDbLine
 10
-44.38262815144962
 20
-272.4245650841112
 30
0.0
 11
-44.28048421706043
 21
-272.3224211497221
 31
0.0
  0
LINE
  5
1C4E
330
1ACB
100
AcDbEntity
  8
0
 62
     0
100
AcDbLine
 10
-42.9656472150962
 20
-271.0075841477578
 30
0.0
 11
-42.07087802564314
 21
-270.1128149583047
 31
0.0
  0
LINE
  5
1C4F
330
1ACB
100
AcDbEntity
  8
0
 62
     0
100
AcDbLine
 10
-44.28048421706043
 20
-272.322421149722
 30
0.0
 11
-43.64848971085844
 21
-271.69042664352
 31
0.0
  0
LINE
  5
1C50
330
1ACB
100
AcDbEntity
  8
0
 62
     0
100
AcDbLine
 10
-43.18280954839378
 20
-271.2247464810554
 30
0.0
 11
-43.08302094215139
 21
-271.1249578748129
 31
0.0
  0
LINE
  5
1C51
330
1ACB
100
AcDbEntity
  8
0
 62
     0
100
AcDbLine
 10
-44.42738007588452
 20
-272.3367344870736
 30
0.0
 11
-44.32523614149536
 21
-272.2345905526844
 31
0.0
  0
LINE
  5
1C52
330
1ACB
100
AcDbEntity
  8
0
 62
     0
100
AcDbLine
 10
-43.09822973656867
 20
-271.0075841477578
 30
0.0
 11
-42.20346054711562
 21
-270.1128149583047
 31
0.0
  0
LINE
  5
1C53
330
1ACB
100
AcDbEntity
  8
0
 62
     0
100
AcDbLine
 10
-44.32523614149537
 20
-272.2345905526844
 30
0.0
 11
-43.69324163529338
 21
-271.6025960464825
 31
0.0
  0
LINE
  5
1C54
330
1ACB
100
AcDbEntity
  8
0
 62
     0
100
AcDbLine
 10
-43.22756147282872
 20
-271.1369158840178
 30
0.0
 11
-43.12777286658632
 21
-271.0371272777754
 31
0.0
  0
LINE
  5
1C55
330
1ACB
100
AcDbEntity
  8
0
 62
     0
100
AcDbLine
 10
-44.47213200031946
 20
-272.2489038900361
 30
0.0
 11
-44.36998806593027
 21
-272.1467599556469
 31
0.0
  0
LINE
  5
1C56
330
1ACB
100
AcDbEntity
  8
0
 62
     0
100
AcDbLine
 10
-43.23081225804116
 20
-271.0075841477578
 30
0.0
 11
-42.3360430685881
 21
-270.1128149583047
 31
0.0
  0
LINE
  5
1C57
330
1ACB
100
AcDbEntity
  8
0
 62
     0
100
AcDbLine
 10
-44.36998806593028
 20
-272.1467599556469
 30
0.0
 11
-43.7379935597283
 21
-271.5147654494449
 31
0.0
  0
LINE
  5
1C58
330
1ACB
100
AcDbEntity
  8
0
 62
     0
100
AcDbLine
 10
-43.27231339726363
 20
-271.0490852869802
 30
0.0
 11
-43.23081225804115
 21
-271.0075841477578
 31
0.0
  0
LINE
  5
1C59
330
1ACB
100
AcDbEntity
  8
0
 62
     0
100
AcDbLine
 10
-44.51688392475437
 20
-272.1610732929985
 30
0.0
 11
-44.41473999036521
 21
-272.0589293586094
 31
0.0
  0
LINE
  5
1C5A
330
1ACB
100
AcDbEntity
  8
0
 62
     0
100
AcDbLine
 10
-43.36339477951361
 20
-271.0075841477578
 30
0.0
 11
-42.46862559006059
 21
-270.1128149583047
 31
0.0
  0
LINE
  5
1C5B
330
1ACB
100
AcDbEntity
  8
0
 62
     0
100
AcDbLine
 10
-44.4147399903652
 20
-272.0589293586093
 30
0.0
 11
-43.78274548416323
 21
-271.4269348524073
 31
0.0
  0
LINE
  5
1C5C
330
1ACB
100
AcDbEntity
  8
0
 62
     0
100
AcDbLine
 10
-44.5616358491893
 20
-272.0732426959609
 30
0.0
 11
-44.45949191480012
 21
-271.9710987615718
 31
0.0
  0
LINE
  5
1C5D
330
1ACB
100
AcDbEntity
  8
0
 62
     0
100
AcDbLine
 10
-43.4959773009861
 20
-271.0075841477578
 30
0.0
 11
-42.60120811153304
 21
-270.1128149583047
 31
0.0
  0
LINE
  5
1C5E
330
1ACB
100
AcDbEntity
  8
0
 62
     0
100
AcDbLine
 10
-44.45949191480013
 20
-271.9710987615718
 30
0.0
 11
-43.82749740859814
 21
-271.3391042553698
 31
0.0
  0
LINE
  5
1C5F
330
1ACB
100
AcDbEntity
  8
0
 62
     0
100
AcDbLine
 10
-44.60638777362423
 20
-271.9854120989233
 30
0.0
 11
-44.50424383923505
 21
-271.8832681645342
 31
0.0
  0
LINE
  5
1C60
330
1ACB
100
AcDbEntity
  8
0
 62
     0
100
AcDbLine
 10
-43.62855982245858
 20
-271.0075841477578
 30
0.0
 11
-42.73379063300552
 21
-270.1128149583047
 31
0.0
  0
LINE
  5
1C61
330
1ACB
100
AcDbEntity
  8
0
 62
     0
100
AcDbLine
 10
-44.50424383923506
 20
-271.8832681645342
 30
0.0
 11
-43.87224933303307
 21
-271.2512736583323
 31
0.0
  0
LINE
  5
1C62
330
1ACB
100
AcDbEntity
  8
0
 62
     0
100
AcDbLine
 10
-44.65113969805915
 20
-271.8975815018858
 30
0.0
 11
-44.54899576366996
 21
-271.7954375674967
 31
0.0
  0
LINE
  5
1C63
330
1ACB
100
AcDbEntity
  8
0
 62
     0
100
AcDbLine
 10
-43.76114234393106
 20
-271.0075841477578
 30
0.0
 11
-42.86637315447801
 21
-270.1128149583047
 31
0.0
  0
LINE
  5
1C64
330
1ACB
100
AcDbEntity
  8
0
 62
     0
100
AcDbLine
 10
-44.54899576366997
 20
-271.7954375674967
 30
0.0
 11
-43.91700125746799
 21
-271.1634430612947
 31
0.0
  0
LINE
  5
1C65
330
1ACB
100
AcDbEntity
  8
0
 62
     0
100
AcDbLine
 10
-44.69589162249408
 20
-271.8097509048483
 30
0.0
 11
-44.5937476881049
 21
-271.7076069704591
 31
0.0
  0
LINE
  5
1C66
330
1ACB
100
AcDbEntity
  8
0
 62
     0
100
AcDbLine
 10
-43.89372486540355
 20
-271.0075841477578
 30
0.0
 11
-42.99895567595049
 21
-270.1128149583047
 31
0.0
  0
LINE
  5
1C67
330
1ACB
100
AcDbEntity
  8
0
 62
     0
100
AcDbLine
 10
-44.59374768810491
 20
-271.7076069704591
 30
0.0
 11
-43.96175318190293
 21
-271.0756124642572
 31
0.0
  0
LINE
  5
1C68
330
1ACB
100
AcDbEntity
  8
0
 62
     0
100
AcDbLine
 10
-44.74064354692899
 20
-271.7219203078107
 30
0.0
 11
-44.63849961253981
 21
-271.6197763734216
 31
0.0
  0
LINE
  5
1C69
330
1ACB
100
AcDbEntity
  8
0
 62
     0
100
AcDbLine
 10
-44.02630738687596
 20
-271.0075841477577
 30
0.0
 11
-43.13153819742297
 21
-270.1128149583047
 31
0.0
  0
LINE
  5
1C6A
330
1ACB
100
AcDbEntity
  8
0
 62
     0
100
AcDbLine
 10
-44.63849961253983
 20
-271.6197763734216
 30
0.0
 11
-44.02630738687603
 21
-271.0075841477578
 31
0.0
  0
LINE
  5
1C6B
330
1ACB
100
AcDbEntity
  8
0
 62
     0
100
AcDbLine
 10
-44.78539547136391
 20
-271.6340897107732
 30
0.0
 11
-44.68325153697474
 21
-271.5319457763841
 31
0.0
  0
LINE
  5
1C6C
330
1ACB
100
AcDbEntity
  8
0
 62
     0
100
AcDbLine
 10
-44.15888990834845
 20
-271.0075841477577
 30
0.0
 11
-43.26412071889542
 21
-270.1128149583047
 31
0.0
  0
LINE
  5
1C6D
330
1ACB
100
AcDbEntity
  8
0
 62
     0
100
AcDbLine
 10
-44.68325153697477
 20
-271.531945776384
 30
0.0
 11
-44.15888990834848
 21
-271.0075841477578
 31
0.0
  0
LINE
  5
1C6E
330
1ACB
100
AcDbEntity
  8
0
 62
     0
100
AcDbLine
 10
-44.83014739579885
 20
-271.5462591137356
 30
0.0
 11
-44.72800346140967
 21
-271.4441151793465
 31
0.0
  0
LINE
  5
1C6F
330
1ACB
100
AcDbEntity
  8
0
 62
     0
100
AcDbLine
 10
-44.29147242982091
 20
-271.0075841477577
 30
0.0
 11
-43.39670324036791
 21
-270.1128149583047
 31
0.0
  0
LINE
  5
1C70
330
1ACB
100
AcDbEntity
  8
0
 62
     0
100
AcDbLine
 10
-44.72800346140968
 20
-271.4441151793465
 30
0.0
 11
-44.29147242982097
 21
-271.0075841477578
 31
0.0
  0
LINE
  5
1C71
330
1ACB
100
AcDbEntity
  8
0
 62
     0
100
AcDbLine
 10
-44.87489932023376
 20
-271.4584285166981
 30
0.0
 11
-44.7727553858446
 21
-271.3562845823089
 31
0.0
  0
LINE
  5
1C72
330
1ACB
100
AcDbEntity
  8
0
 62
     0
100
AcDbLine
 10
-44.42405495129341
 20
-271.0075841477577
 30
0.0
 11
-43.5292857618404
 21
-270.1128149583047
 31
0.0
  0
LINE
  5
1C73
330
1ACB
100
AcDbEntity
  8
0
 62
     0
100
AcDbLine
 10
-44.77275538584461
 20
-271.3562845823089
 30
0.0
 11
-44.42405495129345
 21
-271.0075841477578
 31
0.0
  0
LINE
  5
1C74
330
1ACB
100
AcDbEntity
  8
0
 62
     0
100
AcDbLine
 10
-44.91965124466869
 20
-271.3705979196606
 30
0.0
 11
-44.81750731027952
 21
-271.2684539852714
 31
0.0
  0
LINE
  5
1C75
330
1ACB
100
AcDbEntity
  8
0
 62
     0
100
AcDbLine
 10
-44.55663747276587
 20
-271.0075841477577
 30
0.0
 11
-43.66186828331287
 21
-270.1128149583047
 31
0.0
  0
LINE
  5
1C76
330
1ACB
100
AcDbEntity
  8
0
 62
     0
100
AcDbLine
 10
-44.81750731027953
 20
-271.2684539852714
 30
0.0
 11
-44.55663747276593
 21
-271.0075841477578
 31
0.0
  0
LINE
  5
1C77
330
1ACB
100
AcDbEntity
  8
0
 62
     0
100
AcDbLine
 10
-44.96440316910361
 20
-271.282767322623
 30
0.0
 11
-44.86225923471444
 21
-271.1806233882338
 31
0.0
  0
LINE
  5
1C78
330
1ACB
100
AcDbEntity
  8
0
 62
     0
100
AcDbLine
 10
-44.68921999423836
 20
-271.0075841477577
 30
0.0
 11
-43.79445080478536
 21
-270.1128149583047
 31
0.0
  0
LINE
  5
1C79
330
1ACB
100
AcDbEntity
  8
0
 62
     0
100
AcDbLine
 10
-44.86225923471446
 20
-271.1806233882338
 30
0.0
 11
-44.68921999423842
 21
-271.0075841477578
 31
0.0
  0
LINE
  5
1C7A
330
1ACB
100
AcDbEntity
  8
0
 62
     0
100
AcDbLine
 10
-45.00915509353854
 20
-271.1949367255854
 30
0.0
 11
-44.93619626528839
 21
-271.1219778973352
 31
0.0
  0
LINE
  5
1C7B
330
1ACB
100
AcDbEntity
  8
0
 62
     0
100
AcDbLine
 10
-44.82180251571087
 20
-271.0075841477578
 30
0.0
 11
-43.92703332625781
 21
-270.1128149583047
 31
0.0
  0
LINE
  5
1C7C
330
1ACB
100
AcDbEntity
  8
0
 62
     0
100
AcDbLine
 10
-44.95438503718335
 20
-271.0075841477578
 30
0.0
 11
-44.0596158477303
 21
-270.1128149583047
 31
0.0
  0
LINE
  5
1C7D
330
1ACB
100
AcDbEntity
  8
0
 62
     0
100
AcDbLine
 10
-45.08696755865584
 20
-271.0075841477578
 30
0.0
 11
-44.19219836920278
 21
-270.1128149583047
 31
0.0
  0
LINE
  5
1C7E
330
1ACB
100
AcDbEntity
  8
0
 62
     0
100
AcDbLine
 10
-45.21955008012832
 20
-271.0075841477578
 30
0.0
 11
-44.32478089067527
 21
-270.1128149583047
 31
0.0
  0
LINE
  5
1C7F
330
1ACB
100
AcDbEntity
  8
0
 62
     0
100
AcDbLine
 10
-45.23372463886881
 20
-270.8891761850257
 30
0.0
 11
-44.45736341214774
 21
-270.1128149583047
 31
0.0
  0
LINE
  5
1C80
330
1ACB
100
AcDbEntity
  8
0
 62
     0
100
AcDbLine
 10
-45.23372463886881
 20
-270.7565936635533
 30
0.0
 11
-44.5899459336202
 21
-270.1128149583047
 31
0.0
  0
LINE
  5
1C81
330
1ACB
100
AcDbEntity
  8
0
 62
     0
100
AcDbLine
 10
-45.23372463886881
 20
-270.6240111420808
 30
0.0
 11
-44.72252845509268
 21
-270.1128149583047
 31
0.0
  0
LINE
  5
1C82
330
1ACB
100
AcDbEntity
  8
0
 62
     0
100
AcDbLine
 10
-45.23372463886881
 20
-270.4914286206083
 30
0.0
 11
-44.85511097656517
 21
-270.1128149583047
 31
0.0
  0
LINE
  5
1C83
330
1ACB
100
AcDbEntity
  8
0
 62
     0
100
AcDbLine
 10
-45.2337246388688
 20
-270.3588460991359
 30
0.0
 11
-44.98769349803765
 21
-270.1128149583047
 31
0.0
  0
LINE
  5
1C84
330
1ACB
100
AcDbEntity
  8
0
 62
     0
100
AcDbLine
 10
-45.2337246388688
 20
-270.2262635776634
 30
0.0
 11
-45.12027601951014
 21
-270.1128149583047
 31
0.0
  0
LINE
  5
1C85
330
1ACB
100
AcDbEntity
  8
0
 62
     0
100
AcDbLine
 10
-39.27512850824
 20
-279.5146574163695
 30
0.0
 11
-38.5413666900566
 21
-278.7808955981861
 31
0.0
  0
LINE
  5
1C86
330
1ACB
100
AcDbEntity
  8
0
 62
     0
100
AcDbLine
 10
-39.16241960701883
 20
-279.5345310366208
 30
0.0
 11
-38.42865778883542
 21
-278.8007692184374
 31
0.0
  0
LINE
  5
1C87
330
1ACB
100
AcDbEntity
  8
0
 62
     0
100
AcDbLine
 10
-39.04971070579762
 20
-279.5544046568721
 30
0.0
 11
-38.31594888761424
 21
-278.8206428386887
 31
0.0
  0
LINE
  5
1C88
330
1ACB
100
AcDbEntity
  8
0
 62
     0
100
AcDbLine
 10
-38.93700180457646
 20
-279.5742782771234
 30
0.0
 11
-38.20323998639308
 21
-278.84051645894
 31
0.0
  0
LINE
  5
1C89
330
1ACB
100
AcDbEntity
  8
0
 62
     0
100
AcDbLine
 10
-38.82429290335529
 20
-279.5941518973747
 30
0.0
 11
-38.0905310851719
 21
-278.8603900791913
 31
0.0
  0
LINE
  5
1C8A
330
1ACB
100
AcDbEntity
  8
0
 62
     0
100
AcDbLine
 10
-38.71158400213412
 20
-279.614025517626
 30
0.0
 11
-37.97782218395072
 21
-278.8802636994426
 31
0.0
  0
LINE
  5
1C8B
330
1ACB
100
AcDbEntity
  8
0
 62
     0
100
AcDbLine
 10
-38.59887510091292
 20
-279.6338991378773
 30
0.0
 11
-37.86511328272954
 21
-278.9001373196939
 31
0.0
  0
LINE
  5
1C8C
330
1ACB
100
AcDbEntity
  8
0
 62
     0
100
AcDbLine
 10
-38.48616619969174
 20
-279.6537727581286
 30
0.0
 11
-37.75240438150836
 21
-278.9200109399452
 31
0.0
  0
LINE
  5
1C8D
330
1ACB
100
AcDbEntity
  8
0
 62
     0
100
AcDbLine
 10
-38.37345729847058
 20
-279.6736463783799
 30
0.0
 11
-37.63969548028717
 21
-278.9398845601965
 31
0.0
  0
LINE
  5
1C8E
330
1ACB
100
AcDbEntity
  8
0
 62
     0
100
AcDbLine
 10
-38.26074839724942
 20
-279.6935199986312
 30
0.0
 11
-37.526986579066
 21
-278.9597581804478
 31
0.0
  0
LINE
  5
1C8F
330
1ACB
100
AcDbEntity
  8
0
 62
     0
100
AcDbLine
 10
-38.14803949602821
 20
-279.7133936188825
 30
0.0
 11
-37.41427767784482
 21
-278.9796318006991
 31
0.0
  0
LINE
  5
1C90
330
1ACB
100
AcDbEntity
  8
0
 62
     0
100
AcDbLine
 10
-38.03533059480704
 20
-279.7332672391338
 30
0.0
 11
-37.30156877662363
 21
-278.9995054209504
 31
0.0
  0
LINE
  5
1C91
330
1ACB
100
AcDbEntity
  8
0
 62
     0
100
AcDbLine
 10
-37.92262169358588
 20
-279.7531408593851
 30
0.0
 11
-37.18885987540245
 21
-279.0193790412017
 31
0.0
  0
LINE
  5
1C92
330
1ACB
100
AcDbEntity
  8
0
 62
     0
100
AcDbLine
 10
-37.80991279236471
 20
-279.7730144796364
 30
0.0
 11
-37.07615097418127
 21
-279.039252661453
 31
0.0
  0
LINE
  5
1C93
330
1ACB
100
AcDbEntity
  8
0
 62
     0
100
AcDbLine
 10
-37.6972038911435
 20
-279.7928880998877
 30
0.0
 11
-36.96344207296009
 21
-279.0591262817043
 31
0.0
  0
LINE
  5
1C94
330
1ACB
100
AcDbEntity
  8
0
 62
     0
100
AcDbLine
 10
-37.58449498992233
 20
-279.812761720139
 30
0.0
 11
-36.85073317173891
 21
-279.0789999019556
 31
0.0
  0
LINE
  5
1C95
330
1ACB
100
AcDbEntity
  8
0
 62
     0
100
AcDbLine
 10
-37.47178608870117
 20
-279.8326353403903
 30
0.0
 11
-36.73802427051778
 21
-279.0988735222069
 31
0.0
  0
LINE
  5
1C96
330
1ACB
100
AcDbEntity
  8
0
 62
     0
100
AcDbLine
 10
-37.35907718748001
 20
-279.8525089606416
 30
0.0
 11
-36.62531536929659
 21
-279.1187471424582
 31
0.0
  0
LINE
  5
1C97
330
1ACB
100
AcDbEntity
  8
0
 62
     0
100
AcDbLine
 10
-37.24636828625879
 20
-279.8723825808929
 30
0.0
 11
-36.51260646807542
 21
-279.1386207627095
 31
0.0
  0
LINE
  5
1C98
330
1ACB
100
AcDbEntity
  8
0
 62
     0
100
AcDbLine
 10
-37.13365938503763
 20
-279.8922562011442
 30
0.0
 11
-36.39989756685424
 21
-279.1584943829608
 31
0.0
  0
LINE
  5
1C99
330
1ACB
100
AcDbEntity
  8
0
 62
     0
100
AcDbLine
 10
-37.02095048381647
 20
-279.9121298213955
 30
0.0
 11
-36.28718866563306
 21
-279.1783680032121
 31
0.0
  0
LINE
  5
1C9A
330
1ACB
100
AcDbEntity
  8
0
 62
     0
100
AcDbLine
 10
-36.9082415825953
 20
-279.9320034416468
 30
0.0
 11
-36.17447976441188
 21
-279.1982416234634
 31
0.0
  0
LINE
  5
1C9B
330
1ACB
100
AcDbEntity
  8
0
 62
     0
100
AcDbLine
 10
-36.79553268137409
 20
-279.9518770618981
 30
0.0
 11
-36.0617708631907
 21
-279.2181152437147
 31
0.0
  0
LINE
  5
1C9C
330
1ACB
100
AcDbEntity
  8
0
 62
     0
100
AcDbLine
 10
-36.68282378015292
 20
-279.9717506821494
 30
0.0
 11
-35.94906196196951
 21
-279.237988863966
 31
0.0
  0
LINE
  5
1C9D
330
1ACB
100
AcDbEntity
  8
0
 62
     0
100
AcDbLine
 10
-36.57011487893175
 20
-279.9916243024007
 30
0.0
 11
-35.83635306074833
 21
-279.2578624842173
 31
0.0
  0
LINE
  5
1C9E
330
1ACB
100
AcDbEntity
  8
0
 62
     0
100
AcDbLine
 10
-36.45740597771059
 20
-280.011497922652
 30
0.0
 11
-35.72364415952716
 21
-279.2777361044686
 31
0.0
  0
LINE
  5
1C9F
330
1ACB
100
AcDbEntity
  8
0
 62
     0
100
AcDbLine
 10
-36.34469707648938
 20
-280.0313715429033
 30
0.0
 11
-35.61093525830597
 21
-279.2976097247199
 31
0.0
  0
LINE
  5
1CA0
330
1ACB
100
AcDbEntity
  8
0
 62
     0
100
AcDbLine
 10
-36.23198817526822
 20
-280.0512451631546
 30
0.0
 11
-35.49822635708479
 21
-279.3174833449712
 31
0.0
  0
LINE
  5
1CA1
330
1ACB
100
AcDbEntity
  8
0
 62
     0
100
AcDbLine
 10
-36.11927927404706
 20
-280.0711187834059
 30
0.0
 11
-35.38551745586361
 21
-279.3373569652225
 31
0.0
  0
LINE
  5
1CA2
330
1ACB
100
AcDbEntity
  8
0
 62
     0
100
AcDbLine
 10
-36.00657037282589
 20
-280.0909924036572
 30
0.0
 11
-35.27280855464243
 21
-279.3572305854738
 31
0.0
  0
LINE
  5
1CA3
330
1ACB
100
AcDbEntity
  8
0
 62
     0
100
AcDbLine
 10
-35.89386147160467
 20
-280.1108660239085
 30
0.0
 11
-35.16009965342125
 21
-279.3771042057251
 31
0.0
  0
LINE
  5
1CA4
330
1ACB
100
AcDbEntity
  8
0
 62
     0
100
AcDbLine
 10
-35.78115257038351
 20
-280.1307396441598
 30
0.0
 11
-35.04739075220007
 21
-279.3969778259764
 31
0.0
  0
LINE
  5
1CA5
330
1ACB
100
AcDbEntity
  8
0
 62
     0
100
AcDbLine
 10
-35.66844366916234
 20
-280.1506132644111
 30
0.0
 11
-34.93468185097889
 21
-279.4168514462277
 31
0.0
  0
LINE
  5
1CA6
330
1ACB
100
AcDbEntity
  8
0
 62
     0
100
AcDbLine
 10
-35.55573476794118
 20
-280.1704868846624
 30
0.0
 11
-34.82197294975771
 21
-279.436725066479
 31
0.0
  0
LINE
  5
1CA7
330
1ACB
100
AcDbEntity
  8
0
 62
     0
100
AcDbLine
 10
-35.44302586671997
 20
-280.1903605049137
 30
0.0
 11
-34.70926404853658
 21
-279.4565986867303
 31
0.0
  0
LINE
  5
1CA8
330
1ACB
100
AcDbEntity
  8
0
 62
     0
100
AcDbLine
 10
-35.3303169654988
 20
-280.210234125165
 30
0.0
 11
-34.59655514731539
 21
-279.4764723069816
 31
0.0
  0
LINE
  5
1CA9
330
1ACB
100
AcDbEntity
  8
0
 62
     0
100
AcDbLine
 10
-35.21760806427764
 20
-280.2301077454163
 30
0.0
 11
-34.48384624609421
 21
-279.496345927233
 31
0.0
  0
LINE
  5
1CAA
330
1ACB
100
AcDbEntity
  8
0
 62
     0
100
AcDbLine
 10
-35.10489916305647
 20
-280.2499813656676
 30
0.0
 11
-34.65961316436878
 21
-279.80469536698
 31
0.0
  0
LINE
  5
1CAB
330
1ACB
100
AcDbEntity
  8
0
 62
     0
100
AcDbLine
 10
-34.49507239555112
 20
-279.6401545981623
 30
0.0
 11
-34.37113734487303
 21
-279.5162195474842
 31
0.0
  0
LINE
  5
1CAC
330
1ACB
100
AcDbEntity
  8
0
 62
     0
100
AcDbLine
 10
-34.65961316436874
 20
-279.8046953669799
 30
0.0
 11
-34.49507239555113
 21
-279.6401545981623
 31
0.0
  0
LINE
  5
1CAD
330
1ACB
100
AcDbEntity
  8
0
 62
     0
100
AcDbLine
 10
-34.99219026183526
 20
-280.2698549859189
 30
0.0
 11
-34.61254978408334
 21
-279.890214508167
 31
0.0
  0
LINE
  5
1CAE
330
1ACB
100
AcDbEntity
  8
0
 62
     0
100
AcDbLine
 10
-34.4505443932725
 20
-279.7282091173562
 30
0.0
 11
-34.25842844365185
 21
-279.5360931677355
 31
0.0
  0
LINE
  5
1CAF
330
1ACB
100
AcDbEntity
  8
0
 62
     0
100
AcDbLine
 10
-34.61254978408327
 20
-279.8902145081669
 30
0.0
 11
-34.45054439327251
 21
-279.7282091173562
 31
0.0
  0
LINE
  5
1CB0
330
1ACB
100
AcDbEntity
  8
0
 62
     0
100
AcDbLine
 10
-34.8794813606141
 20
-280.2897286061702
 30
0.0
 11
-34.56548640379791
 21
-279.975733649354
 31
0.0
  0
LINE
  5
1CB1
330
1ACB
100
AcDbEntity
  8
0
 62
     0
100
AcDbLine
 10
-34.40601639099387
 20
-279.81626363655
 30
0.0
 11
-34.18212969867614
 21
-279.5923769442322
 31
0.0
  0
LINE
  5
1CB2
330
1ACB
100
AcDbEntity
  8
0
 62
     0
100
AcDbLine
 10
-34.5654864037978
 20
-279.975733649354
 30
0.0
 11
-34.4060163909939
 21
-279.81626363655
 31
0.0
  0
LINE
  5
1CB3
330
1ACB
100
AcDbEntity
  8
0
 62
     0
100
AcDbLine
 10
-34.76677245939293
 20
-280.3096022264215
 30
0.0
 11
-34.51842302351247
 21
-280.0612527905411
 31
0.0
  0
LINE
  5
1CB4
330
1ACB
100
AcDbEntity
  8
0
 62
     0
100
AcDbLine
 10
-34.36148838871525
 20
-279.9043181557439
 30
0.0
 11
-34.21610863625688
 21
-279.7589384032855
 31
0.0
  0
LINE
  5
1CB5
330
1ACB
100
AcDbEntity
  8
0
 62
     0
100
AcDbLine
 10
-34.51842302351233
 20
-280.0612527905409
 30
0.0
 11
-34.36148838871528
 21
-279.9043181557439
 31
0.0
  0
LINE
  5
1CB6
330
1ACB
100
AcDbEntity
  8
0
 62
     0
100
AcDbLine
 10
-34.65406355817177
 20
-280.3294758466728
 30
0.0
 11
-34.47135964322703
 21
-280.1467719317281
 31
0.0
  0
LINE
  5
1CB7
330
1ACB
100
AcDbEntity
  8
0
 62
     0
100
AcDbLine
 10
-34.31696038643663
 20
-279.9923726749377
 30
0.0
 11
-34.25008757383762
 21
-279.9254998623387
 31
0.0
  0
LINE
  5
1CB8
330
1ACB
100
AcDbEntity
  8
0
 62
     0
100
AcDbLine
 10
-34.47135964322686
 20
-280.1467719317279
 30
0.0
 11
-34.31696038643667
 21
-279.9923726749378
 31
0.0
  0
LINE
  5
1CB9
330
1ACB
100
AcDbEntity
  8
0
 62
     0
100
AcDbLine
 10
-34.54135465695056
 20
-280.3493494669242
 30
0.0
 11
-34.4242962629416
 21
-280.2322910729151
 31
0.0
  0
LINE
  5
1CBA
330
1ACB
100
AcDbEntity
  8
0
 62
     0
100
AcDbLine
 10
-34.42429626294139
 20
-280.232291072915
 30
0.0
 11
-34.27243238415805
 21
-280.0804271941316
 31
0.0
  0
LINE
  5
1CBB
330
1ACB
100
AcDbEntity
  8
0
 62
     0
100
AcDbLine
 10
-34.42864575572939
 20
-280.3692230871754
 30
0.0
 11
-34.37723288265617
 21
-280.3178102141022
 31
0.0
  0
LINE
  5
1CBC
330
1ACB
100
AcDbEntity
  8
0
 62
     0
100
AcDbLine
 10
-34.23763487951733
 20
-280.1782122109634
 30
0.0
 11
-34.22790438187941
 21
-280.1684817133254
 31
0.0
  0
LINE
  5
1CBD
330
1ACB
100
AcDbEntity
  8
0
 62
     0
100
AcDbLine
 10
-34.37723288265592
 20
-280.317810214102
 30
0.0
 11
-34.32222178119469
 21
-280.2627991126407
 31
0.0
  0
LINE
  5
1CBE
330
1ACB
100
AcDbEntity
  8
0
 62
     0
100
AcDbLine
 10
-34.3180454489991
 20
-280.2586227804452
 30
0.0
 11
-34.23763487951734
 21
-280.1782122109634
 31
0.0
  0
LINE
  5
1CBF
330
1ACB
100
AcDbEntity
  8
0
 62
     0
100
AcDbLine
 10
-34.33279649784393
 20
-280.4059563507625
 30
0.0
 11
-34.31594377963411
 21
-280.3891036325526
 31
0.0
  0
LINE
  5
1CC0
330
1ACB
100
AcDbEntity
  8
0
 62
     0
100
AcDbLine
 10
-34.31594377963405
 20
-280.3891036325526
 30
0.0
 11
-34.12832042519916
 21
-280.2014802781177
 31
0.0
  0
LINE
  5
1CC1
330
1ACB
100
AcDbEntity
  8
0
 62
     0
100
AcDbLine
 10
-34.2886183190611
 20
-280.4943606934521
 30
0.0
 11
-34.20326302751831
 21
-280.4090054019093
 31
0.0
  0
LINE
  5
1CC2
330
1ACB
100
AcDbEntity
  8
0
 62
     0
100
AcDbLine
 10
-34.01900597088106
 20
-280.224748345272
 30
0.0
 11
-34.00684354492805
 21
-280.2125859193191
 31
0.0
  0
LINE
  5
1CC3
330
1ACB
100
AcDbEntity
  8
0
 62
     0
100
AcDbLine
 10
-34.20326302751827
 20
-280.4090054019093
 30
0.0
 11
-34.01900597088101
 21
-280.224748345272
 31
0.0
  0
LINE
  5
1CC4
330
1ACB
100
AcDbEntity
  8
0
 62
     0
100
AcDbLine
 10
-34.24444014027825
 20
-280.5827650361417
 30
0.0
 11
-34.09058227540249
 21
-280.4289071712659
 31
0.0
  0
LINE
  5
1CC5
330
1ACB
100
AcDbEntity
  8
0
 62
     0
100
AcDbLine
 10
-33.90969151656292
 20
-280.2480164124263
 30
0.0
 11
-33.73652476279732
 21
-280.0748496586608
 31
0.0
  0
LINE
  5
1CC6
330
1ACB
100
AcDbEntity
  8
0
 62
     0
100
AcDbLine
 10
-34.09058227540246
 20
-280.4289071712659
 30
0.0
 11
-33.90969151656286
 21
-280.2480164124263
 31
0.0
  0
LINE
  5
1CC7
330
1ACB
100
AcDbEntity
  8
0
 62
     0
100
AcDbLine
 10
-34.20026196149541
 20
-280.6711693788314
 30
0.0
 11
-33.9779015232867
 21
-280.4488089406227
 31
0.0
  0
LINE
  5
1CC8
330
1ACB
100
AcDbEntity
  8
0
 62
     0
100
AcDbLine
 10
-33.80037706224471
 20
-280.2712844795807
 30
0.0
 11
-33.56665993146914
 21
-280.0375673488051
 31
0.0
  0
LINE
  5
1CC9
330
1ACB
100
AcDbEntity
  8
0
 62
     0
100
AcDbLine
 10
-33.97790152328667
 20
-280.4488089406226
 30
0.0
 11
-33.80037706224476
 21
-280.2712844795808
 31
0.0
  0
LINE
  5
1CCA
330
1ACB
100
AcDbEntity
  8
0
 62
     0
100
AcDbLine
 10
-34.15608378271257
 20
-280.759573721521
 30
0.0
 11
-33.86522077117088
 21
-280.4687107099793
 31
0.0
  0
LINE
  5
1CCB
330
1ACB
100
AcDbEntity
  8
0
 62
     0
100
AcDbLine
 10
-33.69106260792654
 20
-280.294552546735
 30
0.0
 11
-33.52248175268631
 21
-280.1259716914947
 31
0.0
  0
LINE
  5
1CCC
330
1ACB
100
AcDbEntity
  8
0
 62
     0
100
AcDbLine
 10
-33.86522077117085
 20
-280.4687107099793
 30
0.0
 11
-33.69106260792662
 21
-280.2945525467351
 31
0.0
  0
LINE
  5
1CCD
330
1ACB
100
AcDbEntity
  8
0
 62
     0
100
AcDbLine
 10
-34.11190560392971
 20
-280.8479780642106
 30
0.0
 11
-33.75254001905505
 21
-280.488612479336
 31
0.0
  0
LINE
  5
1CCE
330
1ACB
100
AcDbEntity
  8
0
 62
     0
100
AcDbLine
 10
-33.59453372366715
 20
-280.330606183948
 30
0.0
 11
-33.47830357390347
 21
-280.2143760341844
 31
0.0
  0
LINE
  5
1CCF
330
1ACB
100
AcDbEntity
  8
0
 62
     0
100
AcDbLine
 10
-33.75254001905507
 20
-280.4886124793359
 30
0.0
 11
-33.59453372366719
 21
-280.3306061839481
 31
0.0
  0
LINE
  5
1CD0
330
1ACB
100
AcDbEntity
  8
0
 62
     0
100
AcDbLine
 10
-34.06772742514688
 20
-280.9363824069003
 30
0.0
 11
-33.64145204273529
 21
-280.5101070244887
 31
0.0
  0
LINE
  5
1CD1
330
1ACB
100
AcDbEntity
  8
0
 62
     0
100
AcDbLine
 10
-33.62039977625162
 20
-280.489054758005
 30
0.0
 11
-33.43412539512061
 21
-280.302780376874
 31
0.0
  0
LINE
  5
1CD2
330
1ACB
100
AcDbEntity
  8
0
 62
     0
100
AcDbLine
 10
-33.64145204273528
 20
-280.5101070244887
 30
0.0
 11
-33.62039977625164
 21
-280.489054758005
 31
0.0
  0
LINE
  5
1CD3
330
1ACB
100
AcDbEntity
  8
0
 62
     0
100
AcDbLine
 10
-34.02354924636404
 20
-281.0247867495899
 30
0.0
 11
-33.38994721633778
 21
-280.3911847195636
 31
0.0
  0
LINE
  5
1CD4
330
1ACB
100
AcDbEntity
  8
0
 62
     0
100
AcDbLine
 10
-33.97937106758119
 20
-281.1131910922795
 30
0.0
 11
-33.34576903755494
 21
-280.4795890622533
 31
0.0
  0
LINE
  5
1CD5
330
1ACB
100
AcDbEntity
  8
0
 62
     0
100
AcDbLine
 10
-33.93519288879836
 20
-281.2015954349691
 30
0.0
 11
-33.30159085877209
 21
-280.567993404943
 31
0.0
  0
LINE
  5
1CD6
330
1ACB
100
AcDbEntity
  8
0
 62
     0
100
AcDbLine
 10
-33.89101471001551
 20
-281.2899997776588
 30
0.0
 11
-33.25741267998925
 21
-280.6563977476325
 31
0.0
  0
LINE
  5
1CD7
330
1ACB
100
AcDbEntity
  8
0
 62
     0
100
AcDbLine
 10
-33.84683653123266
 20
-281.3784041203485
 30
0.0
 11
-33.21323450120642
 21
-280.7448020903222
 31
0.0
  0
LINE
  5
1CD8
330
1ACB
100
AcDbEntity
  8
0
 62
     0
100
AcDbLine
 10
-33.80265835244982
 20
-281.4668084630381
 30
0.0
 11
-33.16905632242356
 21
-280.8332064330118
 31
0.0
  0
LINE
  5
1CD9
330
1ACB
100
AcDbEntity
  8
0
 62
     0
100
AcDbLine
 10
-33.75848017366698
 20
-281.5552128057277
 30
0.0
 11
-33.12487814364072
 21
-280.9216107757015
 31
0.0
  0
LINE
  5
1CDA
330
1ACB
100
AcDbEntity
  8
0
 62
     0
100
AcDbLine
 10
-33.71430199488414
 20
-281.6436171484174
 30
0.0
 11
-33.08069996485789
 21
-281.010015118391
 31
0.0
  0
LINE
  5
1CDB
330
1ACB
100
AcDbEntity
  8
0
 62
     0
100
AcDbLine
 10
-33.6701238161013
 20
-281.732021491107
 30
0.0
 11
-33.03652178607503
 21
-281.0984194610807
 31
0.0
  0
LINE
  5
1CDC
330
1ACB
100
AcDbEntity
  8
0
 62
     0
100
AcDbLine
 10
-33.62594563731845
 20
-281.8204258337966
 30
0.0
 11
-32.9923436072922
 21
-281.1868238037704
 31
0.0
  0
LINE
  5
1CDD
330
1ACB
100
AcDbEntity
  8
0
 62
     0
100
AcDbLine
 10
-33.58176745853561
 20
-281.9088301764862
 30
0.0
 11
-32.94816542850937
 21
-281.2752281464601
 31
0.0
  0
LINE
  5
1CDE
330
1ACB
100
AcDbEntity
  8
0
 62
     0
100
AcDbLine
 10
-33.53758927975277
 20
-281.9972345191759
 30
0.0
 11
-32.90398724972653
 21
-281.3636324891497
 31
0.0
  0
LINE
  5
1CDF
330
1ACB
100
AcDbEntity
  8
0
 62
     0
100
AcDbLine
 10
-33.49341110096992
 20
-282.0856388618656
 30
0.0
 11
-32.85980907094367
 21
-281.4520368318393
 31
0.0
  0
LINE
  5
1CE0
330
1ACB
100
AcDbEntity
  8
0
 62
     0
100
AcDbLine
 10
-33.44923292218708
 20
-282.1740432045552
 30
0.0
 11
-32.81563089216084
 21
-281.5404411745289
 31
0.0
  0
LINE
  5
1CE1
330
1ACB
100
AcDbEntity
  8
0
 62
     0
100
AcDbLine
 10
-33.40505474340423
 20
-282.2624475472448
 30
0.0
 11
-32.771452713378
 21
-281.6288455172186
 31
0.0
  0
LINE
  5
1CE2
330
1ACB
100
AcDbEntity
  8
0
 62
     0
100
AcDbLine
 10
-33.36087656462139
 20
-282.3508518899345
 30
0.0
 11
-32.72727453459515
 21
-281.7172498599082
 31
0.0
  0
LINE
  5
1CE3
330
1ACB
100
AcDbEntity
  8
0
 62
     0
100
AcDbLine
 10
-33.31669838583855
 20
-282.4392562326241
 30
0.0
 11
-32.68309635581231
 21
-281.8056542025978
 31
0.0
  0
LINE
  5
1CE4
330
1ACB
100
AcDbEntity
  8
0
 62
     0
100
AcDbLine
 10
-33.27252020705571
 20
-282.5276605753137
 30
0.0
 11
-32.63891817702948
 21
-281.8940585452875
 31
0.0
  0
LINE
  5
1CE5
330
1ACB
100
AcDbEntity
  8
0
 62
     0
100
AcDbLine
 10
-33.22834202827287
 20
-282.6160649180033
 30
0.0
 11
-32.59473999824662
 21
-281.9824628879771
 31
0.0
  0
LINE
  5
1CE6
330
1ACB
100
AcDbEntity
  8
0
 62
     0
100
AcDbLine
 10
-33.18416384949003
 20
-282.704469260693
 30
0.0
 11
-32.55056181946378
 21
-282.0708672306667
 31
0.0
  0
LINE
  5
1CE7
330
1ACB
100
AcDbEntity
  8
0
 62
     0
100
AcDbLine
 10
-33.13998567070718
 20
-282.7928736033826
 30
0.0
 11
-32.50638364068095
 21
-282.1592715733564
 31
0.0
  0
LINE
  5
1CE8
330
1ACB
100
AcDbEntity
  8
0
 62
     0
100
AcDbLine
 10
-33.09580749192433
 20
-282.8812779460723
 30
0.0
 11
-32.46220546189811
 21
-282.247675916046
 31
0.0
  0
LINE
  5
1CE9
330
1ACB
100
AcDbEntity
  8
0
 62
     0
100
AcDbLine
 10
-33.0516293131415
 20
-282.9696822887619
 30
0.0
 11
-32.41802728311526
 21
-282.3360802587357
 31
0.0
  0
LINE
  5
1CEA
330
1ACB
100
AcDbEntity
  8
0
 62
     0
100
AcDbLine
 10
-33.00745113435866
 20
-283.0580866314516
 30
0.0
 11
-32.37384910433242
 21
-282.4244846014253
 31
0.0
  0
LINE
  5
1CEB
330
1ACB
100
AcDbEntity
  8
0
 62
     0
100
AcDbLine
 10
-32.96327295557581
 20
-283.1464909741411
 30
0.0
 11
-32.32967092554959
 21
-282.5128889441149
 31
0.0
  0
LINE
  5
1CEC
330
1ACB
100
AcDbEntity
  8
0
 62
     0
100
AcDbLine
 10
-32.91909477679296
 20
-283.2348953168308
 30
0.0
 11
-32.28549274676673
 21
-282.6012932868045
 31
0.0
  0
LINE
  5
1CED
330
1ACB
100
AcDbEntity
  8
0
 62
     0
100
AcDbLine
 10
-32.87491659801013
 20
-283.3232996595204
 30
0.0
 11
-32.24131456798389
 21
-282.6896976294942
 31
0.0
  0
LINE
  5
1CEE
330
1ACB
100
AcDbEntity
  8
0
 62
     0
100
AcDbLine
 10
-32.83073841922728
 20
-283.4117040022101
 30
0.0
 11
-32.19713638920106
 21
-282.7781019721838
 31
0.0
  0
LINE
  5
1CEF
330
1ACB
100
AcDbEntity
  8
0
 62
     0
100
AcDbLine
 10
-32.78656024044444
 20
-283.5001083448997
 30
0.0
 11
-32.1529582104182
 21
-282.8665063148735
 31
0.0
  0
LINE
  5
1CF0
330
1ACB
100
AcDbEntity
  8
0
 62
     0
100
AcDbLine
 10
-32.7423820616616
 20
-283.5885126875893
 30
0.0
 11
-32.10878003163537
 21
-282.9549106575631
 31
0.0
  0
LINE
  5
1CF1
330
1ACB
100
AcDbEntity
  8
0
 62
     0
100
AcDbLine
 10
-32.69820388287876
 20
-283.6769170302789
 30
0.0
 11
-32.06460185285254
 21
-283.0433150002527
 31
0.0
  0
LINE
  5
1CF2
330
1ACB
100
AcDbEntity
  8
0
 62
     0
100
AcDbLine
 10
-32.65402570409591
 20
-283.7653213729686
 30
0.0
 11
-32.0204236740697
 21
-283.1317193429424
 31
0.0
  0
LINE
  5
1CF3
330
1ACB
100
AcDbEntity
  8
0
 62
     0
100
AcDbLine
 10
-32.60984752531307
 20
-283.8537257156582
 30
0.0
 11
-31.97624549528684
 21
-283.220123685632
 31
0.0
  0
LINE
  5
1CF4
330
1ACB
100
AcDbEntity
  8
0
 62
     0
100
AcDbLine
 10
-32.56566934653022
 20
-283.9421300583479
 30
0.0
 11
-31.93206731650401
 21
-283.3085280283216
 31
0.0
  0
LINE
  5
1CF5
330
1ACB
100
AcDbEntity
  8
0
 62
     0
100
AcDbLine
 10
-32.52149116774738
 20
-284.0305344010375
 30
0.0
 11
-31.88788913772117
 21
-283.3969323710113
 31
0.0
  0
LINE
  5
1CF6
330
1ACB
100
AcDbEntity
  8
0
 62
     0
100
AcDbLine
 10
-32.47731298896454
 20
-284.1189387437271
 30
0.0
 11
-31.84371095893832
 21
-283.4853367137009
 31
0.0
  0
LINE
  5
1CF7
330
1ACB
100
AcDbEntity
  8
0
 62
     0
100
AcDbLine
 10
-32.43313481018169
 20
-284.2073430864168
 30
0.0
 11
-31.79953278015548
 21
-283.5737410563906
 31
0.0
  0
LINE
  5
1CF8
330
1ACB
100
AcDbEntity
  8
0
 62
     0
100
AcDbLine
 10
-32.38895663139885
 20
-284.2957474291064
 30
0.0
 11
-31.75535460137264
 21
-283.6621453990801
 31
0.0
  0
LINE
  5
1CF9
330
1ACB
100
AcDbEntity
  8
0
 62
     0
100
AcDbLine
 10
-32.34477845261601
 20
-284.384151771796
 30
0.0
 11
-31.71117642258979
 21
-283.7505497417698
 31
0.0
  0
LINE
  5
1CFA
330
1ACB
100
AcDbEntity
  8
0
 62
     0
100
AcDbLine
 10
-32.30060027383317
 20
-284.4725561144857
 30
0.0
 11
-31.66699824380695
 21
-283.8389540844595
 31
0.0
  0
LINE
  5
1CFB
330
1ACB
100
AcDbEntity
  8
0
 62
     0
100
AcDbLine
 10
-32.25642209505032
 20
-284.5609604571753
 30
0.0
 11
-31.62282006502412
 21
-283.9273584271491
 31
0.0
  0
LINE
  5
1CFC
330
1ACB
100
AcDbEntity
  8
0
 62
     0
100
AcDbLine
 10
-32.21224391626749
 20
-284.649364799865
 30
0.0
 11
-31.57864188624126
 21
-284.0157627698387
 31
0.0
  0
LINE
  5
1CFD
330
1ACB
100
AcDbEntity
  8
0
 62
     0
100
AcDbLine
 10
-32.16806573748464
 20
-284.7377691425545
 30
0.0
 11
-31.53446370745843
 21
-284.1041671125284
 31
0.0
  0
LINE
  5
1CFE
330
1ACB
100
AcDbEntity
  8
0
 62
     0
100
AcDbLine
 10
-32.1238875587018
 20
-284.8261734852442
 30
0.0
 11
-31.49028552867559
 21
-284.192571455218
 31
0.0
  0
LINE
  5
1CFF
330
1ACB
100
AcDbEntity
  8
0
 62
     0
100
AcDbLine
 10
-32.07970937991895
 20
-284.9145778279338
 30
0.0
 11
-31.44610734989275
 21
-284.2809757979077
 31
0.0
  0
LINE
  5
1D00
330
1ACB
100
AcDbEntity
  8
0
 62
     0
100
AcDbLine
 10
-32.03553120113612
 20
-285.0029821706235
 30
0.0
 11
-31.4019291711099
 21
-284.3693801405972
 31
0.0
  0
LINE
  5
1D01
330
1ACB
100
AcDbEntity
  8
0
 62
     0
100
AcDbLine
 10
-31.99135302235327
 20
-285.0913865133131
 30
0.0
 11
-31.35775099232706
 21
-284.4577844832869
 31
0.0
  0
LINE
  5
1D02
330
1ACB
100
AcDbEntity
  8
0
 62
     0
100
AcDbLine
 10
-31.94717484357042
 20
-285.1797908560028
 30
0.0
 11
-31.31357281354423
 21
-284.5461888259766
 31
0.0
  0
LINE
  5
1D03
330
1ACB
100
AcDbEntity
  8
0
 62
     0
100
AcDbLine
 10
-31.90299666478758
 20
-285.2681951986924
 30
0.0
 11
-31.26939463476138
 21
-284.6345931686662
 31
0.0
  0
LINE
  5
1D04
330
1ACB
100
AcDbEntity
  8
0
 62
     0
100
AcDbLine
 10
-31.85881848600474
 20
-285.356599541382
 30
0.0
 11
-31.22521645597854
 21
-284.7229975113558
 31
0.0
  0
LINE
  5
1D05
330
1ACB
100
AcDbEntity
  8
0
 62
     0
100
AcDbLine
 10
-31.8146403072219
 20
-285.4450038840717
 30
0.0
 11
-31.1810382771957
 21
-284.8114018540455
 31
0.0
  0
LINE
  5
1D06
330
1ACB
100
AcDbEntity
  8
0
 62
     0
100
AcDbLine
 10
-31.77046212843906
 20
-285.5334082267613
 30
0.0
 11
-31.13686009841285
 21
-284.8998061967351
 31
0.0
  0
LINE
  5
1D07
330
1ACB
100
AcDbEntity
  8
0
 62
     0
100
AcDbLine
 10
-31.72628394965622
 20
-285.6218125694509
 30
0.0
 11
-31.09268191963001
 21
-284.9882105394248
 31
0.0
  0
LINE
  5
1D08
330
1ACB
100
AcDbEntity
  8
0
 62
     0
100
AcDbLine
 10
-31.68210577087337
 20
-285.7102169121406
 30
0.0
 11
-31.04850374084718
 21
-285.0766148821143
 31
0.0
  0
LINE
  5
1D09
330
1ACB
100
AcDbEntity
  8
0
 62
     0
100
AcDbLine
 10
-31.63792759209052
 20
-285.7986212548302
 30
0.0
 11
-31.00432556206434
 21
-285.165019224804
 31
0.0
  0
LINE
  5
1D0A
330
1ACB
100
AcDbEntity
  8
0
 62
     0
100
AcDbLine
 10
-31.59374941330769
 20
-285.8870255975199
 30
0.0
 11
-30.96014738328149
 21
-285.2534235674937
 31
0.0
  0
LINE
  5
1D0B
330
1ACB
100
AcDbEntity
  8
0
 62
     0
100
AcDbLine
 10
-31.50332316272872
 20
-285.9291818684134
 30
0.0
 11
-30.91596920449865
 21
-285.3418279101833
 31
0.0
  0
LINE
  5
1D0C
330
1ACB
100
AcDbEntity
  8
0
 62
     0
100
AcDbLine
 10
-31.37157195278595
 20
-285.9300131799431
 30
0.0
 11
-30.87179102571581
 21
-285.4302322528729
 31
0.0
  0
LINE
  5
1D0D
330
1ACB
100
AcDbEntity
  8
0
 62
     0
100
AcDbLine
 10
-31.23982074284319
 20
-285.9308444914728
 30
0.0
 11
-30.82761284693296
 21
-285.5186365955626
 31
0.0
  0
LINE
  5
1D0E
330
1ACB
100
AcDbEntity
  8
0
 62
     0
100
AcDbLine
 10
-31.25232952633624
 20
-286.0759357964383
 30
0.0
 11
-31.16460760049095
 21
-285.988213870593
 31
0.0
  0
LINE
  5
1D0F
330
1ACB
100
AcDbEntity
  8
0
 62
     0
100
AcDbLine
 10
-31.10806953290039
 20
-285.9316758030024
 30
0.0
 11
-30.78343466815012
 21
-285.6070409382521
 31
0.0
  0
LINE
  5
1D10
330
1ACB
100
AcDbEntity
  8
0
 62
     0
100
AcDbLine
 10
-31.15811563536502
 20
-285.981721905467
 30
0.0
 11
-31.10806953290039
 21
-285.9316758030025
 31
0.0
  0
LINE
  5
1D11
330
1ACB
100
AcDbEntity
  8
0
 62
     0
100
AcDbLine
 10
-31.12177404626793
 20
-286.0779628378424
 30
0.0
 11
-31.0328563905482
 21
-285.9890451821227
 31
0.0
  0
LINE
  5
1D12
330
1ACB
100
AcDbEntity
  8
0
 62
     0
100
AcDbLine
 10
-30.97631832295762
 20
-285.9325071145322
 30
0.0
 11
-30.73925648936729
 21
-285.6954452809418
 31
0.0
  0
LINE
  5
1D13
330
1ACB
100
AcDbEntity
  8
0
 62
     0
100
AcDbLine
 10
-30.99002283632514
 20
-286.0787941493721
 30
0.0
 11
-30.93156545569635
 21
-286.0203367687433
 31
0.0
  0
LINE
  5
1D14
330
1ACB
100
AcDbEntity
  8
0
 62
     0
100
AcDbLine
 10
-30.84456711301486
 20
-285.9333384260619
 30
0.0
 11
-30.69507831058443
 21
-285.7838496236314
 31
0.0
  0
LINE
  5
1D15
330
1ACB
100
AcDbEntity
  8
0
 62
     0
100
AcDbLine
 10
-30.7128159030721
 20
-285.9341697375916
 30
0.0
 11
-30.6509001318016
 21
-285.8722539663211
 31
0.0
  0
ENDBLK
  5
1D17
330
1ACB
100
AcDbEntity
  8
0
100
AcDbBlockEnd
  0
BLOCK
  5
1D93
330
1D84
100
AcDbEntity
  8
0
100
AcDbBlockBegin
  2
CAT_BORDER$0$BORDER-T
 70
     2
 10
0.0
 20
0.0
 30
0.0
  3
CAT_BORDER$0$BORDER-T
  1

  0
ATTDEF
  5
1D85
330
1D84
100
AcDbEntity
  8
0
 62
     5
100
AcDbText
 10
1.270598029493498
 20
16.95296065185261
 30
0.0
 40
2.25
  1

  7
CAT_BORDER$0$ROMANS
100
AcDbAttributeDefinition
  3
SCALE
  2
SCALE
 70
     0
  0
ATTDEF
  5
1D86
330
1D84
100
AcDbEntity
  8
0
100
AcDbText
 10
267.5431072019895
 20
17.84606723821125
 30
0.0
 40
1.7518359375
  1

  7
CAT_BORDER$0$ROMANS
 72
     4
 11
267.5431072019895
 21
17.84606723821125
 31
0.0
100
AcDbAttributeDefinition
  3
SAVED AS
  2
SAVEDAS
 70
     0
  0
ATTDEF
  5
1D87
330
1D84
100
AcDbEntity
  8
0
 62
     5
100
AcDbText
 10
65.77232295450201
 20
13.4910955979239
 30
0.0
 40
1.248161764705882
  1

 50
90.0
  7
CAT_BORDER$0$ROMANS
 72
     4
 11
65.77232295450201
 21
13.4910955979239
 31
0.0
100
AcDbAttributeDefinition
  3
WORK ORDER (X)
  2
X
 70
     0
  0
ATTDEF
  5
1D88
330
1D84
100
AcDbEntity
  8
0
100
AcDbText
 10
120.7768196578975
 20
11.16830391662092
 30
0.0
 40
1.769029714285714
  1

  7
CAT_BORDER$0$ROMANS
 72
     1
 11
120.7768196578975
 21
11.16830391662092
 31
0.0
100
AcDbAttributeDefinition
  3
ARCHITECT OR ENGINEER
  2
ARCHORENG
 70
     0
  0
ATTDEF
  5
1D89
330
1D84
100
AcDbEntity
  8
0
100
AcDbText
 10
120.7768196578975
 20
6.014881478758579
 30
0.0
 40
1.769029714285714
  1

  7
CAT_BORDER$0$ROMANS
 72
     1
 11
120.7768196578975
 21
6.014881478758579
 31
0.0
100
AcDbAttributeDefinition
  3
PURCHASE ORDER
  2
PURCHASEORDER
 70
     0
  0
ATTDEF
  5
1D8A
330
1D84
100
AcDbEntity
  8
0
100
AcDbText
 10
118.4602331272852
 20
0.8614590408961362
 30
0.0
 40
1.769029714285714
  1
JEB
  7
CAT_BORDER$0$ROMANS
 72
     1
 11
120.7768196578975
 21
0.8614590408961362
 31
0.0
100
AcDbAttributeDefinition
  3
WHO ARE YOU?
  2
DRAWNBY
 70
     0
  0
ATTDEF
  5
1D8B
330
1D84
100
AcDbEntity
  8
0
100
AcDbText
 10
151.0307482293261
 20
6.014881478758579
 30
0.0
 40
1.769029714285714
  1

  7
CAT_BORDER$0$ROMANS
 72
     1
 11
151.0307482293261
 21
6.014881478758579
 31
0.0
100
AcDbAttributeDefinition
  3
WORK ORDER DATE?
  2
DATE
 70
     0
  0
ATTDEF
  5
1D8C
330
1D84
100
AcDbEntity
  8
0
100
AcDbText
 10
151.0307482293261
 20
0.8614590408961362
 30
0.0
 40
1.769029714285714
  1

  7
CAT_BORDER$0$ROMANS
 72
     1
 11
151.0307482293261
 21
0.8614590408961362
 31
0.0
100
AcDbAttributeDefinition
  3
WHAT IS TODAY'S DATE?
  2
DATE
 70
     0
  0
ATTDEF
  5
1D8D
330
1D84
100
AcDbEntity
  8
0
100
AcDbText
 10
181.2846768007546
 20
11.16830391662092
 30
0.0
 40
1.769029714285714
  1

  7
CAT_BORDER$0$ROMANS
 72
     1
 11
181.2846768007546
 21
11.16830391662092
 31
0.0
100
AcDbAttributeDefinition
  3
PROJECT
  2
PROJECT
 70
     0
  0
ATTDEF
  5
1D8E
330
1D84
100
AcDbEntity
  8
0
100
AcDbText
 10
189.535748229326
 20
6.014881478758579
 30
0.0
 40
1.769029714285714
  1

  7
CAT_BORDER$0$ROMANS
 72
     1
 11
189.535748229326
 21
6.014881478758579
 31
0.0
100
AcDbAttributeDefinition
  3
PURCHASER
  2
PURCHASER
 70
     0
  0
ATTDEF
  5
1D8F
330
1D84
100
AcDbEntity
  8
0
100
AcDbText
 10
184.0350339436118
 20
0.8614590408962374
 30
0.0
 40
1.769029714285714
  1

  7
CAT_BORDER$0$ROMANS
 72
     1
 11
184.0350339436118
 21
0.8614590408962374
 31
0.0
100
AcDbAttributeDefinition
  3
MODEL #
  2
MODEL
 70
     0
  0
ATTDEF
  5
1D90
330
1D84
100
AcDbEntity
  8
0
100
AcDbText
 10
213.5729266783056
 20
0.8614590408961362
 30
0.0
 40
1.769029714285714
  1
1
  7
CAT_BORDER$0$ROMANS
 72
     1
 11
214.2889625150403
 21
0.8614590408961362
 31
0.0
100
AcDbAttributeDefinition
  3
QUANTITY
  2
QTY
 70
     0
  0
ATTDEF
  5
1D91
330
1D84
100
AcDbEntity
  8
0
100
AcDbText
 10
247.2932482293261
 20
11.16763472788734
 30
0.0
 40
1.769029714285714
  1

  7
CAT_BORDER$0$ROMANS
 72
     1
 11
247.2932482293261
 21
11.16763472788734
 31
0.0
100
AcDbAttributeDefinition
  3
PRECISION REP
  2
REP
 70
     0
  0
ATTDEF
  5
1D92
330
1D84
100
AcDbEntity
  8
0
100
AcDbText
 10
247.3274175489777
 20
3.153238685427304
 30
0.0
 40
3.455136160714285
  1

  7
CAT_BORDER$0$ROMANS
 72
     1
 11
247.3274175489777
 21
3.153238685427304
 31
0.0
100
AcDbAttributeDefinition
  3
SERIAL #
  2
L010000
 70
     0
  0
ENDBLK
  5
1D94
330
1D84
100
AcDbEntity
  8
0
100
AcDbBlockEnd
  0
BLOCK
  5
1E79
330
1E68
100
AcDbEntity
  8
0
100
AcDbBlockBegin
  2
CAT_BORDER$0$TB-ATT
 70
     2
 10
0.0
 20
0.0
 30
0.0
  3
CAT_BORDER$0$TB-ATT
  1

  0
ATTDEF
  5
1E69
330
1E68
100
AcDbEntity
  8
0
100
AcDbText
 10
-122.2413154087798
 20
7.627893075015208
 30
0.0
 40
0.7058823529411765
  1

 50
90.0
  7
CAT_BORDER$0$ROMANS
 72
     4
 11
-122.2413154087798
 21
7.627893075015208
 31
0.0
100
AcDbAttributeDefinition
  3
WORK ORDER (X)
  2
X
 70
     0
  0
ATTDEF
  5
1E6A
330
1E68
100
AcDbEntity
  8
0
100
AcDbText
 10
-88.60679086810533
 20
0.4868289502636003
 30
0.0
 40
0.9997165714285713
  1
DSL
  7
CAT_BORDER$0$ROMANS
 72
     1
 11
-87.15482156198289
 21
0.4868289502636003
 31
0.0
100
AcDbAttributeDefinition
  3
DRAWN BY
  2
DRAWNBY
 70
     0
  0
ATTDEF
  5
1E6B
330
1E68
100
AcDbEntity
  8
0
100
AcDbText
 10
-109.9995326783534
 20
6.311447687980034
 30
0.0
 40
0.9997165714285713
  1

  7
CAT_BORDER$0$ROMANS
 72
     1
 11
-109.9995326783534
 21
6.311447687980034
 31
0.0
100
AcDbAttributeDefinition
  3
DWG CHECK
  2
DWGCHECK
 70
     0
  0
ATTDEF
  5
1E6C
330
1E68
100
AcDbEntity
  8
0
100
AcDbText
 10
-109.9995326783534
 20
3.771155051645564
 30
0.0
 40
0.9997165714285713
  1

  7
CAT_BORDER$0$ROMANS
 72
     1
 11
-109.9995326783534
 21
3.771155051645564
 31
0.0
100
AcDbAttributeDefinition
  3
BUILT BY
  2
BUILTBY
 70
     0
  0
ATTDEF
  5
1E6D
330
1E68
100
AcDbEntity
  8
0
100
AcDbText
 10
-109.9995326783534
 20
0.8588456827873187
 30
0.0
 40
0.9997165714285713
  1

  7
CAT_BORDER$0$ROMANS
 72
     1
 11
-109.9995326783534
 21
0.8588456827873187
 31
0.0
100
AcDbAttributeDefinition
  3
CHECKED BY
  2
CHECKEDBY
 70
     0
  0
ATTDEF
  5
1E6E
330
1E68
100
AcDbEntity
  8
0
100
AcDbText
 10
-70.05767870483999
 20
3.399138319121846
 30
0.0
 40
0.9997165714285713
  1

  7
CAT_BORDER$0$ROMANS
 72
     1
 11
-70.05767870483999
 21
3.399138319121846
 31
0.0
100
AcDbAttributeDefinition
  3
DRAWN DATE
  2
DATE
 70
     0
  0
ATTDEF
  5
1E6F
330
1E68
100
AcDbEntity
  8
0
100
AcDbText
 10
-70.05767870483999
 20
0.4868289502636003
 30
0.0
 40
0.9997165714285713
  1

  7
CAT_BORDER$0$ROMANS
 72
     1
 11
-70.05767870483999
 21
0.4868289502636003
 31
0.0
100
AcDbAttributeDefinition
  3
DATE
  2
DATE
 70
     0
  0
ATTDEF
  5
1E70
330
1E68
100
AcDbEntity
  8
0
100
AcDbText
 10
-87.15482156198289
 20
6.311447687980034
 30
0.0
 40
0.9997165714285713
  1

  7
CAT_BORDER$0$ROMANS
 72
     1
 11
-87.15482156198289
 21
6.311447687980034
 31
0.0
100
AcDbAttributeDefinition
  3
ARCHITECT OR ENGINEER
  2
ARCHORENG
 70
     0
  0
ATTDEF
  5
1E71
330
1E68
100
AcDbEntity
  8
0
100
AcDbText
 10
-87.15482156198289
 20
3.399138319121846
 30
0.0
 40
0.9997165714285713
  1

  7
CAT_BORDER$0$ROMANS
 72
     1
 11
-87.15482156198289
 21
3.399138319121846
 31
0.0
100
AcDbAttributeDefinition
  3
PURCHASE ORDER
  2
PURCHASEORDER
 70
     0
  0
ATTDEF
  5
1E72
330
1E68
100
AcDbEntity
  8
0
100
AcDbText
 10
-52.96053584769714
 20
6.311447687980034
 30
0.0
 40
0.9997165714285713
  1

  7
CAT_BORDER$0$ROMANS
 72
     1
 11
-52.96053584769714
 21
6.311447687980034
 31
0.0
100
AcDbAttributeDefinition
  3
PROJECT
  2
PROJECT
 70
     0
  0
ATTDEF
  5
1E73
330
1E68
100
AcDbEntity
  8
0
100
AcDbText
 10
-48.29767870484005
 20
3.399138319121846
 30
0.0
 40
0.9997165714285713
  1

  7
CAT_BORDER$0$ROMANS
 72
     1
 11
-48.29767870484005
 21
3.399138319121846
 31
0.0
100
AcDbAttributeDefinition
  3
PURCHASER
  2
PURCHASER
 70
     0
  0
ATTDEF
  5
1E74
330
1E68
100
AcDbEntity
  8
0
100
AcDbText
 10
-15.65767870484001
 20
6.311447687980034
 30
0.0
 40
0.9997165714285713
  1

  7
CAT_BORDER$0$ROMANS
 72
     1
 11
-15.65767870484001
 21
6.311447687980034
 31
0.0
100
AcDbAttributeDefinition
  3
GENERAL CONTRACTOR
  2
GENCONT
 70
     0
  0
ATTDEF
  5
1E75
330
1E68
100
AcDbEntity
  8
0
100
AcDbText
 10
-15.65767870484001
 20
3.399138319121846
 30
0.0
 40
0.9997165714285713
  1

  7
CAT_BORDER$0$ROMANS
 72
     1
 11
-15.65767870484001
 21
3.399138319121846
 31
0.0
100
AcDbAttributeDefinition
  3
PRECISION REP
  2
REP
 70
     0
  0
ATTDEF
  5
1E76
330
1E68
100
AcDbEntity
  8
0
100
AcDbText
 10
-51.40625013341145
 20
0.4868289502636572
 30
0.0
 40
0.9997165714285713
  1

  7
CAT_BORDER$0$ROMANS
 72
     1
 11
-51.40625013341145
 21
0.4868289502636572
 31
0.0
100
AcDbAttributeDefinition
  3
MODEL #
  2
MODEL
 70
     0
  0
ATTDEF
  5
1E77
330
1E68
100
AcDbEntity
  8
0
100
AcDbText
 10
-34.71375445994207
 20
0.4868289502636003
 30
0.0
 40
0.9997165714285713
  1
1
  7
CAT_BORDER$0$ROMANS
 72
     1
 11
-34.30910727626861
 21
0.4868289502636003
 31
0.0
100
AcDbAttributeDefinition
  3
QUANTITY
  2
QTY
 70
     0
  0
ATTDEF
  5
1E78
330
1E68
100
AcDbEntity
  8
0
100
AcDbText
 10
-15.65767870484001
 20
0.4868289502636003
 30
0.0
 40
0.9997165714285713
  1

  7
CAT_BORDER$0$ROMANS
 72
     1
 11
-15.65767870484001
 21
0.4868289502636003
 31
0.0
100
AcDbAttributeDefinition
  3
SERIAL #
  2
SERIAL
 70
     0
  0
ENDBLK
  5
1E7A
330
1E68
100
AcDbEntity
  8
0
100
AcDbBlockEnd
  0
BLOCK
  5
1D7E
330
1D7D
100
AcDbEntity
  8
0
100
AcDbBlockBegin
  2
CAT_BORDER$0$LINETYPE
 70
     0
 10
0.0
 20
0.0
 30
0.0
  3
CAT_BORDER$0$LINETYPE
  1

  0
ENDBLK
  5
1D7F
330
1D7D
100
AcDbEntity
  8
0
100
AcDbBlockEnd
  0
BLOCK
  5
2205
330
21FB
100
AcDbEntity
  8
0
100
AcDbBlockBegin
  2
*D27
 70
     1
 10
0.0
 20
0.0
 30
0.0
  3
*D27
  1

  0
LINE
  5
281F
330
21FB
100
AcDbEntity
  8
0
 62
     0
370
    -2
100
AcDbLine
 10
222.7641557271899
 20
143.8303282669451
 30
0.0
 11
233.6287985147212
 21
143.8303282669451
 31
0.0
  0
LINE
  5
2820
330
21FB
100
AcDbEntity
  8
0
 62
     0
370
    -2
100
AcDbLine
 10
222.7641557271899
 20
155.8303282669452
 30
0.0
 11
233.6287985147212
 21
155.8303282669452
 31
0.0
  0
LINE
  5
2821
330
21FB
100
AcDbEntity
  8
0
 62
     0
370
    -2
100
AcDbLine
 10
231.8787985147212
 20
145.5803282669451
 30
0.0
 11
231.8787985147212
 21
146.7131407669451
 31
0.0
  0
LINE
  5
2822
330
21FB
100
AcDbEntity
  8
0
 62
     0
370
    -2
100
AcDbLine
 10
231.8787985147212
 20
154.0803282669451
 30
0.0
 11
231.8787985147212
 21
152.9475157669452
 31
0.0
  0
MTEXT
  5
2823
330
21FB
100
AcDbEntity
  8
0
 62
     0
100
AcDbMText
 10
232.7109844592069
 20
149.8303282669452
 30
0.0
 40
2.296875
 41
0.0
 71
     5
 72
     1
  1
\A1;12" TYP
  7
ROMANS
 73
     1
 44
1.0
1001
ACAD
1000
MTEXTBEGIN
1070
    73
1070
     1
1070
    44
1040
1.0
1070
    74
1070
     0
1000
MTEXTEND
  0
SOLID
  5
2824
330
21FB
100
AcDbEntity
  8
0
 62
     0
100
AcDbTrace
 10
231.5871318480545
 20
145.5803282669451
 30
0.0
 11
232.1704651813878
 21
145.5803282669451
 31
0.0
 12
231.8787985147212
 22
143.8303282669451
 32
0.0
 13
231.8787985147212
 23
143.8303282669451
 33
0.0
  0
SOLID
  5
2825
330
21FB
100
AcDbEntity
  8
0
 62
     0
100
AcDbTrace
 10
231.5871318480545
 20
154.0803282669451
 30
0.0
 11
232.1704651813878
 21
154.0803282669451
 31
0.0
 12
231.8787985147212
 22
155.8303282669452
 32
0.0
 13
231.8787985147212
 23
155.8303282669452
 33
0.0
  0
POINT
  5
2826
330
21FB
100
AcDbEntity
  8
DEFPOINTS
 62
     0
100
AcDbPoint
 10
221.0141557271899
 20
143.8303282669451
 30
0.0
  0
POINT
  5
2827
330
21FB
100
AcDbEntity
  8
DEFPOINTS
 62
     0
100
AcDbPoint
 10
221.0141557271899
 20
155.8303282669452
 30
0.0
  0
POINT
  5
2828
330
21FB
100
AcDbEntity
  8
DEFPOINTS
 62
     0
100
AcDbPoint
 10
231.8787985147212
 20
155.8303282669452
 30
0.0
  0
ENDBLK
  5
2206
330
21FB
100
AcDbEntity
  8
0
100
AcDbBlockEnd
  0
BLOCK
  5
2212
330
2207
100
AcDbEntity
  8
0
100
AcDbBlockBegin
  2
*D28
 70
     1
 10
0.0
 20
0.0
 30
0.0
  3
*D28
  1

  0
LINE
  5
2208
330
2207
100
AcDbEntity
  8
0
 62
     0
370
    -2
100
AcDbLine
 10
222.0141557271899
 20
34.08032826694518
 30
0.0
 11
222.0141557271899
 21
30.4072787185201
 31
0.0
  0
LINE
  5
2209
330
2207
100
AcDbEntity
  8
0
 62
     0
370
    -2
100
AcDbLine
 10
196.0141557271899
 20
34.08032826694518
 30
0.0
 11
196.0141557271899
 21
30.4072787185201
 31
0.0
  0
LINE
  5
220A
330
2207
100
AcDbEntity
  8
0
 62
     0
370
    -2
100
AcDbLine
 10
220.2641557271899
 20
32.1572787185201
 30
0.0
 11
213.4438432271899
 21
32.1572787185201
 31
0.0
  0
LINE
  5
220B
330
2207
100
AcDbEntity
  8
0
 62
     0
370
    -2
100
AcDbLine
 10
197.7641557271899
 20
32.1572787185201
 30
0.0
 11
204.5844682271899
 21
32.1572787185201
 31
0.0
  0
SOLID
  5
220C
330
2207
100
AcDbEntity
  8
0
 62
     0
100
AcDbTrace
 10
220.2641557271899
 20
32.44894538518677
 30
0.0
 11
220.2641557271899
 21
31.86561205185344
 31
0.0
 12
222.0141557271899
 22
32.1572787185201
 32
0.0
 13
222.0141557271899
 23
32.1572787185201
 33
0.0
  0
SOLID
  5
220D
330
2207
100
AcDbEntity
  8
0
 62
     0
100
AcDbTrace
 10
197.7641557271899
 20
32.44894538518677
 30
0.0
 11
197.7641557271899
 21
31.86561205185344
 31
0.0
 12
196.0141557271899
 22
32.1572787185201
 32
0.0
 13
196.0141557271899
 23
32.1572787185201
 33
0.0
  0
MTEXT
  5
220E
330
2207
100
AcDbEntity
  8
0
 62
     0
100
AcDbMText
 10
209.0141557271899
 20
32.1572787185201
 30
0.0
 40
2.296875
 41
0.0
 71
     5
 72
     1
  1
\A1;26"
  7
ROMANS
 73
     1
 44
1.0
1001
ACAD
1000
MTEXTBEGIN
1070
    73
1070
     1
1070
    44
1040
1.0
1070
    74
1070
     0
1000
MTEXTEND
  0
POINT
  5
220F
330
2207
100
AcDbEntity
  8
DEFPOINTS
 62
     0
100
AcDbPoint
 10
222.0141557271899
 20
35.83032826694517
 30
0.0
  0
POINT
  5
2210
330
2207
100
AcDbEntity
  8
DEFPOINTS
 62
     0
100
AcDbPoint
 10
196.0141557271899
 20
35.83032826694517
 30
0.0
  0
POINT
  5
2211
330
2207
100
AcDbEntity
  8
DEFPOINTS
 62
     0
100
AcDbPoint
 10
196.0141557271899
 20
32.1572787185201
 30
0.0
  0
ENDBLK
  5
2213
330
2207
100
AcDbEntity
  8
0
100
AcDbBlockEnd
  0
BLOCK
  5
2233
330
2228
100
AcDbEntity
  8
0
100
AcDbBlockBegin
  2
*D29
 70
     1
 10
0.0
 20
0.0
 30
0.0
  3
*D29
  1

  0
LINE
  5
2229
330
2228
100
AcDbEntity
  8
0
 62
     0
370
    -2
100
AcDbLine
 10
222.7641557271899
 20
179.8303282669452
 30
0.0
 11
231.8787985147212
 21
179.8303282669452
 31
0.0
  0
LINE
  5
222A
330
2228
100
AcDbEntity
  8
0
 62
     0
370
    -2
100
AcDbLine
 10
223.7641557271899
 20
173.8303282669451
 30
0.0
 11
231.8787985147212
 21
173.8303282669451
 31
0.0
  0
LINE
  5
222B
330
2228
100
AcDbEntity
  8
0
 62
     0
370
    -2
100
AcDbLine
 10
230.1287985147212
 20
181.5803282669451
 30
0.0
 11
230.1287985147212
 21
183.3303282669452
 31
0.0
  0
LINE
  5
222C
330
2228
100
AcDbEntity
  8
0
 62
     0
370
    -2
100
AcDbLine
 10
230.1287985147212
 20
172.0803282669451
 30
0.0
 11
230.1287985147212
 21
170.3303282669452
 31
0.0
  0
MTEXT
  5
222D
330
2228
100
AcDbEntity
  8
0
 62
     0
100
AcDbMText
 10
238.2225485147211
 20
176.8303282669452
 30
0.0
 40
2.296875
 41
0.0
 71
     5
 72
     1
  1
\A1;6"
  7
ROMANS
 73
     1
 44
1.0
1001
ACAD
1000
MTEXTBEGIN
1070
    73
1070
     1
1070
    44
1040
1.0
1070
    74
1070
     0
1000
MTEXTEND
  0
SOLID
  5
222E
330
2228
100
AcDbEntity
  8
0
 62
     0
100
AcDbTrace
 10
229.8371318480545
 20
181.5803282669451
 30
0.0
 11
230.4204651813878
 21
181.5803282669451
 31
0.0
 12
230.1287985147212
 22
179.8303282669452
 32
0.0
 13
230.1287985147212
 23
179.8303282669452
 33
0.0
  0
SOLID
  5
222F
330
2228
100
AcDbEntity
  8
0
 62
     0
100
AcDbTrace
 10
229.8371318480545
 20
172.0803282669451
 30
0.0
 11
230.4204651813878
 21
172.0803282669451
 31
0.0
 12
230.1287985147212
 22
173.8303282669451
 32
0.0
 13
230.1287985147212
 23
173.8303282669451
 33
0.0
  0
POINT
  5
2230
330
2228
100
AcDbEntity
  8
DEFPOINTS
 62
     0
100
AcDbPoint
 10
221.0141557271899
 20
179.8303282669452
 30
0.0
  0
POINT
  5
2231
330
2228
100
AcDbEntity
  8
DEFPOINTS
 62
     0
100
AcDbPoint
 10
222.0141557271899
 20
173.8303282669451
 30
0.0
  0
POINT
  5
2232
330
2228
100
AcDbEntity
  8
DEFPOINTS
 62
     0
100
AcDbPoint
 10
230.1287985147212
 20
173.8303282669451
 30
0.0
  0
ENDBLK
  5
2234
330
2228
100
AcDbEntity
  8
0
100
AcDbBlockEnd
  0
ENDSEC
  0
SECTION
  2
ENTITIES
  0
LINE
  5
2AD
330
41D
100
AcDbEntity
  8
0
 62
     7
100
AcDbLine
 10
197.0141557271899
 20
35.83032826694517
 30
0.0
 11
197.0141557271899
 21
221.8303282669452
 31
0.0
  0
LINE
  5
2AE
330
41D
100
AcDbEntity
  8
0
 62
     7
100
AcDbLine
 10
221.0141557271899
 20
35.83032826694517
 30
0.0
 11
221.0141557271899
 21
221.8303282669452
 31
0.0
  0
LINE
  5
2AF
330
41D
100
AcDbEntity
  8
0
 62
     7
100
AcDbLine
 10
222.0141557271899
 20
35.83032826694517
 30
0.0
 11
222.0141557271899
 21
221.8303282669452
 31
0.0
  0
LINE
  5
2B0
330
41D
100
AcDbEntity
  8
0
 62
     7
100
AcDbLine
 10
196.0141557271899
 20
35.83032826694517
 30
0.0
 11
196.0141557271899
 21
221.8303282669452
 31
0.0
  0
LINE
  5
2B1
330
41D
100
AcDbEntity
  8
0
 62
     7
100
AcDbLine
 10
196.0141557271899
 20
35.83032826694517
 30
0.0
 11
197.0141557271899
 21
35.83032826694517
 31
0.0
  0
LINE
  5
2B2
330
41D
100
AcDbEntity
  8
0
 62
     7
100
AcDbLine
 10
222.0141557271899
 20
35.83032826694517
 30
0.0
 11
221.0141557271899
 21
35.83032826694517
 31
0.0
  0
LINE
  5
2B3
330
41D
100
AcDbEntity
  8
0
 62
     7
100
AcDbLine
 10
221.0141557271899
 20
167.8303282669451
 30
0.0
 11
197.0141557271899
 21
167.8303282669451
 31
0.0
  0
LINE
  5
2B4
330
41D
100
AcDbEntity
  8
0
 62
     7
100
AcDbLine
 10
221.0141557271899
 20
167.0803282669451
 30
0.0
 11
197.0141557271899
 21
167.0803282669451
 31
0.0
  0
LINE
  5
2B5
330
41D
100
AcDbEntity
  8
0
 62
     7
100
AcDbLine
 10
221.0141557271899
 20
155.0803282669451
 30
0.0
 11
197.0141557271899
 21
155.0803282669451
 31
0.0
  0
LINE
  5
2B6
330
41D
100
AcDbEntity
  8
0
 62
     7
100
AcDbLine
 10
221.0141557271899
 20
155.8303282669452
 30
0.0
 11
197.0141557271899
 21
155.8303282669452
 31
0.0
  0
LINE
  5
2B7
330
41D
100
AcDbEntity
  8
0
 62
     7
100
AcDbLine
 10
221.0141557271899
 20
143.0803282669451
 30
0.0
 11
197.0141557271899
 21
143.0803282669451
 31
0.0
  0
LINE
  5
2B8
330
41D
100
AcDbEntity
  8
0
 62
     7
100
AcDbLine
 10
221.0141557271899
 20
143.8303282669451
 30
0.0
 11
197.0141557271899
 21
143.8303282669451
 31
0.0
  0
LINE
  5
2B9
330
41D
100
AcDbEntity
  8
0
 62
     7
100
AcDbLine
 10
221.0141557271899
 20
131.0803282669452
 30
0.0
 11
197.0141557271899
 21
131.0803282669452
 31
0.0
  0
LINE
  5
2BA
330
41D
100
AcDbEntity
  8
0
 62
     7
100
AcDbLine
 10
221.0141557271899
 20
131.8303282669452
 30
0.0
 11
197.0141557271899
 21
131.8303282669452
 31
0.0
  0
LINE
  5
2BB
330
41D
100
AcDbEntity
  8
0
 62
     7
100
AcDbLine
 10
221.0141557271899
 20
119.0803282669451
 30
0.0
 11
197.0141557271899
 21
119.0803282669451
 31
0.0
  0
LINE
  5
2BC
330
41D
100
AcDbEntity
  8
0
 62
     7
100
AcDbLine
 10
221.0141557271899
 20
119.8303282669451
 30
0.0
 11
197.0141557271899
 21
119.8303282669451
 31
0.0
  0
LINE
  5
2BD
330
41D
100
AcDbEntity
  8
0
 62
     7
100
AcDbLine
 10
221.0141557271899
 20
107.0803282669452
 30
0.0
 11
197.0141557271899
 21
107.0803282669452
 31
0.0
  0
LINE
  5
2BE
330
41D
100
AcDbEntity
  8
0
 62
     7
100
AcDbLine
 10
221.0141557271899
 20
107.8303282669452
 30
0.0
 11
197.0141557271899
 21
107.8303282669452
 31
0.0
  0
LINE
  5
2BF
330
41D
100
AcDbEntity
  8
0
 62
     7
100
AcDbLine
 10
221.0141557271899
 20
95.08032826694517
 30
0.0
 11
197.0141557271899
 21
95.08032826694517
 31
0.0
  0
LINE
  5
2C0
330
41D
100
AcDbEntity
  8
0
 62
     7
100
AcDbLine
 10
221.0141557271899
 20
95.83032826694518
 30
0.0
 11
197.0141557271899
 21
95.83032826694518
 31
0.0
  0
LINE
  5
2C1
330
41D
100
AcDbEntity
  8
0
 62
     7
100
AcDbLine
 10
221.0141557271899
 20
83.08032826694518
 30
0.0
 11
197.0141557271899
 21
83.08032826694518
 31
0.0
  0
LINE
  5
2C2
330
41D
100
AcDbEntity
  8
0
 62
     7
100
AcDbLine
 10
221.0141557271899
 20
83.83032826694517
 30
0.0
 11
197.0141557271899
 21
83.83032826694517
 31
0.0
  0
LINE
  5
2C3
330
41D
100
AcDbEntity
  8
0
 62
     7
100
AcDbLine
 10
221.0141557271899
 20
71.08032826694517
 30
0.0
 11
197.0141557271899
 21
71.08032826694517
 31
0.0
  0
LINE
  5
2C4
330
41D
100
AcDbEntity
  8
0
 62
     7
100
AcDbLine
 10
221.0141557271899
 20
71.83032826694518
 30
0.0
 11
197.0141557271899
 21
71.83032826694518
 31
0.0
  0
LINE
  5
2C5
330
41D
100
AcDbEntity
  8
0
 62
     7
100
AcDbLine
 10
221.0141557271899
 20
59.08032826694517
 30
0.0
 11
197.0141557271899
 21
59.08032826694517
 31
0.0
  0
LINE
  5
2C6
330
41D
100
AcDbEntity
  8
0
 62
     7
100
AcDbLine
 10
221.0141557271899
 20
59.83032826694517
 30
0.0
 11
197.0141557271899
 21
59.83032826694517
 31
0.0
  0
LINE
  5
2C7
330
41D
100
AcDbEntity
  8
0
 62
     7
100
AcDbLine
 10
221.0141557271899
 20
47.08032826694517
 30
0.0
 11
197.0141557271899
 21
47.08032826694517
 31
0.0
  0
LINE
  5
2C8
330
41D
100
AcDbEntity
  8
0
 62
     7
100
AcDbLine
 10
221.0141557271899
 20
47.83032826694517
 30
0.0
 11
197.0141557271899
 21
47.83032826694517
 31
0.0
  0
LINE
  5
2C9
330
41D
100
AcDbEntity
  8
0
 62
     7
100
AcDbLine
 10
130.9302677351704
 20
35.83032826694517
 30
0.0
 11
130.9302677351704
 21
173.8303282669451
 31
0.0
  0
LINE
  5
2CA
330
41D
100
AcDbEntity
  8
0
 62
     7
100
AcDbLine
 10
130.9302677351704
 20
35.83032826694517
 30
0.0
 11
154.9302677351704
 21
35.83032826694517
 31
0.0
  0
LINE
  5
2CB
330
41D
100
AcDbEntity
  8
0
 62
     7
100
AcDbLine
 10
122.9302677351703
 20
173.8303282669451
 30
0.0
 11
130.9302677351704
 21
173.8303282669451
 31
0.0
  0
LINE
  5
2CC
330
41D
100
AcDbEntity
  8
0
 62
     7
100
AcDbLine
 10
139.4302677351704
 20
35.83032826694517
 30
0.0
 11
139.4302677351704
 21
221.8303282669452
 31
0.0
  0
LINE
  5
2CD
330
41D
100
AcDbEntity
  8
0
 62
     7
100
AcDbLine
 10
130.9302677351704
 20
166.8303282669451
 30
0.0
 11
139.4302677351704
 21
166.8303282669451
 31
0.0
  0
LINE
  5
2CE
330
41D
100
AcDbEntity
  8
0
 62
     7
100
AcDbLine
 10
130.9302677351704
 20
163.8303282669451
 30
0.0
 11
139.4302677351704
 21
163.8303282669451
 31
0.0
  0
LINE
  5
2DB
330
41D
100
AcDbEntity
  8
0
 62
     7
100
AcDbLine
 10
136.4302677351704
 20
166.8303282669451
 30
0.0
 11
136.4302677351704
 21
218.8303282669452
 31
0.0
  0
TEXT
  5
306
330
41D
100
AcDbEntity
  8
0
 62
     7
100
AcDbText
 10
33.61302743868654
 20
236.2723382973921
 30
0.0
 40
4.7378925
  1
TUBULAR FIXED LADDER WITH PARAPET PLATFORM & ROOFSIDE RETURN
  7
ROMANC
 72
     1
 11
173.944891010115
 21
236.2723382973921
 31
0.0
100
AcDbText
  0
DIMENSION
  5
30F
330
41D
100
AcDbEntity
  8
0
 62
     7
100
AcDbDimension
  2
*D27
 10
231.8787985147212
 20
155.8303282669452
 30
0.0
 11
232.7109844592069
 21
149.8303282669452
 31
0.0
 70
   160
  1
12" TYP
 71
     5
 42
12.0
  3
STANDARD
100
AcDbAlignedDimension
 13
221.0141557271899
 23
143.8303282669451
 33
0.0
 14
221.0141557271899
 24
155.8303282669452
 34
0.0
 50
90.0
100
AcDbRotatedDimension
  0
DIMENSION
  5
310
330
41D
100
AcDbEntity
  8
0
 62
     7
100
AcDbDimension
  2
*D28
 10
196.0141557271899
 20
32.1572787185201
 30
0.0
 11
209.0141557271899
 21
32.1572787185201
 31
0.0
 70
    32
  1
26"
 71
     5
 42
26.0
  3
STANDARD
100
AcDbAlignedDimension
 13
222.0141557271899
 23
35.83032826694517
 33
0.0
 14
196.0141557271899
 24
35.83032826694517
 34
0.0
100
AcDbRotatedDimension
  0
TEXT
  5
311
330
41D
100
AcDbEntity
  8
0
 62
     7
100
AcDbText
 10
272.0131951367082
 20
34.70626815051637
 30
0.0
 40
3.3165
  1
FACTORY FINISH
  7
ROMANS
 72
     1
 11
291.9911594224225
 21
34.70626815051637
 31
0.0
100
AcDbText
  0
TEXT
  5
312
330
41D
100
AcDbEntity
  8
0
 62
     7
100
AcDbText
 10
263.4297772795653
 20
29.33669672194493
 30
0.0
 40
3.3165
  1
%%OALUMINUM-MILL FINISH
  7
ROMANS
 72
     1
 11
291.9911594224225
 21
29.33669672194493
 31
0.0
100
AcDbText
  0
TEXT
  5
315
330
41D
100
AcDbEntity
  8
0
 62
     7
100
AcDbText
 10
143.8978740167823
 20
100.9485134486483
 30
0.0
 40
2.210999999999999
  1
ALUMINUM TUBULAR
  7
ROMANS
 72
     1
 11
160.3750883024966
 21
100.9485134486483
 31
0.0
100
AcDbText
  0
TEXT
  5
316
330
41D
100
AcDbEntity
  8
0
 62
     7
100
AcDbText
 10
153.3209454453538
 20
97.36879916293402
 30
0.0
 40
2.210999999999999
  1
SIDERAIL
  7
ROMANS
 72
     1
 11
160.3750883024966
 21
97.36879916293402
 31
0.0
100
AcDbText
  0
TEXT
  5
317
330
41D
100
AcDbEntity
  8
0
 62
     7
100
AcDbText
 10
151.4258025882109
 20
93.78908487721975
 30
0.0
 40
2.210999999999999
  1
(6005-T5)
  7
ROMANS
 72
     1
 11
160.3750883024966
 21
93.78908487721975
 31
0.0
100
AcDbText
  0
TEXT
  5
318
330
41D
100
AcDbEntity
  8
0
 62
     7
100
AcDbText
 10
159.0181458531202
 20
59.31608751227861
 30
0.0
 40
2.210999999999999
  1
2-1/4" SERRATED
  7
ROMANS
 72
     1
 11
174.7057172816916
 21
59.31608751227861
 31
0.0
100
AcDbText
  0
TEXT
  5
319
330
41D
100
AcDbEntity
  8
0
 62
     7
100
AcDbText
 10
160.9132887102631
 20
55.73637322656435
 30
0.0
 40
2.210999999999999
  1
ALUMINUM RUNG
  7
ROMANS
 72
     1
 11
174.7057172816916
 21
55.73637322656435
 31
0.0
100
AcDbText
  0
TEXT
  5
31A
330
41D
100
AcDbEntity
  8
0
 62
     7
100
AcDbText
 10
165.7564315674059
 20
52.15665894085003
 30
0.0
 40
2.210999999999999
  1
(6005-T5)
  7
ROMANS
 72
     1
 11
174.7057172816916
 21
52.15665894085003
 31
0.0
100
AcDbText
  0
LINE
  5
31B
330
41D
100
AcDbEntity
  8
0
 62
     7
100
AcDbLine
 10
199.4280355668347
 20
53.15425142937147
 30
0.0
 11
184.4065632633055
 21
53.15425142937147
 31
0.0
  0
LINE
  5
31C
330
41D
100
AcDbEntity
  8
0
 62
     7
100
AcDbLine
 10
202.7725361308684
 20
49.3220949870394
 30
0.0
 11
199.4280355668347
 21
53.15425142937147
 31
0.0
  0
SOLID
  5
31D
330
41D
100
AcDbEntity
  8
0
 62
     7
100
AcDbTrace
 10
202.523908344186
 20
49.10510599264239
 30
0.0
 11
203.0211639175508
 21
49.53908398143642
 31
0.0
 12
204.0744700972504
 22
47.83032826694517
 32
0.0
 13
204.0744700972504
 23
47.83032826694517
 33
0.0
  0
LINE
  5
31E
330
41D
100
AcDbEntity
  8
0
 62
     7
100
AcDbLine
 10
144.0767022655861
 20
94.74322544016514
 30
0.0
 11
150.2670318157318
 21
94.74322544016514
 31
0.0
  0
LINE
  5
31F
330
41D
100
AcDbEntity
  8
0
 62
     7
100
AcDbLine
 10
140.7322017015524
 20
90.91106899783307
 30
0.0
 11
144.0767022655861
 21
94.74322544016514
 31
0.0
  0
SOLID
  5
320
330
41D
100
AcDbEntity
  8
0
 62
     7
100
AcDbTrace
 10
140.9808294882347
 20
90.69408000343612
 30
0.0
 11
140.48357391487
 21
91.12805799223014
 31
0.0
 12
139.4302677351704
 22
89.41930227773889
 32
0.0
 13
139.4302677351704
 23
89.41930227773889
 33
0.0
  0
LINE
  5
321
330
41D
100
AcDbEntity
  8
0
 62
     7
100
AcDbLine
 10
221.0141557271899
 20
179.0803282669451
 30
0.0
 11
197.0141557271899
 21
179.0803282669451
 31
0.0
  0
LINE
  5
322
330
41D
100
AcDbEntity
  8
0
 62
     7
100
AcDbLine
 10
221.0141557271899
 20
179.8303282669452
 30
0.0
 11
197.0141557271899
 21
179.8303282669452
 31
0.0
  0
LINE
  5
323
330
41D
100
AcDbEntity
  8
0
 62
     7
100
AcDbLine
 10
122.9302677351703
 20
137.8303282669451
 30
0.0
 11
122.9302677351703
 21
173.8303282669451
 31
0.0
  0
LINE
  5
324
330
41D
100
AcDbEntity
  8
0
 62
     7
100
AcDbLine
 10
103.8739412491804
 20
137.8303282669451
 30
0.0
 11
122.9302677351703
 21
137.8303282669451
 31
0.0
  0
LINE
  5
325
330
41D
100
AcDbEntity
  8
0
 62
     7
100
AcDbLine
 10
117.4302677351704
 20
179.8303282669452
 30
0.0
 11
136.4302677351704
 21
179.8303282669452
 31
0.0
  0
LINE
  5
326
330
41D
100
AcDbEntity
  8
0
 62
     7
100
AcDbLine
 10
117.4302677351704
 20
141.8303282669451
 30
0.0
 11
117.4302677351704
 21
144.8303282669451
 31
0.0
  0
LINE
  5
327
330
41D
100
AcDbEntity
  8
0
 62
     7
100
AcDbLine
 10
114.4302677351703
 20
141.8303282669451
 30
0.0
 11
114.4302677351703
 21
221.8303282669453
 31
0.0
  0
LINE
  5
328
330
41D
100
AcDbEntity
  8
0
 62
     7
100
AcDbLine
 10
122.9302677351703
 20
163.8303282669451
 30
0.0
 11
114.4302677351703
 21
163.8303282669451
 31
0.0
  0
LINE
  5
329
330
41D
100
AcDbEntity
  8
0
 62
     7
100
AcDbLine
 10
122.9302677351703
 20
166.8303282669451
 30
0.0
 11
114.4302677351703
 21
166.8303282669451
 31
0.0
  0
LINE
  5
32A
330
41D
100
AcDbEntity
  8
0
 62
     7
100
AcDbLine
 10
117.4302677351704
 20
166.8303282669451
 30
0.0
 11
117.4302677351704
 21
218.8303282669452
 31
0.0
  0
LINE
  5
32B
330
41D
100
AcDbEntity
  8
0
 62
     7
100
AcDbLine
 10
117.4302677351704
 20
141.8303282669451
 30
0.0
 11
114.4302677351703
 21
141.8303282669451
 31
0.0
  0
LINE
  5
32C
330
41D
100
AcDbEntity
  8
0
 62
     7
100
AcDbLine
 10
114.4302677351703
 20
221.8303282669453
 30
0.0
 11
139.4302677351704
 21
221.8303282669452
 31
0.0
  0
LINE
  5
32D
330
41D
100
AcDbEntity
  8
0
 62
     7
100
AcDbLine
 10
117.4302677351704
 20
218.8303282669452
 30
0.0
 11
136.4302677351704
 21
218.8303282669452
 31
0.0
  0
LINE
  5
32E
330
41D
100
AcDbEntity
  8
0
 62
     7
100
AcDbLine
 10
136.4302677351704
 20
218.8303282669452
 30
0.0
 11
139.4302677351704
 21
221.8303282669452
 31
0.0
  0
LINE
  5
32F
330
41D
100
AcDbEntity
  8
0
 62
     7
100
AcDbLine
 10
117.4302677351704
 20
218.8303282669452
 30
0.0
 11
114.4302677351703
 21
221.8303282669453
 31
0.0
  0
LINE
  5
330
330
41D
100
AcDbEntity
  8
0
 62
     7
100
AcDbLine
 10
196.0141557271899
 20
221.8303282669452
 30
0.0
 11
197.0141557271899
 21
221.8303282669452
 31
0.0
  0
LINE
  5
331
330
41D
100
AcDbEntity
  8
0
 62
     7
100
AcDbLine
 10
221.0141557271899
 20
221.8303282669452
 30
0.0
 11
222.0141557271898
 21
221.8303282669452
 31
0.0
  0
LINE
  5
332
330
41D
100
AcDbEntity
  8
0
 62
     7
100
AcDbLine
 10
67.51884709526206
 20
141.8303282669451
 30
0.0
 11
67.51884709526206
 21
221.8303282669452
 31
0.0
  0
LINE
  5
333
330
41D
100
AcDbEntity
  8
0
 62
     7
100
AcDbLine
 10
66.51884709526206
 20
141.8303282669451
 30
0.0
 11
66.51884709526206
 21
221.8303282669452
 31
0.0
  0
LINE
  5
334
330
41D
100
AcDbEntity
  8
0
 62
     7
100
AcDbLine
 10
41.51884709526204
 20
141.8303282669451
 30
0.0
 11
41.51884709526204
 21
221.8303282669452
 31
0.0
  0
LINE
  5
335
330
41D
100
AcDbEntity
  8
0
 62
     7
100
AcDbLine
 10
42.51884709526204
 20
141.8303282669451
 30
0.0
 11
42.51884709526204
 21
221.8303282669452
 31
0.0
  0
LINE
  5
336
330
41D
100
AcDbEntity
  8
0
 62
     7
100
AcDbLine
 10
66.51884709526206
 20
167.8303282669451
 30
0.0
 11
42.51884709526204
 21
167.8303282669451
 31
0.0
  0
LINE
  5
337
330
41D
100
AcDbEntity
  8
0
 62
     7
100
AcDbLine
 10
66.51884709526206
 20
167.0803282669451
 30
0.0
 11
42.51884709526204
 21
167.0803282669451
 31
0.0
  0
LINE
  5
344
330
41D
100
AcDbEntity
  8
0
 62
     7
100
AcDbLine
 10
66.51884709526206
 20
179.0803282669451
 30
0.0
 11
42.51884709526204
 21
179.0803282669451
 31
0.0
  0
LINE
  5
345
330
41D
100
AcDbEntity
  8
0
 62
     7
100
AcDbLine
 10
66.51884709526206
 20
179.8303282669452
 30
0.0
 11
42.51884709526204
 21
179.8303282669452
 31
0.0
  0
LINE
  5
346
330
41D
100
AcDbEntity
  8
0
 62
     7
100
AcDbLine
 10
41.51884709526204
 20
221.8303282669452
 30
0.0
 11
42.51884709526204
 21
221.8303282669452
 31
0.0
  0
LINE
  5
347
330
41D
100
AcDbEntity
  8
0
 62
     7
100
AcDbLine
 10
66.51884709526206
 20
221.8303282669452
 30
0.0
 11
67.51884709526194
 21
221.8303282669452
 31
0.0
  0
LINE
  5
348
330
41D
100
AcDbEntity
  8
0
 62
     7
100
AcDbLine
 10
67.51884709526206
 20
141.8303282669451
 30
0.0
 11
66.51884709526206
 21
141.8303282669451
 31
0.0
  0
LINE
  5
349
330
41D
100
AcDbEntity
  8
0
 62
     7
100
AcDbLine
 10
42.51884709526204
 20
141.8303282669451
 30
0.0
 11
41.51884709526204
 21
141.8303282669451
 31
0.0
  0
LINE
  5
34A
330
41D
100
AcDbEntity
  8
0
 62
     7
100
AcDbLine
 10
66.51884709526206
 20
143.0803282669451
 30
0.0
 11
42.51884709526204
 21
143.0803282669451
 31
0.0
  0
LINE
  5
34B
330
41D
100
AcDbEntity
  8
0
 62
     7
100
AcDbLine
 10
66.51884709526206
 20
143.8303282669451
 30
0.0
 11
42.51884709526204
 21
143.8303282669451
 31
0.0
  0
LINE
  5
34C
330
41D
100
AcDbEntity
  8
0
 62
     7
100
AcDbLine
 10
66.51884709526206
 20
155.8303282669452
 30
0.0
 11
42.51884709526204
 21
155.8303282669452
 31
0.0
  0
LINE
  5
34D
330
41D
100
AcDbEntity
  8
0
 62
     7
100
AcDbLine
 10
66.51884709526206
 20
155.0803282669451
 30
0.0
 11
42.51884709526204
 21
155.0803282669451
 31
0.0
  0
LINE
  5
35A
330
41D
100
AcDbEntity
  8
0
 62
     7
100
AcDbLine
 10
122.9302677351703
 20
147.8303282669451
 30
0.0
 11
114.4302677351703
 21
147.8303282669451
 31
0.0
  0
LINE
  5
35B
330
41D
100
AcDbEntity
  8
0
 62
     7
100
AcDbLine
 10
122.9302677351703
 20
144.8303282669451
 30
0.0
 11
114.4302677351703
 21
144.8303282669451
 31
0.0
  0
LINE
  5
35C
330
41D
100
AcDbEntity
  8
0
 62
     7
100
AcDbLine
 10
117.4302677351704
 20
147.8303282669451
 30
0.0
 11
117.4302677351704
 21
163.8303282669451
 31
0.0
  0
LINE
  5
35D
330
41D
100
AcDbEntity
  8
0
 62
     7
100
AcDbLine
 10
130.9302677351704
 20
115.8303282669451
 30
0.0
 11
139.4302677351704
 21
115.8303282669451
 31
0.0
  0
LINE
  5
35E
330
41D
100
AcDbEntity
  8
0
 62
     7
100
AcDbLine
 10
130.9302677351704
 20
118.8303282669451
 30
0.0
 11
139.4302677351704
 21
118.8303282669451
 31
0.0
  0
LINE
  5
36B
330
41D
100
AcDbEntity
  8
0
 62
     7
100
AcDbLine
 10
130.9302677351704
 20
67.83032826694517
 30
0.0
 11
139.4302677351704
 21
67.83032826694517
 31
0.0
  0
LINE
  5
36C
330
41D
100
AcDbEntity
  8
0
 62
     7
100
AcDbLine
 10
130.9302677351704
 20
70.83032826694517
 30
0.0
 11
139.4302677351704
 21
70.83032826694517
 31
0.0
  0
LINE
  5
379
330
41D
100
AcDbEntity
  8
0
 62
     7
100
AcDbLine
 10
136.4302677351704
 20
118.8303282669451
 30
0.0
 11
136.4302677351704
 21
163.8303282669451
 31
0.0
  0
LINE
  5
37A
330
41D
100
AcDbEntity
  8
0
 62
     7
100
AcDbLine
 10
136.4302677351704
 20
70.83032826694517
 30
0.0
 11
136.4302677351704
 21
115.8303282669451
 31
0.0
  0
LINE
  5
37B
330
41D
100
AcDbEntity
  8
0
 62
     7
100
AcDbLine
 10
136.4302677351704
 20
35.83032826694517
 30
0.0
 11
136.4302677351704
 21
41.83032826694517
 31
0.0
  0
DIMENSION
  5
37C
330
41D
100
AcDbEntity
  8
0
 62
     7
100
AcDbDimension
  2
*D5
 10
24.85468019726445
 20
221.8303282669452
 30
0.0
 11
24.85468019726441
 21
200.8303282669452
 31
0.0
 70
    32
  1
42"
 71
     5
 42
42.0
  3
STANDARD
100
AcDbAlignedDimension
 13
42.51884709526204
 23
179.8303282669452
 33
0.0
 14
41.51884709526204
 24
221.8303282669452
 34
0.0
 50
90.0
100
AcDbRotatedDimension
  0
DIMENSION
  5
37D
330
41D
100
AcDbEntity
  8
0
 62
     7
100
AcDbDimension
  2
*D1
 10
242.900209020049
 20
221.8303282669452
 30
0.0
 11
242.9002090200489
 21
200.8303282669452
 31
0.0
 70
    32
  1
42"
 71
     5
 42
42.0
  3
STANDARD$0
100
AcDbAlignedDimension
 13
221.0141557271899
 23
179.8303282669452
 33
0.0
 14
222.0141557271899
 24
221.8303282669452
 34
0.0
 50
90.0
100
AcDbRotatedDimension
  0
SOLID
  5
380
330
41D
100
AcDbEntity
  8
0
 62
     7
100
AcDbTrace
 10
130.2299426680493
 20
181.459280074798
 30
0.0
 11
129.6307718853026
 21
181.7964011555727
 31
0.0
 12
128.9189940343519
 22
179.8303282669452
 32
0.0
 13
128.9189940343519
 23
179.8303282669452
 33
0.0
  0
LINE
  5
381
330
41D
100
AcDbEntity
  8
0
 62
     7
100
AcDbLine
 10
129.9303572766759
 20
181.6278406151854
 30
0.0
 11
133.3375106282613
 21
187.6834297107008
 31
0.0
  0
LINE
  5
382
330
41D
100
AcDbEntity
  8
0
 62
     7
100
AcDbLine
 10
133.3375106282613
 20
187.6834297107008
 30
0.0
 11
145.2173742788039
 21
187.6834297107008
 31
0.0
  0
TEXT
  5
383
330
41D
100
AcDbEntity
  8
0
 62
     7
100
AcDbText
 10
146.0286627911728
 20
189.8363973673939
 30
0.0
 40
2.210999999999999
  1
PLATFORM SURFACE
  7
ROMANS
100
AcDbText
  0
TEXT
  5
384
330
41D
100
AcDbEntity
  8
0
 62
     7
100
AcDbText
 10
146.3666992711489
 20
186.2566830816795
 30
0.0
 40
2.210999999999999
  1
IS TREAD MATERIAL
  7
ROMANS
100
AcDbText
  0
LINE
  5
385
330
41D
100
AcDbEntity
  8
0
 62
     7
100
AcDbLine
 10
174.8850972556053
 20
173.8303282669451
 30
0.0
 11
196.0141557271899
 21
173.8303282669451
 31
0.0
  0
DIMENSION
  5
386
330
41D
100
AcDbEntity
  8
0
 62
     7
100
AcDbDimension
  2
*D29
 10
230.1287985147212
 20
173.8303282669451
 30
0.0
 11
238.2225485147211
 21
176.8303282669452
 31
0.0
 70
    32
  1
6"
 71
     5
 42
6.0
  3
STANDARD
100
AcDbAlignedDimension
 13
221.0141557271899
 23
179.8303282669452
 33
0.0
 14
222.0141557271899
 24
173.8303282669451
 34
0.0
 50
90.0
100
AcDbRotatedDimension
  0
LINE
  5
387
330
41D
100
AcDbEntity
  8
0
 62
     7
100
AcDbLine
 10
197.0141557271899
 20
173.8303282669451
 30
0.0
 11
221.0141557271898
 21
173.8303282669451
 31
0.0
  0
LINE
  5
388
330
41D
100
AcDbEntity
  8
0
 62
     7
100
AcDbLine
 10
222.0141557271898
 20
173.8303282669451
 30
0.0
 11
230.1287985147212
 21
173.8303282669451
 31
0.0
  0
TEXT
  5
389
330
41D
100
AcDbEntity
  8
0
 62
     7
100
AcDbText
 10
175.7630212561782
 20
178.3918397191671
 30
0.0
 40
2.210999999999999
  1
PARAPET
  7
ROMANS
100
AcDbText
  0
TEXT
  5
38A
330
41D
100
AcDbEntity
  8
0
 62
     7
100
AcDbText
 10
177.6347838734555
 20
174.8121254334528
 30
0.0
 40
2.210999999999999
  1
LEVEL
  7
ROMANS
100
AcDbText
  0
DIMENSION
  5
38B
330
41D
100
AcDbEntity
  8
0
 62
     7
100
AcDbDimension
  2
*D6
 10
67.51884709526206
 20
136.7739070816004
 30
0.0
 11
54.51884709526205
 21
136.7739070816004
 31
0.0
 70
    32
  1
26"
 71
     5
 42
26.00000000000001
  3
STANDARD
100
AcDbAlignedDimension
 13
41.51884709526204
 23
141.8303282669451
 33
0.0
 14
67.51884709526206
 24
141.8303282669451
 34
0.0
100
AcDbRotatedDimension
  0
DIMENSION
  5
38C
330
41D
100
AcDbEntity
  8
0
 62
     7
100
AcDbDimension
  2
*D11
 10
150.9564869452526
 20
166.8303282669451
 30
0.0
 11
150.8695154114635
 21
173.9399626745399
 31
0.0
 70
   160
  1
13"
 71
     5
 42
13.0
  3
STANDARD
100
AcDbAlignedDimension
 13
136.4302677351704
 23
179.8303282669452
 33
0.0
 14
139.4302677351704
 24
166.8303282669451
 34
0.0
 50
90.0
100
AcDbRotatedDimension
  0
DIMENSION
  5
38D
330
41D
100
AcDbEntity
  8
0
 62
     7
100
AcDbDimension
  2
*D10
 10
150.9564869452526
 20
166.8303282669451
 30
0.0
 11
150.9564869452526
 21
142.8303282669452
 31
0.0
 70
    32
  1
4' TYP
 71
     5
 42
48.0
  3
STANDARD
100
AcDbAlignedDimension
 13
139.4302677351704
 23
118.8303282669451
 33
0.0
 14
139.4302677351704
 24
166.8303282669451
 34
0.0
 50
90.0
100
AcDbRotatedDimension
  0
TEXT
  5
38E
330
41D
100
AcDbEntity
  8
0
 62
     7
100
AcDbText
 10
268.6803168088245
 20
166.1357348127373
 30
0.0
 40
2.210999999999999
  1
(PARAPET PLATFORM & RETURN
  7
ROMANS
100
AcDbText
  0
TEXT
  5
38F
330
41D
100
AcDbEntity
  8
0
 62
     7
100
AcDbText
 10
266.9150146576015
 20
162.556020527023
 30
0.0
 40
2.210999999999999
  1
LADDER ARE OMITTED FOR CLARITY)
  7
ROMANS
100
AcDbText
  0
LINE
  5
3AC
330
41D
100
AcDbEntity
  8
0
 62
     7
100
AcDbLine
 10
117.4302677351704
 20
201.0803282669452
 30
0.0
 11
136.4302677351704
 21
201.0803282669452
 31
0.0
  0
LINE
  5
3AD
330
41D
100
AcDbEntity
  8
0
 62
     7
100
AcDbLine
 10
117.4302677351704
 20
198.0803282669451
 30
0.0
 11
136.4302677351704
 21
198.0803282669451
 31
0.0
  0
LINE
  5
3AE
330
41D
100
AcDbEntity
  8
0
 62
     7
100
AcDbLine
 10
117.4302677351704
 20
176.8303282669451
 30
0.0
 11
136.4302677351704
 21
176.8303282669451
 31
0.0
  0
TEXT
  5
3AF
330
41D
100
AcDbEntity
  8
0
 62
     7
100
AcDbText
 10
146.5300168739252
 20
104.481281433224
 30
0.0
 40
2.210999999999999
  1
3" x 1" x 1/8"
  7
ROMANS
 72
     1
 11
160.3750883024966
 21
104.481281433224
 31
0.0
100
AcDbText
  0
TEXT
  5
3B0
330
41D
100
AcDbEntity
  8
0
 62
     7
100
AcDbText
 10
275.0747658179537
 20
55.10285931857306
 30
0.0
 40
2.210999999999999
  1
NOTE:
  7
ROMANS
100
AcDbText
  0
TEXT
  5
3B1
330
41D
100
AcDbEntity
  8
0
 62
     7
100
AcDbText
 10
275.0747658179537
 20
51.52314503285874
 30
0.0
 40
2.210999999999999
  1
ALL BOLTS/FASTENERS
  7
ROMANS
100
AcDbText
  0
TEXT
  5
3B2
330
41D
100
AcDbEntity
  8
0
 62
     7
100
AcDbText
 10
275.0747658179537
 20
47.94343074714448
 30
0.0
 40
2.210999999999999
  1
NECESSARY TO ANCHOR
  7
ROMANS
100
AcDbText
  0
TEXT
  5
3B3
330
41D
100
AcDbEntity
  8
0
 62
     7
100
AcDbText
 10
275.0747658179537
 20
44.36371646143016
 30
0.0
 40
2.210999999999999
  1
LADDER ARE BY OTHERS.
  7
ROMANS
100
AcDbText
  0
TEXT
  5
3B4
330
41D
100
AcDbEntity
  8
0
 62
     7
100
AcDbText
 10
47.10718206156458
 20
116.6186523529975
 30
0.0
 40
2.210999999999999
  1
ASSEMBLY
  7
ROMANS
 72
     4
 11
55.37211063299316
 21
117.7241523529975
 31
0.0
100
AcDbText
  0
TEXT
  5
3B5
330
41D
100
AcDbEntity
  8
0
 62
     7
100
AcDbText
 10
39.1054677758503
 20
123.7780809244261
 30
0.0
 40
2.210999999999999
  1
BRACKETS TO SHIP
  7
ROMANS
 72
     4
 11
55.37211063299316
 21
124.8835809244261
 31
0.0
100
AcDbText
  0
TEXT
  5
3B6
330
41D
100
AcDbEntity
  8
0
 62
     7
100
AcDbText
 10
40.26361063299315
 20
120.1983666387117
 30
0.0
 40
2.210999999999999
  1
LOOSE FOR FIELD
  7
ROMANS
 72
     4
 11
55.37211063299316
 21
121.3038666387117
 31
0.0
100
AcDbText
  0
TEXT
  5
3B7
330
41D
100
AcDbEntity
  8
0
 62
     7
100
AcDbText
 10
33.91959727896317
 20
121.7250094958546
 30
0.0
 40
4.421999999999999
  1
*
  7
ROMANS
 72
     4
 11
35.6041687075346
 21
124.8835809244261
 31
0.0
100
AcDbText
  0
TEXT
  5
3B8
330
41D
100
AcDbEntity
  8
0
 62
     7
100
AcDbText
 10
110.3352229880281
 20
162.1717568383737
 30
0.0
 40
4.421999999999999
  1
*
  7
ROMANS
 72
     4
 11
112.0197944165996
 21
165.3303282669452
 31
0.0
100
AcDbText
  0
TEXT
  5
3B9
330
41D
100
AcDbEntity
  8
0
 62
     7
100
AcDbText
 10
110.3352229880281
 20
143.1717568383737
 30
0.0
 40
4.421999999999999
  1
*
  7
ROMANS
 72
     4
 11
112.0197944165996
 21
146.3303282669452
 31
0.0
100
AcDbText
  0
LINE
  5
3D0
330
41D
100
AcDbEntity
  8
0
 62
     7
100
AcDbLine
 10
130.9302677351704
 20
44.83032826694517
 30
0.0
 11
139.4302677351704
 21
44.83032826694517
 31
0.0
  0
LINE
  5
3D1
330
41D
100
AcDbEntity
  8
0
 62
     7
100
AcDbLine
 10
130.9302677351704
 20
41.83032826694517
 30
0.0
 11
139.4302677351704
 21
41.83032826694517
 31
0.0
  0
LINE
  5
3DE
330
41D
100
AcDbEntity
  8
0
 62
     7
100
AcDbLine
 10
136.4302677351704
 20
44.83032826694517
 30
0.0
 11
136.4302677351704
 21
67.83032826694517
 31
0.0
  0
INSERT
  5
3E0
330
41D
100
AcDbEntity
  8
0
100
AcDbBlockReference
  2
LINETYPE
 10
0.0
 20
0.0
 30
0.0
  0
LINE
  5
452
330
41D
100
AcDbEntity
  8
0
 62
     7
100
AcDbLine
 10
42.51884709526204
 20
173.8303282669451
 30
0.0
 11
66.51884709526195
 21
173.8303282669451
 31
0.0
  0
LINE
  5
453
330
41D
100
AcDbEntity
  8
0
 62
     7
100
AcDbLine
 10
35.62006293143354
 20
173.8303282669451
 30
0.0
 11
41.51884709526204
 21
173.8303282669451
 31
0.0
  0
LINE
  5
454
330
41D
100
AcDbEntity
  8
0
 62
     7
100
AcDbLine
 10
73.55865224932443
 20
173.8303282669451
 30
0.0
 11
67.51884709526194
 21
173.8303282669451
 31
0.0
  0
INSERT
  5
11E7
330
41D
100
AcDbEntity
  8
0
100
AcDbBlockReference
 66
     1
  2
BORDER-T
 10
12.732586940043
 20
0.9464230931793338
 30
0.0
 41
1.199999999999999
 42
1.199999999999999
 43
1.199999999999999
  0
ATTRIB
  5
11E8
330
11E7
100
AcDbEntity
  8
0
 62
     5
100
AcDbText
 10
14.25730457543517
 20
21.28997587540248
 30
0.0
 40
2.699999999999999
  1

  7
ROMANS
100
AcDbAttribute
  2
SCALE
 70
     0
  0
ATTRIB
  5
11E9
330
11E7
100
AcDbEntity
  8
0
100
AcDbText
 10
327.5778111181447
 20
29.4358522142924
 30
0.0
 40
2.102203124999999
  1
FLH-08
  7
ROMANS
 72
     4
 11
333.7843155824304
 21
30.48695377679241
 31
0.0
100
AcDbAttribute
  2
SAVEDAS
 70
     0
  0
ATTRIB
  5
11EA
330
11E7
100
AcDbEntity
  8
0
 62
     5
100
AcDbText
 10
91.65937448544537
 20
17.13573781068801
 30
0.0
 40
1.497794117647058
  1

 50
90.0
  7
ROMANS
 72
     4
 11
91.65937448544537
 21
17.13573781068801
 31
0.0
100
AcDbAttribute
  2
X
 70
     0
  0
ATTRIB
  5
11EB
330
11E7
100
AcDbEntity
  8
0
100
AcDbText
 10
157.6647705295199
 20
14.34838779312444
 30
0.0
 40
2.122835657142857
  1

  7
ROMANS
 72
     1
 11
157.6647705295199
 21
14.34838779312444
 31
0.0
100
AcDbAttribute
  2
ARCHORENG
 70
     0
  0
ATTRIB
  5
11EC
330
11E7
100
AcDbEntity
  8
0
100
AcDbText
 10
157.6647705295199
 20
8.164280867689626
 30
0.0
 40
2.122835657142857
  1

  7
ROMANS
 72
     1
 11
157.6647705295199
 21
8.164280867689626
 31
0.0
100
AcDbAttribute
  2
PURCHASEORDER
 70
     0
  0
ATTRIB
  5
11ED
330
11E7
100
AcDbEntity
  8
0
100
AcDbText
 10
154.3794296315608
 20
1.980173942254708
 30
0.0
 40
2.122835657142857
  1
DNH
  7
ROMANS
 72
     1
 11
157.6647705295199
 21
1.980173942254708
 31
0.0
100
AcDbAttribute
  2
DRAWNBY
 70
     0
  0
ATTRIB
  5
11EE
330
11E7
100
AcDbEntity
  8
0
100
AcDbText
 10
193.9694848152343
 20
8.164280867689626
 30
0.0
 40
2.122835657142857
  1

  7
ROMANS
 72
     1
 11
193.9694848152343
 21
8.164280867689626
 31
0.0
100
AcDbAttribute
  2
DATE
 70
     0
  0
ATTRIB
  5
11EF
330
11E7
100
AcDbEntity
  8
0
100
AcDbText
 10
188.0053274927853
 20
1.980173942254708
 30
0.0
 40
2.122835657142857
  1
9/1/21
  7
ROMANS
 72
     1
 11
193.9694848152343
 21
1.980173942254708
 31
0.0
100
AcDbAttribute
  2
DATE
 70
     0
  0
ATTRIB
  5
11F0
330
11E7
100
AcDbEntity
  8
0
100
AcDbText
 10
230.2741991009486
 20
14.34838779312444
 30
0.0
 40
2.122835657142857
  1

  7
ROMANS
 72
     1
 11
230.2741991009486
 21
14.34838779312444
 31
0.0
100
AcDbAttribute
  2
PROJECT
 70
     0
  0
ATTRIB
  5
11F1
330
11E7
100
AcDbEntity
  8
0
100
AcDbText
 10
240.1754848152342
 20
8.164280867689626
 30
0.0
 40
2.122835657142857
  1

  7
ROMANS
 72
     1
 11
240.1754848152342
 21
8.164280867689626
 31
0.0
100
AcDbAttribute
  2
PURCHASER
 70
     0
  0
ATTRIB
  5
11F2
330
11E7
100
AcDbEntity
  8
0
100
AcDbText
 10
229.3795000642139
 20
1.980173942254822
 30
0.0
 40
2.122835657142857
  1
FLH-
  7
ROMANS
 72
     1
 11
233.5746276723771
 21
1.980173942254822
 31
0.0
100
AcDbAttribute
  2
MODEL
 70
     0
  0
ATTRIB
  5
11F3
330
11E7
100
AcDbEntity
  8
0
100
AcDbText
 10
269.8793419580913
 20
1.980173942254708
 30
0.0
 40
2.122835657142857
  1

  7
ROMANS
 72
     1
 11
269.8793419580913
 21
1.980173942254708
 31
0.0
100
AcDbAttribute
  2
QTY
 70
     0
  0
ATTRIB
  5
11F4
330
11E7
100
AcDbEntity
  8
0
100
AcDbText
 10
309.4844848152344
 20
14.34758476664415
 30
0.0
 40
2.122835657142857
  1

  7
ROMANS
 72
     1
 11
309.4844848152344
 21
14.34758476664415
 31
0.0
100
AcDbAttribute
  2
REP
 70
     0
  0
ATTRIB
  5
11F5
330
11E7
100
AcDbEntity
  8
0
100
AcDbText
 10
309.5254879988162
 20
4.730309515692098
 30
0.0
 40
4.146163392857142
  1

  7
ROMANS
 72
     1
 11
309.5254879988162
 21
4.730309515692098
 31
0.0
100
AcDbAttribute
  2
L010000
 70
     0
  0
SEQEND
  5
11F6
330
11E7
100
AcDbEntity
  8
0
  0
DIMENSION
  5
1216
330
41D
100
AcDbEntity
  8
0
100
AcDbDimension
  2
*D3
 10
114.4302677351703
 20
228.3937360032212
 30
0.0
 11
126.9302677351704
 21
228.3937360032212
 31
0.0
 70
    32
  1
24" MIN.\PX + 17"
 71
     5
 42
25.00000000000002
  3
STANDARD$0
100
AcDbAlignedDimension
 13
139.4302677351704
 23
221.8303282669452
 33
0.0
 14
114.4302677351703
 24
221.8303282669453
 34
0.0
100
AcDbRotatedDimension
  0
DIMENSION
  5
1224
330
41D
100
AcDbEntity
  8
0
100
AcDbDimension
  2
*D4
 10
130.9302677351704
 20
133.4601651218063
 30
0.0
 11
126.7554324334649
 21
133.6489481171386
 31
0.0
 70
   160
  1
X
 71
     5
 42
8.000000000000014
  3
STANDARD$0
100
AcDbAlignedDimension
 13
122.9302677351703
 23
137.8303282669451
 33
0.0
 14
130.9302677351704
 24
137.8303282669451
 34
0.0
100
AcDbRotatedDimension
  0
DIMENSION
  5
127B
330
41D
100
AcDbEntity
  8
0
100
AcDbDimension
  2
*D7
 10
24.85468019726444
 20
141.8303282669451
 30
0.0
 11
24.85468019726442
 21
160.8303282669451
 31
0.0
 70
    32
  1
AS REQ'D
 71
     5
 42
38.0
  3
STANDARD$0
100
AcDbAlignedDimension
 13
42.51884709526204
 23
179.8303282669452
 33
0.0
 14
41.51884709526204
 24
141.8303282669451
 34
0.0
 50
90.0
100
AcDbRotatedDimension
  0
LWPOLYLINE
  5
12B5
330
41D
100
AcDbEntity
  8
0
100
AcDbPolyline
 90
        4
 70
     1
 43
0.0
 10
230.9525849784967
 20
120.3808859195476
 10
255.0310899975523
 20
120.3808859195476
 10
255.0310899975523
 20
95.36001967504194
 10
230.9525849784967
 20
95.36001967504194
  0
DIMENSION
  5
12DD
330
41D
100
AcDbEntity
  8
0
 62
     7
100
AcDbDimension
  2
*D9
 10
150.9564869452525
 20
35.83032826694517
 30
0.0
 11
151.1497991047659
 21
40.43960603800836
 31
0.0
 70
   160
  1
AS REQ'D
 71
     5
 42
9.0
  3
STANDARD$0
100
AcDbAlignedDimension
 13
139.4302677351704
 23
44.83032826694517
 33
0.0
 14
139.4302677351704
 24
35.83032826694517
 34
0.0
 50
90.0
100
AcDbRotatedDimension
  0
LINE
  5
1742
330
41D
100
AcDbEntity
  8
0
100
AcDbLine
 10
255.0310899975523
 20
108.0696853884879
 30
0.0
 11
230.9525849784967
 21
108.0696853884879
 31
0.0
  0
LWPOLYLINE
  5
174D
330
41D
100
AcDbEntity
  8
0
100
AcDbPolyline
 90
        4
 70
     1
 43
0.0
 10
103.470782106059
 20
128.1803214534197
 10
125.2718408647647
 20
128.1803214534197
 10
125.2718408647647
 20
115.7784299146911
 10
103.470782106059
 20
115.7784299146911
  0
TEXT
  5
174E
330
41D
100
AcDbEntity
  8
0
 62
     7
100
AcDbText
 10
105.5724838789907
 20
120.4358379119495
 30
0.0
 40
2.210999999999999
  1
X=
  7
ROMANS
 72
     1
 11
107.9414124504193
 21
120.4358379119495
 31
0.0
100
AcDbText
  0
DIMENSION
  5
174F
330
41D
100
AcDbEntity
  8
0
100
AcDbDimension
  2
*D12
 10
98.8029456051473
 20
137.8303282669451
 30
0.0
 11
98.80294560514728
 21
155.8303282669452
 31
0.0
 70
    32
  1
\P\P\PPARAPET\PHEIGHT
 71
     5
 42
36.0
  3
STANDARD$0
100
AcDbAlignedDimension
 13
122.9302677351703
 23
173.8303282669451
 33
0.0
 14
103.8739412491804
 24
137.8303282669451
 34
0.0
 50
90.0
100
AcDbRotatedDimension
  0
LWPOLYLINE
  5
1767
330
41D
100
AcDbEntity
  8
0
100
AcDbPolyline
 90
        4
 70
     1
 43
0.0
 10
89.9561110370602
 20
166.2989660084008
 10
107.0024506882832
 20
166.2989660084008
 10
107.0024506882832
 20
145.1699588285172
 10
89.9561110370602
 20
145.1699588285172
  0
LINE
  5
1768
330
41D
100
AcDbEntity
  8
0
100
AcDbLine
 10
89.9561110370602
 20
154.0096452177642
 30
0.0
 11
107.0024506882832
 21
154.0096452177642
 31
0.0
  0
LWPOLYLINE
  5
1781
330
41D
100
AcDbEntity
  8
0
100
AcDbPolyline
 90
        4
 70
     1
 43
0.0
 10
69.49267507214651
 20
107.1944132114854
 10
95.48514429082194
 20
107.1944132114854
 10
95.48514429082194
 20
87.64085811456892
 10
69.49267507214651
 20
87.64085811456892
  0
LINE
  5
178C
330
41D
100
AcDbEntity
  8
0
100
AcDbLine
 10
69.49267507214651
 20
95.96631309359755
 30
0.0
 11
95.48514429082194
 21
95.96631309359755
 31
0.0
  0
LINE
  5
18BD
330
41D
100
AcDbEntity
  8
0
 62
     7
100
AcDbLine
 10
197.0141557271899
 20
166.8303282669451
 30
0.0
 11
200.2016557271899
 21
166.8303282669451
 31
0.0
  0
LINE
  5
18BE
330
41D
100
AcDbEntity
  8
0
 62
     7
100
AcDbLine
 10
197.0141557271899
 20
163.8303282669451
 30
0.0
 11
200.2016557271899
 21
163.8303282669451
 31
0.0
  0
LINE
  5
18BF
330
41D
100
AcDbEntity
  8
0
 62
     7
100
AcDbLine
 10
195.7016557271899
 20
166.8303282669451
 30
0.0
 11
195.9516557271899
 21
166.8303282669451
 31
0.0
  0
CIRCLE
  5
18C0
330
41D
100
AcDbEntity
  8
0
 62
     7
100
AcDbCircle
 10
197.9516557271899
 20
165.3303282669452
 30
0.0
 40
0.28125
  0
LINE
  5
18C1
330
41D
100
AcDbEntity
  8
0
 62
     7
100
AcDbLine
 10
195.7016557271899
 20
163.8303282669451
 30
0.0
 11
195.9516557271899
 21
163.8303282669451
 31
0.0
  0
LINE
  5
18C2
330
41D
100
AcDbEntity
  8
0
 62
     7
100
AcDbLine
 10
195.7016557271899
 20
163.8303282669451
 30
0.0
 11
195.7016557271899
 21
166.8303282669451
 31
0.0
  0
LINE
  5
18C3
330
41D
100
AcDbEntity
  8
0
 62
     7
100
AcDbLine
 10
200.2016557271899
 20
163.8303282669451
 30
0.0
 11
200.2016557271899
 21
166.8303282669451
 31
0.0
  0
CIRCLE
  5
18C4
330
41D
100
AcDbEntity
  8
0
 62
     7
100
AcDbCircle
 10
220.0766557271899
 20
165.3303282669452
 30
0.0
 40
0.28125
  0
LINE
  5
18C5
330
41D
100
AcDbEntity
  8
0
 62
     7
100
AcDbLine
 10
221.0141557271899
 20
166.8303282669451
 30
0.0
 11
217.8266557271899
 21
166.8303282669451
 31
0.0
  0
LINE
  5
18C6
330
41D
100
AcDbEntity
  8
0
 62
     7
100
AcDbLine
 10
221.0141557271899
 20
163.8303282669451
 30
0.0
 11
217.8266557271899
 21
163.8303282669451
 31
0.0
  0
LINE
  5
18C7
330
41D
100
AcDbEntity
  8
0
 62
     7
100
AcDbLine
 10
217.8266557271899
 20
163.8303282669451
 30
0.0
 11
217.8266557271899
 21
166.8303282669451
 31
0.0
  0
LINE
  5
18C8
330
41D
100
AcDbEntity
  8
0
 62
     7
100
AcDbLine
 10
222.3266557271899
 20
166.8303282669451
 30
0.0
 11
222.0766557271899
 21
166.8303282669451
 31
0.0
  0
LINE
  5
18C9
330
41D
100
AcDbEntity
  8
0
 62
     7
100
AcDbLine
 10
222.3266557271899
 20
163.8303282669451
 30
0.0
 11
222.0766557271899
 21
163.8303282669451
 31
0.0
  0
LINE
  5
18CA
330
41D
100
AcDbEntity
  8
0
 62
     7
100
AcDbLine
 10
222.3266557271899
 20
163.8303282669451
 30
0.0
 11
222.3266557271899
 21
166.8303282669451
 31
0.0
  0
LWPOLYLINE
  5
18CB
330
41D
100
AcDbEntity
  8
0
 62
     7
100
AcDbPolyline
 90
        6
 70
     1
 43
0.0
 10
268.0305660173119
 20
192.11660903483
 10
268.7055660173119
 20
192.11660903483
 10
268.7055660173119
 20
214.39160903483
 10
278.8305660173119
 20
214.39160903483
 10
278.8305660173119
 20
215.06660903483
 10
268.0305660173119
 20
215.06660903483
  0
LWPOLYLINE
  5
18CC
330
41D
100
AcDbEntity
  8
0
 62
     7
100
AcDbPolyline
 90
        6
 70
     1
 43
0.0
 10
322.7055660173119
 20
192.11660903483
 10
323.3805660173119
 20
192.11660903483
 10
323.3805660173119
 20
215.06660903483
 10
312.5805660173119
 20
215.06660903483
 10
312.5805660173119
 20
214.39160903483
 10
322.7055660173119
 20
214.39160903483
  0
DIMENSION
  5
18CD
330
41D
100
AcDbEntity
  8
0
 62
     7
100
AcDbDimension
  2
*D15
 10
331.8531860928315
 20
215.06660903483
 30
0.0
 11
331.8531860928315
 21
205.61660903483
 31
0.0
 70
    32
  1
7"
 71
     5
 42
18.9
  3
STANDARD
100
AcDbAlignedDimension
 13
323.3805660173119
 23
196.16660903483
 33
0.0
 14
323.3805660173119
 24
215.06660903483
 34
0.0
 50
90.0
100
AcDbRotatedDimension
  0
LINE
  5
18CE
330
41D
100
AcDbEntity
  8
0
 62
     7
100
AcDbLine
 10
316.2573462567715
 20
86.47133148196402
 30
0.0
 11
287.5206683068547
 21
103.062460231964
 31
0.0
  0
LINE
  5
18CF
330
41D
100
AcDbEntity
  8
0
 62
     7
100
AcDbLine
 10
315.4121498464799
 20
85.98335710696401
 30
0.0
 11
287.5206683068547
 21
102.0865114819639
 31
0.0
  0
TEXT
  5
18D0
330
41D
100
AcDbEntity
  8
0
 62
     7
100
AcDbText
 10
274.5642892656864
 20
63.71409246529332
 30
0.0
 40
3.28811076
  1
BRACKET DETAIL
  7
ROMANS
 72
     1
 11
294.9192606371149
 21
63.71409246529332
 31
0.0
100
AcDbText
  0
LINE
  5
18D1
330
41D
100
AcDbEntity
  8
0
 62
     7
100
AcDbLine
 10
315.4121498464799
 20
74.27197210696403
 30
0.0
 11
287.5206683068547
 21
90.37512648196399
 31
0.0
  0
DIMENSION
  5
18D2
330
41D
100
AcDbEntity
  8
0
 62
     7
100
AcDbDimension
  2
*D16
 10
322.0425598352683
 20
89.81142609882873
 30
0.0
 11
307.6742208603099
 21
98.10699047382868
 31
0.0
 70
    33
  1
8-1/2"
 71
     5
 42
33.18225750000005
  3
STANDARD$0
100
AcDbAlignedDimension
 13
287.5206683068546
 23
103.062460231964
 33
0.0
 14
316.2573462567715
 24
86.47133148196406
 34
0.0
  0
DIMENSION
  5
18D3
330
41D
100
AcDbEntity
  8
0
 62
     7
100
AcDbDimension
  2
*D17
 10
271.4055660173119
 20
184.5563238483823
 30
0.0
 11
295.7055660173118
 21
184.5563238483823
 31
0.0
 70
    32
  1
24"
 71
     5
 42
48.59999999999979
  3
STANDARD
100
AcDbAlignedDimension
 13
320.0055660173117
 23
192.11660903483
 33
0.0
 14
271.4055660173119
 24
192.11660903483
 34
0.0
100
AcDbRotatedDimension
  0
LINE
  5
18D4
330
41D
100
AcDbEntity
  8
0
 62
     7
100
AcDbLine
 10
271.4055660173119
 20
199.20410903483
 30
0.0
 11
320.0055660173117
 21
199.20410903483
 31
0.0
  0
LINE
  5
18D5
330
41D
100
AcDbEntity
  8
0
 62
     7
100
AcDbLine
 10
320.0055660173117
 20
193.12910903483
 30
0.0
 11
271.4055660173119
 21
193.12910903483
 31
0.0
  0
LINE
  5
18D6
330
41D
100
AcDbEntity
  8
0
 62
     7
100
AcDbLine
 10
320.0055660173117
 20
196.16660903483
 30
0.0
 11
271.4055660173119
 21
196.16660903483
 31
0.0
  0
LINE
  5
18D7
330
41D
100
AcDbEntity
  8
0
 62
     7
100
AcDbLine
 10
320.0055660173117
 20
197.17910903483
 30
0.0
 11
271.4055660173119
 21
197.17910903483
 31
0.0
  0
LINE
  5
18D8
330
41D
100
AcDbEntity
  8
0
 62
     7
100
AcDbLine
 10
320.0055660173117
 20
198.19160903483
 30
0.0
 11
271.4055660173119
 21
198.19160903483
 31
0.0
  0
LINE
  5
18D9
330
41D
100
AcDbEntity
  8
0
 62
     7
100
AcDbLine
 10
320.0055660173117
 20
195.15410903483
 30
0.0
 11
271.4055660173119
 21
195.15410903483
 31
0.0
  0
LINE
  5
18DA
330
41D
100
AcDbEntity
  8
0
 62
     7
100
AcDbLine
 10
320.0055660173117
 20
194.14160903483
 30
0.0
 11
271.4055660173119
 21
194.14160903483
 31
0.0
  0
LINE
  5
18DB
330
41D
100
AcDbEntity
  8
0
 62
     7
100
AcDbLine
 10
273.9975257421881
 20
95.25487023196408
 30
0.0
 11
287.5206683068547
 21
103.062460231964
 31
0.0
  0
LINE
  5
18DC
330
41D
100
AcDbEntity
  8
0
 62
     7
100
AcDbLine
 10
274.8427221524798
 20
94.76689585696405
 30
0.0
 11
287.5206683068547
 21
102.0865114819639
 31
0.0
  0
LINE
  5
18DD
330
41D
100
AcDbEntity
  8
0
 62
     7
100
AcDbLine
 10
287.5206683068547
 20
102.0865114819639
 30
0.0
 11
287.5206683068547
 21
90.37512648196399
 31
0.0
  0
DIMENSION
  5
18DE
330
41D
100
AcDbEntity
  8
0
 62
     7
100
AcDbDimension
  2
*D18
 10
270.4221112120111
 20
97.31913677342623
 30
0.0
 11
274.7775526214947
 21
101.7601040573056
 31
0.0
 70
   161
  1
4-1/2"
 71
     5
 42
15.61517999999984
  3
STANDARD$0
100
AcDbAlignedDimension
 13
287.5206683068546
 23
103.062460231964
 33
0.0
 14
273.9975257421881
 24
95.25487023196403
 34
0.0
  0
LWPOLYLINE
  5
18DF
330
41D
100
AcDbEntity
  8
0
 62
     7
100
AcDbPolyline
 90
       16
 70
     1
 43
0.0
 10
280.1986219886982
 20
92.77979604577479
 42
0.0587518675353646
 10
279.9837896643378
 20
92.28036752503044
 42
0.0723410840576763
 10
279.9201256544155
 20
91.84264363559107
 42
0.106617054391126
 10
280.0073536507873
 20
91.43822213329183
 42
0.1568512196706424
 10
280.1986219886982
 20
91.22707109253985
 42
0.1568512196706761
 10
280.4771183229803
 20
91.16700337334549
 42
0.1066170543910004
 10
280.8709716159938
 20
91.29367246371609
 42
0.0723410840577375
 10
281.2182196191306
 20
91.56766905833524
 42
0.0587518675353654
 10
281.5433212432894
 20
92.00343356915734
 42
0.0587518675353444
 10
281.7581535676499
 20
92.50286208990166
 42
0.0723410840576672
 10
281.821817577572
 20
92.94058597934107
 42
0.1066170543911832
 10
281.7345895812004
 20
93.34500748164014
 42
0.1568512196709102
 10
281.5433212432894
 20
93.55615852239232
 42
0.1568512196706761
 10
281.2648249090072
 20
93.61622624158664
 42
0.1066170543910004
 10
280.8709716159938
 20
93.4895571512161
 42
0.0723410840577166
 10
280.5237236128571
 20
93.21556055659705
 42
0.0587518675353862
  0
LWPOLYLINE
  5
18E0
330
41D
100
AcDbEntity
  8
0
 62
     7
100
AcDbPolyline
 90
        7
 70
     0
 43
0.0
 10
279.9264327157421
 20
91.73157419250513
 42
0.0283695723264663
 10
280.0257752057021
 20
91.7816468387161
 42
0.0723410840577375
 10
280.3730232088388
 20
92.0556434333352
 42
0.0587518675353654
 10
280.6981248329978
 20
92.49140794415735
 42
0.0587518675353444
 10
280.9129571573582
 20
92.99083646490169
 42
0.0723410840576672
 10
280.9766211672803
 20
93.42856035434111
 42
0.0283695723264929
 10
280.9703141059537
 20
93.53962979742705
 42
0.1568512196709102
  0
LINE
  5
18E1
330
41D
100
AcDbEntity
  8
0
 62
     7
100
AcDbLine
 10
274.8427221524798
 20
83.05551085696405
 30
0.0
 11
287.5206683068547
 21
90.37512648196399
 31
0.0
  0
TEXT
  5
18E2
330
41D
100
AcDbEntity
  8
0
 62
     7
100
AcDbText
 10
273.23109392548
 20
71.94035089264691
 30
0.0
 40
2.46608307
  1
%%C9/16"
  7
ROMANS
 72
     2
 11
286.5009694926229
 21
73.1733924276469
 31
0.0
100
AcDbText
 73
     2
  0
DIMENSION
  5
18E3
330
41D
100
AcDbEntity
  8
0
 62
     7
100
AcDbDimension
  2
*D19
 10
273.9975257421881
 20
80.05141849833297
 30
0.0
 11
265.8855807024896
 21
82.36115421525996
 31
0.0
 70
   161
  1
1/4"
 71
     5
 42
0.9759487500001
  3
STANDARD$0
100
AcDbAlignedDimension
 13
274.8427221524798
 23
83.05551085696405
 33
0.0
 14
273.9975257421881
 24
83.54348523196406
 34
0.0
  0
LINE
  5
18E4
330
41D
100
AcDbEntity
  8
0
 62
     7
100
AcDbLine
 10
273.9975257421881
 20
83.54348523196406
 30
0.0
 11
273.9975257421881
 21
95.25487023196408
 31
0.0
  0
LINE
  5
18E5
330
41D
100
AcDbEntity
  8
0
 62
     7
100
AcDbLine
 10
274.8427221524798
 20
83.05551085696405
 30
0.0
 11
274.8427221524798
 21
94.76689585696405
 31
0.0
  0
LINE
  5
18E6
330
41D
100
AcDbEntity
  8
0
 62
     7
100
AcDbLine
 10
274.8427221524798
 20
83.05551085696405
 30
0.0
 11
273.9975257421881
 21
83.54348523196406
 31
0.0
  0
LINE
  5
18E7
330
41D
100
AcDbEntity
  8
0
 62
     7
100
AcDbLine
 10
274.8427221524798
 20
94.76689585696405
 30
0.0
 11
273.9975257421881
 21
95.25487023196408
 31
0.0
  0
MTEXT
  5
18E9
330
41D
100
AcDbEntity
  8
0
 62
     7
100
AcDbMText
 10
585.5202939196315
 20
98.63398193602662
 30
0.0
 40
1.4472
 41
0.0
 71
     9
 72
     1
  1
 
  7
ROMANS
 73
     1
 44
1.0
1001
ACAD
1000
MTEXTBEGIN
1070
    73
1070
     1
1070
    44
1040
1.0
1070
    74
1070
     0
1000
MTEXTEND
  0
LWPOLYLINE
  5
18EA
330
41D
100
AcDbEntity
  8
0
 62
     7
100
AcDbPolyline
 90
        4
 70
     0
 43
0.0
 10
268.7055660173119
 20
192.11660903483
 10
271.4055660173119
 20
192.11660903483
 10
271.4055660173119
 20
200.21660903483
 10
268.7055660173119
 20
200.21660903483
  0
TEXT
  5
18EB
330
41D
100
AcDbEntity
  8
0
 62
     7
100
AcDbText
 10
289.2394638611374
 20
173.9208585326838
 30
0.0
 40
3.18384
  1
PLAN
  7
ROMANS
 72
     1
 11
295.1523095754231
 21
173.9208585326838
 31
0.0
100
AcDbText
  0
LINE
  5
18EC
330
41D
100
AcDbEntity
  8
0
 62
     7
100
AcDbLine
 10
315.4121498464799
 20
74.27197210696403
 30
0.0
 11
315.4121498464799
 21
85.98335710696401
 31
0.0
  0
LINE
  5
18ED
330
41D
100
AcDbEntity
  8
0
 62
     7
100
AcDbLine
 10
316.2573462567715
 20
74.75994648196402
 30
0.0
 11
316.2573462567715
 21
86.47133148196402
 31
0.0
  0
DIMENSION
  5
18EE
330
41D
100
AcDbEntity
  8
0
 62
     7
100
AcDbDimension
  2
*D20
 10
322.0425598352684
 20
78.10004109882871
 30
0.0
 11
322.7153422572848
 21
83.17922317074325
 31
0.0
 70
   161
  1
3"
 71
     5
 42
11.711385
  3
STANDARD$0
100
AcDbAlignedDimension
 13
316.2573462567715
 23
86.47133148196402
 33
0.0
 14
316.2573462567715
 24
74.75994648196402
 34
0.0
  0
LINE
  5
18EF
330
41D
100
AcDbEntity
  8
0
 62
     7
100
AcDbLine
 10
315.4121498464799
 20
74.27197210696403
 30
0.0
 11
316.2573462567715
 21
74.75994648196402
 31
0.0
  0
LINE
  5
18F0
330
41D
100
AcDbEntity
  8
0
 62
     7
100
AcDbLine
 10
315.4121498464799
 20
85.98335710696401
 30
0.0
 11
316.2573462567715
 21
86.47133148196402
 31
0.0
  0
LWPOLYLINE
  5
18F1
330
41D
100
AcDbEntity
  8
0
 62
     7
100
AcDbPolyline
 90
        4
 70
     0
 43
0.0
 10
322.7055660173119
 20
192.11660903483
 10
320.0055660173117
 20
192.11660903483
 10
320.0055660173119
 20
200.21660903483
 10
322.7055660173119
 20
200.21660903483
  0
DIMENSION
  5
18F2
330
41D
100
AcDbEntity
  8
0
 62
     7
100
AcDbDimension
  2
*D21
 10
273.7680660173119
 20
222.6614504186712
 30
0.0
 11
295.7055660173119
 21
222.6614504186712
 31
0.0
 70
    32
  1
22-1/8"
 71
     5
 42
43.87499999999994
  3
STANDARD
100
AcDbAlignedDimension
 13
317.6430660173119
 23
214.39160903483
 33
0.0
 14
273.7680660173119
 24
214.39160903483
 34
0.0
100
AcDbRotatedDimension
  0
CIRCLE
  5
19F9
330
41D
100
AcDbEntity
  8
0
 62
     7
100
AcDbCircle
 10
197.9516557271899
 20
117.3303282669452
 30
0.0
 40
0.28125
  0
LINE
  5
19FA
330
41D
100
AcDbEntity
  8
0
 62
     7
100
AcDbLine
 10
197.0141557271899
 20
118.8303282669451
 30
0.0
 11
200.2016557271899
 21
118.8303282669451
 31
0.0
  0
LINE
  5
19FB
330
41D
100
AcDbEntity
  8
0
 62
     7
100
AcDbLine
 10
197.0141557271899
 20
115.8303282669451
 30
0.0
 11
200.2016557271899
 21
115.8303282669451
 31
0.0
  0
LINE
  5
19FC
330
41D
100
AcDbEntity
  8
0
 62
     7
100
AcDbLine
 10
195.7016557271899
 20
115.8303282669451
 30
0.0
 11
195.7016557271899
 21
118.8303282669451
 31
0.0
  0
LINE
  5
19FD
330
41D
100
AcDbEntity
  8
0
 62
     7
100
AcDbLine
 10
195.7016557271899
 20
115.8303282669451
 30
0.0
 11
195.9516557271899
 21
115.8303282669451
 31
0.0
  0
LINE
  5
19FE
330
41D
100
AcDbEntity
  8
0
 62
     7
100
AcDbLine
 10
195.7016557271899
 20
118.8303282669451
 30
0.0
 11
195.9516557271899
 21
118.8303282669451
 31
0.0
  0
LINE
  5
19FF
330
41D
100
AcDbEntity
  8
0
 62
     7
100
AcDbLine
 10
200.2016557271899
 20
115.8303282669451
 30
0.0
 11
200.2016557271899
 21
118.8303282669451
 31
0.0
  0
LINE
  5
1A00
330
41D
100
AcDbEntity
  8
0
 62
     7
100
AcDbLine
 10
221.0141557271899
 20
118.8303282669451
 30
0.0
 11
217.8266557271899
 21
118.8303282669451
 31
0.0
  0
LINE
  5
1A01
330
41D
100
AcDbEntity
  8
0
 62
     7
100
AcDbLine
 10
221.0141557271899
 20
115.8303282669451
 30
0.0
 11
217.8266557271899
 21
115.8303282669451
 31
0.0
  0
LINE
  5
1A02
330
41D
100
AcDbEntity
  8
0
 62
     7
100
AcDbLine
 10
217.8266557271899
 20
115.8303282669451
 30
0.0
 11
217.8266557271899
 21
118.8303282669451
 31
0.0
  0
LINE
  5
1A03
330
41D
100
AcDbEntity
  8
0
 62
     7
100
AcDbLine
 10
222.3266557271899
 20
115.8303282669451
 30
0.0
 11
222.3266557271899
 21
118.8303282669451
 31
0.0
  0
CIRCLE
  5
1A04
330
41D
100
AcDbEntity
  8
0
 62
     7
100
AcDbCircle
 10
220.0766557271899
 20
117.3303282669452
 30
0.0
 40
0.28125
  0
LINE
  5
1A05
330
41D
100
AcDbEntity
  8
0
 62
     7
100
AcDbLine
 10
222.3266557271899
 20
115.8303282669451
 30
0.0
 11
222.0766557271899
 21
115.8303282669451
 31
0.0
  0
LINE
  5
1A06
330
41D
100
AcDbEntity
  8
0
 62
     7
100
AcDbLine
 10
222.3266557271899
 20
118.8303282669451
 30
0.0
 11
222.0766557271899
 21
118.8303282669451
 31
0.0
  0
LINE
  5
1A07
330
41D
100
AcDbEntity
  8
0
 62
     7
100
AcDbLine
 10
197.0141557271899
 20
67.83032826694517
 30
0.0
 11
200.2016557271899
 21
67.83032826694517
 31
0.0
  0
LINE
  5
1A08
330
41D
100
AcDbEntity
  8
0
 62
     7
100
AcDbLine
 10
197.0141557271899
 20
70.83032826694517
 30
0.0
 11
200.2016557271899
 21
70.83032826694517
 31
0.0
  0
CIRCLE
  5
1A09
330
41D
100
AcDbEntity
  8
0
 62
     7
100
AcDbCircle
 10
197.9516557271899
 20
69.33032826694518
 30
0.0
 40
0.28125
  0
LINE
  5
1A0A
330
41D
100
AcDbEntity
  8
0
 62
     7
100
AcDbLine
 10
195.7016557271899
 20
67.83032826694517
 30
0.0
 11
195.7016557271899
 21
70.83032826694517
 31
0.0
  0
LINE
  5
1A0B
330
41D
100
AcDbEntity
  8
0
 62
     7
100
AcDbLine
 10
195.7016557271899
 20
67.83032826694517
 30
0.0
 11
195.9516557271899
 21
67.83032826694517
 31
0.0
  0
LINE
  5
1A0C
330
41D
100
AcDbEntity
  8
0
 62
     7
100
AcDbLine
 10
195.7016557271899
 20
70.83032826694517
 30
0.0
 11
195.9516557271899
 21
70.83032826694517
 31
0.0
  0
LINE
  5
1A0D
330
41D
100
AcDbEntity
  8
0
 62
     7
100
AcDbLine
 10
200.2016557271899
 20
67.83032826694517
 30
0.0
 11
200.2016557271899
 21
70.83032826694517
 31
0.0
  0
LINE
  5
1A0E
330
41D
100
AcDbEntity
  8
0
 62
     7
100
AcDbLine
 10
221.0141557271899
 20
67.83032826694517
 30
0.0
 11
217.8266557271899
 21
67.83032826694517
 31
0.0
  0
LINE
  5
1A0F
330
41D
100
AcDbEntity
  8
0
 62
     7
100
AcDbLine
 10
221.0141557271899
 20
70.83032826694517
 30
0.0
 11
217.8266557271899
 21
70.83032826694517
 31
0.0
  0
LINE
  5
1A10
330
41D
100
AcDbEntity
  8
0
 62
     7
100
AcDbLine
 10
217.8266557271899
 20
67.83032826694517
 30
0.0
 11
217.8266557271899
 21
70.83032826694517
 31
0.0
  0
LINE
  5
1A11
330
41D
100
AcDbEntity
  8
0
 62
     7
100
AcDbLine
 10
222.3266557271899
 20
67.83032826694517
 30
0.0
 11
222.3266557271899
 21
70.83032826694517
 31
0.0
  0
CIRCLE
  5
1A12
330
41D
100
AcDbEntity
  8
0
 62
     7
100
AcDbCircle
 10
220.0766557271899
 20
69.33032826694518
 30
0.0
 40
0.28125
  0
LINE
  5
1A13
330
41D
100
AcDbEntity
  8
0
 62
     7
100
AcDbLine
 10
222.3266557271899
 20
67.83032826694517
 30
0.0
 11
222.0766557271899
 21
67.83032826694517
 31
0.0
  0
LINE
  5
1A14
330
41D
100
AcDbEntity
  8
0
 62
     7
100
AcDbLine
 10
222.3266557271899
 20
70.83032826694517
 30
0.0
 11
222.0766557271899
 21
70.83032826694517
 31
0.0
  0
CIRCLE
  5
1A15
330
41D
100
AcDbEntity
  8
0
 62
     7
100
AcDbCircle
 10
197.9516557271899
 20
43.33032826694517
 30
0.0
 40
0.28125
  0
LINE
  5
1A16
330
41D
100
AcDbEntity
  8
0
 62
     7
100
AcDbLine
 10
197.0141557271899
 20
44.83032826694517
 30
0.0
 11
200.2016557271899
 21
44.83032826694517
 31
0.0
  0
LINE
  5
1A17
330
41D
100
AcDbEntity
  8
0
 62
     7
100
AcDbLine
 10
197.0141557271899
 20
41.83032826694517
 30
0.0
 11
200.2016557271899
 21
41.83032826694517
 31
0.0
  0
LINE
  5
1A18
330
41D
100
AcDbEntity
  8
0
 62
     7
100
AcDbLine
 10
195.7016557271899
 20
44.83032826694517
 30
0.0
 11
195.9516557271899
 21
44.83032826694517
 31
0.0
  0
LINE
  5
1A19
330
41D
100
AcDbEntity
  8
0
 62
     7
100
AcDbLine
 10
195.7016557271899
 20
41.83032826694517
 30
0.0
 11
195.9516557271899
 21
41.83032826694517
 31
0.0
  0
LINE
  5
1A1A
330
41D
100
AcDbEntity
  8
0
 62
     7
100
AcDbLine
 10
195.7016557271899
 20
41.83032826694517
 30
0.0
 11
195.7016557271899
 21
44.83032826694517
 31
0.0
  0
LINE
  5
1A1B
330
41D
100
AcDbEntity
  8
0
 62
     7
100
AcDbLine
 10
200.2016557271899
 20
41.83032826694517
 30
0.0
 11
200.2016557271899
 21
44.83032826694517
 31
0.0
  0
LINE
  5
1A1C
330
41D
100
AcDbEntity
  8
0
 62
     7
100
AcDbLine
 10
221.0141557271899
 20
44.83032826694517
 30
0.0
 11
217.8266557271899
 21
44.83032826694517
 31
0.0
  0
LINE
  5
1A1D
330
41D
100
AcDbEntity
  8
0
 62
     7
100
AcDbLine
 10
221.0141557271899
 20
41.83032826694517
 30
0.0
 11
217.8266557271899
 21
41.83032826694517
 31
0.0
  0
LINE
  5
1A1E
330
41D
100
AcDbEntity
  8
0
 62
     7
100
AcDbLine
 10
217.8266557271899
 20
41.83032826694517
 30
0.0
 11
217.8266557271899
 21
44.83032826694517
 31
0.0
  0
CIRCLE
  5
1A1F
330
41D
100
AcDbEntity
  8
0
 62
     7
100
AcDbCircle
 10
220.0766557271899
 20
43.33032826694517
 30
0.0
 40
0.28125
  0
LINE
  5
1A20
330
41D
100
AcDbEntity
  8
0
 62
     7
100
AcDbLine
 10
222.3266557271899
 20
44.83032826694517
 30
0.0
 11
222.0766557271899
 21
44.83032826694517
 31
0.0
  0
LINE
  5
1A21
330
41D
100
AcDbEntity
  8
0
 62
     7
100
AcDbLine
 10
222.3266557271899
 20
41.83032826694517
 30
0.0
 11
222.0766557271899
 21
41.83032826694517
 31
0.0
  0
LINE
  5
1A22
330
41D
100
AcDbEntity
  8
0
 62
     7
100
AcDbLine
 10
222.3266557271899
 20
41.83032826694517
 30
0.0
 11
222.3266557271899
 21
44.83032826694517
 31
0.0
  0
CIRCLE
  5
1A23
330
41D
100
AcDbEntity
  8
0
 62
     7
100
AcDbCircle
 10
43.45634709526206
 20
165.3303282669452
 30
0.0
 40
0.28125
  0
LINE
  5
1A24
330
41D
100
AcDbEntity
  8
0
 62
     7
100
AcDbLine
 10
42.51884709526206
 20
166.8303282669451
 30
0.0
 11
45.70634709526205
 21
166.8303282669451
 31
0.0
  0
LINE
  5
1A25
330
41D
100
AcDbEntity
  8
0
 62
     7
100
AcDbLine
 10
42.51884709526206
 20
163.8303282669451
 30
0.0
 11
45.70634709526205
 21
163.8303282669451
 31
0.0
  0
LINE
  5
1A26
330
41D
100
AcDbEntity
  8
0
 62
     7
100
AcDbLine
 10
41.20634709526206
 20
163.8303282669451
 30
0.0
 11
41.20634709526206
 21
166.8303282669451
 31
0.0
  0
LINE
  5
1A27
330
41D
100
AcDbEntity
  8
0
 62
     7
100
AcDbLine
 10
41.20634709526206
 20
163.8303282669451
 30
0.0
 11
41.45634709526206
 21
163.8303282669451
 31
0.0
  0
LINE
  5
1A28
330
41D
100
AcDbEntity
  8
0
 62
     7
100
AcDbLine
 10
41.20634709526206
 20
166.8303282669451
 30
0.0
 11
41.45634709526206
 21
166.8303282669451
 31
0.0
  0
LINE
  5
1A29
330
41D
100
AcDbEntity
  8
0
 62
     7
100
AcDbLine
 10
45.70634709526205
 20
163.8303282669451
 30
0.0
 11
45.70634709526205
 21
166.8303282669451
 31
0.0
  0
LINE
  5
1A2A
330
41D
100
AcDbEntity
  8
0
 62
     7
100
AcDbLine
 10
66.51884709526206
 20
166.8303282669451
 30
0.0
 11
63.33134709526206
 21
166.8303282669451
 31
0.0
  0
LINE
  5
1A2B
330
41D
100
AcDbEntity
  8
0
 62
     7
100
AcDbLine
 10
66.51884709526206
 20
163.8303282669451
 30
0.0
 11
63.33134709526206
 21
163.8303282669451
 31
0.0
  0
LINE
  5
1A2C
330
41D
100
AcDbEntity
  8
0
 62
     7
100
AcDbLine
 10
63.33134709526206
 20
163.8303282669451
 30
0.0
 11
63.33134709526206
 21
166.8303282669451
 31
0.0
  0
LINE
  5
1A2D
330
41D
100
AcDbEntity
  8
0
 62
     7
100
AcDbLine
 10
67.83134709526206
 20
163.8303282669451
 30
0.0
 11
67.83134709526206
 21
166.8303282669451
 31
0.0
  0
CIRCLE
  5
1A2E
330
41D
100
AcDbEntity
  8
0
 62
     7
100
AcDbCircle
 10
65.58134709526206
 20
165.3303282669452
 30
0.0
 40
0.28125
  0
LINE
  5
1A2F
330
41D
100
AcDbEntity
  8
0
 62
     7
100
AcDbLine
 10
67.83134709526206
 20
163.8303282669451
 30
0.0
 11
67.58134709526206
 21
163.8303282669451
 31
0.0
  0
LINE
  5
1A30
330
41D
100
AcDbEntity
  8
0
 62
     7
100
AcDbLine
 10
67.83134709526206
 20
166.8303282669451
 30
0.0
 11
67.58134709526206
 21
166.8303282669451
 31
0.0
  0
LINE
  5
1A31
330
41D
100
AcDbEntity
  8
0
 62
     7
100
AcDbLine
 10
42.51884709526206
 20
144.8303282669451
 30
0.0
 11
45.70634709526205
 21
144.8303282669451
 31
0.0
  0
LINE
  5
1A32
330
41D
100
AcDbEntity
  8
0
 62
     7
100
AcDbLine
 10
42.51884709526206
 20
147.8303282669451
 30
0.0
 11
45.70634709526205
 21
147.8303282669451
 31
0.0
  0
LINE
  5
1A33
330
41D
100
AcDbEntity
  8
0
 62
     7
100
AcDbLine
 10
41.20634709526206
 20
144.8303282669451
 30
0.0
 11
41.20634709526206
 21
147.8303282669451
 31
0.0
  0
LINE
  5
1A34
330
41D
100
AcDbEntity
  8
0
 62
     7
100
AcDbLine
 10
41.20634709526206
 20
144.8303282669451
 30
0.0
 11
41.45634709526206
 21
144.8303282669451
 31
0.0
  0
CIRCLE
  5
1A35
330
41D
100
AcDbEntity
  8
0
 62
     7
100
AcDbCircle
 10
43.45634709526206
 20
146.3303282669452
 30
0.0
 40
0.28125
  0
LINE
  5
1A36
330
41D
100
AcDbEntity
  8
0
 62
     7
100
AcDbLine
 10
41.20634709526206
 20
147.8303282669451
 30
0.0
 11
41.45634709526206
 21
147.8303282669451
 31
0.0
  0
LINE
  5
1A37
330
41D
100
AcDbEntity
  8
0
 62
     7
100
AcDbLine
 10
45.70634709526205
 20
144.8303282669451
 30
0.0
 11
45.70634709526205
 21
147.8303282669451
 31
0.0
  0
LINE
  5
1A38
330
41D
100
AcDbEntity
  8
0
 62
     7
100
AcDbLine
 10
66.51884709526206
 20
144.8303282669451
 30
0.0
 11
63.33134709526206
 21
144.8303282669451
 31
0.0
  0
LINE
  5
1A39
330
41D
100
AcDbEntity
  8
0
 62
     7
100
AcDbLine
 10
66.51884709526206
 20
147.8303282669451
 30
0.0
 11
63.33134709526206
 21
147.8303282669451
 31
0.0
  0
LINE
  5
1A3A
330
41D
100
AcDbEntity
  8
0
 62
     7
100
AcDbLine
 10
63.33134709526206
 20
144.8303282669451
 30
0.0
 11
63.33134709526206
 21
147.8303282669451
 31
0.0
  0
LINE
  5
1A3B
330
41D
100
AcDbEntity
  8
0
 62
     7
100
AcDbLine
 10
67.83134709526206
 20
144.8303282669451
 30
0.0
 11
67.83134709526206
 21
147.8303282669451
 31
0.0
  0
CIRCLE
  5
1A3C
330
41D
100
AcDbEntity
  8
0
 62
     7
100
AcDbCircle
 10
65.58134709526206
 20
146.3303282669452
 30
0.0
 40
0.28125
  0
LINE
  5
1A3D
330
41D
100
AcDbEntity
  8
0
 62
     7
100
AcDbLine
 10
67.83134709526206
 20
144.8303282669451
 30
0.0
 11
67.58134709526206
 21
144.8303282669451
 31
0.0
  0
LINE
  5
1A3E
330
41D
100
AcDbEntity
  8
0
 62
     7
100
AcDbLine
 10
67.83134709526206
 20
147.8303282669451
 30
0.0
 11
67.58134709526206
 21
147.8303282669451
 31
0.0
  0
INSERT
  5
1A44
330
41D
100
AcDbEntity
  8
0
100
AcDbBlockReference
  2
Ldr-trd
 10
137.8983351305785
 20
179.8303282669452
 30
0.0
  0
INSERT
  5
1A45
330
41D
100
AcDbEntity
  8
0
100
AcDbBlockReference
  2
Ldr-trd
 10
137.8983351305785
 20
167.8303282669451
 30
0.0
  0
INSERT
  5
1A46
330
41D
100
AcDbEntity
  8
0
100
AcDbBlockReference
  2
Ldr-trd
 10
137.8983351305785
 20
155.8303282669452
 30
0.0
  0
INSERT
  5
1A47
330
41D
100
AcDbEntity
  8
0
100
AcDbBlockReference
  2
Ldr-trd
 10
137.8983351305785
 20
143.8303282669451
 30
0.0
  0
INSERT
  5
1A48
330
41D
100
AcDbEntity
  8
0
100
AcDbBlockReference
  2
Ldr-trd
 10
137.8983351305785
 20
131.8303282669452
 30
0.0
  0
INSERT
  5
1A49
330
41D
100
AcDbEntity
  8
0
100
AcDbBlockReference
  2
Ldr-trd
 10
137.8983351305785
 20
119.8303282669451
 30
0.0
  0
INSERT
  5
1A4A
330
41D
100
AcDbEntity
  8
0
100
AcDbBlockReference
  2
Ldr-trd
 10
137.8983351305785
 20
107.8303282669452
 30
0.0
  0
INSERT
  5
1A4B
330
41D
100
AcDbEntity
  8
0
100
AcDbBlockReference
  2
Ldr-trd
 10
137.8983351305785
 20
95.83032826694518
 30
0.0
  0
INSERT
  5
1A4C
330
41D
100
AcDbEntity
  8
0
100
AcDbBlockReference
  2
Ldr-trd
 10
137.8983351305785
 20
83.83032826694517
 30
0.0
  0
INSERT
  5
1A4D
330
41D
100
AcDbEntity
  8
0
100
AcDbBlockReference
  2
Ldr-trd
 10
137.8983351305785
 20
71.83032826694518
 30
0.0
  0
INSERT
  5
1A4E
330
41D
100
AcDbEntity
  8
0
100
AcDbBlockReference
  2
Ldr-trd
 10
137.8983351305785
 20
59.83032826694517
 30
0.0
  0
INSERT
  5
1A4F
330
41D
100
AcDbEntity
  8
0
100
AcDbBlockReference
  2
Ldr-trd
 10
137.8983351305785
 20
47.83032826694517
 30
0.0
  0
INSERT
  5
1A53
330
41D
100
AcDbEntity
  8
0
100
AcDbBlockReference
  2
Ldr-trd
 10
115.9622003397623
 20
179.8303282669452
 30
0.0
 41
-1.0
  0
INSERT
  5
1A54
330
41D
100
AcDbEntity
  8
0
100
AcDbBlockReference
  2
Ldr-trd
 10
115.9622003397623
 20
167.8303282669451
 30
0.0
 41
-1.0
  0
INSERT
  5
1A55
330
41D
100
AcDbEntity
  8
0
100
AcDbBlockReference
  2
Ldr-trd
 10
115.9622003397623
 20
155.8303282669452
 30
0.0
 41
-1.0
  0
INSERT
  5
1A56
330
41D
100
AcDbEntity
  8
0
100
AcDbBlockReference
  2
Ldr-trd
 10
115.9622003397623
 20
143.8303282669451
 30
0.0
 41
-1.0
  0
INSERT
  5
1A57
330
41D
100
AcDbEntity
  8
0
100
AcDbBlockReference
  2
Ldr-trd
 10
118.849365490949
 20
179.8303282669452
 30
0.0
 41
-1.0
  0
INSERT
  5
1A58
330
41D
100
AcDbEntity
  8
0
100
AcDbBlockReference
  2
Ldr-trd
 10
121.7365306421358
 20
179.8303282669452
 30
0.0
 41
-1.0
  0
INSERT
  5
1A59
330
41D
100
AcDbEntity
  8
0
100
AcDbBlockReference
  2
Ldr-trd
 10
124.6236957933225
 20
179.8303282669452
 30
0.0
 41
-1.0
  0
INSERT
  5
1A5A
330
41D
100
AcDbEntity
  8
0
100
AcDbBlockReference
  2
Ldr-trd
 10
127.4177277523335
 20
179.8303282669452
 30
0.0
 41
-1.0
  0
INSERT
  5
1A5B
330
41D
100
AcDbEntity
  8
0
100
AcDbBlockReference
  2
Ldr-trd
 10
130.0254866244488
 20
179.8303282669452
 30
0.0
 41
-1.0
  0
INSERT
  5
1A5C
330
41D
100
AcDbEntity
  8
0
100
AcDbBlockReference
  2
Ldr-trd
 10
132.6798174546874
 20
179.8303282669452
 30
0.0
 41
-1.0
  0
INSERT
  5
1A5D
330
41D
100
AcDbEntity
  8
0
100
AcDbBlockReference
  2
Ldr-trd
 10
135.2410124117325
 20
179.8303282669452
 30
0.0
 41
-1.0
  0
LEADER
  5
1A61
330
41D
100
AcDbEntity
  8
0
100
AcDbLeader
  3
STANDARD
 73
     0
 40
2.296875
 41
2.296875
 76
     3
 10
281.3935714206182
 20
91.77600114996725
 30
0.0
 10
291.5888769214308
 20
73.14286521849402
 30
0.0
 10
288.2239176896853
 20
73.14286521849402
 30
0.0
340
1A62
213
0.0
223
1.378125
233
0.0
1001
ACAD
1000
DSTYLE
1002
{
1070
   147
1040
0.0625
1070
    77
1070
     0
1002
}
  0
MTEXT
  5
1A62
102
{ACAD_REACTORS
330
1A61
102
}
330
41D
100
AcDbEntity
  8
0
100
AcDbMText
 10
287.5551142101392
 20
70.74303924353022
 30
0.0
 40
2.296875
 41
0.0
 71
     9
 72
     1
  1
\A1; 
  7
ROMANS
 73
     1
 44
1.0
1001
ACAD
1000
MTEXTBEGIN
1070
    73
1070
     1
1070
    44
1040
1.0
1070
    74
1070
     0
1000
MTEXTEND
  0
TEXT
  5
21EC
330
41D
100
AcDbEntity
  8
0
100
AcDbText
 10
233.1891339517393
 20
22.11606141032562
 30
0.0
 40
2.125
  1
LADDER RATED AT 1,500 LBS
  7
ROMANS
100
AcDbText
  0
TEXT
  5
21EF
330
41D
100
AcDbEntity
  8
0
100
AcDbText
 10
43.99059191041017
 20
24.12495266065057
 30
0.0
 40
2.125
  1
LADDERS MANUFACTURED BY PRECISION LADDERS, LLC
  7
ROMANS
100
AcDbText
  0
TEXT
  5
21F0
330
41D
100
AcDbEntity
  8
0
100
AcDbText
 10
43.99059191041017
 20
20.76897051779347
 30
0.0
 40
2.125
  1
COMPLY WITH OSHA 1910 SUBPART D AND ANSI 14.3
  7
ROMANS
100
AcDbText
  0
LINE
  5
21F1
330
41D
100
AcDbEntity
  8
0
100
AcDbLine
 10
342.4011316270828
 20
27.7817270207938
 30
0.0
 11
8.276131627082879
 21
27.78172702079397
 31
0.0
  0
LINE
  5
21F3
330
41D
100
AcDbEntity
  8
0
100
AcDbLine
 10
175.3386316270828
 20
27.78172702079384
 30
0.0
 11
175.3386316270828
 21
19.02889762149631
 31
0.0
  0
TEXT
  5
26B5
330
41D
100
AcDbEntity
  8
0
 62
     7
100
AcDbText
 10
26.35610494706855
 20
4.566671222210615
 30
0.0
 40
1.731076841456963
  1
Ph: (423) 586-2265 Fax: (423) 586-2091
  7
CAT_BORDER$0$ROMANS
100
AcDbText
  0
TEXT
  5
26B6
330
41D
100
AcDbEntity
  8
0
 62
     7
100
AcDbText
 10
25.38647877966313
 20
7.369367060759899
 30
0.0
 40
1.731076841456963
  1
P.O. BOX 2279 Morristown, TN 37816-2279
  7
CAT_BORDER$0$ROMANS
100
AcDbText
  0
POLYLINE
  5
26B7
330
41D
100
AcDbEntity
  8
0
 62
     7
100
AcDb2dPolyline
 66
     1
 10
0.0
 20
0.0
 30
0.0
1001
ACAD
1000
ASC_BOUNDS
1002
{
1070
    19
1002
}
  0
VERTEX
  5
26B8
330
26B7
100
AcDbEntity
  8
0
 62
     7
100
AcDbVertex
100
AcDb2dVertex
 10
18.92764882020709
 20
8.075934235113752
 30
0.0
  0
VERTEX
  5
26B9
330
26B7
100
AcDbEntity
  8
0
 62
     7
100
AcDbVertex
100
AcDb2dVertex
 10
19.20453038848907
 20
8.217014449961205
 30
0.0
1001
ACAD
1000
ASC_BOUNDS
1002
{
1070
    19
1002
}
  0
VERTEX
  5
26BA
330
26B7
100
AcDbEntity
  8
0
 62
     7
100
AcDbVertex
100
AcDb2dVertex
 10
21.06720738188373
 20
4.489637274600725
 30
0.0
1001
ACAD
1000
ASC_BOUNDS
1002
{
1070
    19
1002
}
  0
VERTEX
  5
26BB
330
26B7
100
AcDbEntity
  8
0
 62
     7
100
AcDbVertex
100
AcDb2dVertex
 10
20.46869027548765
 20
4.493413742167806
 30
0.0
  0
VERTEX
  5
26BC
330
26B7
100
AcDbEntity
  8
0
 62
     7
100
AcDbVertex
100
AcDb2dVertex
 10
18.72898714770929
 20
7.974709615461754
 30
0.0
  0
SEQEND
  5
26BD
330
26B7
100
AcDbEntity
  8
0
 62
     7
  0
TEXT
  5
26BE
330
41D
100
AcDbEntity
  8
0
 62
     7
100
AcDbText
 10
19.22980530826204
 20
10.31366266628054
 30
0.0
 40
2.829596651521715
  1
Precision Ladders, LLC
  7
CAT_BORDER$0$STYLE1
100
AcDbText
  0
CIRCLE
  5
26BF
330
41D
100
AcDbEntity
  8
0
100
AcDbCircle
 10
17.04192441554056
 20
9.898805855763654
 30
0.0
 40
7.759941921209668
1001
ACAD
1000
ASC_BOUNDS
1002
{
1070
    19
1002
}
  0
INSERT
  5
26C0
330
41D
100
AcDbEntity
  8
0
100
AcDbBlockReference
  2
*X23
 10
40.29264424441352
 20
184.0219922875685
 30
0.0
 41
0.62787873915258
 42
0.6278787391525807
 43
0.6278787391525807
1001
ACAD
1000
HATCH
1002
{
1070
    19
1000
ANSI31
1040
0.8843871093750001
1040
0.0
1002
}
  0
LWPOLYLINE
  5
26C1
330
41D
100
AcDbEntity
  8
0
 62
     7
100
AcDbPolyline
 90
        4
 70
     1
 43
0.0
 10
11.89135025098557
 20
13.86209205208749
 10
11.89135025098557
 20
14.42389860259396
 10
17.87459001387879
 20
14.42389860259396
 10
17.87459001387879
 20
13.86209205208749
1001
ACAD
1000
ASC_BOUNDS
1002
{
1070
    19
1005
0
1005
0
1002
}
  0
LINE
  5
26C2
330
41D
100
AcDbEntity
  8
0
 62
     7
100
AcDbLine
 10
12.10012234127741
 20
13.80145600615583
 30
0.0
 11
14.58690699833561
 21
8.920866313284388
 31
0.0
1001
ACAD
1000
ASC_BOUNDS
1002
{
1070
    19
1002
}
  0
LWPOLYLINE
  5
26C3
330
41D
100
AcDbEntity
  8
0
 62
     7
100
AcDbPolyline
 90
        4
 70
     0
 43
0.0
 10
11.97367004682223
 20
13.85962853150682
 10
14.60685618010109
 20
8.691709763383197
 10
14.59484242085711
 20
8.685588447304311
 10
11.96165628757825
 20
13.85350721542788
1001
ACAD
1000
ASC_BOUNDS
1002
{
1070
    19
1002
}
  0
LINE
  5
26C4
330
41D
100
AcDbEntity
  8
0
 62
     7
100
AcDbLine
 10
12.02503634600246
 20
13.7631977806626
 30
0.0
 11
12.10012234127741
 21
13.80145600615583
 31
0.0
1001
ACAD
1000
ASC_BOUNDS
1002
{
1070
    19
1002
}
  0
LINE
  5
26C5
330
41D
100
AcDbEntity
  8
0
 62
     7
100
AcDbLine
 10
12.10012234127741
 20
13.80145600615583
 30
0.0
 11
12.21912728203517
 21
13.86209205208749
 31
0.0
1001
ACAD
1000
ASC_BOUNDS
1002
{
1070
    19
1002
}
  0
LINE
  5
26C6
330
41D
100
AcDbEntity
  8
0
 62
     7
100
AcDbLine
 10
12.10012234127741
 20
13.80145600615583
 30
0.0
 11
12.25315524325022
 21
13.50111202505608
 31
0.0
1001
ACAD
1000
ASC_BOUNDS
1002
{
1070
    19
1002
}
  0
LINE
  5
26C7
330
41D
100
AcDbEntity
  8
0
 62
     7
100
AcDbLine
 10
14.43897718737789
 20
11.83511144405061
 30
0.0
 11
13.85996479515463
 21
10.65881181552523
 31
0.0
1001
ACAD
1000
ASC_BOUNDS
1002
{
1070
    19
1005
0
1002
}
  0
LWPOLYLINE
  5
26C8
330
41D
100
AcDbEntity
  8
0
 62
     7
100
AcDbPolyline
 90
        2
 70
     0
 43
0.0
 10
14.3031469268296
 20
11.84264134878684
 10
13.74777953518975
 20
10.71437800718102
1001
ACAD
1000
ASC_BOUNDS
1002
{
1070
    19
1005
0
1002
}
  0
LINE
  5
26C9
330
41D
100
AcDbEntity
  8
0
 62
     7
100
AcDbLine
 10
13.20418115051325
 20
13.86209205208749
 30
0.0
 11
14.26874904565792
 21
11.77275991725308
 31
0.0
1001
ACAD
1000
ASC_BOUNDS
1002
{
1070
    19
1002
}
  0
LINE
  5
26CA
330
41D
100
AcDbEntity
  8
0
 62
     7
100
AcDbLine
 10
13.10960161569703
 20
13.86209205208749
 30
0.0
 11
14.22227564372813
 21
11.67834631547085
 31
0.0
1001
ACAD
1000
ASC_BOUNDS
1002
{
1070
    19
1002
}
  0
LINE
  5
26CB
330
41D
100
AcDbEntity
  8
0
 62
     7
100
AcDbLine
 10
13.0123685218087
 20
13.18668306333364
 30
0.0
 11
14.00539976805582
 21
11.23774950715419
 31
0.0
1001
ACAD
1000
ASC_BOUNDS
1002
{
1070
    19
1002
}
  0
LINE
  5
26CC
330
41D
100
AcDbEntity
  8
0
 62
     7
100
AcDbLine
 10
14.93928728831443
 20
8.642935949460177
 30
0.0
 11
18.72898714770929
 21
7.974709615461754
 31
0.0
1001
ACAD
1000
ASC_BOUNDS
1002
{
1070
    19
1002
}
  0
POLYLINE
  5
26CD
330
41D
100
AcDbEntity
  8
0
 62
     7
100
AcDb2dPolyline
 66
     1
 10
0.0
 20
0.0
 30
0.0
1001
ACAD
1000
ASC_BOUNDS
1002
{
1070
    19
1002
}
  0
VERTEX
  5
26CE
330
26CD
100
AcDbEntity
  8
0
 62
     7
100
AcDbVertex
100
AcDb2dVertex
 10
15.03024926965792
 20
9.026511960831378
 30
0.0
  0
VERTEX
  5
26CF
330
26CD
100
AcDbEntity
  8
0
 62
     7
100
AcDbVertex
100
AcDb2dVertex
 10
15.06245163507693
 20
9.163168408074803
 30
0.0
1001
ACAD
1000
ASC_BOUNDS
1002
{
1070
    19
1002
}
  0
VERTEX
  5
26D0
330
26CD
100
AcDbEntity
  8
0
 62
     7
100
AcDbVertex
100
AcDb2dVertex
 10
18.83570733341967
 20
8.497841623344942
 30
0.0
1001
ACAD
1000
ASC_BOUNDS
1002
{
1070
    19
1002
}
  0
VERTEX
  5
26D1
330
26CD
100
AcDbEntity
  8
0
 62
     7
100
AcDbVertex
100
AcDb2dVertex
 10
18.76956942231297
 20
8.17363999265868
 30
0.0
  0
SEQEND
  5
26D2
330
26CD
100
AcDbEntity
  8
0
 62
     7
  0
LINE
  5
26D3
330
41D
100
AcDbEntity
  8
0
 62
     7
100
AcDbLine
 10
14.29324841876008
 20
11.53905440158838
 30
0.0
 11
15.38143089281128
 21
9.40337604610897
 31
0.0
1001
ACAD
1000
ASC_BOUNDS
1002
{
1070
    19
1005
0
1002
}
  0
LWPOLYLINE
  5
26D4
330
41D
100
AcDbEntity
  8
0
 62
     7
100
AcDbPolyline
 90
        2
 70
     0
 43
0.0
 10
14.33972182068984
 20
11.63346800337055
 10
15.45401076479466
 20
9.446552815502197
1001
ACAD
1000
ASC_BOUNDS
1002
{
1070
    19
1002
}
  0
LWPOLYLINE
  5
26D5
330
41D
100
AcDbEntity
  8
0
 62
     7
100
AcDbPolyline
 90
        3
 70
     0
 43
0.0
 10
13.74878815447196
 20
10.57432888546969
 10
13.95076750757878
 20
10.67284079819737
 10
13.90809474827282
 20
10.75659080391012
1001
ACAD
1000
ASC_BOUNDS
1002
{
1070
    19
1002
}
  0
CIRCLE
  5
26D6
330
41D
100
AcDbEntity
  8
0
 62
     7
100
AcDbCircle
 10
13.82887604977194
 20
10.7357692709412
 30
0.0
 40
0.0210677456439902
1001
ACAD
1000
ASC_BOUNDS
1002
{
1070
    19
1002
}
  0
LINE
  5
26D7
330
41D
100
AcDbEntity
  8
0
 62
     7
100
AcDbLine
 10
13.81867316972344
 20
10.85840282787008
 30
0.0
 11
13.64676621982344
 21
10.77455820620291
 31
0.0
1001
ACAD
1000
ASC_BOUNDS
1002
{
1070
    19
1002
}
  0
LINE
  5
26D8
330
41D
100
AcDbEntity
  8
0
 62
     7
100
AcDbLine
 10
13.61934404400819
 20
10.81643569976176
 30
0.0
 11
13.772376945981
 21
10.51609171866201
 31
0.0
1001
ACAD
1000
ASC_BOUNDS
1002
{
1070
    19
1002
}
  0
LINE
  5
26D9
330
41D
100
AcDbEntity
  8
0
 62
     7
100
AcDbLine
 10
13.85987647021363
 20
10.65868745134955
 30
0.0
 11
13.74756281513843
 21
10.71399366340695
 31
0.0
1001
ACAD
1000
ASC_BOUNDS
1002
{
1070
    19
1002
}
  0
LWPOLYLINE
  5
26DA
330
41D
100
AcDbEntity
  8
0
 62
     1
100
AcDbPolyline
 90
        2
 70
     1
 43
0.0
 10
13.84994379541593
 20
10.7357692709412
 42
-1.0
 10
13.80780830412796
 20
10.7357692709412
 42
-1.0
1001
ACAD
1000
ASC_BOUNDS
1002
{
1070
    19
1002
}
  0
LINE
  5
26DB
330
41D
100
AcDbEntity
  8
0
 62
     7
100
AcDbLine
 10
15.45461335053525
 20
9.446914885543318
 30
0.0
 11
15.38237901987311
 21
9.403512120906658
 31
0.0
1001
ACAD
1000
ASC_BOUNDS
1002
{
1070
    19
1002
}
  0
LINE
  5
26DC
330
41D
100
AcDbEntity
  8
0
 62
     7
100
AcDbLine
 10
14.87373101661632
 20
9.067010450124662
 30
0.0
 11
14.51004873501568
 21
8.881705072118997
 31
0.0
1001
ACAD
1000
ASC_BOUNDS
1002
{
1070
    19
1002
}
  0
POLYLINE
  5
26DD
330
41D
100
AcDbEntity
  8
0
 62
     7
100
AcDb2dPolyline
 66
     1
 10
0.0
 20
0.0
 30
0.0
1001
ACAD
1000
ASC_BOUNDS
1002
{
1070
    19
1002
}
  0
VERTEX
  5
26DE
330
26DD
100
AcDbEntity
  8
0
 62
     7
100
AcDbVertex
100
AcDb2dVertex
 10
14.93983870957307
 20
8.64283871901441
 30
0.0
  0
VERTEX
  5
26DF
330
26DD
100
AcDbEntity
  8
0
 62
     7
100
AcDbVertex
100
AcDb2dVertex
 10
15.01508520565163
 20
8.962160566581051
 30
0.0
1001
ACAD
1000
ASC_BOUNDS
1002
{
1070
    19
1002
}
  0
SEQEND
  5
26E0
330
26DD
100
AcDbEntity
  8
0
 62
     7
  0
LINE
  5
26E1
330
41D
100
AcDbEntity
  8
0
 62
     7
100
AcDbLine
 10
14.07637254308777
 20
11.09845759327161
 30
0.0
 11
14.7633621284267
 21
9.75016461591279
 31
0.0
1001
ACAD
1000
ASC_BOUNDS
1002
{
1070
    19
1002
}
  0
LINE
  5
26E2
330
41D
100
AcDbEntity
  8
0
 62
     7
100
AcDbLine
 10
14.80363529544576
 20
9.671124075231205
 30
0.0
 11
15.06245163507693
 21
9.163168408074803
 31
0.0
1001
ACAD
1000
ASC_BOUNDS
1002
{
1070
    19
1002
}
  0
LWPOLYLINE
  5
26E3
330
41D
100
AcDbEntity
  8
0
 62
     7
100
AcDbPolyline
 90
        4
 70
     0
 43
0.0
 10
15.15715300584226
 20
9.843546183226774
 10
14.57506459930671
 20
9.55964269793295
 10
14.53680637381352
 20
9.634728693207936
 10
15.11376343970977
 20
9.928703001547724
1001
ACAD
1000
ASC_BOUNDS
1002
{
1070
    19
1005
0
1002
}
  0
LWPOLYLINE
  5
26E4
330
41D
100
AcDbEntity
  8
0
 62
     7
100
AcDbPolyline
 90
        5
 70
     0
 43
0.0
 10
15.0624516351037
 20
9.163168408191701
 10
15.07762247033978
 20
9.128833456523377
 10
15.26454040640746
 20
8.751207122981632
 10
15.13866496189358
 20
8.688901144292515
 10
14.98011635166297
 20
9.039483658401596
1001
ACAD
1000
ASC_BOUNDS
1002
{
1070
    19
1002
}
  0
POLYLINE
  5
26E5
330
41D
100
AcDbEntity
  8
0
 62
     7
100
AcDb2dPolyline
 66
     1
 10
0.0
 20
0.0
 30
0.0
 70
     1
1001
ACAD
1000
ASC_BOUNDS
1002
{
1070
    19
1002
}
  0
VERTEX
  5
26E6
330
26E5
100
AcDbEntity
  8
0
 62
     7
100
AcDbVertex
100
AcDb2dVertex
 10
14.58879335544104
 20
9.139051668300069
 30
0.0
1001
ACAD
1000
ASC_BOUNDS
1002
{
1070
    19
1002
}
  0
VERTEX
  5
26E7
330
26E5
100
AcDbEntity
  8
0
 62
     7
100
AcDbVertex
100
AcDb2dVertex
 10
14.6148378907188
 20
9.264133292368136
 30
0.0
  0
VERTEX
  5
26E8
330
26E5
100
AcDbEntity
  8
0
 62
     7
100
AcDbVertex
100
AcDb2dVertex
 10
14.65109550527694
 20
9.254415857810244
 30
0.0
  0
VERTEX
  5
26E9
330
26E5
100
AcDbEntity
  8
0
 62
     7
100
AcDbVertex
100
AcDb2dVertex
 10
15.0624516351037
 20
9.163168408191701
 30
0.0
  0
VERTEX
  5
26EA
330
26E5
100
AcDbEntity
  8
0
 62
     7
100
AcDbVertex
100
AcDb2dVertex
 10
15.03203581856418
 20
9.026049698249508
 30
0.0
  0
VERTEX
  5
26EB
330
26E5
100
AcDbEntity
  8
0
 62
     7
100
AcDbVertex
100
AcDb2dVertex
 10
14.62411476584432
 20
9.131597684283601
 30
0.0
  0
SEQEND
  5
26EC
330
26E5
100
AcDbEntity
  8
0
 62
     7
  0
LWPOLYLINE
  5
26ED
330
41D
100
AcDbEntity
  8
0
 62
     7
100
AcDbPolyline
 90
        5
 70
     0
 43
0.0
 10
18.72898714770929
 20
7.974709615461754
 10
18.71233861697747
 20
8.008352884807997
 10
18.50918748562165
 20
8.377499983451418
 10
18.63223651850276
 20
8.445217027236562
 10
18.80586993234333
 20
8.101855412312659
1001
ACAD
1000
ASC_BOUNDS
1002
{
1070
    19
1002
}
  0
LINE
  5
26EE
330
41D
100
AcDbEntity
  8
0
 62
     7
100
AcDbLine
 10
18.75704529870133
 20
8.112247952452531
 30
0.0
 11
18.72898714770929
 21
7.974709615461754
 31
0.0
1001
ACAD
1000
ASC_BOUNDS
1002
{
1070
    19
1002
}
  0
POLYLINE
  5
26EF
330
41D
100
AcDbEntity
  8
0
 62
     7
100
AcDb2dPolyline
 66
     1
 10
0.0
 20
0.0
 30
0.0
 70
     1
1001
ACAD
1000
ASC_BOUNDS
1002
{
1070
    19
1002
}
  0
VERTEX
  5
26F0
330
26EF
100
AcDbEntity
  8
0
 62
     7
100
AcDbVertex
100
AcDb2dVertex
 10
19.20115000886967
 20
8.019386405597417
 30
0.0
1001
ACAD
1000
ASC_BOUNDS
1002
{
1070
    19
1002
}
  0
VERTEX
  5
26F1
330
26EF
100
AcDbEntity
  8
0
 62
     7
100
AcDbVertex
100
AcDb2dVertex
 10
19.18056550048049
 20
7.893291169717156
 30
0.0
  0
VERTEX
  5
26F2
330
26EF
100
AcDbEntity
  8
0
 62
     7
100
AcDbVertex
100
AcDb2dVertex
 10
19.14391986409316
 20
7.90142384957065
 30
0.0
  0
VERTEX
  5
26F3
330
26EF
100
AcDbEntity
  8
0
 62
     7
100
AcDbVertex
100
AcDb2dVertex
 10
18.72898714770929
 20
7.974709615461754
 30
0.0
  0
VERTEX
  5
26F4
330
26EF
100
AcDbEntity
  8
0
 62
     7
100
AcDbVertex
100
AcDb2dVertex
 10
18.75341573633966
 20
8.113020520923024
 30
0.0
  0
VERTEX
  5
26F5
330
26EF
100
AcDbEntity
  8
0
 62
     7
100
AcDbVertex
100
AcDb2dVertex
 10
19.16553805057877
 20
8.025298455773221
 30
0.0
  0
SEQEND
  5
26F6
330
26EF
100
AcDbEntity
  8
0
 62
     7
  0
LINE
  5
26F7
330
41D
100
AcDbEntity
  8
0
 62
     1
100
AcDbLine
 10
18.83570733341967
 20
8.497841623344942
 30
0.0
 11
18.76956942231297
 21
8.17363999265868
 31
0.0
1001
ACAD
1000
ASC_BOUNDS
1002
{
1070
    19
1002
}
  0
LINE
  5
26F8
330
41D
100
AcDbEntity
  8
0
 62
     1
100
AcDbLine
 10
18.76956942231297
 20
8.17363999265868
 30
0.0
 11
18.80586993234333
 21
8.101855412312659
 31
0.0
1001
ACAD
1000
ASC_BOUNDS
1002
{
1070
    19
1002
}
  0
LINE
  5
26F9
330
41D
100
AcDbEntity
  8
0
 62
     1
100
AcDbLine
 10
18.80586993234333
 20
8.101855412312659
 30
0.0
 11
18.92764882020711
 21
8.075934235113752
 31
0.0
  0
LINE
  5
26FA
330
41D
100
AcDbEntity
  8
0
 62
     1
100
AcDbLine
 10
18.92764882020711
 20
8.075934235113752
 30
0.0
 11
19.20453038848907
 21
8.217014449961205
 31
0.0
1001
ACAD
1000
ASC_BOUNDS
1002
{
1070
    19
1002
}
  0
LINE
  5
26FB
330
41D
100
AcDbEntity
  8
0
 62
     7
100
AcDbLine
 10
12.66823045322128
 20
13.86209205208749
 30
0.0
 11
12.97611110655229
 21
13.25784224741835
 31
0.0
1001
ACAD
1000
ASC_BOUNDS
1002
{
1070
    19
1002
}
  0
LWPOLYLINE
  5
26FC
330
41D
100
AcDbEntity
  8
0
 62
     7
100
AcDbPolyline
 90
        4
 70
     0
 43
0.0
 10
13.32962881694881
 20
13.43026435541392
 10
12.74980442656106
 20
13.14746510457639
 10
12.78674639383393
 20
13.07172284716137
 10
13.36276983309178
 20
13.36522144896851
1001
ACAD
1000
ASC_BOUNDS
1002
{
1070
    19
1002
}
  0
LINE
  5
26FD
330
41D
100
AcDbEntity
  8
0
 62
     7
100
AcDbLine
 10
15.21315808726711
 20
13.86209205208749
 30
0.0
 11
14.49363886847374
 21
12.56162221086249
 31
0.0
1001
ACAD
1000
ASC_BOUNDS
1002
{
1070
    19
1002
}
  0
LINE
  5
26FE
330
41D
100
AcDbEntity
  8
0
 62
     7
100
AcDbLine
 10
15.05264240432544
 20
13.86209205208749
 30
0.0
 11
14.51655949995268
 21
12.89316776024961
 31
0.0
1001
ACAD
1000
ASC_BOUNDS
1002
{
1070
    19
1002
}
  0
CIRCLE
  5
26FF
330
41D
100
AcDbEntity
  8
0
 62
     7
100
AcDbCircle
 10
14.37669750911326
 20
11.86942160223352
 30
0.0
 40
0.0210677456439902
1001
ACAD
1000
ASC_BOUNDS
1002
{
1070
    19
1002
}
  0
LWPOLYLINE
  5
2700
330
41D
100
AcDbEntity
  8
0
 62
     1
100
AcDbPolyline
 90
        2
 70
     1
 43
0.0
 10
14.39776525475726
 20
11.86942160223352
 42
-1.0
 10
14.35562976346928
 20
11.86942160223352
 42
-1.0
1001
ACAD
1000
ASC_BOUNDS
1002
{
1070
    19
1002
}
  0
LINE
  5
2701
330
41D
100
AcDbEntity
  8
0
 62
     1
100
AcDbLine
 10
14.44326331148472
 20
11.83294282290772
 30
0.0
 11
14.43790972252004
 21
11.83294282290772
 31
0.0
  0
LINE
  5
2702
330
41D
100
AcDbEntity
  8
0
 62
     7
100
AcDbLine
 10
14.58354383035693
 20
13.86209205208749
 30
0.0
 11
14.44259364553951
 21
11.82325614547412
 31
0.0
1001
ACAD
1000
ASC_BOUNDS
1002
{
1070
    19
1005
0
1002
}
  0
LWPOLYLINE
  5
2703
330
41D
100
AcDbEntity
  8
0
 62
     7
100
AcDbPolyline
 90
        3
 70
     0
 43
0.0
 10
14.44275696064183
 20
13.86209205208749
 10
14.30247644176963
 20
11.83294282290772
 10
14.44292807939623
 20
11.83294282290772
1001
ACAD
1000
ASC_BOUNDS
1002
{
1070
    19
1005
0
1002
}
  0
TEXT
  5
2704
330
41D
100
AcDbEntity
  8
0
 62
     7
100
AcDbText
 10
34.24102148810003
 20
1.438482753948402
 30
0.0
 40
1.990738367675508
  1
www.PrecisionLadders.com
  7
CAT_BORDER$0$ROMANS
100
AcDbText
  0
LWPOLYLINE
  5
2705
330
41D
100
AcDbEntity
  8
0
 62
     7
100
AcDbPolyline
 90
        9
 70
     0
 43
0.0
 10
20.87122750076786
 20
4.413014480987978
 10
20.8714933580794
 20
4.455149133543463
 10
20.74508940041302
 20
4.455946705478166
 10
20.6608200953021
 20
4.45647842010121
 10
20.66055423799054
 20
4.414343767545831
 42
0.4142135623730939
 10
20.67451050307184
 20
4.400210264256712
 10
20.85709399747884
 20
4.399058215906663
 42
0.4142135623730989
 10
20.87122750076785
 20
4.413014480987978
 42
-0.4142135623730944
 10
20.85709399747884
 20
4.399058215906663
1001
ACAD
1000
ASC_BOUNDS
1002
{
1070
    19
1002
}
  0
LINE
  5
2706
330
41D
100
AcDbEntity
  8
0
 62
     7
100
AcDbLine
 10
20.80657226019488
 20
4.49128180584868
 30
0.0
 11
20.80607334404963
 21
4.455561914662947
 31
0.0
1001
ACAD
1000
ASC_BOUNDS
1002
{
1070
    19
1002
}
  0
LINE
  5
2707
330
41D
100
AcDbEntity
  8
0
 62
     7
100
AcDbLine
 10
20.72932539717653
 20
4.491769210919854
 30
0.0
 11
20.80657226019488
 21
4.49128180584868
 31
0.0
1001
ACAD
1000
ASC_BOUNDS
1002
{
1070
    19
1002
}
  0
LINE
  5
2708
330
41D
100
AcDbEntity
  8
0
 62
     7
100
AcDbLine
 10
20.72912841910445
 20
4.460550951096189
 30
0.0
 11
20.72932539717653
 21
4.491769210919854
 31
0.0
1001
ACAD
1000
ASC_BOUNDS
1002
{
1070
    19
1002
}
  0
TEXT
  5
2709
330
41D
100
AcDbEntity
  8
0
100
AcDbText
 10
88.76359254310301
 20
1.182478041946543
 30
0.0
 40
1.3431825
  1
WORK ORDER: ( )
 50
90.0
 41
0.9
  7
CAT_BORDER$0$ROMANS
100
AcDbText
  0
TEXT
  5
270A
330
41D
100
AcDbEntity
  8
0
100
AcDbText
 10
90.78302361830839
 20
4.502957226113532
 30
0.0
 40
1.3431825
  1
CHECKED BY:
  7
CAT_BORDER$0$ROMANS
100
AcDbText
  0
TEXT
  5
270B
330
41D
100
AcDbEntity
  8
0
100
AcDbText
 10
90.78302361830839
 20
17.02414762149642
 30
0.0
 40
1.3431825
  1
DWG. CHECK
  7
CAT_BORDER$0$ROMANS
100
AcDbText
  0
TEXT
  5
270C
330
41D
100
AcDbEntity
  8
0
100
AcDbText
 10
90.78302361830839
 20
10.76355242380498
 30
0.0
 40
1.3431825
  1
BUILT BY:
  7
CAT_BORDER$0$ROMANS
100
AcDbText
  0
TEXT
  5
270D
330
41D
100
AcDbEntity
  8
0
100
AcDbText
 10
129.0623191270829
 20
4.502957226113532
 30
0.0
 40
1.3431825
  1
DRAWN BY:
  7
CAT_BORDER$0$ROMANS
100
AcDbText
  0
TEXT
  5
270E
330
41D
100
AcDbEntity
  8
0
100
AcDbText
 10
129.0623191270829
 20
10.76355242380498
 30
0.0
 40
1.3431825
  1
PURCHASE ORDER
  7
CAT_BORDER$0$ROMANS
100
AcDbText
  0
TEXT
  5
270F
330
41D
100
AcDbEntity
  8
0
100
AcDbText
 10
129.0623191270829
 20
17.02414762149642
 30
0.0
 40
1.3431825
  1
ARCH'T OR ENG'R.
  7
CAT_BORDER$0$ROMANS
100
AcDbText
  0
TEXT
  5
2710
330
41D
100
AcDbEntity
  8
0
100
AcDbText
 10
276.2473455485679
 20
10.25394174640189
 30
0.0
 40
1.3431825
  1
SERIAL#
  7
CAT_BORDER$0$ROMANS
100
AcDbText
  0
TEXT
  5
2711
330
41D
100
AcDbEntity
  8
0
100
AcDbText
 10
276.0773191270829
 20
17.02414762149642
 30
0.0
 40
1.3431825
  1
PRECISION REP
  7
CAT_BORDER$0$ROMANS
100
AcDbText
  0
TEXT
  5
2712
330
41D
100
AcDbEntity
  8
0
100
AcDbText
 10
182.5223191270829
 20
4.502957226113532
 30
0.0
 40
1.3431825
  1
DATE
  7
CAT_BORDER$0$ROMANS
100
AcDbText
  0
TEXT
  5
2713
330
41D
100
AcDbEntity
  8
0
100
AcDbText
 10
202.5698191270829
 20
4.502957226113532
 30
0.0
 40
1.3431825
  1
MODEL#
  7
CAT_BORDER$0$ROMANS
100
AcDbText
  0
TEXT
  5
2714
330
41D
100
AcDbEntity
  8
0
100
AcDbText
 10
182.5223191270829
 20
17.02414762149642
 30
0.0
 40
1.3431825
  1
PROJECT
  7
CAT_BORDER$0$ROMANS
100
AcDbText
  0
TEXT
  5
2715
330
41D
100
AcDbEntity
  8
0
100
AcDbText
 10
182.5223191270829
 20
10.76355242380498
 30
0.0
 40
1.3431825
  1
REVISION
  7
CAT_BORDER$0$ROMANS
100
AcDbText
  0
TEXT
  5
2716
330
41D
100
AcDbEntity
  8
0
100
AcDbText
 10
202.5698191270829
 20
10.76355242380498
 30
0.0
 40
1.3431825
  1
PURCHASER
  7
CAT_BORDER$0$ROMANS
100
AcDbText
  0
TEXT
  5
2717
330
41D
100
AcDbEntity
  8
0
100
AcDbText
 10
262.7123191270829
 20
4.502957226113532
 30
0.0
 40
1.3431825
  1
QTY.
  7
CAT_BORDER$0$ROMANS
100
AcDbText
  0
LINE
  5
2718
330
41D
100
AcDbEntity
  8
0
100
AcDbLine
 10
90.28183611830836
 20
6.507707226113561
 30
0.0
 11
275.5761316270829
 21
6.507707226113561
 31
0.0
  0
LINE
  5
2719
330
41D
100
AcDbEntity
  8
0
100
AcDbLine
 10
342.4011316270829
 20
0.2471120284221167
 30
0.0
 11
342.4011316270829
 21
242.5860662346064
 31
0.0
  0
LINE
  5
271A
330
41D
100
AcDbEntity
  8
0
100
AcDbLine
 10
342.4011316270829
 20
242.5860662346064
 30
0.0
 11
8.276131627082879
 21
242.5860662346064
 31
0.0
  0
LINE
  5
271B
330
41D
100
AcDbEntity
  8
0
100
AcDbLine
 10
8.276131627082879
 20
242.5860662346064
 30
0.0
 11
8.276131627082879
 21
0.2471120284221167
 31
0.0
  0
LINE
  5
271C
330
41D
100
AcDbEntity
  8
0
100
AcDbLine
 10
8.276131627082879
 20
0.2471120284221167
 30
0.0
 11
342.4011316270829
 21
0.2471120284221167
 31
0.0
  0
LINE
  5
271D
330
41D
100
AcDbEntity
  8
0
100
AcDbLine
 10
90.28183611830836
 20
0.2471120284221167
 30
0.0
 11
90.28183611830836
 21
19.0288976214964
 31
0.0
  0
LINE
  5
271E
330
41D
100
AcDbEntity
  8
0
100
AcDbLine
 10
128.5611316270829
 20
0.2471120284221167
 30
0.0
 11
128.5611316270829
 21
19.0288976214964
 31
0.0
  0
LINE
  5
271F
330
41D
100
AcDbEntity
  8
0
100
AcDbLine
 10
182.0211316270829
 20
0.2471120284221167
 30
0.0
 11
182.0211316270829
 21
19.0288976214964
 31
0.0
  0
LINE
  5
2720
330
41D
100
AcDbEntity
  8
0
100
AcDbLine
 10
202.0686316270829
 20
0.2471120284221167
 30
0.0
 11
202.0686316270829
 21
12.76830242380496
 31
0.0
  0
LINE
  5
2721
330
41D
100
AcDbEntity
  8
0
100
AcDbLine
 10
275.5761316270829
 20
0.2471120284221167
 30
0.0
 11
275.5761316270829
 21
19.0288976214964
 31
0.0
  0
LINE
  5
2722
330
41D
100
AcDbEntity
  8
0
100
AcDbLine
 10
262.2111316270829
 20
0.2471120284221167
 30
0.0
 11
262.2111316270829
 21
6.507707226113561
 31
0.0
  0
LINE
  5
2723
330
41D
100
AcDbEntity
  8
0
100
AcDbLine
 10
8.276131627082879
 20
19.0288976214964
 30
0.0
 11
342.4011316270829
 21
19.0288976214964
 31
0.0
  0
LINE
  5
2724
330
41D
100
AcDbEntity
  8
0
100
AcDbLine
 10
90.28183611830836
 20
12.76830242380496
 30
0.0
 11
342.4011316270829
 21
12.76830242380496
 31
0.0
  0
INSERT
  5
2725
330
41D
100
AcDbEntity
  8
0
100
AcDbBlockReference
  2
CAT_BORDER$0$LINETYPE
 10
515.5885382704992
 20
3.555996169939699
 30
0.0
 41
1.214999999999999
 42
1.215
 43
1.215
  0
INSERT
  5
2726
330
41D
100
AcDbEntity
  8
0
100
AcDbBlockReference
  2
CAT_BORDER$0$LINETYPE
 10
469.6228270010522
 20
-60.43936834787409
 30
0.0
 41
1.214999999999999
 42
1.215
 43
1.215
  0
TEXT
  5
27AB
330
41D
100
AcDbEntity
  8
0
100
AcDbText
 10
10.81468276542273
 20
29.53366495990797
 30
0.0
 40
2.125
  1
NOTE: FALL ARREST SYSTEM REQUIRED ON LADDERS EXCEEDING 24'-0" (SEE DETAIL FLH-09-FAS)
  7
ROMANS
100
AcDbText
  0
TEXT
  5
27C6
330
41D
100
AcDbEntity
  8
0
 62
     7
100
AcDbText
 10
13.93322726884906
 20
90.61887436177064
 30
0.0
 40
2.210999999999999
  1
BRACKETS ON RETURN SIDE
  7
ROMANS
 72
     4
 11
37.88572726884905
 21
91.72437436177062
 31
0.0
100
AcDbText
  0
TEXT
  5
27C7
330
41D
100
AcDbEntity
  8
0
 62
     7
100
AcDbText
 10
13.91761838449569
 20
94.3038743617706
 30
0.0
 40
2.210999999999999
  1
MAY REQUIRE EXTENDED
  7
ROMANS
 72
     4
 11
34.55361838449568
 21
95.30408864748489
 31
0.0
100
AcDbText
  0
TEXT
  5
27C8
330
41D
100
AcDbEntity
  8
0
 62
     7
100
AcDbText
 10
10.49008775296959
 20
92.30854334961813
 30
0.0
 40
4.421999999999999
  1
*
  7
ROMANS
 72
     4
 11
12.17465918154102
 21
95.46711477818957
 31
0.0
100
AcDbText
  0
LINE
  5
2873
330
41D
100
AcDbEntity
  8
0
100
AcDbLine
 10
222.7641557271899
 20
179.8303282669452
 30
0.0
 11
244.650209020049
 21
179.8303282669452
 31
0.0
  0
LINE
  5
2874
330
41D
100
AcDbEntity
  8
0
100
AcDbLine
 10
223.7641557271899
 20
35.83032826694517
 30
0.0
 11
244.6502090200489
 21
35.83032826694517
 31
0.0
  0
LINE
  5
2875
330
41D
100
AcDbEntity
  8
0
100
AcDbLine
 10
242.900209020049
 20
178.0803282669451
 30
0.0
 11
242.900209020049
 21
120.3808859195476
 31
0.0
  0
LINE
  5
2876
330
41D
100
AcDbEntity
  8
0
100
AcDbLine
 10
242.9002090200489
 20
37.58032826694517
 30
0.0
 11
242.900209020049
 21
95.36001967504194
 31
0.0
  0
SOLID
  5
2877
330
41D
100
AcDbEntity
  8
0
100
AcDbTrace
 10
242.6085423533823
 20
178.0803282669451
 30
0.0
 11
243.1918756867156
 21
178.0803282669451
 31
0.0
 12
242.900209020049
 22
179.8303282669452
 32
0.0
 13
242.900209020049
 23
179.8303282669452
 33
0.0
  0
SOLID
  5
2878
330
41D
100
AcDbEntity
  8
0
100
AcDbTrace
 10
242.6085423533823
 20
37.58032826694517
 30
0.0
 11
243.1918756867156
 21
37.58032826694517
 31
0.0
 12
242.9002090200489
 22
35.83032826694517
 32
0.0
 13
242.9002090200489
 23
35.83032826694517
 33
0.0
  0
MTEXT
  5
2879
330
41D
100
AcDbEntity
  8
0
100
AcDbMText
 10
242.9002090200489
 20
107.8303282669452
 30
0.0
 40
2.296875
 41
0.0
 71
     5
 72
     1
  1
\A1;\P\P\PWALL HEIGHT\P +6" 
  7
ROMANS
 73
     1
 44
1.0
1001
ACAD
1000
MTEXTBEGIN
1070
    73
1070
     1
1070
    44
1040
1.0
1070
    74
1070
     0
1000
MTEXTEND
  0
LINE
  5
2884
330
41D
100
AcDbEntity
  8
0
100
AcDbLine
 10
121.1802677351704
 20
173.8303282669451
 30
0.0
 11
80.32836181456406
 21
173.8303282669451
 31
0.0
  0
LINE
  5
2885
330
41D
100
AcDbEntity
  8
0
100
AcDbLine
 10
129.1802677351704
 20
35.83032826694517
 30
0.0
 11
80.32836181456403
 21
35.83032826694518
 31
0.0
  0
LINE
  5
2886
330
41D
100
AcDbEntity
  8
0
100
AcDbLine
 10
82.07836181456405
 20
172.0803282669451
 30
0.0
 11
82.07836181456405
 21
107.1944132114854
 31
0.0
  0
LINE
  5
2887
330
41D
100
AcDbEntity
  8
0
100
AcDbLine
 10
82.07836181456404
 20
37.58032826694518
 30
0.0
 11
82.07836181456404
 21
87.64085811456892
 31
0.0
  0
MTEXT
  5
2888
330
41D
100
AcDbEntity
  8
0
100
AcDbMText
 10
82.07836181456404
 20
97.55561637648748
 30
0.0
 40
2.296875
 41
0.0
 71
     5
 72
     1
  1
\A1;\P\P\PWALL HEIGHT
  7
ROMANS
 73
     1
 44
1.0
1001
ACAD
1000
MTEXTBEGIN
1070
    73
1070
     1
1070
    44
1040
1.0
1070
    74
1070
     0
1000
MTEXTEND
  0
SOLID
  5
2889
330
41D
100
AcDbEntity
  8
0
100
AcDbTrace
 10
81.78669514789739
 20
172.0803282669451
 30
0.0
 11
82.37002848123074
 21
172.0803282669451
 31
0.0
 12
82.07836181456405
 22
173.8303282669451
 32
0.0
 13
82.07836181456405
 23
173.8303282669451
 33
0.0
  0
SOLID
  5
288A
330
41D
100
AcDbEntity
  8
0
100
AcDbTrace
 10
81.78669514789737
 20
37.58032826694518
 30
0.0
 11
82.3700284812307
 21
37.58032826694518
 31
0.0
 12
82.07836181456404
 22
35.83032826694518
 32
0.0
 13
82.07836181456404
 23
35.83032826694518
 33
0.0
  0
ENDSEC
  0
SECTION
  2
OBJECTS
  0
DICTIONARY
  5
411
330
0
100
AcDbDictionary
281
     1
  3
ACAD_COLOR
350
21D2
  3
ACAD_GROUP
350
412
  3
ACAD_LAYOUT
350
11FC
  3
ACAD_MATERIAL
350
21BD
  3
ACAD_MLINESTYLE
350
413
  3
ACAD_PLOTSETTINGS
350
11FD
  3
ACAD_PLOTSTYLENAME
350
11FA
  3
ACAD_TABLESTYLE
350
21D3
  3
ACAD_VISUALSTYLE
350
21C1
  3
AcDbVariableDictionary
350
21DB
  3
DWGPROPS
350
288B
  0
DICTIONARY
  5
22B0
330
40D
100
AcDbDictionary
280
     1
281
     1
  0
DICTIONARY
  5
2727
330
41D
100
AcDbDictionary
280
     1
281
     1
  3
ACAD_SORTENTS
360
2728
  0
DICTIONARY
  5
21D2
102
{ACAD_REACTORS
330
411
102
}
330
411
100
AcDbDictionary
281
     1
  0
DICTIONARY
  5
412
102
{ACAD_REACTORS
330
411
102
}
330
411
100
AcDbDictionary
281
     1
  0
DICTIONARY
  5
11FC
102
{ACAD_REACTORS
330
411
102
}
330
411
100
AcDbDictionary
281
     1
  3
Layout1
350
11FF
  3
Model
350
11FE
  0
DICTIONARY
  5
21BD
102
{ACAD_REACTORS
330
411
102
}
330
411
100
AcDbDictionary
281
     1
  3
ByBlock
350
21BF
  3
ByLayer
350
21BE
  3
Global
350
21C0
  0
DICTIONARY
  5
413
102
{ACAD_REACTORS
330
411
102
}
330
411
100
AcDbDictionary
281
     1
  3
CAT_BORDER$0$STANDARD
350
1D81
  3
STANDARD
350
420
  0
DICTIONARY
  5
11FD
102
{ACAD_REACTORS
330
411
102
}
330
411
100
AcDbDictionary
281
     1
  0
ACDBDICTIONARYWDFLT
  5
11FA
102
{ACAD_REACTORS
330
411
102
}
330
411
100
AcDbDictionary
281
     1
  3
Normal
350
11FB
100
AcDbDictionaryWithDefault
340
11FB
  0
DICTIONARY
  5
21D3
102
{ACAD_REACTORS
330
411
102
}
330
411
100
AcDbDictionary
281
     1
  3
Standard
350
21D4
  0
DICTIONARY
  5
21C1
102
{ACAD_REACTORS
330
411
102
}
330
411
100
AcDbDictionary
281
     1
  3
2dWireframe
350
21C7
  3
3D Hidden
350
21C9
  3
3dWireframe
350
21C8
  3
Basic
350
21C6
  3
Brighten
350
21CD
  3
ColorChange
350
21D1
  3
Conceptual
350
21CA
  3
Dim
350
21CC
  3
Facepattern
350
21D0
  3
Flat
350
21C2
  3
FlatWithEdges
350
21C3
  3
Gouraud
350
21C4
  3
GouraudWithEdges
350
21C5
  3
Linepattern
350
21CF
  3
Realistic
350
21CB
  3
Thicken
350
21CE
  0
DICTIONARY
  5
21DB
102
{ACAD_REACTORS
330
411
102
}
330
411
100
AcDbDictionary
281
     1
  3
CTABLESTYLE
350
21DC
  3
DIMASSOC
350
22C4
  3
INDEXCTL
350
22C3
  3
SORTENTS
350
22C2
  0
XRECORD
  5
288B
102
{ACAD_REACTORS
330
411
102
}
330
411
100
AcDbXrecord
280
     1
  1
DWGPROPS COOKIE
  2

  3

  4

  6

  7

  8
XPMUser
  9

300
=
301
=
302
=
303
=
304
=
305
=
306
=
307
=
308
=
309
=
 40
0.3139317476851851
 41
2450687.337153472
 42
2459472.710457894
  1

 90
        0
  0
SORTENTSTABLE
  5
2728
102
{ACAD_REACTORS
330
2727
102
}
330
2727
100
AcDbSortentsTable
330
41D
331
21EC
  5
2878
331
26F8
  5
19F9
331
380
  5
380
331
1742
  5
1781
331
388
  5
388
331
3B0
  5
3B0
331
18E0
  5
1A53
331
2C0
  5
2C0
331
1A55
  5
2628
331
1A16
  5
25DE
331
2C8
  5
2C8
331
32F
  5
32F
331
1A5D
  5
2875
331
1A1E
  5
25E9
331
18F0
  5
21EE
331
337
  5
337
331
1A26
  5
25FF
331
347
  5
347
331
1A2E
  5
2607
331
2879
  5
1767
331
2700
  5
1A01
331
26C1
  5
18D1
331
2708
  5
1A09
331
26C9
  5
18D9
331
2889
  5
18C7
331
27AB
  5
2887
331
2710
  5
1A11
331
2718
  5
1A19
331
26D9
  5
18E4
331
349
  5
349
331
3B8
  5
3B8
331
3D0
  5
3D0
331
3E0
  5
3E0
331
379
  5
379
331
18C1
  5
1A2C
331
1A36
  5
260F
331
18C9
  5
1A34
331
310
  5
310
331
1A3E
  5
2617
331
19FF
  5
25C2
331
18D1
  5
1A3C
331
318
  5
318
331
2B1
  5
2B1
331
1A46
  5
261A
331
1A07
  5
25CA
331
18D9
  5
1A49
331
2B9
  5
2B9
331
320
  5
320
331
1A4E
  5
2622
331
1A0F
  5
25D7
331
2720
  5
1A21
331
26E1
  5
18EA
331
26F9
  5
19FA
331
381
  5
381
331
389
  5
389
331
1216
  5
1216
331
3B1
  5
3B1
331
18E1
  5
1A54
331
328
  5
328
331
2C1
  5
2C1
331
1A56
  5
2639
331
1A17
  5
25DF
331
18E9
  5
1A5B
331
330
  5
330
331
2C9
  5
2C9
331
1A1F
  5
25F1
331
18F1
  5
21EF
331
1A27
  5
2600
331
1A2F
  5
2608
331
2701
  5
1A02
331
26C2
  5
18D2
331
2709
  5
1A0A
331
26CA
  5
18DA
331
288A
  5
18C8
331
2711
  5
1A12
331
2719
  5
1A1A
331
26DA
  5
18E5
331
34A
  5
34A
331
3B9
  5
3B9
331
3D1
  5
3D1
331
35A
  5
35A
331
37A
  5
37A
331
11E7
  5
11E7
331
18C2
  5
1A2D
331
1A37
  5
2610
331
18CA
  5
1A35
331
311
  5
311
331
1A00
  5
25C3
331
18D2
  5
1A3D
331
319
  5
319
331
2B2
  5
2B2
331
1A47
  5
261B
331
1A08
  5
25CB
331
18DA
  5
1A4A
331
321
  5
321
331
2BA
  5
2BA
331
1A4F
  5
2623
331
2721
  5
1A22
331
26E2
  5
18EB
331
2873
  5
12B5
331
26FA
  5
19FB
331
382
  5
382
331
12B5
  5
1768
331
38A
  5
38A
331
12DD
  5
1769
331
3B2
  5
3B2
331
1A10
  5
25D8
331
18E2
  5
1A55
331
329
  5
329
331
2C2
  5
2C2
331
1A57
  5
27AB
331
1A18
  5
25E0
331
18EA
  5
1A5C
331
2CA
  5
2CA
331
331
  5
331
331
1A20
  5
25F2
331
18F2
  5
21F0
331
1A28
  5
2601
331
2702
  5
1A03
331
26C3
  5
18D3
331
270A
  5
1A0B
331
26CB
  5
18DB
331
2712
  5
1A13
331
26D3
  5
18DE
331
271A
  5
1A1B
331
26DB
  5
18E6
331
34B
  5
34B
331
35B
  5
35B
331
36B
  5
36B
331
37B
  5
37B
331
1A30
  5
2609
331
18C3
  5
1A2E
331
1A38
  5
2611
331
19F9
  5
21F1
331
18CB
  5
1A36
331
312
  5
312
331
1A01
  5
25C4
331
18D3
  5
1A3E
331
31A
  5
31A
331
2B3
  5
2B3
331
1A48
  5
261C
331
1A09
  5
25CC
331
18DB
  5
1A4B
331
2BB
  5
2BB
331
322
  5
322
331
2722
  5
1A23
331
26E3
  5
18EC
331
21EF
  5
2879
331
2874
  5
12DD
331
26FB
  5
19FC
331
383
  5
383
331
178C
  5
18CA
331
38B
  5
38B
331
174D
  5
178C
331
3B3
  5
3B3
331
1A11
  5
25D9
331
18E3
  5
1A56
331
32A
  5
32A
331
2C3
  5
2C3
331
1A58
  5
27C6
331
1A19
  5
25E1
331
18EB
  5
1A5D
331
332
  5
332
331
2CB
  5
2CB
331
1A21
  5
25F3
331
2DB
  5
2DB
331
1A29
  5
2602
331
2703
  5
1A04
331
26C4
  5
18D4
331
2884
  5
18C2
331
270B
  5
1A0C
331
26CC
  5
18DC
331
2713
  5
1A14
331
26D4
  5
18DF
331
271B
  5
1A1C
331
26DC
  5
18E7
331
34C
  5
34C
331
35C
  5
35C
331
36C
  5
36C
331
37C
  5
37C
331
1A31
  5
260A
331
18C4
  5
1A2F
331
1A39
  5
2612
331
19FA
  5
21F2
331
18CC
  5
1A37
331
1A02
  5
25C5
331
18D4
  5
1A44
331
31B
  5
31B
331
2B4
  5
2B4
331
1A49
  5
261D
331
1A0A
  5
25CD
331
18DC
  5
1A4C
331
323
  5
323
331
2BC
  5
2BC
331
2723
  5
1A24
331
27C6
  5
2888
331
26E4
  5
18ED
331
21F0
  5
2884
331
26B5
  5
18CB
331
2875
  5
1742
331
26FC
  5
19FD
331
384
  5
384
331
452
  5
452
331
38C
  5
38C
331
174E
  5
18BD
331
3AC
  5
3AC
331
18BD
  5
1A28
331
3B4
  5
3B4
331
1A12
  5
25DA
331
18E4
  5
1A57
331
32B
  5
32B
331
2C4
  5
2C4
331
1A59
  5
27C7
331
1A1A
  5
25E5
331
18EC
  5
1A61
331
2CC
  5
2CC
331
333
  5
333
331
1A61
  5
2876
331
1A22
  5
25FB
331
1A2A
  5
2603
331
2704
  5
1A05
331
26C5
  5
18D5
331
2885
  5
18C3
331
270C
  5
1A0D
331
26CD
  5
18DD
331
2714
  5
1A15
331
26D5
  5
18E0
331
271C
  5
1A1D
331
26DD
  5
18E9
331
34D
  5
34D
331
35D
  5
35D
331
37D
  5
37D
331
1A32
  5
260B
331
18C5
  5
1A30
331
1A3A
  5
2613
331
19FB
  5
21F3
331
18CD
  5
1A38
331
2AD
  5
2AD
331
1A03
  5
25C6
331
18D5
  5
1A45
331
31C
  5
31C
331
2B5
  5
2B5
331
1A4A
  5
261E
331
1A0B
  5
25CE
331
18DD
  5
1A4D
331
2BD
  5
2BD
331
324
  5
324
331
2724
  5
1A25
331
27C7
  5
2889
331
26E5
  5
18EE
331
26ED
  5
18EF
331
21F1
  5
2885
331
26B6
  5
18CC
331
2876
  5
174D
331
26BE
  5
18CE
331
26FD
  5
19FE
331
385
  5
385
331
38D
  5
38D
331
453
  5
453
331
174F
  5
18BE
331
3AD
  5
3AD
331
18BE
  5
1A29
331
3B5
  5
3B5
331
1A13
  5
25DB
331
18E5
  5
1A58
331
2C5
  5
2C5
331
32C
  5
32C
331
1A5A
  5
27C8
331
1A1B
  5
25E6
331
18ED
  5
1A62
331
334
  5
334
331
2CD
  5
2CD
331
1A62
  5
2877
331
1A23
  5
25FC
331
344
  5
344
331
1A2B
  5
2604
331
2705
  5
1A06
331
26C6
  5
18D6
331
2886
  5
18C4
331
270D
  5
1A0E
331
2715
  5
1A16
331
26D6
  5
18E1
331
271D
  5
1A1E
331
1767
  5
18BF
331
35E
  5
35E
331
1A33
  5
260C
331
18C6
  5
1A31
331
1A3B
  5
2614
331
19FC
  5
25B9
331
18CE
  5
1A39
331
2AE
  5
2AE
331
315
  5
315
331
1A04
  5
25C7
331
18D6
  5
1A46
331
2B6
  5
2B6
331
31D
  5
31D
331
1A4B
  5
261F
331
1A0C
  5
25CF
331
18DE
  5
1A4E
331
325
  5
325
331
2BE
  5
2BE
331
27C8
  5
288A
331
2725
  5
1A26
331
26EE
  5
18F0
331
26B7
  5
18CD
331
2877
  5
174E
331
26BF
  5
18CF
331
26FE
  5
19FF
331
386
  5
386
331
454
  5
454
331
38E
  5
38E
331
3AE
  5
3AE
331
18BF
  5
1A2A
331
3B6
  5
3B6
331
1A53
  5
2626
331
1A14
  5
25DC
331
18E6
  5
1A59
331
32D
  5
32D
331
2C6
  5
2C6
331
1A5B
  5
2873
331
1A1C
  5
25E7
331
18EE
  5
21EC
331
2CE
  5
2CE
331
335
  5
335
331
1A24
  5
25FD
331
345
  5
345
331
1A2C
  5
2605
331
306
  5
306
331
2706
  5
1A07
331
26C7
  5
18D7
331
2887
  5
18C5
331
270E
  5
1A0F
331
2716
  5
1A17
331
26D7
  5
18E2
331
271E
  5
1A1F
331
1768
  5
18C0
331
3DE
  5
3DE
331
1A34
  5
260D
331
18C7
  5
1A32
331
1A3C
  5
2615
331
19FD
  5
25BA
331
18CF
  5
1A3A
331
316
  5
316
331
2AF
  5
2AF
331
1A44
  5
2618
331
1A05
  5
25C8
331
18D7
  5
1A47
331
31E
  5
31E
331
2B7
  5
2B7
331
1A4C
  5
2620
331
1A0D
  5
25D0
331
18DF
  5
1A4F
331
2BF
  5
2BF
331
326
  5
326
331
2726
  5
1A27
331
21F3
  5
2886
331
26EF
  5
18F1
331
26F7
  5
18F2
331
26FF
  5
1A00
331
387
  5
387
331
38F
  5
38F
331
3AF
  5
3AF
331
3B7
  5
3B7
331
127B
  5
127B
331
1A54
  5
2627
331
1A15
  5
25DD
331
18E7
  5
1A5A
331
2C7
  5
2C7
331
32E
  5
32E
331
1A5C
  5
2874
331
1A1D
  5
25E8
331
18EF
  5
21ED
331
336
  5
336
331
1A25
  5
25FE
331
346
  5
346
331
1A2D
  5
2606
331
2878
  5
174F
331
26C0
  5
18D0
331
2707
  5
1A08
331
26C8
  5
18D8
331
2888
  5
18C6
331
270F
  5
1A10
331
2717
  5
1A18
331
26D8
  5
18E3
331
348
  5
348
331
271F
  5
1A20
331
1224
  5
1224
331
1781
  5
18C9
331
18C0
  5
1A2B
331
1A35
  5
260E
331
18C8
  5
1A33
331
30F
  5
30F
331
1A3D
  5
2616
331
19FE
  5
25BB
331
18D0
  5
1A3B
331
2B0
  5
2B0
331
317
  5
317
331
1A45
  5
2619
331
1A06
  5
25C9
331
18D8
  5
1A48
331
31F
  5
31F
331
2B8
  5
2B8
331
1A4D
  5
2621
331
1A0E
  5
25D1
331
327
  5
327
  0
LAYOUT
  5
11FF
102
{ACAD_XDICTIONARY
360
288E
102
}
102
{ACAD_REACTORS
330
11FC
102
}
330
11FC
100
AcDbPlotSettings
  1

  2
HP LaserJet 2100 Series PCL 6
  4

  6

 40
0.0
 41
0.0
 42
0.0
 43
0.0
 44
0.0
 45
0.0
 46
0.0
 47
0.0
 48
0.0
 49
0.0
140
0.0
141
0.0
142
1.0
143
1.0
 70
   688
 72
     0
 73
     0
 74
     5
  7
Erik.ctb
 75
    16
147
1.0
148
0.0
149
0.0
100
AcDbLayout
  1
Layout1
 70
     1
 71
     1
 10
0.0
 20
0.0
 11
12.0
 21
9.0
 12
0.0
 22
0.0
 32
0.0
 14
1.000000000000000E+20
 24
1.000000000000000E+20
 34
1.000000000000000E+20
 15
-1.000000000000000E+20
 25
-1.000000000000000E+20
 35
-1.000000000000000E+20
146
0.0
 13
0.0
 23
0.0
 33
0.0
 16
1.0
 26
0.0
 36
0.0
 17
0.0
 27
1.0
 37
0.0
 76
     0
330
41A
  0
LAYOUT
  5
11FE
102
{ACAD_XDICTIONARY
360
288C
102
}
102
{ACAD_REACTORS
330
11FC
102
}
330
11FC
100
AcDbPlotSettings
  1

  2
PDF Pro 10
  4
Letter
  6

 40
3.174999952316284
 41
3.174999952316284
 42
3.175003051757812
 43
3.17498779296875
 44
215.8999938964844
 45
279.3999938964844
 46
5.750041791401668
 47
0.0
 48
0.0
 49
0.0
140
0.0
141
0.0
142
1.0
143
31.08187592266278
 70
  3764
 72
     0
 73
     1
 74
     1
  7
acad.ctb
 75
     0
147
0.0321730902757664
148
-210.082473198181
149
-5.923537290557066
100
AcDbLayout
  1
Model
 70
     1
 71
     0
 10
0.0
 20
0.0
 11
12.0
 21
9.0
 12
0.0
 22
0.0
 32
0.0
 14
0.0
 24
0.0
 34
0.0
 15
0.0
 25
0.0
 35
0.0
146
0.0
 13
0.0
 23
0.0
 33
0.0
 16
1.0
 26
0.0
 36
0.0
 17
0.0
 27
1.0
 37
0.0
 76
     0
330
41D
331
21BB
1001
ACAD_PSEXT
1000
PDF Pro 10
1000
Visage PDF
1000
VSP1:
1000

1070
     0
  0
MATERIAL
  5
21BF
102
{ACAD_XDICTIONARY
360
2892
102
}
102
{ACAD_REACTORS
330
21BD
102
}
330
21BD
100
AcDbMaterial
  1
ByBlock
  0
MATERIAL
  5
21BE
102
{ACAD_XDICTIONARY
360
2890
102
}
102
{ACAD_REACTORS
330
21BD
102
}
330
21BD
100
AcDbMaterial
  1
ByLayer
  0
MATERIAL
  5
21C0
102
{ACAD_XDICTIONARY
360
2894
102
}
102
{ACAD_REACTORS
330
21BD
102
}
330
21BD
100
AcDbMaterial
  1
Global
  0
MLINESTYLE
  5
1D81
102
{ACAD_REACTORS
330
413
102
}
330
413
100
AcDbMlineStyle
  2
CAT_BORDER$0$STANDARD
 70
     0
  3

 62
     0
 51
90.0
 52
90.0
 71
     2
 49
0.5
 62
   256
  6
BYLAYER
 49
-0.5
 62
   256
  6
BYLAYER
  0
MLINESTYLE
  5
420
102
{ACAD_REACTORS
330
413
102
}
330
413
100
AcDbMlineStyle
  2
STANDARD
 70
     0
  3

 62
     0
 51
90.0
 52
90.0
 71
     2
 49
0.5
 62
   256
  6
BYLAYER
 49
-0.5
 62
   256
  6
BYLAYER
  0
ACDBPLACEHOLDER
  5
11FB
102
{ACAD_REACTORS
330
11FA
102
}
330
11FA
  0
TABLESTYLE
  5
21D4
102
{ACAD_XDICTIONARY
360
2896
102
}
102
{ACAD_REACTORS
330
21D3
102
}
330
21D3
100
AcDbTableStyle
  3
Standard
 70
     0
 71
     0
 40
0.06
 41
0.06
280
     0
281
     0
  7
STANDARD
140
0.18
170
     2
 62
     0
 63
     7
283
     0
274
    -2
284
     1
 64
     0
275
    -2
285
     1
 65
     0
276
    -2
286
     1
 66
     0
277
    -2
287
     1
 67
     0
278
    -2
288
     1
 68
     0
279
    -2
289
     1
 69
     0
  7
STANDARD
140
0.25
170
     5
 62
     0
 63
     7
283
     0
274
    -2
284
     1
 64
     0
275
    -2
285
     1
 65
     0
276
    -2
286
     1
 66
     0
277
    -2
287
     1
 67
     0
278
    -2
288
     1
 68
     0
279
    -2
289
     1
 69
     0
  7
STANDARD
140
0.18
170
     5
 62
     0
 63
     7
283
     0
274
    -2
284
     1
 64
     0
275
    -2
285
     1
 65
     0
276
    -2
286
     1
 66
     0
277
    -2
287
     1
 67
     0
278
    -2
288
     1
 68
     0
279
    -2
289
     1
 69
     0
  0
VISUALSTYLE
  5
21C7
102
{ACAD_REACTORS
330
21C1
102
}
330
21C1
100
AcDbVisualStyle
  2
2dWireframe
 70
     4
 71
     0
 72
     2
 73
     0
 90
        0
 40
-0.6
 41
-30.0
 62
     5
 63
     7
 74
     1
 91
        4
 64
     7
 65
   257
 75
     1
175
     1
 42
1.0
 92
        0
 66
   257
 43
1.0
 76
     1
 77
     6
 78
     2
 67
     7
 79
     5
170
     0
171
     0
290
     0
174
     0
 93
        1
 44
0.0
173
     0
291
     0
 45
0.0
1001
ACAD
1000
AcDbSavedByObjectVersion
1070
     0
  0
VISUALSTYLE
  5
21C9
102
{ACAD_REACTORS
330
21C1
102
}
330
21C1
100
AcDbVisualStyle
  2
3D Hidden
 70
     6
 71
     1
 72
     2
 73
     2
 90
        0
 40
-0.6
 41
-30.0
 62
     5
 63
     7
 74
     2
 91
        2
 64
     7
 65
   257
 75
     2
175
     1
 42
40.0
 92
        0
 66
   257
 43
1.0
 76
     1
 77
     6
 78
     2
 67
     7
 79
     3
170
     0
171
     0
290
     0
174
     0
 93
        1
 44
0.0
173
     0
291
     0
 45
0.0
1001
ACAD
1000
AcDbSavedByObjectVersion
1070
     0
  0
VISUALSTYLE
  5
21C8
102
{ACAD_REACTORS
330
21C1
102
}
330
21C1
100
AcDbVisualStyle
  2
3dWireframe
 70
     5
 71
     0
 72
     2
 73
     0
 90
        0
 40
-0.6
 41
-30.0
 62
     5
 63
     7
 74
     1
 91
        4
 64
     7
 65
   257
 75
     1
175
     1
 42
1.0
 92
        0
 66
   257
 43
1.0
 76
     1
 77
     6
 78
     2
 67
     7
 79
     5
170
     0
171
     0
290
     0
174
     0
 93
        1
 44
0.0
173
     0
291
     0
 45
0.0
1001
ACAD
1000
AcDbSavedByObjectVersion
1070
     0
  0
VISUALSTYLE
  5
21C6
102
{ACAD_REACTORS
330
21C1
102
}
330
21C1
100
AcDbVisualStyle
  2
Basic
 70
     7
 71
     1
 72
     0
 73
     1
 90
        0
 40
-0.6
 41
-30.0
 62
     5
 63
     7
 74
     0
 91
        4
 64
     7
 65
   257
 75
     1
175
     1
 42
1.0
 92
        8
 66
     7
 43
1.0
 76
     1
 77
     6
 78
     2
 67
     7
 79
     5
170
     0
171
     0
290
     0
174
     0
 93
        1
 44
0.0
173
     0
291
     1
 45
0.0
1001
ACAD
1000
AcDbSavedByObjectVersion
1070
     0
  0
VISUALSTYLE
  5
21CD
102
{ACAD_REACTORS
330
21C1
102
}
330
21C1
100
AcDbVisualStyle
  2
Brighten
 70
    12
 71
     2
 72
     2
 73
     0
 90
        0
 40
-0.6
 41
-30.0
 62
     5
 63
     7
 74
     1
 91
        4
 64
     7
 65
   257
 75
     1
175
     1
 42
1.0
 92
        8
 66
     7
 43
1.0
 76
     1
 77
     6
 78
     2
 67
     7
 79
     5
170
     0
171
     0
290
     0
174
     0
 93
        1
 44
50.0
173
     0
291
     1
 45
0.0
1001
ACAD
1000
AcDbSavedByObjectVersion
1070
     0
  0
VISUALSTYLE
  5
21D1
102
{ACAD_REACTORS
330
21C1
102
}
330
21C1
100
AcDbVisualStyle
  2
ColorChange
 70
    16
 71
     2
 72
     2
 73
     3
 90
        0
 40
-0.6
 41
-30.0
 62
     5
 63
     8
 74
     1
 91
        4
 64
     7
 65
   257
 75
     1
175
     1
 42
1.0
 92
        8
 66
     8
 43
1.0
 76
     1
 77
     6
 78
     2
 67
     7
 79
     5
170
     0
171
     0
290
     0
174
     0
 93
        1
 44
0.0
173
     0
291
     1
 45
0.0
1001
ACAD
1000
AcDbSavedByObjectVersion
1070
     0
  0
VISUALSTYLE
  5
21CA
102
{ACAD_REACTORS
330
21C1
102
}
330
21C1
100
AcDbVisualStyle
  2
Conceptual
 70
     9
 71
     3
 72
     2
 73
     0
 90
        0
 40
-0.6
 41
-30.0
 62
     5
 63
     7
 74
     2
 91
        2
 64
     7
 65
   257
 75
     1
175
     1
 42
40.0
 92
        8
 66
     7
 43
1.0
 76
     1
 77
     6
 78
     2
 67
     7
 79
     3
170
     0
171
     0
290
     0
174
     0
 93
        1
 44
0.0
173
     0
291
     0
 45
0.0
1001
ACAD
1000
AcDbSavedByObjectVersion
1070
     0
  0
VISUALSTYLE
  5
21CC
102
{ACAD_REACTORS
330
21C1
102
}
330
21C1
100
AcDbVisualStyle
  2
Dim
 70
    11
 71
     2
 72
     2
 73
     0
 90
        0
 40
-0.6
 41
-30.0
 62
     5
 63
     7
 74
     1
 91
        4
 64
     7
 65
   257
 75
     1
175
     1
 42
1.0
 92
        8
 66
     7
 43
1.0
 76
     1
 77
     6
 78
     2
 67
     7
 79
     5
170
     0
171
     0
290
     0
174
     0
 93
        1
 44
-50.0
173
     0
291
     1
 45
0.0
1001
ACAD
1000
AcDbSavedByObjectVersion
1070
     0
  0
VISUALSTYLE
  5
21D0
102
{ACAD_REACTORS
330
21C1
102
}
330
21C1
100
AcDbVisualStyle
  2
Facepattern
 70
    15
 71
     2
 72
     2
 73
     0
 90
        0
 40
-0.6
 41
-30.0
 62
     5
 63
     7
 74
     1
 91
        4
 64
     7
 65
   257
 75
     1
175
     1
 42
1.0
 92
        8
 66
     7
 43
1.0
 76
     1
 77
     6
 78
     2
 67
     7
 79
     5
170
     0
171
     0
290
     0
174
     0
 93
        1
 44
0.0
173
     0
291
     1
 45
0.0
1001
ACAD
1000
AcDbSavedByObjectVersion
1070
     0
  0
VISUALSTYLE
  5
21C2
102
{ACAD_REACTORS
330
21C1
102
}
330
21C1
100
AcDbVisualStyle
  2
Flat
 70
     0
 71
     2
 72
     1
 73
     1
 90
        2
 40
-0.6
 41
30.0
 62
     5
 63
     7
 74
     0
 91
        4
 64
     7
 65
   257
 75
     1
175
     1
 42
1.0
 92
        8
 66
     7
 43
1.0
 76
     1
 77
     6
 78
     2
 67
     7
 79
     5
170
     0
171
     0
290
     0
174
     0
 93
       13
 44
0.0
173
     0
291
     1
 45
0.0
1001
ACAD
1000
AcDbSavedByObjectVersion
1070
     0
  0
VISUALSTYLE
  5
21C3
102
{ACAD_REACTORS
330
21C1
102
}
330
21C1
100
AcDbVisualStyle
  2
FlatWithEdges
 70
     1
 71
     2
 72
     1
 73
     1
 90
        2
 40
-0.6
 41
30.0
 62
     5
 63
     7
 74
     1
 91
        4
 64
     7
 65
   257
 75
     1
175
     1
 42
1.0
 92
        0
 66
   257
 43
1.0
 76
     1
 77
     6
 78
     2
 67
     7
 79
     5
170
     0
171
     0
290
     0
174
     0
 93
       13
 44
0.0
173
     0
291
     1
 45
0.0
1001
ACAD
1000
AcDbSavedByObjectVersion
1070
     0
  0
VISUALSTYLE
  5
21C4
102
{ACAD_REACTORS
330
21C1
102
}
330
21C1
100
AcDbVisualStyle
  2
Gouraud
 70
     2
 71
     2
 72
     2
 73
     1
 90
        2
 40
-0.6
 41
30.0
 62
     5
 63
     7
 74
     0
 91
        4
 64
     7
 65
   257
 75
     1
175
     1
 42
1.0
 92
        0
 66
     7
 43
1.0
 76
     1
 77
     6
 78
     2
 67
     7
 79
     5
170
     0
171
     0
290
     0
174
     0
 93
       13
 44
0.0
173
     0
291
     1
 45
0.0
1001
ACAD
1000
AcDbSavedByObjectVersion
1070
     0
  0
VISUALSTYLE
  5
21C5
102
{ACAD_REACTORS
330
21C1
102
}
330
21C1
100
AcDbVisualStyle
  2
GouraudWithEdges
 70
     3
 71
     2
 72
     2
 73
     1
 90
        2
 40
-0.6
 41
30.0
 62
     5
 63
     7
 74
     1
 91
        4
 64
     7
 65
   257
 75
     1
175
     1
 42
1.0
 92
        0
 66
   257
 43
1.0
 76
     1
 77
     6
 78
     2
 67
     7
 79
     5
170
     0
171
     0
290
     0
174
     0
 93
       13
 44
0.0
173
     0
291
     1
 45
0.0
1001
ACAD
1000
AcDbSavedByObjectVersion
1070
     0
  0
VISUALSTYLE
  5
21CF
102
{ACAD_REACTORS
330
21C1
102
}
330
21C1
100
AcDbVisualStyle
  2
Linepattern
 70
    14
 71
     2
 72
     2
 73
     0
 90
        0
 40
-0.6
 41
-30.0
 62
     5
 63
     7
 74
     1
 91
        4
 64
     7
 65
   257
 75
     7
175
     7
 42
1.0
 92
        8
 66
     7
 43
1.0
 76
     1
 77
     6
 78
     2
 67
     7
 79
     5
170
     0
171
     0
290
     0
174
     0
 93
        1
 44
0.0
173
     0
291
     1
 45
0.0
1001
ACAD
1000
AcDbSavedByObjectVersion
1070
     0
  0
VISUALSTYLE
  5
21CB
102
{ACAD_REACTORS
330
21C1
102
}
330
21C1
100
AcDbVisualStyle
  2
Realistic
 70
     8
 71
     2
 72
     2
 73
     0
 90
        0
 40
-0.6
 41
-30.0
 62
     5
 63
     7
 74
     1
 91
        0
 64
     7
 65
   257
 75
     1
175
     1
 42
1.0
 92
        8
 66
     8
 43
1.0
 76
     1
 77
     6
 78
     2
 67
     7
 79
     5
170
     0
171
     0
290
     0
174
     0
 93
       13
 44
0.0
173
     0
291
     0
 45
0.0
1001
ACAD
1000
AcDbSavedByObjectVersion
1070
     0
  0
VISUALSTYLE
  5
21CE
102
{ACAD_REACTORS
330
21C1
102
}
330
21C1
100
AcDbVisualStyle
  2
Thicken
 70
    13
 71
     2
 72
     2
 73
     0
 90
        0
 40
-0.6
 41
-30.0
 62
     5
 63
     7
 74
     1
 91
        4
 64
     7
 65
   257
 75
     1
175
     1
 42
1.0
 92
       12
 66
     7
 43
1.0
 76
     1
 77
     6
 78
     2
 67
     7
 79
     5
170
     0
171
     0
290
     0
174
     0
 93
        1
 44
0.0
173
     0
291
     1
 45
0.0
1001
ACAD
1000
AcDbSavedByObjectVersion
1070
     0
  0
DICTIONARYVAR
  5
21DC
102
{ACAD_REACTORS
330
21DB
102
}
330
21DB
100
DictionaryVariables
280
     0
  1
STANDARD
  0
DICTIONARYVAR
  5
22C4
102
{ACAD_REACTORS
330
21DB
102
}
330
21DB
100
DictionaryVariables
280
     0
  1
1
  0
DICTIONARYVAR
  5
22C3
102
{ACAD_REACTORS
330
21DB
102
}
330
21DB
100
DictionaryVariables
280
     0
  1
0
  0
DICTIONARYVAR
  5
22C2
102
{ACAD_REACTORS
330
21DB
102
}
330
21DB
100
DictionaryVariables
280
     0
  1
127
  0
DICTIONARY
  5
288E
330
11FF
100
AcDbDictionary
280
     1
281
     1
  3
ACAD_XREC_ROUNDTRIP
360
288F
  0
DICTIONARY
  5
288C
330
11FE
100
AcDbDictionary
280
     1
281
     1
  3
ACAD_XREC_ROUNDTRIP
360
288D
  0
DICTIONARY
  5
2892
330
21BF
100
AcDbDictionary
280
     1
281
     1
  3
ACAD_XREC_ROUNDTRIP
360
2893
  0
DICTIONARY
  5
2890
330
21BE
100
AcDbDictionary
280
     1
281
     1
  3
ACAD_XREC_ROUNDTRIP
360
2891
  0
DICTIONARY
  5
2894
330
21C0
100
AcDbDictionary
280
     1
281
     1
  3
ACAD_XREC_ROUNDTRIP
360
2895
  0
DICTIONARY
  5
2896
330
21D4
100
AcDbDictionary
280
     1
281
     1
  3
ACAD_XREC_ROUNDTRIP
360
2897
  0
XRECORD
  5
288F
102
{ACAD_REACTORS
330
288E
102
}
330
288E
100
AcDbXrecord
280
     1
102
SHADEPLOT
 70
     0
102
SHADEPLOTRESLEVEL
 70
     2
102
SHADEPLOTCUSTOMDPI
 70
   300
  0
XRECORD
  5
288D
102
{ACAD_REACTORS
330
288C
102
}
330
288C
100
AcDbXrecord
280
     1
102
SHADEPLOT
 70
     0
102
SHADEPLOTRESLEVEL
 70
     2
102
SHADEPLOTCUSTOMDPI
 70
   300
  0
XRECORD
  5
2893
102
{ACAD_REACTORS
330
2892
102
}
330
2892
100
AcDbXrecord
280
     1
102
MATERIAL
148
0.0
149
0.0
149
0.0
 93
        0
 94
       63
282
     0
 72
     1
 77
     1
171
     1
175
     1
179
     1
273
     0
  0
XRECORD
  5
2891
102
{ACAD_REACTORS
330
2890
102
}
330
2890
100
AcDbXrecord
280
     1
102
MATERIAL
148
0.0
149
0.0
149
0.0
 93
        0
 94
       63
282
     0
 72
     1
 77
     1
171
     1
175
     1
179
     1
273
     0
  0
XRECORD
  5
2895
102
{ACAD_REACTORS
330
2894
102
}
330
2894
100
AcDbXrecord
280
     1
102
MATERIAL
148
0.0
149
0.0
149
0.0
 93
        0
 94
       63
282
     0
 72
     1
 77
     1
171
     1
175
     1
179
     1
273
     0
  0
XRECORD
  5
2897
102
{ACAD_REACTORS
330
2896
102
}
330
2896
100
AcDbXrecord
280
     1
102
ACAD_ROUNDTRIP_PRE2007_TABLESTYLE
 90
      512
 91
        0
  1

 92
      512
 93
        0
  2

 94
      512
 95
        0
  3

  0
ENDSEC
  0
EOF
