999
dxfrw 0.5.10
0
SECTION
2
HEADER
9
$ACADVER
1
AC1021
9
$HANDSEED
5
20000
9
$DWGCODEPAGE
3
ANSI_1252
9
$INSBASE
10
0
20
0
30
0
9
$EXTMIN
10
0
20
0.7
30
0
9
$EXTMAX
10
6
20
4.6687402145
30
0
9
$LIMMIN
10
0
20
0
9
$LIMMAX
10
420
20
297
9
$ORTHOMODE
70
0
9
$LTSCALE
40
1
9
$TEXTSTYLE
7
STANDARD
9
$CLAYER
8
noname
9
$DIMASZ
40
0.1
9
$DIMLFAC
40
1
9
$DIMSCALE
40
1
9
$DIMEXO
40
0.025
9
$DIMEXE
40
0.05
9
$DIMTXT
40
0.1
9
$DIMTSZ
40
0
9
$DIMAUNIT
70
0
9
$DIMADEC
70
2
9
$DIMLUNIT
70
2
9
$DIMSTYLE
2
STANDARD
9
$DIMGAP
40
0.025
9
$DIMTIH
70
0
9
$LUNITS
70
2
9
$LUPREC
70
4
9
$AUNITS
70
0
9
$AUPREC
70
2
9
$SPLINESEGS
70
8
9
$GRIDMODE
70
1
9
$SNAPSTYLE
70
0
9
$GRIDUNIT
10
0
20
0
9
$PINSBASE
10
2.475
20
1.58304275496
30
0
9
$PLIMMIN
10
0
20
0
9
$PLIMMAX
10
11
20
8.5
9
$INSUNITS
70
1
9
$PSVPSCALE
40
1
0
ENDSEC
0
SECTION
2
CLASSES
0
ENDSEC
0
SECTION
2
TABLES
0
TABLE
2
VPORT
5
8
330
0
100
AcDbSymbolTable
70
1
0
VPORT
5
31
330
2
100
AcDbSymbolTableRecord
100
AcDbViewportTableRecord
2
*ACTIVE
70
0
10
0
20
0
11
1
21
1
12
5.63503201966
22
4.0550603553
13
0
23
0
14
10
24
10
15
10
25
10
16
0
26
0
36
1
17
0
27
0
37
0
40
9.45579999888
41
2.15628970775
42
50
43
0
44
0
50
0
51
0
71
0
72
100
73
1
74
3
75
0
76
1
77
0
78
0
281
0
65
1
110
0
120
0
130
0
111
1
121
0
131
0
112
0
122
1
132
0
79
0
146
0
348
10020
60
7
61
5
292
1
282
1
141
0
142
0
63
250
421
3358443
0
ENDTAB
0
TABLE
2
LTYPE
5
5
330
0
100
AcDbSymbolTable
70
4
0
LTYPE
5
14
330
5
100
AcDbSymbolTableRecord
100
AcDbLinetypeTableRecord
2
ByBlock
70
0
3

72
65
73
0
40
0
0
LTYPE
5
15
330
5
100
AcDbSymbolTableRecord
100
AcDbLinetypeTableRecord
2
ByLayer
70
0
3

72
65
73
0
40
0
0
LTYPE
5
16
330
5
100
AcDbSymbolTableRecord
100
AcDbLinetypeTableRecord
2
Continuous
70
0
3
Solid line
72
65
73
0
40
0
0
LTYPE
5
32
330
5
100
AcDbSymbolTableRecord
100
AcDbLinetypeTableRecord
2
DOT
70
0
3
Dot . . . . . . . . . . . . . . . . . . . . . .
72
65
73
2
40
6.35
49
0
74
0
49
-6.35
74
0
0
LTYPE
5
33
330
5
100
AcDbSymbolTableRecord
100
AcDbLinetypeTableRecord
2
DOT2
70
0
3
Dot (.5x) .....................................
72
65
73
2
40
3.175
49
0
74
0
49
-3.175
74
0
0
LTYPE
5
34
330
5
100
AcDbSymbolTableRecord
100
AcDbLinetypeTableRecord
2
DOTX2
70
0
3
Dot (2x) .  .  .  .  .  .  .  .  .  .  .  .  .
72
65
73
2
40
12.7
49
0
74
0
49
-12.7
74
0
0
LTYPE
5
35
330
5
100
AcDbSymbolTableRecord
100
AcDbLinetypeTableRecord
2
DASHED
70
0
3
Dot . . . . . . . . . . . . . . . . . . . . . .
72
65
73
2
40
19.05
49
12.7
74
0
49
-6.35
74
0
0
LTYPE
5
36
330
5
100
AcDbSymbolTableRecord
100
AcDbLinetypeTableRecord
2
DASHED2
70
0
3
Dashed (.5x) _ _ _ _ _ _ _ _ _ _ _ _ _ _ _ _ _
72
65
73
2
40
9.525
49
6.35
74
0
49
-3.175
74
0
0
LTYPE
5
37
330
5
100
AcDbSymbolTableRecord
100
AcDbLinetypeTableRecord
2
DASHEDX2
70
0
3
Dashed (2x) ____  ____  ____  ____  ____  ___
72
65
73
2
40
38.1
49
25.4
74
0
49
-12.7
74
0
0
LTYPE
5
38
330
5
100
AcDbSymbolTableRecord
100
AcDbLinetypeTableRecord
2
DASHDOT
70
0
3
Dash dot __ . __ . __ . __ . __ . __ . __ . __
72
65
73
4
40
25.4
49
12.7
74
0
49
-6.35
74
0
49
0
74
0
49
-6.35
74
0
0
LTYPE
5
39
330
5
100
AcDbSymbolTableRecord
100
AcDbLinetypeTableRecord
2
DASHDOT2
70
0
3
Dash dot (.5x) _._._._._._._._._._._._._._._.
72
65
73
4
40
12.7
49
6.35
74
0
49
-3.175
74
0
49
0
74
0
49
-3.175
74
0
0
LTYPE
5
3A
330
5
100
AcDbSymbolTableRecord
100
AcDbLinetypeTableRecord
2
DASHDOTX2
70
0
3
Dash dot (2x) ____  .  ____  .  ____  .  ___
72
65
73
4
40
50.8
49
25.4
74
0
49
-12.7
74
0
49
0
74
0
49
-12.7
74
0
0
LTYPE
5
3B
330
5
100
AcDbSymbolTableRecord
100
AcDbLinetypeTableRecord
2
DIVIDE
70
0
3
Divide ____ . . ____ . . ____ . . ____ . . ____
72
65
73
6
40
31.75
49
12.7
74
0
49
-6.35
74
0
49
0
74
0
49
-6.35
74
0
49
0
74
0
49
-6.35
74
0
0
LTYPE
5
3C
330
5
100
AcDbSymbolTableRecord
100
AcDbLinetypeTableRecord
2
DIVIDE2
70
0
3
Divide (.5x) __..__..__..__..__..__..__..__.._
72
65
73
6
40
15.875
49
6.35
74
0
49
-3.175
74
0
49
0
74
0
49
-3.175
74
0
49
0
74
0
49
-3.175
74
0
0
LTYPE
5
3D
330
5
100
AcDbSymbolTableRecord
100
AcDbLinetypeTableRecord
2
DIVIDEX2
70
0
3
Divide (2x) ________  .  .  ________  .  .  _
72
65
73
6
40
63.5
49
25.4
74
0
49
-12.7
74
0
49
0
74
0
49
-12.7
74
0
49
0
74
0
49
-12.7
74
0
0
LTYPE
5
3E
330
5
100
AcDbSymbolTableRecord
100
AcDbLinetypeTableRecord
2
BORDER
70
0
3
Border __ __ . __ __ . __ __ . __ __ . __ __ .
72
65
73
6
40
44.45
49
12.7
74
0
49
-6.35
74
0
49
12.7
74
0
49
-6.35
74
0
49
0
74
0
49
-6.35
74
0
0
LTYPE
5
3F
330
5
100
AcDbSymbolTableRecord
100
AcDbLinetypeTableRecord
2
BORDER2
70
0
3
Border (.5x) __.__.__.__.__.__.__.__.__.__.__.
72
65
73
6
40
22.225
49
6.35
74
0
49
-3.175
74
0
49
6.35
74
0
49
-3.175
74
0
49
0
74
0
49
-3.175
74
0
0
LTYPE
5
40
330
5
100
AcDbSymbolTableRecord
100
AcDbLinetypeTableRecord
2
BORDERX2
70
0
3
Border (2x) ____  ____  .  ____  ____  .  ___
72
65
73
6
40
88.9
49
25.4
74
0
49
-12.7
74
0
49
25.4
74
0
49
-12.7
74
0
49
0
74
0
49
-12.7
74
0
0
LTYPE
5
41
330
5
100
AcDbSymbolTableRecord
100
AcDbLinetypeTableRecord
2
CENTER
70
0
3
Center ____ _ ____ _ ____ _ ____ _ ____ _ ____
72
65
73
4
40
50.8
49
31.75
74
0
49
-6.35
74
0
49
6.35
74
0
49
-6.35
74
0
0
LTYPE
5
42
330
5
100
AcDbSymbolTableRecord
100
AcDbLinetypeTableRecord
2
CENTER2
70
0
3
Center (.5x) ___ _ ___ _ ___ _ ___ _ ___ _ ___
72
65
73
4
40
28.575
49
19.05
74
0
49
-3.175
74
0
49
3.175
74
0
49
-3.175
74
0
0
LTYPE
5
43
330
5
100
AcDbSymbolTableRecord
100
AcDbLinetypeTableRecord
2
CENTERX2
70
0
3
Center (2x) ________  __  ________  __  _____
72
65
73
4
40
101.6
49
63.5
74
0
49
-12.7
74
0
49
12.7
74
0
49
-12.7
74
0
0
ENDTAB
0
TABLE
2
LAYER
5
2
330
0
100
AcDbSymbolTable
70
1
0
LAYER
5
10
330
2
100
AcDbSymbolTableRecord
100
AcDbLayerTableRecord
2
0
70
0
62
7
6
CONTINUOUS
370
0
390
F
0
LAYER
5
44
330
2
100
AcDbSymbolTableRecord
100
AcDbLayerTableRecord
2
noname
70
0
62
7
6
CONTINUOUS
370
0
390
F
0
ENDTAB
0
TABLE
2
STYLE
5
3
330
0
100
AcDbSymbolTable
70
3
0
STYLE
5
45
330
2
100
AcDbSymbolTableRecord
100
AcDbTextStyleTableRecord
2
Standard
70
0
40
0
41
1
50
0
71
0
42
1
3
txt
4

0
ENDTAB
0
TABLE
2
VIEW
5
6
330
0
100
AcDbSymbolTable
70
0
0
ENDTAB
0
TABLE
2
UCS
5
7
330
0
100
AcDbSymbolTable
70
0
0
ENDTAB
0
TABLE
2
APPID
5
9
330
0
100
AcDbSymbolTable
70
1
0
APPID
5
12
330
9
100
AcDbSymbolTableRecord
100
AcDbRegAppTableRecord
2
ACAD
70
0
0
ENDTAB
0
TABLE
2
DIMSTYLE
5
A
330
0
100
AcDbSymbolTable
70
1
100
AcDbDimStyleTable
71
1
0
DIMSTYLE
105
46
330
A
100
AcDbSymbolTableRecord
100
AcDbDimStyleTableRecord
2
Standard
70
0
40
1
41
0.1
42
0.025
43
0.38
44
0.05
45
0
46
0
47
0
48
0
140
0.1
141
0.09
142
0
143
25.4
144
1
145
0
146
1
147
0.025
148
0
71
0
72
0
73
0
74
1
75
0
76
0
77
0
78
0
79
0
170
0
171
2
172
0
173
0
174
0
175
0
176
0
177
0
178
0
179
0
271
4
272
4
273
2
274
2
275
0
276
0
277
2
278
46
279
0
280
0
281
0
282
0
283
1
284
0
285
0
286
0
288
0
289
3
340
Standard
341

371
-2
372
-2
0
ENDTAB
0
TABLE
2
BLOCK_RECORD
5
1
330
0
100
AcDbSymbolTable
70
2
0
BLOCK_RECORD
5
1F
330
1
100
AcDbSymbolTableRecord
100
AcDbBlockTableRecord
2
*Model_Space
70
0
280
1
281
0
0
BLOCK_RECORD
5
1E
330
1
100
AcDbSymbolTableRecord
100
AcDbBlockTableRecord
2
*Paper_Space
70
0
280
1
281
0
0
BLOCK_RECORD
5
47
330
1
100
AcDbSymbolTableRecord
100
AcDbBlockTableRecord
2
*D1
70
0
280
1
281
0
0
BLOCK_RECORD
5
4A
330
1
100
AcDbSymbolTableRecord
100
AcDbBlockTableRecord
2
*D3
70
0
280
1
281
0
0
BLOCK_RECORD
5
4D
330
1
100
AcDbSymbolTableRecord
100
AcDbBlockTableRecord
2
*D4
70
0
280
1
281
0
0
BLOCK_RECORD
5
50
330
1
100
AcDbSymbolTableRecord
100
AcDbBlockTableRecord
2
*D2
70
0
280
1
281
0
0
ENDTAB
0
ENDSEC
0
SECTION
2
BLOCKS
0
BLOCK
5
20
330
1F
100
AcDbEntity
8
0
100
AcDbBlockBegin
2
*Model_Space
70
0
10
0
20
0
30
0
3
*Model_Space
1

0
ENDBLK
5
21
330
1F
100
AcDbEntity
8
0
100
AcDbBlockEnd
0
BLOCK
5
1C
330
1B
100
AcDbEntity
8
0
100
AcDbBlockBegin
2
*Paper_Space
70
0
10
0
20
0
30
0
3
*Paper_Space
1

0
ENDBLK
5
1D
330
1F
100
AcDbEntity
8
0
100
AcDbBlockEnd
0
BLOCK
5
48
330
47
100
AcDbEntity
8
0
100
AcDbBlockBegin
2
*D1
70
1
10
0
20
0
3
*D1
1

0
LINE
5
53
100
AcDbEntity
8
0
6
CONTINUOUS
62
7
370
0
100
AcDbLine
10
5
20
4.1
11
5
21
0.9
0
SOLID
5
54
100
AcDbEntity
8
0
6
CONTINUOUS
62
7
370
0
100
AcDbTrace
10
5
20
4.1
30
0
11
5.01665138631
21
4
31
0
12
4.98334861369
22
4
32
0
13
4.98334861369
23
4
33
0
0
SOLID
5
55
100
AcDbEntity
8
0
6
CONTINUOUS
62
7
370
0
100
AcDbTrace
10
5
20
0.9
30
0
11
4.98334861369
21
1
31
0
12
5.01665138631
22
1
32
0
13
5.01665138631
23
1
33
0
0
MTEXT
5
56
100
AcDbEntity
8
0
6
CONTINUOUS
62
7
370
0
100
AcDbMText
10
4.925
20
2.5
30
0
40
0.1
41
0.155555555556
71
5
72
1
1
3.2
7
standard
210
0
220
0
230
1
50
90
73
2
44
1
0
LINE
5
57
100
AcDbEntity
8
0
6
CONTINUOUS
62
7
370
0
100
AcDbLine
10
3.025
20
4.1
11
5.05
21
4.1
0
LINE
5
58
100
AcDbEntity
8
0
6
CONTINUOUS
62
7
370
0
100
AcDbLine
10
3.025
20
0.9
11
5.05
21
0.9
0
ENDBLK
5
49
330
47
100
AcDbEntity
8
0
100
AcDbBlockEnd
0
BLOCK
5
4B
330
4A
100
AcDbEntity
8
0
100
AcDbBlockBegin
2
*D3
70
1
10
0
20
0
3
*D3
1

0
LINE
5
59
100
AcDbEntity
8
0
6
CONTINUOUS
62
7
370
0
100
AcDbLine
10
1.64365321358
20
2.95929118755
11
1.23528485663
21
3.76075921502
0
LINE
5
5A
100
AcDbEntity
8
0
6
CONTINUOUS
62
7
370
0
100
AcDbLine
10
3.42566626196
20
3.86727218703
11
3.01729790501
21
4.6687402145
0
LINE
5
5B
100
AcDbEntity
8
0
6
CONTINUOUS
62
7
370
0
100
AcDbLine
10
1.25798438161
20
3.71620888881
11
3.03999742999
21
4.62418988829
0
SOLID
5
5C
100
AcDbEntity
8
0
6
CONTINUOUS
62
7
370
0
100
AcDbTrace
10
1.25798438161
20
3.71620888881
30
0
11
1.33952546284
21
3.77644443263
31
0
12
1.35464460523
22
3.74677144495
32
0
13
1.35464460523
23
3.74677144495
33
0
0
SOLID
5
5D
100
AcDbEntity
8
0
6
CONTINUOUS
62
7
370
0
100
AcDbTrace
10
3.03999742999
20
4.62418988829
30
0
11
2.95845634877
21
4.56395434448
31
0
12
2.94333720638
22
4.59362733216
32
0
13
2.94333720638
23
4.59362733216
33
0
0
MTEXT
5
5E
100
AcDbEntity
8
0
6
CONTINUOUS
62
7
370
0
100
AcDbMText
10
2.11494161832
20
4.23702487787
30
0
40
0.1
41
0.0444444444444
71
5
72
1
1
2
7
standard
210
0
220
0
230
1
50
27
73
2
44
1
0
ENDBLK
5
4C
330
4A
100
AcDbEntity
8
0
100
AcDbBlockEnd
0
BLOCK
5
4E
330
4D
100
AcDbEntity
8
0
100
AcDbBlockBegin
2
*D4
70
1
10
0
20
0
3
*D4
1

0
LINE
5
5F
100
AcDbEntity
8
noname
6
CONTINUOUS
62
7
370
0
100
AcDbLine
10
4.33686369614
20
1.96710623394
11
5.38055309026
21
1.62799099303
0
LINE
5
60
100
AcDbEntity
8
noname
6
CONTINUOUS
62
7
370
0
100
AcDbLine
10
4.39477254607
20
2.14533134802
11
5.43846194019
21
1.80621610711
0
LINE
5
61
100
AcDbEntity
8
noname
6
CONTINUOUS
62
7
370
0
100
AcDbLine
10
5.27119686557
20
1.45323053949
11
5.45271251325
21
2.01187826009
0
SOLID
5
62
100
AcDbEntity
8
noname
6
CONTINUOUS
62
7
370
0
100
AcDbTrace
10
5.33300026445
20
1.64344184275
30
0
11
5.31793497446
21
1.54319062977
31
0
12
5.28626215555
22
1.55348175247
32
0
13
5.28626215555
23
1.55348175247
33
0
0
SOLID
5
63
100
AcDbEntity
8
noname
6
CONTINUOUS
62
7
370
0
100
AcDbTrace
10
5.39090911438
20
1.82166695683
30
0
11
5.40597440436
21
1.92191816981
31
0
12
5.43764722327
22
1.91162704711
32
0
13
5.43764722327
23
1.91162704711
33
0
0
MTEXT
5
64
100
AcDbEntity
8
noname
6
CONTINUOUS
62
7
370
0
100
AcDbMText
10
5.38567517724
20
2.04826365295
30
0
40
0.1
41
0.377777777778
71
5
72
1
1
0.1874
7
standard
210
0
220
0
230
1
50
71.9999999994
73
2
44
1
0
ENDBLK
5
4F
330
4D
100
AcDbEntity
8
0
100
AcDbBlockEnd
0
BLOCK
5
51
330
50
100
AcDbEntity
8
0
100
AcDbBlockBegin
2
*D2
70
1
10
0
20
0
3
*D2
1

0
LINE
5
65
100
AcDbEntity
8
0
6
CONTINUOUS
62
7
370
0
100
AcDbLine
10
1.375
20
2.5
11
0.985311729561
21
2.5
0
LINE
5
66
100
AcDbEntity
8
0
6
CONTINUOUS
62
7
370
0
100
AcDbLine
10
1.45453316102
20
3.00215261586
11
1.0839175921
21
3.12257291393
0
ARC
5
67
100
AcDbEntity
8
0
6
CONTINUOUS
62
7
370
0
100
AcDbCircle
10
3
20
2.5
40
1.96468827044
100
AcDbArc
50
162
51
180
0
SOLID
5
68
100
AcDbEntity
8
0
6
CONTINUOUS
62
7
370
0
100
AcDbTrace
10
1.03531172956
20
2.5
30
0
11
1.02121039354
21
2.60039133921
31
0
12
1.05450238216
22
2.59954389745
32
0
13
1.05450238216
23
2.59954389745
33
0
0
SOLID
5
69
100
AcDbEntity
8
0
6
CONTINUOUS
62
7
370
0
100
AcDbTrace
10
1.13147041791
20
3.10712206422
30
0
11
1.11896105712
21
3.0065199541
31
0
12
1.08703662049
22
3.01600177936
32
0
13
1.08703662049
23
3.01600177936
33
0
0
MTEXT
5
6A
100
AcDbEntity
8
0
6
CONTINUOUS
62
7
370
0
100
AcDbMText
10
1.03480809387
20
2.81125582018
30
0
40
0.1
41
0.166666666667
71
8
72
1
1
18%%D
7
standard
210
0
220
0
230
1
50
441
73
2
44
1
0
ENDBLK
5
52
330
50
100
AcDbEntity
8
0
100
AcDbBlockEnd
0
ENDSEC
0
SECTION
2
ENTITIES
0
CIRCLE
5
6B
100
AcDbEntity
8
0
6
ByLayer
62
7
370
35
100
AcDbCircle
10
3
20
2.5
40
0.09375
0
CIRCLE
5
6C
100
AcDbEntity
8
0
6
ByLayer
62
7
370
35
100
AcDbCircle
10
3
20
2.5
40
1.6
0
LINE
5
6D
100
AcDbEntity
8
0
6
ByLayer
62
7
370
35
100
AcDbLine
10
1.4
20
2.5
11
4.6
21
2.5
0
LINE
5
6E
100
AcDbEntity
8
0
6
ByLayer
62
7
370
35
100
AcDbLine
10
1.4
20
2.5
11
4.6
21
2.5
0
LINE
5
6F
100
AcDbEntity
8
0
6
ByLayer
62
7
370
35
100
AcDbLine
10
3
20
4.1
11
3
21
0.9
0
LINE
5
70
100
AcDbEntity
8
0
6
ByLayer
62
7
370
35
100
AcDbLine
10
3
20
0.9
11
3
21
0.7125
0
DIMENSION
5
71
100
AcDbEntity
8
0
6
ByLayer
62
256
370
35
100
AcDbDimension
2
*D1
10
5
20
0.9
30
0
11
4.925
21
2.5
31
0
70
32
71
5
3
Standard
53
0
210
0
220
0
230
1
100
AcDbAlignedDimension
13
3
23
4.1
33
0
14
3
24
0.9
34
0
50
90
100
AcDbRotatedDimension
0
CIRCLE
5
72
100
AcDbEntity
8
0
6
CONTINUOUS
62
7
370
35
100
AcDbCircle
10
3
20
2.5
40
1
0
CIRCLE
5
73
100
AcDbEntity
8
0
6
CONTINUOUS
62
7
370
35
100
AcDbCircle
10
3
20
2.5
40
1.41421356237
0
CIRCLE
5
74
100
AcDbEntity
8
0
6
ByLayer
62
256
370
35
100
AcDbCircle
10
3
20
2.5
40
1.1
0
LINE
5
75
100
AcDbEntity
8
0
6
ByLayer
62
256
370
35
100
AcDbLine
10
0
20
0.7
11
6
21
0.7
0
LINE
5
76
100
AcDbEntity
8
0
6
ByLayer
62
256
370
35
100
AcDbLine
10
4.52169042607
20
2.005572809
11
1.47830957393
21
2.994427191
0
LINE
5
77
100
AcDbEntity
8
0
6
ByLayer
62
256
370
35
100
AcDbLine
10
2.505572809
20
0.978309573928
11
3.494427191
21
4.02169042607
0
DIMENSION
5
78
100
AcDbEntity
8
0
6
ByLayer
62
256
370
35
100
AcDbDimension
2
*D2
10
1.47830957393
20
2.994427191
30
0
11
0
21
0
31
0
70
34
71
5
3
Standard
53
0
210
0
220
0
230
1
100
AcDb2LineAngularDimension
13
4.6
23
2.5
33
0
14
1.4
24
2.5
34
0
15
4.52169042607
25
2.005572809
35
0
16
1.1
26
3
36
0
0
DIMENSION
5
79
100
AcDbEntity
8
0
6
ByLayer
62
256
370
35
100
AcDbDimension
2
*D3
10
3.03999742999
20
4.62418988829
30
0
11
2.11494161832
21
4.23702487787
31
0
70
33
71
5
3
Standard
53
0
210
0
220
0
230
1
100
AcDbAlignedDimension
13
1.65500297607
23
2.93701602445
33
0
14
3.43701602445
24
3.84499702393
34
0
0
CIRCLE
5
7A
100
AcDbEntity
8
0
6
ByLayer
62
256
370
35
100
AcDbCircle
10
3.43701602445
20
3.84499702392
40
0.09375
0
CIRCLE
5
7B
100
AcDbEntity
8
0
6
ByLayer
62
256
370
35
100
AcDbCircle
10
2.56298397555
20
1.15500297608
40
0.09375
0
CIRCLE
5
7C
100
AcDbEntity
8
0
6
ByLayer
62
256
370
35
100
AcDbCircle
10
1.65500297608
20
2.93701602445
40
0.09375
0
CIRCLE
5
7D
100
AcDbEntity
8
noname
6
ByLayer
62
256
370
35
100
AcDbCircle
10
4.34499702392
20
2.06298397555
40
0.09375
0
DIMENSION
5
7E
100
AcDbEntity
8
noname
6
ByLayer
62
256
370
35
100
AcDbDimension
2
*D4
10
5.39090911438
20
1.82166695683
30
0
11
5.2906254507
21
1.75573067437
31
0
70
33
71
5
72
0
3
Standard
53
0
210
0
220
0
230
1
100
AcDbAlignedDimension
13
4.31308728323
23
1.9748316588
33
0
14
4.37099613316
24
2.15305677288
34
0
0
ENDSEC
0
SECTION
2
OBJECTS
0
DICTIONARY
5
C
330
0
100
AcDbDictionary
281
1
3
ACAD_GROUP
350
D
0
DICTIONARY
5
D
330
C
100
AcDbDictionary
281
1
0
ENDSEC
0
EOF
