  0
SECTION
  2
HEADER
  9
$ACADVER
  1
AC1015
  9
$ACADMAINTVER
 70
    20
  9
$DWGCODEPAGE
  3
ANSI_1252
  9
$INSBASE
 10
0.0
 20
0.0
 30
0.0
  9
$EXTMIN
 10
529.3152504737677
 20
15.02871679545717
 30
-0.0000000000000053
  9
$EXTMAX
 10
977.1710011994059
 20
339.8470831769306
 30
0.0000000000000099
  9
$LIMMIN
 10
0.0
 20
0.0
  9
$LIMMAX
 10
12.0
 20
9.0
  9
$ORTHOMODE
 70
     1
  9
$REGENMODE
 70
     1
  9
$FILLMODE
 70
     1
  9
$QTEXTMODE
 70
     0
  9
$MIRRTEXT
 70
     0
  9
$LTSCALE
 40
5.0
  9
$ATTMODE
 70
     1
  9
$TEXTSIZE
 40
3.0954
  9
$TRACEWID
 40
0.05
  9
$TEXTSTYLE
  7
ROMANS
  9
$CLAYER
  8
0
  9
$CELTYPE
  6
BYLAYER
  9
$CECOLOR
 62
   256
  9
$CELTSCALE
 40
1.0
  9
$DISPSILH
 70
     0
  9
$DIMSCALE
 40
38.0
  9
$DIMASZ
 40
0.0625
  9
$DIMEXO
 40
0.0625
  9
$DIMDLI
 40
0.375
  9
$DIMRND
 40
0.0
  9
$DIMDLE
 40
0.0
  9
$DIMEXE
 40
0.0625
  9
$DIMTP
 40
0.0
  9
$DIMTM
 40
0.0
  9
$DIMTXT
 40
0.0804
  9
$DIMCEN
 40
0.0625
  9
$DIMTSZ
 40
0.0
  9
$DIMTOL
 70
     0
  9
$DIMLIM
 70
     0
  9
$DIMTIH
 70
     1
  9
$DIMTOH
 70
     1
  9
$DIMSE1
 70
     0
  9
$DIMSE2
 70
     0
  9
$DIMTAD
 70
     0
  9
$DIMZIN
 70
     3
  9
$DIMBLK
  1

  9
$DIMASO
 70
     1
  9
$DIMSHO
 70
     1
  9
$DIMPOST
  1

  9
$DIMAPOST
  1

  9
$DIMALT
 70
     0
  9
$DIMALTD
 70
     2
  9
$DIMALTF
 40
25.4
  9
$DIMLFAC
 40
1.0
  9
$DIMTOFL
 70
     0
  9
$DIMTVP
 40
0.0
  9
$DIMTIX
 70
     0
  9
$DIMSOXD
 70
     0
  9
$DIMSAH
 70
     0
  9
$DIMBLK1
  1

  9
$DIMBLK2
  1

  9
$DIMSTYLE
  2
STANDARD
  9
$DIMCLRD
 70
     0
  9
$DIMCLRE
 70
     0
  9
$DIMCLRT
 70
     0
  9
$DIMTFAC
 40
1.0
  9
$DIMGAP
 40
0.0625
  9
$DIMJUST
 70
     0
  9
$DIMSD1
 70
     0
  9
$DIMSD2
 70
     0
  9
$DIMTOLJ
 70
     1
  9
$DIMTZIN
 70
     3
  9
$DIMALTZ
 70
     0
  9
$DIMALTTZ
 70
     0
  9
$DIMUPT
 70
     0
  9
$DIMDEC
 70
     4
  9
$DIMTDEC
 70
     4
  9
$DIMALTU
 70
     2
  9
$DIMALTTD
 70
     2
  9
$DIMTXSTY
  7
ROMANS
  9
$DIMAUNIT
 70
     0
  9
$DIMADEC
 70
     0
  9
$DIMALTRND
 40
0.0
  9
$DIMAZIN
 70
     0
  9
$DIMDSEP
 70
    46
  9
$DIMATFIT
 70
     3
  9
$DIMFRAC
 70
     2
  9
$DIMLDRBLK
  1

  9
$DIMLUNIT
 70
     4
  9
$DIMLWD
 70
    -2
  9
$DIMLWE
 70
    -2
  9
$DIMTMOVE
 70
     2
  9
$LUNITS
 70
     4
  9
$LUPREC
 70
     4
  9
$SKETCHINC
 40
0.1
  9
$FILLETRAD
 40
0.0
  9
$AUNITS
 70
     0
  9
$AUPREC
 70
     0
  9
$MENU
  1
acad
  9
$ELEVATION
 40
0.0
  9
$PELEVATION
 40
0.0
  9
$THICKNESS
 40
0.0
  9
$LIMCHECK
 70
     0
  9
$CHAMFERA
 40
0.0
  9
$CHAMFERB
 40
0.0
  9
$CHAMFERC
 40
0.0
  9
$CHAMFERD
 40
0.0
  9
$SKPOLY
 70
     0
  9
$TDCREATE
 40
2450687.378820139
  9
$TDUCREATE
 40
2450687.545486806
  9
$TDUPDATE
 40
2459472.726409421
  9
$TDUUPDATE
 40
2459472.893076088
  9
$TDINDWG
 40
0.2405778356
  9
$TDUSRTIMER
 40
0.2405778356
  9
$USRTIMER
 70
     1
  9
$ANGBASE
 50
0.0
  9
$ANGDIR
 70
     0
  9
$PDMODE
 70
    33
  9
$PDSIZE
 40
0.0
  9
$PLINEWID
 40
0.0
  9
$SPLFRAME
 70
     0
  9
$SPLINETYPE
 70
     6
  9
$SPLINESEGS
 70
     8
  9
$HANDSEED
  5
10CF
  9
$SURFTAB1
 70
     6
  9
$SURFTAB2
 70
     6
  9
$SURFTYPE
 70
     6
  9
$SURFU
 70
     6
  9
$SURFV
 70
     6
  9
$UCSBASE
  2

  9
$UCSNAME
  2

  9
$UCSORG
 10
0.0
 20
0.0
 30
0.0
  9
$UCSXDIR
 10
1.0
 20
0.0
 30
0.0
  9
$UCSYDIR
 10
0.0
 20
1.0
 30
0.0
  9
$UCSORTHOREF
  2

  9
$UCSORTHOVIEW
 70
     0
  9
$UCSORGTOP
 10
0.0
 20
0.0
 30
0.0
  9
$UCSORGBOTTOM
 10
0.0
 20
0.0
 30
0.0
  9
$UCSORGLEFT
 10
0.0
 20
0.0
 30
0.0
  9
$UCSORGRIGHT
 10
0.0
 20
0.0
 30
0.0
  9
$UCSORGFRONT
 10
0.0
 20
0.0
 30
0.0
  9
$UCSORGBACK
 10
0.0
 20
0.0
 30
0.0
  9
$PUCSBASE
  2

  9
$PUCSNAME
  2

  9
$PUCSORG
 10
0.0
 20
0.0
 30
0.0
  9
$PUCSXDIR
 10
1.0
 20
0.0
 30
0.0
  9
$PUCSYDIR
 10
0.0
 20
1.0
 30
0.0
  9
$PUCSORTHOREF
  2

  9
$PUCSORTHOVIEW
 70
     0
  9
$PUCSORGTOP
 10
0.0
 20
0.0
 30
0.0
  9
$PUCSORGBOTTOM
 10
0.0
 20
0.0
 30
0.0
  9
$PUCSORGLEFT
 10
0.0
 20
0.0
 30
0.0
  9
$PUCSORGRIGHT
 10
0.0
 20
0.0
 30
0.0
  9
$PUCSORGFRONT
 10
0.0
 20
0.0
 30
0.0
  9
$PUCSORGBACK
 10
0.0
 20
0.0
 30
0.0
  9
$USERI1
 70
     0
  9
$USERI2
 70
     0
  9
$USERI3
 70
     0
  9
$USERI4
 70
     0
  9
$USERI5
 70
     0
  9
$USERR1
 40
0.0
  9
$USERR2
 40
0.0
  9
$USERR3
 40
0.0
  9
$USERR4
 40
0.0
  9
$USERR5
 40
0.0
  9
$WORLDVIEW
 70
     1
  9
$SHADEDGE
 70
     3
  9
$SHADEDIF
 70
    70
  9
$TILEMODE
 70
     1
  9
$MAXACTVP
 70
    16
  9
$PINSBASE
 10
0.0
 20
0.0
 30
0.0
  9
$PLIMCHECK
 70
     0
  9
$PEXTMIN
 10
1.000000000000000E+20
 20
1.000000000000000E+20
 30
1.000000000000000E+20
  9
$PEXTMAX
 10
-1.000000000000000E+20
 20
-1.000000000000000E+20
 30
-1.000000000000000E+20
  9
$PLIMMIN
 10
0.0
 20
0.0
  9
$PLIMMAX
 10
12.0
 20
9.0
  9
$UNITMODE
 70
     0
  9
$VISRETAIN
 70
     0
  9
$PLINEGEN
 70
     0
  9
$PSLTSCALE
 70
     1
  9
$TREEDEPTH
 70
  3020
  9
$CMLSTYLE
  2
STANDARD
  9
$CMLJUST
 70
     0
  9
$CMLSCALE
 40
1.0
  9
$PROXYGRAPHICS
 70
     1
  9
$MEASUREMENT
 70
     0
  9
$CELWEIGHT
370
    -1
  9
$ENDCAPS
280
     0
  9
$JOINSTYLE
280
     0
  9
$LWDISPLAY
290
     0
  9
$INSUNITS
 70
     0
  9
$HYPERLINKBASE
  1

  9
$STYLESHEET
  1
acad.ctb
  9
$XEDIT
290
     1
  9
$CEPSNTYPE
380
     0
  9
$PSTYLEMODE
290
     1
  9
$FINGERPRINTGUID
  2
{B6675325-270A-11D7-8738-0010B50CF566}
  9
$VERSIONGUID
  2
{E943B47F-E481-416B-95E8-8C14CF8FFF80}
  9
$EXTNAMES
290
     1
  9
$PSVPSCALE
 40
0.0
  9
$OLESTARTUP
290
     0
  0
ENDSEC
  0
SECTION
  2
CLASSES
  0
CLASS
  1
ACDBDICTIONARYWDFLT
  2
AcDbDictionaryWithDefault
  3
ObjectDBX Classes
 90
        0
280
     0
281
     0
  0
CLASS
  1
ACDBPLACEHOLDER
  2
AcDbPlaceHolder
  3
ObjectDBX Classes
 90
        0
280
     0
281
     0
  0
CLASS
  1
LAYOUT
  2
AcDbLayout
  3
ObjectDBX Classes
 90
        0
280
     0
281
     0
  0
CLASS
  1
MATERIAL
  2
AcDbMaterial
  3
ObjectDBX Classes
 90
     1024
280
     0
281
     0
  0
CLASS
  1
VISUALSTYLE
  2
AcDbVisualStyle
  3
ObjectDBX Classes
 90
     4095
280
     0
281
     0
  0
CLASS
  1
TABLESTYLE
  2
AcDbTableStyle
  3
ObjectDBX Classes
 90
     4095
280
     0
281
     0
  0
CLASS
  1
SORTENTSTABLE
  2
AcDbSortentsTable
  3
ObjectDBX Classes
 90
        0
280
     0
281
     0
  0
CLASS
  1
DICTIONARYVAR
  2
AcDbDictionaryVar
  3
ObjectDBX Classes
 90
        0
280
     0
281
     0
  0
CLASS
  1
EXACXREFPANELOBJECT
  2
ExAcXREFPanelObject
  3
EXAC_ESW
 90
     1025
280
     0
281
     0
  0
CLASS
  1
NPOCOLLECTION
  2
AcDbImpNonPersistentObjectsCollection
  3
ObjectDBX Classes
 90
     1153
280
     0
281
     0
  0
CLASS
  1
EXACTERMXREFMAP
  2
ExAcTermXrefMap
  3
EXAC_SERVICE
 90
    33793
280
     0
281
     0
  0
CLASS
  1
ACAD_EVALUATION_GRAPH
  2
AcDbEvalGraph
  3
ObjectDBX Classes
 90
     1153
280
     0
281
     0
  0
CLASS
  1
ACAECUSTOBJ
  2
AcAeEditorObj
  3
AcAeEditorObj
 90
    33792
280
     0
281
     0
  0
CLASS
  1
ACDB_DYNAMICBLOCKPURGEPREVENTER_VERSION
  2
AcDbDynamicBlockPurgePreventer
  3
ObjectDBX Classes
 90
     1153
280
     0
281
     0
  0
ENDSEC
  0
SECTION
  2
TABLES
  0
TABLE
  2
VPORT
  5
45E
102
{ACAD_XDICTIONARY
360
F2C
102
}
330
0
100
AcDbSymbolTable
 70
     1
  0
VPORT
  5
8A6
330
45E
100
AcDbSymbolTableRecord
100
AcDbViewportTableRecord
  2
*Active
 70
     0
 10
0.0
 20
0.0
 11
1.0
 21
1.0
 12
753.2431258365868
 22
177.4378999861939
 13
0.0
 23
0.0
 14
1.0
 24
1.0
 15
0.0
 25
0.0
 16
0.0
 26
0.0
 36
1.0
 17
0.0
 27
0.0
 37
0.0
 40
327.1329865694649
 41
2.153388822829964
 42
50.0
 43
0.0
 44
0.0
 50
0.0
 51
0.0
 71
     0
 72
   100
 73
     1
 74
     0
 75
     0
 76
     0
 77
     0
 78
     0
281
     0
 65
     1
110
0.0
120
0.0
130
0.0
111
1.0
121
0.0
131
0.0
112
0.0
122
1.0
132
0.0
 79
     0
146
0.0
  0
ENDTAB
  0
TABLE
  2
LTYPE
  5
45B
330
0
100
AcDbSymbolTable
 70
     1
  0
LTYPE
  5
468
330
45B
100
AcDbSymbolTableRecord
100
AcDbLinetypeTableRecord
  2
BYBLOCK
 70
     0
  3

 72
    65
 73
     0
 40
0.0
  0
LTYPE
  5
469
330
45B
100
AcDbSymbolTableRecord
100
AcDbLinetypeTableRecord
  2
BYLAYER
 70
     0
  3

 72
    65
 73
     0
 40
0.0
  0
LTYPE
  5
46A
330
45B
100
AcDbSymbolTableRecord
100
AcDbLinetypeTableRecord
  2
CONTINUOUS
 70
     0
  3
Solid line
 72
    65
 73
     0
 40
0.0
  0
ENDTAB
  0
TABLE
  2
LAYER
  5
458
330
0
100
AcDbSymbolTable
 70
     2
  0
LAYER
  5
465
330
458
100
AcDbSymbolTableRecord
100
AcDbLayerTableRecord
  2
0
 70
     0
 62
     7
  6
CONTINUOUS
370
    -3
390
7C2
  0
LAYER
  5
497
330
458
100
AcDbSymbolTableRecord
100
AcDbLayerTableRecord
  2
DEFPOINTS
 70
     0
 62
     7
  6
CONTINUOUS
290
     0
370
    -3
390
7C2
  0
ENDTAB
  0
TABLE
  2
STYLE
  5
459
330
0
100
AcDbSymbolTable
 70
     6
  0
STYLE
  5
466
330
459
100
AcDbSymbolTableRecord
100
AcDbTextStyleTableRecord
  2
STANDARD
 70
     0
 40
0.0
 41
1.0
 50
0.0
 71
     0
 42
0.2
  3
txt
  4

  0
STYLE
  5
48C
330
459
100
AcDbSymbolTableRecord
100
AcDbTextStyleTableRecord
  2
ROMANS
 70
     0
 40
0.0
 41
1.0
 50
0.0
 71
     0
 42
3.0954
  3
romans
  4

  0
STYLE
  5
48D
330
459
100
AcDbSymbolTableRecord
100
AcDbTextStyleTableRecord
  2
ROMANC
 70
     0
 40
2.68
 41
1.0
 50
0.0
 71
     0
 42
3.0954
  3
romanc
  4

  0
STYLE
  5
6EC
330
459
100
AcDbSymbolTableRecord
100
AcDbTextStyleTableRecord
  2
STYLE1
 70
     0
 40
0.0
 41
1.0
 50
0.0
 71
     0
 42
3.0954
  3
C:\Program Files\AutoCAD LT\romanc.shx
  4

  0
STYLE
  5
CCE
330
459
100
AcDbSymbolTableRecord
100
AcDbTextStyleTableRecord
  2
CAT_BORDER$0$ROMANS
 70
     0
 40
0.0
 41
1.0
 50
0.0
 71
     0
 42
1.768799999999999
  3
romans
  4

  0
STYLE
  5
CCF
330
459
100
AcDbSymbolTableRecord
100
AcDbTextStyleTableRecord
  2
CAT_BORDER$0$STYLE1
 70
     0
 40
0.0
 41
1.0
 50
0.0
 71
     0
 42
3.0954
  3
C:\Program Files\AutoCAD LT\romanc.shx
  4

  0
ENDTAB
  0
TABLE
  2
VIEW
  5
45C
330
0
100
AcDbSymbolTable
 70
     0
  0
ENDTAB
  0
TABLE
  2
UCS
  5
45D
330
0
100
AcDbSymbolTable
 70
     0
  0
ENDTAB
  0
TABLE
  2
APPID
  5
45F
330
0
100
AcDbSymbolTable
 70
     6
  0
APPID
  5
467
330
45F
100
AcDbSymbolTableRecord
100
AcDbRegAppTableRecord
  2
ACAD
 70
     0
  0
APPID
  5
9DD
330
45F
100
AcDbSymbolTableRecord
100
AcDbRegAppTableRecord
  2
ACAD_PSEXT
 70
     0
  0
APPID
  5
F50
330
45F
100
AcDbSymbolTableRecord
100
AcDbRegAppTableRecord
  2
ACAUTHENVIRON
 70
     0
  0
APPID
  5
F54
330
45F
100
AcDbSymbolTableRecord
100
AcDbRegAppTableRecord
  2
AcDbDynamicBlockTrueName
 70
     0
  0
APPID
  5
F55
330
45F
100
AcDbSymbolTableRecord
100
AcDbRegAppTableRecord
  2
AcDbDynamicBlockGUID
 70
     0
  0
APPID
  5
F57
330
45F
100
AcDbSymbolTableRecord
100
AcDbRegAppTableRecord
  2
AcDbBlockRepETag
 70
     0
  0
ENDTAB
  0
TABLE
  2
DIMSTYLE
  5
460
330
0
100
AcDbSymbolTable
 70
     2
100
AcDbDimStyleTable
 71
     1
340
496
  0
DIMSTYLE
105
496
102
{ACAD_REACTORS
330
37F
330
37E
330
37D
330
379
330
37B
330
37C
330
37A
330
316
330
317
330
318
330
319
330
32C
330
3C1
330
3CB
330
411
102
}
330
460
100
AcDbSymbolTableRecord
100
AcDbDimStyleTableRecord
  2
STANDARD
 70
     0
 40
38.0
 41
0.0625
 43
0.375
 44
0.0625
 78
     3
140
0.0804
141
0.0625
147
0.0625
276
     2
277
     4
279
     2
284
     3
340
48C
  0
DIMSTYLE
105
7B8
102
{ACAD_REACTORS
330
956
330
F01
102
}
330
460
100
AcDbSymbolTableRecord
100
AcDbDimStyleTableRecord
  2
STANDARD$0
 70
     0
 40
38.0
 41
0.0625
 43
0.375
 44
0.0625
 78
     3
140
0.0804
141
0.0625
147
0.0625
276
     2
277
     4
279
     2
284
     3
340
48C
  0
ENDTAB
  0
TABLE
  2
BLOCK_RECORD
  5
457
330
0
100
AcDbSymbolTable
 70
    22
  0
BLOCK_RECORD
  5
46E
102
{ACAD_XDICTIONARY
360
8DB
102
}
330
457
100
AcDbSymbolTableRecord
100
AcDbBlockTableRecord
  2
*MODEL_SPACE
340
7C5
  0
BLOCK_RECORD
  5
46B
330
457
100
AcDbSymbolTableRecord
100
AcDbBlockTableRecord
  2
*PAPER_SPACE
340
7C6
  0
BLOCK_RECORD
  5
488
330
457
100
AcDbSymbolTableRecord
100
AcDbBlockTableRecord
  2
TB-ATT
340
0
  0
BLOCK_RECORD
  5
48B
330
457
100
AcDbSymbolTableRecord
100
AcDbBlockTableRecord
  2
LINETYPE
340
0
102
{BLKREFS
331
42E
331
70A
102
}
  0
BLOCK_RECORD
  5
7D1
330
457
100
AcDbSymbolTableRecord
100
AcDbBlockTableRecord
  2
border-T
340
0
102
{BLKREFS
331
DD0
102
}
  0
BLOCK_RECORD
  5
824
330
457
100
AcDbSymbolTableRecord
100
AcDbBlockTableRecord
  2
*D3
340
0
  0
BLOCK_RECORD
  5
831
330
457
100
AcDbSymbolTableRecord
100
AcDbBlockTableRecord
  2
*D4
340
0
  0
BLOCK_RECORD
  5
83E
330
457
100
AcDbSymbolTableRecord
100
AcDbBlockTableRecord
  2
*D5
340
0
  0
BLOCK_RECORD
  5
84B
330
457
100
AcDbSymbolTableRecord
100
AcDbBlockTableRecord
  2
*D6
340
0
  0
BLOCK_RECORD
  5
858
330
457
100
AcDbSymbolTableRecord
100
AcDbBlockTableRecord
  2
*D7
340
0
  0
BLOCK_RECORD
  5
865
330
457
100
AcDbSymbolTableRecord
100
AcDbBlockTableRecord
  2
*D8
340
0
  0
BLOCK_RECORD
  5
872
330
457
100
AcDbSymbolTableRecord
100
AcDbBlockTableRecord
  2
*D9
340
0
  0
BLOCK_RECORD
  5
8DD
102
{ACAD_XDICTIONARY
360
F51
102
}
330
457
100
AcDbSymbolTableRecord
100
AcDbBlockTableRecord
  2
*U10
340
0
1001
ACAUTHENVIRON
1005
F47
1001
AcDbDynamicBlockTrueName
1000
A$C6D566CCC
1001
AcDbDynamicBlockGUID
1000
{18A9BA24-3660-4766-B98E-6EC26848A609}
1001
AcDbBlockRepETag
1070
     1
1071
        6
  0
BLOCK_RECORD
  5
96F
330
457
100
AcDbSymbolTableRecord
100
AcDbBlockTableRecord
  2
*D11
340
0
  0
BLOCK_RECORD
  5
9F4
330
457
100
AcDbSymbolTableRecord
100
AcDbBlockTableRecord
  2
*D12
340
0
  0
BLOCK_RECORD
  5
A01
330
457
100
AcDbSymbolTableRecord
100
AcDbBlockTableRecord
  2
*D13
340
0
  0
BLOCK_RECORD
  5
A0E
330
457
100
AcDbSymbolTableRecord
100
AcDbBlockTableRecord
  2
*D14
340
0
  0
BLOCK_RECORD
  5
A1B
330
457
100
AcDbSymbolTableRecord
100
AcDbBlockTableRecord
  2
*D15
340
0
  0
BLOCK_RECORD
  5
A28
330
457
100
AcDbSymbolTableRecord
100
AcDbBlockTableRecord
  2
*D16
340
0
  0
BLOCK_RECORD
  5
A34
330
457
100
AcDbSymbolTableRecord
100
AcDbBlockTableRecord
  2
*D17
340
0
  0
BLOCK_RECORD
  5
A41
330
457
100
AcDbSymbolTableRecord
100
AcDbBlockTableRecord
  2
*D18
340
0
  0
BLOCK_RECORD
  5
A4E
330
457
100
AcDbSymbolTableRecord
100
AcDbBlockTableRecord
  2
*D19
340
0
  0
BLOCK_RECORD
  5
A81
330
457
100
AcDbSymbolTableRecord
100
AcDbBlockTableRecord
  2
*X20
340
0
102
{BLKREFS
331
D6B
102
}
  0
BLOCK_RECORD
  5
F02
330
457
100
AcDbSymbolTableRecord
100
AcDbBlockTableRecord
  2
*D21
340
0
  0
ENDTAB
  0
ENDSEC
  0
SECTION
  2
BLOCKS
  0
BLOCK
  5
49A
330
46E
100
AcDbEntity
  8
0
100
AcDbBlockBegin
  2
*MODEL_SPACE
 70
     0
 10
0.0
 20
0.0
 30
0.0
  3
*MODEL_SPACE
  1

  0
ENDBLK
  5
49B
330
46E
100
AcDbEntity
  8
0
100
AcDbBlockEnd
  0
BLOCK
  5
498
330
46B
100
AcDbEntity
 67
     1
  8
0
100
AcDbBlockBegin
  2
*PAPER_SPACE
 70
     0
 10
0.0
 20
0.0
 30
0.0
  3
*PAPER_SPACE
  1

  0
ENDBLK
  5
499
330
46B
100
AcDbEntity
 67
     1
  8
0
100
AcDbBlockEnd
  0
BLOCK
  5
1DB
330
488
100
AcDbEntity
  8
0
100
AcDbBlockBegin
  2
TB-ATT
 70
     2
 10
0.0
 20
0.0
 30
0.0
  3
TB-ATT
  1

  0
ATTDEF
  5
1DC
330
488
100
AcDbEntity
  8
0
100
AcDbText
 10
-121.8883742323092
 20
7.291758621233725
 30
0.0
 40
0.7058823529411765
  1

 50
90.0
  7
ROMANS
 72
     4
 11
-122.2413154087798
 21
7.627893075015208
 31
0.0
100
AcDbAttributeDefinition
  3
WORK ORDER (X)
  2
X
 70
     0
  0
ATTDEF
  5
1DD
330
488
100
AcDbEntity
  8
0
100
AcDbText
 10
-90.67763233749303
 20
0.4868289502636003
 30
0.0
 40
0.9997165714285713
  1
DSL
  7
ROMANS
 72
     1
 11
-87.15482156198289
 21
0.4868289502636003
 31
0.0
100
AcDbAttributeDefinition
  3
DRAWN BY
  2
DRAWNBY
 70
     0
  0
ATTDEF
  5
1DE
330
488
100
AcDbEntity
  8
0
100
AcDbText
 10
-114.0698072905983
 20
6.311447687980034
 30
0.0
 40
0.9997165714285713
  1

  7
ROMANS
 72
     1
 11
-109.9995326783534
 21
6.311447687980034
 31
0.0
100
AcDbAttributeDefinition
  3
DWG CHECK
  2
DWGCHECK
 70
     0
  0
ATTDEF
  5
1DF
330
488
100
AcDbEntity
  8
0
100
AcDbText
 10
-112.9986823926391
 20
3.771155051645564
 30
0.0
 40
0.9997165714285713
  1

  7
ROMANS
 72
     1
 11
-109.9995326783534
 21
3.771155051645564
 31
0.0
100
AcDbAttributeDefinition
  3
BUILT BY
  2
BUILTBY
 70
     0
  0
ATTDEF
  5
1E0
330
488
100
AcDbEntity
  8
0
100
AcDbText
 10
-114.4030461477411
 20
0.8588456827873187
 30
0.0
 40
0.9997165714285713
  1

  7
ROMANS
 72
     1
 11
-109.9995326783534
 21
0.8588456827873187
 31
0.0
100
AcDbAttributeDefinition
  3
CHECKED BY
  2
CHECKEDBY
 70
     0
  0
ATTDEF
  5
1E1
330
488
100
AcDbEntity
  8
0
100
AcDbText
 10
-71.86668964361553
 20
3.399138319121846
 30
0.0
 40
0.9997165714285713
  1

  7
ROMANS
 72
     1
 11
-70.05767870483999
 21
3.399138319121846
 31
0.0
100
AcDbAttributeDefinition
  3
DRAWN DATE
  2
DATE
 70
     0
  0
ATTDEF
  5
1E2
330
488
100
AcDbEntity
  8
0
100
AcDbText
 10
-71.86668964361553
 20
0.4868289502636003
 30
0.0
 40
0.9997165714285713
  1

  7
ROMANS
 72
     1
 11
-70.05767870483999
 21
0.4868289502636003
 31
0.0
100
AcDbAttributeDefinition
  3
DATE
  2
DATE
 70
     0
  0
ATTDEF
  5
1E3
330
488
100
AcDbEntity
  8
0
100
AcDbText
 10
-91.55833503137058
 20
6.311447687980034
 30
0.0
 40
0.9997165714285713
  1

  7
ROMANS
 72
     1
 11
-87.15482156198289
 21
6.311447687980034
 31
0.0
100
AcDbAttributeDefinition
  3
ARCHITECT OR ENGINEER
  2
ARCHORENG
 70
     0
  0
ATTDEF
  5
1E4
330
488
100
AcDbEntity
  8
0
100
AcDbText
 10
-93.55776817422777
 20
3.399138319121846
 30
0.0
 40
0.9997165714285713
  1

  7
ROMANS
 72
     1
 11
-87.15482156198289
 21
3.399138319121846
 31
0.0
100
AcDbAttributeDefinition
  3
PURCHASE ORDER
  2
PURCHASEORDER
 70
     0
  0
ATTDEF
  5
1E5
330
488
100
AcDbEntity
  8
0
100
AcDbText
 10
-56.26912164361556
 20
6.311447687980034
 30
0.0
 40
0.9997165714285713
  1

  7
ROMANS
 72
     1
 11
-52.96053584769714
 21
6.311447687980034
 31
0.0
100
AcDbAttributeDefinition
  3
PROJECT
  2
PROJECT
 70
     0
  0
ATTDEF
  5
1E6
330
488
100
AcDbEntity
  8
0
100
AcDbText
 10
-52.724994949738
 20
3.399138319121846
 30
0.0
 40
0.9997165714285713
  1

  7
ROMANS
 72
     1
 11
-48.29767870484005
 21
3.399138319121846
 31
0.0
100
AcDbAttributeDefinition
  3
PURCHASER
  2
PURCHASER
 70
     0
  0
ATTDEF
  5
1E7
330
488
100
AcDbEntity
  8
0
100
AcDbText
 10
-19.1090811538196
 20
6.311447687980034
 30
0.0
 40
0.9997165714285713
  1

  7
ROMANS
 72
     1
 11
-15.65767870484001
 21
6.311447687980034
 31
0.0
100
AcDbAttributeDefinition
  3
GENERAL CONTRACTOR
  2
GENCONT
 70
     0
  0
ATTDEF
  5
1E8
330
488
100
AcDbEntity
  8
0
100
AcDbText
 10
-17.13345078647262
 20
3.399138319121846
 30
0.0
 40
0.9997165714285713
  1

  7
ROMANS
 72
     1
 11
-15.65767870484001
 21
3.399138319121846
 31
0.0
100
AcDbAttributeDefinition
  3
PRECISION REP
  2
REP
 70
     0
  0
ATTDEF
  5
1E9
330
488
100
AcDbEntity
  8
0
100
AcDbText
 10
-53.92934433749309
 20
0.4868289502636572
 30
0.0
 40
0.9997165714285713
  1

  7
ROMANS
 72
     1
 11
-51.40625013341145
 21
0.4868289502636572
 31
0.0
100
AcDbAttributeDefinition
  3
MODEL #
  2
MODEL
 70
     0
  0
ATTDEF
  5
1EA
330
488
100
AcDbEntity
  8
0
100
AcDbText
 10
-35.6896682558604
 20
0.4868289502636003
 30
0.0
 40
0.9997165714285713
  1
1
  7
ROMANS
 72
     1
 11
-34.30910727626861
 21
0.4868289502636003
 31
0.0
100
AcDbAttributeDefinition
  3
QUANTITY
  2
QTY
 70
     0
  0
ATTDEF
  5
1EB
330
488
100
AcDbEntity
  8
0
100
AcDbText
 10
-18.15697013341145
 20
0.4868289502636003
 30
0.0
 40
0.9997165714285713
  1

  7
ROMANS
 72
     1
 11
-15.65767870484001
 21
0.4868289502636003
 31
0.0
100
AcDbAttributeDefinition
  3
SERIAL #
  2
SERIAL
 70
     0
  0
ENDBLK
  5
1EC
330
488
100
AcDbEntity
  8
0
100
AcDbBlockEnd
  0
BLOCK
  5
215
330
48B
100
AcDbEntity
  8
0
100
AcDbBlockBegin
  2
LINETYPE
 70
     0
 10
0.0
 20
0.0
 30
0.0
  3
LINETYPE
  1

  0
ENDBLK
  5
216
330
48B
100
AcDbEntity
  8
0
100
AcDbBlockEnd
  0
BLOCK
  5
7E0
330
7D1
100
AcDbEntity
  8
0
100
AcDbBlockBegin
  2
border-T
 70
     2
 10
0.0
 20
0.0
 30
0.0
  3
border-T
  1

  0
ATTDEF
  5
7D2
330
7D1
100
AcDbEntity
  8
0
 62
     5
100
AcDbText
 10
1.270598029493498
 20
16.95296065185261
 30
0.0
 40
2.25
  1

  7
ROMANS
100
AcDbAttributeDefinition
  3
SCALE
  2
SCALE
 70
     0
  0
ATTDEF
  5
7D3
330
7D1
100
AcDbEntity
  8
0
100
AcDbText
 10
267.5431072019895
 20
17.84606723821125
 30
0.0
 40
1.7518359375
  1

  7
ROMANS
 72
     4
 11
267.5431072019895
 21
17.84606723821125
 31
0.0
100
AcDbAttributeDefinition
  3
SAVED AS
  2
SAVEDAS
 70
     0
  0
ATTDEF
  5
7D4
330
7D1
100
AcDbEntity
  8
0
 62
     5
100
AcDbText
 10
65.77232295450201
 20
13.4910955979239
 30
0.0
 40
1.248161764705882
  1

 50
90.0
  7
ROMANS
 72
     4
 11
65.77232295450201
 21
13.4910955979239
 31
0.0
100
AcDbAttributeDefinition
  3
WORK ORDER (X)
  2
X
 70
     0
  0
ATTDEF
  5
7D5
330
7D1
100
AcDbEntity
  8
0
100
AcDbText
 10
120.7768196578975
 20
11.16830391662092
 30
0.0
 40
1.769029714285714
  1

  7
ROMANS
 72
     1
 11
120.7768196578975
 21
11.16830391662092
 31
0.0
100
AcDbAttributeDefinition
  3
ARCHITECT OR ENGINEER
  2
ARCHORENG
 70
     0
  0
ATTDEF
  5
7D6
330
7D1
100
AcDbEntity
  8
0
100
AcDbText
 10
120.7768196578975
 20
6.014881478758579
 30
0.0
 40
1.769029714285714
  1

  7
ROMANS
 72
     1
 11
120.7768196578975
 21
6.014881478758579
 31
0.0
100
AcDbAttributeDefinition
  3
PURCHASE ORDER
  2
PURCHASEORDER
 70
     0
  0
ATTDEF
  5
7D7
330
7D1
100
AcDbEntity
  8
0
100
AcDbText
 10
118.4602331272852
 20
0.8614590408961362
 30
0.0
 40
1.769029714285714
  1
JEB
  7
ROMANS
 72
     1
 11
120.7768196578975
 21
0.8614590408961362
 31
0.0
100
AcDbAttributeDefinition
  3
WHO ARE YOU?
  2
DRAWNBY
 70
     0
  0
ATTDEF
  5
7D8
330
7D1
100
AcDbEntity
  8
0
100
AcDbText
 10
151.0307482293261
 20
6.014881478758579
 30
0.0
 40
1.769029714285714
  1

  7
ROMANS
 72
     1
 11
151.0307482293261
 21
6.014881478758579
 31
0.0
100
AcDbAttributeDefinition
  3
WORK ORDER DATE?
  2
DATE
 70
     0
  0
ATTDEF
  5
7D9
330
7D1
100
AcDbEntity
  8
0
100
AcDbText
 10
151.0307482293261
 20
0.8614590408961362
 30
0.0
 40
1.769029714285714
  1

  7
ROMANS
 72
     1
 11
151.0307482293261
 21
0.8614590408961362
 31
0.0
100
AcDbAttributeDefinition
  3
WHAT IS TODAY'S DATE?
  2
DATE
 70
     0
  0
ATTDEF
  5
7DA
330
7D1
100
AcDbEntity
  8
0
100
AcDbText
 10
181.2846768007546
 20
11.16830391662092
 30
0.0
 40
1.769029714285714
  1

  7
ROMANS
 72
     1
 11
181.2846768007546
 21
11.16830391662092
 31
0.0
100
AcDbAttributeDefinition
  3
PROJECT
  2
PROJECT
 70
     0
  0
ATTDEF
  5
7DB
330
7D1
100
AcDbEntity
  8
0
100
AcDbText
 10
189.535748229326
 20
6.014881478758579
 30
0.0
 40
1.769029714285714
  1

  7
ROMANS
 72
     1
 11
189.535748229326
 21
6.014881478758579
 31
0.0
100
AcDbAttributeDefinition
  3
PURCHASER
  2
PURCHASER
 70
     0
  0
ATTDEF
  5
7DC
330
7D1
100
AcDbEntity
  8
0
100
AcDbText
 10
184.0350339436118
 20
0.8614590408962374
 30
0.0
 40
1.769029714285714
  1

  7
ROMANS
 72
     1
 11
184.0350339436118
 21
0.8614590408962374
 31
0.0
100
AcDbAttributeDefinition
  3
MODEL #
  2
MODEL
 70
     0
  0
ATTDEF
  5
7DD
330
7D1
100
AcDbEntity
  8
0
100
AcDbText
 10
213.5729266783056
 20
0.8614590408961362
 30
0.0
 40
1.769029714285714
  1
1
  7
ROMANS
 72
     1
 11
214.2889625150403
 21
0.8614590408961362
 31
0.0
100
AcDbAttributeDefinition
  3
QUANTITY
  2
QTY
 70
     0
  0
ATTDEF
  5
7DE
330
7D1
100
AcDbEntity
  8
0
100
AcDbText
 10
247.2932482293261
 20
11.16763472788734
 30
0.0
 40
1.769029714285714
  1

  7
ROMANS
 72
     1
 11
247.2932482293261
 21
11.16763472788734
 31
0.0
100
AcDbAttributeDefinition
  3
PRECISION REP
  2
REP
 70
     0
  0
ATTDEF
  5
7DF
330
7D1
100
AcDbEntity
  8
0
100
AcDbText
 10
247.3274175489777
 20
3.153238685427304
 30
0.0
 40
3.455136160714285
  1

  7
ROMANS
 72
     1
 11
247.3274175489777
 21
3.153238685427304
 31
0.0
100
AcDbAttributeDefinition
  3
SERIAL #
  2
L010000
 70
     0
  0
ENDBLK
  5
7E1
330
7D1
100
AcDbEntity
  8
0
100
AcDbBlockEnd
  0
BLOCK
  5
82F
330
824
100
AcDbEntity
  8
0
100
AcDbBlockBegin
  2
*D3
 70
     1
 10
0.0
 20
0.0
 30
0.0
  3
*D3
  1

  0
LINE
  5
FD1
330
824
100
AcDbEntity
  8
0
 62
     0
370
    -2
100
AcDbLine
 10
942.852136647526
 20
250.3290869672538
 30
0.0
 11
942.852136647526
 21
196.730282989635
 31
0.0
  0
LINE
  5
FD2
330
824
100
AcDbEntity
  8
0
 62
     0
370
    -2
100
AcDbLine
 10
875.4236195779533
 20
250.3290869672538
 30
0.0
 11
875.4236195779533
 21
196.730282989635
 31
0.0
  0
LINE
  5
FD3
330
824
100
AcDbEntity
  8
0
 62
     0
370
    -2
100
AcDbLine
 10
940.4771366475259
 20
199.105282989635
 30
0.0
 11
921.4786495413109
 21
199.105282989635
 31
0.0
  0
LINE
  5
FD4
330
824
100
AcDbEntity
  8
0
 62
     0
370
    -2
100
AcDbLine
 10
877.7986195779533
 20
199.105282989635
 30
0.0
 11
896.7971066841682
 21
199.105282989635
 31
0.0
  0
SOLID
  5
FD5
330
824
100
AcDbEntity
  8
0
 62
     0
100
AcDbTrace
 10
940.4771366475259
 20
199.5011163229684
 30
0.0
 11
940.4771366475259
 21
198.7094496563017
 31
0.0
 12
942.852136647526
 22
199.105282989635
 32
0.0
 13
942.852136647526
 23
199.105282989635
 33
0.0
  0
SOLID
  5
FD6
330
824
100
AcDbEntity
  8
0
 62
     0
100
AcDbTrace
 10
877.7986195779533
 20
199.5011163229684
 30
0.0
 11
877.7986195779533
 21
198.7094496563017
 31
0.0
 12
875.4236195779533
 22
199.105282989635
 32
0.0
 13
875.4236195779533
 23
199.105282989635
 33
0.0
  0
MTEXT
  5
FD7
330
824
100
AcDbEntity
  8
0
 62
     0
100
AcDbMText
 10
909.1378781127396
 20
199.105282989635
 30
0.0
 40
3.0552
 41
0.0
 71
     5
 72
     1
  1
\A1;29-1/2"
  7
ROMANS
 73
     1
 44
1.0
1001
ACAD
1000
MTEXTBEGIN
1070
    73
1070
     1
1070
    44
1040
1.0
1070
    74
1070
     0
1000
MTEXTEND
  0
POINT
  5
FD8
330
824
100
AcDbEntity
  8
DEFPOINTS
 62
     0
100
AcDbPoint
 10
942.852136647526
 20
252.7040869672538
 30
0.0
  0
POINT
  5
FD9
330
824
100
AcDbEntity
  8
DEFPOINTS
 62
     0
100
AcDbPoint
 10
875.4236195779533
 20
252.7040869672538
 30
0.0
  0
POINT
  5
FDA
330
824
100
AcDbEntity
  8
DEFPOINTS
 62
     0
100
AcDbPoint
 10
875.4236195779533
 20
199.105282989635
 30
0.0
  0
ENDBLK
  5
830
330
824
100
AcDbEntity
  8
0
100
AcDbBlockEnd
  0
BLOCK
  5
83C
330
831
100
AcDbEntity
  8
0
100
AcDbBlockBegin
  2
*D4
 70
     1
 10
0.0
 20
0.0
 30
0.0
  3
*D4
  1

  0
LINE
  5
FC7
330
831
100
AcDbEntity
  8
0
 62
     0
370
    -2
100
AcDbLine
 10
945.9878781127397
 20
244.6648284324673
 30
0.0
 11
945.9878781127397
 21
186.5908484874824
 31
0.0
  0
LINE
  5
FC8
330
831
100
AcDbEntity
  8
0
 62
     0
370
    -2
100
AcDbLine
 10
872.2878781127397
 20
244.6648284324673
 30
0.0
 11
872.2878781127397
 21
186.5908484874824
 31
0.0
  0
LINE
  5
FC9
330
831
100
AcDbEntity
  8
0
 62
     0
370
    -2
100
AcDbLine
 10
943.6128781127397
 20
188.9658484874824
 30
0.0
 11
921.4786495413111
 21
188.9658484874824
 31
0.0
  0
LINE
  5
FCA
330
831
100
AcDbEntity
  8
0
 62
     0
370
    -2
100
AcDbLine
 10
874.6628781127396
 20
188.9658484874824
 30
0.0
 11
896.7971066841682
 21
188.9658484874824
 31
0.0
  0
SOLID
  5
FCB
330
831
100
AcDbEntity
  8
0
 62
     0
100
AcDbTrace
 10
943.6128781127397
 20
189.3616818208157
 30
0.0
 11
943.6128781127397
 21
188.5700151541491
 31
0.0
 12
945.9878781127397
 22
188.9658484874824
 32
0.0
 13
945.9878781127397
 23
188.9658484874824
 33
0.0
  0
SOLID
  5
FCC
330
831
100
AcDbEntity
  8
0
 62
     0
100
AcDbTrace
 10
874.6628781127396
 20
189.3616818208157
 30
0.0
 11
874.6628781127396
 21
188.5700151541491
 31
0.0
 12
872.2878781127397
 22
188.9658484874824
 32
0.0
 13
872.2878781127397
 23
188.9658484874824
 33
0.0
  0
MTEXT
  5
FCD
330
831
100
AcDbEntity
  8
0
 62
     0
100
AcDbMText
 10
909.1378781127398
 20
188.9658484874824
 30
0.0
 40
3.0552
 41
0.0
 71
     5
 72
     1
  1
\A1;33-1/2"
  7
ROMANS
 73
     1
 44
1.0
1001
ACAD
1000
MTEXTBEGIN
1070
    73
1070
     1
1070
    44
1040
1.0
1070
    74
1070
     0
1000
MTEXTEND
  0
POINT
  5
FCE
330
831
100
AcDbEntity
  8
DEFPOINTS
 62
     0
100
AcDbPoint
 10
945.9878781127397
 20
247.0398284324673
 30
0.0
  0
POINT
  5
FCF
330
831
100
AcDbEntity
  8
DEFPOINTS
 62
     0
100
AcDbPoint
 10
872.2878781127397
 20
247.0398284324673
 30
0.0
  0
POINT
  5
FD0
330
831
100
AcDbEntity
  8
DEFPOINTS
 62
     0
100
AcDbPoint
 10
872.2878781127397
 20
188.9658484874824
 30
0.0
  0
ENDBLK
  5
83D
330
831
100
AcDbEntity
  8
0
100
AcDbBlockEnd
  0
BLOCK
  5
849
330
83E
100
AcDbEntity
  8
0
100
AcDbBlockBegin
  2
*D5
 70
     1
 10
0.0
 20
0.0
 30
0.0
  3
*D5
  1

  0
LINE
  5
FBD
330
83E
100
AcDbEntity
  8
0
 62
     0
370
    -2
100
AcDbLine
 10
935.5378781127397
 20
275.4648284324674
 30
0.0
 11
935.5378781127397
 21
267.7063236742911
 31
0.0
  0
LINE
  5
FBE
330
83E
100
AcDbEntity
  8
0
 62
     0
370
    -2
100
AcDbLine
 10
882.7378781127396
 20
275.4648284324674
 30
0.0
 11
882.7378781127396
 21
267.7063236742911
 31
0.0
  0
LINE
  5
FBF
330
83E
100
AcDbEntity
  8
0
 62
     0
370
    -2
100
AcDbLine
 10
933.1628781127397
 20
270.0813236742911
 30
0.0
 11
915.0772781127395
 21
270.0813236742911
 31
0.0
  0
LINE
  5
FC0
330
83E
100
AcDbEntity
  8
0
 62
     0
370
    -2
100
AcDbLine
 10
885.1128781127396
 20
270.0813236742911
 30
0.0
 11
903.1984781127396
 21
270.0813236742911
 31
0.0
  0
SOLID
  5
FC1
330
83E
100
AcDbEntity
  8
0
 62
     0
100
AcDbTrace
 10
933.1628781127397
 20
270.4771570076244
 30
0.0
 11
933.1628781127397
 21
269.6854903409578
 31
0.0
 12
935.5378781127397
 22
270.0813236742911
 32
0.0
 13
935.5378781127397
 23
270.0813236742911
 33
0.0
  0
SOLID
  5
FC2
330
83E
100
AcDbEntity
  8
0
 62
     0
100
AcDbTrace
 10
885.1128781127396
 20
270.4771570076244
 30
0.0
 11
885.1128781127396
 21
269.6854903409578
 31
0.0
 12
882.7378781127396
 22
270.0813236742911
 32
0.0
 13
882.7378781127396
 23
270.0813236742911
 33
0.0
  0
MTEXT
  5
FC3
330
83E
100
AcDbEntity
  8
0
 62
     0
100
AcDbMText
 10
909.1378781127396
 20
270.0813236742911
 30
0.0
 40
3.0552
 41
0.0
 71
     5
 72
     1
  1
\A1;24"
  7
ROMANS
 73
     1
 44
1.0
1001
ACAD
1000
MTEXTBEGIN
1070
    73
1070
     1
1070
    44
1040
1.0
1070
    74
1070
     0
1000
MTEXTEND
  0
POINT
  5
FC4
330
83E
100
AcDbEntity
  8
DEFPOINTS
 62
     0
100
AcDbPoint
 10
935.5378781127397
 20
277.8398284324674
 30
0.0
  0
POINT
  5
FC5
330
83E
100
AcDbEntity
  8
DEFPOINTS
 62
     0
100
AcDbPoint
 10
882.7378781127396
 20
277.8398284324674
 30
0.0
  0
POINT
  5
FC6
330
83E
100
AcDbEntity
  8
DEFPOINTS
 62
     0
100
AcDbPoint
 10
882.7378781127396
 20
270.0813236742911
 30
0.0
  0
ENDBLK
  5
84A
330
83E
100
AcDbEntity
  8
0
100
AcDbBlockEnd
  0
BLOCK
  5
856
330
84B
100
AcDbEntity
  8
0
100
AcDbBlockBegin
  2
*D6
 70
     1
 10
0.0
 20
0.0
 30
0.0
  3
*D6
  1

  0
LINE
  5
F95
330
84B
100
AcDbEntity
  8
0
 62
     0
370
    -2
100
AcDbLine
 10
932.3503781127397
 20
298.3648284324675
 30
0.0
 11
932.3503781127397
 21
307.4346277273307
 31
0.0
  0
LINE
  5
F96
330
84B
100
AcDbEntity
  8
0
 62
     0
370
    -2
100
AcDbLine
 10
885.9253781127398
 20
298.3648284324674
 30
0.0
 11
885.9253781127398
 21
307.4346277273307
 31
0.0
  0
LINE
  5
F97
330
84B
100
AcDbEntity
  8
0
 62
     0
370
    -2
100
AcDbLine
 10
929.9753781127396
 20
305.0596277273307
 30
0.0
 11
921.4786495413111
 21
305.0596277273307
 31
0.0
  0
LINE
  5
F98
330
84B
100
AcDbEntity
  8
0
 62
     0
370
    -2
100
AcDbLine
 10
888.3003781127397
 20
305.0596277273307
 30
0.0
 11
896.7971066841682
 21
305.0596277273307
 31
0.0
  0
SOLID
  5
F99
330
84B
100
AcDbEntity
  8
0
 62
     0
100
AcDbTrace
 10
929.9753781127396
 20
305.455461060664
 30
0.0
 11
929.9753781127396
 21
304.6637943939974
 31
0.0
 12
932.3503781127397
 22
305.0596277273307
 32
0.0
 13
932.3503781127397
 23
305.0596277273307
 33
0.0
  0
SOLID
  5
F9A
330
84B
100
AcDbEntity
  8
0
 62
     0
100
AcDbTrace
 10
888.3003781127397
 20
305.455461060664
 30
0.0
 11
888.3003781127397
 21
304.6637943939974
 31
0.0
 12
885.9253781127398
 22
305.0596277273307
 32
0.0
 13
885.9253781127398
 23
305.0596277273307
 33
0.0
  0
MTEXT
  5
F9B
330
84B
100
AcDbEntity
  8
0
 62
     0
100
AcDbMText
 10
909.1378781127398
 20
305.0596277273307
 30
0.0
 40
3.0552
 41
0.0
 71
     5
 72
     1
  1
\A1;22-1/8"
  7
ROMANS
 73
     1
 44
1.0
1001
ACAD
1000
MTEXTBEGIN
1070
    73
1070
     1
1070
    44
1040
1.0
1070
    74
1070
     0
1000
MTEXTEND
  0
POINT
  5
F9C
330
84B
100
AcDbEntity
  8
DEFPOINTS
 62
     0
100
AcDbPoint
 10
932.3503781127397
 20
295.9898284324675
 30
0.0
  0
POINT
  5
F9D
330
84B
100
AcDbEntity
  8
DEFPOINTS
 62
     0
100
AcDbPoint
 10
885.9253781127398
 20
295.9898284324674
 30
0.0
  0
POINT
  5
F9E
330
84B
100
AcDbEntity
  8
DEFPOINTS
 62
     0
100
AcDbPoint
 10
885.9253781127398
 20
305.0596277273307
 30
0.0
  0
ENDBLK
  5
857
330
84B
100
AcDbEntity
  8
0
100
AcDbBlockEnd
  0
BLOCK
  5
863
330
858
100
AcDbEntity
  8
0
100
AcDbBlockBegin
  2
*D7
 70
     1
 10
0.0
 20
0.0
 30
0.0
  3
*D7
  1

  0
LINE
  5
FA9
330
858
100
AcDbEntity
  8
0
 62
     0
370
    -2
100
AcDbLine
 10
911.5128781127395
 20
218.9898284324674
 30
0.0
 11
964.7649359815222
 21
218.9898284324674
 31
0.0
  0
LINE
  5
FAA
330
858
100
AcDbEntity
  8
0
 62
     0
370
    -2
100
AcDbLine
 10
939.9753781127397
 20
280.5898284324674
 30
0.0
 11
964.7649359815222
 21
280.5898284324674
 31
0.0
  0
LINE
  5
FAB
330
858
100
AcDbEntity
  8
0
 62
     0
370
    -2
100
AcDbLine
 10
962.3899359815222
 20
221.3648284324674
 30
0.0
 11
962.3899359815222
 21
245.596257003896
 31
0.0
  0
LINE
  5
FAC
330
858
100
AcDbEntity
  8
0
 62
     0
370
    -2
100
AcDbLine
 10
962.3899359815222
 20
278.2148284324674
 30
0.0
 11
962.3899359815222
 21
253.9833998610388
 31
0.0
  0
SOLID
  5
FAD
330
858
100
AcDbEntity
  8
0
 62
     0
100
AcDbTrace
 10
961.9941026481887
 20
221.3648284324674
 30
0.0
 11
962.7857693148555
 21
221.3648284324674
 31
0.0
 12
962.3899359815222
 22
218.9898284324674
 32
0.0
 13
962.3899359815222
 23
218.9898284324674
 33
0.0
  0
SOLID
  5
FAE
330
858
100
AcDbEntity
  8
0
 62
     0
100
AcDbTrace
 10
961.9941026481889
 20
278.2148284324674
 30
0.0
 11
962.7857693148555
 21
278.2148284324674
 31
0.0
 12
962.3899359815222
 22
280.5898284324674
 32
0.0
 13
962.3899359815222
 23
280.5898284324674
 33
0.0
  0
MTEXT
  5
FAF
330
858
100
AcDbEntity
  8
0
 62
     0
100
AcDbMText
 10
962.3899359815222
 20
249.7898284324676
 30
0.0
 40
3.0552
 41
0.0
 71
     5
 72
     1
  1
\A1;28"
  7
ROMANS
 73
     1
 44
1.0
1001
ACAD
1000
MTEXTBEGIN
1070
    73
1070
     1
1070
    44
1040
1.0
1070
    74
1070
     0
1000
MTEXTEND
  0
POINT
  5
FB0
330
858
100
AcDbEntity
  8
DEFPOINTS
 62
     0
100
AcDbPoint
 10
909.1378781127396
 20
218.9898284324674
 30
0.0
  0
POINT
  5
FB1
330
858
100
AcDbEntity
  8
DEFPOINTS
 62
     0
100
AcDbPoint
 10
937.6003781127396
 20
280.5898284324674
 30
0.0
  0
POINT
  5
FB2
330
858
100
AcDbEntity
  8
DEFPOINTS
 62
     0
100
AcDbPoint
 10
962.3899359815222
 20
280.5898284324674
 30
0.0
  0
ENDBLK
  5
864
330
858
100
AcDbEntity
  8
0
100
AcDbBlockEnd
  0
BLOCK
  5
870
330
865
100
AcDbEntity
  8
0
100
AcDbBlockBegin
  2
*D8
 70
     1
 10
0.0
 20
0.0
 30
0.0
  3
*D8
  1

  0
LINE
  5
FB3
330
865
100
AcDbEntity
  8
0
 62
     0
370
    -2
100
AcDbLine
 10
911.5128781127395
 20
218.9898284324674
 30
0.0
 11
964.7649359815222
 21
218.9898284324674
 31
0.0
  0
LINE
  5
FB4
330
865
100
AcDbEntity
  8
0
 62
     0
370
    -2
100
AcDbLine
 10
911.5128781127395
 20
210.1898284324672
 30
0.0
 11
964.7649359815222
 21
210.1898284324672
 31
0.0
  0
LINE
  5
FB5
330
865
100
AcDbEntity
  8
0
 62
     0
370
    -2
100
AcDbLine
 10
962.3899359815222
 20
221.3648284324674
 30
0.0
 11
962.3899359815222
 21
223.7398284324674
 31
0.0
  0
LINE
  5
FB6
330
865
100
AcDbEntity
  8
0
 62
     0
370
    -2
100
AcDbLine
 10
962.3899359815222
 20
207.8148284324672
 30
0.0
 11
962.3899359815222
 21
205.4398284324672
 31
0.0
  0
SOLID
  5
FB7
330
865
100
AcDbEntity
  8
0
 62
     0
100
AcDbTrace
 10
961.9941026481889
 20
221.3648284324674
 30
0.0
 11
962.7857693148555
 21
221.3648284324674
 31
0.0
 12
962.3899359815222
 22
218.9898284324674
 32
0.0
 13
962.3899359815222
 23
218.9898284324674
 33
0.0
  0
SOLID
  5
FB8
330
865
100
AcDbEntity
  8
0
 62
     0
100
AcDbTrace
 10
961.9941026481889
 20
207.8148284324672
 30
0.0
 11
962.7857693148555
 21
207.8148284324672
 31
0.0
 12
962.3899359815222
 22
210.1898284324672
 32
0.0
 13
962.3899359815222
 23
210.1898284324672
 33
0.0
  0
MTEXT
  5
FB9
330
865
100
AcDbEntity
  8
0
 62
     0
100
AcDbMText
 10
962.3899359815222
 20
214.5898284324675
 30
0.0
 40
3.0552
 41
0.0
 71
     5
 72
     1
  1
\A1;4"
  7
ROMANS
 73
     1
 44
1.0
1001
ACAD
1000
MTEXTBEGIN
1070
    73
1070
     1
1070
    44
1040
1.0
1070
    74
1070
     0
1000
MTEXTEND
  0
POINT
  5
FBA
330
865
100
AcDbEntity
  8
DEFPOINTS
 62
     0
100
AcDbPoint
 10
909.1378781127396
 20
218.9898284324674
 30
0.0
  0
POINT
  5
FBB
330
865
100
AcDbEntity
  8
DEFPOINTS
 62
     0
100
AcDbPoint
 10
909.1378781127396
 20
210.1898284324672
 30
0.0
  0
POINT
  5
FBC
330
865
100
AcDbEntity
  8
DEFPOINTS
 62
     0
100
AcDbPoint
 10
962.3899359815222
 20
210.1898284324672
 30
0.0
  0
ENDBLK
  5
871
330
865
100
AcDbEntity
  8
0
100
AcDbBlockEnd
  0
BLOCK
  5
87C
330
872
100
AcDbEntity
  8
0
100
AcDbBlockBegin
  2
*D9
 70
     1
 10
0.0
 20
0.0
 30
0.0
  3
*D9
  1

  0
LINE
  5
F9F
330
872
100
AcDbEntity
  8
0
 62
     0
370
    -2
100
AcDbLine
 10
939.9753781127397
 20
280.5898284324674
 30
0.0
 11
964.7649359815222
 21
280.5898284324674
 31
0.0
  0
LINE
  5
FA0
330
872
100
AcDbEntity
  8
0
 62
     0
370
    -2
100
AcDbLine
 10
940.8003781127398
 20
296.5398284324674
 30
0.0
 11
964.7649359815222
 21
296.5398284324674
 31
0.0
  0
LINE
  5
FA1
330
872
100
AcDbEntity
  8
0
 62
     0
370
    -2
100
AcDbLine
 10
962.3899359815222
 20
282.9648284324674
 30
0.0
 11
962.3899359815222
 21
283.8871363061352
 31
0.0
  0
LINE
  5
FA2
330
872
100
AcDbEntity
  8
0
 62
     0
370
    -2
100
AcDbLine
 10
962.3899359815222
 20
294.1648284324673
 30
0.0
 11
962.3899359815222
 21
293.2926791632781
 31
0.0
  0
MTEXT
  5
FA3
330
872
100
AcDbEntity
  8
0
 62
     0
100
AcDbMText
 10
963.1552608815738
 20
288.5899077347068
 30
0.0
 40
3.0552
 41
0.0
 71
     5
 72
     1
  1
\A1;7-1/4"
  7
ROMANS
 73
     1
 44
1.0
1001
ACAD
1000
MTEXTBEGIN
1070
    73
1070
     1
1070
    44
1040
1.0
1070
    74
1070
     0
1000
MTEXTEND
  0
SOLID
  5
FA4
330
872
100
AcDbEntity
  8
0
 62
     0
100
AcDbTrace
 10
961.9941026481889
 20
282.9648284324674
 30
0.0
 11
962.7857693148555
 21
282.9648284324674
 31
0.0
 12
962.3899359815222
 22
280.5898284324674
 32
0.0
 13
962.3899359815222
 23
280.5898284324674
 33
0.0
  0
SOLID
  5
FA5
330
872
100
AcDbEntity
  8
0
 62
     0
100
AcDbTrace
 10
961.9941026481889
 20
294.1648284324673
 30
0.0
 11
962.7857693148555
 21
294.1648284324673
 31
0.0
 12
962.3899359815222
 22
296.5398284324674
 32
0.0
 13
962.3899359815222
 23
296.5398284324674
 33
0.0
  0
POINT
  5
FA6
330
872
100
AcDbEntity
  8
DEFPOINTS
 62
     0
100
AcDbPoint
 10
937.6003781127396
 20
280.5898284324674
 30
0.0
  0
POINT
  5
FA7
330
872
100
AcDbEntity
  8
DEFPOINTS
 62
     0
100
AcDbPoint
 10
938.4253781127396
 20
296.5398284324674
 30
0.0
  0
POINT
  5
FA8
330
872
100
AcDbEntity
  8
DEFPOINTS
 62
     0
100
AcDbPoint
 10
962.3899359815222
 20
296.5398284324674
 30
0.0
  0
ENDBLK
  5
87D
330
872
100
AcDbEntity
  8
0
100
AcDbBlockEnd
  0
BLOCK
  5
8E4
330
8DD
100
AcDbEntity
  8
0
100
AcDbBlockBegin
  2
*U10
 70
     1
 10
0.0
 20
0.0
 30
0.0
  3
*U10
  1

  0
TEXT
  5
F4A
330
8DD
100
AcDbEntity
  8
0
  6
ByBlock
 62
     0
100
AcDbText
 10
-13.1186
 20
-21.31744999999996
 30
0.0
 40
3.0954
  1
50 FT MAX
  7
ROMANS
 72
     1
 11
0.0
 21
-19.76974999999996
 31
0.0
100
AcDbText
 73
     2
1001
AcDbBlockRepETag
1070
     1
1071
        0
1005
F4A
  0
LINE
  5
F4B
330
8DD
100
AcDbEntity
  8
0
  6
ByBlock
 62
     0
100
AcDbLine
 10
-15.08265
 20
-23.72369999999995
 30
0.0
 11
15.08265
 21
-23.72369999999995
 31
0.0
1001
AcDbBlockRepETag
1070
     1
1071
        1
1005
F4B
  0
LINE
  5
F4C
330
8DD
100
AcDbEntity
  8
0
  6
ByBlock
 62
     0
100
AcDbLine
 10
15.08265
 20
-23.72369999999995
 30
0.0
 11
15.08265
 21
0.0
 31
0.0
1001
AcDbBlockRepETag
1070
     1
1071
        2
1005
F4C
  0
LINE
  5
F4D
330
8DD
100
AcDbEntity
  8
0
  6
ByBlock
 62
     0
100
AcDbLine
 10
15.08265
 20
-15.81579999999997
 30
0.0
 11
-15.08265
 21
-15.81579999999997
 31
0.0
1001
AcDbBlockRepETag
1070
     1
1071
        3
1005
F4D
  0
LINE
  5
F4E
330
8DD
100
AcDbEntity
  8
0
  6
ByBlock
 62
     0
100
AcDbLine
 10
-15.08265
 20
0.0
 30
0.0
 11
-15.08265
 21
-23.72369999999995
 31
0.0
1001
AcDbBlockRepETag
1070
     1
1071
        4
1005
F4E
  0
LINE
  5
F4F
330
8DD
100
AcDbEntity
  8
0
  6
ByBlock
 62
     0
100
AcDbLine
 10
15.08265
 20
0.0
 30
0.0
 11
-15.08265
 21
0.0
 31
0.0
1001
AcDbBlockRepETag
1070
     1
1071
        5
1005
F4F
  0
ENDBLK
  5
8E5
330
8DD
100
AcDbEntity
  8
0
100
AcDbBlockEnd
  0
BLOCK
  5
97A
330
96F
100
AcDbEntity
  8
0
100
AcDbBlockBegin
  2
*D11
 70
     1
 10
0.0
 20
0.0
 30
0.0
  3
*D11
  1

  0
LINE
  5
FF9
330
96F
100
AcDbEntity
  8
0
 62
     0
370
    -2
100
AcDbLine
 10
901.2517829964705
 20
142.1340366454098
 30
0.0
 11
910.172306411461
 21
147.2843032403668
 31
0.0
  0
LINE
  5
FFA
330
96F
100
AcDbEntity
  8
0
 62
     0
370
    -2
100
AcDbLine
 10
939.4160530043938
 20
120.0998850829097
 30
0.0
 11
948.3365764193841
 21
125.2501516778667
 31
0.0
  0
LINE
  5
FFB
330
96F
100
AcDbEntity
  8
0
 62
     0
370
    -2
100
AcDbLine
 10
909.854116745449
 20
144.7255963510414
 30
0.0
 11
918.7340023647536
 21
139.5987919983628
 31
0.0
  0
LINE
  5
FFC
330
96F
100
AcDbEntity
  8
0
 62
     0
370
    -2
100
AcDbLine
 10
943.9047660853962
 20
125.0664447885414
 30
0.0
 11
935.0248804660916
 21
130.1932491412199
 31
0.0
  0
SOLID
  5
FFD
330
96F
100
AcDbEntity
  8
0
 62
     0
100
AcDbTrace
 10
910.0520334121156
 20
145.0683980733727
 30
0.0
 11
909.6562000787823
 21
144.38279462871
 31
0.0
 12
907.797306411461
 22
145.9130963510414
 32
0.0
 13
907.797306411461
 23
145.9130963510414
 33
0.0
  0
SOLID
  5
FFE
330
96F
100
AcDbEntity
  8
0
 62
     0
100
AcDbTrace
 10
944.1026827520628
 20
125.4092465108727
 30
0.0
 11
943.7068494187295
 21
124.72364306621
 31
0.0
 12
945.9615764193841
 22
123.8789447885414
 32
0.0
 13
945.9615764193841
 23
123.8789447885414
 33
0.0
  0
MTEXT
  5
FFF
330
96F
100
AcDbEntity
  8
0
 62
     0
100
AcDbMText
 10
926.8794414154227
 20
134.8960205697914
 30
0.0
 40
3.0552
 41
0.0
 71
     5
 72
     1
  1
\A1;{8-1/2"}
  7
ROMANS
 73
     1
 44
1.0
1001
ACAD
1000
MTEXTBEGIN
1070
    73
1070
     1
1070
    44
1040
1.0
1070
    74
1070
     0
1000
MTEXTEND
  0
POINT
  5
1000
330
96F
100
AcDbEntity
  8
DEFPOINTS
 62
     0
100
AcDbPoint
 10
898.8767829964706
 20
140.7628297560844
 30
0.0
  0
POINT
  5
1001
330
96F
100
AcDbEntity
  8
DEFPOINTS
 62
     0
100
AcDbPoint
 10
937.0410530043939
 20
118.7286781935843
 30
0.0
  0
POINT
  5
1002
330
96F
100
AcDbEntity
  8
DEFPOINTS
 62
     0
100
AcDbPoint
 10
945.9615764193841
 20
123.8789447885414
 30
0.0
  0
ENDBLK
  5
97B
330
96F
100
AcDbEntity
  8
0
100
AcDbBlockEnd
  0
BLOCK
  5
9FF
330
9F4
100
AcDbEntity
  8
0
100
AcDbBlockBegin
  2
*D12
 70
     1
 10
0.0
 20
0.0
 30
0.0
  3
*D12
  1

  0
LINE
  5
F63
330
9F4
100
AcDbEntity
  8
0
 62
     0
370
    -2
100
AcDbLine
 10
777.5492939317214
 20
245.8893001321724
 30
0.0
 11
812.8159058275867
 21
245.8893001321724
 31
0.0
  0
LINE
  5
F64
330
9F4
100
AcDbEntity
  8
0
 62
     0
370
    -2
100
AcDbLine
 10
780.8739569020787
 20
293.8893001321724
 30
0.0
 11
812.8159058275869
 21
293.8893001321724
 31
0.0
  0
LINE
  5
F65
330
9F4
100
AcDbEntity
  8
0
 62
     0
370
    -2
100
AcDbLine
 10
810.4409058275868
 20
248.2643001321724
 30
0.0
 11
810.4409058275869
 21
265.695728703601
 31
0.0
  0
LINE
  5
F66
330
9F4
100
AcDbEntity
  8
0
 62
     0
370
    -2
100
AcDbLine
 10
810.4409058275869
 20
291.5143001321724
 30
0.0
 11
810.4409058275869
 21
274.0828715607439
 31
0.0
  0
SOLID
  5
F67
330
9F4
100
AcDbEntity
  8
0
 62
     0
100
AcDbTrace
 10
810.0450724942534
 20
248.2643001321724
 30
0.0
 11
810.8367391609201
 21
248.2643001321724
 31
0.0
 12
810.4409058275868
 22
245.8893001321724
 32
0.0
 13
810.4409058275868
 23
245.8893001321724
 33
0.0
  0
SOLID
  5
F68
330
9F4
100
AcDbEntity
  8
0
 62
     0
100
AcDbTrace
 10
810.0450724942534
 20
291.5143001321724
 30
0.0
 11
810.8367391609203
 21
291.5143001321724
 31
0.0
 12
810.4409058275869
 22
293.8893001321724
 32
0.0
 13
810.4409058275869
 23
293.8893001321724
 33
0.0
  0
MTEXT
  5
F69
330
9F4
100
AcDbEntity
  8
0
 62
     0
100
AcDbMText
 10
810.4409058275868
 20
269.8893001321725
 30
0.0
 40
3.0552
 41
0.0
 71
     5
 72
     1
  1
\A1;4'-0"
  7
ROMANS
 73
     1
 44
1.0
1001
ACAD
1000
MTEXTBEGIN
1070
    73
1070
     1
1070
    44
1040
1.0
1070
    74
1070
     0
1000
MTEXTEND
  0
POINT
  5
F6A
330
9F4
100
AcDbEntity
  8
DEFPOINTS
 62
     0
100
AcDbPoint
 10
775.1742939317214
 20
245.8893001321724
 30
0.0
  0
POINT
  5
F6B
330
9F4
100
AcDbEntity
  8
DEFPOINTS
 62
     0
100
AcDbPoint
 10
778.4989569020788
 20
293.8893001321724
 30
0.0
  0
POINT
  5
F6C
330
9F4
100
AcDbEntity
  8
DEFPOINTS
 62
     0
100
AcDbPoint
 10
810.4409058275869
 20
293.8893001321724
 30
0.0
  0
ENDBLK
  5
A00
330
9F4
100
AcDbEntity
  8
0
100
AcDbBlockEnd
  0
BLOCK
  5
A0C
330
A01
100
AcDbEntity
  8
0
100
AcDbBlockBegin
  2
*D13
 70
     1
 10
0.0
 20
0.0
 30
0.0
  3
*D13
  1

  0
LINE
  5
F6D
330
A01
100
AcDbEntity
  8
0
 62
     0
370
    -2
100
AcDbLine
 10
609.5915995307556
 20
150.8893001321723
 30
0.0
 11
623.3258508092865
 21
150.8893001321723
 31
0.0
  0
LINE
  5
F6E
330
A01
100
AcDbEntity
  8
0
 62
     0
370
    -2
100
AcDbLine
 10
605.5915995307555
 20
198.8893001321723
 30
0.0
 11
623.3258508092865
 21
198.8893001321723
 31
0.0
  0
LINE
  5
F6F
330
A01
100
AcDbEntity
  8
0
 62
     0
370
    -2
100
AcDbLine
 10
620.9508508092865
 20
153.2643001321723
 30
0.0
 11
620.9508508092865
 21
170.6957287036009
 31
0.0
  0
LINE
  5
F70
330
A01
100
AcDbEntity
  8
0
 62
     0
370
    -2
100
AcDbLine
 10
620.9508508092865
 20
196.5143001321724
 30
0.0
 11
620.9508508092865
 21
179.0828715607437
 31
0.0
  0
SOLID
  5
F71
330
A01
100
AcDbEntity
  8
0
 62
     0
100
AcDbTrace
 10
620.5550174759531
 20
153.2643001321723
 30
0.0
 11
621.3466841426199
 21
153.2643001321723
 31
0.0
 12
620.9508508092865
 22
150.8893001321723
 32
0.0
 13
620.9508508092865
 23
150.8893001321723
 33
0.0
  0
SOLID
  5
F72
330
A01
100
AcDbEntity
  8
0
 62
     0
100
AcDbTrace
 10
620.5550174759531
 20
196.5143001321724
 30
0.0
 11
621.3466841426199
 21
196.5143001321724
 31
0.0
 12
620.9508508092865
 22
198.8893001321723
 32
0.0
 13
620.9508508092865
 23
198.8893001321723
 33
0.0
  0
MTEXT
  5
F73
330
A01
100
AcDbEntity
  8
0
 62
     0
100
AcDbMText
 10
620.9508508092865
 20
174.8893001321724
 30
0.0
 40
3.0552
 41
0.0
 71
     5
 72
     1
  1
\A1;4' TYP
  7
ROMANS
 73
     1
 44
1.0
1001
ACAD
1000
MTEXTBEGIN
1070
    73
1070
     1
1070
    44
1040
1.0
1070
    74
1070
     0
1000
MTEXTEND
  0
POINT
  5
F74
330
A01
100
AcDbEntity
  8
DEFPOINTS
 62
     0
100
AcDbPoint
 10
607.2165995307556
 20
150.8893001321723
 30
0.0
  0
POINT
  5
F75
330
A01
100
AcDbEntity
  8
DEFPOINTS
 62
     0
100
AcDbPoint
 10
603.2165995307555
 20
198.8893001321723
 30
0.0
  0
POINT
  5
F76
330
A01
100
AcDbEntity
  8
DEFPOINTS
 62
     0
100
AcDbPoint
 10
620.9508508092865
 20
198.8893001321723
 30
0.0
  0
ENDBLK
  5
A0D
330
A01
100
AcDbEntity
  8
0
100
AcDbBlockEnd
  0
BLOCK
  5
A19
330
A0E
100
AcDbEntity
  8
0
100
AcDbBlockBegin
  2
*D14
 70
     1
 10
0.0
 20
0.0
 30
0.0
  3
*D14
  1

  0
LINE
  5
F77
330
A0E
100
AcDbEntity
  8
0
 62
     0
370
    -2
100
AcDbLine
 10
571.5915995307555
 20
293.8893001321724
 30
0.0
 11
548.0868779795891
 21
293.8893001321724
 31
0.0
  0
LINE
  5
F78
330
A0E
100
AcDbEntity
  8
0
 62
     0
370
    -2
100
AcDbLine
 10
565.5915995307554
 20
287.8893001321724
 30
0.0
 11
548.0868779795891
 21
287.8893001321724
 31
0.0
  0
LINE
  5
F79
330
A0E
100
AcDbEntity
  8
0
 62
     0
370
    -2
100
AcDbLine
 10
550.4618779795891
 20
296.2643001321724
 30
0.0
 11
550.4618779795891
 21
298.6393001321724
 31
0.0
  0
LINE
  5
F7A
330
A0E
100
AcDbEntity
  8
0
 62
     0
370
    -2
100
AcDbLine
 10
550.4618779795891
 20
285.5143001321724
 30
0.0
 11
550.4618779795891
 21
283.1393001321724
 31
0.0
  0
MTEXT
  5
F7B
330
A0E
100
AcDbEntity
  8
0
 62
     0
100
AcDbMText
 10
543.2622351224462
 20
290.8893001321725
 30
0.0
 40
3.0552
 41
0.0
 71
     5
 72
     1
  1
\A1;6"
  7
ROMANS
 73
     1
 44
1.0
1001
ACAD
1000
MTEXTBEGIN
1070
    73
1070
     1
1070
    44
1040
1.0
1070
    74
1070
     0
1000
MTEXTEND
  0
SOLID
  5
F7C
330
A0E
100
AcDbEntity
  8
0
 62
     0
100
AcDbTrace
 10
550.0660446462558
 20
296.2643001321724
 30
0.0
 11
550.8577113129225
 21
296.2643001321724
 31
0.0
 12
550.4618779795891
 22
293.8893001321724
 32
0.0
 13
550.4618779795891
 23
293.8893001321724
 33
0.0
  0
SOLID
  5
F7D
330
A0E
100
AcDbEntity
  8
0
 62
     0
100
AcDbTrace
 10
550.0660446462558
 20
285.5143001321724
 30
0.0
 11
550.8577113129225
 21
285.5143001321724
 31
0.0
 12
550.4618779795891
 22
287.8893001321724
 32
0.0
 13
550.4618779795891
 23
287.8893001321724
 33
0.0
  0
POINT
  5
F7E
330
A0E
100
AcDbEntity
  8
DEFPOINTS
 62
     0
100
AcDbPoint
 10
573.9665995307555
 20
293.8893001321724
 30
0.0
  0
POINT
  5
F7F
330
A0E
100
AcDbEntity
  8
DEFPOINTS
 62
     0
100
AcDbPoint
 10
567.9665995307555
 20
287.8893001321724
 30
0.0
  0
POINT
  5
F80
330
A0E
100
AcDbEntity
  8
DEFPOINTS
 62
     0
100
AcDbPoint
 10
550.4618779795891
 20
287.8893001321724
 30
0.0
  0
ENDBLK
  5
A1A
330
A0E
100
AcDbEntity
  8
0
100
AcDbBlockEnd
  0
BLOCK
  5
A26
330
A1B
100
AcDbEntity
  8
0
100
AcDbBlockBegin
  2
*D15
 70
     1
 10
0.0
 20
0.0
 30
0.0
  3
*D15
  1

  0
LINE
  5
F81
330
A1B
100
AcDbEntity
  8
0
 62
     0
370
    -2
100
AcDbLine
 10
565.5915995307554
 20
287.8893001321724
 30
0.0
 11
548.0868779795892
 21
287.8893001321724
 31
0.0
  0
LINE
  5
F82
330
A1B
100
AcDbEntity
  8
0
 62
     0
370
    -2
100
AcDbLine
 10
565.5915995307554
 20
239.8893001321724
 30
0.0
 11
548.0868779795891
 21
239.8893001321724
 31
0.0
  0
LINE
  5
F83
330
A1B
100
AcDbEntity
  8
0
 62
     0
370
    -2
100
AcDbLine
 10
550.4618779795893
 20
285.5143001321724
 30
0.0
 11
550.4618779795893
 21
268.0828715607439
 31
0.0
  0
LINE
  5
F84
330
A1B
100
AcDbEntity
  8
0
 62
     0
370
    -2
100
AcDbLine
 10
550.4618779795891
 20
242.2643001321724
 30
0.0
 11
550.4618779795893
 21
259.695728703601
 31
0.0
  0
SOLID
  5
F85
330
A1B
100
AcDbEntity
  8
0
 62
     0
100
AcDbTrace
 10
550.0660446462559
 20
285.5143001321724
 30
0.0
 11
550.8577113129226
 21
285.5143001321724
 31
0.0
 12
550.4618779795893
 22
287.8893001321724
 32
0.0
 13
550.4618779795893
 23
287.8893001321724
 33
0.0
  0
SOLID
  5
F86
330
A1B
100
AcDbEntity
  8
0
 62
     0
100
AcDbTrace
 10
550.0660446462558
 20
242.2643001321724
 30
0.0
 11
550.8577113129225
 21
242.2643001321724
 31
0.0
 12
550.4618779795891
 22
239.8893001321724
 32
0.0
 13
550.4618779795891
 23
239.8893001321724
 33
0.0
  0
MTEXT
  5
F87
330
A1B
100
AcDbEntity
  8
0
 62
     0
100
AcDbMText
 10
550.4618779795891
 20
263.8893001321725
 30
0.0
 40
3.0552
 41
0.0
 71
     5
 72
     1
  1
\A1;4' TYP
  7
ROMANS
 73
     1
 44
1.0
1001
ACAD
1000
MTEXTBEGIN
1070
    73
1070
     1
1070
    44
1040
1.0
1070
    74
1070
     0
1000
MTEXTEND
  0
POINT
  5
F88
330
A1B
100
AcDbEntity
  8
DEFPOINTS
 62
     0
100
AcDbPoint
 10
567.9665995307555
 20
287.8893001321724
 30
0.0
  0
POINT
  5
F89
330
A1B
100
AcDbEntity
  8
DEFPOINTS
 62
     0
100
AcDbPoint
 10
567.9665995307555
 20
239.8893001321724
 30
0.0
  0
POINT
  5
F8A
330
A1B
100
AcDbEntity
  8
DEFPOINTS
 62
     0
100
AcDbPoint
 10
550.4618779795891
 20
239.8893001321724
 30
0.0
  0
ENDBLK
  5
A27
330
A1B
100
AcDbEntity
  8
0
100
AcDbBlockEnd
  0
BLOCK
  5
A32
330
A28
100
AcDbEntity
  8
0
100
AcDbBlockBegin
  2
*D16
 70
     1
 10
0.0
 20
0.0
 30
0.0
  3
*D16
  1

  0
LINE
  5
F8B
330
A28
100
AcDbEntity
  8
0
 62
     0
370
    -2
100
AcDbLine
 10
777.5492939317214
 20
101.8893001321724
 30
0.0
 11
792.4278506818361
 21
101.8893001321724
 31
0.0
  0
LINE
  5
F8C
330
A28
100
AcDbEntity
  8
0
 62
     0
370
    -2
100
AcDbLine
 10
777.5492939317214
 20
89.8893001321724
 30
0.0
 11
792.4278506818361
 21
89.8893001321724
 31
0.0
  0
LINE
  5
F8D
330
A28
100
AcDbEntity
  8
0
 62
     0
370
    -2
100
AcDbLine
 10
790.0528506818361
 20
104.2643001321724
 30
0.0
 11
790.0528506818361
 21
106.6393001321724
 31
0.0
  0
LINE
  5
F8E
330
A28
100
AcDbEntity
  8
0
 62
     0
370
    -2
100
AcDbLine
 10
790.0528506818361
 20
87.51430013217239
 30
0.0
 11
790.0528506818361
 21
85.13930013217239
 31
0.0
  0
MTEXT
  5
F8F
330
A28
100
AcDbEntity
  8
0
 62
     0
100
AcDbMText
 10
790.0528506818361
 20
95.8893001321724
 30
0.0
 40
3.0552
 41
0.0
 71
     5
 72
     1
  1
\A1;12" TYP
  7
ROMANS
 73
     1
 44
1.0
1001
ACAD
1000
MTEXTBEGIN
1070
    73
1070
     1
1070
    44
1040
1.0
1070
    74
1070
     0
1000
MTEXTEND
  0
SOLID
  5
F90
330
A28
100
AcDbEntity
  8
0
 62
     0
100
AcDbTrace
 10
789.6570173485027
 20
104.2643001321724
 30
0.0
 11
790.4486840151695
 21
104.2643001321724
 31
0.0
 12
790.0528506818361
 22
101.8893001321724
 32
0.0
 13
790.0528506818361
 23
101.8893001321724
 33
0.0
  0
SOLID
  5
F91
330
A28
100
AcDbEntity
  8
0
 62
     0
100
AcDbTrace
 10
789.6570173485027
 20
87.51430013217239
 30
0.0
 11
790.4486840151695
 21
87.51430013217239
 31
0.0
 12
790.0528506818361
 22
89.8893001321724
 32
0.0
 13
790.0528506818361
 23
89.8893001321724
 33
0.0
  0
POINT
  5
F92
330
A28
100
AcDbEntity
  8
DEFPOINTS
 62
     0
100
AcDbPoint
 10
775.1742939317214
 20
101.8893001321724
 30
0.0
  0
POINT
  5
F93
330
A28
100
AcDbEntity
  8
DEFPOINTS
 62
     0
100
AcDbPoint
 10
775.1742939317214
 20
89.8893001321724
 30
0.0
  0
POINT
  5
F94
330
A28
100
AcDbEntity
  8
DEFPOINTS
 62
     0
100
AcDbPoint
 10
790.0528506818361
 20
89.8893001321724
 30
0.0
  0
ENDBLK
  5
A33
330
A28
100
AcDbEntity
  8
0
100
AcDbBlockEnd
  0
BLOCK
  5
A3F
330
A34
100
AcDbEntity
  8
0
100
AcDbBlockBegin
  2
*D17
 70
     1
 10
0.0
 20
0.0
 30
0.0
  3
*D17
  1

  0
LINE
  5
FDB
330
A34
100
AcDbEntity
  8
0
 62
     0
370
    -2
100
AcDbLine
 10
594.3415995307555
 20
60.88930013217233
 30
0.0
 11
623.3258508092865
 21
60.88930013217233
 31
0.0
  0
LINE
  5
FDC
330
A34
100
AcDbEntity
  8
0
 62
     0
370
    -2
100
AcDbLine
 10
609.5915995307556
 20
150.8893001321723
 30
0.0
 11
623.3258508092865
 21
150.8893001321723
 31
0.0
  0
LINE
  5
FDD
330
A34
100
AcDbEntity
  8
0
 62
     0
370
    -2
100
AcDbLine
 10
620.9508508092865
 20
63.26430013217233
 30
0.0
 11
620.9508508092865
 21
101.6957287036009
 31
0.0
  0
LINE
  5
FDE
330
A34
100
AcDbEntity
  8
0
 62
     0
370
    -2
100
AcDbLine
 10
620.9508508092865
 20
148.5143001321723
 30
0.0
 11
620.9508508092865
 21
110.0828715607437
 31
0.0
  0
SOLID
  5
FDF
330
A34
100
AcDbEntity
  8
0
 62
     0
100
AcDbTrace
 10
620.5550174759531
 20
63.26430013217233
 30
0.0
 11
621.3466841426199
 21
63.26430013217233
 31
0.0
 12
620.9508508092865
 22
60.88930013217233
 32
0.0
 13
620.9508508092865
 23
60.88930013217233
 33
0.0
  0
SOLID
  5
FE0
330
A34
100
AcDbEntity
  8
0
 62
     0
100
AcDbTrace
 10
620.5550174759531
 20
148.5143001321723
 30
0.0
 11
621.3466841426199
 21
148.5143001321723
 31
0.0
 12
620.9508508092865
 22
150.8893001321723
 32
0.0
 13
620.9508508092865
 23
150.8893001321723
 33
0.0
  0
MTEXT
  5
FE1
330
A34
100
AcDbEntity
  8
0
 62
     0
100
AcDbMText
 10
620.9508508092865
 20
105.8893001321724
 30
0.0
 40
3.0552
 41
0.0
 71
     5
 72
     1
  1
\A1;7'-6"
  7
ROMANS
 73
     1
 44
1.0
1001
ACAD
1000
MTEXTBEGIN
1070
    73
1070
     1
1070
    44
1040
1.0
1070
    74
1070
     0
1000
MTEXTEND
  0
POINT
  5
FE2
330
A34
100
AcDbEntity
  8
DEFPOINTS
 62
     0
100
AcDbPoint
 10
591.9665995307554
 20
60.88930013217233
 30
0.0
  0
POINT
  5
FE3
330
A34
100
AcDbEntity
  8
DEFPOINTS
 62
     0
100
AcDbPoint
 10
607.2165995307556
 20
150.8893001321723
 30
0.0
  0
POINT
  5
FE4
330
A34
100
AcDbEntity
  8
DEFPOINTS
 62
     0
100
AcDbPoint
 10
620.9508508092865
 20
150.8893001321723
 30
0.0
  0
ENDBLK
  5
A40
330
A34
100
AcDbEntity
  8
0
100
AcDbBlockEnd
  0
BLOCK
  5
A4C
330
A41
100
AcDbEntity
  8
0
100
AcDbBlockBegin
  2
*D18
 70
     1
 10
0.0
 20
0.0
 30
0.0
  3
*D18
  1

  0
LINE
  5
FE5
330
A41
100
AcDbEntity
  8
0
 62
     0
370
    -2
100
AcDbLine
 10
776.2367939317214
 20
58.5143001321725
 30
0.0
 11
776.2367939317214
 21
51.93824782200642
 31
0.0
  0
LINE
  5
FE6
330
A41
100
AcDbEntity
  8
0
 62
     0
370
    -2
100
AcDbLine
 10
750.1117939317214
 20
58.51430013217239
 30
0.0
 11
750.1117939317214
 21
51.93824782200642
 31
0.0
  0
LINE
  5
FE7
330
A41
100
AcDbEntity
  8
0
 62
     0
370
    -2
100
AcDbLine
 10
778.6117939317214
 20
54.31324782200642
 30
0.0
 11
780.9867939317214
 21
54.31324782200642
 31
0.0
  0
LINE
  5
FE8
330
A41
100
AcDbEntity
  8
0
 62
     0
370
    -2
100
AcDbLine
 10
747.7367939317214
 20
54.31324782200642
 30
0.0
 11
745.3617939317214
 21
54.31324782200642
 31
0.0
  0
SOLID
  5
FE9
330
A41
100
AcDbEntity
  8
0
 62
     0
100
AcDbTrace
 10
778.6117939317214
 20
54.70908115533975
 30
0.0
 11
778.6117939317214
 21
53.91741448867308
 31
0.0
 12
776.2367939317214
 22
54.31324782200642
 32
0.0
 13
776.2367939317214
 23
54.31324782200642
 33
0.0
  0
SOLID
  5
FEA
330
A41
100
AcDbEntity
  8
0
 62
     0
100
AcDbTrace
 10
747.7367939317214
 20
54.70908115533975
 30
0.0
 11
747.7367939317214
 21
53.91741448867308
 31
0.0
 12
750.1117939317214
 22
54.31324782200642
 32
0.0
 13
750.1117939317214
 23
54.31324782200642
 33
0.0
  0
MTEXT
  5
FEB
330
A41
100
AcDbEntity
  8
0
 62
     0
100
AcDbMText
 10
763.1742939317214
 20
54.31324782200642
 30
0.0
 40
3.0552
 41
0.0
 71
     5
 72
     1
  1
\A1;26-1/8"
  7
ROMANS
 73
     1
 44
1.0
1001
ACAD
1000
MTEXTBEGIN
1070
    73
1070
     1
1070
    44
1040
1.0
1070
    74
1070
     0
1000
MTEXTEND
  0
POINT
  5
FEC
330
A41
100
AcDbEntity
  8
DEFPOINTS
 62
     0
100
AcDbPoint
 10
776.2367939317214
 20
60.8893001321725
 30
0.0
  0
POINT
  5
FED
330
A41
100
AcDbEntity
  8
DEFPOINTS
 62
     0
100
AcDbPoint
 10
750.1117939317214
 20
60.8893001321724
 30
0.0
  0
POINT
  5
FEE
330
A41
100
AcDbEntity
  8
DEFPOINTS
 62
     0
100
AcDbPoint
 10
750.1117939317214
 20
54.31324782200642
 30
0.0
  0
ENDBLK
  5
A4D
330
A41
100
AcDbEntity
  8
0
100
AcDbBlockEnd
  0
BLOCK
  5
A59
330
A4E
100
AcDbEntity
  8
0
100
AcDbBlockBegin
  2
*D19
 70
     1
 10
0.0
 20
0.0
 30
0.0
  3
*D19
  1

  0
LINE
  5
FEF
330
A4E
100
AcDbEntity
  8
0
 62
     0
370
    -2
100
AcDbLine
 10
748.7992939317214
 20
245.8893001321724
 30
0.0
 11
739.4022839255531
 21
245.8893001321724
 31
0.0
  0
LINE
  5
FF0
330
A4E
100
AcDbEntity
  8
0
 62
     0
370
    -2
100
AcDbLine
 10
745.474630961364
 20
243.8893001321724
 30
0.0
 11
739.4022839255531
 21
243.8893001321724
 31
0.0
  0
LINE
  5
FF1
330
A4E
100
AcDbEntity
  8
0
 62
     0
370
    -2
100
AcDbLine
 10
741.7772839255531
 20
248.2643001321724
 30
0.0
 11
741.7772839255531
 21
250.6393001321724
 31
0.0
  0
LINE
  5
FF2
330
A4E
100
AcDbEntity
  8
0
 62
     0
370
    -2
100
AcDbLine
 10
741.7772839255531
 20
241.5143001321724
 30
0.0
 11
741.7772839255531
 21
239.1393001321724
 31
0.0
  0
MTEXT
  5
FF3
330
A4E
100
AcDbEntity
  8
0
 62
     0
100
AcDbMText
 10
734.5776410684102
 20
244.8893001321725
 30
0.0
 40
3.0552
 41
0.0
 71
     5
 72
     1
  1
\A1;2"
  7
ROMANS
 73
     1
 44
1.0
1001
ACAD
1000
MTEXTBEGIN
1070
    73
1070
     1
1070
    44
1040
1.0
1070
    74
1070
     0
1000
MTEXTEND
  0
SOLID
  5
FF4
330
A4E
100
AcDbEntity
  8
0
 62
     0
100
AcDbTrace
 10
741.3814505922196
 20
248.2643001321724
 30
0.0
 11
742.1731172588864
 21
248.2643001321724
 31
0.0
 12
741.7772839255531
 22
245.8893001321724
 32
0.0
 13
741.7772839255531
 23
245.8893001321724
 33
0.0
  0
SOLID
  5
FF5
330
A4E
100
AcDbEntity
  8
0
 62
     0
100
AcDbTrace
 10
741.3814505922196
 20
241.5143001321724
 30
0.0
 11
742.1731172588864
 21
241.5143001321724
 31
0.0
 12
741.7772839255531
 22
243.8893001321724
 32
0.0
 13
741.7772839255531
 23
243.8893001321724
 33
0.0
  0
POINT
  5
FF6
330
A4E
100
AcDbEntity
  8
DEFPOINTS
 62
     0
100
AcDbPoint
 10
751.1742939317214
 20
245.8893001321724
 30
0.0
  0
POINT
  5
FF7
330
A4E
100
AcDbEntity
  8
DEFPOINTS
 62
     0
100
AcDbPoint
 10
747.849630961364
 20
243.8893001321724
 30
0.0
  0
POINT
  5
FF8
330
A4E
100
AcDbEntity
  8
DEFPOINTS
 62
     0
100
AcDbPoint
 10
741.7772839255531
 20
243.8893001321724
 30
0.0
  0
ENDBLK
  5
A5A
330
A4E
100
AcDbEntity
  8
0
100
AcDbBlockEnd
  0
BLOCK
  5
A82
330
A81
100
AcDbEntity
  8
0
100
AcDbBlockBegin
  2
*X20
 70
     1
 10
0.0
 20
0.0
 30
0.0
  3
*X20
  1

  0
LINE
  5
A83
330
A81
100
AcDbEntity
  8
0
 62
     0
100
AcDbLine
 10
-39.38783740946116
 20
-279.4947837961181
 30
0.0
 11
-38.65407559127778
 21
-278.7610219779348
 31
0.0
  0
LINE
  5
A84
330
A81
100
AcDbEntity
  8
0
 62
     0
100
AcDbLine
 10
-39.50054631068232
 20
-279.4749101758668
 30
0.0
 11
-38.76678449249896
 21
-278.7411483576835
 31
0.0
  0
LINE
  5
A85
330
A81
100
AcDbEntity
  8
0
 62
     0
100
AcDbLine
 10
-39.61325521190351
 20
-279.4550365556156
 30
0.0
 11
-38.87949339372014
 21
-278.7212747374322
 31
0.0
  0
LINE
  5
A86
330
A81
100
AcDbEntity
  8
0
 62
     0
100
AcDbLine
 10
-39.7259641131247
 20
-279.4351629353642
 30
0.0
 11
-38.99220229494132
 21
-278.7014011171809
 31
0.0
  0
LINE
  5
A87
330
A81
100
AcDbEntity
  8
0
 62
     0
100
AcDbLine
 10
-39.83867301434587
 20
-279.415289315113
 30
0.0
 11
-39.1049111961625
 21
-278.6815274969296
 31
0.0
  0
LINE
  5
A88
330
A81
100
AcDbEntity
  8
0
 62
     0
100
AcDbLine
 10
-39.95138191556705
 20
-279.3954156948617
 30
0.0
 11
-39.21762009738368
 21
-278.6616538766783
 31
0.0
  0
LINE
  5
A89
330
A81
100
AcDbEntity
  8
0
 62
     0
100
AcDbLine
 10
-40.06409081678821
 20
-279.3755420746104
 30
0.0
 11
-39.33032899860484
 21
-278.641780256427
 31
0.0
  0
LINE
  5
A8A
330
A81
100
AcDbEntity
  8
0
 62
     0
100
AcDbLine
 10
-40.1767997180094
 20
-279.3556684543591
 30
0.0
 11
-40.06372011526283
 21
-279.2425888516125
 31
0.0
  0
LINE
  5
A8B
330
A81
100
AcDbEntity
  8
0
 62
     0
100
AcDbLine
 10
-39.89688315430998
 20
-279.0757518906596
 30
0.0
 11
-39.44303789982602
 21
-278.6219066361756
 31
0.0
  0
LINE
  5
A8C
330
A81
100
AcDbEntity
  8
0
 62
     0
100
AcDbLine
 10
-40.06372011526283
 20
-279.2425888516125
 30
0.0
 11
-39.89688315430998
 21
-279.0757518906597
 31
0.0
  0
LINE
  5
A8D
330
A81
100
AcDbEntity
  8
0
 62
     0
100
AcDbLine
 10
-40.28950861923056
 20
-279.3357948341077
 30
0.0
 11
-40.10500766087813
 21
-279.1512938757553
 31
0.0
  0
LINE
  5
A8E
330
A81
100
AcDbEntity
  8
0
 62
     0
100
AcDbLine
 10
-39.94078059974761
 20
-278.9870668146248
 30
0.0
 11
-39.5557468010472
 21
-278.6020330159244
 31
0.0
  0
LINE
  5
A8F
330
A81
100
AcDbEntity
  8
0
 62
     0
100
AcDbLine
 10
-40.10500766087811
 20
-279.1512938757553
 30
0.0
 11
-39.9407805997476
 21
-278.9870668146248
 31
0.0
  0
LINE
  5
A90
330
A81
100
AcDbEntity
  8
0
 62
     0
100
AcDbLine
 10
-40.36990717715883
 20
-279.2836108705636
 30
0.0
 11
-40.1462952064934
 21
-279.0599988998982
 31
0.0
  0
LINE
  5
A91
330
A81
100
AcDbEntity
  8
0
 62
     0
100
AcDbLine
 10
-39.98467804518519
 20
-278.8983817385899
 30
0.0
 11
-39.66845570226838
 21
-278.5821593956731
 31
0.0
  0
LINE
  5
A92
330
A81
100
AcDbEntity
  8
0
 62
     0
100
AcDbLine
 10
-40.14629520649338
 20
-279.0599988998981
 30
0.0
 11
-39.98467804518524
 21
-278.89838173859
 31
0.0
  0
LINE
  5
A93
330
A81
100
AcDbEntity
  8
0
 62
     0
100
AcDbLine
 10
-40.32903303677044
 20
-279.1101542087027
 30
0.0
 11
-40.18758275210868
 21
-278.968703924041
 31
0.0
  0
LINE
  5
A94
330
A81
100
AcDbEntity
  8
0
 62
     0
100
AcDbLine
 10
-40.02857549062279
 20
-278.8096966625551
 30
0.0
 11
-39.78116460348956
 21
-278.5622857754218
 31
0.0
  0
LINE
  5
A95
330
A81
100
AcDbEntity
  8
0
 62
     0
100
AcDbLine
 10
-40.18758275210866
 20
-278.9687039240409
 30
0.0
 11
-40.02857549062286
 21
-278.8096966625551
 31
0.0
  0
LINE
  5
A96
330
A81
100
AcDbEntity
  8
0
 62
     0
100
AcDbLine
 10
-40.28815889638206
 20
-278.9366975468419
 30
0.0
 11
-40.22887029772395
 21
-278.8774089481838
 31
0.0
  0
LINE
  5
A97
330
A81
100
AcDbEntity
  8
0
 62
     0
100
AcDbLine
 10
-40.07247293606041
 20
-278.7210115865202
 30
0.0
 11
-39.89387350471074
 21
-278.5424121551705
 31
0.0
  0
LINE
  5
A98
330
A81
100
AcDbEntity
  8
0
 62
     0
100
AcDbLine
 10
-40.22887029772394
 20
-278.8774089481837
 30
0.0
 11
-40.07247293606049
 21
-278.7210115865203
 31
0.0
  0
LINE
  5
A99
330
A81
100
AcDbEntity
  8
0
 62
     0
100
AcDbLine
 10
-40.27015784333923
 20
-278.7861139723266
 30
0.0
 11
-40.11637038149812
 21
-278.6323265104854
 31
0.0
  0
LINE
  5
A9A
330
A81
100
AcDbEntity
  8
0
 62
     0
100
AcDbLine
 10
-40.116370381498
 20
-278.6323265104853
 30
0.0
 11
-40.00658240593192
 21
-278.5225385349192
 31
0.0
  0
LINE
  5
A9B
330
A81
100
AcDbEntity
  8
0
 62
     0
100
AcDbLine
 10
-40.31144538895452
 20
-278.6948189964694
 30
0.0
 11
-40.30692854477254
 21
-278.6903021522874
 31
0.0
  0
LINE
  5
A9C
330
A81
100
AcDbEntity
  8
0
 62
     0
100
AcDbLine
 10
-39.69215944246978
 20
-278.0755330499846
 30
0.0
 11
-39.59237083622737
 21
-277.9757444437422
 31
0.0
  0
LINE
  5
A9D
330
A81
100
AcDbEntity
  8
0
 62
     0
100
AcDbLine
 10
-40.30692854477248
 20
-278.6903021522873
 30
0.0
 11
-40.20641061560525
 21
-278.5897842231201
 31
0.0
  0
LINE
  5
A9E
330
A81
100
AcDbEntity
  8
0
 62
     0
100
AcDbLine
 10
-40.16017812122486
 20
-278.5435517287397
 30
0.0
 11
-40.11929130715309
 21
-278.5026649146679
 31
0.0
  0
LINE
  5
A9F
330
A81
100
AcDbEntity
  8
0
 62
     0
100
AcDbLine
 10
-40.20466276288202
 20
-278.5880363703969
 30
0.0
 11
-40.16017812122502
 21
-278.5435517287398
 31
0.0
  0
LINE
  5
AA0
330
A81
100
AcDbEntity
  8
0
 62
     0
100
AcDbLine
 10
-40.41225758634928
 20
-278.6630486723916
 30
0.0
 11
-40.23018407840633
 21
-278.4809751644487
 31
0.0
  0
LINE
  5
AA1
330
A81
100
AcDbEntity
  8
0
 62
     0
100
AcDbLine
 10
-39.73691136690469
 20
-277.987702452947
 30
0.0
 11
-39.6371227606623
 21
-277.8879138467047
 31
0.0
  0
LINE
  5
AA2
330
A81
100
AcDbEntity
  8
0
 62
     0
100
AcDbLine
 10
-40.23018407840633
 20
-278.4809751644486
 30
0.0
 11
-40.20259152936932
 21
-278.4533826154117
 31
0.0
  0
LINE
  5
AA3
330
A81
100
AcDbEntity
  8
0
 62
     0
100
AcDbLine
 10
-40.57051962558798
 20
-278.6887281901577
 30
0.0
 11
-40.51758662792604
 21
-278.6357951924959
 31
0.0
  0
LINE
  5
AA4
330
A81
100
AcDbEntity
  8
0
 62
     0
100
AcDbLine
 10
-39.78166329133961
 20
-277.8998718559094
 30
0.0
 11
-39.68187468509722
 21
-277.8000832496671
 31
0.0
  0
LINE
  5
AA5
330
A81
100
AcDbEntity
  8
0
 62
     0
100
AcDbLine
 10
-40.51758662792603
 20
-278.6357951924959
 30
0.0
 11
-40.33869630383812
 21
-278.456904868408
 31
0.0
  0
LINE
  5
AA6
330
A81
100
AcDbEntity
  8
0
 62
     0
100
AcDbLine
 10
-40.33869630383812
 20
-278.456904868408
 30
0.0
 11
-40.24734345380425
 21
-278.3655520183742
 31
0.0
  0
LINE
  5
AA7
330
A81
100
AcDbEntity
  8
0
 62
     0
100
AcDbLine
 10
-40.84083440815077
 20
-278.8264604512481
 30
0.0
 11
-40.62291566950281
 21
-278.6085417126002
 31
0.0
  0
LINE
  5
AA8
330
A81
100
AcDbEntity
  8
0
 62
     0
100
AcDbLine
 10
-39.82641521577454
 20
-277.812041258872
 30
0.0
 11
-39.72662660953214
 21
-277.7122526526295
 31
0.0
  0
LINE
  5
AA9
330
A81
100
AcDbEntity
  8
0
 62
     0
100
AcDbLine
 10
-40.62291566950278
 20
-278.6085417126002
 30
0.0
 11
-40.44720852926992
 21
-278.4328345723673
 31
0.0
  0
LINE
  5
AAA
330
A81
100
AcDbEntity
  8
0
 62
     0
100
AcDbLine
 10
-40.44720852926991
 20
-278.4328345723673
 30
0.0
 11
-40.29209537823916
 21
-278.2777214213366
 31
0.0
  0
LINE
  5
AAB
330
A81
100
AcDbEntity
  8
0
 62
     0
100
AcDbLine
 10
-41.07098574326527
 20
-278.9240292648902
 30
0.0
 11
-40.96884180887604
 21
-278.821885330501
 31
0.0
  0
LINE
  5
AAC
330
A81
100
AcDbEntity
  8
0
 62
     0
100
AcDbLine
 10
-39.87116714020946
 20
-277.7242106618344
 30
0.0
 11
-39.77137853396706
 21
-277.624422055592
 31
0.0
  0
LINE
  5
AAD
330
A81
100
AcDbEntity
  8
0
 62
     0
100
AcDbLine
 10
-40.96884180887601
 20
-278.8218853305009
 30
0.0
 11
-40.72824471107957
 21
-278.5812882327045
 31
0.0
  0
LINE
  5
AAE
330
A81
100
AcDbEntity
  8
0
 62
     0
100
AcDbLine
 10
-40.55572075470169
 20
-278.4087642763266
 30
0.0
 11
-40.33684730267409
 21
-278.189890824299
 31
0.0
  0
LINE
  5
AAF
330
A81
100
AcDbEntity
  8
0
 62
     0
100
AcDbLine
 10
-40.72824471107958
 20
-278.5812882327045
 30
0.0
 11
-40.55572075470172
 21
-278.4087642763266
 31
0.0
  0
LINE
  5
AB0
330
A81
100
AcDbEntity
  8
0
 62
     0
100
AcDbLine
 10
-41.11573766770019
 20
-278.8361986678526
 30
0.0
 11
-41.01359373331094
 21
-278.7340547334634
 31
0.0
  0
LINE
  5
AB1
330
A81
100
AcDbEntity
  8
0
 62
     0
100
AcDbLine
 10
-39.91591906464438
 20
-277.6363800647968
 30
0.0
 11
-39.81613045840198
 21
-277.5365914585544
 31
0.0
  0
LINE
  5
AB2
330
A81
100
AcDbEntity
  8
0
 62
     0
100
AcDbLine
 10
-41.01359373331097
 20
-278.7340547334634
 30
0.0
 11
-40.83357375265634
 21
-278.5540347528088
 31
0.0
  0
LINE
  5
AB3
330
A81
100
AcDbEntity
  8
0
 62
     0
100
AcDbLine
 10
-40.66423298013347
 20
-278.3846939802859
 30
0.0
 11
-40.38159922710902
 21
-278.1020602272615
 31
0.0
  0
LINE
  5
AB4
330
A81
100
AcDbEntity
  8
0
 62
     0
100
AcDbLine
 10
-40.83357375265634
 20
-278.5540347528088
 30
0.0
 11
-40.66423298013349
 21
-278.384693980286
 31
0.0
  0
LINE
  5
AB5
330
A81
100
AcDbEntity
  8
0
 62
     0
100
AcDbLine
 10
-41.16048959213512
 20
-278.7483680708151
 30
0.0
 11
-41.05834565774588
 21
-278.6462241364259
 31
0.0
  0
LINE
  5
AB6
330
A81
100
AcDbEntity
  8
0
 62
     0
100
AcDbLine
 10
-39.96067098907931
 20
-277.5485494677593
 30
0.0
 11
-39.86088238283691
 21
-277.4487608615169
 31
0.0
  0
LINE
  5
AB7
330
A81
100
AcDbEntity
  8
0
 62
     0
100
AcDbLine
 10
-41.05834565774586
 20
-278.6462241364258
 30
0.0
 11
-40.93646758632097
 21
-278.524346065001
 31
0.0
  0
LINE
  5
AB8
330
A81
100
AcDbEntity
  8
0
 62
     0
100
AcDbLine
 10
-40.77274520556526
 20
-278.3606236842452
 30
0.0
 11
-40.42635115154395
 21
-278.0142296302239
 31
0.0
  0
LINE
  5
AB9
330
A81
100
AcDbEntity
  8
0
 62
     0
100
AcDbLine
 10
-40.93646758632099
 20
-278.524346065001
 30
0.0
 11
-40.77274520556528
 21
-278.3606236842453
 31
0.0
  0
LINE
  5
ABA
330
A81
100
AcDbEntity
  8
0
 62
     0
100
AcDbLine
 10
-41.20524151657004
 20
-278.6605374737775
 30
0.0
 11
-41.10309758218079
 21
-278.5583935393883
 31
0.0
  0
LINE
  5
ABB
330
A81
100
AcDbEntity
  8
0
 62
     0
100
AcDbLine
 10
-40.00542291351423
 20
-277.4607188707217
 30
0.0
 11
-39.90563430727183
 21
-277.3609302644794
 31
0.0
  0
LINE
  5
ABC
330
A81
100
AcDbEntity
  8
0
 62
     0
100
AcDbLine
 10
-41.10309758218081
 20
-278.5583935393883
 30
0.0
 11
-40.90160135388338
 21
-278.3568973110909
 31
0.0
  0
LINE
  5
ABD
330
A81
100
AcDbEntity
  8
0
 62
     0
100
AcDbLine
 10
-40.87969543086212
 20
-278.3349913880696
 30
0.0
 11
-40.47110307597886
 21
-277.9263990331864
 31
0.0
  0
LINE
  5
ABE
330
A81
100
AcDbEntity
  8
0
 62
     0
100
AcDbLine
 10
-40.9016013538834
 20
-278.3568973110909
 30
0.0
 11
-40.87969543086214
 21
-278.3349913880696
 31
0.0
  0
LINE
  5
ABF
330
A81
100
AcDbEntity
  8
0
 62
     0
100
AcDbLine
 10
-41.24999344100497
 20
-278.57270687674
 30
0.0
 11
-41.14784950661573
 21
-278.4705629423507
 31
0.0
  0
LINE
  5
AC0
330
A81
100
AcDbEntity
  8
0
 62
     0
100
AcDbLine
 10
-40.05017483794916
 20
-277.3728882736842
 30
0.0
 11
-39.95038623170675
 21
-277.2730996674417
 31
0.0
  0
LINE
  5
AC1
330
A81
100
AcDbEntity
  8
0
 62
     0
100
AcDbLine
 10
-41.14784950661571
 20
-278.4705629423507
 30
0.0
 11
-40.51585500041379
 21
-277.8385684361488
 31
0.0
  0
LINE
  5
AC2
330
A81
100
AcDbEntity
  8
0
 62
     0
100
AcDbLine
 10
-40.13520989857035
 20
-277.4579233343053
 30
0.0
 11
-40.05017483794913
 21
-277.3728882736842
 31
0.0
  0
LINE
  5
AC3
330
A81
100
AcDbEntity
  8
0
 62
     0
100
AcDbLine
 10
-41.29474536543989
 20
-278.4848762797024
 30
0.0
 11
-41.19260143105066
 21
-278.3827323453132
 31
0.0
  0
LINE
  5
AC4
330
A81
100
AcDbEntity
  8
0
 62
     0
100
AcDbLine
 10
-40.09492676238408
 20
-277.2850576766466
 30
0.0
 11
-39.99513815614167
 21
-277.1852690704042
 31
0.0
  0
LINE
  5
AC5
330
A81
100
AcDbEntity
  8
0
 62
     0
100
AcDbLine
 10
-41.19260143105065
 20
-278.3827323453131
 30
0.0
 11
-40.56060692484869
 21
-277.7507378391113
 31
0.0
  0
LINE
  5
AC6
330
A81
100
AcDbEntity
  8
0
 62
     0
100
AcDbLine
 10
-40.39402495983168
 20
-277.5841558740942
 30
0.0
 11
-40.09492676238404
 21
-277.2850576766466
 31
0.0
  0
LINE
  5
AC7
330
A81
100
AcDbEntity
  8
0
 62
     0
100
AcDbLine
 10
-41.3394972898748
 20
-278.3970456826649
 30
0.0
 11
-41.23735335548558
 21
-278.2949017482756
 31
0.0
  0
LINE
  5
AC8
330
A81
100
AcDbEntity
  8
0
 62
     0
100
AcDbLine
 10
-40.13967868681899
 20
-277.197227079609
 30
0.0
 11
-40.0398900805766
 21
-277.0974384733666
 31
0.0
  0
LINE
  5
AC9
330
A81
100
AcDbEntity
  8
0
 62
     0
100
AcDbLine
 10
-41.23735335548557
 20
-278.2949017482756
 30
0.0
 11
-40.65284002109301
 21
-277.7103884138831
 31
0.0
  0
LINE
  5
ACA
330
A81
100
AcDbEntity
  8
0
 62
     0
100
AcDbLine
 10
-40.65284002109302
 20
-277.710388413883
 30
0.0
 11
-40.33209807941335
 21
-277.3896464722034
 31
0.0
  0
LINE
  5
ACB
330
A81
100
AcDbEntity
  8
0
 62
     0
100
AcDbLine
 10
-41.38424921430973
 20
-278.3092150856273
 30
0.0
 11
-41.28210527992051
 21
-278.2070711512381
 31
0.0
  0
LINE
  5
ACC
330
A81
100
AcDbEntity
  8
0
 62
     0
100
AcDbLine
 10
-40.18443061125393
 20
-277.1093964825715
 30
0.0
 11
-40.08464200501151
 21
-277.0096078763291
 31
0.0
  0
LINE
  5
ACD
330
A81
100
AcDbEntity
  8
0
 62
     0
100
AcDbLine
 10
-41.2821052799205
 20
-278.2070711512381
 30
0.0
 11
-40.91165508235433
 21
-277.8366209536719
 31
0.0
  0
LINE
  5
ACE
330
A81
100
AcDbEntity
  8
0
 62
     0
100
AcDbLine
 10
-40.91165508235427
 20
-277.8366209536719
 30
0.0
 11
-40.60241286197611
 21
-277.5273787332937
 31
0.0
  0
LINE
  5
ACF
330
A81
100
AcDbEntity
  8
0
 62
     0
100
AcDbLine
 10
-41.42900113874467
 20
-278.2213844885897
 30
0.0
 11
-41.32685720435543
 21
-278.1192405542005
 31
0.0
  0
LINE
  5
AD0
330
A81
100
AcDbEntity
  8
0
 62
     0
100
AcDbLine
 10
-40.22918253568884
 20
-277.0215658855339
 30
0.0
 11
-40.12939392944644
 21
-276.9217772792915
 31
0.0
  0
LINE
  5
AD1
330
A81
100
AcDbEntity
  8
0
 62
     0
100
AcDbLine
 10
-41.32685720435541
 20
-278.1192405542005
 30
0.0
 11
-40.99595323982196
 21
-277.788336589667
 31
0.0
  0
LINE
  5
AD2
330
A81
100
AcDbEntity
  8
0
 62
     0
100
AcDbLine
 10
-40.87272764453877
 20
-277.6651109943838
 30
0.0
 11
-40.69486269815346
 21
-277.4872460479985
 31
0.0
  0
LINE
  5
AD3
330
A81
100
AcDbEntity
  8
0
 62
     0
100
AcDbLine
 10
-40.99595323982194
 20
-277.788336589667
 30
0.0
 11
-40.87272764453897
 21
-277.665110994384
 31
0.0
  0
LINE
  5
AD4
330
A81
100
AcDbEntity
  8
0
 62
     0
100
AcDbLine
 10
-41.47375306317957
 20
-278.1335538915521
 30
0.0
 11
-41.37160912879036
 21
-278.031409957163
 31
0.0
  0
LINE
  5
AD5
330
A81
100
AcDbEntity
  8
0
 62
     0
100
AcDbLine
 10
-40.27393446012377
 20
-276.9337352884964
 30
0.0
 11
-40.17414585388136
 21
-276.833946682254
 31
0.0
  0
LINE
  5
AD6
330
A81
100
AcDbEntity
  8
0
 62
     0
100
AcDbLine
 10
-41.37160912879035
 20
-278.0314099571629
 30
0.0
 11
-40.73961462258838
 21
-277.399415450961
 31
0.0
  0
LINE
  5
AD7
330
A81
100
AcDbEntity
  8
0
 62
     0
100
AcDbLine
 10
-41.51850498761451
 20
-278.0457232945146
 30
0.0
 11
-41.41636105322528
 21
-277.9435793601255
 31
0.0
  0
LINE
  5
AD8
330
A81
100
AcDbEntity
  8
0
 62
     0
100
AcDbLine
 10
-40.3186863845587
 20
-276.8459046914588
 30
0.0
 11
-40.21889777831629
 21
-276.7461160852164
 31
0.0
  0
LINE
  5
AD9
330
A81
100
AcDbEntity
  8
0
 62
     0
100
AcDbLine
 10
-41.41636105322527
 20
-277.9435793601254
 30
0.0
 11
-40.78436654702331
 21
-277.3115848539234
 31
0.0
  0
LINE
  5
ADA
330
A81
100
AcDbEntity
  8
0
 62
     0
100
AcDbLine
 10
-41.56325691204942
 20
-277.9578926974771
 30
0.0
 11
-41.46111297766021
 21
-277.8557487630879
 31
0.0
  0
LINE
  5
ADB
330
A81
100
AcDbEntity
  8
0
 62
     0
100
AcDbLine
 10
-40.36343830899361
 20
-276.7580740944213
 30
0.0
 11
-40.2636497027512
 21
-276.6582854881789
 31
0.0
  0
LINE
  5
ADC
330
A81
100
AcDbEntity
  8
0
 62
     0
100
AcDbLine
 10
-41.4611129776602
 20
-277.8557487630878
 30
0.0
 11
-40.82911847145823
 21
-277.2237542568859
 31
0.0
  0
LINE
  5
ADD
330
A81
100
AcDbEntity
  8
0
 62
     0
100
AcDbLine
 10
-41.60800883648435
 20
-277.8700621004395
 30
0.0
 11
-41.50586490209513
 21
-277.7679181660503
 31
0.0
  0
LINE
  5
ADE
330
A81
100
AcDbEntity
  8
0
 62
     0
100
AcDbLine
 10
-40.40819023342854
 20
-276.6702434973837
 30
0.0
 11
-40.30840162718615
 21
-276.5704548911414
 31
0.0
  0
LINE
  5
ADF
330
A81
100
AcDbEntity
  8
0
 62
     0
100
AcDbLine
 10
-41.50586490209512
 20
-277.7679181660503
 30
0.0
 11
-40.87387039589315
 21
-277.1359236598483
 31
0.0
  0
LINE
  5
AE0
330
A81
100
AcDbEntity
  8
0
 62
     0
100
AcDbLine
 10
-41.65276076091928
 20
-277.782231503402
 30
0.0
 11
-41.55061682653006
 21
-277.6800875690128
 31
0.0
  0
LINE
  5
AE1
330
A81
100
AcDbEntity
  8
0
 62
     0
100
AcDbLine
 10
-40.45294215786347
 20
-276.5824129003462
 30
0.0
 11
-40.35315355162107
 21
-276.4826242941037
 31
0.0
  0
LINE
  5
AE2
330
A81
100
AcDbEntity
  8
0
 62
     0
100
AcDbLine
 10
-41.55061682653004
 20
-277.6800875690128
 30
0.0
 11
-40.91862232032808
 21
-277.0480930628108
 31
0.0
  0
LINE
  5
AE3
330
A81
100
AcDbEntity
  8
0
 62
     0
100
AcDbLine
 10
-41.6975126853542
 20
-277.6944009063644
 30
0.0
 11
-41.59536875096497
 21
-277.5922569719752
 31
0.0
  0
LINE
  5
AE4
330
A81
100
AcDbEntity
  8
0
 62
     0
100
AcDbLine
 10
-40.49769408229838
 20
-276.4945823033086
 30
0.0
 11
-40.39790547605599
 21
-276.3947936970662
 31
0.0
  0
LINE
  5
AE5
330
A81
100
AcDbEntity
  8
0
 62
     0
100
AcDbLine
 10
-41.59536875096496
 20
-277.5922569719751
 30
0.0
 11
-40.963374244763
 21
-276.9602624657732
 31
0.0
  0
LINE
  5
AE6
330
A81
100
AcDbEntity
  8
0
 62
     0
100
AcDbLine
 10
-41.74226460978912
 20
-277.6065703093268
 30
0.0
 11
-41.6401206753999
 21
-277.5044263749377
 31
0.0
  0
LINE
  5
AE7
330
A81
100
AcDbEntity
  8
0
 62
     0
100
AcDbLine
 10
-40.54244600673332
 20
-276.4067517062711
 30
0.0
 11
-40.44265740049091
 21
-276.3069631000287
 31
0.0
  0
LINE
  5
AE8
330
A81
100
AcDbEntity
  8
0
 62
     0
100
AcDbLine
 10
-41.64012067539989
 20
-277.5044263749376
 30
0.0
 11
-41.00812616919793
 21
-276.8724318687357
 31
0.0
  0
LINE
  5
AE9
330
A81
100
AcDbEntity
  8
0
 62
     0
100
AcDbLine
 10
-41.78701653422404
 20
-277.5187397122893
 30
0.0
 11
-41.68487259983481
 21
-277.4165957779001
 31
0.0
  0
LINE
  5
AEA
330
A81
100
AcDbEntity
  8
0
 62
     0
100
AcDbLine
 10
-40.58719793116824
 20
-276.3189211092335
 30
0.0
 11
-40.48740932492584
 21
-276.2191325029911
 31
0.0
  0
LINE
  5
AEB
330
A81
100
AcDbEntity
  8
0
 62
     0
100
AcDbLine
 10
-41.68487259983482
 20
-277.4165957779001
 30
0.0
 11
-41.05287809363285
 21
-276.7846012716981
 31
0.0
  0
LINE
  5
AEC
330
A81
100
AcDbEntity
  8
0
 62
     0
100
AcDbLine
 10
-41.83176845865896
 20
-277.4309091152518
 30
0.0
 11
-41.72962452426975
 21
-277.3287651808626
 31
0.0
  0
LINE
  5
AED
330
A81
100
AcDbEntity
  8
0
 62
     0
100
AcDbLine
 10
-40.63194985560315
 20
-276.2310905121959
 30
0.0
 11
-40.53216124936076
 21
-276.1313019059535
 31
0.0
  0
LINE
  5
AEE
330
A81
100
AcDbEntity
  8
0
 62
     0
100
AcDbLine
 10
-41.72962452426975
 20
-277.3287651808625
 30
0.0
 11
-41.09763001806778
 21
-276.6967706746606
 31
0.0
  0
LINE
  5
AEF
330
A81
100
AcDbEntity
  8
0
 62
     0
100
AcDbLine
 10
-41.8765203830939
 20
-277.3430785182142
 30
0.0
 11
-41.77437644870467
 21
-277.240934583825
 31
0.0
  0
LINE
  5
AF0
330
A81
100
AcDbEntity
  8
0
 62
     0
100
AcDbLine
 10
-40.67670178003808
 20
-276.1432599151584
 30
0.0
 11
-40.57691317379568
 21
-276.043471308916
 31
0.0
  0
LINE
  5
AF1
330
A81
100
AcDbEntity
  8
0
 62
     0
100
AcDbLine
 10
-41.77437644870467
 20
-277.240934583825
 30
0.0
 11
-41.1423819425027
 21
-276.608940077623
 31
0.0
  0
LINE
  5
AF2
330
A81
100
AcDbEntity
  8
0
 62
     0
100
AcDbLine
 10
-41.92127230752881
 20
-277.2552479211766
 30
0.0
 11
-41.8191283731396
 21
-277.1531039867875
 31
0.0
  0
LINE
  5
AF3
330
A81
100
AcDbEntity
  8
0
 62
     0
100
AcDbLine
 10
-40.72145370447301
 20
-276.0554293181209
 30
0.0
 11
-40.6216650982306
 21
-275.9556407118785
 31
0.0
  0
LINE
  5
AF4
330
A81
100
AcDbEntity
  8
0
 62
     0
100
AcDbLine
 10
-41.81912837313959
 20
-277.1531039867874
 30
0.0
 11
-41.18713386693762
 21
-276.5211094805855
 31
0.0
  0
LINE
  5
AF5
330
A81
100
AcDbEntity
  8
0
 62
     0
100
AcDbLine
 10
-41.96602423196374
 20
-277.1674173241391
 30
0.0
 11
-41.86388029757452
 21
-277.0652733897499
 31
0.0
  0
LINE
  5
AF6
330
A81
100
AcDbEntity
  8
0
 62
     0
100
AcDbLine
 10
-35.8061910555824
 20
-271.0075841477578
 30
0.0
 11
-35.70443277119299
 21
-270.9058258633683
 31
0.0
  0
LINE
  5
AF7
330
A81
100
AcDbEntity
  8
0
 62
     0
100
AcDbLine
 10
-41.86388029757451
 20
-277.0652733897498
 30
0.0
 11
-41.23188579137255
 21
-276.4332788835479
 31
0.0
  0
LINE
  5
AF8
330
A81
100
AcDbEntity
  8
0
 62
     0
100
AcDbLine
 10
-40.76620562890794
 20
-275.9675987210833
 30
0.0
 11
-40.66641702266553
 21
-275.8678101148409
 31
0.0
  0
LINE
  5
AF9
330
A81
100
AcDbEntity
  8
0
 62
     0
100
AcDbLine
 10
-42.01077615639866
 20
-277.0795867271015
 30
0.0
 11
-41.90863222200944
 21
-276.9774427927123
 31
0.0
  0
LINE
  5
AFA
330
A81
100
AcDbEntity
  8
0
 62
     0
100
AcDbLine
 10
-35.93877357705487
 20
-271.0075841477578
 30
0.0
 11
-35.70443277119299
 21
-270.7732433418959
 31
0.0
  0
LINE
  5
AFB
330
A81
100
AcDbEntity
  8
0
 62
     0
100
AcDbLine
 10
-41.90863222200944
 20
-276.9774427927123
 30
0.0
 11
-41.27663771580747
 21
-276.3454482865104
 31
0.0
  0
LINE
  5
AFC
330
A81
100
AcDbEntity
  8
0
 62
     0
100
AcDbLine
 10
-40.81095755334286
 20
-275.8797681240458
 30
0.0
 11
-40.71116894710044
 21
-275.7799795178034
 31
0.0
  0
LINE
  5
AFD
330
A81
100
AcDbEntity
  8
0
 62
     0
100
AcDbLine
 10
-42.05552808083359
 20
-276.991756130064
 30
0.0
 11
-41.95338414644437
 21
-276.8896121956748
 31
0.0
  0
LINE
  5
AFE
330
A81
100
AcDbEntity
  8
0
 62
     0
100
AcDbLine
 10
-36.07135609852736
 20
-271.0075841477578
 30
0.0
 11
-35.70443277119299
 21
-270.6406608204234
 31
0.0
  0
LINE
  5
AFF
330
A81
100
AcDbEntity
  8
0
 62
     0
100
AcDbLine
 10
-41.95338414644437
 20
-276.8896121956748
 30
0.0
 11
-41.32138964024239
 21
-276.2576176894728
 31
0.0
  0
LINE
  5
B00
330
A81
100
AcDbEntity
  8
0
 62
     0
100
AcDbLine
 10
-40.85570947777777
 20
-275.7919375270082
 30
0.0
 11
-40.75592087153537
 21
-275.6921489207658
 31
0.0
  0
LINE
  5
B01
330
A81
100
AcDbEntity
  8
0
 62
     0
100
AcDbLine
 10
-42.10028000526851
 20
-276.9039255330264
 30
0.0
 11
-41.99813607087929
 21
-276.8017815986373
 31
0.0
  0
LINE
  5
B02
330
A81
100
AcDbEntity
  8
0
 62
     0
100
AcDbLine
 10
-36.20393861999985
 20
-271.0075841477578
 30
0.0
 11
-35.70443277119299
 21
-270.5080782989509
 31
0.0
  0
LINE
  5
B03
330
A81
100
AcDbEntity
  8
0
 62
     0
100
AcDbLine
 10
-41.99813607087929
 20
-276.8017815986372
 30
0.0
 11
-41.36614156467731
 21
-276.1697870924352
 31
0.0
  0
LINE
  5
B04
330
A81
100
AcDbEntity
  8
0
 62
     0
100
AcDbLine
 10
-40.90046140221271
 20
-275.7041069299706
 30
0.0
 11
-40.80067279597029
 21
-275.6043183237283
 31
0.0
  0
LINE
  5
B05
330
A81
100
AcDbEntity
  8
0
 62
     0
100
AcDbLine
 10
-42.14503192970343
 20
-276.8160949359889
 30
0.0
 11
-42.04288799531422
 21
-276.7139510015997
 31
0.0
  0
LINE
  5
B06
330
A81
100
AcDbEntity
  8
0
 62
     0
100
AcDbLine
 10
-36.33652114147233
 20
-271.0075841477578
 30
0.0
 11
-35.70443277119299
 21
-270.3754957774785
 31
0.0
  0
LINE
  5
B07
330
A81
100
AcDbEntity
  8
0
 62
     0
100
AcDbLine
 10
-42.04288799531422
 20
-276.7139510015996
 30
0.0
 11
-41.41089348911224
 21
-276.0819564953977
 31
0.0
  0
LINE
  5
B08
330
A81
100
AcDbEntity
  8
0
 62
     0
100
AcDbLine
 10
-40.94521332664762
 20
-275.6162763329331
 30
0.0
 11
-40.84542472040522
 21
-275.5164877266907
 31
0.0
  0
LINE
  5
B09
330
A81
100
AcDbEntity
  8
0
 62
     0
100
AcDbLine
 10
-42.18978385413836
 20
-276.7282643389513
 30
0.0
 11
-42.08763991974914
 21
-276.6261204045621
 31
0.0
  0
LINE
  5
B0A
330
A81
100
AcDbEntity
  8
0
 62
     0
100
AcDbLine
 10
-36.46910366294478
 20
-271.0075841477578
 30
0.0
 11
-35.70443277119299
 21
-270.242913256006
 31
0.0
  0
LINE
  5
B0B
330
A81
100
AcDbEntity
  8
0
 62
     0
100
AcDbLine
 10
-42.08763991974914
 20
-276.6261204045621
 30
0.0
 11
-41.45564541354717
 21
-275.9941258983601
 31
0.0
  0
LINE
  5
B0C
330
A81
100
AcDbEntity
  8
0
 62
     0
100
AcDbLine
 10
-40.98996525108254
 20
-275.5284457358955
 30
0.0
 11
-40.89017664484013
 21
-275.4286571296531
 31
0.0
  0
LINE
  5
B0D
330
A81
100
AcDbEntity
  8
0
 62
     0
100
AcDbLine
 10
-42.23453577857329
 20
-276.6404337419138
 30
0.0
 11
-42.13239184418406
 21
-276.5382898075245
 31
0.0
  0
LINE
  5
B0E
330
A81
100
AcDbEntity
  8
0
 62
     0
100
AcDbLine
 10
-36.60168618441726
 20
-271.0075841477578
 30
0.0
 11
-35.7069169949642
 21
-270.1128149583047
 31
0.0
  0
LINE
  5
B0F
330
A81
100
AcDbEntity
  8
0
 62
     0
100
AcDbLine
 10
-42.13239184418408
 20
-276.5382898075245
 30
0.0
 11
-41.50039733798208
 21
-275.9062953013226
 31
0.0
  0
LINE
  5
B10
330
A81
100
AcDbEntity
  8
0
 62
     0
100
AcDbLine
 10
-41.03471717551747
 20
-275.4406151388579
 30
0.0
 11
-40.93492856927506
 21
-275.3408265326156
 31
0.0
  0
LINE
  5
B11
330
A81
100
AcDbEntity
  8
0
 62
     0
100
AcDbLine
 10
-42.2792877030082
 20
-276.5526031448762
 30
0.0
 11
-42.17714376861898
 21
-276.450459210487
 31
0.0
  0
LINE
  5
B12
330
A81
100
AcDbEntity
  8
0
 62
     0
100
AcDbLine
 10
-36.73426870588975
 20
-271.0075841477578
 30
0.0
 11
-35.83949951643669
 21
-270.1128149583047
 31
0.0
  0
LINE
  5
B13
330
A81
100
AcDbEntity
  8
0
 62
     0
100
AcDbLine
 10
-42.17714376861898
 20
-276.450459210487
 30
0.0
 11
-41.54514926241701
 21
-275.818464704285
 31
0.0
  0
LINE
  5
B14
330
A81
100
AcDbEntity
  8
0
 62
     0
100
AcDbLine
 10
-41.0794690999524
 20
-275.3527845418204
 30
0.0
 11
-40.97968049370998
 21
-275.2529959355781
 31
0.0
  0
LINE
  5
B15
330
A81
100
AcDbEntity
  8
0
 62
     0
100
AcDbLine
 10
-42.32403962744313
 20
-276.4647725478386
 30
0.0
 11
-42.22189569305391
 21
-276.3626286134495
 31
0.0
  0
LINE
  5
B16
330
A81
100
AcDbEntity
  8
0
 62
     0
100
AcDbLine
 10
-36.86685122736224
 20
-271.0075841477578
 30
0.0
 11
-35.97208203790917
 21
-270.1128149583047
 31
0.0
  0
LINE
  5
B17
330
A81
100
AcDbEntity
  8
0
 62
     0
100
AcDbLine
 10
-42.22189569305391
 20
-276.3626286134494
 30
0.0
 11
-41.58990118685194
 21
-275.7306341072474
 31
0.0
  0
LINE
  5
B18
330
A81
100
AcDbEntity
  8
0
 62
     0
100
AcDbLine
 10
-41.12422102438733
 20
-275.2649539447828
 30
0.0
 11
-41.02443241814492
 21
-275.1651653385405
 31
0.0
  0
LINE
  5
B19
330
A81
100
AcDbEntity
  8
0
 62
     0
100
AcDbLine
 10
-42.36879155187804
 20
-276.3769419508011
 30
0.0
 11
-42.2684645752521
 21
-276.2766149741751
 31
0.0
  0
LINE
  5
B1A
330
A81
100
AcDbEntity
  8
0
 62
     0
100
AcDbLine
 10
-36.99943374883472
 20
-271.0075841477578
 30
0.0
 11
-36.10466455938166
 21
-270.1128149583047
 31
0.0
  0
LINE
  5
B1B
330
A81
100
AcDbEntity
  8
0
 62
     0
100
AcDbLine
 10
-42.26664761748884
 20
-276.2747980164119
 30
0.0
 11
-42.19792528481469
 21
-276.2060756837377
 31
0.0
  0
LINE
  5
B1C
330
A81
100
AcDbEntity
  8
0
 62
     0
100
AcDbLine
 10
-41.16897294882225
 20
-275.1771233477454
 30
0.0
 11
-41.06918434257984
 21
-275.0773347415029
 31
0.0
  0
LINE
  5
B1D
330
A81
100
AcDbEntity
  8
0
 62
     0
100
AcDbLine
 10
-42.1979252848146
 20
-276.2060756837377
 30
0.0
 11
-42.10043854447298
 21
-276.108588943396
 31
0.0
  0
LINE
  5
B1E
330
A81
100
AcDbEntity
  8
0
 62
     0
100
AcDbLine
 10
-41.99598251496389
 20
-276.004132913887
 30
0.0
 11
-41.63465311128686
 21
-275.6428035102099
 31
0.0
  0
LINE
  5
B1F
330
A81
100
AcDbEntity
  8
0
 62
     0
100
AcDbLine
 10
-42.10043854447292
 20
-276.1085889433959
 30
0.0
 11
-42.09566753742882
 21
-276.1038179363519
 31
0.0
  0
LINE
  5
B20
330
A81
100
AcDbEntity
  8
0
 62
     0
100
AcDbLine
 10
-42.09566753742871
 20
-276.1038179363518
 30
0.0
 11
-41.99598251496389
 21
-276.004132913887
 31
0.0
  0
LINE
  5
B21
330
A81
100
AcDbEntity
  8
0
 62
     0
100
AcDbLine
 10
-42.41354347631298
 20
-276.2891113537635
 30
0.0
 11
-42.31321649968703
 21
-276.1887843771376
 31
0.0
  0
LINE
  5
B22
330
A81
100
AcDbEntity
  8
0
 62
     0
100
AcDbLine
 10
-37.13201627030717
 20
-271.0075841477578
 30
0.0
 11
-36.23724708085414
 21
-270.1128149583047
 31
0.0
  0
LINE
  5
B23
330
A81
100
AcDbEntity
  8
0
 62
     0
100
AcDbLine
 10
-42.31139954192374
 20
-276.1869674193743
 30
0.0
 11
-42.1892754338011
 21
-276.0648433112517
 31
0.0
  0
LINE
  5
B24
330
A81
100
AcDbEntity
  8
0
 62
     0
100
AcDbLine
 10
-41.21372487325716
 20
-275.0892927507078
 30
0.0
 11
-41.11393626701477
 21
-274.9895041444653
 31
0.0
  0
LINE
  5
B25
330
A81
100
AcDbEntity
  8
0
 62
     0
100
AcDbLine
 10
-42.18927543380108
 20
-276.0648433112517
 30
0.0
 11
-42.14458912338753
 21
-276.0201570008381
 31
0.0
  0
LINE
  5
B26
330
A81
100
AcDbEntity
  8
0
 62
     0
100
AcDbLine
 10
-41.96714156490001
 20
-275.8427094423506
 30
0.0
 11
-41.67940503572178
 21
-275.5549729131724
 31
0.0
  0
LINE
  5
B27
330
A81
100
AcDbEntity
  8
0
 62
     0
100
AcDbLine
 10
-42.11450619999326
 20
-275.9900740774438
 30
0.0
 11
-41.96714156489998
 21
-275.8427094423506
 31
0.0
  0
LINE
  5
B28
330
A81
100
AcDbEntity
  8
0
 62
     0
100
AcDbLine
 10
-42.4582954007479
 20
-276.201280756726
 30
0.0
 11
-42.35796842412195
 21
-276.1009537801001
 31
0.0
  0
LINE
  5
B29
330
A81
100
AcDbEntity
  8
0
 62
     0
100
AcDbLine
 10
-37.26459879177965
 20
-271.0075841477578
 30
0.0
 11
-36.36982960232659
 21
-270.1128149583047
 31
0.0
  0
LINE
  5
B2A
330
A81
100
AcDbEntity
  8
0
 62
     0
100
AcDbLine
 10
-42.35615146635868
 20
-276.0991368223368
 30
0.0
 11
-42.27628628029851
 21
-276.0192716362766
 31
0.0
  0
LINE
  5
B2B
330
A81
100
AcDbEntity
  8
0
 62
     0
100
AcDbLine
 10
-41.2584767976921
 20
-275.0014621536702
 30
0.0
 11
-41.15868819144969
 21
-274.9016735474278
 31
0.0
  0
LINE
  5
B2C
330
A81
100
AcDbEntity
  8
0
 62
     0
100
AcDbLine
 10
-42.27628628029848
 20
-276.0192716362765
 30
0.0
 11
-41.83861559237119
 21
-275.5816009483493
 31
0.0
  0
LINE
  5
B2D
330
A81
100
AcDbEntity
  8
0
 62
     0
100
AcDbLine
 10
-41.83861559237118
 20
-275.5816009483492
 30
0.0
 11
-41.72415696015671
 21
-275.4671423161348
 31
0.0
  0
LINE
  5
B2E
330
A81
100
AcDbEntity
  8
0
 62
     0
100
AcDbLine
 10
-42.50304732518282
 20
-276.1134501596885
 30
0.0
 11
-42.40272034855689
 21
-276.0131231830625
 31
0.0
  0
LINE
  5
B2F
330
A81
100
AcDbEntity
  8
0
 62
     0
100
AcDbLine
 10
-37.39718131325214
 20
-271.0075841477578
 30
0.0
 11
-36.50241212379908
 21
-270.1128149583047
 31
0.0
  0
LINE
  5
B30
330
A81
100
AcDbEntity
  8
0
 62
     0
100
AcDbLine
 10
-42.4009033907936
 20
-276.0113062252992
 30
0.0
 11
-42.19714334742477
 21
-275.8075461819304
 31
0.0
  0
LINE
  5
B31
330
A81
100
AcDbEntity
  8
0
 62
     0
100
AcDbLine
 10
-41.30322872212701
 20
-274.9136315566326
 30
0.0
 11
-41.20344011588461
 21
-274.8138429503903
 31
0.0
  0
LINE
  5
B32
330
A81
100
AcDbEntity
  8
0
 62
     0
100
AcDbLine
 10
-42.19714334742469
 20
-275.8075461819303
 30
0.0
 11
-42.14776030776967
 21
-275.7581631422754
 31
0.0
  0
LINE
  5
B33
330
A81
100
AcDbEntity
  8
0
 62
     0
100
AcDbLine
 10
-42.14776030776969
 20
-275.7581631422754
 30
0.0
 11
-41.71008961984234
 21
-275.320492454348
 31
0.0
  0
LINE
  5
B34
330
A81
100
AcDbEntity
  8
0
 62
     0
100
AcDbLine
 10
-42.54779924961775
 20
-276.0256195626509
 30
0.0
 11
-42.44747227299181
 21
-275.925292586025
 31
0.0
  0
LINE
  5
B35
330
A81
100
AcDbEntity
  8
0
 62
     0
100
AcDbLine
 10
-37.52976383472462
 20
-271.0075841477578
 30
0.0
 11
-36.63499464527156
 21
-270.1128149583047
 31
0.0
  0
LINE
  5
B36
330
A81
100
AcDbEntity
  8
0
 62
     0
100
AcDbLine
 10
-42.44565531522854
 20
-275.9234756282617
 30
0.0
 11
-42.01923433524084
 21
-275.497054648274
 31
0.0
  0
LINE
  5
B37
330
A81
100
AcDbEntity
  8
0
 62
     0
100
AcDbLine
 10
-41.34798064656194
 20
-274.8258009595951
 30
0.0
 11
-41.24819204031953
 21
-274.7260123533527
 31
0.0
  0
LINE
  5
B38
330
A81
100
AcDbEntity
  8
0
 62
     0
100
AcDbLine
 10
-42.01923433524087
 20
-275.497054648274
 30
0.0
 11
-41.58156364731355
 21
-275.0593839603467
 31
0.0
  0
LINE
  5
B39
330
A81
100
AcDbEntity
  8
0
 62
     0
100
AcDbLine
 10
-42.59255117405266
 20
-275.9377889656133
 30
0.0
 11
-42.49040723966347
 21
-275.8356450312241
 31
0.0
  0
LINE
  5
B3A
330
A81
100
AcDbEntity
  8
0
 62
     0
100
AcDbLine
 10
-37.6623463561971
 20
-271.0075841477578
 30
0.0
 11
-36.76757716674404
 21
-270.1128149583047
 31
0.0
  0
LINE
  5
B3B
330
A81
100
AcDbEntity
  8
0
 62
     0
100
AcDbLine
 10
-42.49040723966347
 20
-275.8356450312241
 30
0.0
 11
-41.89070836271205
 21
-275.2359461542728
 31
0.0
  0
LINE
  5
B3C
330
A81
100
AcDbEntity
  8
0
 62
     0
100
AcDbLine
 10
-41.39273257099687
 20
-274.7379703625575
 30
0.0
 11
-41.29294396475446
 21
-274.6381817563151
 31
0.0
  0
LINE
  5
B3D
330
A81
100
AcDbEntity
  8
0
 62
     0
100
AcDbLine
 10
-41.89070836271203
 20
-275.2359461542727
 30
0.0
 11
-41.45303767478471
 21
-274.7982754663454
 31
0.0
  0
LINE
  5
B3E
330
A81
100
AcDbEntity
  8
0
 62
     0
100
AcDbLine
 10
-42.63730309848759
 20
-275.8499583685758
 30
0.0
 11
-42.53515916409838
 21
-275.7478144341866
 31
0.0
  0
LINE
  5
B3F
330
A81
100
AcDbEntity
  8
0
 62
     0
100
AcDbLine
 10
-37.79492887766956
 20
-271.0075841477578
 30
0.0
 11
-36.90015968821653
 21
-270.1128149583047
 31
0.0
  0
LINE
  5
B40
330
A81
100
AcDbEntity
  8
0
 62
     0
100
AcDbLine
 10
-42.53515916409839
 20
-275.7478144341866
 30
0.0
 11
-41.90316465789641
 21
-275.1158199279846
 31
0.0
  0
LINE
  5
B41
330
A81
100
AcDbEntity
  8
0
 62
     0
100
AcDbLine
 10
-41.76218239018321
 20
-274.9748376602715
 30
0.0
 11
-41.32451170225591
 21
-274.5371669723441
 31
0.0
  0
LINE
  5
B42
330
A81
100
AcDbEntity
  8
0
 62
     0
100
AcDbLine
 10
-42.68205502292253
 20
-275.7621277715383
 30
0.0
 11
-42.57991108853331
 21
-275.6599838371491
 31
0.0
  0
LINE
  5
B43
330
A81
100
AcDbEntity
  8
0
 62
     0
100
AcDbLine
 10
-37.92751139914204
 20
-271.0075841477578
 30
0.0
 11
-37.03274220968898
 21
-270.1128149583047
 31
0.0
  0
LINE
  5
B44
330
A81
100
AcDbEntity
  8
0
 62
     0
100
AcDbLine
 10
-42.57991108853332
 20
-275.659983837149
 30
0.0
 11
-41.94791658233133
 21
-275.027989330947
 31
0.0
  0
LINE
  5
B45
330
A81
100
AcDbEntity
  8
0
 62
     0
100
AcDbLine
 10
-41.63365641765442
 20
-274.7137291662701
 30
0.0
 11
-41.19598572972707
 21
-274.2760584783428
 31
0.0
  0
LINE
  5
B46
330
A81
100
AcDbEntity
  8
0
 62
     0
100
AcDbLine
 10
-42.72680694735743
 20
-275.6742971745007
 30
0.0
 11
-42.62466301296824
 21
-275.5721532401115
 31
0.0
  0
LINE
  5
B47
330
A81
100
AcDbEntity
  8
0
 62
     0
100
AcDbLine
 10
-38.06009392061452
 20
-271.0075841477578
 30
0.0
 11
-37.16532473116146
 21
-270.1128149583047
 31
0.0
  0
LINE
  5
B48
330
A81
100
AcDbEntity
  8
0
 62
     0
100
AcDbLine
 10
-42.62466301296824
 20
-275.5721532401115
 30
0.0
 11
-41.99266850676624
 21
-274.9401587339095
 31
0.0
  0
LINE
  5
B49
330
A81
100
AcDbEntity
  8
0
 62
     0
100
AcDbLine
 10
-41.24320808781802
 20
-274.1906983149613
 30
0.0
 11
-41.16028905131896
 21
-274.1077792784622
 31
0.0
  0
LINE
  5
B4A
330
A81
100
AcDbEntity
  8
0
 62
     0
100
AcDbLine
 10
-41.52698834430164
 20
-274.4744785714449
 30
0.0
 11
-41.50513044512558
 21
-274.4526206722688
 31
0.0
  0
LINE
  5
B4B
330
A81
100
AcDbEntity
  8
0
 62
     0
100
AcDbLine
 10
-41.2918472873847
 20
-274.2393375145279
 30
0.0
 11
-41.26594175883485
 21
-274.2134319859781
 31
0.0
  0
LINE
  5
B4C
330
A81
100
AcDbEntity
  8
0
 62
     0
100
AcDbLine
 10
-41.50513044512556
 20
-274.4526206722688
 30
0.0
 11
-41.29184728738475
 21
-274.239337514528
 31
0.0
  0
LINE
  5
B4D
330
A81
100
AcDbEntity
  8
0
 62
     0
100
AcDbLine
 10
-42.77155887179236
 20
-275.5864665774631
 30
0.0
 11
-42.66941493740316
 21
-275.484322643074
 31
0.0
  0
LINE
  5
B4E
330
A81
100
AcDbEntity
  8
0
 62
     0
100
AcDbLine
 10
-38.192676442087
 20
-271.0075841477578
 30
0.0
 11
-37.29790725263395
 21
-270.1128149583047
 31
0.0
  0
LINE
  5
B4F
330
A81
100
AcDbEntity
  8
0
 62
     0
100
AcDbLine
 10
-42.66941493740316
 20
-275.484322643074
 30
0.0
 11
-42.03742043120118
 21
-274.8523281368719
 31
0.0
  0
LINE
  5
B50
330
A81
100
AcDbEntity
  8
0
 62
     0
100
AcDbLine
 10
-41.39132135807054
 20
-274.2062290637413
 30
0.0
 11
-41.15044255176923
 21
-273.96535025744
 31
0.0
  0
LINE
  5
B51
330
A81
100
AcDbEntity
  8
0
 62
     0
100
AcDbLine
 10
-41.57174026873658
 20
-274.3866479744074
 30
0.0
 11
-41.47195166249413
 21
-274.2868593681649
 31
0.0
  0
LINE
  5
B52
330
A81
100
AcDbEntity
  8
0
 62
     0
100
AcDbLine
 10
-42.81631079622728
 20
-275.4986359804255
 30
0.0
 11
-42.71416686183809
 21
-275.3964920460364
 31
0.0
  0
LINE
  5
B53
330
A81
100
AcDbEntity
  8
0
 62
     0
100
AcDbLine
 10
-38.32525896355949
 20
-271.0075841477578
 30
0.0
 11
-37.43048977410643
 21
-270.1128149583047
 31
0.0
  0
LINE
  5
B54
330
A81
100
AcDbEntity
  8
0
 62
     0
100
AcDbLine
 10
-42.71416686183809
 20
-275.3964920460364
 30
0.0
 11
-42.0821723556361
 21
-274.7644975398344
 31
0.0
  0
LINE
  5
B55
330
A81
100
AcDbEntity
  8
0
 62
     0
100
AcDbLine
 10
-41.3814748585208
 20
-274.0638000427191
 30
0.0
 11
-41.1405960522195
 21
-273.8229212364178
 31
0.0
  0
LINE
  5
B56
330
A81
100
AcDbEntity
  8
0
 62
     0
100
AcDbLine
 10
-41.6164921931715
 20
-274.2988173773698
 30
0.0
 11
-41.51670358692905
 21
-274.1990287711273
 31
0.0
  0
LINE
  5
B57
330
A81
100
AcDbEntity
  8
0
 62
     0
100
AcDbLine
 10
-42.86106272066221
 20
-275.410805383388
 30
0.0
 11
-42.75891878627302
 21
-275.3086614489988
 31
0.0
  0
LINE
  5
B58
330
A81
100
AcDbEntity
  8
0
 62
     0
100
AcDbLine
 10
-38.45784148503194
 20
-271.0075841477578
 30
0.0
 11
-37.56307229557891
 21
-270.1128149583047
 31
0.0
  0
LINE
  5
B59
330
A81
100
AcDbEntity
  8
0
 62
     0
100
AcDbLine
 10
-42.75891878627301
 20
-275.3086614489988
 30
0.0
 11
-42.12692428007102
 21
-274.6766669427968
 31
0.0
  0
LINE
  5
B5A
330
A81
100
AcDbEntity
  8
0
 62
     0
100
AcDbLine
 10
-41.37162835897107
 20
-273.9213710216969
 30
0.0
 11
-41.13074955266977
 21
-273.6804922153956
 31
0.0
  0
LINE
  5
B5B
330
A81
100
AcDbEntity
  8
0
 62
     0
100
AcDbLine
 10
-41.66124411760642
 20
-274.2109867803322
 30
0.0
 11
-41.56145551136398
 21
-274.1111981740898
 31
0.0
  0
LINE
  5
B5C
330
A81
100
AcDbEntity
  8
0
 62
     0
100
AcDbLine
 10
-42.90581464509713
 20
-275.3229747863504
 30
0.0
 11
-42.80367071070794
 21
-275.2208308519613
 31
0.0
  0
LINE
  5
B5D
330
A81
100
AcDbEntity
  8
0
 62
     0
100
AcDbLine
 10
-38.59042400650442
 20
-271.0075841477578
 30
0.0
 11
-37.69565481705136
 21
-270.1128149583047
 31
0.0
  0
LINE
  5
B5E
330
A81
100
AcDbEntity
  8
0
 62
     0
100
AcDbLine
 10
-42.80367071070794
 20
-275.2208308519613
 30
0.0
 11
-42.17167620450595
 21
-274.5888363457593
 31
0.0
  0
LINE
  5
B5F
330
A81
100
AcDbEntity
  8
0
 62
     0
100
AcDbLine
 10
-41.36178185942134
 20
-273.7789420006746
 30
0.0
 11
-41.12090305312004
 21
-273.5380631943733
 31
0.0
  0
LINE
  5
B60
330
A81
100
AcDbEntity
  8
0
 62
     0
100
AcDbLine
 10
-41.70599604204134
 20
-274.1231561832947
 30
0.0
 11
-41.60620743579889
 21
-274.0233675770522
 31
0.0
  0
LINE
  5
B61
330
A81
100
AcDbEntity
  8
0
 62
     0
100
AcDbLine
 10
-42.95056656953206
 20
-275.2351441893129
 30
0.0
 11
-42.84842263514287
 21
-275.1330002549237
 31
0.0
  0
LINE
  5
B62
330
A81
100
AcDbEntity
  8
0
 62
     0
100
AcDbLine
 10
-38.72300652797691
 20
-271.0075841477578
 30
0.0
 11
-37.82823733852385
 21
-270.1128149583047
 31
0.0
  0
LINE
  5
B63
330
A81
100
AcDbEntity
  8
0
 62
     0
100
AcDbLine
 10
-42.84842263514287
 20
-275.1330002549237
 30
0.0
 11
-42.21642812894087
 21
-274.5010057487217
 31
0.0
  0
LINE
  5
B64
330
A81
100
AcDbEntity
  8
0
 62
     0
100
AcDbLine
 10
-41.35193535987162
 20
-273.6365129796524
 30
0.0
 11
-41.11105655357031
 21
-273.3956341733511
 31
0.0
  0
LINE
  5
B65
330
A81
100
AcDbEntity
  8
0
 62
     0
100
AcDbLine
 10
-41.75074796647627
 20
-274.0353255862571
 30
0.0
 11
-41.65095936023383
 21
-273.9355369800147
 31
0.0
  0
LINE
  5
B66
330
A81
100
AcDbEntity
  8
0
 62
     0
100
AcDbLine
 10
-42.99531849396698
 20
-275.1473135922753
 30
0.0
 11
-42.89317455957778
 21
-275.0451696578862
 31
0.0
  0
LINE
  5
B67
330
A81
100
AcDbEntity
  8
0
 62
     0
100
AcDbLine
 10
-38.85558904944939
 20
-271.0075841477578
 30
0.0
 11
-37.96081985999633
 21
-270.1128149583047
 31
0.0
  0
LINE
  5
B68
330
A81
100
AcDbEntity
  8
0
 62
     0
100
AcDbLine
 10
-42.89317455957778
 20
-275.0451696578862
 30
0.0
 11
-42.2611800533758
 21
-274.4131751516842
 31
0.0
  0
LINE
  5
B69
330
A81
100
AcDbEntity
  8
0
 62
     0
100
AcDbLine
 10
-41.34208886032189
 20
-273.4940839586302
 30
0.0
 11
-41.10121005402058
 21
-273.2532051523289
 31
0.0
  0
LINE
  5
B6A
330
A81
100
AcDbEntity
  8
0
 62
     0
100
AcDbLine
 10
-41.79549989091119
 20
-273.9474949892195
 30
0.0
 11
-41.69571128466874
 21
-273.8477063829771
 31
0.0
  0
LINE
  5
B6B
330
A81
100
AcDbEntity
  8
0
 62
     0
100
AcDbLine
 10
-43.0400704184019
 20
-275.0594829952378
 30
0.0
 11
-42.93792648401271
 21
-274.9573390608487
 31
0.0
  0
LINE
  5
B6C
330
A81
100
AcDbEntity
  8
0
 62
     0
100
AcDbLine
 10
-38.98817157092188
 20
-271.0075841477578
 30
0.0
 11
-38.09340238146882
 21
-270.1128149583047
 31
0.0
  0
LINE
  5
B6D
330
A81
100
AcDbEntity
  8
0
 62
     0
100
AcDbLine
 10
-42.93792648401271
 20
-274.9573390608486
 30
0.0
 11
-42.30593197781072
 21
-274.3253445546466
 31
0.0
  0
LINE
  5
B6E
330
A81
100
AcDbEntity
  8
0
 62
     0
100
AcDbLine
 10
-41.33224236077215
 20
-273.351654937608
 30
0.0
 11
-41.09136355447085
 21
-273.1107761313067
 31
0.0
  0
LINE
  5
B6F
330
A81
100
AcDbEntity
  8
0
 62
     0
100
AcDbLine
 10
-41.84025181534611
 20
-273.859664392182
 30
0.0
 11
-41.74046320910367
 21
-273.7598757859395
 31
0.0
  0
LINE
  5
B70
330
A81
100
AcDbEntity
  8
0
 62
     0
100
AcDbLine
 10
-43.08482234283682
 20
-274.9716523982002
 30
0.0
 11
-42.98267840844763
 21
-274.8695084638111
 31
0.0
  0
LINE
  5
B71
330
A81
100
AcDbEntity
  8
0
 62
     0
100
AcDbLine
 10
-39.12075409239436
 20
-271.0075841477578
 30
0.0
 11
-38.2259849029413
 21
-270.1128149583047
 31
0.0
  0
LINE
  5
B72
330
A81
100
AcDbEntity
  8
0
 62
     0
100
AcDbLine
 10
-42.98267840844764
 20
-274.8695084638111
 30
0.0
 11
-42.35068390224564
 21
-274.2375139576091
 31
0.0
  0
LINE
  5
B73
330
A81
100
AcDbEntity
  8
0
 62
     0
100
AcDbLine
 10
-41.08151705492112
 20
-272.9683471102845
 30
0.0
 11
-40.96181643366968
 21
-272.848646489033
 31
0.0
  0
LINE
  5
B74
330
A81
100
AcDbEntity
  8
0
 62
     0
100
AcDbLine
 10
-41.88500373978103
 20
-273.7718337951445
 30
0.0
 11
-41.78521513353859
 21
-273.672045188902
 31
0.0
  0
LINE
  5
B75
330
A81
100
AcDbEntity
  8
0
 62
     0
100
AcDbLine
 10
-41.32239586122242
 20
-273.2092259165858
 30
0.0
 11
-41.08151705492112
 21
-272.9683471102845
 31
0.0
  0
LINE
  5
B76
330
A81
100
AcDbEntity
  8
0
 62
     0
100
AcDbLine
 10
-43.12957426727176
 20
-274.8838218011627
 30
0.0
 11
-43.02743033288257
 21
-274.7816778667736
 31
0.0
  0
LINE
  5
B77
330
A81
100
AcDbEntity
  8
0
 62
     0
100
AcDbLine
 10
-39.25333661386681
 20
-271.0075841477578
 30
0.0
 11
-38.35856742441375
 21
-270.1128149583047
 31
0.0
  0
LINE
  5
B78
330
A81
100
AcDbEntity
  8
0
 62
     0
100
AcDbLine
 10
-43.02743033288256
 20
-274.7816778667735
 30
0.0
 11
-42.39543582668058
 21
-274.1496833605715
 31
0.0
  0
LINE
  5
B79
330
A81
100
AcDbEntity
  8
0
 62
     0
100
AcDbLine
 10
-41.07167055537138
 20
-272.8259180892623
 30
0.0
 11
-40.79761027123158
 21
-272.5518578051226
 31
0.0
  0
LINE
  5
B7A
330
A81
100
AcDbEntity
  8
0
 62
     0
100
AcDbLine
 10
-41.92975566421597
 20
-273.6840031981069
 30
0.0
 11
-41.82996705797352
 21
-273.5842145918645
 31
0.0
  0
LINE
  5
B7B
330
A81
100
AcDbEntity
  8
0
 62
     0
100
AcDbLine
 10
-41.3125493616727
 20
-273.0667968955636
 30
0.0
 11
-41.07167055537138
 21
-272.8259180892623
 31
0.0
  0
LINE
  5
B7C
330
A81
100
AcDbEntity
  8
0
 62
     0
100
AcDbLine
 10
-43.17432619170667
 20
-274.7959912041251
 30
0.0
 11
-43.07218225731747
 21
-274.693847269736
 31
0.0
  0
LINE
  5
B7D
330
A81
100
AcDbEntity
  8
0
 62
     0
100
AcDbLine
 10
-39.3859191353393
 20
-271.0075841477578
 30
0.0
 11
-38.49114994588624
 21
-270.1128149583047
 31
0.0
  0
LINE
  5
B7E
330
A81
100
AcDbEntity
  8
0
 62
     0
100
AcDbLine
 10
-43.07218225731748
 20
-274.693847269736
 30
0.0
 11
-42.44018775111549
 21
-274.0618527635339
 31
0.0
  0
LINE
  5
B7F
330
A81
100
AcDbEntity
  8
0
 62
     0
100
AcDbLine
 10
-41.06182405582166
 20
-272.6834890682401
 30
0.0
 11
-40.63340410879347
 21
-272.2550691212119
 31
0.0
  0
LINE
  5
B80
330
A81
100
AcDbEntity
  8
0
 62
     0
100
AcDbLine
 10
-41.97450758865088
 20
-273.5961726010693
 30
0.0
 11
-41.87471898240843
 21
-273.4963839948269
 31
0.0
  0
LINE
  5
B81
330
A81
100
AcDbEntity
  8
0
 62
     0
100
AcDbLine
 10
-41.30270286212296
 20
-272.9243678745414
 30
0.0
 11
-41.06182405582166
 21
-272.6834890682401
 31
0.0
  0
LINE
  5
B82
330
A81
100
AcDbEntity
  8
0
 62
     0
100
AcDbLine
 10
-43.2190781161416
 20
-274.7081606070876
 30
0.0
 11
-43.11693418175241
 21
-274.6060166726984
 31
0.0
  0
LINE
  5
B83
330
A81
100
AcDbEntity
  8
0
 62
     0
100
AcDbLine
 10
-39.51850165681178
 20
-271.0075841477578
 30
0.0
 11
-38.62373246735872
 21
-270.1128149583047
 31
0.0
  0
LINE
  5
B84
330
A81
100
AcDbEntity
  8
0
 62
     0
100
AcDbLine
 10
-43.11693418175241
 20
-274.6060166726984
 30
0.0
 11
-42.48493967555043
 21
-273.9740221664964
 31
0.0
  0
LINE
  5
B85
330
A81
100
AcDbEntity
  8
0
 62
     0
100
AcDbLine
 10
-41.04147028864789
 20
-272.5305527795939
 30
0.0
 11
-40.46919794635537
 21
-271.9582804373014
 31
0.0
  0
LINE
  5
B86
330
A81
100
AcDbEntity
  8
0
 62
     0
100
AcDbLine
 10
-42.0192595130858
 20
-273.5083420040318
 30
0.0
 11
-41.91947090684336
 21
-273.4085533977893
 31
0.0
  0
LINE
  5
B87
330
A81
100
AcDbEntity
  8
0
 62
     0
100
AcDbLine
 10
-41.29285636257323
 20
-272.7819388535192
 30
0.0
 11
-41.05197755627193
 21
-272.5410600472179
 31
0.0
  0
LINE
  5
B88
330
A81
100
AcDbEntity
  8
0
 62
     0
100
AcDbLine
 10
-43.26383004057651
 20
-274.62033001005
 30
0.0
 11
-43.16168610618734
 21
-274.5181860756609
 31
0.0
  0
LINE
  5
B89
330
A81
100
AcDbEntity
  8
0
 62
     0
100
AcDbLine
 10
-39.65108417828427
 20
-271.0075841477578
 30
0.0
 11
-38.7563149888312
 21
-270.1128149583047
 31
0.0
  0
LINE
  5
B8A
330
A81
100
AcDbEntity
  8
0
 62
     0
100
AcDbLine
 10
-43.16168610618732
 20
-274.5181860756608
 30
0.0
 11
-42.52969159998534
 21
-273.8861915694589
 31
0.0
  0
LINE
  5
B8B
330
A81
100
AcDbEntity
  8
0
 62
     0
100
AcDbLine
 10
-40.87726412620977
 20
-272.2337640956832
 30
0.0
 11
-40.30499178391731
 21
-271.6614917533908
 31
0.0
  0
LINE
  5
B8C
330
A81
100
AcDbEntity
  8
0
 62
     0
100
AcDbLine
 10
-42.06401143752072
 20
-273.4205114069942
 30
0.0
 11
-41.96422283127828
 21
-273.3207228007517
 31
0.0
  0
LINE
  5
B8D
330
A81
100
AcDbEntity
  8
0
 62
     0
100
AcDbLine
 10
-41.2830098630235
 20
-272.639509832497
 30
0.0
 11
-41.04213105672219
 21
-272.3986310261957
 31
0.0
  0
LINE
  5
B8E
330
A81
100
AcDbEntity
  8
0
 62
     0
100
AcDbLine
 10
-43.30858196501145
 20
-274.5324994130124
 30
0.0
 11
-43.20643803062226
 21
-274.4303554786233
 31
0.0
  0
LINE
  5
B8F
330
A81
100
AcDbEntity
  8
0
 62
     0
100
AcDbLine
 10
-39.78366669975674
 20
-271.0075841477578
 30
0.0
 11
-38.88889751030369
 21
-270.1128149583047
 31
0.0
  0
LINE
  5
B90
330
A81
100
AcDbEntity
  8
0
 62
     0
100
AcDbLine
 10
-43.20643803062226
 20
-274.4303554786232
 30
0.0
 11
-42.57444352442026
 21
-273.7983609724213
 31
0.0
  0
LINE
  5
B91
330
A81
100
AcDbEntity
  8
0
 62
     0
100
AcDbLine
 10
-40.71305796377171
 20
-271.9369754117727
 30
0.0
 11
-40.14078562147921
 21
-271.3647030694802
 31
0.0
  0
LINE
  5
B92
330
A81
100
AcDbEntity
  8
0
 62
     0
100
AcDbLine
 10
-42.10876336195565
 20
-273.3326808099567
 30
0.0
 11
-42.00897475571321
 21
-273.2328922037142
 31
0.0
  0
LINE
  5
B93
330
A81
100
AcDbEntity
  8
0
 62
     0
100
AcDbLine
 10
-41.27316336347377
 20
-272.4970808114748
 30
0.0
 11
-41.03228455717245
 21
-272.2562020051735
 31
0.0
  0
LINE
  5
B94
330
A81
100
AcDbEntity
  8
0
 62
     0
100
AcDbLine
 10
-43.35333388944637
 20
-274.4446688159749
 30
0.0
 11
-43.25118995505717
 21
-274.3425248815857
 31
0.0
  0
LINE
  5
B95
330
A81
100
AcDbEntity
  8
0
 62
     0
100
AcDbLine
 10
-39.9162492212292
 20
-271.0075841477578
 30
0.0
 11
-39.02148003177617
 21
-270.1128149583047
 31
0.0
  0
LINE
  5
B96
330
A81
100
AcDbEntity
  8
0
 62
     0
100
AcDbLine
 10
-43.25118995505718
 20
-274.3425248815857
 30
0.0
 11
-42.61919544885519
 21
-273.7105303753837
 31
0.0
  0
LINE
  5
B97
330
A81
100
AcDbEntity
  8
0
 62
     0
100
AcDbLine
 10
-40.5488518013336
 20
-271.6401867278622
 30
0.0
 11
-39.97657945904111
 21
-271.0679143855696
 31
0.0
  0
LINE
  5
B98
330
A81
100
AcDbEntity
  8
0
 62
     0
100
AcDbLine
 10
-42.15351528639057
 20
-273.2448502129191
 30
0.0
 11
-42.05372668014815
 21
-273.1450616066767
 31
0.0
  0
LINE
  5
B99
330
A81
100
AcDbEntity
  8
0
 62
     0
100
AcDbLine
 10
-41.26331686392403
 20
-272.3546517904526
 30
0.0
 11
-41.02243805762273
 21
-272.1137729841512
 31
0.0
  0
LINE
  5
B9A
330
A81
100
AcDbEntity
  8
0
 62
     0
100
AcDbLine
 10
-43.39808581388129
 20
-274.3568382189374
 30
0.0
 11
-43.29594187949211
 21
-274.2546942845482
 31
0.0
  0
LINE
  5
B9B
330
A81
100
AcDbEntity
  8
0
 62
     0
100
AcDbLine
 10
-40.04883174270166
 20
-271.0075841477577
 30
0.0
 11
-39.15406255324862
 21
-270.1128149583047
 31
0.0
  0
LINE
  5
B9C
330
A81
100
AcDbEntity
  8
0
 62
     0
100
AcDbLine
 10
-43.29594187949211
 20
-274.2546942845482
 30
0.0
 11
-42.66394737329011
 21
-273.6226997783461
 31
0.0
  0
LINE
  5
B9D
330
A81
100
AcDbEntity
  8
0
 62
     0
100
AcDbLine
 10
-40.38464563889553
 20
-271.3433980439516
 30
0.0
 11
-40.04883174270168
 21
-271.0075841477578
 31
0.0
  0
LINE
  5
B9E
330
A81
100
AcDbEntity
  8
0
 62
     0
100
AcDbLine
 10
-42.19826721082549
 20
-273.1570196158815
 30
0.0
 11
-42.09847860458307
 21
-273.0572310096391
 31
0.0
  0
LINE
  5
B9F
330
A81
100
AcDbEntity
  8
0
 62
     0
100
AcDbLine
 10
-41.25347036437431
 20
-272.2122227694304
 30
0.0
 11
-41.01259155807299
 21
-271.971343963129
 31
0.0
  0
LINE
  5
BA0
330
A81
100
AcDbEntity
  8
0
 62
     0
100
AcDbLine
 10
-43.44283773831622
 20
-274.2690076218998
 30
0.0
 11
-43.34069380392703
 21
-274.1668636875106
 31
0.0
  0
LINE
  5
BA1
330
A81
100
AcDbEntity
  8
0
 62
     0
100
AcDbLine
 10
-40.18141426417416
 20
-271.0075841477577
 30
0.0
 11
-39.28664507472111
 21
-270.1128149583047
 31
0.0
  0
LINE
  5
BA2
330
A81
100
AcDbEntity
  8
0
 62
     0
100
AcDbLine
 10
-43.34069380392703
 20
-274.1668636875106
 30
0.0
 11
-42.70869929772504
 21
-273.5348691813086
 31
0.0
  0
LINE
  5
BA3
330
A81
100
AcDbEntity
  8
0
 62
     0
100
AcDbLine
 10
-40.22043947645742
 20
-271.046609360041
 30
0.0
 11
-40.18141426417416
 21
-271.0075841477578
 31
0.0
  0
LINE
  5
BA4
330
A81
100
AcDbEntity
  8
0
 62
     0
100
AcDbLine
 10
-42.24301913526041
 20
-273.069189018844
 30
0.0
 11
-42.14323052901799
 21
-272.9694004126015
 31
0.0
  0
LINE
  5
BA5
330
A81
100
AcDbEntity
  8
0
 62
     0
100
AcDbLine
 10
-41.24362386482458
 20
-272.0697937484081
 30
0.0
 11
-41.00274505852326
 21
-271.8289149421068
 31
0.0
  0
LINE
  5
BA6
330
A81
100
AcDbEntity
  8
0
 62
     0
100
AcDbLine
 10
-43.48758966275113
 20
-274.1811770248623
 30
0.0
 11
-43.38544572836195
 21
-274.0790330904731
 31
0.0
  0
LINE
  5
BA7
330
A81
100
AcDbEntity
  8
0
 62
     0
100
AcDbLine
 10
-40.31399678564665
 20
-271.0075841477578
 30
0.0
 11
-39.41922759619359
 21
-270.1128149583047
 31
0.0
  0
LINE
  5
BA8
330
A81
100
AcDbEntity
  8
0
 62
     0
100
AcDbLine
 10
-43.38544572836195
 20
-274.0790330904731
 30
0.0
 11
-42.75345122215997
 21
-273.447038584271
 31
0.0
  0
LINE
  5
BA9
330
A81
100
AcDbEntity
  8
0
 62
     0
100
AcDbLine
 10
-41.23377736527484
 20
-271.9273647273859
 30
0.0
 11
-40.99289855897352
 21
-271.6864859210846
 31
0.0
  0
LINE
  5
BAA
330
A81
100
AcDbEntity
  8
0
 62
     0
100
AcDbLine
 10
-42.28777105969533
 20
-272.9813584218064
 30
0.0
 11
-42.18798245345292
 21
-272.881569815564
 31
0.0
  0
LINE
  5
BAB
330
A81
100
AcDbEntity
  8
0
 62
     0
100
AcDbLine
 10
-43.53234158718605
 20
-274.0933464278247
 30
0.0
 11
-43.43019765279687
 21
-273.9912024934355
 31
0.0
  0
LINE
  5
BAC
330
A81
100
AcDbEntity
  8
0
 62
     0
100
AcDbLine
 10
-40.44657930711912
 20
-271.0075841477578
 30
0.0
 11
-39.55181011766607
 21
-270.1128149583047
 31
0.0
  0
LINE
  5
BAD
330
A81
100
AcDbEntity
  8
0
 62
     0
100
AcDbLine
 10
-43.43019765279688
 20
-273.9912024934355
 30
0.0
 11
-42.79820314659487
 21
-273.3592079872335
 31
0.0
  0
LINE
  5
BAE
330
A81
100
AcDbEntity
  8
0
 62
     0
100
AcDbLine
 10
-41.22393086572511
 20
-271.7849357063637
 30
0.0
 11
-40.9830520594238
 21
-271.5440569000624
 31
0.0
  0
LINE
  5
BAF
330
A81
100
AcDbEntity
  8
0
 62
     0
100
AcDbLine
 10
-42.33252298413026
 20
-272.8935278247689
 30
0.0
 11
-42.23273437788784
 21
-272.7937392185264
 31
0.0
  0
LINE
  5
BB0
330
A81
100
AcDbEntity
  8
0
 62
     0
100
AcDbLine
 10
-43.57709351162099
 20
-274.0055158307872
 30
0.0
 11
-43.4749495772318
 21
-273.903371896398
 31
0.0
  0
LINE
  5
BB1
330
A81
100
AcDbEntity
  8
0
 62
     0
100
AcDbLine
 10
-40.57916182859158
 20
-271.0075841477578
 30
0.0
 11
-39.68439263913856
 21
-270.1128149583047
 31
0.0
  0
LINE
  5
BB2
330
A81
100
AcDbEntity
  8
0
 62
     0
100
AcDbLine
 10
-43.4749495772318
 20
-273.903371896398
 30
0.0
 11
-42.84295507102982
 21
-273.2713773901959
 31
0.0
  0
LINE
  5
BB3
330
A81
100
AcDbEntity
  8
0
 62
     0
100
AcDbLine
 10
-41.21408436617539
 20
-271.6425066853415
 30
0.0
 11
-40.97320555987406
 21
-271.4016278790402
 31
0.0
  0
LINE
  5
BB4
330
A81
100
AcDbEntity
  8
0
 62
     0
100
AcDbLine
 10
-42.37727490856518
 20
-272.8056972277314
 30
0.0
 11
-42.27748630232276
 21
-272.705908621489
 31
0.0
  0
LINE
  5
BB5
330
A81
100
AcDbEntity
  8
0
 62
     0
100
AcDbLine
 10
-43.6218454360559
 20
-273.9176852337496
 30
0.0
 11
-43.51970150166672
 21
-273.8155412993604
 31
0.0
  0
LINE
  5
BB6
330
A81
100
AcDbEntity
  8
0
 62
     0
100
AcDbLine
 10
-40.71174435006406
 20
-271.0075841477578
 30
0.0
 11
-39.81697516061101
 21
-270.1128149583047
 31
0.0
  0
LINE
  5
BB7
330
A81
100
AcDbEntity
  8
0
 62
     0
100
AcDbLine
 10
-43.51970150166672
 20
-273.8155412993604
 30
0.0
 11
-42.88770699546473
 21
-273.1835467931584
 31
0.0
  0
LINE
  5
BB8
330
A81
100
AcDbEntity
  8
0
 62
     0
100
AcDbLine
 10
-41.20423786662565
 20
-271.5000776643193
 30
0.0
 11
-40.96335906032432
 21
-271.259198858018
 31
0.0
  0
LINE
  5
BB9
330
A81
100
AcDbEntity
  8
0
 62
     0
100
AcDbLine
 10
-42.4220268330001
 20
-272.7178666306938
 30
0.0
 11
-42.32223822675769
 21
-272.6180780244514
 31
0.0
  0
LINE
  5
BBA
330
A81
100
AcDbEntity
  8
0
 62
     0
100
AcDbLine
 10
-43.66659736049083
 20
-273.829854636712
 30
0.0
 11
-43.56445342610165
 21
-273.7277107023229
 31
0.0
  0
LINE
  5
BBB
330
A81
100
AcDbEntity
  8
0
 62
     0
100
AcDbLine
 10
-40.84432687153655
 20
-271.0075841477578
 30
0.0
 11
-39.94955768208349
 21
-270.1128149583047
 31
0.0
  0
LINE
  5
BBC
330
A81
100
AcDbEntity
  8
0
 62
     0
100
AcDbLine
 10
-43.56445342610164
 20
-273.7277107023228
 30
0.0
 11
-42.93245891989965
 21
-273.0957161961208
 31
0.0
  0
LINE
  5
BBD
330
A81
100
AcDbEntity
  8
0
 62
     0
100
AcDbLine
 10
-41.19439136707593
 20
-271.3576486432971
 30
0.0
 11
-40.95351256077459
 21
-271.1167698369958
 31
0.0
  0
LINE
  5
BBE
330
A81
100
AcDbEntity
  8
0
 62
     0
100
AcDbLine
 10
-42.46677875743502
 20
-272.6300360336562
 30
0.0
 11
-42.36699015119261
 21
-272.5302474274138
 31
0.0
  0
LINE
  5
BBF
330
A81
100
AcDbEntity
  8
0
 62
     0
100
AcDbLine
 10
-43.71134928492576
 20
-273.7420240396744
 30
0.0
 11
-43.60920535053657
 21
-273.6398801052853
 31
0.0
  0
LINE
  5
BC0
330
A81
100
AcDbEntity
  8
0
 62
     0
100
AcDbLine
 10
-40.97690939300903
 20
-271.0075841477578
 30
0.0
 11
-40.08214020355597
 21
-270.1128149583047
 31
0.0
  0
LINE
  5
BC1
330
A81
100
AcDbEntity
  8
0
 62
     0
100
AcDbLine
 10
-43.60920535053657
 20
-273.6398801052853
 30
0.0
 11
-42.97721084433458
 21
-273.0078855990833
 31
0.0
  0
LINE
  5
BC2
330
A81
100
AcDbEntity
  8
0
 62
     0
100
AcDbLine
 10
-41.1845448675262
 20
-271.2152196222749
 30
0.0
 11
-40.97690939300904
 21
-271.0075841477578
 31
0.0
  0
LINE
  5
BC3
330
A81
100
AcDbEntity
  8
0
 62
     0
100
AcDbLine
 10
-42.51153068186996
 20
-272.5422054366187
 30
0.0
 11
-42.41174207562753
 21
-272.4424168303762
 31
0.0
  0
LINE
  5
BC4
330
A81
100
AcDbEntity
  8
0
 62
     0
100
AcDbLine
 10
-43.75610120936068
 20
-273.6541934426369
 30
0.0
 11
-43.65395727497149
 21
-273.5520495082478
 31
0.0
  0
LINE
  5
BC5
330
A81
100
AcDbEntity
  8
0
 62
     0
100
AcDbLine
 10
-41.10949191448152
 20
-271.0075841477578
 30
0.0
 11
-40.21472272502846
 21
-270.1128149583047
 31
0.0
  0
LINE
  5
BC6
330
A81
100
AcDbEntity
  8
0
 62
     0
100
AcDbLine
 10
-43.65395727497149
 20
-273.5520495082478
 30
0.0
 11
-43.02196276876951
 21
-272.9200550020458
 31
0.0
  0
LINE
  5
BC7
330
A81
100
AcDbEntity
  8
0
 62
     0
100
AcDbLine
 10
-41.17469836797646
 20
-271.0727906012527
 30
0.0
 11
-41.10949191448153
 21
-271.0075841477578
 31
0.0
  0
LINE
  5
BC8
330
A81
100
AcDbEntity
  8
0
 62
     0
100
AcDbLine
 10
-42.55628260630487
 20
-272.4543748395811
 30
0.0
 11
-42.45649400006246
 21
-272.3545862333387
 31
0.0
  0
LINE
  5
BC9
330
A81
100
AcDbEntity
  8
0
 62
     0
100
AcDbLine
 10
-43.8008531337956
 20
-273.5663628455994
 30
0.0
 11
-43.69870919940642
 21
-273.4642189112102
 31
0.0
  0
LINE
  5
BCA
330
A81
100
AcDbEntity
  8
0
 62
     0
100
AcDbLine
 10
-41.242074435954
 20
-271.0075841477578
 30
0.0
 11
-40.34730524650094
 21
-270.1128149583047
 31
0.0
  0
LINE
  5
BCB
330
A81
100
AcDbEntity
  8
0
 62
     0
100
AcDbLine
 10
-43.69870919940643
 20
-273.4642189112102
 30
0.0
 11
-43.06671469320444
 21
-272.8322244050082
 31
0.0
  0
LINE
  5
BCC
330
A81
100
AcDbEntity
  8
0
 62
     0
100
AcDbLine
 10
-42.6010345307398
 20
-272.3665442425436
 30
0.0
 11
-42.50124592449738
 21
-272.2667556363012
 31
0.0
  0
LINE
  5
BCD
330
A81
100
AcDbEntity
  8
0
 62
     0
100
AcDbLine
 10
-43.84560505823052
 20
-273.4785322485618
 30
0.0
 11
-43.74346112384134
 21
-273.3763883141727
 31
0.0
  0
LINE
  5
BCE
330
A81
100
AcDbEntity
  8
0
 62
     0
100
AcDbLine
 10
-41.37465695742645
 20
-271.0075841477578
 30
0.0
 11
-40.47988776797339
 21
-270.1128149583047
 31
0.0
  0
LINE
  5
BCF
330
A81
100
AcDbEntity
  8
0
 62
     0
100
AcDbLine
 10
-43.74346112384134
 20
-273.3763883141726
 30
0.0
 11
-43.11146661763936
 21
-272.7443938079706
 31
0.0
  0
LINE
  5
BD0
330
A81
100
AcDbEntity
  8
0
 62
     0
100
AcDbLine
 10
-42.64578645517471
 20
-272.278713645506
 30
0.0
 11
-42.5459978489323
 21
-272.1789250392636
 31
0.0
  0
LINE
  5
BD1
330
A81
100
AcDbEntity
  8
0
 62
     0
100
AcDbLine
 10
-43.89035698266545
 20
-273.3907016515242
 30
0.0
 11
-43.78821304827627
 21
-273.2885577171351
 31
0.0
  0
LINE
  5
BD2
330
A81
100
AcDbEntity
  8
0
 62
     0
100
AcDbLine
 10
-41.50723947889893
 20
-271.0075841477578
 30
0.0
 11
-40.61247028944587
 21
-270.1128149583047
 31
0.0
  0
LINE
  5
BD3
330
A81
100
AcDbEntity
  8
0
 62
     0
100
AcDbLine
 10
-43.78821304827627
 20
-273.2885577171351
 30
0.0
 11
-43.15621854207427
 21
-272.6565632109331
 31
0.0
  0
LINE
  5
BD4
330
A81
100
AcDbEntity
  8
0
 62
     0
100
AcDbLine
 10
-42.69053837960965
 20
-272.1908830484685
 30
0.0
 11
-42.59074977336722
 21
-272.0910944422261
 31
0.0
  0
LINE
  5
BD5
330
A81
100
AcDbEntity
  8
0
 62
     0
100
AcDbLine
 10
-43.93510890710039
 20
-273.3028710544867
 30
0.0
 11
-43.83296497271119
 21
-273.2007271200976
 31
0.0
  0
LINE
  5
BD6
330
A81
100
AcDbEntity
  8
0
 62
     0
100
AcDbLine
 10
-41.63982200037142
 20
-271.0075841477578
 30
0.0
 11
-40.74505281091837
 21
-270.1128149583047
 31
0.0
  0
LINE
  5
BD7
330
A81
100
AcDbEntity
  8
0
 62
     0
100
AcDbLine
 10
-43.83296497271119
 20
-273.2007271200975
 30
0.0
 11
-43.2009704665092
 21
-272.5687326138955
 31
0.0
  0
LINE
  5
BD8
330
A81
100
AcDbEntity
  8
0
 62
     0
100
AcDbLine
 10
-42.73529030404456
 20
-272.1030524514309
 30
0.0
 11
-42.63550169780215
 21
-272.0032638451885
 31
0.0
  0
LINE
  5
BD9
330
A81
100
AcDbEntity
  8
0
 62
     0
100
AcDbLine
 10
-43.97986083153529
 20
-273.2150404574491
 30
0.0
 11
-43.87771689714611
 21
-273.11289652306
 31
0.0
  0
LINE
  5
BDA
330
A81
100
AcDbEntity
  8
0
 62
     0
100
AcDbLine
 10
-41.7724045218439
 20
-271.0075841477578
 30
0.0
 11
-40.87763533239084
 21
-270.1128149583047
 31
0.0
  0
LINE
  5
BDB
330
A81
100
AcDbEntity
  8
0
 62
     0
100
AcDbLine
 10
-43.87771689714612
 20
-273.11289652306
 30
0.0
 11
-43.24572239094412
 21
-272.480902016858
 31
0.0
  0
LINE
  5
BDC
330
A81
100
AcDbEntity
  8
0
 62
     0
100
AcDbLine
 10
-42.78004222847949
 20
-272.0152218543934
 30
0.0
 11
-42.68025362223707
 21
-271.9154332481509
 31
0.0
  0
LINE
  5
BDD
330
A81
100
AcDbEntity
  8
0
 62
     0
100
AcDbLine
 10
-44.02461275597022
 20
-273.1272098604116
 30
0.0
 11
-43.92246882158103
 21
-273.0250659260224
 31
0.0
  0
LINE
  5
BDE
330
A81
100
AcDbEntity
  8
0
 62
     0
100
AcDbLine
 10
-41.90498704331639
 20
-271.0075841477578
 30
0.0
 11
-41.01021785386333
 21
-270.1128149583047
 31
0.0
  0
LINE
  5
BDF
330
A81
100
AcDbEntity
  8
0
 62
     0
100
AcDbLine
 10
-43.92246882158103
 20
-273.0250659260224
 30
0.0
 11
-43.29047431537905
 21
-272.3930714198204
 31
0.0
  0
LINE
  5
BE0
330
A81
100
AcDbEntity
  8
0
 62
     0
100
AcDbLine
 10
-42.8247941529144
 20
-271.9273912573558
 30
0.0
 11
-42.72500554667199
 21
-271.8276026511134
 31
0.0
  0
LINE
  5
BE1
330
A81
100
AcDbEntity
  8
0
 62
     0
100
AcDbLine
 10
-44.06936468040514
 20
-273.0393792633741
 30
0.0
 11
-43.96722074601596
 21
-272.9372353289849
 31
0.0
  0
LINE
  5
BE2
330
A81
100
AcDbEntity
  8
0
 62
     0
100
AcDbLine
 10
-42.03756956478883
 20
-271.0075841477578
 30
0.0
 11
-41.14280037533577
 21
-270.1128149583047
 31
0.0
  0
LINE
  5
BE3
330
A81
100
AcDbEntity
  8
0
 62
     0
100
AcDbLine
 10
-43.96722074601596
 20
-272.9372353289849
 30
0.0
 11
-43.33522623981397
 21
-272.3052408227829
 31
0.0
  0
LINE
  5
BE4
330
A81
100
AcDbEntity
  8
0
 62
     0
100
AcDbLine
 10
-42.86954607734934
 20
-271.8395606603182
 30
0.0
 11
-42.76975747110692
 21
-271.7397720540759
 31
0.0
  0
LINE
  5
BE5
330
A81
100
AcDbEntity
  8
0
 62
     0
100
AcDbLine
 10
-44.11411660484007
 20
-272.9515486663365
 30
0.0
 11
-44.01197267045088
 21
-272.8494047319474
 31
0.0
  0
LINE
  5
BE6
330
A81
100
AcDbEntity
  8
0
 62
     0
100
AcDbLine
 10
-42.17015208626132
 20
-271.0075841477578
 30
0.0
 11
-41.27538289680827
 21
-270.1128149583047
 31
0.0
  0
LINE
  5
BE7
330
A81
100
AcDbEntity
  8
0
 62
     0
100
AcDbLine
 10
-44.01197267045089
 20
-272.8494047319474
 30
0.0
 11
-43.3799781642489
 21
-272.2174102257453
 31
0.0
  0
LINE
  5
BE8
330
A81
100
AcDbEntity
  8
0
 62
     0
100
AcDbLine
 10
-42.91429800178426
 20
-271.7517300632807
 30
0.0
 11
-42.81450939554184
 21
-271.6519414570383
 31
0.0
  0
LINE
  5
BE9
330
A81
100
AcDbEntity
  8
0
 62
     0
100
AcDbLine
 10
-43.03552049306387
 20
-271.8729525545603
 30
0.0
 11
-42.91429800178426
 21
-271.7517300632807
 31
0.0
  0
LINE
  5
BEA
330
A81
100
AcDbEntity
  8
0
 62
     0
100
AcDbLine
 10
-44.15886852927499
 20
-272.8637180692989
 30
0.0
 11
-44.0567245948858
 21
-272.7615741349098
 31
0.0
  0
LINE
  5
BEB
330
A81
100
AcDbEntity
  8
0
 62
     0
100
AcDbLine
 10
-42.30273460773381
 20
-271.0075841477578
 30
0.0
 11
-41.40796541828075
 21
-270.1128149583047
 31
0.0
  0
LINE
  5
BEC
330
A81
100
AcDbEntity
  8
0
 62
     0
100
AcDbLine
 10
-44.05672459488581
 20
-272.7615741349098
 30
0.0
 11
-43.42473008868381
 21
-272.1295796287078
 31
0.0
  0
LINE
  5
BED
330
A81
100
AcDbEntity
  8
0
 62
     0
100
AcDbLine
 10
-42.95904992621917
 20
-271.6638994662432
 30
0.0
 11
-42.85926131997678
 21
-271.5641108600007
 31
0.0
  0
LINE
  5
BEE
330
A81
100
AcDbEntity
  8
0
 62
     0
100
AcDbLine
 10
-43.30583527562661
 20
-272.0106848156506
 30
0.0
 11
-43.03567928394395
 21
-271.7405288239679
 31
0.0
  0
LINE
  5
BEF
330
A81
100
AcDbEntity
  8
0
 62
     0
100
AcDbLine
 10
-44.20362045370992
 20
-272.7758874722614
 30
0.0
 11
-44.10147651932073
 21
-272.6737435378722
 31
0.0
  0
LINE
  5
BF0
330
A81
100
AcDbEntity
  8
0
 62
     0
100
AcDbLine
 10
-42.43531712920629
 20
-271.0075841477578
 30
0.0
 11
-41.54054793975324
 21
-270.1128149583047
 31
0.0
  0
LINE
  5
BF1
330
A81
100
AcDbEntity
  8
0
 62
     0
100
AcDbLine
 10
-44.10147651932073
 20
-272.6737435378722
 30
0.0
 11
-43.57615005818931
 21
-272.1484170767408
 31
0.0
  0
LINE
  5
BF2
330
A81
100
AcDbEntity
  8
0
 62
     0
100
AcDbLine
 10
-43.00380185065409
 20
-271.5760688692056
 30
0.0
 11
-42.9040132444117
 21
-271.4762802629631
 31
0.0
  0
LINE
  5
BF3
330
A81
100
AcDbEntity
  8
0
 62
     0
100
AcDbLine
 10
-43.57615005818945
 20
-272.1484170767408
 30
0.0
 11
-43.29449434520518
 21
-271.8667613637567
 31
0.0
  0
LINE
  5
BF4
330
A81
100
AcDbEntity
  8
0
 62
     0
100
AcDbLine
 10
-44.24837237814484
 20
-272.6880568752238
 30
0.0
 11
-44.14622844375565
 21
-272.5859129408347
 31
0.0
  0
LINE
  5
BF5
330
A81
100
AcDbEntity
  8
0
 62
     0
100
AcDbLine
 10
-42.56789965067877
 20
-271.0075841477578
 30
0.0
 11
-41.67313046122571
 21
-270.1128149583047
 31
0.0
  0
LINE
  5
BF6
330
A81
100
AcDbEntity
  8
0
 62
     0
100
AcDbLine
 10
-44.14622844375567
 20
-272.5859129408347
 30
0.0
 11
-43.81389900091518
 21
-272.2535834979942
 31
0.0
  0
LINE
  5
BF7
330
A81
100
AcDbEntity
  8
0
 62
     0
100
AcDbLine
 10
-43.04855377508903
 20
-271.488238272168
 30
0.0
 11
-42.94876516884662
 21
-271.3884496659257
 31
0.0
  0
LINE
  5
BF8
330
A81
100
AcDbEntity
  8
0
 62
     0
100
AcDbLine
 10
-43.81389900091516
 20
-272.2535834979942
 30
0.0
 11
-43.5533094064665
 21
-271.9929939035455
 31
0.0
  0
LINE
  5
BF9
330
A81
100
AcDbEntity
  8
0
 62
     0
100
AcDbLine
 10
-43.55330940646641
 20
-271.9929939035454
 30
0.0
 11
-43.51423393755367
 21
-271.9539184346327
 31
0.0
  0
LINE
  5
BFA
330
A81
100
AcDbEntity
  8
0
 62
     0
100
AcDbLine
 10
-44.29312430257975
 20
-272.6002262781863
 30
0.0
 11
-44.19098036819057
 21
-272.4980823437971
 31
0.0
  0
LINE
  5
BFB
330
A81
100
AcDbEntity
  8
0
 62
     0
100
AcDbLine
 10
-42.70048217215122
 20
-271.0075841477578
 30
0.0
 11
-41.80571298269817
 21
-270.1128149583047
 31
0.0
  0
LINE
  5
BFC
330
A81
100
AcDbEntity
  8
0
 62
     0
100
AcDbLine
 10
-44.19098036819058
 20
-272.4980823437971
 30
0.0
 11
-43.85736435006013
 21
-272.1644663256667
 31
0.0
  0
LINE
  5
BFD
330
A81
100
AcDbEntity
  8
0
 62
     0
100
AcDbLine
 10
-43.09330569952394
 20
-271.4004076751304
 30
0.0
 11
-42.99351709328155
 21
-271.3006190688881
 31
0.0
  0
LINE
  5
BFE
330
A81
100
AcDbEntity
  8
0
 62
     0
100
AcDbLine
 10
-43.85736435006017
 20
-272.1644663256666
 30
0.0
 11
-43.81212446772781
 21
-272.1192264433343
 31
0.0
  0
LINE
  5
BFF
330
A81
100
AcDbEntity
  8
0
 62
     0
100
AcDbLine
 10
-43.81212446772774
 20
-272.1192264433343
 30
0.0
 11
-43.5589858619886
 21
-271.8660878375951
 31
0.0
  0
LINE
  5
C00
330
A81
100
AcDbEntity
  8
0
 62
     0
100
AcDbLine
 10
-44.33787622701468
 20
-272.5123956811487
 30
0.0
 11
-44.23573229262551
 21
-272.4102517467596
 31
0.0
  0
LINE
  5
C01
330
A81
100
AcDbEntity
  8
0
 62
     0
100
AcDbLine
 10
-42.83306469362371
 20
-271.0075841477578
 30
0.0
 11
-41.93829550417065
 21
-270.1128149583047
 31
0.0
  0
LINE
  5
C02
330
A81
100
AcDbEntity
  8
0
 62
     0
100
AcDbLine
 10
-44.23573229262551
 20
-272.4102517467596
 30
0.0
 11
-43.60373778642352
 21
-271.7782572405575
 31
0.0
  0
LINE
  5
C03
330
A81
100
AcDbEntity
  8
0
 62
     0
100
AcDbLine
 10
-43.13805762395886
 20
-271.3125770780929
 30
0.0
 11
-43.03826901771647
 21
-271.2127884718505
 31
0.0
  0
LINE
  5
C04
330
A81
100
AcDbEntity
  8
0
 62
     0
100
AcDbLine
 10
-44.38262815144962
 20
-272.4245650841112
 30
0.0
 11
-44.28048421706043
 21
-272.3224211497221
 31
0.0
  0
LINE
  5
C05
330
A81
100
AcDbEntity
  8
0
 62
     0
100
AcDbLine
 10
-42.9656472150962
 20
-271.0075841477578
 30
0.0
 11
-42.07087802564314
 21
-270.1128149583047
 31
0.0
  0
LINE
  5
C06
330
A81
100
AcDbEntity
  8
0
 62
     0
100
AcDbLine
 10
-44.28048421706043
 20
-272.322421149722
 30
0.0
 11
-43.64848971085844
 21
-271.69042664352
 31
0.0
  0
LINE
  5
C07
330
A81
100
AcDbEntity
  8
0
 62
     0
100
AcDbLine
 10
-43.18280954839378
 20
-271.2247464810554
 30
0.0
 11
-43.08302094215139
 21
-271.1249578748129
 31
0.0
  0
LINE
  5
C08
330
A81
100
AcDbEntity
  8
0
 62
     0
100
AcDbLine
 10
-44.42738007588452
 20
-272.3367344870736
 30
0.0
 11
-44.32523614149536
 21
-272.2345905526844
 31
0.0
  0
LINE
  5
C09
330
A81
100
AcDbEntity
  8
0
 62
     0
100
AcDbLine
 10
-43.09822973656867
 20
-271.0075841477578
 30
0.0
 11
-42.20346054711562
 21
-270.1128149583047
 31
0.0
  0
LINE
  5
C0A
330
A81
100
AcDbEntity
  8
0
 62
     0
100
AcDbLine
 10
-44.32523614149537
 20
-272.2345905526844
 30
0.0
 11
-43.69324163529338
 21
-271.6025960464825
 31
0.0
  0
LINE
  5
C0B
330
A81
100
AcDbEntity
  8
0
 62
     0
100
AcDbLine
 10
-43.22756147282872
 20
-271.1369158840178
 30
0.0
 11
-43.12777286658632
 21
-271.0371272777754
 31
0.0
  0
LINE
  5
C0C
330
A81
100
AcDbEntity
  8
0
 62
     0
100
AcDbLine
 10
-44.47213200031946
 20
-272.2489038900361
 30
0.0
 11
-44.36998806593027
 21
-272.1467599556469
 31
0.0
  0
LINE
  5
C0D
330
A81
100
AcDbEntity
  8
0
 62
     0
100
AcDbLine
 10
-43.23081225804116
 20
-271.0075841477578
 30
0.0
 11
-42.3360430685881
 21
-270.1128149583047
 31
0.0
  0
LINE
  5
C0E
330
A81
100
AcDbEntity
  8
0
 62
     0
100
AcDbLine
 10
-44.36998806593028
 20
-272.1467599556469
 30
0.0
 11
-43.7379935597283
 21
-271.5147654494449
 31
0.0
  0
LINE
  5
C0F
330
A81
100
AcDbEntity
  8
0
 62
     0
100
AcDbLine
 10
-43.27231339726363
 20
-271.0490852869802
 30
0.0
 11
-43.23081225804115
 21
-271.0075841477578
 31
0.0
  0
LINE
  5
C10
330
A81
100
AcDbEntity
  8
0
 62
     0
100
AcDbLine
 10
-44.51688392475437
 20
-272.1610732929985
 30
0.0
 11
-44.41473999036521
 21
-272.0589293586094
 31
0.0
  0
LINE
  5
C11
330
A81
100
AcDbEntity
  8
0
 62
     0
100
AcDbLine
 10
-43.36339477951361
 20
-271.0075841477578
 30
0.0
 11
-42.46862559006059
 21
-270.1128149583047
 31
0.0
  0
LINE
  5
C12
330
A81
100
AcDbEntity
  8
0
 62
     0
100
AcDbLine
 10
-44.4147399903652
 20
-272.0589293586093
 30
0.0
 11
-43.78274548416323
 21
-271.4269348524073
 31
0.0
  0
LINE
  5
C13
330
A81
100
AcDbEntity
  8
0
 62
     0
100
AcDbLine
 10
-44.5616358491893
 20
-272.0732426959609
 30
0.0
 11
-44.45949191480012
 21
-271.9710987615718
 31
0.0
  0
LINE
  5
C14
330
A81
100
AcDbEntity
  8
0
 62
     0
100
AcDbLine
 10
-43.4959773009861
 20
-271.0075841477578
 30
0.0
 11
-42.60120811153304
 21
-270.1128149583047
 31
0.0
  0
LINE
  5
C15
330
A81
100
AcDbEntity
  8
0
 62
     0
100
AcDbLine
 10
-44.45949191480013
 20
-271.9710987615718
 30
0.0
 11
-43.82749740859814
 21
-271.3391042553698
 31
0.0
  0
LINE
  5
C16
330
A81
100
AcDbEntity
  8
0
 62
     0
100
AcDbLine
 10
-44.60638777362423
 20
-271.9854120989233
 30
0.0
 11
-44.50424383923505
 21
-271.8832681645342
 31
0.0
  0
LINE
  5
C17
330
A81
100
AcDbEntity
  8
0
 62
     0
100
AcDbLine
 10
-43.62855982245858
 20
-271.0075841477578
 30
0.0
 11
-42.73379063300552
 21
-270.1128149583047
 31
0.0
  0
LINE
  5
C18
330
A81
100
AcDbEntity
  8
0
 62
     0
100
AcDbLine
 10
-44.50424383923506
 20
-271.8832681645342
 30
0.0
 11
-43.87224933303307
 21
-271.2512736583323
 31
0.0
  0
LINE
  5
C19
330
A81
100
AcDbEntity
  8
0
 62
     0
100
AcDbLine
 10
-44.65113969805915
 20
-271.8975815018858
 30
0.0
 11
-44.54899576366996
 21
-271.7954375674967
 31
0.0
  0
LINE
  5
C1A
330
A81
100
AcDbEntity
  8
0
 62
     0
100
AcDbLine
 10
-43.76114234393106
 20
-271.0075841477578
 30
0.0
 11
-42.86637315447801
 21
-270.1128149583047
 31
0.0
  0
LINE
  5
C1B
330
A81
100
AcDbEntity
  8
0
 62
     0
100
AcDbLine
 10
-44.54899576366997
 20
-271.7954375674967
 30
0.0
 11
-43.91700125746799
 21
-271.1634430612947
 31
0.0
  0
LINE
  5
C1C
330
A81
100
AcDbEntity
  8
0
 62
     0
100
AcDbLine
 10
-44.69589162249408
 20
-271.8097509048483
 30
0.0
 11
-44.5937476881049
 21
-271.7076069704591
 31
0.0
  0
LINE
  5
C1D
330
A81
100
AcDbEntity
  8
0
 62
     0
100
AcDbLine
 10
-43.89372486540355
 20
-271.0075841477578
 30
0.0
 11
-42.99895567595049
 21
-270.1128149583047
 31
0.0
  0
LINE
  5
C1E
330
A81
100
AcDbEntity
  8
0
 62
     0
100
AcDbLine
 10
-44.59374768810491
 20
-271.7076069704591
 30
0.0
 11
-43.96175318190293
 21
-271.0756124642572
 31
0.0
  0
LINE
  5
C1F
330
A81
100
AcDbEntity
  8
0
 62
     0
100
AcDbLine
 10
-44.74064354692899
 20
-271.7219203078107
 30
0.0
 11
-44.63849961253981
 21
-271.6197763734216
 31
0.0
  0
LINE
  5
C20
330
A81
100
AcDbEntity
  8
0
 62
     0
100
AcDbLine
 10
-44.02630738687596
 20
-271.0075841477577
 30
0.0
 11
-43.13153819742297
 21
-270.1128149583047
 31
0.0
  0
LINE
  5
C21
330
A81
100
AcDbEntity
  8
0
 62
     0
100
AcDbLine
 10
-44.63849961253983
 20
-271.6197763734216
 30
0.0
 11
-44.02630738687603
 21
-271.0075841477578
 31
0.0
  0
LINE
  5
C22
330
A81
100
AcDbEntity
  8
0
 62
     0
100
AcDbLine
 10
-44.78539547136391
 20
-271.6340897107732
 30
0.0
 11
-44.68325153697474
 21
-271.5319457763841
 31
0.0
  0
LINE
  5
C23
330
A81
100
AcDbEntity
  8
0
 62
     0
100
AcDbLine
 10
-44.15888990834845
 20
-271.0075841477577
 30
0.0
 11
-43.26412071889542
 21
-270.1128149583047
 31
0.0
  0
LINE
  5
C24
330
A81
100
AcDbEntity
  8
0
 62
     0
100
AcDbLine
 10
-44.68325153697477
 20
-271.531945776384
 30
0.0
 11
-44.15888990834848
 21
-271.0075841477578
 31
0.0
  0
LINE
  5
C25
330
A81
100
AcDbEntity
  8
0
 62
     0
100
AcDbLine
 10
-44.83014739579885
 20
-271.5462591137356
 30
0.0
 11
-44.72800346140967
 21
-271.4441151793465
 31
0.0
  0
LINE
  5
C26
330
A81
100
AcDbEntity
  8
0
 62
     0
100
AcDbLine
 10
-44.29147242982091
 20
-271.0075841477577
 30
0.0
 11
-43.39670324036791
 21
-270.1128149583047
 31
0.0
  0
LINE
  5
C27
330
A81
100
AcDbEntity
  8
0
 62
     0
100
AcDbLine
 10
-44.72800346140968
 20
-271.4441151793465
 30
0.0
 11
-44.29147242982097
 21
-271.0075841477578
 31
0.0
  0
LINE
  5
C28
330
A81
100
AcDbEntity
  8
0
 62
     0
100
AcDbLine
 10
-44.87489932023376
 20
-271.4584285166981
 30
0.0
 11
-44.7727553858446
 21
-271.3562845823089
 31
0.0
  0
LINE
  5
C29
330
A81
100
AcDbEntity
  8
0
 62
     0
100
AcDbLine
 10
-44.42405495129341
 20
-271.0075841477577
 30
0.0
 11
-43.5292857618404
 21
-270.1128149583047
 31
0.0
  0
LINE
  5
C2A
330
A81
100
AcDbEntity
  8
0
 62
     0
100
AcDbLine
 10
-44.77275538584461
 20
-271.3562845823089
 30
0.0
 11
-44.42405495129345
 21
-271.0075841477578
 31
0.0
  0
LINE
  5
C2B
330
A81
100
AcDbEntity
  8
0
 62
     0
100
AcDbLine
 10
-44.91965124466869
 20
-271.3705979196606
 30
0.0
 11
-44.81750731027952
 21
-271.2684539852714
 31
0.0
  0
LINE
  5
C2C
330
A81
100
AcDbEntity
  8
0
 62
     0
100
AcDbLine
 10
-44.55663747276587
 20
-271.0075841477577
 30
0.0
 11
-43.66186828331287
 21
-270.1128149583047
 31
0.0
  0
LINE
  5
C2D
330
A81
100
AcDbEntity
  8
0
 62
     0
100
AcDbLine
 10
-44.81750731027953
 20
-271.2684539852714
 30
0.0
 11
-44.55663747276593
 21
-271.0075841477578
 31
0.0
  0
LINE
  5
C2E
330
A81
100
AcDbEntity
  8
0
 62
     0
100
AcDbLine
 10
-44.96440316910361
 20
-271.282767322623
 30
0.0
 11
-44.86225923471444
 21
-271.1806233882338
 31
0.0
  0
LINE
  5
C2F
330
A81
100
AcDbEntity
  8
0
 62
     0
100
AcDbLine
 10
-44.68921999423836
 20
-271.0075841477577
 30
0.0
 11
-43.79445080478536
 21
-270.1128149583047
 31
0.0
  0
LINE
  5
C30
330
A81
100
AcDbEntity
  8
0
 62
     0
100
AcDbLine
 10
-44.86225923471446
 20
-271.1806233882338
 30
0.0
 11
-44.68921999423842
 21
-271.0075841477578
 31
0.0
  0
LINE
  5
C31
330
A81
100
AcDbEntity
  8
0
 62
     0
100
AcDbLine
 10
-45.00915509353854
 20
-271.1949367255854
 30
0.0
 11
-44.93619626528839
 21
-271.1219778973352
 31
0.0
  0
LINE
  5
C32
330
A81
100
AcDbEntity
  8
0
 62
     0
100
AcDbLine
 10
-44.82180251571087
 20
-271.0075841477578
 30
0.0
 11
-43.92703332625781
 21
-270.1128149583047
 31
0.0
  0
LINE
  5
C33
330
A81
100
AcDbEntity
  8
0
 62
     0
100
AcDbLine
 10
-44.95438503718335
 20
-271.0075841477578
 30
0.0
 11
-44.0596158477303
 21
-270.1128149583047
 31
0.0
  0
LINE
  5
C34
330
A81
100
AcDbEntity
  8
0
 62
     0
100
AcDbLine
 10
-45.08696755865584
 20
-271.0075841477578
 30
0.0
 11
-44.19219836920278
 21
-270.1128149583047
 31
0.0
  0
LINE
  5
C35
330
A81
100
AcDbEntity
  8
0
 62
     0
100
AcDbLine
 10
-45.21955008012832
 20
-271.0075841477578
 30
0.0
 11
-44.32478089067527
 21
-270.1128149583047
 31
0.0
  0
LINE
  5
C36
330
A81
100
AcDbEntity
  8
0
 62
     0
100
AcDbLine
 10
-45.23372463886881
 20
-270.8891761850257
 30
0.0
 11
-44.45736341214774
 21
-270.1128149583047
 31
0.0
  0
LINE
  5
C37
330
A81
100
AcDbEntity
  8
0
 62
     0
100
AcDbLine
 10
-45.23372463886881
 20
-270.7565936635533
 30
0.0
 11
-44.5899459336202
 21
-270.1128149583047
 31
0.0
  0
LINE
  5
C38
330
A81
100
AcDbEntity
  8
0
 62
     0
100
AcDbLine
 10
-45.23372463886881
 20
-270.6240111420808
 30
0.0
 11
-44.72252845509268
 21
-270.1128149583047
 31
0.0
  0
LINE
  5
C39
330
A81
100
AcDbEntity
  8
0
 62
     0
100
AcDbLine
 10
-45.23372463886881
 20
-270.4914286206083
 30
0.0
 11
-44.85511097656517
 21
-270.1128149583047
 31
0.0
  0
LINE
  5
C3A
330
A81
100
AcDbEntity
  8
0
 62
     0
100
AcDbLine
 10
-45.2337246388688
 20
-270.3588460991359
 30
0.0
 11
-44.98769349803765
 21
-270.1128149583047
 31
0.0
  0
LINE
  5
C3B
330
A81
100
AcDbEntity
  8
0
 62
     0
100
AcDbLine
 10
-45.2337246388688
 20
-270.2262635776634
 30
0.0
 11
-45.12027601951014
 21
-270.1128149583047
 31
0.0
  0
LINE
  5
C3C
330
A81
100
AcDbEntity
  8
0
 62
     0
100
AcDbLine
 10
-39.27512850824
 20
-279.5146574163695
 30
0.0
 11
-38.5413666900566
 21
-278.7808955981861
 31
0.0
  0
LINE
  5
C3D
330
A81
100
AcDbEntity
  8
0
 62
     0
100
AcDbLine
 10
-39.16241960701883
 20
-279.5345310366208
 30
0.0
 11
-38.42865778883542
 21
-278.8007692184374
 31
0.0
  0
LINE
  5
C3E
330
A81
100
AcDbEntity
  8
0
 62
     0
100
AcDbLine
 10
-39.04971070579762
 20
-279.5544046568721
 30
0.0
 11
-38.31594888761424
 21
-278.8206428386887
 31
0.0
  0
LINE
  5
C3F
330
A81
100
AcDbEntity
  8
0
 62
     0
100
AcDbLine
 10
-38.93700180457646
 20
-279.5742782771234
 30
0.0
 11
-38.20323998639308
 21
-278.84051645894
 31
0.0
  0
LINE
  5
C40
330
A81
100
AcDbEntity
  8
0
 62
     0
100
AcDbLine
 10
-38.82429290335529
 20
-279.5941518973747
 30
0.0
 11
-38.0905310851719
 21
-278.8603900791913
 31
0.0
  0
LINE
  5
C41
330
A81
100
AcDbEntity
  8
0
 62
     0
100
AcDbLine
 10
-38.71158400213412
 20
-279.614025517626
 30
0.0
 11
-37.97782218395072
 21
-278.8802636994426
 31
0.0
  0
LINE
  5
C42
330
A81
100
AcDbEntity
  8
0
 62
     0
100
AcDbLine
 10
-38.59887510091292
 20
-279.6338991378773
 30
0.0
 11
-37.86511328272954
 21
-278.9001373196939
 31
0.0
  0
LINE
  5
C43
330
A81
100
AcDbEntity
  8
0
 62
     0
100
AcDbLine
 10
-38.48616619969174
 20
-279.6537727581286
 30
0.0
 11
-37.75240438150836
 21
-278.9200109399452
 31
0.0
  0
LINE
  5
C44
330
A81
100
AcDbEntity
  8
0
 62
     0
100
AcDbLine
 10
-38.37345729847058
 20
-279.6736463783799
 30
0.0
 11
-37.63969548028717
 21
-278.9398845601965
 31
0.0
  0
LINE
  5
C45
330
A81
100
AcDbEntity
  8
0
 62
     0
100
AcDbLine
 10
-38.26074839724942
 20
-279.6935199986312
 30
0.0
 11
-37.526986579066
 21
-278.9597581804478
 31
0.0
  0
LINE
  5
C46
330
A81
100
AcDbEntity
  8
0
 62
     0
100
AcDbLine
 10
-38.14803949602821
 20
-279.7133936188825
 30
0.0
 11
-37.41427767784482
 21
-278.9796318006991
 31
0.0
  0
LINE
  5
C47
330
A81
100
AcDbEntity
  8
0
 62
     0
100
AcDbLine
 10
-38.03533059480704
 20
-279.7332672391338
 30
0.0
 11
-37.30156877662363
 21
-278.9995054209504
 31
0.0
  0
LINE
  5
C48
330
A81
100
AcDbEntity
  8
0
 62
     0
100
AcDbLine
 10
-37.92262169358588
 20
-279.7531408593851
 30
0.0
 11
-37.18885987540245
 21
-279.0193790412017
 31
0.0
  0
LINE
  5
C49
330
A81
100
AcDbEntity
  8
0
 62
     0
100
AcDbLine
 10
-37.80991279236471
 20
-279.7730144796364
 30
0.0
 11
-37.07615097418127
 21
-279.039252661453
 31
0.0
  0
LINE
  5
C4A
330
A81
100
AcDbEntity
  8
0
 62
     0
100
AcDbLine
 10
-37.6972038911435
 20
-279.7928880998877
 30
0.0
 11
-36.96344207296009
 21
-279.0591262817043
 31
0.0
  0
LINE
  5
C4B
330
A81
100
AcDbEntity
  8
0
 62
     0
100
AcDbLine
 10
-37.58449498992233
 20
-279.812761720139
 30
0.0
 11
-36.85073317173891
 21
-279.0789999019556
 31
0.0
  0
LINE
  5
C4C
330
A81
100
AcDbEntity
  8
0
 62
     0
100
AcDbLine
 10
-37.47178608870117
 20
-279.8326353403903
 30
0.0
 11
-36.73802427051778
 21
-279.0988735222069
 31
0.0
  0
LINE
  5
C4D
330
A81
100
AcDbEntity
  8
0
 62
     0
100
AcDbLine
 10
-37.35907718748001
 20
-279.8525089606416
 30
0.0
 11
-36.62531536929659
 21
-279.1187471424582
 31
0.0
  0
LINE
  5
C4E
330
A81
100
AcDbEntity
  8
0
 62
     0
100
AcDbLine
 10
-37.24636828625879
 20
-279.8723825808929
 30
0.0
 11
-36.51260646807542
 21
-279.1386207627095
 31
0.0
  0
LINE
  5
C4F
330
A81
100
AcDbEntity
  8
0
 62
     0
100
AcDbLine
 10
-37.13365938503763
 20
-279.8922562011442
 30
0.0
 11
-36.39989756685424
 21
-279.1584943829608
 31
0.0
  0
LINE
  5
C50
330
A81
100
AcDbEntity
  8
0
 62
     0
100
AcDbLine
 10
-37.02095048381647
 20
-279.9121298213955
 30
0.0
 11
-36.28718866563306
 21
-279.1783680032121
 31
0.0
  0
LINE
  5
C51
330
A81
100
AcDbEntity
  8
0
 62
     0
100
AcDbLine
 10
-36.9082415825953
 20
-279.9320034416468
 30
0.0
 11
-36.17447976441188
 21
-279.1982416234634
 31
0.0
  0
LINE
  5
C52
330
A81
100
AcDbEntity
  8
0
 62
     0
100
AcDbLine
 10
-36.79553268137409
 20
-279.9518770618981
 30
0.0
 11
-36.0617708631907
 21
-279.2181152437147
 31
0.0
  0
LINE
  5
C53
330
A81
100
AcDbEntity
  8
0
 62
     0
100
AcDbLine
 10
-36.68282378015292
 20
-279.9717506821494
 30
0.0
 11
-35.94906196196951
 21
-279.237988863966
 31
0.0
  0
LINE
  5
C54
330
A81
100
AcDbEntity
  8
0
 62
     0
100
AcDbLine
 10
-36.57011487893175
 20
-279.9916243024007
 30
0.0
 11
-35.83635306074833
 21
-279.2578624842173
 31
0.0
  0
LINE
  5
C55
330
A81
100
AcDbEntity
  8
0
 62
     0
100
AcDbLine
 10
-36.45740597771059
 20
-280.011497922652
 30
0.0
 11
-35.72364415952716
 21
-279.2777361044686
 31
0.0
  0
LINE
  5
C56
330
A81
100
AcDbEntity
  8
0
 62
     0
100
AcDbLine
 10
-36.34469707648938
 20
-280.0313715429033
 30
0.0
 11
-35.61093525830597
 21
-279.2976097247199
 31
0.0
  0
LINE
  5
C57
330
A81
100
AcDbEntity
  8
0
 62
     0
100
AcDbLine
 10
-36.23198817526822
 20
-280.0512451631546
 30
0.0
 11
-35.49822635708479
 21
-279.3174833449712
 31
0.0
  0
LINE
  5
C58
330
A81
100
AcDbEntity
  8
0
 62
     0
100
AcDbLine
 10
-36.11927927404706
 20
-280.0711187834059
 30
0.0
 11
-35.38551745586361
 21
-279.3373569652225
 31
0.0
  0
LINE
  5
C59
330
A81
100
AcDbEntity
  8
0
 62
     0
100
AcDbLine
 10
-36.00657037282589
 20
-280.0909924036572
 30
0.0
 11
-35.27280855464243
 21
-279.3572305854738
 31
0.0
  0
LINE
  5
C5A
330
A81
100
AcDbEntity
  8
0
 62
     0
100
AcDbLine
 10
-35.89386147160467
 20
-280.1108660239085
 30
0.0
 11
-35.16009965342125
 21
-279.3771042057251
 31
0.0
  0
LINE
  5
C5B
330
A81
100
AcDbEntity
  8
0
 62
     0
100
AcDbLine
 10
-35.78115257038351
 20
-280.1307396441598
 30
0.0
 11
-35.04739075220007
 21
-279.3969778259764
 31
0.0
  0
LINE
  5
C5C
330
A81
100
AcDbEntity
  8
0
 62
     0
100
AcDbLine
 10
-35.66844366916234
 20
-280.1506132644111
 30
0.0
 11
-34.93468185097889
 21
-279.4168514462277
 31
0.0
  0
LINE
  5
C5D
330
A81
100
AcDbEntity
  8
0
 62
     0
100
AcDbLine
 10
-35.55573476794118
 20
-280.1704868846624
 30
0.0
 11
-34.82197294975771
 21
-279.436725066479
 31
0.0
  0
LINE
  5
C5E
330
A81
100
AcDbEntity
  8
0
 62
     0
100
AcDbLine
 10
-35.44302586671997
 20
-280.1903605049137
 30
0.0
 11
-34.70926404853658
 21
-279.4565986867303
 31
0.0
  0
LINE
  5
C5F
330
A81
100
AcDbEntity
  8
0
 62
     0
100
AcDbLine
 10
-35.3303169654988
 20
-280.210234125165
 30
0.0
 11
-34.59655514731539
 21
-279.4764723069816
 31
0.0
  0
LINE
  5
C60
330
A81
100
AcDbEntity
  8
0
 62
     0
100
AcDbLine
 10
-35.21760806427764
 20
-280.2301077454163
 30
0.0
 11
-34.48384624609421
 21
-279.496345927233
 31
0.0
  0
LINE
  5
C61
330
A81
100
AcDbEntity
  8
0
 62
     0
100
AcDbLine
 10
-35.10489916305647
 20
-280.2499813656676
 30
0.0
 11
-34.65961316436878
 21
-279.80469536698
 31
0.0
  0
LINE
  5
C62
330
A81
100
AcDbEntity
  8
0
 62
     0
100
AcDbLine
 10
-34.49507239555112
 20
-279.6401545981623
 30
0.0
 11
-34.37113734487303
 21
-279.5162195474842
 31
0.0
  0
LINE
  5
C63
330
A81
100
AcDbEntity
  8
0
 62
     0
100
AcDbLine
 10
-34.65961316436874
 20
-279.8046953669799
 30
0.0
 11
-34.49507239555113
 21
-279.6401545981623
 31
0.0
  0
LINE
  5
C64
330
A81
100
AcDbEntity
  8
0
 62
     0
100
AcDbLine
 10
-34.99219026183526
 20
-280.2698549859189
 30
0.0
 11
-34.61254978408334
 21
-279.890214508167
 31
0.0
  0
LINE
  5
C65
330
A81
100
AcDbEntity
  8
0
 62
     0
100
AcDbLine
 10
-34.4505443932725
 20
-279.7282091173562
 30
0.0
 11
-34.25842844365185
 21
-279.5360931677355
 31
0.0
  0
LINE
  5
C66
330
A81
100
AcDbEntity
  8
0
 62
     0
100
AcDbLine
 10
-34.61254978408327
 20
-279.8902145081669
 30
0.0
 11
-34.45054439327251
 21
-279.7282091173562
 31
0.0
  0
LINE
  5
C67
330
A81
100
AcDbEntity
  8
0
 62
     0
100
AcDbLine
 10
-34.8794813606141
 20
-280.2897286061702
 30
0.0
 11
-34.56548640379791
 21
-279.975733649354
 31
0.0
  0
LINE
  5
C68
330
A81
100
AcDbEntity
  8
0
 62
     0
100
AcDbLine
 10
-34.40601639099387
 20
-279.81626363655
 30
0.0
 11
-34.18212969867614
 21
-279.5923769442322
 31
0.0
  0
LINE
  5
C69
330
A81
100
AcDbEntity
  8
0
 62
     0
100
AcDbLine
 10
-34.5654864037978
 20
-279.975733649354
 30
0.0
 11
-34.4060163909939
 21
-279.81626363655
 31
0.0
  0
LINE
  5
C6A
330
A81
100
AcDbEntity
  8
0
 62
     0
100
AcDbLine
 10
-34.76677245939293
 20
-280.3096022264215
 30
0.0
 11
-34.51842302351247
 21
-280.0612527905411
 31
0.0
  0
LINE
  5
C6B
330
A81
100
AcDbEntity
  8
0
 62
     0
100
AcDbLine
 10
-34.36148838871525
 20
-279.9043181557439
 30
0.0
 11
-34.21610863625688
 21
-279.7589384032855
 31
0.0
  0
LINE
  5
C6C
330
A81
100
AcDbEntity
  8
0
 62
     0
100
AcDbLine
 10
-34.51842302351233
 20
-280.0612527905409
 30
0.0
 11
-34.36148838871528
 21
-279.9043181557439
 31
0.0
  0
LINE
  5
C6D
330
A81
100
AcDbEntity
  8
0
 62
     0
100
AcDbLine
 10
-34.65406355817177
 20
-280.3294758466728
 30
0.0
 11
-34.47135964322703
 21
-280.1467719317281
 31
0.0
  0
LINE
  5
C6E
330
A81
100
AcDbEntity
  8
0
 62
     0
100
AcDbLine
 10
-34.31696038643663
 20
-279.9923726749377
 30
0.0
 11
-34.25008757383762
 21
-279.9254998623387
 31
0.0
  0
LINE
  5
C6F
330
A81
100
AcDbEntity
  8
0
 62
     0
100
AcDbLine
 10
-34.47135964322686
 20
-280.1467719317279
 30
0.0
 11
-34.31696038643667
 21
-279.9923726749378
 31
0.0
  0
LINE
  5
C70
330
A81
100
AcDbEntity
  8
0
 62
     0
100
AcDbLine
 10
-34.54135465695056
 20
-280.3493494669242
 30
0.0
 11
-34.4242962629416
 21
-280.2322910729151
 31
0.0
  0
LINE
  5
C71
330
A81
100
AcDbEntity
  8
0
 62
     0
100
AcDbLine
 10
-34.42429626294139
 20
-280.232291072915
 30
0.0
 11
-34.27243238415805
 21
-280.0804271941316
 31
0.0
  0
LINE
  5
C72
330
A81
100
AcDbEntity
  8
0
 62
     0
100
AcDbLine
 10
-34.42864575572939
 20
-280.3692230871754
 30
0.0
 11
-34.37723288265617
 21
-280.3178102141022
 31
0.0
  0
LINE
  5
C73
330
A81
100
AcDbEntity
  8
0
 62
     0
100
AcDbLine
 10
-34.23763487951733
 20
-280.1782122109634
 30
0.0
 11
-34.22790438187941
 21
-280.1684817133254
 31
0.0
  0
LINE
  5
C74
330
A81
100
AcDbEntity
  8
0
 62
     0
100
AcDbLine
 10
-34.37723288265592
 20
-280.317810214102
 30
0.0
 11
-34.32222178119469
 21
-280.2627991126407
 31
0.0
  0
LINE
  5
C75
330
A81
100
AcDbEntity
  8
0
 62
     0
100
AcDbLine
 10
-34.3180454489991
 20
-280.2586227804452
 30
0.0
 11
-34.23763487951734
 21
-280.1782122109634
 31
0.0
  0
LINE
  5
C76
330
A81
100
AcDbEntity
  8
0
 62
     0
100
AcDbLine
 10
-34.33279649784393
 20
-280.4059563507625
 30
0.0
 11
-34.31594377963411
 21
-280.3891036325526
 31
0.0
  0
LINE
  5
C77
330
A81
100
AcDbEntity
  8
0
 62
     0
100
AcDbLine
 10
-34.31594377963405
 20
-280.3891036325526
 30
0.0
 11
-34.12832042519916
 21
-280.2014802781177
 31
0.0
  0
LINE
  5
C78
330
A81
100
AcDbEntity
  8
0
 62
     0
100
AcDbLine
 10
-34.2886183190611
 20
-280.4943606934521
 30
0.0
 11
-34.20326302751831
 21
-280.4090054019093
 31
0.0
  0
LINE
  5
C79
330
A81
100
AcDbEntity
  8
0
 62
     0
100
AcDbLine
 10
-34.01900597088106
 20
-280.224748345272
 30
0.0
 11
-34.00684354492805
 21
-280.2125859193191
 31
0.0
  0
LINE
  5
C7A
330
A81
100
AcDbEntity
  8
0
 62
     0
100
AcDbLine
 10
-34.20326302751827
 20
-280.4090054019093
 30
0.0
 11
-34.01900597088101
 21
-280.224748345272
 31
0.0
  0
LINE
  5
C7B
330
A81
100
AcDbEntity
  8
0
 62
     0
100
AcDbLine
 10
-34.24444014027825
 20
-280.5827650361417
 30
0.0
 11
-34.09058227540249
 21
-280.4289071712659
 31
0.0
  0
LINE
  5
C7C
330
A81
100
AcDbEntity
  8
0
 62
     0
100
AcDbLine
 10
-33.90969151656292
 20
-280.2480164124263
 30
0.0
 11
-33.73652476279732
 21
-280.0748496586608
 31
0.0
  0
LINE
  5
C7D
330
A81
100
AcDbEntity
  8
0
 62
     0
100
AcDbLine
 10
-34.09058227540246
 20
-280.4289071712659
 30
0.0
 11
-33.90969151656286
 21
-280.2480164124263
 31
0.0
  0
LINE
  5
C7E
330
A81
100
AcDbEntity
  8
0
 62
     0
100
AcDbLine
 10
-34.20026196149541
 20
-280.6711693788314
 30
0.0
 11
-33.9779015232867
 21
-280.4488089406227
 31
0.0
  0
LINE
  5
C7F
330
A81
100
AcDbEntity
  8
0
 62
     0
100
AcDbLine
 10
-33.80037706224471
 20
-280.2712844795807
 30
0.0
 11
-33.56665993146914
 21
-280.0375673488051
 31
0.0
  0
LINE
  5
C80
330
A81
100
AcDbEntity
  8
0
 62
     0
100
AcDbLine
 10
-33.97790152328667
 20
-280.4488089406226
 30
0.0
 11
-33.80037706224476
 21
-280.2712844795808
 31
0.0
  0
LINE
  5
C81
330
A81
100
AcDbEntity
  8
0
 62
     0
100
AcDbLine
 10
-34.15608378271257
 20
-280.759573721521
 30
0.0
 11
-33.86522077117088
 21
-280.4687107099793
 31
0.0
  0
LINE
  5
C82
330
A81
100
AcDbEntity
  8
0
 62
     0
100
AcDbLine
 10
-33.69106260792654
 20
-280.294552546735
 30
0.0
 11
-33.52248175268631
 21
-280.1259716914947
 31
0.0
  0
LINE
  5
C83
330
A81
100
AcDbEntity
  8
0
 62
     0
100
AcDbLine
 10
-33.86522077117085
 20
-280.4687107099793
 30
0.0
 11
-33.69106260792662
 21
-280.2945525467351
 31
0.0
  0
LINE
  5
C84
330
A81
100
AcDbEntity
  8
0
 62
     0
100
AcDbLine
 10
-34.11190560392971
 20
-280.8479780642106
 30
0.0
 11
-33.75254001905505
 21
-280.488612479336
 31
0.0
  0
LINE
  5
C85
330
A81
100
AcDbEntity
  8
0
 62
     0
100
AcDbLine
 10
-33.59453372366715
 20
-280.330606183948
 30
0.0
 11
-33.47830357390347
 21
-280.2143760341844
 31
0.0
  0
LINE
  5
C86
330
A81
100
AcDbEntity
  8
0
 62
     0
100
AcDbLine
 10
-33.75254001905507
 20
-280.4886124793359
 30
0.0
 11
-33.59453372366719
 21
-280.3306061839481
 31
0.0
  0
LINE
  5
C87
330
A81
100
AcDbEntity
  8
0
 62
     0
100
AcDbLine
 10
-34.06772742514688
 20
-280.9363824069003
 30
0.0
 11
-33.64145204273529
 21
-280.5101070244887
 31
0.0
  0
LINE
  5
C88
330
A81
100
AcDbEntity
  8
0
 62
     0
100
AcDbLine
 10
-33.62039977625162
 20
-280.489054758005
 30
0.0
 11
-33.43412539512061
 21
-280.302780376874
 31
0.0
  0
LINE
  5
C89
330
A81
100
AcDbEntity
  8
0
 62
     0
100
AcDbLine
 10
-33.64145204273528
 20
-280.5101070244887
 30
0.0
 11
-33.62039977625164
 21
-280.489054758005
 31
0.0
  0
LINE
  5
C8A
330
A81
100
AcDbEntity
  8
0
 62
     0
100
AcDbLine
 10
-34.02354924636404
 20
-281.0247867495899
 30
0.0
 11
-33.38994721633778
 21
-280.3911847195636
 31
0.0
  0
LINE
  5
C8B
330
A81
100
AcDbEntity
  8
0
 62
     0
100
AcDbLine
 10
-33.97937106758119
 20
-281.1131910922795
 30
0.0
 11
-33.34576903755494
 21
-280.4795890622533
 31
0.0
  0
LINE
  5
C8C
330
A81
100
AcDbEntity
  8
0
 62
     0
100
AcDbLine
 10
-33.93519288879836
 20
-281.2015954349691
 30
0.0
 11
-33.30159085877209
 21
-280.567993404943
 31
0.0
  0
LINE
  5
C8D
330
A81
100
AcDbEntity
  8
0
 62
     0
100
AcDbLine
 10
-33.89101471001551
 20
-281.2899997776588
 30
0.0
 11
-33.25741267998925
 21
-280.6563977476325
 31
0.0
  0
LINE
  5
C8E
330
A81
100
AcDbEntity
  8
0
 62
     0
100
AcDbLine
 10
-33.84683653123266
 20
-281.3784041203485
 30
0.0
 11
-33.21323450120642
 21
-280.7448020903222
 31
0.0
  0
LINE
  5
C8F
330
A81
100
AcDbEntity
  8
0
 62
     0
100
AcDbLine
 10
-33.80265835244982
 20
-281.4668084630381
 30
0.0
 11
-33.16905632242356
 21
-280.8332064330118
 31
0.0
  0
LINE
  5
C90
330
A81
100
AcDbEntity
  8
0
 62
     0
100
AcDbLine
 10
-33.75848017366698
 20
-281.5552128057277
 30
0.0
 11
-33.12487814364072
 21
-280.9216107757015
 31
0.0
  0
LINE
  5
C91
330
A81
100
AcDbEntity
  8
0
 62
     0
100
AcDbLine
 10
-33.71430199488414
 20
-281.6436171484174
 30
0.0
 11
-33.08069996485789
 21
-281.010015118391
 31
0.0
  0
LINE
  5
C92
330
A81
100
AcDbEntity
  8
0
 62
     0
100
AcDbLine
 10
-33.6701238161013
 20
-281.732021491107
 30
0.0
 11
-33.03652178607503
 21
-281.0984194610807
 31
0.0
  0
LINE
  5
C93
330
A81
100
AcDbEntity
  8
0
 62
     0
100
AcDbLine
 10
-33.62594563731845
 20
-281.8204258337966
 30
0.0
 11
-32.9923436072922
 21
-281.1868238037704
 31
0.0
  0
LINE
  5
C94
330
A81
100
AcDbEntity
  8
0
 62
     0
100
AcDbLine
 10
-33.58176745853561
 20
-281.9088301764862
 30
0.0
 11
-32.94816542850937
 21
-281.2752281464601
 31
0.0
  0
LINE
  5
C95
330
A81
100
AcDbEntity
  8
0
 62
     0
100
AcDbLine
 10
-33.53758927975277
 20
-281.9972345191759
 30
0.0
 11
-32.90398724972653
 21
-281.3636324891497
 31
0.0
  0
LINE
  5
C96
330
A81
100
AcDbEntity
  8
0
 62
     0
100
AcDbLine
 10
-33.49341110096992
 20
-282.0856388618656
 30
0.0
 11
-32.85980907094367
 21
-281.4520368318393
 31
0.0
  0
LINE
  5
C97
330
A81
100
AcDbEntity
  8
0
 62
     0
100
AcDbLine
 10
-33.44923292218708
 20
-282.1740432045552
 30
0.0
 11
-32.81563089216084
 21
-281.5404411745289
 31
0.0
  0
LINE
  5
C98
330
A81
100
AcDbEntity
  8
0
 62
     0
100
AcDbLine
 10
-33.40505474340423
 20
-282.2624475472448
 30
0.0
 11
-32.771452713378
 21
-281.6288455172186
 31
0.0
  0
LINE
  5
C99
330
A81
100
AcDbEntity
  8
0
 62
     0
100
AcDbLine
 10
-33.36087656462139
 20
-282.3508518899345
 30
0.0
 11
-32.72727453459515
 21
-281.7172498599082
 31
0.0
  0
LINE
  5
C9A
330
A81
100
AcDbEntity
  8
0
 62
     0
100
AcDbLine
 10
-33.31669838583855
 20
-282.4392562326241
 30
0.0
 11
-32.68309635581231
 21
-281.8056542025978
 31
0.0
  0
LINE
  5
C9B
330
A81
100
AcDbEntity
  8
0
 62
     0
100
AcDbLine
 10
-33.27252020705571
 20
-282.5276605753137
 30
0.0
 11
-32.63891817702948
 21
-281.8940585452875
 31
0.0
  0
LINE
  5
C9C
330
A81
100
AcDbEntity
  8
0
 62
     0
100
AcDbLine
 10
-33.22834202827287
 20
-282.6160649180033
 30
0.0
 11
-32.59473999824662
 21
-281.9824628879771
 31
0.0
  0
LINE
  5
C9D
330
A81
100
AcDbEntity
  8
0
 62
     0
100
AcDbLine
 10
-33.18416384949003
 20
-282.704469260693
 30
0.0
 11
-32.55056181946378
 21
-282.0708672306667
 31
0.0
  0
LINE
  5
C9E
330
A81
100
AcDbEntity
  8
0
 62
     0
100
AcDbLine
 10
-33.13998567070718
 20
-282.7928736033826
 30
0.0
 11
-32.50638364068095
 21
-282.1592715733564
 31
0.0
  0
LINE
  5
C9F
330
A81
100
AcDbEntity
  8
0
 62
     0
100
AcDbLine
 10
-33.09580749192433
 20
-282.8812779460723
 30
0.0
 11
-32.46220546189811
 21
-282.247675916046
 31
0.0
  0
LINE
  5
CA0
330
A81
100
AcDbEntity
  8
0
 62
     0
100
AcDbLine
 10
-33.0516293131415
 20
-282.9696822887619
 30
0.0
 11
-32.41802728311526
 21
-282.3360802587357
 31
0.0
  0
LINE
  5
CA1
330
A81
100
AcDbEntity
  8
0
 62
     0
100
AcDbLine
 10
-33.00745113435866
 20
-283.0580866314516
 30
0.0
 11
-32.37384910433242
 21
-282.4244846014253
 31
0.0
  0
LINE
  5
CA2
330
A81
100
AcDbEntity
  8
0
 62
     0
100
AcDbLine
 10
-32.96327295557581
 20
-283.1464909741411
 30
0.0
 11
-32.32967092554959
 21
-282.5128889441149
 31
0.0
  0
LINE
  5
CA3
330
A81
100
AcDbEntity
  8
0
 62
     0
100
AcDbLine
 10
-32.91909477679296
 20
-283.2348953168308
 30
0.0
 11
-32.28549274676673
 21
-282.6012932868045
 31
0.0
  0
LINE
  5
CA4
330
A81
100
AcDbEntity
  8
0
 62
     0
100
AcDbLine
 10
-32.87491659801013
 20
-283.3232996595204
 30
0.0
 11
-32.24131456798389
 21
-282.6896976294942
 31
0.0
  0
LINE
  5
CA5
330
A81
100
AcDbEntity
  8
0
 62
     0
100
AcDbLine
 10
-32.83073841922728
 20
-283.4117040022101
 30
0.0
 11
-32.19713638920106
 21
-282.7781019721838
 31
0.0
  0
LINE
  5
CA6
330
A81
100
AcDbEntity
  8
0
 62
     0
100
AcDbLine
 10
-32.78656024044444
 20
-283.5001083448997
 30
0.0
 11
-32.1529582104182
 21
-282.8665063148735
 31
0.0
  0
LINE
  5
CA7
330
A81
100
AcDbEntity
  8
0
 62
     0
100
AcDbLine
 10
-32.7423820616616
 20
-283.5885126875893
 30
0.0
 11
-32.10878003163537
 21
-282.9549106575631
 31
0.0
  0
LINE
  5
CA8
330
A81
100
AcDbEntity
  8
0
 62
     0
100
AcDbLine
 10
-32.69820388287876
 20
-283.6769170302789
 30
0.0
 11
-32.06460185285254
 21
-283.0433150002527
 31
0.0
  0
LINE
  5
CA9
330
A81
100
AcDbEntity
  8
0
 62
     0
100
AcDbLine
 10
-32.65402570409591
 20
-283.7653213729686
 30
0.0
 11
-32.0204236740697
 21
-283.1317193429424
 31
0.0
  0
LINE
  5
CAA
330
A81
100
AcDbEntity
  8
0
 62
     0
100
AcDbLine
 10
-32.60984752531307
 20
-283.8537257156582
 30
0.0
 11
-31.97624549528684
 21
-283.220123685632
 31
0.0
  0
LINE
  5
CAB
330
A81
100
AcDbEntity
  8
0
 62
     0
100
AcDbLine
 10
-32.56566934653022
 20
-283.9421300583479
 30
0.0
 11
-31.93206731650401
 21
-283.3085280283216
 31
0.0
  0
LINE
  5
CAC
330
A81
100
AcDbEntity
  8
0
 62
     0
100
AcDbLine
 10
-32.52149116774738
 20
-284.0305344010375
 30
0.0
 11
-31.88788913772117
 21
-283.3969323710113
 31
0.0
  0
LINE
  5
CAD
330
A81
100
AcDbEntity
  8
0
 62
     0
100
AcDbLine
 10
-32.47731298896454
 20
-284.1189387437271
 30
0.0
 11
-31.84371095893832
 21
-283.4853367137009
 31
0.0
  0
LINE
  5
CAE
330
A81
100
AcDbEntity
  8
0
 62
     0
100
AcDbLine
 10
-32.43313481018169
 20
-284.2073430864168
 30
0.0
 11
-31.79953278015548
 21
-283.5737410563906
 31
0.0
  0
LINE
  5
CAF
330
A81
100
AcDbEntity
  8
0
 62
     0
100
AcDbLine
 10
-32.38895663139885
 20
-284.2957474291064
 30
0.0
 11
-31.75535460137264
 21
-283.6621453990801
 31
0.0
  0
LINE
  5
CB0
330
A81
100
AcDbEntity
  8
0
 62
     0
100
AcDbLine
 10
-32.34477845261601
 20
-284.384151771796
 30
0.0
 11
-31.71117642258979
 21
-283.7505497417698
 31
0.0
  0
LINE
  5
CB1
330
A81
100
AcDbEntity
  8
0
 62
     0
100
AcDbLine
 10
-32.30060027383317
 20
-284.4725561144857
 30
0.0
 11
-31.66699824380695
 21
-283.8389540844595
 31
0.0
  0
LINE
  5
CB2
330
A81
100
AcDbEntity
  8
0
 62
     0
100
AcDbLine
 10
-32.25642209505032
 20
-284.5609604571753
 30
0.0
 11
-31.62282006502412
 21
-283.9273584271491
 31
0.0
  0
LINE
  5
CB3
330
A81
100
AcDbEntity
  8
0
 62
     0
100
AcDbLine
 10
-32.21224391626749
 20
-284.649364799865
 30
0.0
 11
-31.57864188624126
 21
-284.0157627698387
 31
0.0
  0
LINE
  5
CB4
330
A81
100
AcDbEntity
  8
0
 62
     0
100
AcDbLine
 10
-32.16806573748464
 20
-284.7377691425545
 30
0.0
 11
-31.53446370745843
 21
-284.1041671125284
 31
0.0
  0
LINE
  5
CB5
330
A81
100
AcDbEntity
  8
0
 62
     0
100
AcDbLine
 10
-32.1238875587018
 20
-284.8261734852442
 30
0.0
 11
-31.49028552867559
 21
-284.192571455218
 31
0.0
  0
LINE
  5
CB6
330
A81
100
AcDbEntity
  8
0
 62
     0
100
AcDbLine
 10
-32.07970937991895
 20
-284.9145778279338
 30
0.0
 11
-31.44610734989275
 21
-284.2809757979077
 31
0.0
  0
LINE
  5
CB7
330
A81
100
AcDbEntity
  8
0
 62
     0
100
AcDbLine
 10
-32.03553120113612
 20
-285.0029821706235
 30
0.0
 11
-31.4019291711099
 21
-284.3693801405972
 31
0.0
  0
LINE
  5
CB8
330
A81
100
AcDbEntity
  8
0
 62
     0
100
AcDbLine
 10
-31.99135302235327
 20
-285.0913865133131
 30
0.0
 11
-31.35775099232706
 21
-284.4577844832869
 31
0.0
  0
LINE
  5
CB9
330
A81
100
AcDbEntity
  8
0
 62
     0
100
AcDbLine
 10
-31.94717484357042
 20
-285.1797908560028
 30
0.0
 11
-31.31357281354423
 21
-284.5461888259766
 31
0.0
  0
LINE
  5
CBA
330
A81
100
AcDbEntity
  8
0
 62
     0
100
AcDbLine
 10
-31.90299666478758
 20
-285.2681951986924
 30
0.0
 11
-31.26939463476138
 21
-284.6345931686662
 31
0.0
  0
LINE
  5
CBB
330
A81
100
AcDbEntity
  8
0
 62
     0
100
AcDbLine
 10
-31.85881848600474
 20
-285.356599541382
 30
0.0
 11
-31.22521645597854
 21
-284.7229975113558
 31
0.0
  0
LINE
  5
CBC
330
A81
100
AcDbEntity
  8
0
 62
     0
100
AcDbLine
 10
-31.8146403072219
 20
-285.4450038840717
 30
0.0
 11
-31.1810382771957
 21
-284.8114018540455
 31
0.0
  0
LINE
  5
CBD
330
A81
100
AcDbEntity
  8
0
 62
     0
100
AcDbLine
 10
-31.77046212843906
 20
-285.5334082267613
 30
0.0
 11
-31.13686009841285
 21
-284.8998061967351
 31
0.0
  0
LINE
  5
CBE
330
A81
100
AcDbEntity
  8
0
 62
     0
100
AcDbLine
 10
-31.72628394965622
 20
-285.6218125694509
 30
0.0
 11
-31.09268191963001
 21
-284.9882105394248
 31
0.0
  0
LINE
  5
CBF
330
A81
100
AcDbEntity
  8
0
 62
     0
100
AcDbLine
 10
-31.68210577087337
 20
-285.7102169121406
 30
0.0
 11
-31.04850374084718
 21
-285.0766148821143
 31
0.0
  0
LINE
  5
CC0
330
A81
100
AcDbEntity
  8
0
 62
     0
100
AcDbLine
 10
-31.63792759209052
 20
-285.7986212548302
 30
0.0
 11
-31.00432556206434
 21
-285.165019224804
 31
0.0
  0
LINE
  5
CC1
330
A81
100
AcDbEntity
  8
0
 62
     0
100
AcDbLine
 10
-31.59374941330769
 20
-285.8870255975199
 30
0.0
 11
-30.96014738328149
 21
-285.2534235674937
 31
0.0
  0
LINE
  5
CC2
330
A81
100
AcDbEntity
  8
0
 62
     0
100
AcDbLine
 10
-31.50332316272872
 20
-285.9291818684134
 30
0.0
 11
-30.91596920449865
 21
-285.3418279101833
 31
0.0
  0
LINE
  5
CC3
330
A81
100
AcDbEntity
  8
0
 62
     0
100
AcDbLine
 10
-31.37157195278595
 20
-285.9300131799431
 30
0.0
 11
-30.87179102571581
 21
-285.4302322528729
 31
0.0
  0
LINE
  5
CC4
330
A81
100
AcDbEntity
  8
0
 62
     0
100
AcDbLine
 10
-31.23982074284319
 20
-285.9308444914728
 30
0.0
 11
-30.82761284693296
 21
-285.5186365955626
 31
0.0
  0
LINE
  5
CC5
330
A81
100
AcDbEntity
  8
0
 62
     0
100
AcDbLine
 10
-31.25232952633624
 20
-286.0759357964383
 30
0.0
 11
-31.16460760049095
 21
-285.988213870593
 31
0.0
  0
LINE
  5
CC6
330
A81
100
AcDbEntity
  8
0
 62
     0
100
AcDbLine
 10
-31.10806953290039
 20
-285.9316758030024
 30
0.0
 11
-30.78343466815012
 21
-285.6070409382521
 31
0.0
  0
LINE
  5
CC7
330
A81
100
AcDbEntity
  8
0
 62
     0
100
AcDbLine
 10
-31.15811563536502
 20
-285.981721905467
 30
0.0
 11
-31.10806953290039
 21
-285.9316758030025
 31
0.0
  0
LINE
  5
CC8
330
A81
100
AcDbEntity
  8
0
 62
     0
100
AcDbLine
 10
-31.12177404626793
 20
-286.0779628378424
 30
0.0
 11
-31.0328563905482
 21
-285.9890451821227
 31
0.0
  0
LINE
  5
CC9
330
A81
100
AcDbEntity
  8
0
 62
     0
100
AcDbLine
 10
-30.97631832295762
 20
-285.9325071145322
 30
0.0
 11
-30.73925648936729
 21
-285.6954452809418
 31
0.0
  0
LINE
  5
CCA
330
A81
100
AcDbEntity
  8
0
 62
     0
100
AcDbLine
 10
-30.99002283632514
 20
-286.0787941493721
 30
0.0
 11
-30.93156545569635
 21
-286.0203367687433
 31
0.0
  0
LINE
  5
CCB
330
A81
100
AcDbEntity
  8
0
 62
     0
100
AcDbLine
 10
-30.84456711301486
 20
-285.9333384260619
 30
0.0
 11
-30.69507831058443
 21
-285.7838496236314
 31
0.0
  0
LINE
  5
CCC
330
A81
100
AcDbEntity
  8
0
 62
     0
100
AcDbLine
 10
-30.7128159030721
 20
-285.9341697375916
 30
0.0
 11
-30.6509001318016
 21
-285.8722539663211
 31
0.0
  0
ENDBLK
  5
CCD
330
A81
100
AcDbEntity
  8
0
100
AcDbBlockEnd
  0
BLOCK
  5
F0D
330
F02
100
AcDbEntity
  8
0
100
AcDbBlockBegin
  2
*D21
 70
     1
 10
0.0
 20
0.0
 30
0.0
  3
*D21
  1

  0
LINE
  5
1003
330
F02
100
AcDbEntity
  8
0
 62
     0
370
    -2
100
AcDbLine
 10
565.5915995307554
 20
60.88930013217233
 30
0.0
 11
551.8593246736834
 21
60.88930013217234
 31
0.0
  0
LINE
  5
1004
330
F02
100
AcDbEntity
  8
0
 62
     0
370
    -2
100
AcDbLine
 10
565.5915995307554
 20
69.88930013217234
 30
0.0
 11
551.8593246736834
 21
69.88930013217234
 31
0.0
  0
LINE
  5
1005
330
F02
100
AcDbEntity
  8
0
 62
     0
370
    -2
100
AcDbLine
 10
554.2343246736834
 20
58.51430013217234
 30
0.0
 11
554.2343246736834
 21
56.13930013217235
 31
0.0
  0
LINE
  5
1006
330
F02
100
AcDbEntity
  8
0
 62
     0
370
    -2
100
AcDbLine
 10
554.2343246736834
 20
72.26430013217234
 30
0.0
 11
554.2343246736834
 21
74.63930013217233
 31
0.0
  0
SOLID
  5
1007
330
F02
100
AcDbEntity
  8
0
 62
     0
100
AcDbTrace
 10
553.8384913403501
 20
58.51430013217234
 30
0.0
 11
554.6301580070168
 21
58.51430013217234
 31
0.0
 12
554.2343246736834
 22
60.88930013217234
 32
0.0
 13
554.2343246736834
 23
60.88930013217234
 33
0.0
  0
SOLID
  5
1008
330
F02
100
AcDbEntity
  8
0
 62
     0
100
AcDbTrace
 10
553.8384913403501
 20
72.26430013217234
 30
0.0
 11
554.6301580070168
 21
72.26430013217234
 31
0.0
 12
554.2343246736834
 22
69.88930013217234
 32
0.0
 13
554.2343246736834
 23
69.88930013217234
 33
0.0
  0
MTEXT
  5
1009
330
F02
100
AcDbEntity
  8
0
 62
     0
100
AcDbMText
 10
554.2343246736834
 20
65.38930013217243
 30
0.0
 40
3.0552
 41
0.0
 71
     5
 72
     1
  1
\A1;AS REQ'D
  7
ROMANS
 73
     1
 44
1.0
1001
ACAD
1000
MTEXTBEGIN
1070
    73
1070
     1
1070
    44
1040
1.0
1070
    74
1070
     0
1000
MTEXTEND
  0
POINT
  5
100A
330
F02
100
AcDbEntity
  8
DEFPOINTS
 62
     0
100
AcDbPoint
 10
567.9665995307555
 20
60.88930013217233
 30
0.0
  0
POINT
  5
100B
330
F02
100
AcDbEntity
  8
DEFPOINTS
 62
     0
100
AcDbPoint
 10
567.9665995307555
 20
69.88930013217234
 30
0.0
  0
POINT
  5
100C
330
F02
100
AcDbEntity
  8
DEFPOINTS
 62
     0
100
AcDbPoint
 10
554.2343246736834
 20
69.88930013217234
 30
0.0
  0
ENDBLK
  5
F0E
330
F02
100
AcDbEntity
  8
0
100
AcDbBlockEnd
  0
ENDSEC
  0
SECTION
  2
ENTITIES
  0
LINE
  5
24C
330
46E
100
AcDbEntity
  8
0
 62
     7
100
AcDbLine
 10
695.6551357263533
 20
307.6123795561136
 30
0.0
 11
695.6551357263533
 21
310.1123795561136
 31
0.0
  0
LINE
  5
24D
330
46E
100
AcDbEntity
  8
0
 62
     7
100
AcDbLine
 10
696.7176357263533
 20
307.6123795561136
 30
0.0
 11
696.7176357263533
 21
307.7373795561136
 31
0.0
  0
LINE
  5
24E
330
46E
100
AcDbEntity
  8
0
 62
     7
100
AcDbLine
 10
695.4051357263534
 20
307.6123795561136
 30
0.0
 11
696.7176357263533
 21
307.6123795561136
 31
0.0
  0
LINE
  5
24F
330
46E
100
AcDbEntity
  8
0
 62
     7
100
AcDbLine
 10
696.7176357263533
 20
310.1123795561136
 30
0.0
 11
695.6551357263533
 21
310.1123795561136
 31
0.0
  0
LINE
  5
250
330
46E
100
AcDbEntity
  8
0
 62
     7
100
AcDbLine
 10
696.7176357263533
 20
309.9873795561136
 30
0.0
 11
695.7801357263534
 21
309.9873795561136
 31
0.0
  0
LINE
  5
251
330
46E
100
AcDbEntity
  8
0
 62
     7
100
AcDbLine
 10
695.7801357263534
 20
307.7373795561136
 30
0.0
 11
695.7801357263534
 21
309.9873795561136
 31
0.0
  0
LINE
  5
252
330
46E
100
AcDbEntity
  8
0
 62
     7
100
AcDbLine
 10
695.7801357263534
 20
307.7373795561136
 30
0.0
 11
696.7176357263533
 21
307.7373795561136
 31
0.0
  0
LINE
  5
253
330
46E
100
AcDbEntity
  8
0
 62
     7
100
AcDbLine
 10
696.7176357263533
 20
309.9873795561136
 30
0.0
 11
696.7176357263533
 21
310.1123795561136
 31
0.0
  0
LINE
  5
254
330
46E
100
AcDbEntity
  8
0
 62
     7
100
AcDbLine
 10
721.7801357263534
 20
307.6123795561136
 30
0.0
 11
721.7801357263534
 21
310.1123795561136
 31
0.0
  0
LINE
  5
255
330
46E
100
AcDbEntity
  8
0
 62
     7
100
AcDbLine
 10
721.6551357263533
 20
307.7373795561136
 30
0.0
 11
721.6551357263533
 21
309.9873795561136
 31
0.0
  0
LINE
  5
256
330
46E
100
AcDbEntity
  8
0
 62
     7
100
AcDbLine
 10
720.7176357263533
 20
307.6123795561136
 30
0.0
 11
720.7176357263533
 21
307.7373795561136
 31
0.0
  0
LINE
  5
257
330
46E
100
AcDbEntity
  8
0
 62
     7
100
AcDbLine
 10
721.7801357263534
 20
307.6123795561136
 30
0.0
 11
720.7176357263533
 21
307.6123795561136
 31
0.0
  0
LINE
  5
258
330
46E
100
AcDbEntity
  8
0
 62
     7
100
AcDbLine
 10
721.6551357263533
 20
307.7373795561136
 30
0.0
 11
720.7176357263533
 21
307.7373795561136
 31
0.0
  0
LINE
  5
259
330
46E
100
AcDbEntity
  8
0
 62
     7
100
AcDbLine
 10
720.7176357263533
 20
310.1123795561136
 30
0.0
 11
721.7801357263534
 21
310.1123795561136
 31
0.0
  0
LINE
  5
25A
330
46E
100
AcDbEntity
  8
0
 62
     7
100
AcDbLine
 10
720.7176357263533
 20
309.9873795561136
 30
0.0
 11
721.6551357263533
 21
309.9873795561136
 31
0.0
  0
LINE
  5
25B
330
46E
100
AcDbEntity
  8
0
 62
     7
100
AcDbLine
 10
720.7176357263533
 20
309.9873795561136
 30
0.0
 11
720.7176357263533
 21
310.1123795561136
 31
0.0
  0
LINE
  5
25C
330
46E
100
AcDbEntity
  8
0
 62
     7
100
AcDbLine
 10
720.7176357263533
 20
309.9873795561136
 30
0.0
 11
696.7176357263533
 21
309.9873795561136
 31
0.0
  0
LINE
  5
25D
330
46E
100
AcDbEntity
  8
0
 62
     7
100
AcDbLine
 10
696.7176357263533
 20
307.7373795561136
 30
0.0
 11
720.7176357263533
 21
307.7373795561136
 31
0.0
  0
LINE
  5
25E
330
46E
100
AcDbEntity
  8
0
 62
     7
100
AcDbLine
 10
695.4051357263534
 20
307.6123795561136
 30
0.0
 11
695.4051357263534
 21
316.1123795561136
 31
0.0
  0
LINE
  5
25F
330
46E
100
AcDbEntity
  8
0
 62
     7
100
AcDbLine
 10
695.4051357263534
 20
316.1123795561136
 30
0.0
 11
697.4051357263533
 21
316.1123795561136
 31
0.0
  0
LINE
  5
260
330
46E
100
AcDbEntity
  8
0
 62
     7
100
AcDbLine
 10
695.6551357263533
 20
310.1123795561136
 30
0.0
 11
695.6551357263533
 21
315.8623795561136
 31
0.0
  0
LINE
  5
261
330
46E
100
AcDbEntity
  8
0
 62
     7
100
AcDbLine
 10
697.4051357263533
 20
315.8623795561136
 30
0.0
 11
697.4051357263533
 21
316.1123795561136
 31
0.0
  0
LINE
  5
262
330
46E
100
AcDbEntity
  8
0
 62
     7
100
AcDbLine
 10
695.6551357263533
 20
315.8623795561136
 30
0.0
 11
697.4051357263533
 21
315.8623795561136
 31
0.0
  0
LINE
  5
263
330
46E
100
AcDbEntity
  8
0
 62
     7
100
AcDbLine
 10
722.0301357263533
 20
307.6123795561136
 30
0.0
 11
722.0301357263533
 21
316.1123795561136
 31
0.0
  0
LINE
  5
264
330
46E
100
AcDbEntity
  8
0
 62
     7
100
AcDbLine
 10
722.0301357263533
 20
316.1123795561136
 30
0.0
 11
720.0301357263533
 21
316.1123795561136
 31
0.0
  0
LINE
  5
265
330
46E
100
AcDbEntity
  8
0
 62
     7
100
AcDbLine
 10
721.7801357263534
 20
310.1123795561136
 30
0.0
 11
721.7801357263534
 21
315.8623795561136
 31
0.0
  0
LINE
  5
266
330
46E
100
AcDbEntity
  8
0
 62
     7
100
AcDbLine
 10
721.7801357263534
 20
315.8623795561136
 30
0.0
 11
720.0301357263533
 21
315.8623795561136
 31
0.0
  0
LINE
  5
267
330
46E
100
AcDbEntity
  8
0
 62
     7
100
AcDbLine
 10
720.0301357263533
 20
315.8623795561136
 30
0.0
 11
720.0301357263533
 21
316.1123795561136
 31
0.0
  0
LINE
  5
268
330
46E
100
AcDbEntity
  8
0
 62
     7
100
AcDbLine
 10
695.7801357263534
 20
308.8623795561136
 30
0.0
 11
721.6551357263533
 21
308.8623795561136
 31
0.0
  0
LINE
  5
269
330
46E
100
AcDbEntity
  8
0
 62
     7
100
AcDbLine
 10
721.7801357263534
 20
307.6123795561136
 30
0.0
 11
721.7801357263534
 21
303.6931083864115
 31
0.0
  0
LINE
  5
26A
330
46E
100
AcDbEntity
  8
0
 62
     7
100
AcDbLine
 10
722.0301357263533
 20
307.6123795561136
 30
0.0
 11
722.0301357263533
 21
303.77800023318
 31
0.0
  0
LINE
  5
26B
330
46E
100
AcDbEntity
  8
0
 62
     7
100
AcDbLine
 10
695.7801357263534
 20
309.2623795561136
 30
0.0
 11
721.6551357263533
 21
309.2623795561136
 31
0.0
  0
LINE
  5
26C
330
46E
100
AcDbEntity
  8
0
 62
     7
100
AcDbLine
 10
695.7801357263534
 20
309.6623795561136
 30
0.0
 11
721.6551357263533
 21
309.6623795561136
 31
0.0
  0
LINE
  5
26D
330
46E
100
AcDbEntity
  8
0
 62
     7
100
AcDbLine
 10
695.7801357263534
 20
308.4623795561136
 30
0.0
 11
721.6551357263533
 21
308.4623795561136
 31
0.0
  0
LINE
  5
26E
330
46E
100
AcDbEntity
  8
0
 62
     7
100
AcDbLine
 10
695.7801357263534
 20
308.0623795561136
 30
0.0
 11
721.6551357263533
 21
308.0623795561136
 31
0.0
  0
ARC
  5
26F
330
46E
100
AcDbEntity
  8
0
 62
     7
100
AcDbCircle
 10
708.7176357263533
 20
296.187042526471
 30
0.0
 40
15.32466297035742
100
AcDbArc
 50
233.2709961186705
 51
29.69234132176289
  0
ARC
  5
270
330
46E
100
AcDbEntity
  8
0
 62
     7
100
AcDbCircle
 10
708.7176357263533
 20
296.1809414672853
 30
0.0
 40
15.0685619111717
100
AcDbArc
 50
233.1948645531292
 51
29.9029543379453
  0
LINE
  5
271
330
46E
100
AcDbEntity
  8
0
 62
     7
100
AcDbLine
 10
709.7176357263533
 20
281.3955978373307
 30
0.0
 11
709.7176357263533
 21
281.1455978373307
 31
0.0
  0
LINE
  5
272
330
46E
100
AcDbEntity
  8
0
 62
     7
100
AcDbLine
 10
707.7176357263534
 20
281.3955978373307
 30
0.0
 11
707.7176357263534
 21
281.1455978373307
 31
0.0
  0
LINE
  5
273
330
46E
100
AcDbEntity
  8
0
 62
     7
100
AcDbLine
 10
707.7176357263534
 20
281.3955978373307
 30
0.0
 11
709.7176357263533
 21
281.3955978373307
 31
0.0
  0
LINE
  5
274
330
46E
100
AcDbEntity
  8
0
 62
     7
100
AcDbLine
 10
715.9316404453919
 20
283.236269892868
 30
0.0
 11
716.0678002041456
 21
283.0266022508816
 31
0.0
  0
LINE
  5
275
330
46E
100
AcDbEntity
  8
0
 62
     7
100
AcDbLine
 10
717.6089815812828
 20
284.3255479628981
 30
0.0
 11
717.7451413400365
 21
284.1158803209117
 31
0.0
  0
LINE
  5
276
330
46E
100
AcDbEntity
  8
0
 62
     7
100
AcDbLine
 10
715.9316404453919
 20
283.236269892868
 30
0.0
 11
717.6089815812828
 21
284.3255479628981
 31
0.0
  0
LINE
  5
277
330
46E
100
AcDbEntity
  8
0
 62
     7
100
AcDbLine
 10
721.8179825961075
 20
289.2536549748728
 30
0.0
 11
722.0463689605182
 21
289.1519708141038
 31
0.0
  0
LINE
  5
278
330
46E
100
AcDbEntity
  8
0
 62
     7
100
AcDbLine
 10
722.6314558822592
 20
291.0807458901579
 30
0.0
 11
722.8598422466697
 21
290.9790617293891
 31
0.0
  0
LINE
  5
279
330
46E
100
AcDbEntity
  8
0
 62
     7
100
AcDbLine
 10
721.8179825961075
 20
289.2536549748728
 30
0.0
 11
722.6314558822592
 21
291.0807458901579
 31
0.0
  0
LINE
  5
27A
330
46E
100
AcDbEntity
  8
0
 62
     7
100
AcDbLine
 10
723.4773817063922
 20
297.506190447878
 30
0.0
 11
723.724303791541
 21
297.5452990641381
 31
0.0
  0
LINE
  5
27B
330
46E
100
AcDbEntity
  8
0
 62
     7
100
AcDbLine
 10
723.1645127763117
 20
299.4815671290683
 30
0.0
 11
723.4114348614606
 21
299.5206757453284
 31
0.0
  0
LINE
  5
27C
330
46E
100
AcDbEntity
  8
0
 62
     7
100
AcDbLine
 10
723.4773817063922
 20
297.506190447878
 30
0.0
 11
723.1645127763117
 21
299.4815671290683
 31
0.0
  0
LINE
  5
27D
330
46E
100
AcDbEntity
  8
0
 62
     7
100
AcDbLine
 10
701.5036310073147
 20
283.236269892868
 30
0.0
 11
699.8262898714239
 21
284.3255479628981
 31
0.0
  0
LINE
  5
27E
330
46E
100
AcDbEntity
  8
0
 62
     7
100
AcDbLine
 10
701.5036310073147
 20
283.236269892868
 30
0.0
 11
701.367471248561
 21
283.0266022508816
 31
0.0
  0
LINE
  5
27F
330
46E
100
AcDbEntity
  8
0
 62
     7
100
AcDbLine
 10
699.8262898714239
 20
284.3255479628981
 30
0.0
 11
699.5530131277419
 21
283.9047386798768
 31
0.0
  0
LINE
  5
280
330
46E
100
AcDbEntity
  8
0
 62
     7
100
AcDbLine
 10
776.2367939317214
 20
293.8893001321724
 30
0.0
 11
776.2367939317214
 21
293.8893001321724
 31
0.0
  0
LINE
  5
281
330
46E
100
AcDbEntity
  8
0
 62
     7
100
AcDbLine
 10
775.1742939317214
 20
293.8893001321724
 30
0.0
 11
775.1742939317214
 21
293.8893001321724
 31
0.0
  0
LINE
  5
282
330
46E
100
AcDbEntity
  8
0
 62
     7
100
AcDbLine
 10
751.1742939317214
 20
293.8893001321724
 30
0.0
 11
751.1742939317214
 21
243.8893001321724
 31
0.0
  0
LINE
  5
283
330
46E
100
AcDbEntity
  8
0
 62
     7
100
AcDbLine
 10
750.1117939317214
 20
293.8893001321724
 30
0.0
 11
750.1117939317214
 21
243.8893001321724
 31
0.0
  0
LINE
  5
284
330
46E
100
AcDbEntity
  8
0
 62
     7
100
AcDbLine
 10
750.1117939317214
 20
60.8893001321724
 30
0.0
 11
751.1742939317214
 21
60.8893001321724
 31
0.0
  0
LINE
  5
285
330
46E
100
AcDbEntity
  8
0
 62
     7
100
AcDbLine
 10
775.1742939317214
 20
60.88930013217245
 30
0.0
 11
776.2367939317214
 21
60.8893001321725
 31
0.0
  0
LINE
  5
286
330
46E
100
AcDbEntity
  8
0
 62
     7
100
AcDbLine
 10
779.9242939317214
 20
150.8893001321724
 30
0.0
 11
746.4242939317214
 21
150.8893001321724
 31
0.0
  0
LINE
  5
287
330
46E
100
AcDbEntity
  8
0
 62
     7
100
AcDbLine
 10
779.9242939317214
 20
152.8893001321724
 30
0.0
 11
779.9242939317214
 21
150.8893001321724
 31
0.0
  0
LINE
  5
288
330
46E
100
AcDbEntity
  8
0
 62
     7
100
AcDbLine
 10
746.4242939317214
 20
152.8893001321724
 30
0.0
 11
746.4242939317214
 21
150.8893001321724
 31
0.0
  0
LINE
  5
289
330
46E
100
AcDbEntity
  8
0
 62
     7
100
AcDbLine
 10
779.9242939317214
 20
152.8893001321724
 30
0.0
 11
746.4242939317214
 21
152.8893001321724
 31
0.0
  0
LINE
  5
28A
330
46E
100
AcDbEntity
  8
0
 62
     7
100
AcDbLine
 10
750.1117939317214
 20
293.8893001321724
 30
0.0
 11
751.1742939317214
 21
293.8893001321724
 31
0.0
  0
LINE
  5
28B
330
46E
100
AcDbEntity
  8
0
 62
     7
100
AcDbLine
 10
754.00967133311
 20
293.1393001321724
 30
0.0
 11
751.1742939317214
 21
293.1393001321724
 31
0.0
  0
LINE
  5
28C
330
46E
100
AcDbEntity
  8
0
 62
     7
100
AcDbLine
 10
778.4989569020788
 20
198.8893001321723
 30
0.0
 11
747.849630961364
 21
198.8893001321723
 31
0.0
  0
LINE
  5
28D
330
46E
100
AcDbEntity
  8
0
 62
     7
100
AcDbLine
 10
778.4989569020788
 20
200.8893001321724
 30
0.0
 11
747.849630961364
 21
200.8893001321724
 31
0.0
  0
LINE
  5
28E
330
46E
100
AcDbEntity
  8
0
 62
     7
100
AcDbLine
 10
778.4989569020788
 20
200.8893001321724
 30
0.0
 11
778.4989569020788
 21
198.8893001321723
 31
0.0
  0
LINE
  5
28F
330
46E
100
AcDbEntity
  8
0
 62
     7
100
AcDbLine
 10
747.849630961364
 20
200.8893001321724
 30
0.0
 11
747.849630961364
 21
198.8893001321723
 31
0.0
  0
LINE
  5
290
330
46E
100
AcDbEntity
  8
0
 62
     7
100
AcDbLine
 10
778.2489569020788
 20
241.8893001321724
 30
0.0
 11
778.2489569020788
 21
200.8893001321724
 31
0.0
  0
LINE
  5
291
330
46E
100
AcDbEntity
  8
0
 62
     7
100
AcDbLine
 10
777.9989569020788
 20
241.8893001321724
 30
0.0
 11
777.9989569020788
 21
200.8893001321724
 31
0.0
  0
LINE
  5
292
330
46E
100
AcDbEntity
  8
0
 62
     7
100
AcDbLine
 10
778.2489569020788
 20
198.8893001321723
 30
0.0
 11
779.6742939317214
 21
152.8893001321724
 31
0.0
  0
LINE
  5
293
330
46E
100
AcDbEntity
  8
0
 62
     7
100
AcDbLine
 10
779.4242939317214
 20
152.8893001321724
 30
0.0
 11
777.9989569020788
 21
198.8893001321723
 31
0.0
  0
LINE
  5
294
330
46E
100
AcDbEntity
  8
0
 62
     7
100
AcDbLine
 10
747.849630961364
 20
243.8893001321724
 30
0.0
 11
778.4989569020788
 21
243.8893001321724
 31
0.0
  0
LINE
  5
295
330
46E
100
AcDbEntity
  8
0
 62
     7
100
AcDbLine
 10
747.849630961364
 20
241.8893001321724
 30
0.0
 11
778.4989569020788
 21
241.8893001321724
 31
0.0
  0
LINE
  5
296
330
46E
100
AcDbEntity
  8
0
 62
     7
100
AcDbLine
 10
747.849630961364
 20
241.8893001321724
 30
0.0
 11
747.849630961364
 21
243.8893001321724
 31
0.0
  0
LINE
  5
297
330
46E
100
AcDbEntity
  8
0
 62
     7
100
AcDbLine
 10
778.4989569020788
 20
241.8893001321724
 30
0.0
 11
778.4989569020788
 21
243.8893001321724
 31
0.0
  0
LINE
  5
298
330
46E
100
AcDbEntity
  8
0
 62
     7
100
AcDbLine
 10
775.1742939317214
 20
281.1393001321724
 30
0.0
 11
772.3389165303329
 21
281.1393001321724
 31
0.0
  0
LINE
  5
299
330
46E
100
AcDbEntity
  8
0
 62
     7
100
AcDbLine
 10
775.1742939317214
 20
281.8893001321724
 30
0.0
 11
772.3389165303329
 21
281.8893001321724
 31
0.0
  0
LINE
  5
29A
330
46E
100
AcDbEntity
  8
0
 62
     7
100
AcDbLine
 10
775.1742939317214
 20
269.1393001321724
 30
0.0
 11
772.3389165303329
 21
269.1393001321724
 31
0.0
  0
LINE
  5
29B
330
46E
100
AcDbEntity
  8
0
 62
     7
100
AcDbLine
 10
775.1742939317214
 20
269.8893001321724
 30
0.0
 11
772.3389165303329
 21
269.8893001321724
 31
0.0
  0
LINE
  5
29C
330
46E
100
AcDbEntity
  8
0
 62
     7
100
AcDbLine
 10
775.1742939317214
 20
257.1393001321724
 30
0.0
 11
772.3389165303329
 21
257.1393001321724
 31
0.0
  0
LINE
  5
29D
330
46E
100
AcDbEntity
  8
0
 62
     7
100
AcDbLine
 10
775.1742939317214
 20
257.8893001321723
 30
0.0
 11
772.3389165303329
 21
257.8893001321723
 31
0.0
  0
LINE
  5
29E
330
46E
100
AcDbEntity
  8
0
 62
     7
100
AcDbLine
 10
775.1742939317214
 20
245.8893001321724
 30
0.0
 11
772.3389165303329
 21
245.8893001321724
 31
0.0
  0
LINE
  5
29F
330
46E
100
AcDbEntity
  8
0
 62
     7
100
AcDbLine
 10
775.1742939317214
 20
245.1393001321724
 30
0.0
 11
772.3389165303329
 21
245.1393001321724
 31
0.0
  0
LINE
  5
2A0
330
46E
100
AcDbEntity
  8
0
 62
     7
100
AcDbLine
 10
778.4989569020788
 20
291.8893001321724
 30
0.0
 11
778.4989569020788
 21
293.8893001321724
 31
0.0
  0
LINE
  5
2A1
330
46E
100
AcDbEntity
  8
0
 62
     7
100
AcDbLine
 10
754.00967133311
 20
291.8893001321724
 30
0.0
 11
778.4989569020788
 21
291.8893001321724
 31
0.0
  0
LINE
  5
2A2
330
46E
100
AcDbEntity
  8
0
 62
     7
100
AcDbLine
 10
754.00967133311
 20
293.8893001321724
 30
0.0
 11
778.4989569020788
 21
293.8893001321724
 31
0.0
  0
LINE
  5
2A3
330
46E
100
AcDbEntity
  8
0
 62
     7
100
AcDbLine
 10
764.1742939317214
 20
198.8893001321723
 30
0.0
 11
764.1742939317214
 21
152.8893001321724
 31
0.0
  0
LINE
  5
2A4
330
46E
100
AcDbEntity
  8
0
 62
     7
100
AcDbLine
 10
762.1742939317214
 20
198.8893001321723
 30
0.0
 11
762.1742939317214
 21
152.8893001321724
 31
0.0
  0
LINE
  5
2A5
330
46E
100
AcDbEntity
  8
0
 62
     7
100
AcDbLine
 10
762.1742939317214
 20
291.8893001321724
 30
0.0
 11
762.1742939317214
 21
243.8893001321724
 31
0.0
  0
LINE
  5
2A6
330
46E
100
AcDbEntity
  8
0
 62
     7
100
AcDbLine
 10
764.1742939317214
 20
291.8893001321724
 30
0.0
 11
764.1742939317214
 21
243.8893001321724
 31
0.0
  0
LINE
  5
2A7
330
46E
100
AcDbEntity
  8
0
 62
     7
100
AcDbLine
 10
764.1742939317214
 20
241.8893001321724
 30
0.0
 11
764.1742939317214
 21
200.8893001321724
 31
0.0
  0
LINE
  5
2A8
330
46E
100
AcDbEntity
  8
0
 62
     7
100
AcDbLine
 10
762.1742939317214
 20
241.8893001321724
 30
0.0
 11
762.1742939317214
 21
200.8893001321724
 31
0.0
  0
LINE
  5
2A9
330
46E
100
AcDbEntity
  8
0
 62
     7
100
AcDbLine
 10
752.2713177998575
 20
152.8893001321724
 30
0.0
 11
754.00967133311
 21
198.8893001321723
 31
0.0
  0
LINE
  5
2AA
330
46E
100
AcDbEntity
  8
0
 62
     7
100
AcDbLine
 10
755.6872491636579
 20
198.8893001321723
 30
0.0
 11
753.8557984575714
 21
152.8893001321724
 31
0.0
  0
LINE
  5
2AB
330
46E
100
AcDbEntity
  8
0
 62
     7
100
AcDbLine
 10
755.6872491636579
 20
200.8893001321724
 30
0.0
 11
755.6872491636579
 21
241.8893001321724
 31
0.0
  0
LINE
  5
2AC
330
46E
100
AcDbEntity
  8
0
 62
     7
100
AcDbLine
 10
754.00967133311
 20
200.8893001321724
 30
0.0
 11
754.00967133311
 21
241.8893001321724
 31
0.0
  0
LINE
  5
2AD
330
46E
100
AcDbEntity
  8
0
 62
     7
100
AcDbLine
 10
778.2489569020788
 20
291.8893001321724
 30
0.0
 11
778.2489569020788
 21
243.8893001321724
 31
0.0
  0
LINE
  5
2AE
330
46E
100
AcDbEntity
  8
0
 62
     7
100
AcDbLine
 10
777.9989569020788
 20
291.8893001321724
 30
0.0
 11
777.9989569020788
 21
243.8893001321724
 31
0.0
  0
LINE
  5
2AF
330
46E
100
AcDbEntity
  8
0
 62
     7
100
AcDbLine
 10
770.6613386997848
 20
198.8893001321723
 30
0.0
 11
772.4927894058715
 21
152.8893001321724
 31
0.0
  0
LINE
  5
2B0
330
46E
100
AcDbEntity
  8
0
 62
     7
100
AcDbLine
 10
774.0772700635853
 20
152.8893001321724
 30
0.0
 11
772.3389165303329
 21
198.8893001321723
 31
0.0
  0
LINE
  5
2B1
330
46E
100
AcDbEntity
  8
0
 62
     7
100
AcDbLine
 10
772.3389165303329
 20
200.8893001321724
 30
0.0
 11
772.3389165303329
 21
241.8893001321724
 31
0.0
  0
LINE
  5
2B2
330
46E
100
AcDbEntity
  8
0
 62
     7
100
AcDbLine
 10
770.6613386997848
 20
200.8893001321724
 30
0.0
 11
770.6613386997848
 21
241.8893001321724
 31
0.0
  0
LINE
  5
2B3
330
46E
100
AcDbEntity
  8
0
 62
     7
100
AcDbLine
 10
748.099630961364
 20
241.8893001321724
 30
0.0
 11
748.099630961364
 21
200.8893001321724
 31
0.0
  0
LINE
  5
2B4
330
46E
100
AcDbEntity
  8
0
 62
     7
100
AcDbLine
 10
748.349630961364
 20
241.8893001321724
 30
0.0
 11
748.349630961364
 21
200.8893001321724
 31
0.0
  0
LINE
  5
2B5
330
46E
100
AcDbEntity
  8
0
 62
     7
100
AcDbLine
 10
746.9242939317214
 20
152.8893001321724
 30
0.0
 11
748.349630961364
 21
198.8893001321723
 31
0.0
  0
LINE
  5
2B6
330
46E
100
AcDbEntity
  8
0
 62
     7
100
AcDbLine
 10
748.099630961364
 20
198.8893001321723
 30
0.0
 11
746.6742939317214
 21
152.8893001321724
 31
0.0
  0
LINE
  5
2B7
330
46E
100
AcDbEntity
  8
0
 62
     7
100
AcDbLine
 10
770.6613386997848
 20
243.8893001321724
 30
0.0
 11
770.6613386997848
 21
291.8893001321724
 31
0.0
  0
LINE
  5
2B8
330
46E
100
AcDbEntity
  8
0
 62
     7
100
AcDbLine
 10
772.3389165303329
 20
243.8893001321724
 30
0.0
 11
772.3389165303329
 21
291.8893001321724
 31
0.0
  0
LINE
  5
2B9
330
46E
100
AcDbEntity
  8
0
 62
     7
100
AcDbLine
 10
754.00967133311
 20
243.8893001321724
 30
0.0
 11
754.00967133311
 21
293.8893001321724
 31
0.0
  0
LINE
  5
2BA
330
46E
100
AcDbEntity
  8
0
 62
     7
100
AcDbLine
 10
755.6872491636579
 20
243.8893001321724
 30
0.0
 11
755.6872491636579
 21
291.8893001321724
 31
0.0
  0
LINE
  5
2BB
330
46E
100
AcDbEntity
  8
0
 62
     7
100
AcDbLine
 10
776.2367939317214
 20
241.8893001321724
 30
0.0
 11
776.2367939317214
 21
200.8893001321724
 31
0.0
  0
LINE
  5
2BC
330
46E
100
AcDbEntity
  8
0
 62
     7
100
AcDbLine
 10
775.1742939317214
 20
241.8893001321724
 30
0.0
 11
775.1742939317214
 21
200.8893001321724
 31
0.0
  0
LINE
  5
2BD
330
46E
100
AcDbEntity
  8
0
 62
     7
100
AcDbLine
 10
751.1742939317214
 20
241.8893001321724
 30
0.0
 11
751.1742939317214
 21
200.8893001321724
 31
0.0
  0
LINE
  5
2BE
330
46E
100
AcDbEntity
  8
0
 62
     7
100
AcDbLine
 10
750.1117939317214
 20
241.8893001321724
 30
0.0
 11
750.1117939317214
 21
200.8893001321724
 31
0.0
  0
LINE
  5
2BF
330
46E
100
AcDbEntity
  8
0
 62
     7
100
AcDbLine
 10
754.00967133311
 20
245.1393001321724
 30
0.0
 11
751.1742939317214
 21
245.1393001321724
 31
0.0
  0
LINE
  5
2C0
330
46E
100
AcDbEntity
  8
0
 62
     7
100
AcDbLine
 10
754.00967133311
 20
245.8893001321724
 30
0.0
 11
751.1742939317214
 21
245.8893001321724
 31
0.0
  0
LINE
  5
2C1
330
46E
100
AcDbEntity
  8
0
 62
     7
100
AcDbLine
 10
754.00967133311
 20
257.8893001321723
 30
0.0
 11
751.1742939317214
 21
257.8893001321723
 31
0.0
  0
LINE
  5
2C2
330
46E
100
AcDbEntity
  8
0
 62
     7
100
AcDbLine
 10
754.00967133311
 20
257.1393001321724
 30
0.0
 11
751.1742939317214
 21
257.1393001321724
 31
0.0
  0
LINE
  5
2C3
330
46E
100
AcDbEntity
  8
0
 62
     7
100
AcDbLine
 10
754.00967133311
 20
269.1393001321724
 30
0.0
 11
751.1742939317214
 21
269.1393001321724
 31
0.0
  0
LINE
  5
2C4
330
46E
100
AcDbEntity
  8
0
 62
     7
100
AcDbLine
 10
754.00967133311
 20
269.8893001321724
 30
0.0
 11
751.1742939317214
 21
269.8893001321724
 31
0.0
  0
LINE
  5
2C5
330
46E
100
AcDbEntity
  8
0
 62
     7
100
AcDbLine
 10
754.00967133311
 20
281.1393001321724
 30
0.0
 11
751.1742939317214
 21
281.1393001321724
 31
0.0
  0
LINE
  5
2C6
330
46E
100
AcDbEntity
  8
0
 62
     7
100
AcDbLine
 10
754.00967133311
 20
281.8893001321724
 30
0.0
 11
751.1742939317214
 21
281.8893001321724
 31
0.0
  0
LINE
  5
2C7
330
46E
100
AcDbEntity
  8
0
 62
     7
100
AcDbLine
 10
762.1742939317214
 20
281.8893001321724
 30
0.0
 11
755.6872491636579
 21
281.8893001321724
 31
0.0
  0
LINE
  5
2C8
330
46E
100
AcDbEntity
  8
0
 62
     7
100
AcDbLine
 10
762.1742939317214
 20
281.1393001321724
 30
0.0
 11
755.6872491636579
 21
281.1393001321724
 31
0.0
  0
LINE
  5
2C9
330
46E
100
AcDbEntity
  8
0
 62
     7
100
AcDbLine
 10
762.1742939317214
 20
269.8893001321724
 30
0.0
 11
755.6872491636579
 21
269.8893001321724
 31
0.0
  0
LINE
  5
2CA
330
46E
100
AcDbEntity
  8
0
 62
     7
100
AcDbLine
 10
762.1742939317214
 20
269.1393001321724
 30
0.0
 11
755.6872491636579
 21
269.1393001321724
 31
0.0
  0
LINE
  5
2CB
330
46E
100
AcDbEntity
  8
0
 62
     7
100
AcDbLine
 10
762.1742939317214
 20
257.8893001321723
 30
0.0
 11
755.6872491636579
 21
257.8893001321723
 31
0.0
  0
LINE
  5
2CC
330
46E
100
AcDbEntity
  8
0
 62
     7
100
AcDbLine
 10
762.1742939317214
 20
257.1393001321724
 30
0.0
 11
755.6872491636579
 21
257.1393001321724
 31
0.0
  0
LINE
  5
2CD
330
46E
100
AcDbEntity
  8
0
 62
     7
100
AcDbLine
 10
762.1742939317214
 20
245.8893001321724
 30
0.0
 11
755.6872491636579
 21
245.8893001321724
 31
0.0
  0
LINE
  5
2CE
330
46E
100
AcDbEntity
  8
0
 62
     7
100
AcDbLine
 10
762.1742939317214
 20
245.1393001321724
 30
0.0
 11
755.6872491636579
 21
245.1393001321724
 31
0.0
  0
LINE
  5
2CF
330
46E
100
AcDbEntity
  8
0
 62
     7
100
AcDbLine
 10
770.6613386997848
 20
245.1393001321724
 30
0.0
 11
764.1742939317214
 21
245.1393001321724
 31
0.0
  0
LINE
  5
2D0
330
46E
100
AcDbEntity
  8
0
 62
     7
100
AcDbLine
 10
770.6613386997848
 20
245.8893001321724
 30
0.0
 11
764.1742939317214
 21
245.8893001321724
 31
0.0
  0
LINE
  5
2D1
330
46E
100
AcDbEntity
  8
0
 62
     7
100
AcDbLine
 10
770.6613386997848
 20
257.8893001321723
 30
0.0
 11
764.1742939317214
 21
257.8893001321723
 31
0.0
  0
LINE
  5
2D2
330
46E
100
AcDbEntity
  8
0
 62
     7
100
AcDbLine
 10
770.6613386997848
 20
257.1393001321724
 30
0.0
 11
764.1742939317214
 21
257.1393001321724
 31
0.0
  0
LINE
  5
2D3
330
46E
100
AcDbEntity
  8
0
 62
     7
100
AcDbLine
 10
770.6613386997848
 20
269.8893001321724
 30
0.0
 11
764.1742939317214
 21
269.8893001321724
 31
0.0
  0
LINE
  5
2D4
330
46E
100
AcDbEntity
  8
0
 62
     7
100
AcDbLine
 10
770.6613386997848
 20
269.1393001321724
 30
0.0
 11
764.1742939317214
 21
269.1393001321724
 31
0.0
  0
LINE
  5
2D5
330
46E
100
AcDbEntity
  8
0
 62
     7
100
AcDbLine
 10
770.6613386997848
 20
281.1393001321724
 30
0.0
 11
764.1742939317214
 21
281.1393001321724
 31
0.0
  0
LINE
  5
2D6
330
46E
100
AcDbEntity
  8
0
 62
     7
100
AcDbLine
 10
770.6613386997848
 20
281.8893001321724
 30
0.0
 11
764.1742939317214
 21
281.8893001321724
 31
0.0
  0
LINE
  5
2D7
330
46E
100
AcDbEntity
  8
0
 62
     7
100
AcDbLine
 10
770.6613386997848
 20
233.1393001321724
 30
0.0
 11
764.1742939317214
 21
233.1393001321724
 31
0.0
  0
LINE
  5
2D8
330
46E
100
AcDbEntity
  8
0
 62
     7
100
AcDbLine
 10
775.1742939317214
 20
233.1393001321724
 30
0.0
 11
772.3389165303329
 21
233.1393001321724
 31
0.0
  0
LINE
  5
2D9
330
46E
100
AcDbEntity
  8
0
 62
     7
100
AcDbLine
 10
770.6613386997848
 20
233.8893001321724
 30
0.0
 11
764.1742939317214
 21
233.8893001321724
 31
0.0
  0
LINE
  5
2DA
330
46E
100
AcDbEntity
  8
0
 62
     7
100
AcDbLine
 10
775.1742939317214
 20
233.8893001321724
 30
0.0
 11
772.3389165303329
 21
233.8893001321724
 31
0.0
  0
LINE
  5
2DB
330
46E
100
AcDbEntity
  8
0
 62
     7
100
AcDbLine
 10
762.1742939317214
 20
233.1393001321724
 30
0.0
 11
755.6872491636579
 21
233.1393001321724
 31
0.0
  0
LINE
  5
2DC
330
46E
100
AcDbEntity
  8
0
 62
     7
100
AcDbLine
 10
762.1742939317214
 20
233.8893001321724
 30
0.0
 11
755.6872491636579
 21
233.8893001321724
 31
0.0
  0
LINE
  5
2DD
330
46E
100
AcDbEntity
  8
0
 62
     7
100
AcDbLine
 10
754.00967133311
 20
233.1393001321724
 30
0.0
 11
751.1742939317214
 21
233.1393001321724
 31
0.0
  0
LINE
  5
2DE
330
46E
100
AcDbEntity
  8
0
 62
     7
100
AcDbLine
 10
754.00967133311
 20
233.8893001321724
 30
0.0
 11
751.1742939317214
 21
233.8893001321724
 31
0.0
  0
LINE
  5
2DF
330
46E
100
AcDbEntity
  8
0
 62
     7
100
AcDbLine
 10
776.2367939317214
 20
198.8893001321723
 30
0.0
 11
776.2367939317214
 21
152.8893001321724
 31
0.0
  0
LINE
  5
2E0
330
46E
100
AcDbEntity
  8
0
 62
     7
100
AcDbLine
 10
775.1742939317214
 20
198.8893001321723
 30
0.0
 11
775.1742939317214
 21
152.8893001321724
 31
0.0
  0
LINE
  5
2E1
330
46E
100
AcDbEntity
  8
0
 62
     7
100
AcDbLine
 10
750.1117939317214
 20
198.8893001321723
 30
0.0
 11
750.1117939317214
 21
152.8893001321724
 31
0.0
  0
LINE
  5
2E2
330
46E
100
AcDbEntity
  8
0
 62
     7
100
AcDbLine
 10
751.1742939317214
 20
198.8893001321723
 30
0.0
 11
751.1742939317214
 21
152.8893001321724
 31
0.0
  0
LINE
  5
2E3
330
46E
100
AcDbEntity
  8
0
 62
     7
100
AcDbLine
 10
751.1742939317214
 20
150.8893001321724
 30
0.0
 11
751.1742939317214
 21
60.88930013217245
 31
0.0
  0
LINE
  5
2E4
330
46E
100
AcDbEntity
  8
0
 62
     7
100
AcDbLine
 10
750.1117939317214
 20
150.8893001321724
 30
0.0
 11
750.1117939317214
 21
60.8893001321724
 31
0.0
  0
LINE
  5
2E5
330
46E
100
AcDbEntity
  8
0
 62
     7
100
AcDbLine
 10
775.1742939317214
 20
150.8893001321724
 30
0.0
 11
775.1742939317214
 21
60.88930013217245
 31
0.0
  0
LINE
  5
2E6
330
46E
100
AcDbEntity
  8
0
 62
     7
100
AcDbLine
 10
776.2367939317214
 20
150.8893001321724
 30
0.0
 11
776.2367939317214
 21
60.88930013217245
 31
0.0
  0
LINE
  5
2E7
330
46E
100
AcDbEntity
  8
0
 62
     7
100
AcDbLine
 10
775.1742939317214
 20
291.8893001321724
 30
0.0
 11
775.1742939317214
 21
243.8893001321724
 31
0.0
  0
LINE
  5
2E8
330
46E
100
AcDbEntity
  8
0
 62
     7
100
AcDbLine
 10
776.2367939317214
 20
291.8893001321724
 30
0.0
 11
776.2367939317214
 21
243.8893001321724
 31
0.0
  0
LINE
  5
2E9
330
46E
100
AcDbEntity
  8
0
100
AcDbLine
 10
567.9665995307555
 20
305.4380166137093
 30
0.0
 11
567.9665995307555
 21
60.88930013217233
 31
0.0
  0
LINE
  5
2EA
330
46E
100
AcDbEntity
  8
0
 62
     7
100
AcDbLine
 10
573.9665995307555
 20
293.8893001321724
 30
0.0
 11
573.9665995307555
 21
287.8893001321724
 31
0.0
  0
LINE
  5
2EB
330
46E
100
AcDbEntity
  8
0
100
AcDbLine
 10
591.9665995307554
 20
60.88930013217233
 30
0.0
 11
567.9665995307555
 21
60.88930013217233
 31
0.0
  0
LINE
  5
2EC
330
46E
100
AcDbEntity
  8
0
 62
     7
100
AcDbLine
 10
607.2165995307556
 20
152.8893001321723
 30
0.0
 11
607.2165995307556
 21
150.8893001321723
 31
0.0
  0
LINE
  5
2ED
330
46E
100
AcDbEntity
  8
0
 62
     7
100
AcDbLine
 10
607.2165995307556
 20
150.8893001321723
 30
0.0
 11
573.9665995307555
 21
150.8893001321724
 31
0.0
  0
LINE
  5
2EE
330
46E
100
AcDbEntity
  8
0
 62
     7
100
AcDbLine
 10
607.2165995307556
 20
152.8893001321724
 30
0.0
 11
573.9665995307555
 21
152.8893001321724
 31
0.0
  0
LINE
  5
2EF
330
46E
100
AcDbEntity
  8
0
 62
     7
100
AcDbLine
 10
603.2165995307555
 20
200.8893001321724
 30
0.0
 11
573.9665995307555
 21
200.8893001321724
 31
0.0
  0
LINE
  5
2F0
330
46E
100
AcDbEntity
  8
0
 62
     7
100
AcDbLine
 10
603.2165995307555
 20
198.8893001321723
 30
0.0
 11
573.9665995307555
 21
198.8893001321723
 31
0.0
  0
LINE
  5
2F1
330
46E
100
AcDbEntity
  8
0
 62
     7
100
AcDbLine
 10
603.2165995307555
 20
200.8893001321724
 30
0.0
 11
603.2165995307555
 21
198.8893001321723
 31
0.0
  0
LINE
  5
2F2
330
46E
100
AcDbEntity
  8
0
 62
     7
100
AcDbLine
 10
602.9665995307555
 20
241.8893001321724
 30
0.0
 11
602.9665995307555
 21
200.8893001321723
 31
0.0
  0
LINE
  5
2F3
330
46E
100
AcDbEntity
  8
0
 62
     7
100
AcDbLine
 10
602.7165995307555
 20
241.8893001321724
 30
0.0
 11
602.7165995307555
 21
200.8893001321723
 31
0.0
  0
LINE
  5
2F4
330
46E
100
AcDbEntity
  8
0
 62
     7
100
AcDbLine
 10
606.9665995307556
 20
152.8893001321723
 30
0.0
 11
602.9665995307555
 21
198.8893001321723
 31
0.0
  0
LINE
  5
2F5
330
46E
100
AcDbEntity
  8
0
 62
     7
100
AcDbLine
 10
602.7165995307555
 20
198.8893001321723
 30
0.0
 11
606.7165995307556
 21
152.8893001321723
 31
0.0
  0
LINE
  5
2F6
330
46E
100
AcDbEntity
  8
0
 62
     7
100
AcDbLine
 10
603.2165995307555
 20
243.8893001321724
 30
0.0
 11
573.9665995307555
 21
243.8893001321724
 31
0.0
  0
LINE
  5
2F7
330
46E
100
AcDbEntity
  8
0
 62
     7
100
AcDbLine
 10
603.2165995307555
 20
241.8893001321724
 30
0.0
 11
573.9665995307555
 21
241.8893001321724
 31
0.0
  0
LINE
  5
2F8
330
46E
100
AcDbEntity
  8
0
 62
     7
100
AcDbLine
 10
603.2165995307555
 20
241.8893001321724
 30
0.0
 11
603.2165995307555
 21
243.8893001321724
 31
0.0
  0
LINE
  5
2F9
330
46E
100
AcDbEntity
  8
0
 62
     7
100
AcDbLine
 10
603.2165995307555
 20
291.8893001321724
 30
0.0
 11
584.4455094861843
 21
291.8893001321724
 31
0.0
  0
LINE
  5
2FA
330
46E
100
AcDbEntity
  8
0
 62
     7
100
AcDbLine
 10
603.2165995307555
 20
293.8893001321724
 30
0.0
 11
573.9665995307555
 21
293.8893001321724
 31
0.0
  0
LINE
  5
2FB
330
46E
100
AcDbEntity
  8
0
 62
     7
100
AcDbLine
 10
603.2165995307555
 20
291.8893001321724
 30
0.0
 11
603.2165995307555
 21
293.8893001321724
 31
0.0
  0
LINE
  5
2FC
330
46E
100
AcDbEntity
  8
0
 62
     7
100
AcDbLine
 10
576.4665995307555
 20
293.8893001321724
 30
0.0
 11
576.4665995307555
 21
243.8893001321724
 31
0.0
  0
LINE
  5
2FD
330
46E
100
AcDbEntity
  8
0
 62
     7
100
AcDbLine
 10
576.4665995307555
 20
241.8893001321724
 30
0.0
 11
576.4665995307555
 21
200.8893001321724
 31
0.0
  0
LINE
  5
2FE
330
46E
100
AcDbEntity
  8
0
 62
     7
100
AcDbLine
 10
576.4665995307555
 20
198.8893001321723
 30
0.0
 11
576.4665995307555
 21
152.8893001321724
 31
0.0
  0
LINE
  5
2FF
330
46E
100
AcDbEntity
  8
0
 62
     7
100
AcDbLine
 10
576.4665995307555
 20
150.8893001321723
 30
0.0
 11
576.4665995307555
 21
60.8893001321724
 31
0.0
  0
LINE
  5
300
330
46E
100
AcDbEntity
  8
0
 62
     7
100
AcDbLine
 10
602.7165995307555
 20
291.8893001321724
 30
0.0
 11
602.7165995307555
 21
243.8893001321724
 31
0.0
  0
LINE
  5
301
330
46E
100
AcDbEntity
  8
0
 62
     7
100
AcDbLine
 10
602.9665995307555
 20
291.8893001321724
 30
0.0
 11
602.9665995307555
 21
243.8893001321724
 31
0.0
  0
LINE
  5
302
330
46E
100
AcDbEntity
  8
0
 62
     7
100
AcDbLine
 10
595.9252830524633
 20
291.8893001321724
 30
0.0
 11
595.9252830524633
 21
243.8893001321724
 31
0.0
  0
LINE
  5
303
330
46E
100
AcDbEntity
  8
0
 62
     7
100
AcDbLine
 10
593.9810943364888
 20
293.8893001321724
 30
0.0
 11
593.9810943364888
 21
243.8893001321724
 31
0.0
  0
LINE
  5
304
330
46E
100
AcDbEntity
  8
0
 62
     7
100
AcDbLine
 10
584.4455094861843
 20
293.8893001321724
 30
0.0
 11
584.4455094861843
 21
243.8893001321724
 31
0.0
  0
LINE
  5
305
330
46E
100
AcDbEntity
  8
0
 62
     7
100
AcDbLine
 10
582.5013207702098
 20
293.8893001321724
 30
0.0
 11
582.5013207702098
 21
243.8893001321724
 31
0.0
  0
LINE
  5
306
330
46E
100
AcDbEntity
  8
0
 62
     7
100
AcDbLine
 10
584.4455094861843
 20
198.8893001321723
 30
0.0
 11
584.4455094861843
 21
152.8893001321724
 31
0.0
  0
LINE
  5
307
330
46E
100
AcDbEntity
  8
0
 62
     7
100
AcDbLine
 10
582.5013207702098
 20
198.8893001321723
 30
0.0
 11
582.5013207702098
 21
152.8893001321724
 31
0.0
  0
LINE
  5
308
330
46E
100
AcDbEntity
  8
0
 62
     7
100
AcDbLine
 10
593.9810943364888
 20
198.8893001321723
 30
0.0
 11
593.9810943364888
 21
152.8893001321724
 31
0.0
  0
LINE
  5
309
330
46E
100
AcDbEntity
  8
0
 62
     7
100
AcDbLine
 10
595.9252830524633
 20
198.8893001321723
 30
0.0
 11
595.9252830524633
 21
152.8893001321724
 31
0.0
  0
LINE
  5
30A
330
46E
100
AcDbEntity
  8
0
 62
     7
100
AcDbLine
 10
595.9252830524633
 20
241.8893001321724
 30
0.0
 11
595.9252830524633
 21
200.8893001321723
 31
0.0
  0
LINE
  5
30B
330
46E
100
AcDbEntity
  8
0
 62
     7
100
AcDbLine
 10
593.9810943364888
 20
241.8893001321724
 30
0.0
 11
593.9810943364888
 21
200.8893001321723
 31
0.0
  0
LINE
  5
30C
330
46E
100
AcDbEntity
  8
0
 62
     7
100
AcDbLine
 10
584.4455094861843
 20
241.8893001321724
 30
0.0
 11
584.4455094861843
 21
200.8893001321723
 31
0.0
  0
LINE
  5
30D
330
46E
100
AcDbEntity
  8
0
 62
     7
100
AcDbLine
 10
582.5013207702098
 20
241.8893001321724
 30
0.0
 11
582.5013207702098
 21
200.8893001321723
 31
0.0
  0
LINE
  5
30E
330
46E
100
AcDbEntity
  8
0
 62
     7
100
AcDbLine
 10
754.00967133311
 20
293.8893001321724
 30
0.0
 11
751.1742939317214
 21
293.8893001321724
 31
0.0
  0
LINE
  5
30F
330
46E
100
AcDbEntity
  8
0
 62
     7
100
AcDbLine
 10
582.5013207702098
 20
291.8893001321724
 30
0.0
 11
576.4665995307555
 21
291.8893001321724
 31
0.0
  0
LINE
  5
310
330
46E
100
AcDbEntity
  8
0
 62
     7
100
AcDbLine
 10
576.4665995307556
 20
287.8893001321724
 30
0.0
 11
567.9665995307555
 21
287.8893001321724
 31
0.0
  0
LINE
  5
311
330
46E
100
AcDbEntity
  8
0
 62
     7
100
AcDbLine
 10
576.4665995307556
 20
284.8893001321724
 30
0.0
 11
567.9665995307555
 21
284.8893001321724
 31
0.0
  0
LINE
  5
312
330
46E
100
AcDbEntity
  8
0
 62
     7
100
AcDbLine
 10
576.4665995307556
 20
239.8893001321724
 30
0.0
 11
567.9665995307555
 21
239.8893001321724
 31
0.0
  0
LINE
  5
313
330
46E
100
AcDbEntity
  8
0
 62
     7
100
AcDbLine
 10
576.4665995307556
 20
236.8893001321724
 30
0.0
 11
567.9665995307555
 21
236.8893001321724
 31
0.0
  0
LINE
  5
314
330
46E
100
AcDbEntity
  8
0
 62
     7
100
AcDbLine
 10
573.9665995307555
 20
284.8893001321724
 30
0.0
 11
573.9665995307555
 21
239.8893001321724
 31
0.0
  0
LINE
  5
315
330
46E
100
AcDbEntity
  8
0
 62
     7
100
AcDbLine
 10
573.9665995307555
 20
236.8893001321724
 30
0.0
 11
573.9665995307555
 21
191.8893001321724
 31
0.0
  0
DIMENSION
  5
316
330
46E
100
AcDbEntity
  8
0
 62
     7
100
AcDbDimension
  2
*D12
 10
810.4409058275869
 20
293.8893001321724
 30
0.0
 11
810.4409058275868
 21
269.8893001321725
 31
0.0
 70
    32
  1
4'-0"
 71
     5
 42
48.00000000000003
  3
STANDARD
100
AcDbAlignedDimension
 13
775.1742939317214
 23
245.8893001321724
 33
0.0
 14
778.4989569020788
 24
293.8893001321724
 34
0.0
 50
90.0
100
AcDbRotatedDimension
  0
DIMENSION
  5
317
330
46E
100
AcDbEntity
  8
0
 62
     7
100
AcDbDimension
  2
*D13
 10
620.9508508092865
 20
198.8893001321723
 30
0.0
 11
620.9508508092865
 21
174.8893001321724
 31
0.0
 70
    32
  1
4' TYP
 71
     5
 42
48.00000000000003
  3
STANDARD
100
AcDbAlignedDimension
 13
607.2165995307556
 23
150.8893001321723
 33
0.0
 14
603.2165995307555
 24
198.8893001321723
 34
0.0
 50
90.0
100
AcDbRotatedDimension
  0
DIMENSION
  5
318
330
46E
100
AcDbEntity
  8
0
 62
     7
100
AcDbDimension
  2
*D14
 10
550.4618779795891
 20
287.8893001321724
 30
0.0
 11
543.2622351224462
 21
290.8893001321725
 31
0.0
 70
    32
 71
     5
 42
6.0
  3
STANDARD
100
AcDbAlignedDimension
 13
573.9665995307555
 23
293.8893001321724
 33
0.0
 14
567.9665995307555
 24
287.8893001321724
 34
0.0
 50
90.0
100
AcDbRotatedDimension
  0
DIMENSION
  5
319
330
46E
100
AcDbEntity
  8
0
 62
     7
100
AcDbDimension
  2
*D15
 10
550.4618779795891
 20
239.8893001321724
 30
0.0
 11
550.4618779795891
 21
263.8893001321725
 31
0.0
 70
    32
  1
4' TYP
 71
     5
 42
48.00000000000003
  3
STANDARD
100
AcDbAlignedDimension
 13
567.9665995307555
 23
287.8893001321724
 33
0.0
 14
567.9665995307555
 24
239.8893001321724
 34
0.0
 50
90.0
100
AcDbRotatedDimension
  0
TEXT
  5
31A
330
46E
100
AcDbEntity
  8
0
 62
     7
100
AcDbText
 10
707.5454756181215
 20
213.5184948716753
 30
0.0
 40
3.0954
  1
1/4" x 2"
  7
ROMANS
100
AcDbText
  0
TEXT
  5
31B
330
46E
100
AcDbEntity
  8
0
 62
     7
100
AcDbText
 10
707.5454756181215
 20
208.5068948716752
 30
0.0
 40
3.0954
  1
SAFETY CAGE
  7
ROMANS
100
AcDbText
  0
TEXT
  5
31C
330
46E
100
AcDbEntity
  8
0
 62
     7
100
AcDbText
 10
707.5454756181215
 20
203.4952948716752
 30
0.0
 40
3.0954
  1
(6005-T5)
  7
ROMANS
100
AcDbText
  0
TEXT
  5
31D
330
46E
100
AcDbEntity
  8
0
 62
     7
100
AcDbText
 10
700.5736866325512
 20
133.8440622939732
 30
0.0
 40
3.0954
  1
2-1/2" ALUMINUM
  7
ROMANS
100
AcDbText
  0
TEXT
  5
31E
330
46E
100
AcDbEntity
  8
0
 62
     7
100
AcDbText
 10
700.5736866325512
 20
128.8324622939732
 30
0.0
 40
3.0954
  1
CHANNEL SIDERAIL
  7
ROMANS
100
AcDbText
  0
TEXT
  5
31F
330
46E
100
AcDbEntity
  8
0
 62
     7
100
AcDbText
 10
708.982517823968
 20
123.8208622939732
 30
0.0
 40
3.0954
  1
(6005-T5)
  7
ROMANS
100
AcDbText
  0
TEXT
  5
320
330
46E
100
AcDbEntity
  8
0
 62
     7
100
AcDbText
 10
700.0663629863521
 20
91.36462174727482
 30
0.0
 40
3.0954
  1
2-1/4" SERRATED
  7
ROMANS
100
AcDbText
  0
TEXT
  5
321
330
46E
100
AcDbEntity
  8
0
 62
     7
100
AcDbText
 10
701.6680455511381
 20
86.35302174727476
 30
0.0
 40
3.0954
  1
ALUMINUM RUNG
  7
ROMANS
100
AcDbText
  0
TEXT
  5
322
330
46E
100
AcDbEntity
  8
0
 62
     7
100
AcDbText
 10
709.2760361097929
 20
81.34142174727477
 30
0.0
 40
3.0954
  1
(6005-T5)
  7
ROMANS
100
AcDbText
  0
SOLID
  5
323
330
46E
100
AcDbEntity
  8
0
 62
     7
100
AcDbTrace
 10
748.3209569812142
 20
121.9888534457779
 30
0.0
 11
747.9283377744849
 21
121.326471261154
 31
0.0
 12
750.1117939317214
 22
120.4798047332778
 32
0.0
 13
750.1117939317214
 23
120.4798047332778
 33
0.0
  0
LINE
  5
324
330
46E
100
AcDbEntity
  8
0
 62
     7
100
AcDbLine
 10
748.1246473778496
 20
121.657662353466
 30
0.0
 11
742.1330227875569
 21
125.2091269735425
 31
0.0
  0
LINE
  5
325
330
46E
100
AcDbEntity
  8
0
 62
     7
100
AcDbLine
 10
742.1330227875569
 20
125.2091269735425
 30
0.0
 11
735.1796147434177
 21
125.2091269735426
 31
0.0
  0
SOLID
  5
326
330
46E
100
AcDbEntity
  8
0
 62
     7
100
AcDbTrace
 10
759.6980206827809
 20
79.39834884467251
 30
0.0
 11
759.3054014760515
 21
78.73596666004857
 31
0.0
 12
761.488857633288
 22
77.88930013217239
 32
0.0
 13
761.488857633288
 23
77.88930013217239
 33
0.0
  0
LINE
  5
327
330
46E
100
AcDbEntity
  8
0
 62
     7
100
AcDbLine
 10
759.5017110794162
 20
79.06715775236057
 30
0.0
 11
753.5100864891234
 21
82.61862237243713
 31
0.0
  0
LINE
  5
328
330
46E
100
AcDbEntity
  8
0
 62
     7
100
AcDbLine
 10
753.5100864891234
 20
82.61862237243713
 30
0.0
 11
735.3237963855648
 21
82.61862237243713
 31
0.0
  0
LINE
  5
329
330
46E
100
AcDbEntity
  8
0
 62
     7
100
AcDbLine
 10
739.8708598171995
 20
204.6186223724371
 30
0.0
 11
733.5139963923247
 21
204.6186223724371
 31
0.0
  0
LINE
  5
32A
330
46E
100
AcDbEntity
  8
0
 62
     7
100
AcDbLine
 10
745.8624844074923
 20
201.0671577523605
 30
0.0
 11
739.8708598171995
 21
204.6186223724371
 31
0.0
  0
SOLID
  5
32B
330
46E
100
AcDbEntity
  8
0
 62
     7
100
AcDbTrace
 10
746.0587940108569
 20
201.3983488446724
 30
0.0
 11
745.6661748041275
 21
200.7359666600485
 31
0.0
 12
747.849630961364
 22
199.8893001321723
 32
0.0
 13
747.849630961364
 23
199.8893001321723
 33
0.0
  0
DIMENSION
  5
32C
330
46E
100
AcDbEntity
  8
0
 62
     7
100
AcDbDimension
  2
*D16
 10
790.0528506818361
 20
89.8893001321724
 30
0.0
 11
790.0528506818361
 21
95.8893001321724
 31
0.0
 70
   160
  1
12" TYP
 71
     5
 42
12.0
  3
STANDARD
100
AcDbAlignedDimension
 13
775.1742939317214
 23
101.8893001321724
 33
0.0
 14
775.1742939317214
 24
89.8893001321724
 34
0.0
 50
90.0
100
AcDbRotatedDimension
  0
LINE
  5
32D
330
46E
100
AcDbEntity
  8
0
 62
     7
100
AcDbLine
 10
937.8753781127397
 20
283.3398284324674
 30
0.0
 11
937.8753781127397
 21
295.9898284324674
 31
0.0
  0
LINE
  5
32E
330
46E
100
AcDbEntity
  8
0
 62
     7
100
AcDbLine
 10
938.4253781127396
 20
277.8398284324674
 30
0.0
 11
938.4253781127396
 21
296.5398284324674
 31
0.0
  0
LINE
  5
32F
330
46E
100
AcDbEntity
  8
0
 62
     7
100
AcDbLine
 10
880.4003781127397
 20
283.3398284324674
 30
0.0
 11
880.4003781127397
 21
295.9898284324674
 31
0.0
  0
LINE
  5
330
330
46E
100
AcDbEntity
  8
0
 62
     7
100
AcDbLine
 10
879.8503781127397
 20
277.8398284324674
 30
0.0
 11
879.8503781127397
 21
296.5398284324674
 31
0.0
  0
LINE
  5
331
330
46E
100
AcDbEntity
  8
0
 62
     7
100
AcDbLine
 10
880.4003781127397
 20
295.9898284324674
 30
0.0
 11
887.8503781127397
 21
295.9898284324674
 31
0.0
  0
LINE
  5
332
330
46E
100
AcDbEntity
  8
0
 62
     7
100
AcDbLine
 10
879.8503781127397
 20
296.5398284324674
 30
0.0
 11
887.8503781127397
 21
296.5398284324674
 31
0.0
  0
LINE
  5
333
330
46E
100
AcDbEntity
  8
0
 62
     7
100
AcDbLine
 10
887.8503781127397
 20
295.9898284324674
 30
0.0
 11
887.8503781127397
 21
296.5398284324674
 31
0.0
  0
LINE
  5
334
330
46E
100
AcDbEntity
  8
0
 62
     7
100
AcDbLine
 10
938.4253781127396
 20
296.5398284324674
 30
0.0
 11
930.4253781127398
 21
296.5398284324674
 31
0.0
  0
LINE
  5
335
330
46E
100
AcDbEntity
  8
0
 62
     7
100
AcDbLine
 10
937.8753781127397
 20
295.9898284324674
 30
0.0
 11
930.4253781127398
 21
295.9898284324675
 31
0.0
  0
LINE
  5
336
330
46E
100
AcDbEntity
  8
0
 62
     7
100
AcDbLine
 10
930.4253781127398
 20
295.9898284324675
 30
0.0
 11
930.4253781127398
 21
296.5398284324674
 31
0.0
  0
ARC
  5
337
330
46E
100
AcDbEntity
  8
0
 62
     7
100
AcDbCircle
 10
909.1378781127396
 20
252.6906646370451
 30
0.0
 40
33.15083620457774
100
AcDbArc
 50
150.0970456620546
 51
29.90295433794533
  0
ARC
  5
338
330
46E
100
AcDbEntity
  8
0
 62
     7
100
AcDbCircle
 10
909.1378781127396
 20
252.7040869672538
 30
0.0
 40
33.71425853478633
100
AcDbArc
 50
150.3076586782369
 51
29.69234132176289
  0
ARC
  5
339
330
46E
100
AcDbEntity
  8
0
 62
     7
100
AcDbCircle
 10
909.1378781127396
 20
247.0398284324673
 30
0.0
 40
36.85
100
AcDbArc
 50
142.6341146741215
 51
37.36588532587842
  0
ARC
  5
33A
330
46E
100
AcDbEntity
  8
0
 62
     7
100
AcDbCircle
 10
909.1378781127396
 20
247.0398284324673
 30
0.0
 40
36.30000000000001
100
AcDbArc
 50
148.784222653631
 51
31.2157773463691
  0
LINE
  5
33B
330
46E
100
AcDbEntity
  8
0
 62
     7
100
AcDbLine
 10
880.6753781127396
 20
278.8298284324674
 30
0.0
 11
937.6003781127396
 21
278.8298284324674
 31
0.0
  0
LINE
  5
33C
330
46E
100
AcDbEntity
  8
0
 62
     7
100
AcDbLine
 10
880.6753781127396
 20
279.7098284324673
 30
0.0
 11
937.6003781127396
 21
279.7098284324673
 31
0.0
  0
LINE
  5
33D
330
46E
100
AcDbEntity
  8
0
 62
     7
100
AcDbLine
 10
880.6753781127396
 20
282.3498284324674
 30
0.0
 11
937.6003781127396
 21
282.3498284324674
 31
0.0
  0
LINE
  5
33E
330
46E
100
AcDbEntity
  8
0
 62
     7
100
AcDbLine
 10
880.6753781127396
 20
281.4698284324675
 30
0.0
 11
937.6003781127396
 21
281.4698284324675
 31
0.0
  0
LINE
  5
33F
330
46E
100
AcDbEntity
  8
0
 62
     7
100
AcDbLine
 10
880.6753781127396
 20
280.5898284324674
 30
0.0
 11
937.6003781127396
 21
280.5898284324674
 31
0.0
  0
LINE
  5
340
330
46E
100
AcDbEntity
  8
0
 62
     7
100
AcDbLine
 10
882.7378781127396
 20
278.1148284324674
 30
0.0
 11
935.5378781127397
 21
278.1148284324674
 31
0.0
  0
LINE
  5
341
330
46E
100
AcDbEntity
  8
0
 62
     7
100
AcDbLine
 10
935.5378781127397
 20
283.0648284324674
 30
0.0
 11
882.7378781127396
 21
283.0648284324674
 31
0.0
  0
LINE
  5
342
330
46E
100
AcDbEntity
  8
0
 62
     7
100
AcDbLine
 10
880.4003781127397
 20
277.8398284324674
 30
0.0
 11
880.4003781127397
 21
269.2174318591228
 31
0.0
  0
LINE
  5
343
330
46E
100
AcDbEntity
  8
0
 62
     7
100
AcDbLine
 10
879.8503781127397
 20
277.8398284324674
 30
0.0
 11
879.8503781127397
 21
269.4041939220134
 31
0.0
  0
LINE
  5
344
330
46E
100
AcDbEntity
  8
0
 62
     7
100
AcDbLine
 10
880.6753781127396
 20
278.1148284324674
 30
0.0
 11
880.6753781127396
 21
283.0648284324674
 31
0.0
  0
LINE
  5
345
330
46E
100
AcDbEntity
  8
0
 62
     7
100
AcDbLine
 10
880.4003781127397
 20
277.8398284324674
 30
0.0
 11
880.4003781127397
 21
283.3398284324674
 31
0.0
  0
LINE
  5
346
330
46E
100
AcDbEntity
  8
0
 62
     7
100
AcDbLine
 10
882.7378781127396
 20
283.0648284324674
 30
0.0
 11
880.6753781127396
 21
283.0648284324674
 31
0.0
  0
LINE
  5
347
330
46E
100
AcDbEntity
  8
0
 62
     7
100
AcDbLine
 10
882.7378781127396
 20
283.3398284324674
 30
0.0
 11
880.4003781127397
 21
283.3398284324674
 31
0.0
  0
LINE
  5
348
330
46E
100
AcDbEntity
  8
0
 62
     7
100
AcDbLine
 10
882.7378781127396
 20
283.0648284324674
 30
0.0
 11
882.7378781127396
 21
283.3398284324674
 31
0.0
  0
LINE
  5
349
330
46E
100
AcDbEntity
  8
0
 62
     7
100
AcDbLine
 10
880.6753781127396
 20
278.1148284324674
 30
0.0
 11
882.7378781127396
 21
278.1148284324674
 31
0.0
  0
LINE
  5
34A
330
46E
100
AcDbEntity
  8
0
 62
     7
100
AcDbLine
 10
880.4003781127397
 20
277.8398284324674
 30
0.0
 11
882.7378781127396
 21
277.8398284324674
 31
0.0
  0
LINE
  5
34B
330
46E
100
AcDbEntity
  8
0
 62
     7
100
AcDbLine
 10
882.7378781127396
 20
277.8398284324674
 30
0.0
 11
882.7378781127396
 21
278.1148284324674
 31
0.0
  0
LINE
  5
34C
330
46E
100
AcDbEntity
  8
0
 62
     7
100
AcDbLine
 10
876.2508979638171
 20
260.1268738586299
 30
0.0
 11
875.3354636447575
 21
260.2718644109081
 31
0.0
  0
LINE
  5
34D
330
46E
100
AcDbEntity
  8
0
 62
     7
100
AcDbLine
 10
876.6664369566541
 20
255.6062123943492
 30
0.0
 11
876.1232083693268
 21
255.6922513501214
 31
0.0
  0
LINE
  5
34E
330
46E
100
AcDbEntity
  8
0
 62
     7
100
AcDbLine
 10
875.5642988290915
 20
255.7807739248436
 30
0.0
 11
873.9696164639806
 21
256.0333467987372
 31
0.0
  0
LINE
  5
34F
330
46E
100
AcDbEntity
  8
0
 62
     7
100
AcDbLine
 10
877.3547486028309
 20
259.9520410929679
 30
0.0
 11
876.8115200155037
 21
260.03808004874
 31
0.0
  0
LINE
  5
350
330
46E
100
AcDbEntity
  8
0
 62
     7
100
AcDbLine
 10
876.6664369566541
 20
255.6062123943492
 30
0.0
 11
877.3547486028309
 21
259.9520410929679
 31
0.0
  0
LINE
  5
351
330
46E
100
AcDbEntity
  8
0
 62
     7
100
AcDbLine
 10
878.527473769747
 20
241.4702343673651
 30
0.0
 11
878.0250237680435
 21
241.2465292136734
 31
0.0
  0
LINE
  5
352
330
46E
100
AcDbEntity
  8
0
 62
     7
100
AcDbLine
 10
880.3171149992806
 20
237.4506343537376
 30
0.0
 11
878.527473769747
 21
241.4702343673651
 31
0.0
  0
LINE
  5
353
330
46E
100
AcDbEntity
  8
0
 62
     7
100
AcDbLine
 10
880.3171149992806
 20
237.4506343537376
 30
0.0
 11
879.8146649975771
 21
237.2269292000459
 31
0.0
  0
LINE
  5
354
330
46E
100
AcDbEntity
  8
0
 62
     7
100
AcDbLine
 10
879.3045569212772
 20
236.9998144518697
 30
0.0
 11
874.8819088931188
 21
235.0307246847103
 31
0.0
  0
LINE
  5
355
330
46E
100
AcDbEntity
  8
0
 62
     7
100
AcDbLine
 10
877.5134506366715
 20
241.0187621809535
 30
0.0
 11
873.6708807898665
 21
239.3079398598543
 31
0.0
  0
LINE
  5
356
330
46E
100
AcDbEntity
  8
0
 62
     7
100
AcDbLine
 10
888.9757083957944
 20
225.6830185047465
 30
0.0
 11
885.1513306226392
 21
219.7939931634735
 31
0.0
  0
LINE
  5
357
330
46E
100
AcDbEntity
  8
0
 62
     7
100
AcDbLine
 10
892.666379623
 20
223.2874086018618
 30
0.0
 11
888.6371880696096
 21
217.0829976962979
 31
0.0
  0
LINE
  5
358
330
46E
100
AcDbEntity
  8
0
 62
     7
100
AcDbLine
 10
893.2670677308546
 20
224.2123871733271
 30
0.0
 11
892.9675162615964
 21
223.7511183609571
 31
0.0
  0
LINE
  5
359
330
46E
100
AcDbEntity
  8
0
 62
     7
100
AcDbLine
 10
889.5769172318948
 20
226.6087989273934
 30
0.0
 11
889.2773657626365
 21
226.1475301150233
 31
0.0
  0
LINE
  5
35A
330
46E
100
AcDbEntity
  8
0
 62
     7
100
AcDbLine
 10
893.2670677308546
 20
224.2123871733271
 30
0.0
 11
889.5769172318948
 21
226.6087989273934
 31
0.0
  0
LINE
  5
35B
330
46E
100
AcDbEntity
  8
0
 62
     7
100
AcDbLine
 10
906.9378781127396
 20
219.061684726177
 30
0.0
 11
906.9378781127396
 21
210.806556430066
 31
0.0
  0
LINE
  5
35C
330
46E
100
AcDbEntity
  8
0
 62
     7
100
AcDbLine
 10
911.3378781127396
 20
219.061684726177
 30
0.0
 11
911.3378781127396
 21
210.806556430066
 31
0.0
  0
LINE
  5
35D
330
46E
100
AcDbEntity
  8
0
 62
     7
100
AcDbLine
 10
937.8753781127397
 20
277.8398284324674
 30
0.0
 11
937.8753781127397
 21
269.2174318591228
 31
0.0
  0
LINE
  5
35E
330
46E
100
AcDbEntity
  8
0
 62
     7
100
AcDbLine
 10
938.4253781127396
 20
277.8398284324674
 30
0.0
 11
938.4253781127396
 21
269.4041939220134
 31
0.0
  0
LINE
  5
35F
330
46E
100
AcDbEntity
  8
0
 62
     7
100
AcDbLine
 10
937.6003781127396
 20
278.1148284324674
 30
0.0
 11
937.6003781127396
 21
283.0648284324674
 31
0.0
  0
LINE
  5
360
330
46E
100
AcDbEntity
  8
0
 62
     7
100
AcDbLine
 10
937.8753781127397
 20
277.8398284324674
 30
0.0
 11
937.8753781127397
 21
283.3398284324674
 31
0.0
  0
LINE
  5
361
330
46E
100
AcDbEntity
  8
0
 62
     7
100
AcDbLine
 10
935.5378781127397
 20
283.0648284324674
 30
0.0
 11
935.5378781127397
 21
283.3398284324674
 31
0.0
  0
LINE
  5
362
330
46E
100
AcDbEntity
  8
0
 62
     7
100
AcDbLine
 10
935.5378781127397
 20
283.0648284324674
 30
0.0
 11
937.6003781127396
 21
283.0648284324674
 31
0.0
  0
LINE
  5
363
330
46E
100
AcDbEntity
  8
0
 62
     7
100
AcDbLine
 10
935.5378781127397
 20
283.3398284324674
 30
0.0
 11
937.8753781127397
 21
283.3398284324674
 31
0.0
  0
LINE
  5
364
330
46E
100
AcDbEntity
  8
0
 62
     7
100
AcDbLine
 10
937.6003781127396
 20
278.1148284324674
 30
0.0
 11
935.5378781127397
 21
278.1148284324674
 31
0.0
  0
LINE
  5
365
330
46E
100
AcDbEntity
  8
0
 62
     7
100
AcDbLine
 10
937.8753781127397
 20
277.8398284324674
 30
0.0
 11
935.5378781127397
 21
277.8398284324674
 31
0.0
  0
LINE
  5
366
330
46E
100
AcDbEntity
  8
0
 62
     7
100
AcDbLine
 10
935.5378781127397
 20
277.8398284324674
 30
0.0
 11
935.5378781127397
 21
278.1148284324674
 31
0.0
  0
LINE
  5
367
330
46E
100
AcDbEntity
  8
0
 62
     7
100
AcDbLine
 10
942.0248582616622
 20
260.1268738586299
 30
0.0
 11
942.9402925807218
 21
260.2718644109081
 31
0.0
  0
LINE
  5
368
330
46E
100
AcDbEntity
  8
0
 62
     7
100
AcDbLine
 10
942.7114573963878
 20
255.7807739248436
 30
0.0
 11
944.3061397614986
 21
256.0333467987372
 31
0.0
  0
LINE
  5
369
330
46E
100
AcDbEntity
  8
0
 62
     7
100
AcDbLine
 10
941.6093192688252
 20
255.6062123943492
 30
0.0
 11
942.1525478561527
 21
255.6922513501214
 31
0.0
  0
LINE
  5
36A
330
46E
100
AcDbEntity
  8
0
 62
     7
100
AcDbLine
 10
940.9210076226482
 20
259.9520410929679
 30
0.0
 11
941.4642362099757
 21
260.03808004874
 31
0.0
  0
LINE
  5
36B
330
46E
100
AcDbEntity
  8
0
 62
     7
100
AcDbLine
 10
941.6093192688252
 20
255.6062123943492
 30
0.0
 11
940.9210076226482
 21
259.9520410929679
 31
0.0
  0
LINE
  5
36C
330
46E
100
AcDbEntity
  8
0
 62
     7
100
AcDbLine
 10
906.9378781127396
 20
220.1629086511452
 30
0.0
 11
911.3378781127396
 21
220.1629086511452
 31
0.0
  0
LINE
  5
36D
330
46E
100
AcDbEntity
  8
0
 62
     7
100
AcDbLine
 10
906.9378781127396
 20
220.1629086511452
 30
0.0
 11
906.9378781127396
 21
219.6129086511451
 31
0.0
  0
LINE
  5
36E
330
46E
100
AcDbEntity
  8
0
 62
     7
100
AcDbLine
 10
911.3378781127396
 20
220.1629086511452
 30
0.0
 11
911.3378781127396
 21
219.6129086511451
 31
0.0
  0
LINE
  5
36F
330
46E
100
AcDbEntity
  8
0
 62
     7
100
AcDbLine
 10
929.3000478296848
 20
225.6830185047465
 30
0.0
 11
933.1244256028401
 21
219.7939931634735
 31
0.0
  0
LINE
  5
370
330
46E
100
AcDbEntity
  8
0
 62
     7
100
AcDbLine
 10
925.6093766024791
 20
223.2874086018618
 30
0.0
 11
929.6385681558698
 21
217.0829976962979
 31
0.0
  0
LINE
  5
371
330
46E
100
AcDbEntity
  8
0
 62
     7
100
AcDbLine
 10
925.0086884946245
 20
224.2123871733271
 30
0.0
 11
928.6988389935844
 21
226.6087989273934
 31
0.0
  0
LINE
  5
372
330
46E
100
AcDbEntity
  8
0
 62
     7
100
AcDbLine
 10
928.6988389935844
 20
226.6087989273934
 30
0.0
 11
928.9983904628426
 21
226.1475301150233
 31
0.0
  0
LINE
  5
373
330
46E
100
AcDbEntity
  8
0
 62
     7
100
AcDbLine
 10
925.0086884946245
 20
224.2123871733271
 30
0.0
 11
925.3082399638829
 21
223.7511183609571
 31
0.0
  0
LINE
  5
374
330
46E
100
AcDbEntity
  8
0
 62
     7
100
AcDbLine
 10
939.7482824557323
 20
241.4702343673651
 30
0.0
 11
940.2507324574358
 21
241.2465292136734
 31
0.0
  0
LINE
  5
375
330
46E
100
AcDbEntity
  8
0
 62
     7
100
AcDbLine
 10
937.9586412261987
 20
237.4506343537376
 30
0.0
 11
939.7482824557323
 21
241.4702343673651
 31
0.0
  0
LINE
  5
376
330
46E
100
AcDbEntity
  8
0
 62
     7
100
AcDbLine
 10
937.9586412261987
 20
237.4506343537376
 30
0.0
 11
938.4610912279022
 21
237.2269292000459
 31
0.0
  0
LINE
  5
377
330
46E
100
AcDbEntity
  8
0
 62
     7
100
AcDbLine
 10
938.9711993042022
 20
236.9998144518697
 30
0.0
 11
943.3938473323605
 21
235.0307246847103
 31
0.0
  0
LINE
  5
378
330
46E
100
AcDbEntity
  8
0
 62
     7
100
AcDbLine
 10
940.7623055888077
 20
241.0187621809535
 30
0.0
 11
944.6048754356128
 21
239.3079398598543
 31
0.0
  0
DIMENSION
  5
379
330
46E
100
AcDbEntity
  8
0
 62
     7
100
AcDbDimension
  2
*D6
 10
885.9253781127398
 20
305.0596277273307
 30
0.0
 11
909.1378781127398
 21
305.0596277273307
 31
0.0
 70
    32
  1
22-1/8"
 71
     5
 42
46.42499999999995
  3
STANDARD
100
AcDbAlignedDimension
 13
932.3503781127397
 23
295.9898284324675
 33
0.0
 14
885.9253781127398
 24
295.9898284324674
 34
0.0
100
AcDbRotatedDimension
  0
DIMENSION
  5
37A
330
46E
100
AcDbEntity
  8
0
 62
     7
100
AcDbDimension
  2
*D9
 10
962.3899359815222
 20
296.5398284324674
 30
0.0
 11
963.1552608815738
 21
288.5899077347068
 31
0.0
 70
   160
  1
7-1/4"
 71
     5
 42
15.94999999999993
  3
STANDARD
100
AcDbAlignedDimension
 13
937.6003781127396
 23
280.5898284324674
 33
0.0
 14
938.4253781127396
 24
296.5398284324674
 34
0.0
 50
90.0
100
AcDbRotatedDimension
  0
DIMENSION
  5
37B
330
46E
100
AcDbEntity
  8
0
 62
     7
100
AcDbDimension
  2
*D7
 10
962.3899359815222
 20
280.5898284324674
 30
0.0
 11
962.3899359815222
 21
249.7898284324676
 31
0.0
 70
    32
  1
28"
 71
     5
 42
61.6
  3
STANDARD
100
AcDbAlignedDimension
 13
909.1378781127396
 23
218.9898284324674
 33
0.0
 14
937.6003781127396
 24
280.5898284324674
 34
0.0
 50
90.0
100
AcDbRotatedDimension
  0
DIMENSION
  5
37C
330
46E
100
AcDbEntity
  8
0
 62
     7
100
AcDbDimension
  2
*D8
 10
962.3899359815222
 20
210.1898284324672
 30
0.0
 11
962.3899359815222
 21
214.5898284324675
 31
0.0
 70
    32
  1
4"
 71
     5
 42
8.800000000000181
  3
STANDARD
100
AcDbAlignedDimension
 13
909.1378781127396
 23
218.9898284324674
 33
0.0
 14
909.1378781127396
 24
210.1898284324672
 34
0.0
 50
90.0
100
AcDbRotatedDimension
  0
DIMENSION
  5
37D
330
46E
100
AcDbEntity
  8
0
 62
     7
100
AcDbDimension
  2
*D5
 10
882.7378781127396
 20
270.0813236742911
 30
0.0
 11
909.1378781127396
 21
270.0813236742911
 31
0.0
 70
    32
  1
24"
 71
     5
 42
52.80000000000007
  3
STANDARD
100
AcDbAlignedDimension
 13
935.5378781127397
 23
277.8398284324674
 33
0.0
 14
882.7378781127396
 24
277.8398284324674
 34
0.0
100
AcDbRotatedDimension
  0
DIMENSION
  5
37E
330
46E
100
AcDbEntity
  8
0
 62
     7
100
AcDbDimension
  2
*D4
 10
872.2878781127397
 20
188.9658484874824
 30
0.0
 11
909.1378781127398
 21
188.9658484874824
 31
0.0
 70
    32
  1
33-1/2"
 71
     5
 42
73.70000000000004
  3
STANDARD
100
AcDbAlignedDimension
 13
945.9878781127397
 23
247.0398284324673
 33
0.0
 14
872.2878781127397
 24
247.0398284324673
 34
0.0
100
AcDbRotatedDimension
  0
DIMENSION
  5
37F
330
46E
100
AcDbEntity
  8
0
 62
     7
100
AcDbDimension
  2
*D3
 10
875.4236195779533
 20
199.105282989635
 30
0.0
 11
909.1378781127396
 21
199.105282989635
 31
0.0
 70
    32
  1
29-1/2"
 71
     5
 42
67.42851706957265
  3
STANDARD
100
AcDbAlignedDimension
 13
942.852136647526
 23
252.7040869672538
 33
0.0
 14
875.4236195779533
 24
252.7040869672538
 34
0.0
100
AcDbRotatedDimension
  0
TEXT
  5
3AE
330
46E
100
AcDbEntity
  8
0
100
AcDbText
 10
883.5246555977633
 20
65.97254698159744
 30
0.0
 40
5.159
  1
FACTORY FINISH
  7
ROMANS
 72
     1
 11
914.6014889310965
 21
65.97254698159744
 31
0.0
100
AcDbText
  0
TEXT
  5
3AF
330
46E
100
AcDbEntity
  8
0
100
AcDbText
 10
870.1726722644298
 20
57.61988031493081
 30
0.0
 40
5.159
  1
%%OALUMINUM-MILL FINISH
  7
ROMANS
 72
     1
 11
914.6014889310965
 21
57.61988031493081
 31
0.0
100
AcDbText
  0
TEXT
  5
3B5
330
46E
100
AcDbEntity
  8
0
100
AcDbText
 10
902.7681440468954
 20
172.80207511585
 30
0.0
 40
5.159
  1
PLAN
  7
ROMANS
 72
     1
 11
912.3491440468955
 21
172.80207511585
 31
0.0
100
AcDbText
  0
TEXT
  5
3B6
330
46E
100
AcDbEntity
  8
0
 62
     7
100
AcDbText
 10
716.9404186767499
 20
271.5023254771053
 30
0.0
 40
3.0954
  1
SIDE EXIT
  7
ROMANS
100
AcDbText
  0
TEXT
  5
3B7
330
46E
100
AcDbEntity
  8
0
 62
     7
100
AcDbText
 10
718.8812315624057
 20
266.4907254771052
 30
0.0
 40
3.0954
  1
TO LEFT
  7
ROMANS
100
AcDbText
  0
LINE
  5
3B8
330
46E
100
AcDbEntity
  8
0
 62
     7
100
AcDbLine
 10
742.1330227875569
 20
267.5668275682479
 30
0.0
 11
739.1202684021019
 21
267.5668275682479
 31
0.0
  0
LINE
  5
3B9
330
46E
100
AcDbEntity
  8
0
 62
     7
100
AcDbLine
 10
748.1246473778496
 20
264.0153629481714
 30
0.0
 11
742.1330227875569
 21
267.5668275682479
 31
0.0
  0
SOLID
  5
3BA
330
46E
100
AcDbEntity
  8
0
 62
     7
100
AcDbTrace
 10
748.3209569812142
 20
264.3465540404833
 30
0.0
 11
747.9283377744849
 21
263.6841718558593
 31
0.0
 12
750.1117939317214
 22
262.8375053279831
 32
0.0
 13
750.1117939317214
 23
262.8375053279831
 33
0.0
  0
TEXT
  5
3BB
330
46E
100
AcDbEntity
  8
0
 62
     7
100
AcDbText
 10
647.5516243102743
 20
292.2854784651841
 30
0.0
 40
3.0954
  1
BREAK TOP RING
  7
ROMANS
100
AcDbText
  0
TEXT
  5
3BC
330
46E
100
AcDbEntity
  8
0
 62
     7
100
AcDbText
 10
650.6569274541276
 20
287.273878465184
 30
0.0
 40
3.0954
  1
FOR SIDE EXIT
  7
ROMANS
100
AcDbText
  0
LINE
  5
3BD
330
46E
100
AcDbEntity
  8
0
 62
     7
100
AcDbLine
 10
697.7029835587983
 20
285.2937379410998
 30
0.0
 11
691.7113589685056
 21
288.8452025611764
 31
0.0
  0
SOLID
  5
3BE
330
46E
100
AcDbEntity
  8
0
 62
     7
100
AcDbTrace
 10
697.8992931621631
 20
285.6249290334118
 30
0.0
 11
697.5066739554336
 21
284.9625468487878
 31
0.0
 12
699.6901301126702
 22
284.1158803209116
 32
0.0
 13
699.6901301126702
 23
284.1158803209116
 33
0.0
  0
LINE
  5
3BF
330
46E
100
AcDbEntity
  8
0
 62
     7
100
AcDbLine
 10
691.7113589685056
 20
288.8452025611764
 30
0.0
 11
685.2431055320784
 21
288.8452025611765
 31
0.0
  0
TEXT
  5
3C0
330
46E
100
AcDbEntity
  8
0
100
AcDbText
 10
636.2740457324982
 20
325.2047665247267
 30
0.0
 40
8.04
  1
FIXED LADDER w/CAGE & OVERSHOOT
  7
ROMANC
100
AcDbText
  0
DIMENSION
  5
3C1
330
46E
100
AcDbEntity
  8
0
 62
     7
100
AcDbDimension
  2
*D17
 10
620.9508508092865
 20
150.8893001321723
 30
0.0
 11
620.9508508092865
 21
105.8893001321724
 31
0.0
 70
    32
 71
     5
 42
90.00000000000001
  3
STANDARD
100
AcDbAlignedDimension
 13
591.9665995307554
 23
60.88930013217233
 33
0.0
 14
607.2165995307556
 24
150.8893001321723
 34
0.0
 50
90.0
100
AcDbRotatedDimension
  0
LINE
  5
3C2
330
46E
100
AcDbEntity
  8
0
 62
     7
100
AcDbLine
 10
770.6613386997848
 20
209.1393001321724
 30
0.0
 11
764.1742939317214
 21
209.1393001321724
 31
0.0
  0
LINE
  5
3C3
330
46E
100
AcDbEntity
  8
0
 62
     7
100
AcDbLine
 10
770.6613386997848
 20
209.8893001321724
 30
0.0
 11
764.1742939317214
 21
209.8893001321724
 31
0.0
  0
LINE
  5
3C4
330
46E
100
AcDbEntity
  8
0
 62
     7
100
AcDbLine
 10
762.1742939317214
 20
209.1393001321724
 30
0.0
 11
755.6872491636579
 21
209.1393001321724
 31
0.0
  0
LINE
  5
3C5
330
46E
100
AcDbEntity
  8
0
 62
     7
100
AcDbLine
 10
762.1742939317214
 20
209.8893001321724
 30
0.0
 11
755.6872491636579
 21
209.8893001321724
 31
0.0
  0
LINE
  5
3C6
330
46E
100
AcDbEntity
  8
0
 62
     7
100
AcDbLine
 10
754.00967133311
 20
209.1393001321724
 30
0.0
 11
751.1742939317214
 21
209.1393001321724
 31
0.0
  0
LINE
  5
3C7
330
46E
100
AcDbEntity
  8
0
 62
     7
100
AcDbLine
 10
754.00967133311
 20
209.8893001321724
 30
0.0
 11
751.1742939317214
 21
209.8893001321724
 31
0.0
  0
LINE
  5
3C8
330
46E
100
AcDbEntity
  8
0
 62
     7
100
AcDbLine
 10
775.1742939317214
 20
209.1393001321724
 30
0.0
 11
772.3389165303329
 21
209.1393001321724
 31
0.0
  0
LINE
  5
3C9
330
46E
100
AcDbEntity
  8
0
 62
     7
100
AcDbLine
 10
775.1742939317214
 20
209.8893001321724
 30
0.0
 11
772.3389165303329
 21
209.8893001321724
 31
0.0
  0
DIMENSION
  5
3CB
330
46E
100
AcDbEntity
  8
0
 62
     7
100
AcDbDimension
  2
*D18
 10
750.1117939317214
 20
54.31324782200642
 30
0.0
 11
763.1742939317214
 21
54.31324782200642
 31
0.0
 70
    32
  1
26-1/8"
 71
     5
 42
26.125
  3
STANDARD
100
AcDbAlignedDimension
 13
776.2367939317214
 23
60.8893001321725
 33
0.0
 14
750.1117939317214
 24
60.8893001321724
 34
0.0
100
AcDbRotatedDimension
  0
LINE
  5
3CC
330
46E
100
AcDbEntity
  8
0
 62
     7
100
AcDbLine
 10
770.6613386997848
 20
221.1393001321724
 30
0.0
 11
764.1742939317214
 21
221.1393001321724
 31
0.0
  0
LINE
  5
3CD
330
46E
100
AcDbEntity
  8
0
 62
     7
100
AcDbLine
 10
770.6613386997848
 20
221.8893001321724
 30
0.0
 11
764.1742939317214
 21
221.8893001321724
 31
0.0
  0
LINE
  5
3CE
330
46E
100
AcDbEntity
  8
0
 62
     7
100
AcDbLine
 10
762.1742939317214
 20
221.1393001321724
 30
0.0
 11
755.6872491636579
 21
221.1393001321724
 31
0.0
  0
LINE
  5
3CF
330
46E
100
AcDbEntity
  8
0
 62
     7
100
AcDbLine
 10
762.1742939317214
 20
221.8893001321724
 30
0.0
 11
755.6872491636579
 21
221.8893001321724
 31
0.0
  0
LINE
  5
3D0
330
46E
100
AcDbEntity
  8
0
 62
     7
100
AcDbLine
 10
754.00967133311
 20
221.1393001321724
 30
0.0
 11
751.1742939317214
 21
221.1393001321724
 31
0.0
  0
LINE
  5
3D1
330
46E
100
AcDbEntity
  8
0
 62
     7
100
AcDbLine
 10
754.00967133311
 20
221.8893001321724
 30
0.0
 11
751.1742939317214
 21
221.8893001321724
 31
0.0
  0
LINE
  5
3D2
330
46E
100
AcDbEntity
  8
0
 62
     7
100
AcDbLine
 10
775.1742939317214
 20
221.1393001321724
 30
0.0
 11
772.3389165303329
 21
221.1393001321724
 31
0.0
  0
LINE
  5
3D3
330
46E
100
AcDbEntity
  8
0
 62
     7
100
AcDbLine
 10
775.1742939317214
 20
221.8893001321724
 30
0.0
 11
772.3389165303329
 21
221.8893001321724
 31
0.0
  0
LINE
  5
3D4
330
46E
100
AcDbEntity
  8
0
 62
     7
100
AcDbLine
 10
775.1742939317214
 20
197.1393001321724
 30
0.0
 11
772.4050495451848
 21
197.1393001321724
 31
0.0
  0
LINE
  5
3D5
330
46E
100
AcDbEntity
  8
0
 62
     7
100
AcDbLine
 10
775.1742939317214
 20
197.8893001321724
 30
0.0
 11
772.376706824534
 21
197.8893001321724
 31
0.0
  0
LINE
  5
3D6
330
46E
100
AcDbEntity
  8
0
 62
     7
100
AcDbLine
 10
775.1742939317214
 20
185.1393001321724
 30
0.0
 11
772.8585330755985
 21
185.1393001321724
 31
0.0
  0
LINE
  5
3D7
330
46E
100
AcDbEntity
  8
0
 62
     7
100
AcDbLine
 10
775.1742939317214
 20
185.8893001321724
 30
0.0
 11
772.8301903549477
 21
185.8893001321724
 31
0.0
  0
LINE
  5
3D8
330
46E
100
AcDbEntity
  8
0
 62
     7
100
AcDbLine
 10
775.1742939317214
 20
173.1393001321724
 30
0.0
 11
773.3120166060122
 21
173.1393001321723
 31
0.0
  0
LINE
  5
3D9
330
46E
100
AcDbEntity
  8
0
 62
     7
100
AcDbLine
 10
775.1742939317214
 20
173.8893001321724
 30
0.0
 11
773.2836738853614
 21
173.8893001321723
 31
0.0
  0
LINE
  5
3DA
330
46E
100
AcDbEntity
  8
0
 62
     7
100
AcDbLine
 10
775.1742939317214
 20
161.1393001321724
 30
0.0
 11
773.7655001364259
 21
161.1393001321723
 31
0.0
  0
LINE
  5
3DB
330
46E
100
AcDbEntity
  8
0
 62
     7
100
AcDbLine
 10
775.1742939317214
 20
161.8893001321724
 30
0.0
 11
773.7371574157751
 21
161.8893001321723
 31
0.0
  0
LINE
  5
3DC
330
46E
100
AcDbEntity
  8
0
 62
     7
100
AcDbLine
 10
775.1742939317214
 20
149.1393001321724
 30
0.0
 11
751.1742939317214
 21
149.1393001321724
 31
0.0
  0
LINE
  5
3DD
330
46E
100
AcDbEntity
  8
0
 62
     7
100
AcDbLine
 10
775.1742939317214
 20
149.8893001321724
 30
0.0
 11
751.1742939317214
 21
149.8893001321724
 31
0.0
  0
LINE
  5
3DE
330
46E
100
AcDbEntity
  8
0
 62
     7
100
AcDbLine
 10
775.1742939317214
 20
137.1393001321724
 30
0.0
 11
751.1742939317214
 21
137.1393001321724
 31
0.0
  0
LINE
  5
3DF
330
46E
100
AcDbEntity
  8
0
 62
     7
100
AcDbLine
 10
775.1742939317214
 20
137.8893001321724
 30
0.0
 11
751.1742939317214
 21
137.8893001321724
 31
0.0
  0
LINE
  5
3E0
330
46E
100
AcDbEntity
  8
0
 62
     7
100
AcDbLine
 10
775.1742939317214
 20
125.1393001321724
 30
0.0
 11
751.1742939317214
 21
125.1393001321724
 31
0.0
  0
LINE
  5
3E1
330
46E
100
AcDbEntity
  8
0
 62
     7
100
AcDbLine
 10
775.1742939317214
 20
125.8893001321724
 30
0.0
 11
751.1742939317214
 21
125.8893001321724
 31
0.0
  0
LINE
  5
3E2
330
46E
100
AcDbEntity
  8
0
 62
     7
100
AcDbLine
 10
775.1742939317214
 20
113.1393001321724
 30
0.0
 11
751.1742939317214
 21
113.1393001321724
 31
0.0
  0
LINE
  5
3E3
330
46E
100
AcDbEntity
  8
0
 62
     7
100
AcDbLine
 10
775.1742939317214
 20
113.8893001321724
 30
0.0
 11
751.1742939317214
 21
113.8893001321724
 31
0.0
  0
LINE
  5
3E4
330
46E
100
AcDbEntity
  8
0
 62
     7
100
AcDbLine
 10
775.1742939317214
 20
101.1393001321724
 30
0.0
 11
751.1742939317214
 21
101.1393001321724
 31
0.0
  0
LINE
  5
3E5
330
46E
100
AcDbEntity
  8
0
 62
     7
100
AcDbLine
 10
775.1742939317214
 20
101.8893001321724
 30
0.0
 11
751.1742939317214
 21
101.8893001321724
 31
0.0
  0
LINE
  5
3E6
330
46E
100
AcDbEntity
  8
0
 62
     7
100
AcDbLine
 10
775.1742939317214
 20
89.13930013217239
 30
0.0
 11
751.1742939317214
 21
89.13930013217239
 31
0.0
  0
LINE
  5
3E7
330
46E
100
AcDbEntity
  8
0
 62
     7
100
AcDbLine
 10
775.1742939317214
 20
89.8893001321724
 30
0.0
 11
751.1742939317214
 21
89.8893001321724
 31
0.0
  0
LINE
  5
3E8
330
46E
100
AcDbEntity
  8
0
 62
     7
100
AcDbLine
 10
775.1742939317214
 20
77.1393001321724
 30
0.0
 11
751.1742939317214
 21
77.1393001321724
 31
0.0
  0
LINE
  5
3E9
330
46E
100
AcDbEntity
  8
0
 62
     7
100
AcDbLine
 10
775.1742939317214
 20
77.88930013217239
 30
0.0
 11
751.1742939317214
 21
77.88930013217239
 31
0.0
  0
LINE
  5
3EA
330
46E
100
AcDbEntity
  8
0
 62
     7
100
AcDbLine
 10
775.1742939317214
 20
65.13930013217239
 30
0.0
 11
751.1742939317214
 21
65.13930013217239
 31
0.0
  0
LINE
  5
3EB
330
46E
100
AcDbEntity
  8
0
 62
     7
100
AcDbLine
 10
775.1742939317214
 20
65.8893001321724
 30
0.0
 11
751.1742939317214
 21
65.8893001321724
 31
0.0
  0
LINE
  5
3EC
330
46E
100
AcDbEntity
  8
0
 62
     7
100
AcDbLine
 10
752.6114304476678
 20
161.8893001321724
 30
0.0
 11
751.1742939317214
 21
161.8893001321724
 31
0.0
  0
LINE
  5
3ED
330
46E
100
AcDbEntity
  8
0
 62
     7
100
AcDbLine
 10
752.5830877270169
 20
161.1393001321724
 30
0.0
 11
751.1742939317214
 21
161.1393001321724
 31
0.0
  0
LINE
  5
3EE
330
46E
100
AcDbEntity
  8
0
 62
     7
100
AcDbLine
 10
753.0649139780814
 20
173.8893001321724
 30
0.0
 11
751.1742939317214
 21
173.8893001321724
 31
0.0
  0
LINE
  5
3EF
330
46E
100
AcDbEntity
  8
0
 62
     7
100
AcDbLine
 10
753.0365712574306
 20
173.1393001321724
 30
0.0
 11
751.1742939317214
 21
173.1393001321724
 31
0.0
  0
LINE
  5
3F0
330
46E
100
AcDbEntity
  8
0
 62
     7
100
AcDbLine
 10
753.5183975084951
 20
185.8893001321724
 30
0.0
 11
751.1742939317214
 21
185.8893001321724
 31
0.0
  0
LINE
  5
3F1
330
46E
100
AcDbEntity
  8
0
 62
     7
100
AcDbLine
 10
753.4900547878443
 20
185.1393001321724
 30
0.0
 11
751.1742939317214
 21
185.1393001321724
 31
0.0
  0
LINE
  5
3F2
330
46E
100
AcDbEntity
  8
0
 62
     7
100
AcDbLine
 10
762.1742939317214
 20
173.1393001321724
 30
0.0
 11
754.6620349097073
 21
173.1393001321724
 31
0.0
  0
LINE
  5
3F3
330
46E
100
AcDbEntity
  8
0
 62
     7
100
AcDbLine
 10
762.1742939317214
 20
173.8893001321724
 30
0.0
 11
754.6918955190457
 21
173.8893001321724
 31
0.0
  0
LINE
  5
3F4
330
46E
100
AcDbEntity
  8
0
 62
     7
100
AcDbLine
 10
762.1742939317214
 20
161.1393001321724
 30
0.0
 11
754.1842651602934
 21
161.1393001321724
 31
0.0
  0
LINE
  5
3F5
330
46E
100
AcDbEntity
  8
0
 62
     7
100
AcDbLine
 10
762.1742939317214
 20
161.8893001321724
 30
0.0
 11
754.2141257696317
 21
161.8893001321724
 31
0.0
  0
LINE
  5
3F6
330
46E
100
AcDbEntity
  8
0
 62
     7
100
AcDbLine
 10
762.1742939317214
 20
185.1393001321724
 30
0.0
 11
755.1398046591211
 21
185.1393001321724
 31
0.0
  0
LINE
  5
3F7
330
46E
100
AcDbEntity
  8
0
 62
     7
100
AcDbLine
 10
762.1742939317214
 20
185.8893001321724
 30
0.0
 11
755.1696652684596
 21
185.8893001321724
 31
0.0
  0
LINE
  5
3F8
330
46E
100
AcDbEntity
  8
0
 62
     7
100
AcDbLine
 10
772.134462093811
 20
161.8893001321723
 30
0.0
 11
764.1742939317214
 21
161.8893001321724
 31
0.0
  0
LINE
  5
3F9
330
46E
100
AcDbEntity
  8
0
 62
     7
100
AcDbLine
 10
772.1643227031494
 20
161.1393001321723
 30
0.0
 11
764.1742939317214
 21
161.1393001321724
 31
0.0
  0
LINE
  5
3FA
330
46E
100
AcDbEntity
  8
0
 62
     7
100
AcDbLine
 10
771.6566923443972
 20
173.8893001321723
 30
0.0
 11
764.1742939317214
 21
173.8893001321724
 31
0.0
  0
LINE
  5
3FB
330
46E
100
AcDbEntity
  8
0
 62
     7
100
AcDbLine
 10
771.6865529537356
 20
173.1393001321723
 30
0.0
 11
764.1742939317214
 21
173.1393001321724
 31
0.0
  0
LINE
  5
3FC
330
46E
100
AcDbEntity
  8
0
 62
     7
100
AcDbLine
 10
771.1789225949833
 20
185.8893001321724
 30
0.0
 11
764.1742939317214
 21
185.8893001321724
 31
0.0
  0
LINE
  5
3FD
330
46E
100
AcDbEntity
  8
0
 62
     7
100
AcDbLine
 10
771.2087832043216
 20
185.1393001321724
 30
0.0
 11
764.1742939317214
 21
185.1393001321724
 31
0.0
  0
LINE
  5
3FE
330
46E
100
AcDbEntity
  8
0
 62
     7
100
AcDbLine
 10
770.7011528455693
 20
197.8893001321724
 30
0.0
 11
764.1742939317214
 21
197.8893001321724
 31
0.0
  0
LINE
  5
3FF
330
46E
100
AcDbEntity
  8
0
 62
     7
100
AcDbLine
 10
770.7310134549077
 20
197.1393001321724
 30
0.0
 11
764.1742939317214
 21
197.1393001321724
 31
0.0
  0
LINE
  5
400
330
46E
100
AcDbEntity
  8
0
 62
     7
100
AcDbLine
 10
762.1742939317214
 20
197.1393001321724
 30
0.0
 11
755.6175744085351
 21
197.1393001321724
 31
0.0
  0
LINE
  5
401
330
46E
100
AcDbEntity
  8
0
 62
     7
100
AcDbLine
 10
762.1742939317214
 20
197.8893001321724
 30
0.0
 11
755.6474350178734
 21
197.8893001321724
 31
0.0
  0
LINE
  5
402
330
46E
100
AcDbEntity
  8
0
 62
     7
100
AcDbLine
 10
753.9718810389087
 20
197.8893001321724
 30
0.0
 11
751.1742939317214
 21
197.8893001321724
 31
0.0
  0
LINE
  5
403
330
46E
100
AcDbEntity
  8
0
 62
     7
100
AcDbLine
 10
753.9435383182579
 20
197.1393001321724
 30
0.0
 11
751.1742939317214
 21
197.1393001321724
 31
0.0
  0
LINE
  5
404
330
46E
100
AcDbEntity
  8
0
 62
     7
100
AcDbLine
 10
576.4665995307556
 20
191.8893001321724
 30
0.0
 11
567.9665995307555
 21
191.8893001321724
 31
0.0
  0
LINE
  5
405
330
46E
100
AcDbEntity
  8
0
 62
     7
100
AcDbLine
 10
576.4665995307556
 20
188.8893001321724
 30
0.0
 11
567.9665995307555
 21
188.8893001321724
 31
0.0
  0
LINE
  5
406
330
46E
100
AcDbEntity
  8
0
 62
     7
100
AcDbLine
 10
576.4665995307556
 20
143.8893001321724
 30
0.0
 11
567.9665995307555
 21
143.8893001321724
 31
0.0
  0
LINE
  5
407
330
46E
100
AcDbEntity
  8
0
 62
     7
100
AcDbLine
 10
576.4665995307556
 20
140.8893001321724
 30
0.0
 11
567.9665995307555
 21
140.8893001321724
 31
0.0
  0
LINE
  5
408
330
46E
100
AcDbEntity
  8
0
 62
     7
100
AcDbLine
 10
576.4665995307556
 20
92.88930013217239
 30
0.0
 11
567.9665995307555
 21
92.88930013217239
 31
0.0
  0
LINE
  5
409
330
46E
100
AcDbEntity
  8
0
 62
     7
100
AcDbLine
 10
576.4665995307556
 20
95.8893001321724
 30
0.0
 11
567.9665995307555
 21
95.8893001321724
 31
0.0
  0
LINE
  5
40A
330
46E
100
AcDbEntity
  8
0
 62
     7
100
AcDbLine
 10
576.4665995307556
 20
69.88930013217234
 30
0.0
 11
567.9665995307555
 21
69.88930013217234
 31
0.0
  0
LINE
  5
40B
330
46E
100
AcDbEntity
  8
0
 62
     7
100
AcDbLine
 10
576.4665995307556
 20
66.88930013217234
 30
0.0
 11
567.9665995307555
 21
66.88930013217234
 31
0.0
  0
LINE
  5
40C
330
46E
100
AcDbEntity
  8
0
 62
     7
100
AcDbLine
 10
573.9665995307555
 20
140.8893001321724
 30
0.0
 11
573.9665995307555
 21
95.8893001321724
 31
0.0
  0
LINE
  5
40D
330
46E
100
AcDbEntity
  8
0
 62
     7
100
AcDbLine
 10
573.9665995307555
 20
92.88930013217239
 30
0.0
 11
573.9665995307555
 21
69.88930013217231
 31
0.0
  0
LINE
  5
40E
330
46E
100
AcDbEntity
  8
0
 62
     7
100
AcDbLine
 10
573.9665995307555
 20
66.88930013217234
 30
0.0
 11
573.9665995307555
 21
60.88930013217236
 31
0.0
  0
LINE
  5
40F
330
46E
100
AcDbEntity
  8
0
 62
     7
100
AcDbLine
 10
573.9665995307555
 20
188.8893001321724
 30
0.0
 11
573.9665995307555
 21
143.8893001321724
 31
0.0
  0
DIMENSION
  5
411
330
46E
100
AcDbEntity
  8
0
 62
     7
100
AcDbDimension
  2
*D19
 10
741.7772839255531
 20
243.8893001321724
 30
0.0
 11
734.5776410684102
 21
244.8893001321725
 31
0.0
 70
    32
 71
     5
 42
2.0
  3
STANDARD
100
AcDbAlignedDimension
 13
751.1742939317214
 23
245.8893001321724
 33
0.0
 14
747.849630961364
 24
243.8893001321724
 34
0.0
 50
90.0
100
AcDbRotatedDimension
  0
TEXT
  5
413
330
46E
100
AcDbEntity
  8
0
 62
     7
100
AcDbText
 10
782.3755688006875
 20
251.9252234968613
 30
0.0
 40
3.095399999999999
  1
MEZZANINE
  7
ROMANS
100
AcDbText
  0
TEXT
  5
414
330
46E
100
AcDbEntity
  8
0
 62
     7
100
AcDbText
 10
788.5032992199674
 20
246.9136234968612
 30
0.0
 40
3.095399999999999
  1
LEVEL
  7
ROMANS
100
AcDbText
  0
TEXT
  5
415
330
46E
100
AcDbEntity
  8
0
 62
     7
100
AcDbText
 10
628.0088231750958
 20
255.4733734763455
 30
0.0
 40
3.0954
  1
NOTE:
  7
ROMANS
100
AcDbText
  0
TEXT
  5
416
330
46E
100
AcDbEntity
  8
0
 62
     7
100
AcDbText
 10
627.3058257160851
 20
250.4617734763454
 30
0.0
 40
3.0954
  1
ALL BOLTS/FASTENERS
  7
ROMANS
100
AcDbText
  0
TEXT
  5
417
330
46E
100
AcDbEntity
  8
0
 62
     7
100
AcDbText
 10
627.3058257160851
 20
245.4501734763455
 30
0.0
 40
3.0954
  1
NECESSARY TO ANCHOR
  7
ROMANS
100
AcDbText
  0
TEXT
  5
418
330
46E
100
AcDbEntity
  8
0
 62
     7
100
AcDbText
 10
627.3058257160851
 20
240.4385734763454
 30
0.0
 40
3.0954
  1
LADDER ARE BY OTHERS.
  7
ROMANS
100
AcDbText
  0
INSERT
  5
42E
330
46E
100
AcDbEntity
  8
0
100
AcDbBlockReference
  2
LINETYPE
 10
0.0
 20
0.0
 30
0.0
  0
LINE
  5
42F
330
46E
100
AcDbEntity
  8
0
 62
     7
100
AcDbLine
 10
749.8617939317214
 20
69.88930013217234
 30
0.0
 11
750.1117939317214
 21
69.88930013217234
 31
0.0
  0
LINE
  5
430
330
46E
100
AcDbEntity
  8
0
 62
     7
100
AcDbLine
 10
749.8617939317214
 20
66.88930013217234
 30
0.0
 11
750.1117939317214
 21
66.88930013217234
 31
0.0
  0
LINE
  5
431
330
46E
100
AcDbEntity
  8
0
 62
     7
100
AcDbLine
 10
749.8617939317214
 20
69.88930013217234
 30
0.0
 11
749.8617939317214
 21
66.88930013217234
 31
0.0
  0
LINE
  5
432
330
46E
100
AcDbEntity
  8
0
 62
     7
100
AcDbLine
 10
776.4867939317213
 20
69.88930013217234
 30
0.0
 11
776.4867939317213
 21
66.88930013217234
 31
0.0
  0
LINE
  5
435
330
46E
100
AcDbEntity
  8
0
 62
     7
100
AcDbLine
 10
776.2367939317214
 20
66.88930013217234
 30
0.0
 11
776.4867939317213
 21
66.88930013217234
 31
0.0
  0
LINE
  5
436
330
46E
100
AcDbEntity
  8
0
 62
     7
100
AcDbLine
 10
776.2367939317214
 20
69.88930013217234
 30
0.0
 11
776.4867939317213
 21
69.88930013217234
 31
0.0
  0
LINE
  5
43B
330
46E
100
AcDbEntity
  8
0
 62
     7
100
AcDbLine
 10
749.8617939317214
 20
95.8893001321724
 30
0.0
 11
749.8617939317214
 21
92.88930013217237
 31
0.0
  0
LINE
  5
43C
330
46E
100
AcDbEntity
  8
0
 62
     7
100
AcDbLine
 10
749.8617939317214
 20
92.88930013217239
 30
0.0
 11
750.1117939317214
 21
92.88930013217239
 31
0.0
  0
LINE
  5
43D
330
46E
100
AcDbEntity
  8
0
 62
     7
100
AcDbLine
 10
749.8617939317214
 20
95.8893001321724
 30
0.0
 11
750.1117939317214
 21
95.8893001321724
 31
0.0
  0
LINE
  5
43F
330
46E
100
AcDbEntity
  8
0
 62
     7
100
AcDbLine
 10
751.1742939317214
 20
92.88930013217239
 30
0.0
 11
754.3617939317214
 21
92.88930013217239
 31
0.0
  0
LINE
  5
440
330
46E
100
AcDbEntity
  8
0
 62
     7
100
AcDbLine
 10
751.1742939317214
 20
95.8893001321724
 30
0.0
 11
754.3617939317214
 21
95.8893001321724
 31
0.0
  0
LINE
  5
441
330
46E
100
AcDbEntity
  8
0
 62
     7
100
AcDbLine
 10
776.4867939317213
 20
95.8893001321724
 30
0.0
 11
776.4867939317213
 21
92.88930013217237
 31
0.0
  0
LINE
  5
443
330
46E
100
AcDbEntity
  8
0
 62
     7
100
AcDbLine
 10
776.2367939317214
 20
92.88930013217239
 30
0.0
 11
776.4867939317213
 21
92.88930013217237
 31
0.0
  0
LINE
  5
445
330
46E
100
AcDbEntity
  8
0
 62
     7
100
AcDbLine
 10
776.2367939317214
 20
95.8893001321724
 30
0.0
 11
776.4867939317213
 21
95.8893001321724
 31
0.0
  0
LINE
  5
447
330
46E
100
AcDbEntity
  8
0
 62
     7
100
AcDbLine
 10
749.8617939317214
 20
143.8893001321724
 30
0.0
 11
749.8617939317214
 21
140.8893001321724
 31
0.0
  0
LINE
  5
448
330
46E
100
AcDbEntity
  8
0
 62
     7
100
AcDbLine
 10
749.8617939317214
 20
140.8893001321724
 30
0.0
 11
750.1117939317214
 21
140.8893001321724
 31
0.0
  0
LINE
  5
449
330
46E
100
AcDbEntity
  8
0
 62
     7
100
AcDbLine
 10
749.8617939317214
 20
143.8893001321724
 30
0.0
 11
750.1117939317214
 21
143.8893001321724
 31
0.0
  0
LINE
  5
44E
330
46E
100
AcDbEntity
  8
0
 62
     7
100
AcDbLine
 10
776.4867939317213
 20
143.8893001321724
 30
0.0
 11
776.4867939317213
 21
140.8893001321724
 31
0.0
  0
LINE
  5
450
330
46E
100
AcDbEntity
  8
0
 62
     7
100
AcDbLine
 10
776.2367939317214
 20
140.8893001321724
 30
0.0
 11
776.4867939317213
 21
140.8893001321724
 31
0.0
  0
LINE
  5
452
330
46E
100
AcDbEntity
  8
0
 62
     7
100
AcDbLine
 10
776.2367939317214
 20
143.8893001321724
 30
0.0
 11
776.4867939317213
 21
143.8893001321724
 31
0.0
  0
INSERT
  5
70A
330
46E
100
AcDbEntity
  8
0
100
AcDbBlockReference
  2
LINETYPE
 10
10.51653858128611
 20
-2.885093188010614
 30
0.0
  0
LINE
  5
8D4
330
46E
100
AcDbEntity
  8
0
100
AcDbLine
 10
777.5492939317214
 20
245.8893001321724
 30
0.0
 11
812.8159058275869
 21
245.8893001321724
 31
0.0
  0
LINE
  5
8D5
330
46E
100
AcDbEntity
  8
0
100
AcDbLine
 10
778.6117939317214
 20
60.88930013217245
 30
0.0
 11
812.8159058275867
 21
60.88930013217244
 31
0.0
  0
LINE
  5
8D6
330
46E
100
AcDbEntity
  8
0
100
AcDbLine
 10
810.4409058275869
 20
243.5143001321724
 30
0.0
 11
810.4409058275869
 21
157.5828715607438
 31
0.0
  0
LINE
  5
8D7
330
46E
100
AcDbEntity
  8
0
100
AcDbLine
 10
810.4409058275868
 20
63.26430013217244
 30
0.0
 11
810.4409058275869
 21
129.9872371110938
 31
0.0
  0
SOLID
  5
8D8
330
46E
100
AcDbEntity
  8
0
100
AcDbTrace
 10
810.0450724942534
 20
243.5143001321724
 30
0.0
 11
810.8367391609201
 21
243.5143001321724
 31
0.0
 12
810.4409058275869
 22
245.8893001321724
 32
0.0
 13
810.4409058275869
 23
245.8893001321724
 33
0.0
  0
SOLID
  5
8D9
330
46E
100
AcDbEntity
  8
0
100
AcDbTrace
 10
810.0450724942534
 20
63.26430013217244
 30
0.0
 11
810.8367391609201
 21
63.26430013217244
 31
0.0
 12
810.4409058275868
 22
60.88930013217244
 32
0.0
 13
810.4409058275868
 23
60.88930013217244
 33
0.0
  0
TEXT
  5
934
330
46E
100
AcDbEntity
  8
0
 62
     7
100
AcDbText
 10
882.2969664145549
 20
100.5707583281743
 30
0.0
 40
2.778895349999999
  1
%%C9/16"
  7
ROMANS
 72
     2
 11
897.250069964555
 21
101.9602060031743
 31
0.0
100
AcDbText
 73
     2
  0
LINE
  5
935
330
46E
100
AcDbEntity
  8
0
 62
     7
100
AcDbLine
 10
891.8843890642321
 20
124.1461841831033
 30
0.0
 11
903.5310498461941
 21
101.9602060031743
 31
0.0
  0
LINE
  5
936
330
46E
100
AcDbEntity
  8
0
 62
     7
100
AcDbLine
 10
880.9171265221541
 20
130.3938172560844
 30
0.0
 11
898.8767829964709
 21
140.7628297560844
 31
0.0
  0
LINE
  5
937
330
46E
100
AcDbEntity
  8
0
 62
     7
100
AcDbLine
 10
882.0396050517988
 20
129.7457539748344
 30
0.0
 11
898.8767829964709
 21
139.4667031935844
 31
0.0
  0
LINE
  5
938
330
46E
100
AcDbEntity
  8
0
 62
     7
100
AcDbLine
 10
882.0396050517988
 20
114.1922352248343
 30
0.0
 11
898.8767829964709
 21
123.9131844435843
 31
0.0
  0
SOLID
  5
939
330
46E
100
AcDbEntity
  8
0
  6
ByBlock
 62
     7
100
AcDbTrace
 10
893.8466413292996
 20
146.5373801676012
 30
0.0
 11
894.2830475792996
 21
145.7815023698606
 31
0.0
 12
891.7972110610776
 22
144.8502225187309
 32
0.0
 13
891.7972110610776
 23
144.8502225187309
 33
0.0
  0
LINE
  5
93A
330
46E
100
AcDbEntity
  8
0
  6
ByBlock
 62
     7
100
AcDbLine
 10
894.0648444542997
 20
146.1594412687309
 30
0.0
 11
896.3324778475213
 21
147.4686600187309
 31
0.0
  0
LINE
  5
93B
330
46E
100
AcDbEntity
  8
0
  6
ByBlock
 62
     7
100
AcDbLine
 10
896.2583454964708
 20
142.2745853515655
 30
0.0
 11
889.1787735610776
 21
146.3619781142121
 31
0.0
  0
TEXT
  5
93C
330
46E
100
AcDbEntity
  8
0
100
AcDbText
 10
885.7164868499033
 20
88.83535787156812
 30
0.0
 40
4.63149225
  1
BRACKET DETAIL
  7
ROMANS
 72
     1
 11
914.3876293499033
 21
88.83535787156812
 31
0.0
100
AcDbText
  0
LINE
  5
93D
330
46E
100
AcDbEntity
  8
0
 62
     7
100
AcDbLine
 10
880.9171265221541
 20
114.8402985060843
 30
0.0
 11
880.9171265221541
 21
130.3938172560844
 31
0.0
  0
LINE
  5
93E
330
46E
100
AcDbEntity
  8
0
 62
     7
100
AcDbLine
 10
882.0396050517988
 20
114.1922352248343
 30
0.0
 11
882.0396050517988
 21
129.7457539748344
 31
0.0
  0
LINE
  5
93F
330
46E
100
AcDbEntity
  8
0
  6
ByBlock
 62
     7
100
AcDbLine
 10
878.8384625783676
 20
111.4027126876813
 30
0.0
 11
876.7597986345808
 21
112.6028298751814
 31
0.0
  0
MTEXT
  5
940
330
46E
100
AcDbEntity
  8
0
  6
ByBlock
 62
     7
100
AcDbMText
 10
869.6907090751432
 20
112.6028298751813
 30
0.0
 40
2.400234375
 41
0.0
 71
     5
 72
     5
  1
\A1;1/4"
  7
ROMANS
 73
     1
 44
1.0
1001
ACAD
1000
MTEXTBEGIN
1070
    73
1070
     1
1070
    44
1040
1.0
1070
    74
1070
     0
1000
MTEXTEND
  0
LINE
  5
941
330
46E
100
AcDbEntity
  8
0
  6
ByBlock
 62
     7
100
AcDbLine
 10
876.7597986345808
 20
112.6028298751814
 30
0.0
 11
874.3595642595808
 21
112.6028298751814
 31
0.0
  0
LINE
  5
942
330
46E
100
AcDbEntity
  8
0
  6
ByBlock
 62
     7
100
AcDbLine
 10
882.0396050517988
 20
111.4206832997854
 30
0.0
 11
882.0396050517988
 21
106.7829802938824
 31
0.0
  0
LINE
  5
943
330
46E
100
AcDbEntity
  8
0
  6
ByBlock
 62
     7
100
AcDbLine
 10
884.1182689955855
 20
108.3544150314313
 30
0.0
 11
886.1969329393721
 21
107.1542978439312
 31
0.0
  0
POINT
  5
944
330
46E
100
AcDbEntity
  8
DEFPOINTS
  6
ByBlock
 62
     7
100
AcDbPoint
 10
880.9171265221541
 20
110.2025955001812
 30
0.0
  0
SOLID
  5
945
330
46E
100
AcDbEntity
  8
0
  6
ByBlock
 62
     7
100
AcDbTrace
 10
879.0384821096175
 20
111.7491566783124
 30
0.0
 11
878.6384430471175
 21
111.0562686970502
 31
0.0
 12
880.9171265221541
 22
110.2025955001812
 32
0.0
 13
880.9171265221541
 23
110.2025955001812
 33
0.0
  0
LINE
  5
946
330
46E
100
AcDbEntity
  8
0
  6
ByBlock
 62
     7
100
AcDbLine
 10
880.9171265221541
 20
112.0687465810354
 30
0.0
 11
880.9171265221541
 21
107.4310435751324
 31
0.0
  0
SOLID
  5
947
330
46E
100
AcDbEntity
  8
0
  6
ByBlock
 62
     7
100
AcDbTrace
 10
884.3182885268355
 20
108.7008590220623
 30
0.0
 11
883.9182494643354
 21
108.0079710408002
 31
0.0
 12
882.0396050517988
 22
109.5545322189313
 32
0.0
 13
882.0396050517988
 23
109.5545322189313
 33
0.0
  0
LINE
  5
948
330
46E
100
AcDbEntity
  8
0
 62
     7
100
AcDbLine
 10
882.0396050517988
 20
114.1922352248343
 30
0.0
 11
880.9171265221541
 21
114.8402985060843
 31
0.0
  0
POINT
  5
949
330
46E
100
AcDbEntity
  8
DEFPOINTS
  6
ByBlock
 62
     7
100
AcDbPoint
 10
880.9171265221541
 20
114.8402985060843
 30
0.0
  0
POINT
  5
94A
330
46E
100
AcDbEntity
  8
DEFPOINTS
  6
ByBlock
 62
     7
100
AcDbPoint
 10
882.0396050517988
 20
114.1922352248343
 30
0.0
  0
MTEXT
  5
94B
330
46E
100
AcDbEntity
  8
0
  6
ByBlock
 62
     7
100
AcDbMText
 10
881.6201574706866
 20
140.7203115223505
 30
0.0
 40
2.618437499999999
 41
0.0
 71
     5
 72
     5
  1
4-1/2"
  7
ROMANS
 73
     1
 44
1.0
1001
ACAD
1000
MTEXTBEGIN
1070
    73
1070
     1
1070
    44
1040
1.0
1070
    74
1070
     0
1000
MTEXTEND
  0
LINE
  5
94C
330
46E
100
AcDbEntity
  8
0
  6
ByBlock
 62
     7
100
AcDbLine
 10
878.2986890221541
 20
131.9055728515656
 30
0.0
 11
871.219117086761
 21
135.9929656142121
 31
0.0
  0
SOLID
  5
94D
330
46E
100
AcDbEntity
  8
0
  6
ByBlock
 62
     7
100
AcDbTrace
 10
871.3517180685393
 20
133.5499301676012
 30
0.0
 11
871.7881243185393
 21
132.7940523698606
 31
0.0
 12
873.8375545867612
 22
134.4812100187309
 32
0.0
 13
873.8375545867612
 23
134.4812100187309
 33
0.0
  0
LINE
  5
94E
330
46E
100
AcDbEntity
  8
0
  6
ByBlock
 62
     7
100
AcDbLine
 10
871.5699211935394
 20
133.1719912687309
 30
0.0
 11
869.3022878003173
 21
131.8627725187309
 31
0.0
  0
POINT
  5
94F
330
46E
100
AcDbEntity
  8
DEFPOINTS
  6
ByBlock
 62
     7
100
AcDbPoint
 10
873.8375545867612
 20
134.4812100187309
 30
0.0
  0
LINE
  5
950
330
46E
100
AcDbEntity
  8
0
 62
     7
100
AcDbLine
 10
882.0396050517988
 20
129.7457539748344
 30
0.0
 11
880.9171265221541
 21
130.3938172560844
 31
0.0
  0
POINT
  5
951
330
46E
100
AcDbEntity
  8
DEFPOINTS
  6
ByBlock
 62
     7
100
AcDbPoint
 10
880.9171265221541
 20
130.3938172560844
 30
0.0
  0
POINT
  5
952
330
46E
100
AcDbEntity
  8
DEFPOINTS
  6
ByBlock
 62
     7
100
AcDbPoint
 10
880.9171265221541
 20
130.3938172560844
 30
0.0
  0
LWPOLYLINE
  5
953
330
46E
100
AcDbEntity
  8
0
 62
     7
100
AcDbPolyline
 90
        7
 70
     0
 43
0.0
 10
889.1821908472703
 20
126.118478130043
 42
0.0283695723264663
 10
889.314124455487
 20
126.1849780223876
 42
0.0723410840577375
 10
889.7752935083094
 20
126.5488642042392
 42
0.0587518675353654
 10
890.2070506580413
 20
127.1275892217889
 42
0.0587518675353444
 10
890.4923626501791
 20
127.7908643904972
 42
0.0723410840576672
 10
890.5769128013373
 20
128.3721915966063
 42
0.0283695723264929
 10
890.5685365933482
 20
128.5196993991071
 42
0.1568512196709102
  0
LWPOLYLINE
  5
954
330
46E
100
AcDbEntity
  8
0
 62
     7
100
AcDbPolyline
 90
       16
 70
     1
 43
0.0
 10
889.5436767825776
 20
127.5105883073612
 42
0.0587518675353646
 10
889.2583647904396
 20
126.8473131386528
 42
0.0723410840576763
 10
889.1738146392812
 20
126.2659859325438
 42
0.106617054391126
 10
889.2896593730245
 20
125.7288865699224
 42
0.1568512196706424
 10
889.5436767825776
 20
125.4484635737167
 42
0.1568512196706761
 10
889.913538925874
 20
125.3686895421433
 42
0.1066170543910004
 10
890.4366029851317
 20
125.5369147411375
 42
0.0723410840577375
 10
890.8977720379541
 20
125.9008009229892
 42
0.0587518675353654
 10
891.329529187686
 20
126.4795259405389
 42
0.0587518675353444
 10
891.6148411798237
 20
127.1428011092472
 42
0.0723410840576672
 10
891.6993913309822
 20
127.7241283153563
 42
0.1066170543911832
 10
891.5835465972389
 20
128.2612276779775
 42
0.1568512196709102
 10
891.329529187686
 20
128.5416506741835
 42
0.1568512196706761
 10
890.9596670443896
 20
128.6214247057568
 42
0.1066170543910004
 10
890.4366029851317
 20
128.4531995067626
 42
0.0723410840577166
 10
889.9754339323093
 20
128.089313324911
 42
0.0587518675353862
  0
SOLID
  5
955
330
46E
100
AcDbEntity
  8
0
 62
     7
100
AcDbTrace
 10
891.5709044506892
 20
124.0006160333905
 30
0.0
 11
892.1978736777756
 21
124.2917523328162
 31
0.0
 12
891.0109801659553
 22
126.0270918643618
 32
0.0
 13
891.0109801659553
 23
126.0270918643618
 33
0.0
  0
DIMENSION
  5
956
330
46E
100
AcDbEntity
  8
0
 62
     7
100
AcDbDimension
  2
*D11
 10
945.9615764193841
 20
123.8789447885414
 30
0.0
 11
926.8794414154227
 21
134.8960205697914
 31
0.0
 70
    33
  1
{8-1/2"}
 71
     5
 42
44.06830312500005
  3
STANDARD$0
100
AcDbAlignedDimension
 13
898.8767829964709
 23
140.7628297560843
 33
0.0
 14
937.041053004394
 24
118.7286781935844
 34
0.0
  0
LINE
  5
957
330
46E
100
AcDbEntity
  8
0
 62
     7
100
AcDbLine
 10
935.918574474749
 20
102.5270961623343
 30
0.0
 11
898.8767829964709
 21
123.9131844435843
 31
0.0
  0
LINE
  5
958
330
46E
100
AcDbEntity
  8
0
 62
     7
100
AcDbLine
 10
937.041053004394
 20
118.7286781935844
 30
0.0
 11
898.8767829964709
 21
140.7628297560844
 31
0.0
  0
LINE
  5
959
330
46E
100
AcDbEntity
  8
0
 62
     7
100
AcDbLine
 10
935.918574474749
 20
118.0806149123343
 30
0.0
 11
898.8767829964709
 21
139.4667031935844
 31
0.0
  0
LINE
  5
95A
330
46E
100
AcDbEntity
  8
0
 62
     7
100
AcDbLine
 10
903.5310498461941
 20
101.9602060031743
 30
0.0
 11
899.3238724645552
 21
101.9602060031743
 31
0.0
  0
MTEXT
  5
95B
330
46E
100
AcDbEntity
  8
0
  6
ByBlock
 62
     7
100
AcDbMText
 10
946.8587897734231
 20
116.1021854135413
 30
0.0
 40
2.618437499999999
 41
0.0
 71
     5
 72
     5
  1
\A1;{3"}
  7
ROMANS
 73
     1
 44
1.0
1001
ACAD
1000
MTEXTBEGIN
1070
    73
1070
     1
1070
    44
1040
1.0
1070
    74
1070
     0
1000
MTEXTEND
  0
LINE
  5
95C
330
46E
100
AcDbEntity
  8
0
  6
ByBlock
 62
     7
100
AcDbLine
 10
939.6594905043938
 20
104.6869150390656
 30
0.0
 11
948.5800139193841
 21
109.8371816340225
 31
0.0
  0
LINE
  5
95D
330
46E
100
AcDbEntity
  8
0
 62
     7
100
AcDbLine
 10
937.041053004394
 20
103.1751594435843
 30
0.0
 11
937.041053004394
 21
118.7286781935844
 31
0.0
  0
LINE
  5
95E
330
46E
100
AcDbEntity
  8
0
 62
     7
100
AcDbLine
 10
935.918574474749
 20
102.5270961623343
 30
0.0
 11
935.918574474749
 21
118.0806149123343
 31
0.0
  0
LINE
  5
95F
330
46E
100
AcDbEntity
  8
0
 62
     7
100
AcDbLine
 10
935.918574474749
 20
102.5270961623343
 30
0.0
 11
937.041053004394
 21
103.1751594435843
 31
0.0
  0
POINT
  5
960
330
46E
100
AcDbEntity
  8
DEFPOINTS
  6
ByBlock
 62
     7
100
AcDbPoint
 10
937.041053004394
 20
103.1751594435843
 30
0.0
  0
POINT
  5
961
330
46E
100
AcDbEntity
  8
DEFPOINTS
  6
ByBlock
 62
     7
100
AcDbPoint
 10
937.041053004394
 20
103.1751594435843
 30
0.0
  0
LINE
  5
962
330
46E
100
AcDbEntity
  8
0
 62
     7
100
AcDbLine
 10
935.918574474749
 20
118.0806149123343
 30
0.0
 11
937.041053004394
 21
118.7286781935844
 31
0.0
  0
POINT
  5
963
330
46E
100
AcDbEntity
  8
DEFPOINTS
  6
ByBlock
 62
     7
100
AcDbPoint
 10
937.041053004394
 20
118.7286781935844
 30
0.0
  0
POINT
  5
964
330
46E
100
AcDbEntity
  8
DEFPOINTS
  6
ByBlock
 62
     7
100
AcDbPoint
 10
937.041053004394
 20
118.7286781935844
 30
0.0
  0
POINT
  5
965
330
46E
100
AcDbEntity
  8
DEFPOINTS
  6
ByBlock
 62
     7
100
AcDbPoint
 10
937.041053004394
 20
118.7286781935844
 30
0.0
  0
SOLID
  5
966
330
46E
100
AcDbEntity
  8
0
  6
ByBlock
 62
     7
100
AcDbTrace
 10
946.3979826693842
 20
105.7069885385413
 30
0.0
 11
945.5251701693841
 21
105.7069885385413
 31
0.0
 12
945.9615764193841
 22
108.3254260385413
 32
0.0
 13
945.9615764193841
 23
108.3254260385413
 33
0.0
  0
LINE
  5
967
330
46E
100
AcDbEntity
  8
0
  6
ByBlock
 62
     7
100
AcDbLine
 10
945.9615764193841
 20
103.8480099873459
 30
0.0
 11
945.9615764193841
 21
105.7069885385413
 31
0.0
  0
POINT
  5
968
330
46E
100
AcDbEntity
  8
DEFPOINTS
  6
ByBlock
 62
     7
100
AcDbPoint
 10
945.9615764193841
 20
108.3254260385413
 30
0.0
  0
LINE
  5
969
330
46E
100
AcDbEntity
  8
0
 62
     7
100
AcDbLine
 10
898.8767829964709
 20
139.4667031935844
 30
0.0
 11
898.8767829964709
 21
123.9131844435843
 31
0.0
  0
POINT
  5
96A
330
46E
100
AcDbEntity
  8
DEFPOINTS
  6
ByBlock
 62
     7
100
AcDbPoint
 10
898.8767829964709
 20
140.7628297560844
 30
0.0
  0
POINT
  5
96B
330
46E
100
AcDbEntity
  8
DEFPOINTS
  6
ByBlock
 62
     7
100
AcDbPoint
 10
898.8767829964709
 20
140.7628297560844
 30
0.0
  0
POINT
  5
96C
330
46E
100
AcDbEntity
  8
DEFPOINTS
  6
ByBlock
 62
     7
100
AcDbPoint
 10
898.8767829964709
 20
140.7628297560844
 30
0.0
  0
LINE
  5
96D
330
46E
100
AcDbEntity
  8
0
  6
ByBlock
 62
     7
100
AcDbLine
 10
945.9615764193843
 20
126.4973822885414
 30
0.0
 11
945.9615764193843
 21
128.9677503533463
 31
0.0
  0
SOLID
  5
96E
330
46E
100
AcDbEntity
  8
0
  6
ByBlock
 62
     7
100
AcDbTrace
 10
946.3979826693844
 20
126.4973822885414
 30
0.0
 11
945.5251701693844
 21
126.4973822885414
 31
0.0
 12
945.9615764193843
 22
123.8789447885414
 32
0.0
 13
945.9615764193843
 23
123.8789447885414
 33
0.0
  0
LINE
  5
99C
330
46E
100
AcDbEntity
  8
0
 62
     7
100
AcDbLine
 10
754.3617939317214
 20
95.8893001321724
 30
0.0
 11
754.3617939317214
 21
92.88930013217237
 31
0.0
  0
CIRCLE
  5
99E
330
46E
100
AcDbEntity
  8
0
100
AcDbCircle
 10
752.7691155462219
 20
94.42565781325276
 30
0.0
 40
0.28125
  0
LINE
  5
99F
330
46E
100
AcDbEntity
  8
0
 62
     7
100
AcDbLine
 10
771.9867939317214
 20
95.8893001321724
 30
0.0
 11
771.9867939317214
 21
92.88930013217237
 31
0.0
  0
LINE
  5
9A0
330
46E
100
AcDbEntity
  8
0
 62
     7
100
AcDbLine
 10
775.1742939317214
 20
92.88930013217239
 30
0.0
 11
771.9867939317214
 21
92.88930013217239
 31
0.0
  0
LINE
  5
9A1
330
46E
100
AcDbEntity
  8
0
 62
     7
100
AcDbLine
 10
775.1742939317214
 20
95.8893001321724
 30
0.0
 11
771.9867939317214
 21
95.8893001321724
 31
0.0
  0
CIRCLE
  5
9A2
330
46E
100
AcDbEntity
  8
0
100
AcDbCircle
 10
773.5794723172209
 20
94.42565781325276
 30
0.0
 40
0.28125
  0
LINE
  5
9A3
330
46E
100
AcDbEntity
  8
0
 62
     7
100
AcDbLine
 10
754.3617939317214
 20
69.88930013217234
 30
0.0
 11
754.3617939317214
 21
66.88930013217232
 31
0.0
  0
LINE
  5
9A4
330
46E
100
AcDbEntity
  8
0
 62
     7
100
AcDbLine
 10
751.1742939317214
 20
66.88930013217234
 30
0.0
 11
754.3617939317214
 21
66.88930013217234
 31
0.0
  0
LINE
  5
9A5
330
46E
100
AcDbEntity
  8
0
 62
     7
100
AcDbLine
 10
751.1742939317214
 20
69.88930013217234
 30
0.0
 11
754.3617939317214
 21
69.88930013217234
 31
0.0
  0
CIRCLE
  5
9A6
330
46E
100
AcDbEntity
  8
0
100
AcDbCircle
 10
752.7691155462219
 20
68.42565781325271
 30
0.0
 40
0.28125
  0
LINE
  5
9A7
330
46E
100
AcDbEntity
  8
0
 62
     7
100
AcDbLine
 10
771.9867939317214
 20
69.88930013217234
 30
0.0
 11
771.9867939317214
 21
66.88930013217232
 31
0.0
  0
LINE
  5
9A8
330
46E
100
AcDbEntity
  8
0
 62
     7
100
AcDbLine
 10
775.1742939317214
 20
66.88930013217234
 30
0.0
 11
771.9867939317214
 21
66.88930013217234
 31
0.0
  0
LINE
  5
9A9
330
46E
100
AcDbEntity
  8
0
 62
     7
100
AcDbLine
 10
775.1742939317214
 20
69.88930013217234
 30
0.0
 11
771.9867939317214
 21
69.88930013217234
 31
0.0
  0
CIRCLE
  5
9AA
330
46E
100
AcDbEntity
  8
0
100
AcDbCircle
 10
773.5794723172209
 20
68.42565781325271
 30
0.0
 40
0.28125
  0
LINE
  5
9AB
330
46E
100
AcDbEntity
  8
0
 62
     7
100
AcDbLine
 10
754.3617939317214
 20
143.8893001321724
 30
0.0
 11
754.3617939317214
 21
140.8893001321724
 31
0.0
  0
LINE
  5
9AC
330
46E
100
AcDbEntity
  8
0
 62
     7
100
AcDbLine
 10
751.1742939317214
 20
140.8893001321724
 30
0.0
 11
754.3617939317214
 21
140.8893001321724
 31
0.0
  0
LINE
  5
9AD
330
46E
100
AcDbEntity
  8
0
 62
     7
100
AcDbLine
 10
751.1742939317214
 20
143.8893001321724
 30
0.0
 11
754.3617939317214
 21
143.8893001321724
 31
0.0
  0
CIRCLE
  5
9AE
330
46E
100
AcDbEntity
  8
0
100
AcDbCircle
 10
752.7691155462219
 20
142.4256578132528
 30
0.0
 40
0.28125
  0
LINE
  5
9AF
330
46E
100
AcDbEntity
  8
0
 62
     7
100
AcDbLine
 10
771.9867939317214
 20
143.8893001321724
 30
0.0
 11
771.9867939317214
 21
140.8893001321724
 31
0.0
  0
LINE
  5
9B0
330
46E
100
AcDbEntity
  8
0
 62
     7
100
AcDbLine
 10
775.1742939317214
 20
140.8893001321724
 30
0.0
 11
771.9867939317214
 21
140.8893001321724
 31
0.0
  0
LINE
  5
9B1
330
46E
100
AcDbEntity
  8
0
 62
     7
100
AcDbLine
 10
775.1742939317214
 20
143.8893001321724
 30
0.0
 11
771.9867939317214
 21
143.8893001321724
 31
0.0
  0
CIRCLE
  5
9B2
330
46E
100
AcDbEntity
  8
0
100
AcDbCircle
 10
773.5794723172209
 20
142.4256578132528
 30
0.0
 40
0.28125
  0
TEXT
  5
D60
330
46E
100
AcDbEntity
  8
0
 62
     7
100
AcDbText
 10
553.5784654548431
 20
20.83732781505778
 30
0.0
 40
2.32006371539574
  1
Ph: (423) 586-2265 Fax: (423) 586-2091
  7
CAT_BORDER$0$ROMANS
100
AcDbText
  0
TEXT
  5
D61
330
46E
100
AcDbEntity
  8
0
 62
     7
100
AcDbText
 10
552.2789307174932
 20
24.59362144950791
 30
0.0
 40
2.32006371539574
  1
P.O. BOX 2279 Morristown, TN 37816-2279
  7
CAT_BORDER$0$ROMANS
100
AcDbText
  0
POLYLINE
  5
D62
330
46E
100
AcDbEntity
  8
0
 62
     7
100
AcDb2dPolyline
 66
     1
 10
0.0
 20
0.0
 30
0.0
1001
ACAD
1000
ASC_BOUNDS
1002
{
1070
    19
1002
}
  0
VERTEX
  5
D63
330
D62
100
AcDbEntity
  8
0
 62
     7
100
AcDbVertex
100
AcDb2dVertex
 10
543.6225287173178
 20
25.54059319821917
 30
0.0
  0
VERTEX
  5
D64
330
D62
100
AcDbEntity
  8
0
 62
     7
100
AcDbVertex
100
AcDb2dVertex
 10
543.9936173164191
 20
25.72967497644479
 30
0.0
1001
ACAD
1000
ASC_BOUNDS
1002
{
1070
    19
1002
}
  0
VERTEX
  5
D65
330
D62
100
AcDbEntity
  8
0
 62
     7
100
AcDbVertex
100
AcDb2dVertex
 10
546.4900572215594
 20
20.73408360173161
 30
0.0
1001
ACAD
1000
ASC_BOUNDS
1002
{
1070
    19
1002
}
  0
VERTEX
  5
D66
330
D62
100
AcDbEntity
  8
0
 62
     7
100
AcDbVertex
100
AcDb2dVertex
 10
545.6878988260807
 20
20.73914498616291
 30
0.0
  0
VERTEX
  5
D67
330
D62
100
AcDbEntity
  8
0
 62
     7
100
AcDbVertex
100
AcDb2dVertex
 10
543.3562737903476
 20
25.40492760467933
 30
0.0
  0
SEQEND
  5
D68
330
D62
100
AcDbEntity
  8
0
 62
     7
  0
TEXT
  5
D69
330
46E
100
AcDbEntity
  8
0
 62
     7
100
AcDbText
 10
544.0274918521247
 20
28.53969318830968
 30
0.0
 40
3.792347262225233
  1
Precision Ladders, LLC
  7
CAT_BORDER$0$STYLE1
100
AcDbText
  0
CIRCLE
  5
D6A
330
46E
100
AcDbEntity
  8
0
100
AcDbCircle
 10
541.0951996792719
 20
27.98368422896452
 30
0.0
 40
10.40020827141569
1001
ACAD
1000
ASC_BOUNDS
1002
{
1070
    19
1002
}
  0
INSERT
  5
D6B
330
46E
100
AcDbEntity
  8
0
100
AcDbBlockReference
  2
*X20
 10
572.2568154665869
 20
261.3510756553963
 30
0.0
 41
0.8415101198801266
 42
0.8415101198802261
 43
0.8415101198802242
1001
ACAD
1000
HATCH
1002
{
1070
    19
1000
ANSI31
1040
0.8843871093750001
1040
0.0
1002
}
  0
LWPOLYLINE
  5
D6C
330
46E
100
AcDbEntity
  8
0
 62
     7
100
AcDbPolyline
 90
        4
 70
     1
 43
0.0
 10
534.1921784231033
 20
33.29545103076673
 10
534.1921784231033
 20
34.04840835864864
 10
542.2111739650447
 20
34.04840835864864
 10
542.2111739650447
 20
33.29545103076673
1001
ACAD
1000
ASC_BOUNDS
1002
{
1070
    19
1005
0
1005
0
1002
}
  0
LINE
  5
D6D
330
46E
100
AcDbEntity
  8
0
 62
     7
100
AcDbLine
 10
534.4719837673108
 20
33.21418399129046
 30
0.0
 11
537.8048796345951
 21
26.67300754840351
 31
0.0
1001
ACAD
1000
ASC_BOUNDS
1002
{
1070
    19
1002
}
  0
LWPOLYLINE
  5
D6E
330
46E
100
AcDbEntity
  8
0
 62
     7
100
AcDbPolyline
 90
        4
 70
     0
 43
0.0
 10
534.3025069578081
 20
33.29214931441625
 10
537.8316163869203
 20
26.36588207376334
 10
537.8155150295224
 20
26.35767802239776
 10
534.2864056004102
 20
33.2839452630506
1001
ACAD
1000
ASC_BOUNDS
1002
{
1070
    19
1002
}
  0
LINE
  5
D6F
330
46E
100
AcDbEntity
  8
0
 62
     7
100
AcDbLine
 10
534.3713502835742
 20
33.16290867025528
 30
0.0
 11
534.4719837673108
 21
33.21418399129046
 31
0.0
1001
ACAD
1000
ASC_BOUNDS
1002
{
1070
    19
1002
}
  0
LINE
  5
D70
330
46E
100
AcDbEntity
  8
0
 62
     7
100
AcDbLine
 10
534.4719837673108
 20
33.21418399129046
 30
0.0
 11
534.6314793127382
 21
33.29545103076673
 31
0.0
1001
ACAD
1000
ASC_BOUNDS
1002
{
1070
    19
1002
}
  0
LINE
  5
D71
330
46E
100
AcDbEntity
  8
0
 62
     7
100
AcDbLine
 10
534.4719837673108
 20
33.21418399129046
 30
0.0
 11
534.6770850514515
 21
32.81165005634362
 31
0.0
1001
ACAD
1000
ASC_BOUNDS
1002
{
1070
    19
1002
}
  0
LINE
  5
D72
330
46E
100
AcDbEntity
  8
0
 62
     7
100
AcDbLine
 10
537.6066177327493
 20
30.57880434709951
 30
0.0
 11
536.8306003949917
 21
29.0022769387158
 31
0.0
1001
ACAD
1000
ASC_BOUNDS
1002
{
1070
    19
1005
0
1002
}
  0
LWPOLYLINE
  5
D73
330
46E
100
AcDbEntity
  8
0
 62
     7
100
AcDbPolyline
 90
        2
 70
     0
 43
0.0
 10
537.4245721693153
 20
30.58889624963125
 10
536.6802448793881
 20
29.07674914120612
1001
ACAD
1000
ASC_BOUNDS
1002
{
1070
    19
1005
0
1002
}
  0
LINE
  5
D74
330
46E
100
AcDbEntity
  8
0
 62
     7
100
AcDbLine
 10
535.9516909193141
 20
33.29545103076673
 30
0.0
 11
537.3784706479489
 21
30.49523814630582
 31
0.0
1001
ACAD
1000
ASC_BOUNDS
1002
{
1070
    19
1002
}
  0
LINE
  5
D75
330
46E
100
AcDbEntity
  8
0
 62
     7
100
AcDbLine
 10
535.8249313545789
 20
33.29545103076673
 30
0.0
 11
537.3161849937446
 21
30.36870097216722
 31
0.0
1001
ACAD
1000
ASC_BOUNDS
1002
{
1070
    19
1002
}
  0
LINE
  5
D76
330
46E
100
AcDbEntity
  8
0
 62
     7
100
AcDbLine
 10
535.6946153757248
 20
32.39023882392956
 30
0.0
 11
537.0255186074573
 21
29.77819415952088
 31
0.0
1001
ACAD
1000
ASC_BOUNDS
1002
{
1070
    19
1002
}
  0
LINE
  5
D77
330
46E
100
AcDbEntity
  8
0
 62
     7
100
AcDbLine
 10
538.2771548711539
 20
26.30051330836008
 30
0.0
 11
543.3562737903476
 21
25.40492760467933
 31
0.0
1001
ACAD
1000
ASC_BOUNDS
1002
{
1070
    19
1002
}
  0
POLYLINE
  5
D78
330
46E
100
AcDbEntity
  8
0
 62
     7
100
AcDb2dPolyline
 66
     1
 10
0.0
 20
0.0
 30
0.0
1001
ACAD
1000
ASC_BOUNDS
1002
{
1070
    19
1002
}
  0
VERTEX
  5
D79
330
D78
100
AcDbEntity
  8
0
 62
     7
100
AcDbVertex
100
AcDb2dVertex
 10
538.3990660349691
 20
26.81459839387803
 30
0.0
  0
VERTEX
  5
D7A
330
D78
100
AcDbEntity
  8
0
 62
     7
100
AcDbVertex
100
AcDb2dVertex
 10
538.4422250315944
 20
26.99775124829292
 30
0.0
1001
ACAD
1000
ASC_BOUNDS
1002
{
1070
    19
1002
}
  0
VERTEX
  5
D7B
330
D78
100
AcDbEntity
  8
0
 62
     7
100
AcDbVertex
100
AcDb2dVertex
 10
543.4993047781335
 20
26.1060516453836
 30
0.0
1001
ACAD
1000
ASC_BOUNDS
1002
{
1070
    19
1002
}
  0
VERTEX
  5
D7C
330
D78
100
AcDbEntity
  8
0
 62
     7
100
AcDbVertex
100
AcDb2dVertex
 10
543.4106639020639
 20
25.67154266125657
 30
0.0
  0
SEQEND
  5
D7D
330
D78
100
AcDbEntity
  8
0
 62
     7
  0
LINE
  5
D7E
330
46E
100
AcDbEntity
  8
0
 62
     7
100
AcDbLine
 10
537.4113057626147
 20
30.18201595189119
 30
0.0
 11
538.8697347666391
 21
27.31968786705961
 31
0.0
1001
ACAD
1000
ASC_BOUNDS
1002
{
1070
    19
1005
0
1002
}
  0
LWPOLYLINE
  5
D7F
330
46E
100
AcDbEntity
  8
0
 62
     7
100
AcDbPolyline
 90
        2
 70
     0
 43
0.0
 10
537.4735914168191
 20
30.30855312602974
 10
538.9670094360378
 20
27.3775552324002
1001
ACAD
1000
ASC_BOUNDS
1002
{
1070
    19
1002
}
  0
LWPOLYLINE
  5
D80
330
46E
100
AcDbEntity
  8
0
 62
     7
100
AcDbPolyline
 90
        3
 70
     0
 43
0.0
 10
536.6815966743765
 20
28.8890492783959
 10
536.9522980997437
 20
29.02107918531867
 10
536.8951062304224
 20
29.1333245488779
1001
ACAD
1000
ASC_BOUNDS
1002
{
1070
    19
1002
}
  0
CIRCLE
  5
D81
330
46E
100
AcDbEntity
  8
0
 62
     7
100
AcDbCircle
 10
536.7889339198864
 20
29.10541863391028
 30
0.0
 40
0.0282358997955687
1001
ACAD
1000
ASC_BOUNDS
1002
{
1070
    19
1002
}
  0
LINE
  5
D82
330
46E
100
AcDbEntity
  8
0
 62
     7
100
AcDbLine
 10
536.7752595807549
 20
29.26977740696229
 30
0.0
 11
536.5448624849496
 21
29.15740523502717
 31
0.0
1001
ACAD
1000
ASC_BOUNDS
1002
{
1070
    19
1002
}
  0
LINE
  5
D83
330
46E
100
AcDbEntity
  8
0
 62
     7
100
AcDbLine
 10
536.5081101042449
 20
29.21353125495349
 30
0.0
 11
536.7132113883855
 21
28.81099732000667
 31
0.0
1001
ACAD
1000
ASC_BOUNDS
1002
{
1070
    19
1002
}
  0
LINE
  5
D84
330
46E
100
AcDbEntity
  8
0
 62
     7
100
AcDbLine
 10
536.8304820181029
 20
29.00211026049298
 30
0.0
 11
536.679954421844
 21
29.07623402713202
 31
0.0
1001
ACAD
1000
ASC_BOUNDS
1002
{
1070
    19
1002
}
  0
LWPOLYLINE
  5
D85
330
46E
100
AcDbEntity
  8
0
 62
     1
100
AcDbPolyline
 90
        2
 70
     1
 43
0.0
 10
536.817169819682
 20
29.10541863391028
 42
-1.0
 10
536.760698020091
 20
29.10541863391028
 42
-1.0
1001
ACAD
1000
ASC_BOUNDS
1002
{
1070
    19
1002
}
  0
LINE
  5
D86
330
46E
100
AcDbEntity
  8
0
 62
     7
100
AcDbLine
 10
538.9678170473921
 20
27.37804049425846
 30
0.0
 11
538.8710054873495
 21
27.31987024036225
 31
0.0
1001
ACAD
1000
ASC_BOUNDS
1002
{
1070
    19
1002
}
  0
LINE
  5
D87
330
46E
100
AcDbEntity
  8
0
 62
     7
100
AcDbLine
 10
538.1892935332626
 20
26.86887621291383
 30
0.0
 11
537.7018708809185
 21
26.62052196688466
 31
0.0
1001
ACAD
1000
ASC_BOUNDS
1002
{
1070
    19
1002
}
  0
POLYLINE
  5
D88
330
46E
100
AcDbEntity
  8
0
 62
     7
100
AcDb2dPolyline
 66
     1
 10
0.0
 20
0.0
 30
0.0
1001
ACAD
1000
ASC_BOUNDS
1002
{
1070
    19
1002
}
  0
VERTEX
  5
D89
330
D88
100
AcDbEntity
  8
0
 62
     7
100
AcDbVertex
100
AcDb2dVertex
 10
538.2778939096665
 20
26.30038299593035
 30
0.0
  0
VERTEX
  5
D8A
330
D88
100
AcDbEntity
  8
0
 62
     7
100
AcDbVertex
100
AcDb2dVertex
 10
538.3787425034906
 20
26.72835188461869
 30
0.0
1001
ACAD
1000
ASC_BOUNDS
1002
{
1070
    19
1002
}
  0
SEQEND
  5
D8B
330
D88
100
AcDbEntity
  8
0
 62
     7
  0
LINE
  5
D8C
330
46E
100
AcDbEntity
  8
0
 62
     7
100
AcDbLine
 10
537.1206393763272
 20
29.59150913924469
 30
0.0
 11
538.041372397317
 21
27.7844688394852
 31
0.0
1001
ACAD
1000
ASC_BOUNDS
1002
{
1070
    19
1002
}
  0
LINE
  5
D8D
330
46E
100
AcDbEntity
  8
0
 62
     7
100
AcDbLine
 10
538.0953482297395
 20
27.67853530372936
 30
0.0
 11
538.4422250315944
 21
26.99775124829292
 31
0.0
1001
ACAD
1000
ASC_BOUNDS
1002
{
1070
    19
1002
}
  0
LWPOLYLINE
  5
D8E
330
46E
100
AcDbEntity
  8
0
 62
     7
100
AcDbPolyline
 90
        4
 70
     0
 43
0.0
 10
538.5691478861142
 20
27.90962283659466
 10
537.7890079415355
 20
27.52912316198159
 10
537.7377326205003
 20
27.62975664571837
 10
538.5109953214216
 20
28.02375367098255
1001
ACAD
1000
ASC_BOUNDS
1002
{
1070
    19
1005
0
1002
}
  0
LWPOLYLINE
  5
D8F
330
46E
100
AcDbEntity
  8
0
 62
     7
100
AcDbPolyline
 90
        5
 70
     0
 43
0.0
 10
538.4422250316304
 20
26.99775124844958
 10
538.4625576382022
 20
26.95173406791328
 10
538.7130731039758
 20
26.44562299678906
 10
538.5443694136013
 20
26.36211784153139
 10
538.3318757397717
 20
26.83198362146526
1001
ACAD
1000
ASC_BOUNDS
1002
{
1070
    19
1002
}
  0
POLYLINE
  5
D90
330
46E
100
AcDbEntity
  8
0
 62
     7
100
AcDb2dPolyline
 66
     1
 10
0.0
 20
0.0
 30
0.0
 70
     1
1001
ACAD
1000
ASC_BOUNDS
1002
{
1070
    19
1002
}
  0
VERTEX
  5
D91
330
D90
100
AcDbEntity
  8
0
 62
     7
100
AcDbVertex
100
AcDb2dVertex
 10
537.807407811606
 20
26.9654289552872
 30
0.0
1001
ACAD
1000
ASC_BOUNDS
1002
{
1070
    19
1002
}
  0
VERTEX
  5
D92
330
D90
100
AcDbEntity
  8
0
 62
     7
100
AcDbVertex
100
AcDb2dVertex
 10
537.8423138191472
 20
27.13306873332202
 30
0.0
  0
VERTEX
  5
D93
330
D90
100
AcDbEntity
  8
0
 62
     7
100
AcDbVertex
100
AcDb2dVertex
 10
537.8909078352696
 20
27.120045009138
 30
0.0
  0
VERTEX
  5
D94
330
D90
100
AcDbEntity
  8
0
 62
     7
100
AcDbVertex
100
AcDb2dVertex
 10
538.4422250316304
 20
26.99775124844958
 30
0.0
  0
VERTEX
  5
D95
330
D90
100
AcDbEntity
  8
0
 62
     7
100
AcDbVertex
100
AcDb2dVertex
 10
538.401460444734
 20
26.81397884966283
 30
0.0
  0
VERTEX
  5
D96
330
D90
100
AcDbEntity
  8
0
 62
     7
100
AcDbVertex
100
AcDb2dVertex
 10
537.8547470866115
 20
26.9554388049729
 30
0.0
  0
SEQEND
  5
D97
330
D90
100
AcDbEntity
  8
0
 62
     7
  0
LWPOLYLINE
  5
D98
330
46E
100
AcDbEntity
  8
0
 62
     7
100
AcDbPolyline
 90
        5
 70
     0
 43
0.0
 10
543.3562737903476
 20
25.40492760467933
 10
543.333960712649
 20
25.45001776278683
 10
543.0616888196211
 20
25.94476459822216
 10
543.2266044314331
 20
26.03552189589795
 10
543.4593154085453
 20
25.57533387595186
1001
ACAD
1000
ASC_BOUNDS
1002
{
1070
    19
1002
}
  0
LINE
  5
D99
330
46E
100
AcDbEntity
  8
0
 62
     7
100
AcDbLine
 10
543.3938785323664
 20
25.58926240570389
 30
0.0
 11
543.3562737903476
 21
25.40492760467933
 31
0.0
1001
ACAD
1000
ASC_BOUNDS
1002
{
1070
    19
1002
}
  0
POLYLINE
  5
D9A
330
46E
100
AcDbEntity
  8
0
 62
     7
100
AcDb2dPolyline
 66
     1
 10
0.0
 20
0.0
 30
0.0
 70
     1
1001
ACAD
1000
ASC_BOUNDS
1002
{
1070
    19
1002
}
  0
VERTEX
  5
D9B
330
D9A
100
AcDbEntity
  8
0
 62
     7
100
AcDbVertex
100
AcDb2dVertex
 10
543.9890867861093
 20
25.46480536240317
 30
0.0
1001
ACAD
1000
ASC_BOUNDS
1002
{
1070
    19
1002
}
  0
VERTEX
  5
D9C
330
D9A
100
AcDbEntity
  8
0
 62
     7
100
AcDbVertex
100
AcDb2dVertex
 10
543.9614985416885
 20
25.29580709817601
 30
0.0
  0
VERTEX
  5
D9D
330
D9A
100
AcDbEntity
  8
0
 62
     7
100
AcDbVertex
100
AcDb2dVertex
 10
543.912384482004
 20
25.30670686587271
 30
0.0
  0
VERTEX
  5
D9E
330
D9A
100
AcDbEntity
  8
0
 62
     7
100
AcDbVertex
100
AcDb2dVertex
 10
543.3562737903476
 20
25.40492760467933
 30
0.0
  0
VERTEX
  5
D9F
330
D9A
100
AcDbEntity
  8
0
 62
     7
100
AcDbVertex
100
AcDb2dVertex
 10
543.3890140366165
 20
25.59029783523139
 30
0.0
  0
VERTEX
  5
DA0
330
D9A
100
AcDbEntity
  8
0
 62
     7
100
AcDbVertex
100
AcDb2dVertex
 10
543.9413581063149
 20
25.4727289465954
 30
0.0
  0
SEQEND
  5
DA1
330
D9A
100
AcDbEntity
  8
0
 62
     7
  0
LINE
  5
DA2
330
46E
100
AcDbEntity
  8
0
 62
     1
100
AcDbLine
 10
543.4993047781335
 20
26.1060516453836
 30
0.0
 11
543.4106639020639
 21
25.67154266125657
 31
0.0
1001
ACAD
1000
ASC_BOUNDS
1002
{
1070
    19
1002
}
  0
LINE
  5
DA3
330
46E
100
AcDbEntity
  8
0
 62
     1
100
AcDbLine
 10
543.4106639020639
 20
25.67154266125657
 30
0.0
 11
543.4593154085453
 21
25.57533387595186
 31
0.0
1001
ACAD
1000
ASC_BOUNDS
1002
{
1070
    19
1002
}
  0
LINE
  5
DA4
330
46E
100
AcDbEntity
  8
0
 62
     1
100
AcDbLine
 10
543.4593154085453
 20
25.57533387595186
 30
0.0
 11
543.6225287173181
 21
25.54059319821917
 31
0.0
  0
LINE
  5
DA5
330
46E
100
AcDbEntity
  8
0
 62
     1
100
AcDbLine
 10
543.6225287173181
 20
25.54059319821917
 30
0.0
 11
543.9936173164191
 21
25.72967497644479
 31
0.0
1001
ACAD
1000
ASC_BOUNDS
1002
{
1070
    19
1002
}
  0
LINE
  5
DA6
330
46E
100
AcDbEntity
  8
0
 62
     7
100
AcDbLine
 10
535.2333867191484
 20
33.29545103076673
 30
0.0
 11
535.6460216267151
 21
32.48560942623811
 31
0.0
1001
ACAD
1000
ASC_BOUNDS
1002
{
1070
    19
1002
}
  0
LWPOLYLINE
  5
DA7
330
46E
100
AcDbEntity
  8
0
 62
     7
100
AcDbPolyline
 90
        4
 70
     0
 43
0.0
 10
536.11982128309
 20
32.71669695910342
 10
535.342715670431
 20
32.3376772270521
 10
535.3922268855269
 20
32.23616419253952
 10
536.1642382998297
 20
32.62952365542681
1001
ACAD
1000
ASC_BOUNDS
1002
{
1070
    19
1002
}
  0
LINE
  5
DA8
330
46E
100
AcDbEntity
  8
0
 62
     7
100
AcDbLine
 10
538.6442083075698
 20
33.29545103076673
 30
0.0
 11
537.679877671243
 21
31.55250535710549
 31
0.0
1001
ACAD
1000
ASC_BOUNDS
1002
{
1070
    19
1002
}
  0
LINE
  5
DA9
330
46E
100
AcDbEntity
  8
0
 62
     7
100
AcDbLine
 10
538.4290782781993
 20
33.29545103076673
 30
0.0
 11
537.7105968884116
 21
31.99685697727192
 31
0.0
1001
ACAD
1000
ASC_BOUNDS
1002
{
1070
    19
1002
}
  0
CIRCLE
  5
DAA
330
46E
100
AcDbEntity
  8
0
 62
     7
100
AcDbCircle
 10
537.5231478264531
 20
30.6247882983392
 30
0.0
 40
0.0282358997955687
1001
ACAD
1000
ASC_BOUNDS
1002
{
1070
    19
1002
}
  0
LWPOLYLINE
  5
DAB
330
46E
100
AcDbEntity
  8
0
 62
     1
100
AcDbPolyline
 90
        2
 70
     1
 43
0.0
 10
537.5513837262485
 20
30.6247882983392
 42
-1.0
 10
537.4949119266573
 20
30.6247882983392
 42
-1.0
1001
ACAD
1000
ASC_BOUNDS
1002
{
1070
    19
1002
}
  0
LINE
  5
DAC
330
46E
100
AcDbEntity
  8
0
 62
     1
100
AcDbLine
 10
537.6123621808187
 20
30.57589786767263
 30
0.0
 11
537.6051870703865
 21
30.57589786767263
 31
0.0
  0
LINE
  5
DAD
330
46E
100
AcDbEntity
  8
0
 62
     7
100
AcDbLine
 10
537.800372172067
 20
33.29545103076673
 30
0.0
 11
537.6114646656863
 21
30.56291536551083
 31
0.0
1001
ACAD
1000
ASC_BOUNDS
1002
{
1070
    19
1005
0
1002
}
  0
LWPOLYLINE
  5
DAE
330
46E
100
AcDbEntity
  8
0
 62
     7
100
AcDbPolyline
 90
        3
 70
     0
 43
0.0
 10
537.611683547618
 20
33.29545103076673
 10
537.4236735563697
 20
30.57589786767263
 10
537.6119128883401
 20
30.57589786767263
1001
ACAD
1000
ASC_BOUNDS
1002
{
1070
    19
1005
0
1002
}
  0
TEXT
  5
DAF
330
46E
100
AcDbEntity
  8
0
 62
     7
100
AcDbText
 10
564.1461700925958
 20
16.64479494400037
 30
0.0
 40
2.668073272705102
  1
www.PrecisionLadders.com
  7
CAT_BORDER$0$ROMANS
100
AcDbText
  0
LWPOLYLINE
  5
DB0
330
46E
100
AcDbEntity
  8
0
 62
     7
100
AcDbPolyline
 90
        9
 70
     0
 43
0.0
 10
546.2273965468653
 20
20.63139043469485
 10
546.2277528602808
 20
20.68786111018058
 10
546.0583408338238
 20
20.68893005042737
 10
545.9453994828525
 20
20.68964267725843
 10
545.9450431694367
 20
20.63317200177286
 42
0.4142135623730939
 10
545.9637479567934
 20
20.61422967213895
 10
546.2084542172314
 20
20.61268564733811
 42
0.4142135623730989
 10
546.2273965468653
 20
20.63139043469485
 42
-0.4142135623730944
 10
546.2084542172314
 20
20.61268564733811
1001
ACAD
1000
ASC_BOUNDS
1002
{
1070
    19
1002
}
  0
LINE
  5
DB1
330
46E
100
AcDbEntity
  8
0
 62
     7
100
AcDbLine
 10
546.140742809682
 20
20.73628767331631
 30
0.0
 11
546.1400741407831
 21
20.68841433720944
 31
0.0
1001
ACAD
1000
ASC_BOUNDS
1002
{
1070
    19
1002
}
  0
LINE
  5
DB2
330
46E
100
AcDbEntity
  8
0
 62
     7
100
AcDbLine
 10
546.0372132379584
 20
20.73694091457821
 30
0.0
 11
546.140742809682
 21
20.73628767331631
 31
0.0
1001
ACAD
1000
ASC_BOUNDS
1002
{
1070
    19
1002
}
  0
LINE
  5
DB3
330
46E
100
AcDbEntity
  8
0
 62
     7
100
AcDbLine
 10
546.0369492394652
 20
20.695100858643
 30
0.0
 11
546.0372132379584
 21
20.73694091457821
 31
0.0
1001
ACAD
1000
ASC_BOUNDS
1002
{
1070
    19
1002
}
  0
TEXT
  5
DB4
330
46E
100
AcDbEntity
  8
0
100
AcDbText
 10
637.2196673200979
 20
16.30168640655038
 30
0.0
 40
1.80019101796875
  1
WORK ORDER: ( )
 50
90.0
 41
0.9
  7
CAT_BORDER$0$ROMANS
100
AcDbText
  0
TEXT
  5
DB5
330
46E
100
AcDbEntity
  8
0
100
AcDbText
 10
639.9261957948149
 20
20.75193557424696
 30
0.0
 40
1.80019101796875
  1
CHECKED BY:
  7
CAT_BORDER$0$ROMANS
100
AcDbText
  0
TEXT
  5
DB6
330
46E
100
AcDbEntity
  8
0
100
AcDbText
 10
639.9261957948149
 20
37.53337404894784
 30
0.0
 40
1.80019101796875
  1
DWG. CHECK
  7
CAT_BORDER$0$ROMANS
100
AcDbText
  0
TEXT
  5
DB7
330
46E
100
AcDbEntity
  8
0
100
AcDbText
 10
639.9261957948149
 20
29.14265481159738
 30
0.0
 40
1.80019101796875
  1
BUILT BY:
  7
CAT_BORDER$0$ROMANS
100
AcDbText
  0
TEXT
  5
DB8
330
46E
100
AcDbEntity
  8
0
100
AcDbText
 10
691.2297557720089
 20
20.75193557424696
 30
0.0
 40
1.80019101796875
  1
DRAWN BY:
  7
CAT_BORDER$0$ROMANS
100
AcDbText
  0
TEXT
  5
DB9
330
46E
100
AcDbEntity
  8
0
100
AcDbText
 10
691.2297557720089
 20
29.14265481159738
 30
0.0
 40
1.80019101796875
  1
PURCHASE ORDER
  7
CAT_BORDER$0$ROMANS
100
AcDbText
  0
TEXT
  5
DBA
330
46E
100
AcDbEntity
  8
0
100
AcDbText
 10
691.2297557720089
 20
37.53337404894784
 30
0.0
 40
1.80019101796875
  1
ARCH'T OR ENG'R.
  7
CAT_BORDER$0$ROMANS
100
AcDbText
  0
TEXT
  5
DBB
330
46E
100
AcDbEntity
  8
0
100
AcDbText
 10
888.4934653151651
 20
28.45965264017094
 30
0.0
 40
1.80019101796875
  1
SERIAL#
  7
CAT_BORDER$0$ROMANS
100
AcDbText
  0
TEXT
  5
DBC
330
46E
100
AcDbEntity
  8
0
100
AcDbText
 10
888.2655885845091
 20
37.53337404894784
 30
0.0
 40
1.80019101796875
  1
PRECISION REP
  7
CAT_BORDER$0$ROMANS
100
AcDbText
  0
TEXT
  5
DBD
330
46E
100
AcDbEntity
  8
0
100
AcDbText
 10
762.8791495220089
 20
20.75193557424696
 30
0.0
 40
1.80019101796875
  1
DATE
  7
CAT_BORDER$0$ROMANS
100
AcDbText
  0
TEXT
  5
DBE
330
46E
100
AcDbEntity
  8
0
100
AcDbText
 10
789.7476721782591
 20
20.75193557424696
 30
0.0
 40
1.80019101796875
  1
MODEL#
  7
CAT_BORDER$0$ROMANS
100
AcDbText
  0
TEXT
  5
DBF
330
46E
100
AcDbEntity
  8
0
100
AcDbText
 10
762.8791495220089
 20
37.53337404894784
 30
0.0
 40
1.80019101796875
  1
PROJECT
  7
CAT_BORDER$0$ROMANS
100
AcDbText
  0
TEXT
  5
DC0
330
46E
100
AcDbEntity
  8
0
100
AcDbText
 10
762.8791495220089
 20
29.14265481159738
 30
0.0
 40
1.80019101796875
  1
REVISION
  7
CAT_BORDER$0$ROMANS
100
AcDbText
  0
TEXT
  5
DC1
330
46E
100
AcDbEntity
  8
0
100
AcDbText
 10
789.7476721782591
 20
29.14265481159738
 30
0.0
 40
1.80019101796875
  1
PURCHASER
  7
CAT_BORDER$0$ROMANS
100
AcDbText
  0
TEXT
  5
DC2
330
46E
100
AcDbEntity
  8
0
100
AcDbText
 10
870.353240147009
 20
20.75193557424696
 30
0.0
 40
1.80019101796875
  1
QTY.
  7
CAT_BORDER$0$ROMANS
100
AcDbText
  0
LINE
  5
DC3
330
46E
100
AcDbEntity
  8
0
100
AcDbLine
 10
639.2544827284086
 20
23.43878783987202
 30
0.0
 11
887.5938755181028
 21
23.43878783987202
 31
0.0
  0
LINE
  5
DC4
330
46E
100
AcDbEntity
  8
0
100
AcDbLine
 10
977.1556177056027
 20
15.04806860252159
 30
0.0
 11
977.1556177056027
 21
339.8411690679559
 31
0.0
  0
LINE
  5
DC5
330
46E
100
AcDbEntity
  8
0
100
AcDbLine
 10
977.1556177056027
 20
339.8411690679559
 30
0.0
 11
529.3469067681026
 21
339.8411690679559
 31
0.0
  0
LINE
  5
DC6
330
46E
100
AcDbEntity
  8
0
100
AcDbLine
 10
529.3469067681026
 20
339.8411690679559
 30
0.0
 11
529.3469067681026
 21
15.04806860252159
 31
0.0
  0
LINE
  5
DC7
330
46E
100
AcDbEntity
  8
0
100
AcDbLine
 10
529.3469067681026
 20
15.04806860252159
 30
0.0
 11
977.1556177056027
 21
15.04806860252159
 31
0.0
  0
LINE
  5
DC8
330
46E
100
AcDbEntity
  8
0
100
AcDbLine
 10
639.2544827284086
 20
15.04806860252159
 30
0.0
 11
639.2544827284086
 21
40.2202263145728
 31
0.0
  0
LINE
  5
DC9
330
46E
100
AcDbEntity
  8
0
100
AcDbLine
 10
690.5580427056027
 20
15.04806860252159
 30
0.0
 11
690.5580427056027
 21
40.2202263145728
 31
0.0
  0
LINE
  5
DCA
330
46E
100
AcDbEntity
  8
0
100
AcDbLine
 10
762.2074364556026
 20
15.04806860252159
 30
0.0
 11
762.2074364556026
 21
40.2202263145728
 31
0.0
  0
LINE
  5
DCB
330
46E
100
AcDbEntity
  8
0
100
AcDbLine
 10
789.0759591118528
 20
15.04806860252159
 30
0.0
 11
789.0759591118528
 21
31.82950707722238
 31
0.0
  0
LINE
  5
DCC
330
46E
100
AcDbEntity
  8
0
100
AcDbLine
 10
887.5938755181028
 20
15.04806860252159
 30
0.0
 11
887.5938755181028
 21
40.2202263145728
 31
0.0
  0
LINE
  5
DCD
330
46E
100
AcDbEntity
  8
0
100
AcDbLine
 10
869.6815270806027
 20
15.04806860252159
 30
0.0
 11
869.6815270806027
 21
23.43878783987202
 31
0.0
  0
LINE
  5
DCE
330
46E
100
AcDbEntity
  8
0
100
AcDbLine
 10
529.3469067681026
 20
40.2202263145728
 30
0.0
 11
977.1556177056027
 21
40.2202263145728
 31
0.0
  0
LINE
  5
DCF
330
46E
100
AcDbEntity
  8
0
100
AcDbLine
 10
639.2544827284086
 20
31.82950707722238
 30
0.0
 11
977.1556177056027
 21
31.82950707722238
 31
0.0
  0
INSERT
  5
DD0
330
46E
100
AcDbEntity
  8
0
100
AcDbBlockReference
 66
     1
  2
border-T
 10
529.3469067681026
 20
15.04806860252159
 30
0.0
 41
1.62839531250006
 42
1.628395312500011
 43
1.6283953125
  0
ATTRIB
  5
DD1
330
DD0
100
AcDbEntity
  8
0
 62
     5
100
AcDbText
 10
531.4159426434014
 20
42.65419026099535
 30
0.0
 40
3.663889453125
  1

  7
ROMANS
100
AcDbAttribute
  2
SCALE
 70
     0
  0
ATTRIB
  5
DD2
330
DD0
100
AcDbEntity
  8
0
100
AcDbText
 10
958.084907814479
 20
51.7161738201505
 30
0.0
 40
2.852681428894043
  1
FL-10
  7
ROMANS
 72
     4
 11
965.0128484275073
 21
53.14251453459752
 31
0.0
100
AcDbAttribute
  2
SAVEDAS
 70
     0
  0
ATTRIB
  5
DD3
330
DD0
100
AcDbEntity
  8
0
 62
     5
100
AcDbText
 10
636.45024915945
 20
37.01690543467025
 30
0.0
 40
2.032500766888786
  1

 50
90.0
  7
ROMANS
 72
     4
 11
636.45024915945
 21
37.01690543467025
 31
0.0
100
AcDbAttribute
  2
X
 70
     0
  0
ATTRIB
  5
DD4
330
DD0
100
AcDbEntity
  8
0
100
AcDbText
 10
726.0193137576809
 20
33.2344823489225
 30
0.0
 40
2.880679694416071
  1

  7
ROMANS
 72
     1
 11
726.0193137576809
 21
33.2344823489225
 31
0.0
100
AcDbAttribute
  2
ARCHORENG
 70
     0
  0
ATTRIB
  5
DD5
330
DD0
100
AcDbEntity
  8
0
100
AcDbText
 10
726.0193137576809
 20
24.84267340777514
 30
0.0
 40
2.880679694416071
  1

  7
ROMANS
 72
     1
 11
726.0193137576809
 21
24.84267340777514
 31
0.0
100
AcDbAttribute
  2
PURCHASEORDER
 70
     0
  0
ATTRIB
  5
DD6
330
DD0
100
AcDbEntity
  8
0
100
AcDbText
 10
721.5611189925132
 20
16.45086446662761
 30
0.0
 40
2.880679694416071
  1
DNH
  7
ROMANS
 72
     1
 11
726.0193137576809
 21
16.45086446662761
 31
0.0
100
AcDbAttribute
  2
DRAWNBY
 70
     0
  0
ATTRIB
  5
DD7
330
DD0
100
AcDbEntity
  8
0
100
AcDbText
 10
775.284669228105
 20
24.84267340777514
 30
0.0
 40
2.880679694416071
  1

  7
ROMANS
 72
     1
 11
775.284669228105
 21
24.84267340777514
 31
0.0
100
AcDbAttribute
  2
REV
 70
     0
  0
ATTRIB
  5
DD8
330
DD0
100
AcDbEntity
  8
0
100
AcDbText
 10
767.1913310390313
 20
16.45086446662761
 30
0.0
 40
2.880679694416071
  1
9/1/21
  7
ROMANS
 72
     1
 11
775.284669228105
 21
16.45086446662761
 31
0.0
100
AcDbAttribute
  2
DATE
 70
     0
  0
ATTRIB
  5
DD9
330
DD0
100
AcDbEntity
  8
0
100
AcDbText
 10
824.550024698529
 20
33.2344823489225
 30
0.0
 40
2.880679694416071
  1

  7
ROMANS
 72
     1
 11
824.550024698529
 21
33.2344823489225
 31
0.0
100
AcDbAttribute
  2
PROJECT
 70
     0
  0
ATTRIB
  5
DDA
330
DD0
100
AcDbEntity
  8
0
100
AcDbText
 10
837.9860307359175
 20
24.84267340777514
 30
0.0
 40
2.880679694416071
  1

  7
ROMANS
 72
     1
 11
837.9860307359175
 21
24.84267340777514
 31
0.0
100
AcDbAttribute
  2
PURCHASER
 70
     0
  0
ATTRIB
  5
DDB
330
DD0
100
AcDbEntity
  8
0
100
AcDbText
 10
824.844849059578
 20
16.45086446662777
 30
0.0
 40
2.880679694416071
  1
FL-
  7
ROMANS
 72
     1
 11
829.0286933776584
 21
16.45086446662777
 31
0.0
100
AcDbAttribute
  2
MODEL
 70
     0
  0
ATTRIB
  5
DDC
330
DD0
100
AcDbEntity
  8
0
100
AcDbText
 10
878.2940488480827
 20
16.45086446662761
 30
0.0
 40
2.880679694416071
  1

  7
ROMANS
 72
     1
 11
878.2940488480827
 21
16.45086446662761
 31
0.0
100
AcDbAttribute
  2
QTY
 70
     0
  0
ATTRIB
  5
DDD
330
DD0
100
AcDbEntity
  8
0
100
AcDbText
 10
932.0380729976362
 20
33.23339264512558
 30
0.0
 40
2.880679694416071
  1

  7
ROMANS
 72
     1
 11
932.0380729976362
 21
33.23339264512558
 31
0.0
100
AcDbAttribute
  2
REP
 70
     0
  0
ATTRIB
  5
DDE
330
DD0
100
AcDbEntity
  8
0
100
AcDbText
 10
932.0937141575882
 20
20.18278769706506
 30
0.0
 40
5.626327528156389
  1

  7
ROMANS
 72
     1
 11
932.0937141575882
 21
20.18278769706506
 31
0.0
100
AcDbAttribute
  2
L010000
 70
     0
  0
SEQEND
  5
DDF
330
DD0
100
AcDbEntity
  8
0
  0
TEXT
  5
DE0
330
46E
100
AcDbEntity
  8
0
100
AcDbText
 10
836.5035043761361
 20
43.40304140036285
 30
0.0
 40
2.510596977539062
  1
LADDER RATED AT 1,500 LBS
  7
ROMANS
100
AcDbText
  0
TEXT
  5
DE3
330
46E
100
AcDbEntity
  8
0
100
AcDbText
 10
590.5511191703396
 20
45.02654513341403
 30
0.0
 40
2.510596977539062
  1
LADDERS MANUFACTURED BY PRECISION LADDERS, LLC
  7
ROMANS
100
AcDbText
  0
TEXT
  5
DE4
330
46E
100
AcDbEntity
  8
0
100
AcDbText
 10
590.5511191703396
 20
40.96176907454129
 30
0.0
 40
2.510596977539062
  1
COMPLY WITH OSHA 1910 SUBPART D AND ANSI 14.3
  7
ROMANS
100
AcDbText
  0
LINE
  5
DE5
330
46E
100
AcDbEntity
  8
0
100
AcDbLine
 10
977.1556177056027
 20
49.26670594121073
 30
0.0
 11
529.3469067681026
 21
49.26670594121073
 31
0.0
  0
LINE
  5
DE6
330
46E
100
AcDbEntity
  8
0
100
AcDbLine
 10
753.2512622368527
 20
49.26670594121073
 30
0.0
 11
753.2512622368527
 21
40.2202263145728
 31
0.0
  0
DIMENSION
  5
F01
330
46E
100
AcDbEntity
  8
0
100
AcDbDimension
  2
*D21
 10
554.2343246736834
 20
69.88930013217234
 30
0.0
 11
554.2343246736834
 21
65.38930013217243
 31
0.0
 70
    32
  1
AS REQ'D
 71
     5
 42
9.0
  3
STANDARD$0
100
AcDbAlignedDimension
 13
567.9665995307555
 23
60.88930013217233
 33
0.0
 14
567.9665995307555
 24
69.88930013217234
 34
0.0
 50
90.0
100
AcDbRotatedDimension
  0
TEXT
  5
106F
330
46E
100
AcDbEntity
  8
0
100
AcDbText
 10
531.9429187491086
 20
51.52826275331567
 30
0.0
 40
2.510596977539062
  1
NOTE: FALL ARREST SYSTEM REQUIRED ON LADDERS EXCEEDING 24'-0" (SEE DETAIL FL-13-FAS)
  7
ROMANS
100
AcDbText
  0
TEXT
  5
1070
330
46E
100
AcDbEntity
  8
0
  6
ByBlock
 62
     0
100
AcDbText
 10
796.5853058275869
 20
136.2654215607439
 30
0.0
 40
3.0954
  1
GROUND TO
  7
ROMANS
 72
     1
 11
810.4409058275869
 21
137.8131215607439
 31
0.0
100
AcDbText
 73
     2
1001
AcDbBlockRepETag
1070
     1
1071
        0
1005
1070
  0
LINE
  5
1071
330
46E
100
AcDbEntity
  8
0
  6
ByBlock
 62
     0
100
AcDbLine
 10
795.3582558275869
 20
129.9872371110938
 30
0.0
 11
825.5235558275868
 21
129.9872371110938
 31
0.0
1001
AcDbBlockRepETag
1070
     1
1071
        1
1005
1071
  0
LINE
  5
1072
330
46E
100
AcDbEntity
  8
0
  6
ByBlock
 62
     0
100
AcDbLine
 10
825.523555827587
 20
129.9872371110938
 30
0.0
 11
825.5235558275868
 21
157.5828715607438
 31
0.0
1001
AcDbBlockRepETag
1070
     1
1071
        2
1005
1072
  0
LINE
  5
1073
330
46E
100
AcDbEntity
  8
0
  6
ByBlock
 62
     0
100
AcDbLine
 10
825.5235558275868
 20
141.7670715607438
 30
0.0
 11
795.3582558275869
 21
141.7670715607438
 31
0.0
1001
AcDbBlockRepETag
1070
     1
1071
        3
1005
1073
  0
LINE
  5
1074
330
46E
100
AcDbEntity
  8
0
  6
ByBlock
 62
     0
100
AcDbLine
 10
795.3582558275869
 20
157.5828715607438
 30
0.0
 11
795.3582558275869
 21
129.9872371110938
 31
0.0
1001
AcDbBlockRepETag
1070
     1
1071
        4
1005
1074
  0
LINE
  5
1075
330
46E
100
AcDbEntity
  8
0
  6
ByBlock
 62
     0
100
AcDbLine
 10
825.5235558275868
 20
157.5828715607438
 30
0.0
 11
795.3582558275869
 21
157.5828715607438
 31
0.0
1001
AcDbBlockRepETag
1070
     1
1071
        5
1005
1075
  0
TEXT
  5
1076
330
46E
100
AcDbEntity
  8
0
 62
     7
100
AcDbText
 10
840.9387343325791
 20
251.9804392114103
 30
0.0
 40
3.0954
  1
CAGE NOT
  7
ROMANS
100
AcDbText
  0
TEXT
  5
1077
330
46E
100
AcDbEntity
  8
0
 62
     7
100
AcDbText
 10
840.9387343325791
 20
246.9688392114103
 30
0.0
 40
3.0954
  1
REQUIRED
  7
ROMANS
100
AcDbText
  0
TEXT
  5
1078
330
46E
100
AcDbEntity
  8
0
 62
     7
100
AcDbText
 10
840.9387343325791
 20
241.9572392114103
 30
0.0
 40
3.0954
  1
BY CODE
  7
ROMANS
100
AcDbText
  0
TEXT
  5
10C1
330
46E
100
AcDbEntity
  8
0
  6
ByBlock
 62
     0
100
AcDbText
 10
795.9220058275868
 20
131.598897299899
 30
0.0
 40
3.0954
  1
MEZZ LEVEL
  7
ROMANS
 72
     1
 11
810.4409058275869
 21
133.146597299899
 31
0.0
100
AcDbText
 73
     2
1001
AcDbBlockRepETag
1070
     1
1071
        0
1005
1070
  0
ENDSEC
  0
SECTION
  2
OBJECTS
  0
DICTIONARY
  5
462
330
0
100
AcDbDictionary
281
     1
  3
ACAD_COLOR
350
8BD
  3
ACAD_GROUP
350
463
  3
ACAD_LAYOUT
350
7C3
  3
ACAD_MATERIAL
350
8A8
  3
ACAD_MLINESTYLE
350
464
  3
ACAD_PLOTSETTINGS
350
7C4
  3
ACAD_PLOTSTYLENAME
350
7C1
  3
ACAD_TABLESTYLE
350
8BE
  3
ACAD_VISUALSTYLE
350
8AC
  3
AcDbVariableDictionary
350
986
  3
DWGPROPS
350
10C2
  0
DICTIONARY
  5
F2C
330
45E
100
AcDbDictionary
280
     1
281
     1
  0
DICTIONARY
  5
8DB
330
46E
100
AcDbDictionary
280
     1
281
     1
  3
ACAD_SORTENTS
360
8DC
  0
DICTIONARY
  5
F51
330
8DD
100
AcDbDictionary
280
     1
281
     1
  3
ACAD_ENHANCEDBLOCK
360
F52
  3
AcDbDynamicBlockRoundTripPurgePreventer
360
F56
  0
DICTIONARY
  5
8BD
102
{ACAD_REACTORS
330
462
102
}
330
462
100
AcDbDictionary
281
     1
  0
DICTIONARY
  5
463
102
{ACAD_REACTORS
330
462
102
}
330
462
100
AcDbDictionary
281
     1
  0
DICTIONARY
  5
7C3
102
{ACAD_REACTORS
330
462
102
}
330
462
100
AcDbDictionary
281
     1
  3
Layout1
350
7C6
  3
Model
350
7C5
  0
DICTIONARY
  5
8A8
102
{ACAD_REACTORS
330
462
102
}
330
462
100
AcDbDictionary
281
     1
  3
ByBlock
350
8AA
  3
ByLayer
350
8A9
  3
Global
350
8AB
  0
DICTIONARY
  5
464
102
{ACAD_REACTORS
330
462
102
}
330
462
100
AcDbDictionary
281
     1
  3
STANDARD
350
471
  0
DICTIONARY
  5
7C4
102
{ACAD_REACTORS
330
462
102
}
330
462
100
AcDbDictionary
281
     1
  0
ACDBDICTIONARYWDFLT
  5
7C1
102
{ACAD_REACTORS
330
462
102
}
330
462
100
AcDbDictionary
281
     1
  3
Normal
350
7C2
100
AcDbDictionaryWithDefault
340
7C2
  0
DICTIONARY
  5
8BE
102
{ACAD_REACTORS
330
462
102
}
330
462
100
AcDbDictionary
281
     1
  3
Standard
350
8BF
  0
DICTIONARY
  5
8AC
102
{ACAD_REACTORS
330
462
102
}
330
462
100
AcDbDictionary
281
     1
  3
2dWireframe
350
8B2
  3
3D Hidden
350
8B4
  3
3dWireframe
350
8B3
  3
Basic
350
8B1
  3
Brighten
350
8B8
  3
ColorChange
350
8BC
  3
Conceptual
350
8B5
  3
Dim
350
8B7
  3
Facepattern
350
8BB
  3
Flat
350
8AD
  3
FlatWithEdges
350
8AE
  3
Gouraud
350
8AF
  3
GouraudWithEdges
350
8B0
  3
Linepattern
350
8BA
  3
Realistic
350
8B6
  3
Thicken
350
8B9
  0
DICTIONARY
  5
986
102
{ACAD_REACTORS
330
462
102
}
330
462
100
AcDbDictionary
281
     1
  3
CTABLESTYLE
350
987
  3
DIMASSOC
350
F40
  3
INDEXCTL
350
F3F
  3
SORTENTS
350
F3E
  0
XRECORD
  5
10C2
102
{ACAD_REACTORS
330
462
102
}
330
462
100
AcDbXrecord
280
     1
  1
DWGPROPS COOKIE
  2

  3

  4

  6

  7

  8
XPMUser
  9

300
=
301
=
302
=
303
=
304
=
305
=
306
=
307
=
308
=
309
=
 40
0.2405777199074074
 41
2450687.378820139
 42
2459472.726409421
  1

 90
        0
  0
SORTENTSTABLE
  5
8DC
102
{ACAD_REACTORS
330
8DB
102
}
330
8DB
100
AcDbSortentsTable
330
46E
331
DCB
  5
DE0
331
D8C
  5
D99
331
24E
  5
24E
331
28D
  5
28D
331
256
  5
256
331
295
  5
295
331
2C0
  5
2C0
331
25E
  5
25E
331
29D
  5
29D
331
3DC
  5
3DC
331
37D
  5
37D
331
2C8
  5
2C8
331
307
  5
307
331
33E
  5
33E
331
266
  5
266
331
346
  5
346
331
2D0
  5
2D0
331
30F
  5
30F
331
3E4
  5
3E4
331
3B5
  5
3B5
331
317
  5
317
331
2D8
  5
2D8
331
34E
  5
34E
331
3EC
  5
3EC
331
356
  5
356
331
3F4
  5
3F4
331
96D
  5
9A2
331
936
  5
93D
331
93E
  5
945
331
946
  5
94D
331
DA4
  5
DAA
331
DE3
  5
106F
331
DAC
  5
DB2
331
D6D
  5
D73
331
DB4
  5
DBA
331
D75
  5
D80
331
106F
  5
1075
331
26E
  5
26E
331
276
  5
276
331
2A1
  5
2A1
331
2E0
  5
2E0
331
27E
  5
27E
331
3FC
  5
3FC
331
3BD
  5
3BD
331
2E8
  5
2E8
331
2A9
  5
2A9
331
31F
  5
31F
331
35E
  5
35E
331
43B
  5
43B
331
286
  5
286
331
404
  5
404
331
366
  5
366
331
2F0
  5
2F0
331
2B1
  5
2B1
331
327
  5
327
331
3C5
  5
3C5
331
443
  5
444
331
3CD
  5
3CD
331
36E
  5
36E
331
2B9
  5
2B9
331
2F8
  5
2F8
331
32F
  5
32F
331
40C
  5
40C
331
3D5
  5
3D5
331
337
  5
337
331
376
  5
376
331
414
  5
414
331
94E
  5
955
331
9A5
  5
9AB
331
956
  5
95D
331
9AD
  5
D60
331
8D7
  5
8D8
331
95E
  5
965
331
966
  5
96D
331
DBC
  5
DC2
331
DC4
  5
DCA
331
D85
  5
D8E
331
DCC
  5
DE1
331
D8D
  5
D9A
331
24F
  5
24F
331
28E
  5
28E
331
257
  5
257
331
296
  5
296
331
2C1
  5
2C1
331
300
  5
300
331
25F
  5
25F
331
29E
  5
29E
331
3DD
  5
3DD
331
308
  5
308
331
2C9
  5
2C9
331
33F
  5
33F
331
37E
  5
37E
331
70A
  5
7D0
331
267
  5
267
331
310
  5
310
331
2D1
  5
2D1
331
347
  5
347
331
3AE
  5
3AE
331
3E5
  5
3E5
331
3B6
  5
3B6
331
2D9
  5
2D9
331
34F
  5
34F
331
3ED
  5
3ED
331
357
  5
357
331
3F5
  5
3F5
331
96E
  5
9A3
331
937
  5
93E
331
93F
  5
946
331
947
  5
94E
331
DA5
  5
DAB
331
DE4
  5
1070
331
DAD
  5
DB3
331
D6E
  5
D74
331
DB5
  5
DBB
331
D76
  5
D81
331
1070
  5
935
331
26F
  5
26F
331
277
  5
277
331
2A2
  5
2A2
331
2E1
  5
2E1
331
318
  5
318
331
27F
  5
27F
331
3BE
  5
3BE
331
35F
  5
35F
331
2AA
  5
2AA
331
2E9
  5
2E9
331
320
  5
320
331
3FD
  5
3FD
331
43C
  5
43D
331
287
  5
287
331
3C6
  5
3C6
331
328
  5
328
331
2B2
  5
2B2
331
2F1
  5
2F1
331
367
  5
367
331
405
  5
405
331
40D
  5
40D
331
3CE
  5
3CE
331
2F9
  5
2F9
331
2BA
  5
2BA
331
330
  5
330
331
36F
  5
36F
331
415
  5
415
331
377
  5
377
331
3D6
  5
3D6
331
99E
  5
9A4
331
94F
  5
956
331
9A6
  5
9AC
331
957
  5
95E
331
9AE
  5
D61
331
8D8
  5
8D9
331
95F
  5
966
331
967
  5
96E
331
DBD
  5
DC3
331
D7E
  5
D84
331
DC5
  5
DCB
331
D86
  5
D8F
331
DCD
  5
DE2
331
D8E
  5
DA2
331
250
  5
250
331
28F
  5
28F
331
258
  5
258
331
297
  5
297
331
301
  5
301
331
2C2
  5
2C2
331
338
  5
338
331
260
  5
260
331
29F
  5
29F
331
3DE
  5
3DE
331
37F
  5
37F
331
2CA
  5
2CA
331
309
  5
309
331
340
  5
340
331
348
  5
348
331
2D2
  5
2D2
331
311
  5
311
331
3AF
  5
3AF
331
3E6
  5
3E6
331
3EE
  5
3EE
331
3B7
  5
3B7
331
350
  5
350
331
2DA
  5
2DA
331
435
  5
435
331
3F6
  5
3F6
331
938
  5
93F
331
940
  5
947
331
DA6
  5
DAC
331
DE5
  5
1071
331
DAE
  5
DB4
331
D6F
  5
D75
331
268
  5
268
331
DB6
  5
DBC
331
D77
  5
D82
331
1071
  5
936
331
270
  5
270
331
278
  5
278
331
319
  5
319
331
2A3
  5
2A3
331
2E2
  5
2E2
331
358
  5
358
331
280
  5
280
331
43D
  5
43E
331
3FE
  5
3FE
331
3BF
  5
3BF
331
2EA
  5
2EA
331
2AB
  5
2AB
331
321
  5
321
331
360
  5
360
331
445
  5
446
331
3C7
  5
3C7
331
368
  5
368
331
2B3
  5
2B3
331
2F2
  5
2F2
331
329
  5
329
331
406
  5
406
331
370
  5
370
331
2BB
  5
2BB
331
2FA
  5
2FA
331
331
  5
331
331
3CF
  5
3CF
331
40E
  5
40E
331
3D7
  5
3D7
331
416
  5
416
331
948
  5
94F
331
99F
  5
9A5
331
950
  5
957
331
9A7
  5
9AD
331
958
  5
95F
331
9AF
  5
D62
331
960
  5
967
331
8D9
  5
8E6
331
DBE
  5
DC4
331
D7F
  5
D85
331
DC6
  5
DCC
331
D87
  5
D90
331
DCE
  5
DE3
331
D8F
  5
DA3
331
288
  5
288
331
251
  5
251
331
290
  5
290
331
259
  5
259
331
298
  5
298
331
339
  5
339
331
2C3
  5
2C3
331
302
  5
302
331
378
  5
378
331
261
  5
261
331
30A
  5
30A
331
2CB
  5
2CB
331
341
  5
341
331
3DF
  5
3DF
331
42E
  5
42E
331
312
  5
312
331
2D3
  5
2D3
331
349
  5
349
331
3E7
  5
3E7
331
436
  5
436
331
2DB
  5
2DB
331
351
  5
351
331
3EF
  5
3EF
331
3F7
  5
3F7
331
968
  5
99C
331
939
  5
940
331
941
  5
948
331
D60
  5
D6C
331
DA7
  5
DAD
331
DE6
  5
1072
331
DAF
  5
DB5
331
D70
  5
D76
331
269
  5
269
331
DB7
  5
DBD
331
1072
  5
937
331
271
  5
271
331
279
  5
279
331
3B8
  5
3B8
331
359
  5
359
331
2A4
  5
2A4
331
2E3
  5
2E3
331
31A
  5
31A
331
281
  5
281
331
3C0
  5
3C0
331
322
  5
322
331
2AC
  5
2AC
331
2EB
  5
2EB
331
361
  5
361
331
3FF
  5
3FF
331
3C8
  5
3C8
331
32A
  5
32A
331
2B4
  5
2B4
331
2F3
  5
2F3
331
369
  5
369
331
407
  5
407
331
44E
  5
44F
331
3D0
  5
3D0
331
2FB
  5
2FB
331
2BC
  5
2BC
331
332
  5
332
331
371
  5
371
331
40F
  5
40F
331
417
  5
417
331
949
  5
950
331
9A0
  5
9A6
331
951
  5
958
331
9A8
  5
9AE
331
959
  5
960
331
9B0
  5
D69
331
961
  5
968
331
D78
  5
D83
331
DBF
  5
DC5
331
D80
  5
D86
331
DC7
  5
DCD
331
D88
  5
D98
331
DCF
  5
DE4
331
D90
  5
DA4
331
289
  5
289
331
252
  5
252
331
291
  5
291
331
25A
  5
25A
331
299
  5
299
331
3D8
  5
3D8
331
379
  5
379
331
2C4
  5
2C4
331
303
  5
303
331
33A
  5
33A
331
262
  5
262
331
3E0
  5
3E0
331
2CC
  5
2CC
331
30B
  5
30B
331
342
  5
342
331
42F
  5
42F
331
2D4
  5
2D4
331
313
  5
313
331
34A
  5
34A
331
3E8
  5
3E8
331
2DC
  5
2DC
331
352
  5
352
331
3F0
  5
3F0
331
969
  5
99E
331
93A
  5
941
331
942
  5
949
331
D98
  5
DA5
331
D61
  5
D6D
331
DA8
  5
DAE
331
D69
  5
D6F
331
DB0
  5
DB6
331
D71
  5
D77
331
26A
  5
26A
331
1073
  5
938
331
272
  5
272
331
27A
  5
27A
331
3B9
  5
3B9
331
2A5
  5
2A5
331
2E4
  5
2E4
331
31B
  5
31B
331
35A
  5
35A
331
3F8
  5
3F8
331
282
  5
282
331
43F
  5
440
331
400
  5
400
331
3C1
  5
3C1
331
2EC
  5
2EC
331
2AD
  5
2AD
331
323
  5
323
331
362
  5
362
331
447
  5
448
331
3C9
  5
3C9
331
36A
  5
36A
331
2B5
  5
2B5
331
2F4
  5
2F4
331
32B
  5
32B
331
408
  5
408
331
3D1
  5
3D1
331
2BD
  5
2BD
331
2FC
  5
2FC
331
333
  5
333
331
372
  5
372
331
94A
  5
951
331
9A1
  5
9A7
331
952
  5
959
331
9A9
  5
9AF
331
95A
  5
961
331
9B1
  5
D6A
331
962
  5
969
331
DB8
  5
DBE
331
DC0
  5
DC6
331
D81
  5
D87
331
DC8
  5
DCE
331
28A
  5
28A
331
253
  5
253
331
292
  5
292
331
25B
  5
25B
331
29A
  5
29A
331
418
  5
418
331
3D9
  5
3D9
331
263
  5
263
331
2C5
  5
2C5
331
304
  5
304
331
33B
  5
33B
331
37A
  5
37A
331
2CD
  5
2CD
331
30C
  5
30C
331
343
  5
343
331
3E1
  5
3E1
331
430
  5
430
331
3E9
  5
3E9
331
2D5
  5
2D5
331
314
  5
314
331
34B
  5
34B
331
3F1
  5
3F1
331
2DD
  5
2DD
331
353
  5
353
331
96A
  5
99F
331
93B
  5
942
331
943
  5
94A
331
DD0
  5
DE5
331
D99
  5
DA6
331
D62
  5
D6E
331
DE0
  5
DE6
331
DA9
  5
DAF
331
D6A
  5
D70
331
26B
  5
26B
331
DB1
  5
DB7
331
D72
  5
D78
331
273
  5
273
331
1074
  5
939
331
27B
  5
27B
331
3BA
  5
3BA
331
35B
  5
35B
331
283
  5
283
331
2A6
  5
2A6
331
2E5
  5
2E5
331
31C
  5
31C
331
3F9
  5
3F9
331
440
  5
441
331
3C2
  5
3C2
331
2AE
  5
2AE
331
2ED
  5
2ED
331
324
  5
324
331
363
  5
363
331
401
  5
401
331
448
  5
449
331
2B6
  5
2B6
331
2F5
  5
2F5
331
32C
  5
32C
331
36B
  5
36B
331
409
  5
409
331
450
  5
451
331
411
  5
411
331
3D2
  5
3D2
331
2FD
  5
2FD
331
2BE
  5
2BE
331
334
  5
334
331
373
  5
373
331
94B
  5
952
331
9A2
  5
9A8
331
953
  5
95A
331
9AA
  5
9B0
331
95B
  5
962
331
8D4
  5
8D5
331
9B2
  5
D6B
331
963
  5
96A
331
DB9
  5
DBF
331
DC1
  5
DC7
331
D82
  5
D88
331
DC9
  5
DCF
331
24C
  5
24C
331
28B
  5
28B
331
254
  5
254
331
293
  5
293
331
25C
  5
25C
331
29B
  5
29B
331
3DA
  5
3DA
331
37B
  5
37B
331
264
  5
264
331
2C6
  5
2C6
331
305
  5
305
331
33C
  5
33C
331
344
  5
344
331
2CE
  5
2CE
331
30D
  5
30D
331
3E2
  5
3E2
331
315
  5
315
331
2D6
  5
2D6
331
34C
  5
34C
331
3EA
  5
3EA
331
431
  5
431
331
354
  5
354
331
2DE
  5
2DE
331
3F2
  5
3F2
331
96B
  5
9A0
331
934
  5
93B
331
93C
  5
943
331
944
  5
94B
331
D9A
  5
DA7
331
DA2
  5
DA8
331
DAA
  5
DB0
331
D6B
  5
D71
331
26C
  5
26C
331
F01
  5
1074
331
DB2
  5
DB8
331
D73
  5
D7E
331
274
  5
274
331
1075
  5
93A
331
27C
  5
27C
331
3FA
  5
3FA
331
3BB
  5
3BB
331
2E6
  5
2E6
331
284
  5
284
331
2A7
  5
2A7
331
31D
  5
31D
331
35C
  5
35C
331
402
  5
402
331
3C3
  5
3C3
331
2EE
  5
2EE
331
2AF
  5
2AF
331
325
  5
325
331
364
  5
364
331
441
  5
442
331
3CB
  5
3CB
331
36C
  5
36C
331
2B7
  5
2B7
331
2F6
  5
2F6
331
32D
  5
32D
331
40A
  5
40A
331
449
  5
44A
331
3D3
  5
3D3
331
335
  5
335
331
2BF
  5
2BF
331
2FE
  5
2FE
331
374
  5
374
331
94C
  5
953
331
9A3
  5
9A9
331
954
  5
95B
331
9AB
  5
9B1
331
95C
  5
963
331
8D5
  5
8D6
331
964
  5
96B
331
DBA
  5
DC0
331
DC2
  5
DC8
331
D83
  5
D8C
331
DCA
  5
DD0
331
28C
  5
28C
331
24D
  5
24D
331
255
  5
255
331
294
  5
294
331
29C
  5
29C
331
25D
  5
25D
331
3DB
  5
3DB
331
33D
  5
33D
331
2C7
  5
2C7
331
306
  5
306
331
37C
  5
37C
331
265
  5
265
331
30E
  5
30E
331
2CF
  5
2CF
331
345
  5
345
331
3E3
  5
3E3
331
3EB
  5
3EB
331
316
  5
316
331
2D7
  5
2D7
331
34D
  5
34D
331
432
  5
432
331
355
  5
355
331
2DF
  5
2DF
331
3F3
  5
3F3
331
96C
  5
9A1
331
935
  5
93C
331
93D
  5
944
331
945
  5
94C
331
DA3
  5
DA9
331
DAB
  5
DB1
331
D6C
  5
D72
331
DB3
  5
DB9
331
D74
  5
D7F
331
26D
  5
26D
331
275
  5
275
331
2A0
  5
2A0
331
27D
  5
27D
331
3BC
  5
3BC
331
35D
  5
35D
331
2A8
  5
2A8
331
2E7
  5
2E7
331
31E
  5
31E
331
3FB
  5
3FB
331
285
  5
285
331
3C4
  5
3C4
331
326
  5
326
331
2B0
  5
2B0
331
2EF
  5
2EF
331
365
  5
365
331
403
  5
403
331
40B
  5
40B
331
3CC
  5
3CC
331
2B8
  5
2B8
331
2F7
  5
2F7
331
32E
  5
32E
331
36D
  5
36D
331
413
  5
413
331
3D4
  5
3D4
331
2FF
  5
2FF
331
336
  5
336
331
375
  5
375
331
452
  5
70A
331
94D
  5
954
331
99C
  5
43C
331
9A4
  5
9AA
331
955
  5
95C
331
9AC
  5
9B2
331
95D
  5
964
331
8D6
  5
8D7
331
965
  5
96C
331
DBB
  5
DC1
331
DC3
  5
DC9
331
D84
  5
D8D
  0
ACAD_EVALUATION_GRAPH
  5
F52
102
{ACAD_REACTORS
330
F51
102
}
330
F51
100
AcDbEvalGraph
 96
        0
 97
        0
  0
ACDB_DYNAMICBLOCKPURGEPREVENTER_VERSION
  5
F56
102
{ACAD_REACTORS
330
F51
102
}
330
F51
100
AcDbDynamicBlockPurgePreventer
 70
     1
  0
LAYOUT
  5
7C6
102
{ACAD_XDICTIONARY
360
10C5
102
}
102
{ACAD_REACTORS
330
7C3
102
}
330
7C3
100
AcDbPlotSettings
  1

  2
HP LaserJet 2100 Series PCL 6
  4

  6

 40
0.0
 41
0.0
 42
0.0
 43
0.0
 44
0.0
 45
0.0
 46
0.0
 47
0.0
 48
0.0
 49
0.0
140
0.0
141
0.0
142
1.0
143
1.0
 70
   688
 72
     0
 73
     0
 74
     5
  7
Erik.ctb
 75
    16
147
1.0
148
0.0
149
0.0
100
AcDbLayout
  1
Layout1
 70
     1
 71
     1
 10
0.0
 20
0.0
 11
12.0
 21
9.0
 12
0.0
 22
0.0
 32
0.0
 14
1.000000000000000E+20
 24
1.000000000000000E+20
 34
1.000000000000000E+20
 15
-1.000000000000000E+20
 25
-1.000000000000000E+20
 35
-1.000000000000000E+20
146
0.0
 13
0.0
 23
0.0
 33
0.0
 16
1.0
 26
0.0
 36
0.0
 17
0.0
 27
1.0
 37
0.0
 76
     0
330
46B
  0
LAYOUT
  5
7C5
102
{ACAD_XDICTIONARY
360
10C3
102
}
102
{ACAD_REACTORS
330
7C3
102
}
330
7C3
100
AcDbPlotSettings
  1

  2
PDF Pro 10
  4
Letter
  6

 40
3.174999952316284
 41
3.174999952316284
 42
3.175003051757812
 43
3.17498779296875
 44
215.8999938964844
 45
279.3999938964844
 46
5.765466824334387
 47
0.0
 48
0.0
 49
0.0
140
0.0
141
0.0
142
1.0
143
41.66666287488182
 70
  3764
 72
     0
 73
     1
 74
     1
  7
acad.ctb
 75
     0
147
0.0240000021840683
148
-13444.19704639733
149
-381.7177566143853
100
AcDbLayout
  1
Model
 70
     1
 71
     0
 10
0.0
 20
0.0
 11
12.0
 21
9.0
 12
0.0
 22
0.0
 32
0.0
 14
0.0
 24
0.0
 34
0.0
 15
0.0
 25
0.0
 35
0.0
146
0.0
 13
0.0
 23
0.0
 33
0.0
 16
1.0
 26
0.0
 36
0.0
 17
0.0
 27
1.0
 37
0.0
 76
     0
330
46E
331
8A6
1001
ACAD_PSEXT
1000
PDF Pro 10
1000
Visage PDF
1000
VSP1:
1000

1070
     0
  0
MATERIAL
  5
8AA
102
{ACAD_XDICTIONARY
360
10C9
102
}
102
{ACAD_REACTORS
330
8A8
102
}
330
8A8
100
AcDbMaterial
  1
ByBlock
  0
MATERIAL
  5
8A9
102
{ACAD_XDICTIONARY
360
10C7
102
}
102
{ACAD_REACTORS
330
8A8
102
}
330
8A8
100
AcDbMaterial
  1
ByLayer
  0
MATERIAL
  5
8AB
102
{ACAD_XDICTIONARY
360
10CB
102
}
102
{ACAD_REACTORS
330
8A8
102
}
330
8A8
100
AcDbMaterial
  1
Global
  0
MLINESTYLE
  5
471
102
{ACAD_REACTORS
330
464
102
}
330
464
100
AcDbMlineStyle
  2
STANDARD
 70
     0
  3

 62
     0
 51
90.0
 52
90.0
 71
     2
 49
0.5
 62
   256
  6
BYLAYER
 49
-0.5
 62
   256
  6
BYLAYER
  0
ACDBPLACEHOLDER
  5
7C2
102
{ACAD_REACTORS
330
7C1
102
}
330
7C1
  0
TABLESTYLE
  5
8BF
102
{ACAD_XDICTIONARY
360
10CD
102
}
102
{ACAD_REACTORS
330
8BE
102
}
330
8BE
100
AcDbTableStyle
  3
Standard
 70
     0
 71
     0
 40
0.06
 41
0.06
280
     0
281
     0
  7
STANDARD
140
0.18
170
     2
 62
     0
 63
     7
283
     0
274
    -2
284
     1
 64
     0
275
    -2
285
     1
 65
     0
276
    -2
286
     1
 66
     0
277
    -2
287
     1
 67
     0
278
    -2
288
     1
 68
     0
279
    -2
289
     1
 69
     0
  7
STANDARD
140
0.25
170
     5
 62
     0
 63
     7
283
     0
274
    -2
284
     1
 64
     0
275
    -2
285
     1
 65
     0
276
    -2
286
     1
 66
     0
277
    -2
287
     1
 67
     0
278
    -2
288
     1
 68
     0
279
    -2
289
     1
 69
     0
  7
STANDARD
140
0.18
170
     5
 62
     0
 63
     7
283
     0
274
    -2
284
     1
 64
     0
275
    -2
285
     1
 65
     0
276
    -2
286
     1
 66
     0
277
    -2
287
     1
 67
     0
278
    -2
288
     1
 68
     0
279
    -2
289
     1
 69
     0
  0
VISUALSTYLE
  5
8B2
102
{ACAD_REACTORS
330
8AC
102
}
330
8AC
100
AcDbVisualStyle
  2
2dWireframe
 70
     4
 71
     0
 72
     2
 73
     0
 90
        0
 40
-0.6
 41
-30.0
 62
     5
 63
     7
 74
     1
 91
        4
 64
     7
 65
   257
 75
     1
175
     1
 42
1.0
 92
        0
 66
   257
 43
1.0
 76
     1
 77
     6
 78
     2
 67
     7
 79
     5
170
     0
171
     0
290
     0
174
     0
 93
        1
 44
0.0
173
     0
291
     0
 45
0.0
1001
ACAD
1000
AcDbSavedByObjectVersion
1070
     0
  0
VISUALSTYLE
  5
8B4
102
{ACAD_REACTORS
330
8AC
102
}
330
8AC
100
AcDbVisualStyle
  2
3D Hidden
 70
     6
 71
     1
 72
     2
 73
     2
 90
        0
 40
-0.6
 41
-30.0
 62
     5
 63
     7
 74
     2
 91
        2
 64
     7
 65
   257
 75
     2
175
     1
 42
40.0
 92
        0
 66
   257
 43
1.0
 76
     1
 77
     6
 78
     2
 67
     7
 79
     3
170
     0
171
     0
290
     0
174
     0
 93
        1
 44
0.0
173
     0
291
     0
 45
0.0
1001
ACAD
1000
AcDbSavedByObjectVersion
1070
     0
  0
VISUALSTYLE
  5
8B3
102
{ACAD_REACTORS
330
8AC
102
}
330
8AC
100
AcDbVisualStyle
  2
3dWireframe
 70
     5
 71
     0
 72
     2
 73
     0
 90
        0
 40
-0.6
 41
-30.0
 62
     5
 63
     7
 74
     1
 91
        4
 64
     7
 65
   257
 75
     1
175
     1
 42
1.0
 92
        0
 66
   257
 43
1.0
 76
     1
 77
     6
 78
     2
 67
     7
 79
     5
170
     0
171
     0
290
     0
174
     0
 93
        1
 44
0.0
173
     0
291
     0
 45
0.0
1001
ACAD
1000
AcDbSavedByObjectVersion
1070
     0
  0
VISUALSTYLE
  5
8B1
102
{ACAD_REACTORS
330
8AC
102
}
330
8AC
100
AcDbVisualStyle
  2
Basic
 70
     7
 71
     1
 72
     0
 73
     1
 90
        0
 40
-0.6
 41
-30.0
 62
     5
 63
     7
 74
     0
 91
        4
 64
     7
 65
   257
 75
     1
175
     1
 42
1.0
 92
        8
 66
     7
 43
1.0
 76
     1
 77
     6
 78
     2
 67
     7
 79
     5
170
     0
171
     0
290
     0
174
     0
 93
        1
 44
0.0
173
     0
291
     1
 45
0.0
1001
ACAD
1000
AcDbSavedByObjectVersion
1070
     0
  0
VISUALSTYLE
  5
8B8
102
{ACAD_REACTORS
330
8AC
102
}
330
8AC
100
AcDbVisualStyle
  2
Brighten
 70
    12
 71
     2
 72
     2
 73
     0
 90
        0
 40
-0.6
 41
-30.0
 62
     5
 63
     7
 74
     1
 91
        4
 64
     7
 65
   257
 75
     1
175
     1
 42
1.0
 92
        8
 66
     7
 43
1.0
 76
     1
 77
     6
 78
     2
 67
     7
 79
     5
170
     0
171
     0
290
     0
174
     0
 93
        1
 44
50.0
173
     0
291
     1
 45
0.0
1001
ACAD
1000
AcDbSavedByObjectVersion
1070
     0
  0
VISUALSTYLE
  5
8BC
102
{ACAD_REACTORS
330
8AC
102
}
330
8AC
100
AcDbVisualStyle
  2
ColorChange
 70
    16
 71
     2
 72
     2
 73
     3
 90
        0
 40
-0.6
 41
-30.0
 62
     5
 63
     8
 74
     1
 91
        4
 64
     7
 65
   257
 75
     1
175
     1
 42
1.0
 92
        8
 66
     8
 43
1.0
 76
     1
 77
     6
 78
     2
 67
     7
 79
     5
170
     0
171
     0
290
     0
174
     0
 93
        1
 44
0.0
173
     0
291
     1
 45
0.0
1001
ACAD
1000
AcDbSavedByObjectVersion
1070
     0
  0
VISUALSTYLE
  5
8B5
102
{ACAD_REACTORS
330
8AC
102
}
330
8AC
100
AcDbVisualStyle
  2
Conceptual
 70
     9
 71
     3
 72
     2
 73
     0
 90
        0
 40
-0.6
 41
-30.0
 62
     5
 63
     7
 74
     2
 91
        2
 64
     7
 65
   257
 75
     1
175
     1
 42
40.0
 92
        8
 66
     7
 43
1.0
 76
     1
 77
     6
 78
     2
 67
     7
 79
     3
170
     0
171
     0
290
     0
174
     0
 93
        1
 44
0.0
173
     0
291
     0
 45
0.0
1001
ACAD
1000
AcDbSavedByObjectVersion
1070
     0
  0
VISUALSTYLE
  5
8B7
102
{ACAD_REACTORS
330
8AC
102
}
330
8AC
100
AcDbVisualStyle
  2
Dim
 70
    11
 71
     2
 72
     2
 73
     0
 90
        0
 40
-0.6
 41
-30.0
 62
     5
 63
     7
 74
     1
 91
        4
 64
     7
 65
   257
 75
     1
175
     1
 42
1.0
 92
        8
 66
     7
 43
1.0
 76
     1
 77
     6
 78
     2
 67
     7
 79
     5
170
     0
171
     0
290
     0
174
     0
 93
        1
 44
-50.0
173
     0
291
     1
 45
0.0
1001
ACAD
1000
AcDbSavedByObjectVersion
1070
     0
  0
VISUALSTYLE
  5
8BB
102
{ACAD_REACTORS
330
8AC
102
}
330
8AC
100
AcDbVisualStyle
  2
Facepattern
 70
    15
 71
     2
 72
     2
 73
     0
 90
        0
 40
-0.6
 41
-30.0
 62
     5
 63
     7
 74
     1
 91
        4
 64
     7
 65
   257
 75
     1
175
     1
 42
1.0
 92
        8
 66
     7
 43
1.0
 76
     1
 77
     6
 78
     2
 67
     7
 79
     5
170
     0
171
     0
290
     0
174
     0
 93
        1
 44
0.0
173
     0
291
     1
 45
0.0
1001
ACAD
1000
AcDbSavedByObjectVersion
1070
     0
  0
VISUALSTYLE
  5
8AD
102
{ACAD_REACTORS
330
8AC
102
}
330
8AC
100
AcDbVisualStyle
  2
Flat
 70
     0
 71
     2
 72
     1
 73
     1
 90
        2
 40
-0.6
 41
30.0
 62
     5
 63
     7
 74
     0
 91
        4
 64
     7
 65
   257
 75
     1
175
     1
 42
1.0
 92
        8
 66
     7
 43
1.0
 76
     1
 77
     6
 78
     2
 67
     7
 79
     5
170
     0
171
     0
290
     0
174
     0
 93
       13
 44
0.0
173
     0
291
     1
 45
0.0
1001
ACAD
1000
AcDbSavedByObjectVersion
1070
     0
  0
VISUALSTYLE
  5
8AE
102
{ACAD_REACTORS
330
8AC
102
}
330
8AC
100
AcDbVisualStyle
  2
FlatWithEdges
 70
     1
 71
     2
 72
     1
 73
     1
 90
        2
 40
-0.6
 41
30.0
 62
     5
 63
     7
 74
     1
 91
        4
 64
     7
 65
   257
 75
     1
175
     1
 42
1.0
 92
        0
 66
   257
 43
1.0
 76
     1
 77
     6
 78
     2
 67
     7
 79
     5
170
     0
171
     0
290
     0
174
     0
 93
       13
 44
0.0
173
     0
291
     1
 45
0.0
1001
ACAD
1000
AcDbSavedByObjectVersion
1070
     0
  0
VISUALSTYLE
  5
8AF
102
{ACAD_REACTORS
330
8AC
102
}
330
8AC
100
AcDbVisualStyle
  2
Gouraud
 70
     2
 71
     2
 72
     2
 73
     1
 90
        2
 40
-0.6
 41
30.0
 62
     5
 63
     7
 74
     0
 91
        4
 64
     7
 65
   257
 75
     1
175
     1
 42
1.0
 92
        0
 66
     7
 43
1.0
 76
     1
 77
     6
 78
     2
 67
     7
 79
     5
170
     0
171
     0
290
     0
174
     0
 93
       13
 44
0.0
173
     0
291
     1
 45
0.0
1001
ACAD
1000
AcDbSavedByObjectVersion
1070
     0
  0
VISUALSTYLE
  5
8B0
102
{ACAD_REACTORS
330
8AC
102
}
330
8AC
100
AcDbVisualStyle
  2
GouraudWithEdges
 70
     3
 71
     2
 72
     2
 73
     1
 90
        2
 40
-0.6
 41
30.0
 62
     5
 63
     7
 74
     1
 91
        4
 64
     7
 65
   257
 75
     1
175
     1
 42
1.0
 92
        0
 66
   257
 43
1.0
 76
     1
 77
     6
 78
     2
 67
     7
 79
     5
170
     0
171
     0
290
     0
174
     0
 93
       13
 44
0.0
173
     0
291
     1
 45
0.0
1001
ACAD
1000
AcDbSavedByObjectVersion
1070
     0
  0
VISUALSTYLE
  5
8BA
102
{ACAD_REACTORS
330
8AC
102
}
330
8AC
100
AcDbVisualStyle
  2
Linepattern
 70
    14
 71
     2
 72
     2
 73
     0
 90
        0
 40
-0.6
 41
-30.0
 62
     5
 63
     7
 74
     1
 91
        4
 64
     7
 65
   257
 75
     7
175
     7
 42
1.0
 92
        8
 66
     7
 43
1.0
 76
     1
 77
     6
 78
     2
 67
     7
 79
     5
170
     0
171
     0
290
     0
174
     0
 93
        1
 44
0.0
173
     0
291
     1
 45
0.0
1001
ACAD
1000
AcDbSavedByObjectVersion
1070
     0
  0
VISUALSTYLE
  5
8B6
102
{ACAD_REACTORS
330
8AC
102
}
330
8AC
100
AcDbVisualStyle
  2
Realistic
 70
     8
 71
     2
 72
     2
 73
     0
 90
        0
 40
-0.6
 41
-30.0
 62
     5
 63
     7
 74
     1
 91
        0
 64
     7
 65
   257
 75
     1
175
     1
 42
1.0
 92
        8
 66
     8
 43
1.0
 76
     1
 77
     6
 78
     2
 67
     7
 79
     5
170
     0
171
     0
290
     0
174
     0
 93
       13
 44
0.0
173
     0
291
     0
 45
0.0
1001
ACAD
1000
AcDbSavedByObjectVersion
1070
     0
  0
VISUALSTYLE
  5
8B9
102
{ACAD_REACTORS
330
8AC
102
}
330
8AC
100
AcDbVisualStyle
  2
Thicken
 70
    13
 71
     2
 72
     2
 73
     0
 90
        0
 40
-0.6
 41
-30.0
 62
     5
 63
     7
 74
     1
 91
        4
 64
     7
 65
   257
 75
     1
175
     1
 42
1.0
 92
       12
 66
     7
 43
1.0
 76
     1
 77
     6
 78
     2
 67
     7
 79
     5
170
     0
171
     0
290
     0
174
     0
 93
        1
 44
0.0
173
     0
291
     1
 45
0.0
1001
ACAD
1000
AcDbSavedByObjectVersion
1070
     0
  0
DICTIONARYVAR
  5
987
102
{ACAD_REACTORS
330
986
102
}
330
986
100
DictionaryVariables
280
     0
  1
STANDARD
  0
DICTIONARYVAR
  5
F40
102
{ACAD_REACTORS
330
986
102
}
330
986
100
DictionaryVariables
280
     0
  1
1
  0
DICTIONARYVAR
  5
F3F
102
{ACAD_REACTORS
330
986
102
}
330
986
100
DictionaryVariables
280
     0
  1
0
  0
DICTIONARYVAR
  5
F3E
102
{ACAD_REACTORS
330
986
102
}
330
986
100
DictionaryVariables
280
     0
  1
127
  0
DICTIONARY
  5
10C5
330
7C6
100
AcDbDictionary
280
     1
281
     1
  3
ACAD_XREC_ROUNDTRIP
360
10C6
  0
DICTIONARY
  5
10C3
330
7C5
100
AcDbDictionary
280
     1
281
     1
  3
ACAD_XREC_ROUNDTRIP
360
10C4
  0
DICTIONARY
  5
10C9
330
8AA
100
AcDbDictionary
280
     1
281
     1
  3
ACAD_XREC_ROUNDTRIP
360
10CA
  0
DICTIONARY
  5
10C7
330
8A9
100
AcDbDictionary
280
     1
281
     1
  3
ACAD_XREC_ROUNDTRIP
360
10C8
  0
DICTIONARY
  5
10CB
330
8AB
100
AcDbDictionary
280
     1
281
     1
  3
ACAD_XREC_ROUNDTRIP
360
10CC
  0
DICTIONARY
  5
10CD
330
8BF
100
AcDbDictionary
280
     1
281
     1
  3
ACAD_XREC_ROUNDTRIP
360
10CE
  0
XRECORD
  5
10C6
102
{ACAD_REACTORS
330
10C5
102
}
330
10C5
100
AcDbXrecord
280
     1
102
SHADEPLOT
 70
     0
102
SHADEPLOTRESLEVEL
 70
     2
102
SHADEPLOTCUSTOMDPI
 70
   300
  0
XRECORD
  5
10C4
102
{ACAD_REACTORS
330
10C3
102
}
330
10C3
100
AcDbXrecord
280
     1
102
SHADEPLOT
 70
     0
102
SHADEPLOTRESLEVEL
 70
     2
102
SHADEPLOTCUSTOMDPI
 70
   300
  0
XRECORD
  5
10CA
102
{ACAD_REACTORS
330
10C9
102
}
330
10C9
100
AcDbXrecord
280
     1
102
MATERIAL
148
0.0
149
0.0
149
0.0
 93
        0
 94
       63
282
     0
 72
     1
 77
     1
171
     1
175
     1
179
     1
273
     0
  0
XRECORD
  5
10C8
102
{ACAD_REACTORS
330
10C7
102
}
330
10C7
100
AcDbXrecord
280
     1
102
MATERIAL
148
0.0
149
0.0
149
0.0
 93
        0
 94
       63
282
     0
 72
     1
 77
     1
171
     1
175
     1
179
     1
273
     0
  0
XRECORD
  5
10CC
102
{ACAD_REACTORS
330
10CB
102
}
330
10CB
100
AcDbXrecord
280
     1
102
MATERIAL
148
0.0
149
0.0
149
0.0
 93
        0
 94
       63
282
     0
 72
     1
 77
     1
171
     1
175
     1
179
     1
273
     0
  0
XRECORD
  5
10CE
102
{ACAD_REACTORS
330
10CD
102
}
330
10CD
100
AcDbXrecord
280
     1
102
ACAD_ROUNDTRIP_PRE2007_TABLESTYLE
 90
      512
 91
        0
  1

 92
      512
 93
        0
  2

 94
      512
 95
        0
  3

  0
ENDSEC
  0
EOF
