  0
SECTION
  2
HEADER
  9
$ACADVER
  1
AC1015
  9
$ACADMAINTVER
 70
    20
  9
$DWGCODEPAGE
  3
ANSI_1252
  9
$INSBASE
 10
0.0
 20
0.0
 30
0.0
  9
$EXTMIN
 10
555.8237627722217
 20
23.36191951189078
 30
0.0
  9
$EXTMAX
 10
1003.632473709721
 20
348.1550199773251
 30
0.0
  9
$LIMMIN
 10
0.0
 20
0.0
  9
$LIMMAX
 10
12.0
 20
9.0
  9
$ORTHOMODE
 70
     1
  9
$REGENMODE
 70
     1
  9
$FILLMODE
 70
     1
  9
$QTEXTMODE
 70
     0
  9
$MIRRTEXT
 70
     0
  9
$LTSCALE
 40
5.0
  9
$ATTMODE
 70
     1
  9
$TEXTSIZE
 40
3.0954
  9
$TRACEWID
 40
0.05
  9
$TEXTSTYLE
  7
ROMANS
  9
$CLAYER
  8
0
  9
$CELTYPE
  6
BYLAYER
  9
$CECOLOR
 62
   256
  9
$CELTSCALE
 40
1.0
  9
$DISPSILH
 70
     0
  9
$DIMSCALE
 40
38.0
  9
$DIMASZ
 40
0.0625
  9
$DIMEXO
 40
0.0625
  9
$DIMDLI
 40
0.375
  9
$DIMRND
 40
0.0
  9
$DIMDLE
 40
0.0
  9
$DIMEXE
 40
0.0625
  9
$DIMTP
 40
0.0
  9
$DIMTM
 40
0.0
  9
$DIMTXT
 40
0.0804
  9
$DIMCEN
 40
0.0625
  9
$DIMTSZ
 40
0.0
  9
$DIMTOL
 70
     0
  9
$DIMLIM
 70
     0
  9
$DIMTIH
 70
     1
  9
$DIMTOH
 70
     1
  9
$DIMSE1
 70
     0
  9
$DIMSE2
 70
     0
  9
$DIMTAD
 70
     0
  9
$DIMZIN
 70
     3
  9
$DIMBLK
  1

  9
$DIMASO
 70
     1
  9
$DIMSHO
 70
     1
  9
$DIMPOST
  1

  9
$DIMAPOST
  1

  9
$DIMALT
 70
     0
  9
$DIMALTD
 70
     2
  9
$DIMALTF
 40
25.4
  9
$DIMLFAC
 40
1.0
  9
$DIMTOFL
 70
     0
  9
$DIMTVP
 40
0.0
  9
$DIMTIX
 70
     0
  9
$DIMSOXD
 70
     0
  9
$DIMSAH
 70
     0
  9
$DIMBLK1
  1

  9
$DIMBLK2
  1

  9
$DIMSTYLE
  2
STANDARD
  9
$DIMCLRD
 70
     0
  9
$DIMCLRE
 70
     0
  9
$DIMCLRT
 70
     0
  9
$DIMTFAC
 40
1.0
  9
$DIMGAP
 40
0.0625
  9
$DIMJUST
 70
     0
  9
$DIMSD1
 70
     0
  9
$DIMSD2
 70
     0
  9
$DIMTOLJ
 70
     1
  9
$DIMTZIN
 70
     3
  9
$DIMALTZ
 70
     0
  9
$DIMALTTZ
 70
     0
  9
$DIMUPT
 70
     0
  9
$DIMDEC
 70
     4
  9
$DIMTDEC
 70
     4
  9
$DIMALTU
 70
     2
  9
$DIMALTTD
 70
     2
  9
$DIMTXSTY
  7
ROMANS
  9
$DIMAUNIT
 70
     0
  9
$DIMADEC
 70
     0
  9
$DIMALTRND
 40
0.0
  9
$DIMAZIN
 70
     0
  9
$DIMDSEP
 70
    46
  9
$DIMATFIT
 70
     3
  9
$DIMFRAC
 70
     2
  9
$DIMLDRBLK
  1

  9
$DIMLUNIT
 70
     4
  9
$DIMLWD
 70
    -2
  9
$DIMLWE
 70
    -2
  9
$DIMTMOVE
 70
     2
  9
$LUNITS
 70
     4
  9
$LUPREC
 70
     4
  9
$SKETCHINC
 40
0.1
  9
$FILLETRAD
 40
0.0
  9
$AUNITS
 70
     0
  9
$AUPREC
 70
     0
  9
$MENU
  1
acad
  9
$ELEVATION
 40
0.0
  9
$PELEVATION
 40
0.0
  9
$THICKNESS
 40
0.0
  9
$LIMCHECK
 70
     0
  9
$CHAMFERA
 40
0.0
  9
$CHAMFERB
 40
0.0
  9
$CHAMFERC
 40
0.0
  9
$CHAMFERD
 40
0.0
  9
$SKPOLY
 70
     0
  9
$TDCREATE
 40
2450687.378820139
  9
$TDUCREATE
 40
2450687.545486806
  9
$TDUPDATE
 40
2459472.727783032
  9
$TDUUPDATE
 40
2459472.894449699
  9
$TDINDWG
 40
0.2387409606
  9
$TDUSRTIMER
 40
0.2387409606
  9
$USRTIMER
 70
     1
  9
$ANGBASE
 50
0.0
  9
$ANGDIR
 70
     0
  9
$PDMODE
 70
    33
  9
$PDSIZE
 40
0.0
  9
$PLINEWID
 40
0.0
  9
$SPLFRAME
 70
     0
  9
$SPLINETYPE
 70
     6
  9
$SPLINESEGS
 70
     8
  9
$HANDSEED
  5
1F99
  9
$SURFTAB1
 70
     6
  9
$SURFTAB2
 70
     6
  9
$SURFTYPE
 70
     6
  9
$SURFU
 70
     6
  9
$SURFV
 70
     6
  9
$UCSBASE
  2

  9
$UCSNAME
  2

  9
$UCSORG
 10
0.0
 20
0.0
 30
0.0
  9
$UCSXDIR
 10
1.0
 20
0.0
 30
0.0
  9
$UCSYDIR
 10
0.0
 20
1.0
 30
0.0
  9
$UCSORTHOREF
  2

  9
$UCSORTHOVIEW
 70
     0
  9
$UCSORGTOP
 10
0.0
 20
0.0
 30
0.0
  9
$UCSORGBOTTOM
 10
0.0
 20
0.0
 30
0.0
  9
$UCSORGLEFT
 10
0.0
 20
0.0
 30
0.0
  9
$UCSORGRIGHT
 10
0.0
 20
0.0
 30
0.0
  9
$UCSORGFRONT
 10
0.0
 20
0.0
 30
0.0
  9
$UCSORGBACK
 10
0.0
 20
0.0
 30
0.0
  9
$PUCSBASE
  2

  9
$PUCSNAME
  2

  9
$PUCSORG
 10
0.0
 20
0.0
 30
0.0
  9
$PUCSXDIR
 10
1.0
 20
0.0
 30
0.0
  9
$PUCSYDIR
 10
0.0
 20
1.0
 30
0.0
  9
$PUCSORTHOREF
  2

  9
$PUCSORTHOVIEW
 70
     0
  9
$PUCSORGTOP
 10
0.0
 20
0.0
 30
0.0
  9
$PUCSORGBOTTOM
 10
0.0
 20
0.0
 30
0.0
  9
$PUCSORGLEFT
 10
0.0
 20
0.0
 30
0.0
  9
$PUCSORGRIGHT
 10
0.0
 20
0.0
 30
0.0
  9
$PUCSORGFRONT
 10
0.0
 20
0.0
 30
0.0
  9
$PUCSORGBACK
 10
0.0
 20
0.0
 30
0.0
  9
$USERI1
 70
     0
  9
$USERI2
 70
     0
  9
$USERI3
 70
     0
  9
$USERI4
 70
     0
  9
$USERI5
 70
     0
  9
$USERR1
 40
0.0
  9
$USERR2
 40
0.0
  9
$USERR3
 40
0.0
  9
$USERR4
 40
0.0
  9
$USERR5
 40
0.0
  9
$WORLDVIEW
 70
     1
  9
$SHADEDGE
 70
     3
  9
$SHADEDIF
 70
    70
  9
$TILEMODE
 70
     1
  9
$MAXACTVP
 70
    16
  9
$PINSBASE
 10
0.0
 20
0.0
 30
0.0
  9
$PLIMCHECK
 70
     0
  9
$PEXTMIN
 10
1.000000000000000E+20
 20
1.000000000000000E+20
 30
1.000000000000000E+20
  9
$PEXTMAX
 10
-1.000000000000000E+20
 20
-1.000000000000000E+20
 30
-1.000000000000000E+20
  9
$PLIMMIN
 10
0.0
 20
0.0
  9
$PLIMMAX
 10
12.0
 20
9.0
  9
$UNITMODE
 70
     0
  9
$VISRETAIN
 70
     0
  9
$PLINEGEN
 70
     0
  9
$PSLTSCALE
 70
     1
  9
$TREEDEPTH
 70
  3020
  9
$CMLSTYLE
  2
STANDARD
  9
$CMLJUST
 70
     0
  9
$CMLSCALE
 40
1.0
  9
$PROXYGRAPHICS
 70
     1
  9
$MEASUREMENT
 70
     0
  9
$CELWEIGHT
370
    -1
  9
$ENDCAPS
280
     0
  9
$JOINSTYLE
280
     0
  9
$LWDISPLAY
290
     0
  9
$INSUNITS
 70
     0
  9
$HYPERLINKBASE
  1

  9
$STYLESHEET
  1
acad.ctb
  9
$XEDIT
290
     1
  9
$CEPSNTYPE
380
     0
  9
$PSTYLEMODE
290
     1
  9
$FINGERPRINTGUID
  2
{C733DB8F-0DC2-11D7-8738-0010B50CF566}
  9
$VERSIONGUID
  2
{CCECF7C2-2498-4E7B-9B62-156975B245FC}
  9
$EXTNAMES
290
     1
  9
$PSVPSCALE
 40
0.0
  9
$OLESTARTUP
290
     0
  0
ENDSEC
  0
SECTION
  2
CLASSES
  0
CLASS
  1
ACDBDICTIONARYWDFLT
  2
AcDbDictionaryWithDefault
  3
ObjectDBX Classes
 90
        0
280
     0
281
     0
  0
CLASS
  1
ACDBPLACEHOLDER
  2
AcDbPlaceHolder
  3
ObjectDBX Classes
 90
        0
280
     0
281
     0
  0
CLASS
  1
LAYOUT
  2
AcDbLayout
  3
ObjectDBX Classes
 90
        0
280
     0
281
     0
  0
CLASS
  1
MATERIAL
  2
AcDbMaterial
  3
ObjectDBX Classes
 90
     1024
280
     0
281
     0
  0
CLASS
  1
VISUALSTYLE
  2
AcDbVisualStyle
  3
ObjectDBX Classes
 90
     4095
280
     0
281
     0
  0
CLASS
  1
TABLESTYLE
  2
AcDbTableStyle
  3
ObjectDBX Classes
 90
     4095
280
     0
281
     0
  0
CLASS
  1
SORTENTSTABLE
  2
AcDbSortentsTable
  3
ObjectDBX Classes
 90
        0
280
     0
281
     0
  0
CLASS
  1
DICTIONARYVAR
  2
AcDbDictionaryVar
  3
ObjectDBX Classes
 90
        0
280
     0
281
     0
  0
CLASS
  1
EXACXREFPANELOBJECT
  2
ExAcXREFPanelObject
  3
EXAC_ESW
 90
     1025
280
     0
281
     0
  0
CLASS
  1
NPOCOLLECTION
  2
AcDbImpNonPersistentObjectsCollection
  3
ObjectDBX Classes
 90
     1153
280
     0
281
     0
  0
CLASS
  1
EXACTERMXREFMAP
  2
ExAcTermXrefMap
  3
EXAC_SERVICE
 90
    33793
280
     0
281
     0
  0
ENDSEC
  0
SECTION
  2
TABLES
  0
TABLE
  2
VPORT
  5
45E
102
{ACAD_XDICTIONARY
360
1EE2
102
}
330
0
100
AcDbSymbolTable
 70
     1
  0
VPORT
  5
168A
330
45E
100
AcDbSymbolTableRecord
100
AcDbViewportTableRecord
  2
*Active
 70
     0
 10
0.0
 20
0.0
 11
1.0
 21
1.0
 12
773.9582816782406
 22
176.4539073437587
 13
0.0
 23
0.0
 14
1.0
 24
1.0
 15
0.0
 25
0.0
 16
0.0
 26
0.0
 36
1.0
 17
0.0
 27
0.0
 37
0.0
 40
357.1450169777497
 41
2.153388822829964
 42
50.0
 43
0.0
 44
0.0
 50
0.0
 51
0.0
 71
     0
 72
   100
 73
     1
 74
     0
 75
     0
 76
     0
 77
     0
 78
     0
281
     0
 65
     1
110
0.0
120
0.0
130
0.0
111
1.0
121
0.0
131
0.0
112
0.0
122
1.0
132
0.0
 79
     0
146
0.0
  0
ENDTAB
  0
TABLE
  2
LTYPE
  5
45B
330
0
100
AcDbSymbolTable
 70
     1
  0
LTYPE
  5
468
330
45B
100
AcDbSymbolTableRecord
100
AcDbLinetypeTableRecord
  2
BYBLOCK
 70
     0
  3

 72
    65
 73
     0
 40
0.0
  0
LTYPE
  5
469
330
45B
100
AcDbSymbolTableRecord
100
AcDbLinetypeTableRecord
  2
BYLAYER
 70
     0
  3

 72
    65
 73
     0
 40
0.0
  0
LTYPE
  5
46A
330
45B
100
AcDbSymbolTableRecord
100
AcDbLinetypeTableRecord
  2
CONTINUOUS
 70
     0
  3
Solid line
 72
    65
 73
     0
 40
0.0
  0
ENDTAB
  0
TABLE
  2
LAYER
  5
458
330
0
100
AcDbSymbolTable
 70
     2
  0
LAYER
  5
465
330
458
100
AcDbSymbolTableRecord
100
AcDbLayerTableRecord
  2
0
 70
     0
 62
     7
  6
CONTINUOUS
370
    -3
390
13B5
  0
LAYER
  5
497
330
458
100
AcDbSymbolTableRecord
100
AcDbLayerTableRecord
  2
DEFPOINTS
 70
     0
 62
     7
  6
CONTINUOUS
290
     0
370
    -3
390
13B5
  0
ENDTAB
  0
TABLE
  2
STYLE
  5
459
330
0
100
AcDbSymbolTable
 70
     6
  0
STYLE
  5
466
330
459
100
AcDbSymbolTableRecord
100
AcDbTextStyleTableRecord
  2
STANDARD
 70
     0
 40
0.0
 41
1.0
 50
0.0
 71
     0
 42
0.2
  3
txt
  4

  0
STYLE
  5
48C
330
459
100
AcDbSymbolTableRecord
100
AcDbTextStyleTableRecord
  2
ROMANS
 70
     0
 40
0.0
 41
1.0
 50
0.0
 71
     0
 42
3.0954
  3
romans
  4

  0
STYLE
  5
48D
330
459
100
AcDbSymbolTableRecord
100
AcDbTextStyleTableRecord
  2
ROMANC
 70
     0
 40
2.68
 41
1.0
 50
0.0
 71
     0
 42
3.0954
  3
romanc
  4

  0
STYLE
  5
7E5
330
459
100
AcDbSymbolTableRecord
100
AcDbTextStyleTableRecord
  2
STYLE1
 70
     0
 40
0.0
 41
1.0
 50
0.0
 71
     0
 42
3.0954
  3
C:\Program Files\AutoCAD LT\romanc.shx
  4

  0
STYLE
  5
1D0A
330
459
100
AcDbSymbolTableRecord
100
AcDbTextStyleTableRecord
  2
CAT_BORDER$0$ROMANS
 70
     0
 40
0.0
 41
1.0
 50
0.0
 71
     0
 42
1.768799999999999
  3
romans
  4

  0
STYLE
  5
1D0B
330
459
100
AcDbSymbolTableRecord
100
AcDbTextStyleTableRecord
  2
CAT_BORDER$0$STYLE1
 70
     0
 40
0.0
 41
1.0
 50
0.0
 71
     0
 42
3.0954
  3
C:\Program Files\AutoCAD LT\romanc.shx
  4

  0
ENDTAB
  0
TABLE
  2
VIEW
  5
45C
330
0
100
AcDbSymbolTable
 70
     0
  0
ENDTAB
  0
TABLE
  2
UCS
  5
45D
330
0
100
AcDbSymbolTable
 70
     0
  0
ENDTAB
  0
TABLE
  2
APPID
  5
45F
330
0
100
AcDbSymbolTable
 70
     2
  0
APPID
  5
467
330
45F
100
AcDbSymbolTableRecord
100
AcDbRegAppTableRecord
  2
ACAD
 70
     0
  0
APPID
  5
16E7
330
45F
100
AcDbSymbolTableRecord
100
AcDbRegAppTableRecord
  2
ACAD_PSEXT
 70
     0
  0
ENDTAB
  0
TABLE
  2
DIMSTYLE
  5
460
330
0
100
AcDbSymbolTable
 70
     2
100
AcDbDimStyleTable
 71
     2
340
496
340
FE7
  0
DIMSTYLE
105
496
102
{ACAD_REACTORS
330
317
330
3BE
330
319
330
3C8
330
316
330
318
330
40E
330
32C
102
}
330
460
100
AcDbSymbolTableRecord
100
AcDbDimStyleTableRecord
  2
STANDARD
 70
     0
 40
38.0
 41
0.0625
 43
0.375
 44
0.0625
 78
     3
140
0.0804
141
0.0625
147
0.0625
276
     2
277
     4
279
     2
284
     3
340
48C
  0
DIMSTYLE
105
FE7
102
{ACAD_REACTORS
330
16C6
102
}
330
460
100
AcDbSymbolTableRecord
100
AcDbDimStyleTableRecord
  2
STANDARD$0
 70
     0
 40
38.0
 41
0.0625
 43
0.375
 44
0.0625
 78
     3
140
0.0804
141
0.0625
147
0.0625
276
     2
277
     4
279
     2
284
     3
340
48C
  0
ENDTAB
  0
TABLE
  2
BLOCK_RECORD
  5
457
330
0
100
AcDbSymbolTable
 70
    21
  0
BLOCK_RECORD
  5
46E
102
{ACAD_XDICTIONARY
360
16B1
102
}
330
457
100
AcDbSymbolTableRecord
100
AcDbBlockTableRecord
  2
*MODEL_SPACE
340
13B8
  0
BLOCK_RECORD
  5
46B
330
457
100
AcDbSymbolTableRecord
100
AcDbBlockTableRecord
  2
*PAPER_SPACE
340
13B9
  0
BLOCK_RECORD
  5
487
330
457
100
AcDbSymbolTableRecord
100
AcDbBlockTableRecord
  2
TB-ATT
340
0
  0
BLOCK_RECORD
  5
48B
330
457
100
AcDbSymbolTableRecord
100
AcDbBlockTableRecord
  2
LINETYPE
340
0
102
{BLKREFS
331
42E
331
9B0
331
9F2
331
11B2
331
11F4
102
}
  0
BLOCK_RECORD
  5
13F6
330
457
100
AcDbSymbolTableRecord
100
AcDbBlockTableRecord
  2
border-T
340
0
102
{BLKREFS
331
1E0C
102
}
  0
BLOCK_RECORD
  5
1417
330
457
100
AcDbSymbolTableRecord
100
AcDbBlockTableRecord
  2
*D3
340
0
  0
BLOCK_RECORD
  5
1424
330
457
100
AcDbSymbolTableRecord
100
AcDbBlockTableRecord
  2
*D4
340
0
  0
BLOCK_RECORD
  5
1431
330
457
100
AcDbSymbolTableRecord
100
AcDbBlockTableRecord
  2
*D5
340
0
  0
BLOCK_RECORD
  5
143E
330
457
100
AcDbSymbolTableRecord
100
AcDbBlockTableRecord
  2
*D6
340
0
  0
BLOCK_RECORD
  5
144B
330
457
100
AcDbSymbolTableRecord
100
AcDbBlockTableRecord
  2
*D7
340
0
  0
BLOCK_RECORD
  5
1458
330
457
100
AcDbSymbolTableRecord
100
AcDbBlockTableRecord
  2
*D8
340
0
  0
BLOCK_RECORD
  5
1464
330
457
100
AcDbSymbolTableRecord
100
AcDbBlockTableRecord
  2
*D9
340
0
  0
BLOCK_RECORD
  5
1471
330
457
100
AcDbSymbolTableRecord
100
AcDbBlockTableRecord
  2
*D10
340
0
  0
BLOCK_RECORD
  5
1582
330
457
100
AcDbSymbolTableRecord
100
AcDbBlockTableRecord
  2
*D11
340
0
  0
BLOCK_RECORD
  5
158F
330
457
100
AcDbSymbolTableRecord
100
AcDbBlockTableRecord
  2
*D12
340
0
  0
BLOCK_RECORD
  5
159C
330
457
100
AcDbSymbolTableRecord
100
AcDbBlockTableRecord
  2
*D13
340
0
  0
BLOCK_RECORD
  5
15A9
330
457
100
AcDbSymbolTableRecord
100
AcDbBlockTableRecord
  2
*D14
340
0
  0
BLOCK_RECORD
  5
15B6
330
457
100
AcDbSymbolTableRecord
100
AcDbBlockTableRecord
  2
*D15
340
0
  0
BLOCK_RECORD
  5
15C3
330
457
100
AcDbSymbolTableRecord
100
AcDbBlockTableRecord
  2
*D16
340
0
  0
BLOCK_RECORD
  5
16B3
330
457
100
AcDbSymbolTableRecord
100
AcDbBlockTableRecord
  2
A$C6D566CCC
340
0
102
{BLKREFS
331
16BD
102
}
  0
BLOCK_RECORD
  5
16BC
102
{ACAD_XDICTIONARY
360
16BE
102
}
330
457
100
AcDbSymbolTableRecord
100
AcDbBlockTableRecord
  2
A$C2DF97754
340
0
  0
BLOCK_RECORD
  5
16C7
330
457
100
AcDbSymbolTableRecord
100
AcDbBlockTableRecord
  2
*D19
340
0
  0
BLOCK_RECORD
  5
1ABD
330
457
100
AcDbSymbolTableRecord
100
AcDbBlockTableRecord
  2
*X20
340
0
102
{BLKREFS
331
1DA7
102
}
  0
ENDTAB
  0
ENDSEC
  0
SECTION
  2
BLOCKS
  0
BLOCK
  5
49A
330
46E
100
AcDbEntity
  8
0
100
AcDbBlockBegin
  2
*MODEL_SPACE
 70
     0
 10
0.0
 20
0.0
 30
0.0
  3
*MODEL_SPACE
  1

  0
ENDBLK
  5
49B
330
46E
100
AcDbEntity
  8
0
100
AcDbBlockEnd
  0
BLOCK
  5
498
330
46B
100
AcDbEntity
 67
     1
  8
0
100
AcDbBlockBegin
  2
*PAPER_SPACE
 70
     0
 10
0.0
 20
0.0
 30
0.0
  3
*PAPER_SPACE
  1

  0
ENDBLK
  5
499
330
46B
100
AcDbEntity
 67
     1
  8
0
100
AcDbBlockEnd
  0
BLOCK
  5
1CF
330
487
100
AcDbEntity
  8
0
100
AcDbBlockBegin
  2
TB-ATT
 70
     2
 10
0.0
 20
0.0
 30
0.0
  3
TB-ATT
  1

  0
ATTDEF
  5
1D0
330
487
100
AcDbEntity
  8
0
100
AcDbText
 10
-121.8883742323092
 20
7.291758621233725
 30
0.0
 40
0.7058823529411765
  1

 50
90.0
  7
ROMANS
 72
     4
 11
-122.2413154087798
 21
7.627893075015208
 31
0.0
100
AcDbAttributeDefinition
  3
WORK ORDER (X)
  2
X
 70
     0
  0
ATTDEF
  5
1D1
330
487
100
AcDbEntity
  8
0
100
AcDbText
 10
-90.67763233749303
 20
0.4868289502636003
 30
0.0
 40
0.9997165714285713
  1
DSL
  7
ROMANS
 72
     1
 11
-87.15482156198289
 21
0.4868289502636003
 31
0.0
100
AcDbAttributeDefinition
  3
DRAWN BY
  2
DRAWNBY
 70
     0
  0
ATTDEF
  5
1D2
330
487
100
AcDbEntity
  8
0
100
AcDbText
 10
-114.0698072905983
 20
6.311447687980034
 30
0.0
 40
0.9997165714285713
  1

  7
ROMANS
 72
     1
 11
-109.9995326783534
 21
6.311447687980034
 31
0.0
100
AcDbAttributeDefinition
  3
DWG CHECK
  2
DWGCHECK
 70
     0
  0
ATTDEF
  5
1D3
330
487
100
AcDbEntity
  8
0
100
AcDbText
 10
-112.9986823926391
 20
3.771155051645564
 30
0.0
 40
0.9997165714285713
  1

  7
ROMANS
 72
     1
 11
-109.9995326783534
 21
3.771155051645564
 31
0.0
100
AcDbAttributeDefinition
  3
BUILT BY
  2
BUILTBY
 70
     0
  0
ATTDEF
  5
1D4
330
487
100
AcDbEntity
  8
0
100
AcDbText
 10
-114.4030461477411
 20
0.8588456827873187
 30
0.0
 40
0.9997165714285713
  1

  7
ROMANS
 72
     1
 11
-109.9995326783534
 21
0.8588456827873187
 31
0.0
100
AcDbAttributeDefinition
  3
CHECKED BY
  2
CHECKEDBY
 70
     0
  0
ATTDEF
  5
1D5
330
487
100
AcDbEntity
  8
0
100
AcDbText
 10
-71.86668964361553
 20
3.399138319121846
 30
0.0
 40
0.9997165714285713
  1

  7
ROMANS
 72
     1
 11
-70.05767870483999
 21
3.399138319121846
 31
0.0
100
AcDbAttributeDefinition
  3
DRAWN DATE
  2
DATE
 70
     0
  0
ATTDEF
  5
1D6
330
487
100
AcDbEntity
  8
0
100
AcDbText
 10
-71.86668964361553
 20
0.4868289502636003
 30
0.0
 40
0.9997165714285713
  1

  7
ROMANS
 72
     1
 11
-70.05767870483999
 21
0.4868289502636003
 31
0.0
100
AcDbAttributeDefinition
  3
DATE
  2
DATE
 70
     0
  0
ATTDEF
  5
1D7
330
487
100
AcDbEntity
  8
0
100
AcDbText
 10
-91.55833503137058
 20
6.311447687980034
 30
0.0
 40
0.9997165714285713
  1

  7
ROMANS
 72
     1
 11
-87.15482156198289
 21
6.311447687980034
 31
0.0
100
AcDbAttributeDefinition
  3
ARCHITECT OR ENGINEER
  2
ARCHORENG
 70
     0
  0
ATTDEF
  5
1D8
330
487
100
AcDbEntity
  8
0
100
AcDbText
 10
-93.55776817422777
 20
3.399138319121846
 30
0.0
 40
0.9997165714285713
  1

  7
ROMANS
 72
     1
 11
-87.15482156198289
 21
3.399138319121846
 31
0.0
100
AcDbAttributeDefinition
  3
PURCHASE ORDER
  2
PURCHASEORDER
 70
     0
  0
ATTDEF
  5
1D9
330
487
100
AcDbEntity
  8
0
100
AcDbText
 10
-56.26912164361556
 20
6.311447687980034
 30
0.0
 40
0.9997165714285713
  1

  7
ROMANS
 72
     1
 11
-52.96053584769714
 21
6.311447687980034
 31
0.0
100
AcDbAttributeDefinition
  3
PROJECT
  2
PROJECT
 70
     0
  0
ATTDEF
  5
1DA
330
487
100
AcDbEntity
  8
0
100
AcDbText
 10
-52.724994949738
 20
3.399138319121846
 30
0.0
 40
0.9997165714285713
  1

  7
ROMANS
 72
     1
 11
-48.29767870484005
 21
3.399138319121846
 31
0.0
100
AcDbAttributeDefinition
  3
PURCHASER
  2
PURCHASER
 70
     0
  0
ATTDEF
  5
1DB
330
487
100
AcDbEntity
  8
0
100
AcDbText
 10
-19.1090811538196
 20
6.311447687980034
 30
0.0
 40
0.9997165714285713
  1

  7
ROMANS
 72
     1
 11
-15.65767870484001
 21
6.311447687980034
 31
0.0
100
AcDbAttributeDefinition
  3
GENERAL CONTRACTOR
  2
GENCONT
 70
     0
  0
ATTDEF
  5
1DC
330
487
100
AcDbEntity
  8
0
100
AcDbText
 10
-17.13345078647262
 20
3.399138319121846
 30
0.0
 40
0.9997165714285713
  1

  7
ROMANS
 72
     1
 11
-15.65767870484001
 21
3.399138319121846
 31
0.0
100
AcDbAttributeDefinition
  3
PRECISION REP
  2
REP
 70
     0
  0
ATTDEF
  5
1DD
330
487
100
AcDbEntity
  8
0
100
AcDbText
 10
-53.92934433749309
 20
0.4868289502636572
 30
0.0
 40
0.9997165714285713
  1

  7
ROMANS
 72
     1
 11
-51.40625013341145
 21
0.4868289502636572
 31
0.0
100
AcDbAttributeDefinition
  3
MODEL #
  2
MODEL
 70
     0
  0
ATTDEF
  5
1DE
330
487
100
AcDbEntity
  8
0
100
AcDbText
 10
-35.6896682558604
 20
0.4868289502636003
 30
0.0
 40
0.9997165714285713
  1
1
  7
ROMANS
 72
     1
 11
-34.30910727626861
 21
0.4868289502636003
 31
0.0
100
AcDbAttributeDefinition
  3
QUANTITY
  2
QTY
 70
     0
  0
ATTDEF
  5
1DF
330
487
100
AcDbEntity
  8
0
100
AcDbText
 10
-18.15697013341145
 20
0.4868289502636003
 30
0.0
 40
0.9997165714285713
  1

  7
ROMANS
 72
     1
 11
-15.65767870484001
 21
0.4868289502636003
 31
0.0
100
AcDbAttributeDefinition
  3
SERIAL #
  2
SERIAL
 70
     0
  0
ENDBLK
  5
1E0
330
487
100
AcDbEntity
  8
0
100
AcDbBlockEnd
  0
BLOCK
  5
215
330
48B
100
AcDbEntity
  8
0
100
AcDbBlockBegin
  2
LINETYPE
 70
     0
 10
0.0
 20
0.0
 30
0.0
  3
LINETYPE
  1

  0
ENDBLK
  5
216
330
48B
100
AcDbEntity
  8
0
100
AcDbBlockEnd
  0
BLOCK
  5
1405
330
13F6
100
AcDbEntity
  8
0
100
AcDbBlockBegin
  2
border-T
 70
     2
 10
0.0
 20
0.0
 30
0.0
  3
border-T
  1

  0
ATTDEF
  5
13F7
330
13F6
100
AcDbEntity
  8
0
 62
     5
100
AcDbText
 10
1.270598029493498
 20
16.95296065185261
 30
0.0
 40
2.25
  1

  7
ROMANS
100
AcDbAttributeDefinition
  3
SCALE
  2
SCALE
 70
     0
  0
ATTDEF
  5
13F8
330
13F6
100
AcDbEntity
  8
0
100
AcDbText
 10
267.5431072019895
 20
17.84606723821125
 30
0.0
 40
1.7518359375
  1

  7
ROMANS
 72
     4
 11
267.5431072019895
 21
17.84606723821125
 31
0.0
100
AcDbAttributeDefinition
  3
SAVED AS
  2
SAVEDAS
 70
     0
  0
ATTDEF
  5
13F9
330
13F6
100
AcDbEntity
  8
0
 62
     5
100
AcDbText
 10
65.77232295450201
 20
13.4910955979239
 30
0.0
 40
1.248161764705882
  1

 50
90.0
  7
ROMANS
 72
     4
 11
65.77232295450201
 21
13.4910955979239
 31
0.0
100
AcDbAttributeDefinition
  3
WORK ORDER (X)
  2
X
 70
     0
  0
ATTDEF
  5
13FA
330
13F6
100
AcDbEntity
  8
0
100
AcDbText
 10
120.7768196578975
 20
11.16830391662092
 30
0.0
 40
1.769029714285714
  1

  7
ROMANS
 72
     1
 11
120.7768196578975
 21
11.16830391662092
 31
0.0
100
AcDbAttributeDefinition
  3
ARCHITECT OR ENGINEER
  2
ARCHORENG
 70
     0
  0
ATTDEF
  5
13FB
330
13F6
100
AcDbEntity
  8
0
100
AcDbText
 10
120.7768196578975
 20
6.014881478758579
 30
0.0
 40
1.769029714285714
  1

  7
ROMANS
 72
     1
 11
120.7768196578975
 21
6.014881478758579
 31
0.0
100
AcDbAttributeDefinition
  3
PURCHASE ORDER
  2
PURCHASEORDER
 70
     0
  0
ATTDEF
  5
13FC
330
13F6
100
AcDbEntity
  8
0
100
AcDbText
 10
118.4602331272852
 20
0.8614590408961362
 30
0.0
 40
1.769029714285714
  1
JEB
  7
ROMANS
 72
     1
 11
120.7768196578975
 21
0.8614590408961362
 31
0.0
100
AcDbAttributeDefinition
  3
WHO ARE YOU?
  2
DRAWNBY
 70
     0
  0
ATTDEF
  5
13FD
330
13F6
100
AcDbEntity
  8
0
100
AcDbText
 10
151.0307482293261
 20
6.014881478758579
 30
0.0
 40
1.769029714285714
  1

  7
ROMANS
 72
     1
 11
151.0307482293261
 21
6.014881478758579
 31
0.0
100
AcDbAttributeDefinition
  3
WORK ORDER DATE?
  2
DATE
 70
     0
  0
ATTDEF
  5
13FE
330
13F6
100
AcDbEntity
  8
0
100
AcDbText
 10
151.0307482293261
 20
0.8614590408961362
 30
0.0
 40
1.769029714285714
  1

  7
ROMANS
 72
     1
 11
151.0307482293261
 21
0.8614590408961362
 31
0.0
100
AcDbAttributeDefinition
  3
WHAT IS TODAY'S DATE?
  2
DATE
 70
     0
  0
ATTDEF
  5
13FF
330
13F6
100
AcDbEntity
  8
0
100
AcDbText
 10
181.2846768007546
 20
11.16830391662092
 30
0.0
 40
1.769029714285714
  1

  7
ROMANS
 72
     1
 11
181.2846768007546
 21
11.16830391662092
 31
0.0
100
AcDbAttributeDefinition
  3
PROJECT
  2
PROJECT
 70
     0
  0
ATTDEF
  5
1400
330
13F6
100
AcDbEntity
  8
0
100
AcDbText
 10
189.535748229326
 20
6.014881478758579
 30
0.0
 40
1.769029714285714
  1

  7
ROMANS
 72
     1
 11
189.535748229326
 21
6.014881478758579
 31
0.0
100
AcDbAttributeDefinition
  3
PURCHASER
  2
PURCHASER
 70
     0
  0
ATTDEF
  5
1401
330
13F6
100
AcDbEntity
  8
0
100
AcDbText
 10
184.0350339436118
 20
0.8614590408962374
 30
0.0
 40
1.769029714285714
  1

  7
ROMANS
 72
     1
 11
184.0350339436118
 21
0.8614590408962374
 31
0.0
100
AcDbAttributeDefinition
  3
MODEL #
  2
MODEL
 70
     0
  0
ATTDEF
  5
1402
330
13F6
100
AcDbEntity
  8
0
100
AcDbText
 10
213.5729266783056
 20
0.8614590408961362
 30
0.0
 40
1.769029714285714
  1
1
  7
ROMANS
 72
     1
 11
214.2889625150403
 21
0.8614590408961362
 31
0.0
100
AcDbAttributeDefinition
  3
QUANTITY
  2
QTY
 70
     0
  0
ATTDEF
  5
1403
330
13F6
100
AcDbEntity
  8
0
100
AcDbText
 10
247.2932482293261
 20
11.16763472788734
 30
0.0
 40
1.769029714285714
  1

  7
ROMANS
 72
     1
 11
247.2932482293261
 21
11.16763472788734
 31
0.0
100
AcDbAttributeDefinition
  3
PRECISION REP
  2
REP
 70
     0
  0
ATTDEF
  5
1404
330
13F6
100
AcDbEntity
  8
0
100
AcDbText
 10
247.3274175489777
 20
3.153238685427304
 30
0.0
 40
3.455136160714285
  1

  7
ROMANS
 72
     1
 11
247.3274175489777
 21
3.153238685427304
 31
0.0
100
AcDbAttributeDefinition
  3
SERIAL #
  2
L010000
 70
     0
  0
ENDBLK
  5
1406
330
13F6
100
AcDbEntity
  8
0
100
AcDbBlockEnd
  0
BLOCK
  5
1422
330
1417
100
AcDbEntity
  8
0
100
AcDbBlockBegin
  2
*D3
 70
     1
 10
0.0
 20
0.0
 30
0.0
  3
*D3
  1

  0
LINE
  5
1E30
330
1417
100
AcDbEntity
  8
0
 62
     0
370
    -2
100
AcDbLine
 10
633.7797528892131
 20
162.1167642330353
 30
0.0
 11
647.5140041677441
 21
162.1167642330353
 31
0.0
  0
LINE
  5
1E31
330
1417
100
AcDbEntity
  8
0
 62
     0
370
    -2
100
AcDbLine
 10
629.7797528892131
 20
210.1167642330354
 30
0.0
 11
647.5140041677441
 21
210.1167642330354
 31
0.0
  0
LINE
  5
1E32
330
1417
100
AcDbEntity
  8
0
 62
     0
370
    -2
100
AcDbLine
 10
645.1390041677441
 20
164.4917642330353
 30
0.0
 11
645.1390041677441
 21
181.9231928044639
 31
0.0
  0
LINE
  5
1E33
330
1417
100
AcDbEntity
  8
0
 62
     0
370
    -2
100
AcDbLine
 10
645.1390041677441
 20
207.7417642330354
 30
0.0
 11
645.1390041677441
 21
190.3103356616068
 31
0.0
  0
SOLID
  5
1E34
330
1417
100
AcDbEntity
  8
0
 62
     0
100
AcDbTrace
 10
644.7431708344107
 20
164.4917642330353
 30
0.0
 11
645.5348375010775
 21
164.4917642330353
 31
0.0
 12
645.1390041677441
 22
162.1167642330353
 32
0.0
 13
645.1390041677441
 23
162.1167642330353
 33
0.0
  0
SOLID
  5
1E35
330
1417
100
AcDbEntity
  8
0
 62
     0
100
AcDbTrace
 10
644.7431708344107
 20
207.7417642330354
 30
0.0
 11
645.5348375010775
 21
207.7417642330354
 31
0.0
 12
645.1390041677441
 22
210.1167642330354
 32
0.0
 13
645.1390041677441
 23
210.1167642330354
 33
0.0
  0
MTEXT
  5
1E36
330
1417
100
AcDbEntity
  8
0
 62
     0
100
AcDbMText
 10
645.1390041677441
 20
186.1167642330354
 30
0.0
 40
3.0552
 41
0.0
 71
     5
 72
     1
  1
\A1;4' TYP
  7
ROMANS
 73
     1
 44
1.0
1001
ACAD
1000
MTEXTBEGIN
1070
    73
1070
     1
1070
    44
1040
1.0
1070
    74
1070
     0
1000
MTEXTEND
  0
POINT
  5
1E37
330
1417
100
AcDbEntity
  8
DEFPOINTS
 62
     0
100
AcDbPoint
 10
631.4047528892132
 20
162.1167642330353
 30
0.0
  0
POINT
  5
1E38
330
1417
100
AcDbEntity
  8
DEFPOINTS
 62
     0
100
AcDbPoint
 10
627.4047528892131
 20
210.1167642330354
 30
0.0
  0
POINT
  5
1E39
330
1417
100
AcDbEntity
  8
DEFPOINTS
 62
     0
100
AcDbPoint
 10
645.1390041677441
 20
210.1167642330354
 30
0.0
  0
ENDBLK
  5
1423
330
1417
100
AcDbEntity
  8
0
100
AcDbBlockEnd
  0
BLOCK
  5
142F
330
1424
100
AcDbEntity
  8
0
100
AcDbBlockBegin
  2
*D4
 70
     1
 10
0.0
 20
0.0
 30
0.0
  3
*D4
  1

  0
LINE
  5
1E58
330
1424
100
AcDbEntity
  8
0
 62
     0
370
    -2
100
AcDbLine
 10
618.5297528892131
 20
72.11676423303535
 30
0.0
 11
647.5140041677441
 21
72.11676423303535
 31
0.0
  0
LINE
  5
1E59
330
1424
100
AcDbEntity
  8
0
 62
     0
370
    -2
100
AcDbLine
 10
633.7797528892131
 20
162.1167642330353
 30
0.0
 11
647.5140041677441
 21
162.1167642330353
 31
0.0
  0
LINE
  5
1E5A
330
1424
100
AcDbEntity
  8
0
 62
     0
370
    -2
100
AcDbLine
 10
645.1390041677441
 20
74.49176423303535
 30
0.0
 11
645.1390041677441
 21
112.9231928044639
 31
0.0
  0
LINE
  5
1E5B
330
1424
100
AcDbEntity
  8
0
 62
     0
370
    -2
100
AcDbLine
 10
645.1390041677441
 20
159.7417642330353
 30
0.0
 11
645.1390041677441
 21
121.3103356616068
 31
0.0
  0
SOLID
  5
1E5C
330
1424
100
AcDbEntity
  8
0
 62
     0
100
AcDbTrace
 10
644.7431708344107
 20
74.49176423303535
 30
0.0
 11
645.5348375010775
 21
74.49176423303535
 31
0.0
 12
645.1390041677441
 22
72.11676423303535
 32
0.0
 13
645.1390041677441
 23
72.11676423303535
 33
0.0
  0
SOLID
  5
1E5D
330
1424
100
AcDbEntity
  8
0
 62
     0
100
AcDbTrace
 10
644.7431708344107
 20
159.7417642330353
 30
0.0
 11
645.5348375010775
 21
159.7417642330353
 31
0.0
 12
645.1390041677441
 22
162.1167642330353
 32
0.0
 13
645.1390041677441
 23
162.1167642330353
 33
0.0
  0
MTEXT
  5
1E5E
330
1424
100
AcDbEntity
  8
0
 62
     0
100
AcDbMText
 10
645.1390041677441
 20
117.1167642330354
 30
0.0
 40
3.0552
 41
0.0
 71
     5
 72
     1
  1
\A1;7'-6"
  7
ROMANS
 73
     1
 44
1.0
1001
ACAD
1000
MTEXTBEGIN
1070
    73
1070
     1
1070
    44
1040
1.0
1070
    74
1070
     0
1000
MTEXTEND
  0
POINT
  5
1E5F
330
1424
100
AcDbEntity
  8
DEFPOINTS
 62
     0
100
AcDbPoint
 10
616.1547528892131
 20
72.11676423303535
 30
0.0
  0
POINT
  5
1E60
330
1424
100
AcDbEntity
  8
DEFPOINTS
 62
     0
100
AcDbPoint
 10
631.4047528892132
 20
162.1167642330353
 30
0.0
  0
POINT
  5
1E61
330
1424
100
AcDbEntity
  8
DEFPOINTS
 62
     0
100
AcDbPoint
 10
645.1390041677441
 20
162.1167642330353
 30
0.0
  0
ENDBLK
  5
1430
330
1424
100
AcDbEntity
  8
0
100
AcDbBlockEnd
  0
BLOCK
  5
143C
330
1431
100
AcDbEntity
  8
0
100
AcDbBlockBegin
  2
*D5
 70
     1
 10
0.0
 20
0.0
 30
0.0
  3
*D5
  1

  0
LINE
  5
1E3A
330
1431
100
AcDbEntity
  8
0
 62
     0
370
    -2
100
AcDbLine
 10
595.7797528892131
 20
305.1167642330355
 30
0.0
 11
572.2750313380467
 21
305.1167642330355
 31
0.0
  0
LINE
  5
1E3B
330
1431
100
AcDbEntity
  8
0
 62
     0
370
    -2
100
AcDbLine
 10
589.7797528892131
 20
299.1167642330355
 30
0.0
 11
572.2750313380467
 21
299.1167642330355
 31
0.0
  0
LINE
  5
1E3C
330
1431
100
AcDbEntity
  8
0
 62
     0
370
    -2
100
AcDbLine
 10
574.6500313380468
 20
307.4917642330354
 30
0.0
 11
574.6500313380468
 21
309.8667642330354
 31
0.0
  0
LINE
  5
1E3D
330
1431
100
AcDbEntity
  8
0
 62
     0
370
    -2
100
AcDbLine
 10
574.6500313380468
 20
296.7417642330354
 30
0.0
 11
574.6500313380468
 21
294.3667642330354
 31
0.0
  0
MTEXT
  5
1E3E
330
1431
100
AcDbEntity
  8
0
 62
     0
100
AcDbMText
 10
575.3362623720306
 20
301.9578321329624
 30
0.0
 40
3.0552
 41
0.0
 71
     5
 72
     1
  1
\A1;6"
  7
ROMANS
 73
     1
 44
1.0
1001
ACAD
1000
MTEXTBEGIN
1070
    73
1070
     1
1070
    44
1040
1.0
1070
    74
1070
     0
1000
MTEXTEND
  0
SOLID
  5
1E3F
330
1431
100
AcDbEntity
  8
0
 62
     0
100
AcDbTrace
 10
574.2541980047134
 20
307.4917642330354
 30
0.0
 11
575.0458646713801
 21
307.4917642330354
 31
0.0
 12
574.6500313380468
 22
305.1167642330355
 32
0.0
 13
574.6500313380468
 23
305.1167642330355
 33
0.0
  0
SOLID
  5
1E40
330
1431
100
AcDbEntity
  8
0
 62
     0
100
AcDbTrace
 10
574.2541980047134
 20
296.7417642330354
 30
0.0
 11
575.0458646713801
 21
296.7417642330354
 31
0.0
 12
574.6500313380468
 22
299.1167642330355
 32
0.0
 13
574.6500313380468
 23
299.1167642330355
 33
0.0
  0
POINT
  5
1E41
330
1431
100
AcDbEntity
  8
DEFPOINTS
 62
     0
100
AcDbPoint
 10
598.154752889213
 20
305.1167642330355
 30
0.0
  0
POINT
  5
1E42
330
1431
100
AcDbEntity
  8
DEFPOINTS
 62
     0
100
AcDbPoint
 10
592.1547528892131
 20
299.1167642330355
 30
0.0
  0
POINT
  5
1E43
330
1431
100
AcDbEntity
  8
DEFPOINTS
 62
     0
100
AcDbPoint
 10
574.6500313380468
 20
299.1167642330355
 30
0.0
  0
ENDBLK
  5
143D
330
1431
100
AcDbEntity
  8
0
100
AcDbBlockEnd
  0
BLOCK
  5
1449
330
143E
100
AcDbEntity
  8
0
100
AcDbBlockBegin
  2
*D6
 70
     1
 10
0.0
 20
0.0
 30
0.0
  3
*D6
  1

  0
LINE
  5
1E44
330
143E
100
AcDbEntity
  8
0
 62
     0
370
    -2
100
AcDbLine
 10
589.7797528892131
 20
299.1167642330355
 30
0.0
 11
572.2750313380469
 21
299.1167642330355
 31
0.0
  0
LINE
  5
1E45
330
143E
100
AcDbEntity
  8
0
 62
     0
370
    -2
100
AcDbLine
 10
589.7797528892131
 20
251.1167642330354
 30
0.0
 11
572.2750313380467
 21
251.1167642330355
 31
0.0
  0
LINE
  5
1E46
330
143E
100
AcDbEntity
  8
0
 62
     0
370
    -2
100
AcDbLine
 10
574.6500313380469
 20
296.7417642330354
 30
0.0
 11
574.6500313380469
 21
279.3103356616069
 31
0.0
  0
LINE
  5
1E47
330
143E
100
AcDbEntity
  8
0
 62
     0
370
    -2
100
AcDbLine
 10
574.6500313380468
 20
253.4917642330354
 30
0.0
 11
574.6500313380469
 21
270.923192804464
 31
0.0
  0
SOLID
  5
1E48
330
143E
100
AcDbEntity
  8
0
 62
     0
100
AcDbTrace
 10
574.2541980047135
 20
296.7417642330354
 30
0.0
 11
575.0458646713802
 21
296.7417642330354
 31
0.0
 12
574.6500313380469
 22
299.1167642330355
 32
0.0
 13
574.6500313380469
 23
299.1167642330355
 33
0.0
  0
SOLID
  5
1E49
330
143E
100
AcDbEntity
  8
0
 62
     0
100
AcDbTrace
 10
574.2541980047134
 20
253.4917642330354
 30
0.0
 11
575.0458646713801
 21
253.4917642330354
 31
0.0
 12
574.6500313380468
 22
251.1167642330355
 32
0.0
 13
574.6500313380468
 23
251.1167642330355
 33
0.0
  0
MTEXT
  5
1E4A
330
143E
100
AcDbEntity
  8
0
 62
     0
100
AcDbMText
 10
574.6500313380468
 20
275.1167642330355
 30
0.0
 40
3.0552
 41
0.0
 71
     5
 72
     1
  1
\A1;4' TYP
  7
ROMANS
 73
     1
 44
1.0
1001
ACAD
1000
MTEXTBEGIN
1070
    73
1070
     1
1070
    44
1040
1.0
1070
    74
1070
     0
1000
MTEXTEND
  0
POINT
  5
1E4B
330
143E
100
AcDbEntity
  8
DEFPOINTS
 62
     0
100
AcDbPoint
 10
592.1547528892131
 20
299.1167642330355
 30
0.0
  0
POINT
  5
1E4C
330
143E
100
AcDbEntity
  8
DEFPOINTS
 62
     0
100
AcDbPoint
 10
592.1547528892131
 20
251.1167642330354
 30
0.0
  0
POINT
  5
1E4D
330
143E
100
AcDbEntity
  8
DEFPOINTS
 62
     0
100
AcDbPoint
 10
574.6500313380468
 20
251.1167642330355
 30
0.0
  0
ENDBLK
  5
144A
330
143E
100
AcDbEntity
  8
0
100
AcDbBlockEnd
  0
BLOCK
  5
1456
330
144B
100
AcDbEntity
  8
0
100
AcDbBlockBegin
  2
*D7
 70
     1
 10
0.0
 20
0.0
 30
0.0
  3
*D7
  1

  0
LINE
  5
1E62
330
144B
100
AcDbEntity
  8
0
 62
     0
370
    -2
100
AcDbLine
 10
816.9375750470001
 20
69.74176423303553
 30
0.0
 11
816.9375750470001
 21
63.16571192286943
 31
0.0
  0
LINE
  5
1E63
330
144B
100
AcDbEntity
  8
0
 62
     0
370
    -2
100
AcDbLine
 10
790.812575047
 20
69.74176423303541
 30
0.0
 11
790.812575047
 21
63.16571192286943
 31
0.0
  0
LINE
  5
1E64
330
144B
100
AcDbEntity
  8
0
 62
     0
370
    -2
100
AcDbLine
 10
819.3125750470001
 20
65.54071192286944
 30
0.0
 11
821.687575047
 21
65.54071192286944
 31
0.0
  0
LINE
  5
1E65
330
144B
100
AcDbEntity
  8
0
 62
     0
370
    -2
100
AcDbLine
 10
788.4375750470001
 20
65.54071192286944
 30
0.0
 11
786.0625750470001
 21
65.54071192286944
 31
0.0
  0
SOLID
  5
1E66
330
144B
100
AcDbEntity
  8
0
 62
     0
100
AcDbTrace
 10
819.3125750470001
 20
65.93654525620276
 30
0.0
 11
819.3125750470001
 21
65.14487858953611
 31
0.0
 12
816.9375750470001
 22
65.54071192286944
 32
0.0
 13
816.9375750470001
 23
65.54071192286944
 33
0.0
  0
SOLID
  5
1E67
330
144B
100
AcDbEntity
  8
0
 62
     0
100
AcDbTrace
 10
788.4375750470001
 20
65.93654525620276
 30
0.0
 11
788.4375750470001
 21
65.14487858953611
 31
0.0
 12
790.812575047
 22
65.54071192286944
 32
0.0
 13
790.812575047
 23
65.54071192286944
 33
0.0
  0
MTEXT
  5
1E68
330
144B
100
AcDbEntity
  8
0
 62
     0
100
AcDbMText
 10
803.8750750470001
 20
65.54071192286944
 30
0.0
 40
3.0552
 41
0.0
 71
     5
 72
     1
  1
\A1;26-1/8"
  7
ROMANS
 73
     1
 44
1.0
1001
ACAD
1000
MTEXTBEGIN
1070
    73
1070
     1
1070
    44
1040
1.0
1070
    74
1070
     0
1000
MTEXTEND
  0
POINT
  5
1E69
330
144B
100
AcDbEntity
  8
DEFPOINTS
 62
     0
100
AcDbPoint
 10
816.9375750470001
 20
72.11676423303552
 30
0.0
  0
POINT
  5
1E6A
330
144B
100
AcDbEntity
  8
DEFPOINTS
 62
     0
100
AcDbPoint
 10
790.812575047
 20
72.11676423303541
 30
0.0
  0
POINT
  5
1E6B
330
144B
100
AcDbEntity
  8
DEFPOINTS
 62
     0
100
AcDbPoint
 10
790.812575047
 20
65.54071192286944
 30
0.0
  0
ENDBLK
  5
1457
330
144B
100
AcDbEntity
  8
0
100
AcDbBlockEnd
  0
BLOCK
  5
1462
330
1458
100
AcDbEntity
  8
0
100
AcDbBlockBegin
  2
*D8
 70
     1
 10
0.0
 20
0.0
 30
0.0
  3
*D8
  1

  0
LINE
  5
1E4E
330
1458
100
AcDbEntity
  8
0
 62
     0
370
    -2
100
AcDbLine
 10
818.2500750470001
 20
125.1167642330354
 30
0.0
 11
833.1286317971148
 21
125.1167642330354
 31
0.0
  0
LINE
  5
1E4F
330
1458
100
AcDbEntity
  8
0
 62
     0
370
    -2
100
AcDbLine
 10
818.2500750470001
 20
113.1167642330354
 30
0.0
 11
833.1286317971148
 21
113.1167642330354
 31
0.0
  0
LINE
  5
1E50
330
1458
100
AcDbEntity
  8
0
 62
     0
370
    -2
100
AcDbLine
 10
830.7536317971148
 20
127.4917642330354
 30
0.0
 11
830.7536317971148
 21
129.8667642330354
 31
0.0
  0
LINE
  5
1E51
330
1458
100
AcDbEntity
  8
0
 62
     0
370
    -2
100
AcDbLine
 10
830.7536317971148
 20
110.7417642330354
 30
0.0
 11
830.7536317971148
 21
108.3667642330354
 31
0.0
  0
MTEXT
  5
1E52
330
1458
100
AcDbEntity
  8
0
 62
     0
100
AcDbMText
 10
831.1497638516524
 20
119.2160186567439
 30
0.0
 40
3.0552
 41
0.0
 71
     5
 72
     1
  1
\A1;12" TYP
  7
ROMANS
 73
     1
 44
1.0
1001
ACAD
1000
MTEXTBEGIN
1070
    73
1070
     1
1070
    44
1040
1.0
1070
    74
1070
     0
1000
MTEXTEND
  0
SOLID
  5
1E53
330
1458
100
AcDbEntity
  8
0
 62
     0
100
AcDbTrace
 10
830.3577984637815
 20
127.4917642330354
 30
0.0
 11
831.1494651304482
 21
127.4917642330354
 31
0.0
 12
830.7536317971148
 22
125.1167642330354
 32
0.0
 13
830.7536317971148
 23
125.1167642330354
 33
0.0
  0
SOLID
  5
1E54
330
1458
100
AcDbEntity
  8
0
 62
     0
100
AcDbTrace
 10
830.3577984637815
 20
110.7417642330354
 30
0.0
 11
831.1494651304482
 21
110.7417642330354
 31
0.0
 12
830.7536317971148
 22
113.1167642330354
 32
0.0
 13
830.7536317971148
 23
113.1167642330354
 33
0.0
  0
POINT
  5
1E55
330
1458
100
AcDbEntity
  8
DEFPOINTS
 62
     0
100
AcDbPoint
 10
815.8750750470002
 20
125.1167642330354
 30
0.0
  0
POINT
  5
1E56
330
1458
100
AcDbEntity
  8
DEFPOINTS
 62
     0
100
AcDbPoint
 10
815.8750750470002
 20
113.1167642330354
 30
0.0
  0
POINT
  5
1E57
330
1458
100
AcDbEntity
  8
DEFPOINTS
 62
     0
100
AcDbPoint
 10
830.7536317971148
 20
113.1167642330354
 30
0.0
  0
ENDBLK
  5
1463
330
1458
100
AcDbEntity
  8
0
100
AcDbBlockEnd
  0
BLOCK
  5
146F
330
1464
100
AcDbEntity
  8
0
100
AcDbBlockBegin
  2
*D9
 70
     1
 10
0.0
 20
0.0
 30
0.0
  3
*D9
  1

  0
LINE
  5
1E26
330
1464
100
AcDbEntity
  8
0
 62
     0
370
    -2
100
AcDbLine
 10
818.2500750470001
 20
257.1167642330354
 30
0.0
 11
853.5166869428655
 21
257.1167642330354
 31
0.0
  0
LINE
  5
1E27
330
1464
100
AcDbEntity
  8
0
 62
     0
370
    -2
100
AcDbLine
 10
819.3125750470001
 20
305.1167642330355
 30
0.0
 11
853.5166869428655
 21
305.1167642330355
 31
0.0
  0
LINE
  5
1E28
330
1464
100
AcDbEntity
  8
0
 62
     0
370
    -2
100
AcDbLine
 10
851.1416869428655
 20
259.4917642330354
 30
0.0
 11
851.1416869428655
 21
276.923192804464
 31
0.0
  0
LINE
  5
1E29
330
1464
100
AcDbEntity
  8
0
 62
     0
370
    -2
100
AcDbLine
 10
851.1416869428655
 20
302.7417642330354
 30
0.0
 11
851.1416869428655
 21
285.3103356616069
 31
0.0
  0
SOLID
  5
1E2A
330
1464
100
AcDbEntity
  8
0
 62
     0
100
AcDbTrace
 10
850.7458536095322
 20
259.4917642330354
 30
0.0
 11
851.5375202761989
 21
259.4917642330354
 31
0.0
 12
851.1416869428655
 22
257.1167642330354
 32
0.0
 13
851.1416869428655
 23
257.1167642330354
 33
0.0
  0
SOLID
  5
1E2B
330
1464
100
AcDbEntity
  8
0
 62
     0
100
AcDbTrace
 10
850.7458536095322
 20
302.7417642330354
 30
0.0
 11
851.5375202761989
 21
302.7417642330354
 31
0.0
 12
851.1416869428655
 22
305.1167642330355
 32
0.0
 13
851.1416869428655
 23
305.1167642330355
 33
0.0
  0
MTEXT
  5
1E2C
330
1464
100
AcDbEntity
  8
0
 62
     0
100
AcDbMText
 10
851.1416869428654
 20
281.1167642330356
 30
0.0
 40
3.0552
 41
0.0
 71
     5
 72
     1
  1
\A1;4'-0"
  7
ROMANS
 73
     1
 44
1.0
1001
ACAD
1000
MTEXTBEGIN
1070
    73
1070
     1
1070
    44
1040
1.0
1070
    74
1070
     0
1000
MTEXTEND
  0
POINT
  5
1E2D
330
1464
100
AcDbEntity
  8
DEFPOINTS
 62
     0
100
AcDbPoint
 10
815.8750750470002
 20
257.1167642330354
 30
0.0
  0
POINT
  5
1E2E
330
1464
100
AcDbEntity
  8
DEFPOINTS
 62
     0
100
AcDbPoint
 10
816.9375750470001
 20
305.1167642330355
 30
0.0
  0
POINT
  5
1E2F
330
1464
100
AcDbEntity
  8
DEFPOINTS
 62
     0
100
AcDbPoint
 10
851.1416869428655
 20
305.1167642330355
 30
0.0
  0
ENDBLK
  5
1470
330
1464
100
AcDbEntity
  8
0
100
AcDbBlockEnd
  0
BLOCK
  5
147C
330
1471
100
AcDbEntity
  8
0
100
AcDbBlockBegin
  2
*D10
 70
     1
 10
0.0
 20
0.0
 30
0.0
  3
*D10
  1

  0
LINE
  5
1E6C
330
1471
100
AcDbEntity
  8
0
 62
     0
370
    -2
100
AcDbLine
 10
789.5000750470001
 20
257.1167642330354
 30
0.0
 11
780.1030650408319
 21
257.1167642330354
 31
0.0
  0
LINE
  5
1E6D
330
1471
100
AcDbEntity
  8
0
 62
     0
370
    -2
100
AcDbLine
 10
786.1754120766427
 20
255.1167642330354
 30
0.0
 11
780.1030650408318
 21
255.1167642330354
 31
0.0
  0
LINE
  5
1E6E
330
1471
100
AcDbEntity
  8
0
 62
     0
370
    -2
100
AcDbLine
 10
782.4780650408318
 20
259.4917642330354
 30
0.0
 11
782.4780650408318
 21
261.8667642330354
 31
0.0
  0
LINE
  5
1E6F
330
1471
100
AcDbEntity
  8
0
 62
     0
370
    -2
100
AcDbLine
 10
782.4780650408317
 20
252.7417642330354
 30
0.0
 11
782.4780650408317
 21
250.3667642330354
 31
0.0
  0
MTEXT
  5
1E70
330
1471
100
AcDbEntity
  8
0
 62
     0
100
AcDbMText
 10
777.6476417648457
 20
262.7235082272052
 30
0.0
 40
3.0552
 41
0.0
 71
     5
 72
     1
  1
\A1;2"
  7
ROMANS
 73
     1
 44
1.0
1001
ACAD
1000
MTEXTBEGIN
1070
    73
1070
     1
1070
    44
1040
1.0
1070
    74
1070
     0
1000
MTEXTEND
  0
SOLID
  5
1E71
330
1471
100
AcDbEntity
  8
0
 62
     0
100
AcDbTrace
 10
782.0822317074985
 20
259.4917642330354
 30
0.0
 11
782.8738983741653
 21
259.4917642330354
 31
0.0
 12
782.4780650408318
 22
257.1167642330354
 32
0.0
 13
782.4780650408318
 23
257.1167642330354
 33
0.0
  0
SOLID
  5
1E72
330
1471
100
AcDbEntity
  8
0
 62
     0
100
AcDbTrace
 10
782.0822317074984
 20
252.7417642330354
 30
0.0
 11
782.8738983741652
 21
252.7417642330354
 31
0.0
 12
782.4780650408317
 22
255.1167642330354
 32
0.0
 13
782.4780650408317
 23
255.1167642330354
 33
0.0
  0
POINT
  5
1E73
330
1471
100
AcDbEntity
  8
DEFPOINTS
 62
     0
100
AcDbPoint
 10
791.875075047
 20
257.1167642330354
 30
0.0
  0
POINT
  5
1E74
330
1471
100
AcDbEntity
  8
DEFPOINTS
 62
     0
100
AcDbPoint
 10
788.5504120766427
 20
255.1167642330354
 30
0.0
  0
POINT
  5
1E75
330
1471
100
AcDbEntity
  8
DEFPOINTS
 62
     0
100
AcDbPoint
 10
782.4780650408317
 20
255.1167642330354
 30
0.0
  0
ENDBLK
  5
147D
330
1471
100
AcDbEntity
  8
0
100
AcDbBlockEnd
  0
BLOCK
  5
158D
330
1582
100
AcDbEntity
  8
0
100
AcDbBlockBegin
  2
*D11
 70
     1
 10
0.0
 20
0.0
 30
0.0
  3
*D11
  1

  0
LINE
  5
1EBB
330
1582
100
AcDbEntity
  8
0
 62
     0
370
    -2
100
AcDbLine
 10
917.6166487106231
 20
174.9260581917783
 30
0.0
 11
926.537172125613
 21
180.0763247867352
 31
0.0
  0
LINE
  5
1EBC
330
1582
100
AcDbEntity
  8
0
 62
     0
370
    -2
100
AcDbLine
 10
955.7809187185462
 20
152.8919066292783
 30
0.0
 11
964.7014421335363
 21
158.0421732242352
 31
0.0
  0
LINE
  5
1EBD
330
1582
100
AcDbEntity
  8
0
 62
     0
370
    -2
100
AcDbLine
 10
926.2189824596012
 20
177.5176178974097
 30
0.0
 11
935.0988680789058
 21
172.3908135447312
 31
0.0
  0
LINE
  5
1EBE
330
1582
100
AcDbEntity
  8
0
 62
     0
370
    -2
100
AcDbLine
 10
960.2696317995482
 20
157.8584663349098
 30
0.0
 11
951.3897461802438
 21
162.9852706875883
 31
0.0
  0
SOLID
  5
1EBF
330
1582
100
AcDbEntity
  8
0
 62
     0
100
AcDbTrace
 10
926.4168991262678
 20
177.8604196197411
 30
0.0
 11
926.0210657929345
 21
177.1748161750783
 31
0.0
 12
924.1621721256132
 22
178.7051178974097
 32
0.0
 13
924.1621721256132
 23
178.7051178974097
 33
0.0
  0
SOLID
  5
1EC0
330
1582
100
AcDbEntity
  8
0
 62
     0
100
AcDbTrace
 10
960.467548466215
 20
158.2012680572411
 30
0.0
 11
960.0717151328815
 21
157.5156646125784
 31
0.0
 12
962.3264421335361
 22
156.6709663349098
 32
0.0
 13
962.3264421335361
 23
156.6709663349098
 33
0.0
  0
MTEXT
  5
1EC1
330
1582
100
AcDbEntity
  8
0
 62
     0
100
AcDbMText
 10
943.2443071295747
 20
167.6880421161598
 30
0.0
 40
3.0552
 41
0.0
 71
     5
 72
     1
  1
\A1;{8-1/2"}
  7
ROMANS
 73
     1
 44
1.0
1001
ACAD
1000
MTEXTBEGIN
1070
    73
1070
     1
1070
    44
1040
1.0
1070
    74
1070
     0
1000
MTEXTEND
  0
POINT
  5
1EC2
330
1582
100
AcDbEntity
  8
DEFPOINTS
 62
     0
100
AcDbPoint
 10
915.2416487106229
 20
173.554851302453
 30
0.0
  0
POINT
  5
1EC3
330
1582
100
AcDbEntity
  8
DEFPOINTS
 62
     0
100
AcDbPoint
 10
953.4059187185462
 20
151.520699739953
 30
0.0
  0
POINT
  5
1EC4
330
1582
100
AcDbEntity
  8
DEFPOINTS
 62
     0
100
AcDbPoint
 10
962.3264421335361
 20
156.6709663349098
 30
0.0
  0
ENDBLK
  5
158E
330
1582
100
AcDbEntity
  8
0
100
AcDbBlockEnd
  0
BLOCK
  5
159A
330
158F
100
AcDbEntity
  8
0
100
AcDbBlockBegin
  2
*D12
 70
     1
 10
0.0
 20
0.0
 30
0.0
  3
*D12
  1

  0
LINE
  5
1E80
330
158F
100
AcDbEntity
  8
0
 62
     0
370
    -2
100
AcDbLine
 10
906.2899543500279
 20
322.7858658262241
 30
0.0
 11
906.2899543500279
 21
330.2361834943425
 31
0.0
  0
LINE
  5
1E81
330
158F
100
AcDbEntity
  8
0
 62
     0
370
    -2
100
AcDbLine
 10
950.975460600028
 20
322.7858658262241
 30
0.0
 11
950.975460600028
 21
330.2361834943425
 31
0.0
  0
LINE
  5
1E82
330
158F
100
AcDbEntity
  8
0
 62
     0
370
    -2
100
AcDbLine
 10
908.664954350028
 20
327.8611834943425
 30
0.0
 11
916.2919360464565
 21
327.8611834943425
 31
0.0
  0
LINE
  5
1E83
330
158F
100
AcDbEntity
  8
0
 62
     0
370
    -2
100
AcDbLine
 10
948.600460600028
 20
327.8611834943425
 30
0.0
 11
940.9734789035994
 21
327.8611834943425
 31
0.0
  0
SOLID
  5
1E84
330
158F
100
AcDbEntity
  8
0
 62
     0
100
AcDbTrace
 10
908.664954350028
 20
328.2570168276758
 30
0.0
 11
908.664954350028
 21
327.4653501610091
 31
0.0
 12
906.2899543500279
 22
327.8611834943425
 32
0.0
 13
906.2899543500279
 23
327.8611834943425
 33
0.0
  0
SOLID
  5
1E85
330
158F
100
AcDbEntity
  8
0
 62
     0
100
AcDbTrace
 10
948.600460600028
 20
328.2570168276758
 30
0.0
 11
948.600460600028
 21
327.4653501610091
 31
0.0
 12
950.975460600028
 22
327.8611834943425
 32
0.0
 13
950.975460600028
 23
327.8611834943425
 33
0.0
  0
MTEXT
  5
1E86
330
158F
100
AcDbEntity
  8
0
 62
     0
100
AcDbMText
 10
928.6327074750278
 20
327.8611834943425
 30
0.0
 40
3.0552
 41
0.0
 71
     5
 72
     1
  1
\A1;22-1/8"
  7
ROMANS
 73
     1
 44
1.0
1001
ACAD
1000
MTEXTBEGIN
1070
    73
1070
     1
1070
    44
1040
1.0
1070
    74
1070
     0
1000
MTEXTEND
  0
POINT
  5
1E87
330
158F
100
AcDbEntity
  8
DEFPOINTS
 62
     0
100
AcDbPoint
 10
906.2899543500279
 20
320.4108658262242
 30
0.0
  0
POINT
  5
1E88
330
158F
100
AcDbEntity
  8
DEFPOINTS
 62
     0
100
AcDbPoint
 10
950.975460600028
 20
320.4108658262242
 30
0.0
  0
POINT
  5
1E89
330
158F
100
AcDbEntity
  8
DEFPOINTS
 62
     0
100
AcDbPoint
 10
950.975460600028
 20
327.8611834943425
 30
0.0
  0
ENDBLK
  5
159B
330
158F
100
AcDbEntity
  8
0
100
AcDbBlockEnd
  0
BLOCK
  5
15A7
330
159C
100
AcDbEntity
  8
0
100
AcDbBlockBegin
  2
*D13
 70
     1
 10
0.0
 20
0.0
 30
0.0
  3
*D13
  1

  0
LINE
  5
1E8A
330
159C
100
AcDbEntity
  8
0
 62
     0
370
    -2
100
AcDbLine
 10
904.9321074750279
 20
301.2479408262243
 30
0.0
 11
904.9321074750279
 21
293.841359241818
 31
0.0
  0
LINE
  5
1E8B
330
159C
100
AcDbEntity
  8
0
 62
     0
370
    -2
100
AcDbLine
 10
952.3333074750279
 20
301.2479408262243
 30
0.0
 11
952.3333074750279
 21
293.841359241818
 31
0.0
  0
LINE
  5
1E8C
330
159C
100
AcDbEntity
  8
0
 62
     0
370
    -2
100
AcDbLine
 10
907.3071074750279
 20
296.2163592418179
 30
0.0
 11
922.6933074750279
 21
296.2163592418179
 31
0.0
  0
LINE
  5
1E8D
330
159C
100
AcDbEntity
  8
0
 62
     0
370
    -2
100
AcDbLine
 10
949.958307475028
 20
296.2163592418179
 30
0.0
 11
934.5721074750279
 21
296.2163592418179
 31
0.0
  0
SOLID
  5
1E8E
330
159C
100
AcDbEntity
  8
0
 62
     0
100
AcDbTrace
 10
907.3071074750279
 20
296.6121925751513
 30
0.0
 11
907.3071074750279
 21
295.8205259084846
 31
0.0
 12
904.9321074750279
 22
296.2163592418179
 32
0.0
 13
904.9321074750279
 23
296.2163592418179
 33
0.0
  0
SOLID
  5
1E8F
330
159C
100
AcDbEntity
  8
0
 62
     0
100
AcDbTrace
 10
949.958307475028
 20
296.6121925751513
 30
0.0
 11
949.958307475028
 21
295.8205259084846
 31
0.0
 12
952.3333074750279
 22
296.2163592418179
 32
0.0
 13
952.3333074750279
 23
296.2163592418179
 33
0.0
  0
MTEXT
  5
1E90
330
159C
100
AcDbEntity
  8
0
 62
     0
100
AcDbMText
 10
928.6327074750278
 20
296.2163592418179
 30
0.0
 40
3.0552
 41
0.0
 71
     5
 72
     1
  1
\A1;{24"}
  7
ROMANS
 73
     1
 44
1.0
1001
ACAD
1000
MTEXTBEGIN
1070
    73
1070
     1
1070
    44
1040
1.0
1070
    74
1070
     0
1000
MTEXTEND
  0
POINT
  5
1E91
330
159C
100
AcDbEntity
  8
DEFPOINTS
 62
     0
100
AcDbPoint
 10
904.9321074750279
 20
303.6229408262242
 30
0.0
  0
POINT
  5
1E92
330
159C
100
AcDbEntity
  8
DEFPOINTS
 62
     0
100
AcDbPoint
 10
952.3333074750279
 20
303.6229408262242
 30
0.0
  0
POINT
  5
1E93
330
159C
100
AcDbEntity
  8
DEFPOINTS
 62
     0
100
AcDbPoint
 10
952.3333074750279
 20
296.2163592418179
 30
0.0
  0
ENDBLK
  5
15A8
330
159C
100
AcDbEntity
  8
0
100
AcDbBlockEnd
  0
BLOCK
  5
15B4
330
15A9
100
AcDbEntity
  8
0
100
AcDbBlockBegin
  2
*D14
 70
     1
 10
0.0
 20
0.0
 30
0.0
  3
*D14
  1

  0
LINE
  5
1E94
330
15A9
100
AcDbEntity
  8
0
 62
     0
370
    -2
100
AcDbLine
 10
898.3657318754234
 20
276.2820945508288
 30
0.0
 11
898.3657318754234
 21
231.6686332621955
 31
0.0
  0
LINE
  5
1E95
330
15A9
100
AcDbEntity
  8
0
 62
     0
370
    -2
100
AcDbLine
 10
958.8043611733606
 20
276.2820945508288
 30
0.0
 11
958.8043611733606
 21
231.6686332621955
 31
0.0
  0
LINE
  5
1E96
330
15A9
100
AcDbEntity
  8
0
 62
     0
370
    -2
100
AcDbLine
 10
900.7407318754234
 20
234.0436332621955
 30
0.0
 11
916.2442750958206
 21
234.0436332621955
 31
0.0
  0
LINE
  5
1E97
330
15A9
100
AcDbEntity
  8
0
 62
     0
370
    -2
100
AcDbLine
 10
956.4293611733605
 20
234.0436332621955
 30
0.0
 11
940.9258179529635
 21
234.0436332621955
 31
0.0
  0
SOLID
  5
1E98
330
15A9
100
AcDbEntity
  8
0
 62
     0
100
AcDbTrace
 10
900.7407318754234
 20
234.4394665955289
 30
0.0
 11
900.7407318754234
 21
233.6477999288621
 31
0.0
 12
898.3657318754234
 22
234.0436332621955
 32
0.0
 13
898.3657318754234
 23
234.0436332621955
 33
0.0
  0
SOLID
  5
1E99
330
15A9
100
AcDbEntity
  8
0
 62
     0
100
AcDbTrace
 10
956.4293611733605
 20
234.4394665955289
 30
0.0
 11
956.4293611733605
 21
233.6477999288621
 31
0.0
 12
958.8043611733606
 22
234.0436332621955
 32
0.0
 13
958.8043611733606
 23
234.0436332621955
 33
0.0
  0
MTEXT
  5
1E9A
330
15A9
100
AcDbEntity
  8
0
 62
     0
100
AcDbMText
 10
928.5850465243921
 20
234.0436332621955
 30
0.0
 40
3.0552
 41
0.0
 71
     5
 72
     1
  1
\A1;{29-1/2"}
  7
ROMANS
 73
     1
 44
1.0
1001
ACAD
1000
MTEXTBEGIN
1070
    73
1070
     1
1070
    44
1040
1.0
1070
    74
1070
     0
1000
MTEXTEND
  0
POINT
  5
1E9B
330
15A9
100
AcDbEntity
  8
DEFPOINTS
 62
     0
100
AcDbPoint
 10
898.3657318754234
 20
278.6570945508288
 30
0.0
  0
POINT
  5
1E9C
330
15A9
100
AcDbEntity
  8
DEFPOINTS
 62
     0
100
AcDbPoint
 10
958.8043611733606
 20
278.6570945508288
 30
0.0
  0
POINT
  5
1E9D
330
15A9
100
AcDbEntity
  8
DEFPOINTS
 62
     0
100
AcDbPoint
 10
958.8043611733606
 20
234.0436332621955
 30
0.0
  0
ENDBLK
  5
15B5
330
15A9
100
AcDbEntity
  8
0
100
AcDbBlockEnd
  0
BLOCK
  5
15C1
330
15B6
100
AcDbEntity
  8
0
100
AcDbBlockBegin
  2
*D15
 70
     1
 10
0.0
 20
0.0
 30
0.0
  3
*D15
  1

  0
LINE
  5
1E9E
330
15B6
100
AcDbEntity
  8
0
 62
     0
370
    -2
100
AcDbLine
 10
961.6276069036173
 20
271.1970064512242
 30
0.0
 11
961.6276069036173
 21
223.9247623011092
 31
0.0
  0
LINE
  5
1E9F
330
15B6
100
AcDbEntity
  8
0
 62
     0
370
    -2
100
AcDbLine
 10
895.550619975028
 20
271.1970064512242
 30
0.0
 11
895.550619975028
 21
223.9247623011092
 31
0.0
  0
LINE
  5
1EA0
330
15B6
100
AcDbEntity
  8
0
 62
     0
370
    -2
100
AcDbLine
 10
959.2526069036173
 20
226.2997623011092
 30
0.0
 11
940.9298848678941
 21
226.2997623011092
 31
0.0
  0
LINE
  5
1EA1
330
15B6
100
AcDbEntity
  8
0
 62
     0
370
    -2
100
AcDbLine
 10
897.9256199750279
 20
226.2997623011092
 30
0.0
 11
916.2483420107513
 21
226.2997623011092
 31
0.0
  0
SOLID
  5
1EA2
330
15B6
100
AcDbEntity
  8
0
 62
     0
100
AcDbTrace
 10
959.2526069036173
 20
226.6955956344426
 30
0.0
 11
959.2526069036173
 21
225.9039289677759
 31
0.0
 12
961.6276069036173
 22
226.2997623011092
 32
0.0
 13
961.6276069036173
 23
226.2997623011092
 33
0.0
  0
SOLID
  5
1EA3
330
15B6
100
AcDbEntity
  8
0
 62
     0
100
AcDbTrace
 10
897.9256199750279
 20
226.6955956344426
 30
0.0
 11
897.9256199750279
 21
225.9039289677759
 31
0.0
 12
895.550619975028
 22
226.2997623011092
 32
0.0
 13
895.550619975028
 23
226.2997623011092
 33
0.0
  0
MTEXT
  5
1EA4
330
15B6
100
AcDbEntity
  8
0
 62
     0
100
AcDbMText
 10
928.5891134393226
 20
226.2997623011092
 30
0.0
 40
3.0552
 41
0.0
 71
     5
 72
     1
  1
\A1;{33-1/2"}
  7
ROMANS
 73
     1
 44
1.0
1001
ACAD
1000
MTEXTBEGIN
1070
    73
1070
     1
1070
    44
1040
1.0
1070
    74
1070
     0
1000
MTEXTEND
  0
POINT
  5
1EA5
330
15B6
100
AcDbEntity
  8
DEFPOINTS
 62
     0
100
AcDbPoint
 10
961.6276069036173
 20
273.5720064512242
 30
0.0
  0
POINT
  5
1EA6
330
15B6
100
AcDbEntity
  8
DEFPOINTS
 62
     0
100
AcDbPoint
 10
895.550619975028
 20
273.5720064512242
 30
0.0
  0
POINT
  5
1EA7
330
15B6
100
AcDbEntity
  8
DEFPOINTS
 62
     0
100
AcDbPoint
 10
895.550619975028
 20
226.2997623011092
 30
0.0
  0
ENDBLK
  5
15C2
330
15B6
100
AcDbEntity
  8
0
100
AcDbBlockEnd
  0
BLOCK
  5
15CE
330
15C3
100
AcDbEntity
  8
0
100
AcDbBlockBegin
  2
*D16
 70
     1
 10
0.0
 20
0.0
 30
0.0
  3
*D16
  1

  0
LINE
  5
1EA8
330
15C3
100
AcDbEntity
  8
0
 62
     0
370
    -2
100
AcDbLine
 10
956.5599168500281
 20
306.0917533262243
 30
0.0
 11
978.8147424267277
 21
306.0917533262243
 31
0.0
  0
LINE
  5
1EA9
330
15C3
100
AcDbEntity
  8
0
 62
     0
370
    -2
100
AcDbLine
 10
931.007707475028
 20
250.7903533262243
 30
0.0
 11
978.8147424267275
 21
250.7903533262243
 31
0.0
  0
LINE
  5
1EAA
330
15C3
100
AcDbEntity
  8
0
 62
     0
370
    -2
100
AcDbLine
 10
976.4397424267276
 20
303.7167533262242
 30
0.0
 11
976.4397424267276
 21
282.6346247547957
 31
0.0
  0
LINE
  5
1EAB
330
15C3
100
AcDbEntity
  8
0
 62
     0
370
    -2
100
AcDbLine
 10
976.4397424267276
 20
253.1653533262243
 30
0.0
 11
976.4397424267276
 21
274.2474818976528
 31
0.0
  0
SOLID
  5
1EAC
330
15C3
100
AcDbEntity
  8
0
 62
     0
100
AcDbTrace
 10
976.0439090933942
 20
303.7167533262242
 30
0.0
 11
976.8355757600611
 21
303.7167533262242
 31
0.0
 12
976.4397424267276
 22
306.0917533262243
 32
0.0
 13
976.4397424267276
 23
306.0917533262243
 33
0.0
  0
SOLID
  5
1EAD
330
15C3
100
AcDbEntity
  8
0
 62
     0
100
AcDbTrace
 10
976.0439090933941
 20
253.1653533262243
 30
0.0
 11
976.8355757600609
 21
253.1653533262243
 31
0.0
 12
976.4397424267276
 22
250.7903533262243
 32
0.0
 13
976.4397424267276
 23
250.7903533262243
 33
0.0
  0
MTEXT
  5
1EAE
330
15C3
100
AcDbEntity
  8
0
 62
     0
100
AcDbMText
 10
976.4397424267276
 20
278.4410533262244
 30
0.0
 40
3.0552
 41
0.0
 71
     5
 72
     1
  1
\A1;{28"}
  7
ROMANS
 73
     1
 44
1.0
1001
ACAD
1000
MTEXTBEGIN
1070
    73
1070
     1
1070
    44
1040
1.0
1070
    74
1070
     0
1000
MTEXTEND
  0
POINT
  5
1EAF
330
15C3
100
AcDbEntity
  8
DEFPOINTS
 62
     0
100
AcDbPoint
 10
954.1849168500279
 20
306.0917533262243
 30
0.0
  0
POINT
  5
1EB0
330
15C3
100
AcDbEntity
  8
DEFPOINTS
 62
     0
100
AcDbPoint
 10
928.6327074750278
 20
250.7903533262243
 30
0.0
  0
POINT
  5
1EB1
330
15C3
100
AcDbEntity
  8
DEFPOINTS
 62
     0
100
AcDbPoint
 10
976.4397424267276
 20
250.7903533262243
 30
0.0
  0
ENDBLK
  5
15CF
330
15C3
100
AcDbEntity
  8
0
100
AcDbBlockEnd
  0
BLOCK
  5
16B4
330
16B3
100
AcDbEntity
  8
0
100
AcDbBlockBegin
  2
A$C6D566CCC
 70
     0
 10
0.0
 20
0.0
 30
0.0
  3
A$C6D566CCC
  1

  0
TEXT
  5
16B5
330
16B3
100
AcDbEntity
  8
0
  6
ByBlock
 62
     0
100
AcDbText
 10
-13.1186
 20
-21.31744999999996
 30
0.0
 40
3.0954
  1
30 FT MAX
  7
ROMANS
 72
     1
 11
0.0
 21
-19.76974999999996
 31
0.0
100
AcDbText
 73
     2
  0
LINE
  5
16B6
330
16B3
100
AcDbEntity
  8
0
  6
ByBlock
 62
     0
100
AcDbLine
 10
-15.08265
 20
-23.72369999999995
 30
0.0
 11
15.08265
 21
-23.72369999999995
 31
0.0
  0
LINE
  5
16B7
330
16B3
100
AcDbEntity
  8
0
  6
ByBlock
 62
     0
100
AcDbLine
 10
15.08265
 20
-23.72369999999995
 30
0.0
 11
15.08265
 21
0.0
 31
0.0
  0
LINE
  5
16B8
330
16B3
100
AcDbEntity
  8
0
  6
ByBlock
 62
     0
100
AcDbLine
 10
15.08265
 20
-15.81579999999997
 30
0.0
 11
-15.08265
 21
-15.81579999999997
 31
0.0
  0
LINE
  5
16B9
330
16B3
100
AcDbEntity
  8
0
  6
ByBlock
 62
     0
100
AcDbLine
 10
-15.08265
 20
0.0
 30
0.0
 11
-15.08265
 21
-23.72369999999995
 31
0.0
  0
LINE
  5
16BA
330
16B3
100
AcDbEntity
  8
0
  6
ByBlock
 62
     0
100
AcDbLine
 10
15.08265
 20
0.0
 30
0.0
 11
-15.08265
 21
0.0
 31
0.0
  0
ENDBLK
  5
16BB
330
16B3
100
AcDbEntity
  8
0
100
AcDbBlockEnd
  0
BLOCK
  5
16C0
330
16BC
100
AcDbEntity
  8
0
100
AcDbBlockBegin
  2
A$C2DF97754
 70
     0
 10
0.0
 20
0.0
 30
0.0
  3
A$C2DF97754
  1

  0
INSERT
  5
16BD
330
16BC
100
AcDbEntity
  8
0
100
AcDbBlockReference
  2
A$C6D566CCC
 10
0.0
 20
0.0
 30
0.0
  0
ENDBLK
  5
16C1
330
16BC
100
AcDbEntity
  8
0
100
AcDbBlockEnd
  0
BLOCK
  5
16D1
330
16C7
100
AcDbEntity
  8
0
100
AcDbBlockBegin
  2
*D19
 70
     1
 10
0.0
 20
0.0
 30
0.0
  3
*D19
  1

  0
LINE
  5
1ECF
330
16C7
100
AcDbEntity
  8
0
 62
     0
370
    -2
100
AcDbLine
 10
589.7797528892131
 20
83.11676423303541
 30
0.0
 11
572.2750313380467
 21
83.11676423303541
 31
0.0
  0
LINE
  5
1ED0
330
16C7
100
AcDbEntity
  8
0
 62
     0
370
    -2
100
AcDbLine
 10
589.7797528892131
 20
72.11676423303535
 30
0.0
 11
572.2750313380467
 21
72.11676423303535
 31
0.0
  0
LINE
  5
1ED1
330
16C7
100
AcDbEntity
  8
0
 62
     0
370
    -2
100
AcDbLine
 10
574.6500313380468
 20
85.4917642330354
 30
0.0
 11
574.6500313380468
 21
87.86676423303541
 31
0.0
  0
LINE
  5
1ED2
330
16C7
100
AcDbEntity
  8
0
 62
     0
370
    -2
100
AcDbLine
 10
574.6500313380468
 20
69.74176423303536
 30
0.0
 11
574.6500313380468
 21
67.36676423303535
 31
0.0
  0
MTEXT
  5
1ED3
330
16C7
100
AcDbEntity
  8
0
 62
     0
100
AcDbMText
 10
574.6500313380468
 20
77.50925753143258
 30
0.0
 40
3.0552
 41
0.0
 71
     5
 72
     1
  1
\A1;AS REQ'D
  7
ROMANS
 73
     1
 44
1.0
1001
ACAD
1000
MTEXTBEGIN
1070
    73
1070
     1
1070
    44
1040
1.0
1070
    74
1070
     0
1000
MTEXTEND
  0
SOLID
  5
1ED4
330
16C7
100
AcDbEntity
  8
0
 62
     0
100
AcDbTrace
 10
574.2541980047134
 20
85.4917642330354
 30
0.0
 11
575.0458646713801
 21
85.4917642330354
 31
0.0
 12
574.6500313380468
 22
83.11676423303541
 32
0.0
 13
574.6500313380468
 23
83.11676423303541
 33
0.0
  0
SOLID
  5
1ED5
330
16C7
100
AcDbEntity
  8
0
 62
     0
100
AcDbTrace
 10
574.2541980047134
 20
69.74176423303536
 30
0.0
 11
575.0458646713801
 21
69.74176423303536
 31
0.0
 12
574.6500313380468
 22
72.11676423303535
 32
0.0
 13
574.6500313380468
 23
72.11676423303535
 33
0.0
  0
POINT
  5
1ED6
330
16C7
100
AcDbEntity
  8
DEFPOINTS
 62
     0
100
AcDbPoint
 10
592.1547528892131
 20
83.11676423303541
 30
0.0
  0
POINT
  5
1ED7
330
16C7
100
AcDbEntity
  8
DEFPOINTS
 62
     0
100
AcDbPoint
 10
592.1547528892131
 20
72.11676423303535
 30
0.0
  0
POINT
  5
1ED8
330
16C7
100
AcDbEntity
  8
DEFPOINTS
 62
     0
100
AcDbPoint
 10
574.6500313380468
 20
72.11676423303535
 30
0.0
  0
ENDBLK
  5
16D2
330
16C7
100
AcDbEntity
  8
0
100
AcDbBlockEnd
  0
BLOCK
  5
1ABE
330
1ABD
100
AcDbEntity
  8
0
100
AcDbBlockBegin
  2
*X20
 70
     1
 10
0.0
 20
0.0
 30
0.0
  3
*X20
  1

  0
LINE
  5
1ABF
330
1ABD
100
AcDbEntity
  8
0
 62
     0
100
AcDbLine
 10
-39.38783740946116
 20
-279.4947837961181
 30
0.0
 11
-38.65407559127778
 21
-278.7610219779348
 31
0.0
  0
LINE
  5
1AC0
330
1ABD
100
AcDbEntity
  8
0
 62
     0
100
AcDbLine
 10
-39.50054631068232
 20
-279.4749101758668
 30
0.0
 11
-38.76678449249896
 21
-278.7411483576835
 31
0.0
  0
LINE
  5
1AC1
330
1ABD
100
AcDbEntity
  8
0
 62
     0
100
AcDbLine
 10
-39.61325521190351
 20
-279.4550365556156
 30
0.0
 11
-38.87949339372014
 21
-278.7212747374322
 31
0.0
  0
LINE
  5
1AC2
330
1ABD
100
AcDbEntity
  8
0
 62
     0
100
AcDbLine
 10
-39.7259641131247
 20
-279.4351629353642
 30
0.0
 11
-38.99220229494132
 21
-278.7014011171809
 31
0.0
  0
LINE
  5
1AC3
330
1ABD
100
AcDbEntity
  8
0
 62
     0
100
AcDbLine
 10
-39.83867301434587
 20
-279.415289315113
 30
0.0
 11
-39.1049111961625
 21
-278.6815274969296
 31
0.0
  0
LINE
  5
1AC4
330
1ABD
100
AcDbEntity
  8
0
 62
     0
100
AcDbLine
 10
-39.95138191556705
 20
-279.3954156948617
 30
0.0
 11
-39.21762009738368
 21
-278.6616538766783
 31
0.0
  0
LINE
  5
1AC5
330
1ABD
100
AcDbEntity
  8
0
 62
     0
100
AcDbLine
 10
-40.06409081678821
 20
-279.3755420746104
 30
0.0
 11
-39.33032899860484
 21
-278.641780256427
 31
0.0
  0
LINE
  5
1AC6
330
1ABD
100
AcDbEntity
  8
0
 62
     0
100
AcDbLine
 10
-40.1767997180094
 20
-279.3556684543591
 30
0.0
 11
-40.06372011526283
 21
-279.2425888516125
 31
0.0
  0
LINE
  5
1AC7
330
1ABD
100
AcDbEntity
  8
0
 62
     0
100
AcDbLine
 10
-39.89688315430998
 20
-279.0757518906596
 30
0.0
 11
-39.44303789982602
 21
-278.6219066361756
 31
0.0
  0
LINE
  5
1AC8
330
1ABD
100
AcDbEntity
  8
0
 62
     0
100
AcDbLine
 10
-40.06372011526283
 20
-279.2425888516125
 30
0.0
 11
-39.89688315430998
 21
-279.0757518906597
 31
0.0
  0
LINE
  5
1AC9
330
1ABD
100
AcDbEntity
  8
0
 62
     0
100
AcDbLine
 10
-40.28950861923056
 20
-279.3357948341077
 30
0.0
 11
-40.10500766087813
 21
-279.1512938757553
 31
0.0
  0
LINE
  5
1ACA
330
1ABD
100
AcDbEntity
  8
0
 62
     0
100
AcDbLine
 10
-39.94078059974761
 20
-278.9870668146248
 30
0.0
 11
-39.5557468010472
 21
-278.6020330159244
 31
0.0
  0
LINE
  5
1ACB
330
1ABD
100
AcDbEntity
  8
0
 62
     0
100
AcDbLine
 10
-40.10500766087811
 20
-279.1512938757553
 30
0.0
 11
-39.9407805997476
 21
-278.9870668146248
 31
0.0
  0
LINE
  5
1ACC
330
1ABD
100
AcDbEntity
  8
0
 62
     0
100
AcDbLine
 10
-40.36990717715883
 20
-279.2836108705636
 30
0.0
 11
-40.1462952064934
 21
-279.0599988998982
 31
0.0
  0
LINE
  5
1ACD
330
1ABD
100
AcDbEntity
  8
0
 62
     0
100
AcDbLine
 10
-39.98467804518519
 20
-278.8983817385899
 30
0.0
 11
-39.66845570226838
 21
-278.5821593956731
 31
0.0
  0
LINE
  5
1ACE
330
1ABD
100
AcDbEntity
  8
0
 62
     0
100
AcDbLine
 10
-40.14629520649338
 20
-279.0599988998981
 30
0.0
 11
-39.98467804518524
 21
-278.89838173859
 31
0.0
  0
LINE
  5
1ACF
330
1ABD
100
AcDbEntity
  8
0
 62
     0
100
AcDbLine
 10
-40.32903303677044
 20
-279.1101542087027
 30
0.0
 11
-40.18758275210868
 21
-278.968703924041
 31
0.0
  0
LINE
  5
1AD0
330
1ABD
100
AcDbEntity
  8
0
 62
     0
100
AcDbLine
 10
-40.02857549062279
 20
-278.8096966625551
 30
0.0
 11
-39.78116460348956
 21
-278.5622857754218
 31
0.0
  0
LINE
  5
1AD1
330
1ABD
100
AcDbEntity
  8
0
 62
     0
100
AcDbLine
 10
-40.18758275210866
 20
-278.9687039240409
 30
0.0
 11
-40.02857549062286
 21
-278.8096966625551
 31
0.0
  0
LINE
  5
1AD2
330
1ABD
100
AcDbEntity
  8
0
 62
     0
100
AcDbLine
 10
-40.28815889638206
 20
-278.9366975468419
 30
0.0
 11
-40.22887029772395
 21
-278.8774089481838
 31
0.0
  0
LINE
  5
1AD3
330
1ABD
100
AcDbEntity
  8
0
 62
     0
100
AcDbLine
 10
-40.07247293606041
 20
-278.7210115865202
 30
0.0
 11
-39.89387350471074
 21
-278.5424121551705
 31
0.0
  0
LINE
  5
1AD4
330
1ABD
100
AcDbEntity
  8
0
 62
     0
100
AcDbLine
 10
-40.22887029772394
 20
-278.8774089481837
 30
0.0
 11
-40.07247293606049
 21
-278.7210115865203
 31
0.0
  0
LINE
  5
1AD5
330
1ABD
100
AcDbEntity
  8
0
 62
     0
100
AcDbLine
 10
-40.27015784333923
 20
-278.7861139723266
 30
0.0
 11
-40.11637038149812
 21
-278.6323265104854
 31
0.0
  0
LINE
  5
1AD6
330
1ABD
100
AcDbEntity
  8
0
 62
     0
100
AcDbLine
 10
-40.116370381498
 20
-278.6323265104853
 30
0.0
 11
-40.00658240593192
 21
-278.5225385349192
 31
0.0
  0
LINE
  5
1AD7
330
1ABD
100
AcDbEntity
  8
0
 62
     0
100
AcDbLine
 10
-40.31144538895452
 20
-278.6948189964694
 30
0.0
 11
-40.30692854477254
 21
-278.6903021522874
 31
0.0
  0
LINE
  5
1AD8
330
1ABD
100
AcDbEntity
  8
0
 62
     0
100
AcDbLine
 10
-39.69215944246978
 20
-278.0755330499846
 30
0.0
 11
-39.59237083622737
 21
-277.9757444437422
 31
0.0
  0
LINE
  5
1AD9
330
1ABD
100
AcDbEntity
  8
0
 62
     0
100
AcDbLine
 10
-40.30692854477248
 20
-278.6903021522873
 30
0.0
 11
-40.20641061560525
 21
-278.5897842231201
 31
0.0
  0
LINE
  5
1ADA
330
1ABD
100
AcDbEntity
  8
0
 62
     0
100
AcDbLine
 10
-40.16017812122486
 20
-278.5435517287397
 30
0.0
 11
-40.11929130715309
 21
-278.5026649146679
 31
0.0
  0
LINE
  5
1ADB
330
1ABD
100
AcDbEntity
  8
0
 62
     0
100
AcDbLine
 10
-40.20466276288202
 20
-278.5880363703969
 30
0.0
 11
-40.16017812122502
 21
-278.5435517287398
 31
0.0
  0
LINE
  5
1ADC
330
1ABD
100
AcDbEntity
  8
0
 62
     0
100
AcDbLine
 10
-40.41225758634928
 20
-278.6630486723916
 30
0.0
 11
-40.23018407840633
 21
-278.4809751644487
 31
0.0
  0
LINE
  5
1ADD
330
1ABD
100
AcDbEntity
  8
0
 62
     0
100
AcDbLine
 10
-39.73691136690469
 20
-277.987702452947
 30
0.0
 11
-39.6371227606623
 21
-277.8879138467047
 31
0.0
  0
LINE
  5
1ADE
330
1ABD
100
AcDbEntity
  8
0
 62
     0
100
AcDbLine
 10
-40.23018407840633
 20
-278.4809751644486
 30
0.0
 11
-40.20259152936932
 21
-278.4533826154117
 31
0.0
  0
LINE
  5
1ADF
330
1ABD
100
AcDbEntity
  8
0
 62
     0
100
AcDbLine
 10
-40.57051962558798
 20
-278.6887281901577
 30
0.0
 11
-40.51758662792604
 21
-278.6357951924959
 31
0.0
  0
LINE
  5
1AE0
330
1ABD
100
AcDbEntity
  8
0
 62
     0
100
AcDbLine
 10
-39.78166329133961
 20
-277.8998718559094
 30
0.0
 11
-39.68187468509722
 21
-277.8000832496671
 31
0.0
  0
LINE
  5
1AE1
330
1ABD
100
AcDbEntity
  8
0
 62
     0
100
AcDbLine
 10
-40.51758662792603
 20
-278.6357951924959
 30
0.0
 11
-40.33869630383812
 21
-278.456904868408
 31
0.0
  0
LINE
  5
1AE2
330
1ABD
100
AcDbEntity
  8
0
 62
     0
100
AcDbLine
 10
-40.33869630383812
 20
-278.456904868408
 30
0.0
 11
-40.24734345380425
 21
-278.3655520183742
 31
0.0
  0
LINE
  5
1AE3
330
1ABD
100
AcDbEntity
  8
0
 62
     0
100
AcDbLine
 10
-40.84083440815077
 20
-278.8264604512481
 30
0.0
 11
-40.62291566950281
 21
-278.6085417126002
 31
0.0
  0
LINE
  5
1AE4
330
1ABD
100
AcDbEntity
  8
0
 62
     0
100
AcDbLine
 10
-39.82641521577454
 20
-277.812041258872
 30
0.0
 11
-39.72662660953214
 21
-277.7122526526295
 31
0.0
  0
LINE
  5
1AE5
330
1ABD
100
AcDbEntity
  8
0
 62
     0
100
AcDbLine
 10
-40.62291566950278
 20
-278.6085417126002
 30
0.0
 11
-40.44720852926992
 21
-278.4328345723673
 31
0.0
  0
LINE
  5
1AE6
330
1ABD
100
AcDbEntity
  8
0
 62
     0
100
AcDbLine
 10
-40.44720852926991
 20
-278.4328345723673
 30
0.0
 11
-40.29209537823916
 21
-278.2777214213366
 31
0.0
  0
LINE
  5
1AE7
330
1ABD
100
AcDbEntity
  8
0
 62
     0
100
AcDbLine
 10
-41.07098574326527
 20
-278.9240292648902
 30
0.0
 11
-40.96884180887604
 21
-278.821885330501
 31
0.0
  0
LINE
  5
1AE8
330
1ABD
100
AcDbEntity
  8
0
 62
     0
100
AcDbLine
 10
-39.87116714020946
 20
-277.7242106618344
 30
0.0
 11
-39.77137853396706
 21
-277.624422055592
 31
0.0
  0
LINE
  5
1AE9
330
1ABD
100
AcDbEntity
  8
0
 62
     0
100
AcDbLine
 10
-40.96884180887601
 20
-278.8218853305009
 30
0.0
 11
-40.72824471107957
 21
-278.5812882327045
 31
0.0
  0
LINE
  5
1AEA
330
1ABD
100
AcDbEntity
  8
0
 62
     0
100
AcDbLine
 10
-40.55572075470169
 20
-278.4087642763266
 30
0.0
 11
-40.33684730267409
 21
-278.189890824299
 31
0.0
  0
LINE
  5
1AEB
330
1ABD
100
AcDbEntity
  8
0
 62
     0
100
AcDbLine
 10
-40.72824471107958
 20
-278.5812882327045
 30
0.0
 11
-40.55572075470172
 21
-278.4087642763266
 31
0.0
  0
LINE
  5
1AEC
330
1ABD
100
AcDbEntity
  8
0
 62
     0
100
AcDbLine
 10
-41.11573766770019
 20
-278.8361986678526
 30
0.0
 11
-41.01359373331094
 21
-278.7340547334634
 31
0.0
  0
LINE
  5
1AED
330
1ABD
100
AcDbEntity
  8
0
 62
     0
100
AcDbLine
 10
-39.91591906464438
 20
-277.6363800647968
 30
0.0
 11
-39.81613045840198
 21
-277.5365914585544
 31
0.0
  0
LINE
  5
1AEE
330
1ABD
100
AcDbEntity
  8
0
 62
     0
100
AcDbLine
 10
-41.01359373331097
 20
-278.7340547334634
 30
0.0
 11
-40.83357375265634
 21
-278.5540347528088
 31
0.0
  0
LINE
  5
1AEF
330
1ABD
100
AcDbEntity
  8
0
 62
     0
100
AcDbLine
 10
-40.66423298013347
 20
-278.3846939802859
 30
0.0
 11
-40.38159922710902
 21
-278.1020602272615
 31
0.0
  0
LINE
  5
1AF0
330
1ABD
100
AcDbEntity
  8
0
 62
     0
100
AcDbLine
 10
-40.83357375265634
 20
-278.5540347528088
 30
0.0
 11
-40.66423298013349
 21
-278.384693980286
 31
0.0
  0
LINE
  5
1AF1
330
1ABD
100
AcDbEntity
  8
0
 62
     0
100
AcDbLine
 10
-41.16048959213512
 20
-278.7483680708151
 30
0.0
 11
-41.05834565774588
 21
-278.6462241364259
 31
0.0
  0
LINE
  5
1AF2
330
1ABD
100
AcDbEntity
  8
0
 62
     0
100
AcDbLine
 10
-39.96067098907931
 20
-277.5485494677593
 30
0.0
 11
-39.86088238283691
 21
-277.4487608615169
 31
0.0
  0
LINE
  5
1AF3
330
1ABD
100
AcDbEntity
  8
0
 62
     0
100
AcDbLine
 10
-41.05834565774586
 20
-278.6462241364258
 30
0.0
 11
-40.93646758632097
 21
-278.524346065001
 31
0.0
  0
LINE
  5
1AF4
330
1ABD
100
AcDbEntity
  8
0
 62
     0
100
AcDbLine
 10
-40.77274520556526
 20
-278.3606236842452
 30
0.0
 11
-40.42635115154395
 21
-278.0142296302239
 31
0.0
  0
LINE
  5
1AF5
330
1ABD
100
AcDbEntity
  8
0
 62
     0
100
AcDbLine
 10
-40.93646758632099
 20
-278.524346065001
 30
0.0
 11
-40.77274520556528
 21
-278.3606236842453
 31
0.0
  0
LINE
  5
1AF6
330
1ABD
100
AcDbEntity
  8
0
 62
     0
100
AcDbLine
 10
-41.20524151657004
 20
-278.6605374737775
 30
0.0
 11
-41.10309758218079
 21
-278.5583935393883
 31
0.0
  0
LINE
  5
1AF7
330
1ABD
100
AcDbEntity
  8
0
 62
     0
100
AcDbLine
 10
-40.00542291351423
 20
-277.4607188707217
 30
0.0
 11
-39.90563430727183
 21
-277.3609302644794
 31
0.0
  0
LINE
  5
1AF8
330
1ABD
100
AcDbEntity
  8
0
 62
     0
100
AcDbLine
 10
-41.10309758218081
 20
-278.5583935393883
 30
0.0
 11
-40.90160135388338
 21
-278.3568973110909
 31
0.0
  0
LINE
  5
1AF9
330
1ABD
100
AcDbEntity
  8
0
 62
     0
100
AcDbLine
 10
-40.87969543086212
 20
-278.3349913880696
 30
0.0
 11
-40.47110307597886
 21
-277.9263990331864
 31
0.0
  0
LINE
  5
1AFA
330
1ABD
100
AcDbEntity
  8
0
 62
     0
100
AcDbLine
 10
-40.9016013538834
 20
-278.3568973110909
 30
0.0
 11
-40.87969543086214
 21
-278.3349913880696
 31
0.0
  0
LINE
  5
1AFB
330
1ABD
100
AcDbEntity
  8
0
 62
     0
100
AcDbLine
 10
-41.24999344100497
 20
-278.57270687674
 30
0.0
 11
-41.14784950661573
 21
-278.4705629423507
 31
0.0
  0
LINE
  5
1AFC
330
1ABD
100
AcDbEntity
  8
0
 62
     0
100
AcDbLine
 10
-40.05017483794916
 20
-277.3728882736842
 30
0.0
 11
-39.95038623170675
 21
-277.2730996674417
 31
0.0
  0
LINE
  5
1AFD
330
1ABD
100
AcDbEntity
  8
0
 62
     0
100
AcDbLine
 10
-41.14784950661571
 20
-278.4705629423507
 30
0.0
 11
-40.51585500041379
 21
-277.8385684361488
 31
0.0
  0
LINE
  5
1AFE
330
1ABD
100
AcDbEntity
  8
0
 62
     0
100
AcDbLine
 10
-40.13520989857035
 20
-277.4579233343053
 30
0.0
 11
-40.05017483794913
 21
-277.3728882736842
 31
0.0
  0
LINE
  5
1AFF
330
1ABD
100
AcDbEntity
  8
0
 62
     0
100
AcDbLine
 10
-41.29474536543989
 20
-278.4848762797024
 30
0.0
 11
-41.19260143105066
 21
-278.3827323453132
 31
0.0
  0
LINE
  5
1B00
330
1ABD
100
AcDbEntity
  8
0
 62
     0
100
AcDbLine
 10
-40.09492676238408
 20
-277.2850576766466
 30
0.0
 11
-39.99513815614167
 21
-277.1852690704042
 31
0.0
  0
LINE
  5
1B01
330
1ABD
100
AcDbEntity
  8
0
 62
     0
100
AcDbLine
 10
-41.19260143105065
 20
-278.3827323453131
 30
0.0
 11
-40.56060692484869
 21
-277.7507378391113
 31
0.0
  0
LINE
  5
1B02
330
1ABD
100
AcDbEntity
  8
0
 62
     0
100
AcDbLine
 10
-40.39402495983168
 20
-277.5841558740942
 30
0.0
 11
-40.09492676238404
 21
-277.2850576766466
 31
0.0
  0
LINE
  5
1B03
330
1ABD
100
AcDbEntity
  8
0
 62
     0
100
AcDbLine
 10
-41.3394972898748
 20
-278.3970456826649
 30
0.0
 11
-41.23735335548558
 21
-278.2949017482756
 31
0.0
  0
LINE
  5
1B04
330
1ABD
100
AcDbEntity
  8
0
 62
     0
100
AcDbLine
 10
-40.13967868681899
 20
-277.197227079609
 30
0.0
 11
-40.0398900805766
 21
-277.0974384733666
 31
0.0
  0
LINE
  5
1B05
330
1ABD
100
AcDbEntity
  8
0
 62
     0
100
AcDbLine
 10
-41.23735335548557
 20
-278.2949017482756
 30
0.0
 11
-40.65284002109301
 21
-277.7103884138831
 31
0.0
  0
LINE
  5
1B06
330
1ABD
100
AcDbEntity
  8
0
 62
     0
100
AcDbLine
 10
-40.65284002109302
 20
-277.710388413883
 30
0.0
 11
-40.33209807941335
 21
-277.3896464722034
 31
0.0
  0
LINE
  5
1B07
330
1ABD
100
AcDbEntity
  8
0
 62
     0
100
AcDbLine
 10
-41.38424921430973
 20
-278.3092150856273
 30
0.0
 11
-41.28210527992051
 21
-278.2070711512381
 31
0.0
  0
LINE
  5
1B08
330
1ABD
100
AcDbEntity
  8
0
 62
     0
100
AcDbLine
 10
-40.18443061125393
 20
-277.1093964825715
 30
0.0
 11
-40.08464200501151
 21
-277.0096078763291
 31
0.0
  0
LINE
  5
1B09
330
1ABD
100
AcDbEntity
  8
0
 62
     0
100
AcDbLine
 10
-41.2821052799205
 20
-278.2070711512381
 30
0.0
 11
-40.91165508235433
 21
-277.8366209536719
 31
0.0
  0
LINE
  5
1B0A
330
1ABD
100
AcDbEntity
  8
0
 62
     0
100
AcDbLine
 10
-40.91165508235427
 20
-277.8366209536719
 30
0.0
 11
-40.60241286197611
 21
-277.5273787332937
 31
0.0
  0
LINE
  5
1B0B
330
1ABD
100
AcDbEntity
  8
0
 62
     0
100
AcDbLine
 10
-41.42900113874467
 20
-278.2213844885897
 30
0.0
 11
-41.32685720435543
 21
-278.1192405542005
 31
0.0
  0
LINE
  5
1B0C
330
1ABD
100
AcDbEntity
  8
0
 62
     0
100
AcDbLine
 10
-40.22918253568884
 20
-277.0215658855339
 30
0.0
 11
-40.12939392944644
 21
-276.9217772792915
 31
0.0
  0
LINE
  5
1B0D
330
1ABD
100
AcDbEntity
  8
0
 62
     0
100
AcDbLine
 10
-41.32685720435541
 20
-278.1192405542005
 30
0.0
 11
-40.99595323982196
 21
-277.788336589667
 31
0.0
  0
LINE
  5
1B0E
330
1ABD
100
AcDbEntity
  8
0
 62
     0
100
AcDbLine
 10
-40.87272764453877
 20
-277.6651109943838
 30
0.0
 11
-40.69486269815346
 21
-277.4872460479985
 31
0.0
  0
LINE
  5
1B0F
330
1ABD
100
AcDbEntity
  8
0
 62
     0
100
AcDbLine
 10
-40.99595323982194
 20
-277.788336589667
 30
0.0
 11
-40.87272764453897
 21
-277.665110994384
 31
0.0
  0
LINE
  5
1B10
330
1ABD
100
AcDbEntity
  8
0
 62
     0
100
AcDbLine
 10
-41.47375306317957
 20
-278.1335538915521
 30
0.0
 11
-41.37160912879036
 21
-278.031409957163
 31
0.0
  0
LINE
  5
1B11
330
1ABD
100
AcDbEntity
  8
0
 62
     0
100
AcDbLine
 10
-40.27393446012377
 20
-276.9337352884964
 30
0.0
 11
-40.17414585388136
 21
-276.833946682254
 31
0.0
  0
LINE
  5
1B12
330
1ABD
100
AcDbEntity
  8
0
 62
     0
100
AcDbLine
 10
-41.37160912879035
 20
-278.0314099571629
 30
0.0
 11
-40.73961462258838
 21
-277.399415450961
 31
0.0
  0
LINE
  5
1B13
330
1ABD
100
AcDbEntity
  8
0
 62
     0
100
AcDbLine
 10
-41.51850498761451
 20
-278.0457232945146
 30
0.0
 11
-41.41636105322528
 21
-277.9435793601255
 31
0.0
  0
LINE
  5
1B14
330
1ABD
100
AcDbEntity
  8
0
 62
     0
100
AcDbLine
 10
-40.3186863845587
 20
-276.8459046914588
 30
0.0
 11
-40.21889777831629
 21
-276.7461160852164
 31
0.0
  0
LINE
  5
1B15
330
1ABD
100
AcDbEntity
  8
0
 62
     0
100
AcDbLine
 10
-41.41636105322527
 20
-277.9435793601254
 30
0.0
 11
-40.78436654702331
 21
-277.3115848539234
 31
0.0
  0
LINE
  5
1B16
330
1ABD
100
AcDbEntity
  8
0
 62
     0
100
AcDbLine
 10
-41.56325691204942
 20
-277.9578926974771
 30
0.0
 11
-41.46111297766021
 21
-277.8557487630879
 31
0.0
  0
LINE
  5
1B17
330
1ABD
100
AcDbEntity
  8
0
 62
     0
100
AcDbLine
 10
-40.36343830899361
 20
-276.7580740944213
 30
0.0
 11
-40.2636497027512
 21
-276.6582854881789
 31
0.0
  0
LINE
  5
1B18
330
1ABD
100
AcDbEntity
  8
0
 62
     0
100
AcDbLine
 10
-41.4611129776602
 20
-277.8557487630878
 30
0.0
 11
-40.82911847145823
 21
-277.2237542568859
 31
0.0
  0
LINE
  5
1B19
330
1ABD
100
AcDbEntity
  8
0
 62
     0
100
AcDbLine
 10
-41.60800883648435
 20
-277.8700621004395
 30
0.0
 11
-41.50586490209513
 21
-277.7679181660503
 31
0.0
  0
LINE
  5
1B1A
330
1ABD
100
AcDbEntity
  8
0
 62
     0
100
AcDbLine
 10
-40.40819023342854
 20
-276.6702434973837
 30
0.0
 11
-40.30840162718615
 21
-276.5704548911414
 31
0.0
  0
LINE
  5
1B1B
330
1ABD
100
AcDbEntity
  8
0
 62
     0
100
AcDbLine
 10
-41.50586490209512
 20
-277.7679181660503
 30
0.0
 11
-40.87387039589315
 21
-277.1359236598483
 31
0.0
  0
LINE
  5
1B1C
330
1ABD
100
AcDbEntity
  8
0
 62
     0
100
AcDbLine
 10
-41.65276076091928
 20
-277.782231503402
 30
0.0
 11
-41.55061682653006
 21
-277.6800875690128
 31
0.0
  0
LINE
  5
1B1D
330
1ABD
100
AcDbEntity
  8
0
 62
     0
100
AcDbLine
 10
-40.45294215786347
 20
-276.5824129003462
 30
0.0
 11
-40.35315355162107
 21
-276.4826242941037
 31
0.0
  0
LINE
  5
1B1E
330
1ABD
100
AcDbEntity
  8
0
 62
     0
100
AcDbLine
 10
-41.55061682653004
 20
-277.6800875690128
 30
0.0
 11
-40.91862232032808
 21
-277.0480930628108
 31
0.0
  0
LINE
  5
1B1F
330
1ABD
100
AcDbEntity
  8
0
 62
     0
100
AcDbLine
 10
-41.6975126853542
 20
-277.6944009063644
 30
0.0
 11
-41.59536875096497
 21
-277.5922569719752
 31
0.0
  0
LINE
  5
1B20
330
1ABD
100
AcDbEntity
  8
0
 62
     0
100
AcDbLine
 10
-40.49769408229838
 20
-276.4945823033086
 30
0.0
 11
-40.39790547605599
 21
-276.3947936970662
 31
0.0
  0
LINE
  5
1B21
330
1ABD
100
AcDbEntity
  8
0
 62
     0
100
AcDbLine
 10
-41.59536875096496
 20
-277.5922569719751
 30
0.0
 11
-40.963374244763
 21
-276.9602624657732
 31
0.0
  0
LINE
  5
1B22
330
1ABD
100
AcDbEntity
  8
0
 62
     0
100
AcDbLine
 10
-41.74226460978912
 20
-277.6065703093268
 30
0.0
 11
-41.6401206753999
 21
-277.5044263749377
 31
0.0
  0
LINE
  5
1B23
330
1ABD
100
AcDbEntity
  8
0
 62
     0
100
AcDbLine
 10
-40.54244600673332
 20
-276.4067517062711
 30
0.0
 11
-40.44265740049091
 21
-276.3069631000287
 31
0.0
  0
LINE
  5
1B24
330
1ABD
100
AcDbEntity
  8
0
 62
     0
100
AcDbLine
 10
-41.64012067539989
 20
-277.5044263749376
 30
0.0
 11
-41.00812616919793
 21
-276.8724318687357
 31
0.0
  0
LINE
  5
1B25
330
1ABD
100
AcDbEntity
  8
0
 62
     0
100
AcDbLine
 10
-41.78701653422404
 20
-277.5187397122893
 30
0.0
 11
-41.68487259983481
 21
-277.4165957779001
 31
0.0
  0
LINE
  5
1B26
330
1ABD
100
AcDbEntity
  8
0
 62
     0
100
AcDbLine
 10
-40.58719793116824
 20
-276.3189211092335
 30
0.0
 11
-40.48740932492584
 21
-276.2191325029911
 31
0.0
  0
LINE
  5
1B27
330
1ABD
100
AcDbEntity
  8
0
 62
     0
100
AcDbLine
 10
-41.68487259983482
 20
-277.4165957779001
 30
0.0
 11
-41.05287809363285
 21
-276.7846012716981
 31
0.0
  0
LINE
  5
1B28
330
1ABD
100
AcDbEntity
  8
0
 62
     0
100
AcDbLine
 10
-41.83176845865896
 20
-277.4309091152518
 30
0.0
 11
-41.72962452426975
 21
-277.3287651808626
 31
0.0
  0
LINE
  5
1B29
330
1ABD
100
AcDbEntity
  8
0
 62
     0
100
AcDbLine
 10
-40.63194985560315
 20
-276.2310905121959
 30
0.0
 11
-40.53216124936076
 21
-276.1313019059535
 31
0.0
  0
LINE
  5
1B2A
330
1ABD
100
AcDbEntity
  8
0
 62
     0
100
AcDbLine
 10
-41.72962452426975
 20
-277.3287651808625
 30
0.0
 11
-41.09763001806778
 21
-276.6967706746606
 31
0.0
  0
LINE
  5
1B2B
330
1ABD
100
AcDbEntity
  8
0
 62
     0
100
AcDbLine
 10
-41.8765203830939
 20
-277.3430785182142
 30
0.0
 11
-41.77437644870467
 21
-277.240934583825
 31
0.0
  0
LINE
  5
1B2C
330
1ABD
100
AcDbEntity
  8
0
 62
     0
100
AcDbLine
 10
-40.67670178003808
 20
-276.1432599151584
 30
0.0
 11
-40.57691317379568
 21
-276.043471308916
 31
0.0
  0
LINE
  5
1B2D
330
1ABD
100
AcDbEntity
  8
0
 62
     0
100
AcDbLine
 10
-41.77437644870467
 20
-277.240934583825
 30
0.0
 11
-41.1423819425027
 21
-276.608940077623
 31
0.0
  0
LINE
  5
1B2E
330
1ABD
100
AcDbEntity
  8
0
 62
     0
100
AcDbLine
 10
-41.92127230752881
 20
-277.2552479211766
 30
0.0
 11
-41.8191283731396
 21
-277.1531039867875
 31
0.0
  0
LINE
  5
1B2F
330
1ABD
100
AcDbEntity
  8
0
 62
     0
100
AcDbLine
 10
-40.72145370447301
 20
-276.0554293181209
 30
0.0
 11
-40.6216650982306
 21
-275.9556407118785
 31
0.0
  0
LINE
  5
1B30
330
1ABD
100
AcDbEntity
  8
0
 62
     0
100
AcDbLine
 10
-41.81912837313959
 20
-277.1531039867874
 30
0.0
 11
-41.18713386693762
 21
-276.5211094805855
 31
0.0
  0
LINE
  5
1B31
330
1ABD
100
AcDbEntity
  8
0
 62
     0
100
AcDbLine
 10
-41.96602423196374
 20
-277.1674173241391
 30
0.0
 11
-41.86388029757452
 21
-277.0652733897499
 31
0.0
  0
LINE
  5
1B32
330
1ABD
100
AcDbEntity
  8
0
 62
     0
100
AcDbLine
 10
-35.8061910555824
 20
-271.0075841477578
 30
0.0
 11
-35.70443277119299
 21
-270.9058258633683
 31
0.0
  0
LINE
  5
1B33
330
1ABD
100
AcDbEntity
  8
0
 62
     0
100
AcDbLine
 10
-41.86388029757451
 20
-277.0652733897498
 30
0.0
 11
-41.23188579137255
 21
-276.4332788835479
 31
0.0
  0
LINE
  5
1B34
330
1ABD
100
AcDbEntity
  8
0
 62
     0
100
AcDbLine
 10
-40.76620562890794
 20
-275.9675987210833
 30
0.0
 11
-40.66641702266553
 21
-275.8678101148409
 31
0.0
  0
LINE
  5
1B35
330
1ABD
100
AcDbEntity
  8
0
 62
     0
100
AcDbLine
 10
-42.01077615639866
 20
-277.0795867271015
 30
0.0
 11
-41.90863222200944
 21
-276.9774427927123
 31
0.0
  0
LINE
  5
1B36
330
1ABD
100
AcDbEntity
  8
0
 62
     0
100
AcDbLine
 10
-35.93877357705487
 20
-271.0075841477578
 30
0.0
 11
-35.70443277119299
 21
-270.7732433418959
 31
0.0
  0
LINE
  5
1B37
330
1ABD
100
AcDbEntity
  8
0
 62
     0
100
AcDbLine
 10
-41.90863222200944
 20
-276.9774427927123
 30
0.0
 11
-41.27663771580747
 21
-276.3454482865104
 31
0.0
  0
LINE
  5
1B38
330
1ABD
100
AcDbEntity
  8
0
 62
     0
100
AcDbLine
 10
-40.81095755334286
 20
-275.8797681240458
 30
0.0
 11
-40.71116894710044
 21
-275.7799795178034
 31
0.0
  0
LINE
  5
1B39
330
1ABD
100
AcDbEntity
  8
0
 62
     0
100
AcDbLine
 10
-42.05552808083359
 20
-276.991756130064
 30
0.0
 11
-41.95338414644437
 21
-276.8896121956748
 31
0.0
  0
LINE
  5
1B3A
330
1ABD
100
AcDbEntity
  8
0
 62
     0
100
AcDbLine
 10
-36.07135609852736
 20
-271.0075841477578
 30
0.0
 11
-35.70443277119299
 21
-270.6406608204234
 31
0.0
  0
LINE
  5
1B3B
330
1ABD
100
AcDbEntity
  8
0
 62
     0
100
AcDbLine
 10
-41.95338414644437
 20
-276.8896121956748
 30
0.0
 11
-41.32138964024239
 21
-276.2576176894728
 31
0.0
  0
LINE
  5
1B3C
330
1ABD
100
AcDbEntity
  8
0
 62
     0
100
AcDbLine
 10
-40.85570947777777
 20
-275.7919375270082
 30
0.0
 11
-40.75592087153537
 21
-275.6921489207658
 31
0.0
  0
LINE
  5
1B3D
330
1ABD
100
AcDbEntity
  8
0
 62
     0
100
AcDbLine
 10
-42.10028000526851
 20
-276.9039255330264
 30
0.0
 11
-41.99813607087929
 21
-276.8017815986373
 31
0.0
  0
LINE
  5
1B3E
330
1ABD
100
AcDbEntity
  8
0
 62
     0
100
AcDbLine
 10
-36.20393861999985
 20
-271.0075841477578
 30
0.0
 11
-35.70443277119299
 21
-270.5080782989509
 31
0.0
  0
LINE
  5
1B3F
330
1ABD
100
AcDbEntity
  8
0
 62
     0
100
AcDbLine
 10
-41.99813607087929
 20
-276.8017815986372
 30
0.0
 11
-41.36614156467731
 21
-276.1697870924352
 31
0.0
  0
LINE
  5
1B40
330
1ABD
100
AcDbEntity
  8
0
 62
     0
100
AcDbLine
 10
-40.90046140221271
 20
-275.7041069299706
 30
0.0
 11
-40.80067279597029
 21
-275.6043183237283
 31
0.0
  0
LINE
  5
1B41
330
1ABD
100
AcDbEntity
  8
0
 62
     0
100
AcDbLine
 10
-42.14503192970343
 20
-276.8160949359889
 30
0.0
 11
-42.04288799531422
 21
-276.7139510015997
 31
0.0
  0
LINE
  5
1B42
330
1ABD
100
AcDbEntity
  8
0
 62
     0
100
AcDbLine
 10
-36.33652114147233
 20
-271.0075841477578
 30
0.0
 11
-35.70443277119299
 21
-270.3754957774785
 31
0.0
  0
LINE
  5
1B43
330
1ABD
100
AcDbEntity
  8
0
 62
     0
100
AcDbLine
 10
-42.04288799531422
 20
-276.7139510015996
 30
0.0
 11
-41.41089348911224
 21
-276.0819564953977
 31
0.0
  0
LINE
  5
1B44
330
1ABD
100
AcDbEntity
  8
0
 62
     0
100
AcDbLine
 10
-40.94521332664762
 20
-275.6162763329331
 30
0.0
 11
-40.84542472040522
 21
-275.5164877266907
 31
0.0
  0
LINE
  5
1B45
330
1ABD
100
AcDbEntity
  8
0
 62
     0
100
AcDbLine
 10
-42.18978385413836
 20
-276.7282643389513
 30
0.0
 11
-42.08763991974914
 21
-276.6261204045621
 31
0.0
  0
LINE
  5
1B46
330
1ABD
100
AcDbEntity
  8
0
 62
     0
100
AcDbLine
 10
-36.46910366294478
 20
-271.0075841477578
 30
0.0
 11
-35.70443277119299
 21
-270.242913256006
 31
0.0
  0
LINE
  5
1B47
330
1ABD
100
AcDbEntity
  8
0
 62
     0
100
AcDbLine
 10
-42.08763991974914
 20
-276.6261204045621
 30
0.0
 11
-41.45564541354717
 21
-275.9941258983601
 31
0.0
  0
LINE
  5
1B48
330
1ABD
100
AcDbEntity
  8
0
 62
     0
100
AcDbLine
 10
-40.98996525108254
 20
-275.5284457358955
 30
0.0
 11
-40.89017664484013
 21
-275.4286571296531
 31
0.0
  0
LINE
  5
1B49
330
1ABD
100
AcDbEntity
  8
0
 62
     0
100
AcDbLine
 10
-42.23453577857329
 20
-276.6404337419138
 30
0.0
 11
-42.13239184418406
 21
-276.5382898075245
 31
0.0
  0
LINE
  5
1B4A
330
1ABD
100
AcDbEntity
  8
0
 62
     0
100
AcDbLine
 10
-36.60168618441726
 20
-271.0075841477578
 30
0.0
 11
-35.7069169949642
 21
-270.1128149583047
 31
0.0
  0
LINE
  5
1B4B
330
1ABD
100
AcDbEntity
  8
0
 62
     0
100
AcDbLine
 10
-42.13239184418408
 20
-276.5382898075245
 30
0.0
 11
-41.50039733798208
 21
-275.9062953013226
 31
0.0
  0
LINE
  5
1B4C
330
1ABD
100
AcDbEntity
  8
0
 62
     0
100
AcDbLine
 10
-41.03471717551747
 20
-275.4406151388579
 30
0.0
 11
-40.93492856927506
 21
-275.3408265326156
 31
0.0
  0
LINE
  5
1B4D
330
1ABD
100
AcDbEntity
  8
0
 62
     0
100
AcDbLine
 10
-42.2792877030082
 20
-276.5526031448762
 30
0.0
 11
-42.17714376861898
 21
-276.450459210487
 31
0.0
  0
LINE
  5
1B4E
330
1ABD
100
AcDbEntity
  8
0
 62
     0
100
AcDbLine
 10
-36.73426870588975
 20
-271.0075841477578
 30
0.0
 11
-35.83949951643669
 21
-270.1128149583047
 31
0.0
  0
LINE
  5
1B4F
330
1ABD
100
AcDbEntity
  8
0
 62
     0
100
AcDbLine
 10
-42.17714376861898
 20
-276.450459210487
 30
0.0
 11
-41.54514926241701
 21
-275.818464704285
 31
0.0
  0
LINE
  5
1B50
330
1ABD
100
AcDbEntity
  8
0
 62
     0
100
AcDbLine
 10
-41.0794690999524
 20
-275.3527845418204
 30
0.0
 11
-40.97968049370998
 21
-275.2529959355781
 31
0.0
  0
LINE
  5
1B51
330
1ABD
100
AcDbEntity
  8
0
 62
     0
100
AcDbLine
 10
-42.32403962744313
 20
-276.4647725478386
 30
0.0
 11
-42.22189569305391
 21
-276.3626286134495
 31
0.0
  0
LINE
  5
1B52
330
1ABD
100
AcDbEntity
  8
0
 62
     0
100
AcDbLine
 10
-36.86685122736224
 20
-271.0075841477578
 30
0.0
 11
-35.97208203790917
 21
-270.1128149583047
 31
0.0
  0
LINE
  5
1B53
330
1ABD
100
AcDbEntity
  8
0
 62
     0
100
AcDbLine
 10
-42.22189569305391
 20
-276.3626286134494
 30
0.0
 11
-41.58990118685194
 21
-275.7306341072474
 31
0.0
  0
LINE
  5
1B54
330
1ABD
100
AcDbEntity
  8
0
 62
     0
100
AcDbLine
 10
-41.12422102438733
 20
-275.2649539447828
 30
0.0
 11
-41.02443241814492
 21
-275.1651653385405
 31
0.0
  0
LINE
  5
1B55
330
1ABD
100
AcDbEntity
  8
0
 62
     0
100
AcDbLine
 10
-42.36879155187804
 20
-276.3769419508011
 30
0.0
 11
-42.2684645752521
 21
-276.2766149741751
 31
0.0
  0
LINE
  5
1B56
330
1ABD
100
AcDbEntity
  8
0
 62
     0
100
AcDbLine
 10
-36.99943374883472
 20
-271.0075841477578
 30
0.0
 11
-36.10466455938166
 21
-270.1128149583047
 31
0.0
  0
LINE
  5
1B57
330
1ABD
100
AcDbEntity
  8
0
 62
     0
100
AcDbLine
 10
-42.26664761748884
 20
-276.2747980164119
 30
0.0
 11
-42.19792528481469
 21
-276.2060756837377
 31
0.0
  0
LINE
  5
1B58
330
1ABD
100
AcDbEntity
  8
0
 62
     0
100
AcDbLine
 10
-41.16897294882225
 20
-275.1771233477454
 30
0.0
 11
-41.06918434257984
 21
-275.0773347415029
 31
0.0
  0
LINE
  5
1B59
330
1ABD
100
AcDbEntity
  8
0
 62
     0
100
AcDbLine
 10
-42.1979252848146
 20
-276.2060756837377
 30
0.0
 11
-42.10043854447298
 21
-276.108588943396
 31
0.0
  0
LINE
  5
1B5A
330
1ABD
100
AcDbEntity
  8
0
 62
     0
100
AcDbLine
 10
-41.99598251496389
 20
-276.004132913887
 30
0.0
 11
-41.63465311128686
 21
-275.6428035102099
 31
0.0
  0
LINE
  5
1B5B
330
1ABD
100
AcDbEntity
  8
0
 62
     0
100
AcDbLine
 10
-42.10043854447292
 20
-276.1085889433959
 30
0.0
 11
-42.09566753742882
 21
-276.1038179363519
 31
0.0
  0
LINE
  5
1B5C
330
1ABD
100
AcDbEntity
  8
0
 62
     0
100
AcDbLine
 10
-42.09566753742871
 20
-276.1038179363518
 30
0.0
 11
-41.99598251496389
 21
-276.004132913887
 31
0.0
  0
LINE
  5
1B5D
330
1ABD
100
AcDbEntity
  8
0
 62
     0
100
AcDbLine
 10
-42.41354347631298
 20
-276.2891113537635
 30
0.0
 11
-42.31321649968703
 21
-276.1887843771376
 31
0.0
  0
LINE
  5
1B5E
330
1ABD
100
AcDbEntity
  8
0
 62
     0
100
AcDbLine
 10
-37.13201627030717
 20
-271.0075841477578
 30
0.0
 11
-36.23724708085414
 21
-270.1128149583047
 31
0.0
  0
LINE
  5
1B5F
330
1ABD
100
AcDbEntity
  8
0
 62
     0
100
AcDbLine
 10
-42.31139954192374
 20
-276.1869674193743
 30
0.0
 11
-42.1892754338011
 21
-276.0648433112517
 31
0.0
  0
LINE
  5
1B60
330
1ABD
100
AcDbEntity
  8
0
 62
     0
100
AcDbLine
 10
-41.21372487325716
 20
-275.0892927507078
 30
0.0
 11
-41.11393626701477
 21
-274.9895041444653
 31
0.0
  0
LINE
  5
1B61
330
1ABD
100
AcDbEntity
  8
0
 62
     0
100
AcDbLine
 10
-42.18927543380108
 20
-276.0648433112517
 30
0.0
 11
-42.14458912338753
 21
-276.0201570008381
 31
0.0
  0
LINE
  5
1B62
330
1ABD
100
AcDbEntity
  8
0
 62
     0
100
AcDbLine
 10
-41.96714156490001
 20
-275.8427094423506
 30
0.0
 11
-41.67940503572178
 21
-275.5549729131724
 31
0.0
  0
LINE
  5
1B63
330
1ABD
100
AcDbEntity
  8
0
 62
     0
100
AcDbLine
 10
-42.11450619999326
 20
-275.9900740774438
 30
0.0
 11
-41.96714156489998
 21
-275.8427094423506
 31
0.0
  0
LINE
  5
1B64
330
1ABD
100
AcDbEntity
  8
0
 62
     0
100
AcDbLine
 10
-42.4582954007479
 20
-276.201280756726
 30
0.0
 11
-42.35796842412195
 21
-276.1009537801001
 31
0.0
  0
LINE
  5
1B65
330
1ABD
100
AcDbEntity
  8
0
 62
     0
100
AcDbLine
 10
-37.26459879177965
 20
-271.0075841477578
 30
0.0
 11
-36.36982960232659
 21
-270.1128149583047
 31
0.0
  0
LINE
  5
1B66
330
1ABD
100
AcDbEntity
  8
0
 62
     0
100
AcDbLine
 10
-42.35615146635868
 20
-276.0991368223368
 30
0.0
 11
-42.27628628029851
 21
-276.0192716362766
 31
0.0
  0
LINE
  5
1B67
330
1ABD
100
AcDbEntity
  8
0
 62
     0
100
AcDbLine
 10
-41.2584767976921
 20
-275.0014621536702
 30
0.0
 11
-41.15868819144969
 21
-274.9016735474278
 31
0.0
  0
LINE
  5
1B68
330
1ABD
100
AcDbEntity
  8
0
 62
     0
100
AcDbLine
 10
-42.27628628029848
 20
-276.0192716362765
 30
0.0
 11
-41.83861559237119
 21
-275.5816009483493
 31
0.0
  0
LINE
  5
1B69
330
1ABD
100
AcDbEntity
  8
0
 62
     0
100
AcDbLine
 10
-41.83861559237118
 20
-275.5816009483492
 30
0.0
 11
-41.72415696015671
 21
-275.4671423161348
 31
0.0
  0
LINE
  5
1B6A
330
1ABD
100
AcDbEntity
  8
0
 62
     0
100
AcDbLine
 10
-42.50304732518282
 20
-276.1134501596885
 30
0.0
 11
-42.40272034855689
 21
-276.0131231830625
 31
0.0
  0
LINE
  5
1B6B
330
1ABD
100
AcDbEntity
  8
0
 62
     0
100
AcDbLine
 10
-37.39718131325214
 20
-271.0075841477578
 30
0.0
 11
-36.50241212379908
 21
-270.1128149583047
 31
0.0
  0
LINE
  5
1B6C
330
1ABD
100
AcDbEntity
  8
0
 62
     0
100
AcDbLine
 10
-42.4009033907936
 20
-276.0113062252992
 30
0.0
 11
-42.19714334742477
 21
-275.8075461819304
 31
0.0
  0
LINE
  5
1B6D
330
1ABD
100
AcDbEntity
  8
0
 62
     0
100
AcDbLine
 10
-41.30322872212701
 20
-274.9136315566326
 30
0.0
 11
-41.20344011588461
 21
-274.8138429503903
 31
0.0
  0
LINE
  5
1B6E
330
1ABD
100
AcDbEntity
  8
0
 62
     0
100
AcDbLine
 10
-42.19714334742469
 20
-275.8075461819303
 30
0.0
 11
-42.14776030776967
 21
-275.7581631422754
 31
0.0
  0
LINE
  5
1B6F
330
1ABD
100
AcDbEntity
  8
0
 62
     0
100
AcDbLine
 10
-42.14776030776969
 20
-275.7581631422754
 30
0.0
 11
-41.71008961984234
 21
-275.320492454348
 31
0.0
  0
LINE
  5
1B70
330
1ABD
100
AcDbEntity
  8
0
 62
     0
100
AcDbLine
 10
-42.54779924961775
 20
-276.0256195626509
 30
0.0
 11
-42.44747227299181
 21
-275.925292586025
 31
0.0
  0
LINE
  5
1B71
330
1ABD
100
AcDbEntity
  8
0
 62
     0
100
AcDbLine
 10
-37.52976383472462
 20
-271.0075841477578
 30
0.0
 11
-36.63499464527156
 21
-270.1128149583047
 31
0.0
  0
LINE
  5
1B72
330
1ABD
100
AcDbEntity
  8
0
 62
     0
100
AcDbLine
 10
-42.44565531522854
 20
-275.9234756282617
 30
0.0
 11
-42.01923433524084
 21
-275.497054648274
 31
0.0
  0
LINE
  5
1B73
330
1ABD
100
AcDbEntity
  8
0
 62
     0
100
AcDbLine
 10
-41.34798064656194
 20
-274.8258009595951
 30
0.0
 11
-41.24819204031953
 21
-274.7260123533527
 31
0.0
  0
LINE
  5
1B74
330
1ABD
100
AcDbEntity
  8
0
 62
     0
100
AcDbLine
 10
-42.01923433524087
 20
-275.497054648274
 30
0.0
 11
-41.58156364731355
 21
-275.0593839603467
 31
0.0
  0
LINE
  5
1B75
330
1ABD
100
AcDbEntity
  8
0
 62
     0
100
AcDbLine
 10
-42.59255117405266
 20
-275.9377889656133
 30
0.0
 11
-42.49040723966347
 21
-275.8356450312241
 31
0.0
  0
LINE
  5
1B76
330
1ABD
100
AcDbEntity
  8
0
 62
     0
100
AcDbLine
 10
-37.6623463561971
 20
-271.0075841477578
 30
0.0
 11
-36.76757716674404
 21
-270.1128149583047
 31
0.0
  0
LINE
  5
1B77
330
1ABD
100
AcDbEntity
  8
0
 62
     0
100
AcDbLine
 10
-42.49040723966347
 20
-275.8356450312241
 30
0.0
 11
-41.89070836271205
 21
-275.2359461542728
 31
0.0
  0
LINE
  5
1B78
330
1ABD
100
AcDbEntity
  8
0
 62
     0
100
AcDbLine
 10
-41.39273257099687
 20
-274.7379703625575
 30
0.0
 11
-41.29294396475446
 21
-274.6381817563151
 31
0.0
  0
LINE
  5
1B79
330
1ABD
100
AcDbEntity
  8
0
 62
     0
100
AcDbLine
 10
-41.89070836271203
 20
-275.2359461542727
 30
0.0
 11
-41.45303767478471
 21
-274.7982754663454
 31
0.0
  0
LINE
  5
1B7A
330
1ABD
100
AcDbEntity
  8
0
 62
     0
100
AcDbLine
 10
-42.63730309848759
 20
-275.8499583685758
 30
0.0
 11
-42.53515916409838
 21
-275.7478144341866
 31
0.0
  0
LINE
  5
1B7B
330
1ABD
100
AcDbEntity
  8
0
 62
     0
100
AcDbLine
 10
-37.79492887766956
 20
-271.0075841477578
 30
0.0
 11
-36.90015968821653
 21
-270.1128149583047
 31
0.0
  0
LINE
  5
1B7C
330
1ABD
100
AcDbEntity
  8
0
 62
     0
100
AcDbLine
 10
-42.53515916409839
 20
-275.7478144341866
 30
0.0
 11
-41.90316465789641
 21
-275.1158199279846
 31
0.0
  0
LINE
  5
1B7D
330
1ABD
100
AcDbEntity
  8
0
 62
     0
100
AcDbLine
 10
-41.76218239018321
 20
-274.9748376602715
 30
0.0
 11
-41.32451170225591
 21
-274.5371669723441
 31
0.0
  0
LINE
  5
1B7E
330
1ABD
100
AcDbEntity
  8
0
 62
     0
100
AcDbLine
 10
-42.68205502292253
 20
-275.7621277715383
 30
0.0
 11
-42.57991108853331
 21
-275.6599838371491
 31
0.0
  0
LINE
  5
1B7F
330
1ABD
100
AcDbEntity
  8
0
 62
     0
100
AcDbLine
 10
-37.92751139914204
 20
-271.0075841477578
 30
0.0
 11
-37.03274220968898
 21
-270.1128149583047
 31
0.0
  0
LINE
  5
1B80
330
1ABD
100
AcDbEntity
  8
0
 62
     0
100
AcDbLine
 10
-42.57991108853332
 20
-275.659983837149
 30
0.0
 11
-41.94791658233133
 21
-275.027989330947
 31
0.0
  0
LINE
  5
1B81
330
1ABD
100
AcDbEntity
  8
0
 62
     0
100
AcDbLine
 10
-41.63365641765442
 20
-274.7137291662701
 30
0.0
 11
-41.19598572972707
 21
-274.2760584783428
 31
0.0
  0
LINE
  5
1B82
330
1ABD
100
AcDbEntity
  8
0
 62
     0
100
AcDbLine
 10
-42.72680694735743
 20
-275.6742971745007
 30
0.0
 11
-42.62466301296824
 21
-275.5721532401115
 31
0.0
  0
LINE
  5
1B83
330
1ABD
100
AcDbEntity
  8
0
 62
     0
100
AcDbLine
 10
-38.06009392061452
 20
-271.0075841477578
 30
0.0
 11
-37.16532473116146
 21
-270.1128149583047
 31
0.0
  0
LINE
  5
1B84
330
1ABD
100
AcDbEntity
  8
0
 62
     0
100
AcDbLine
 10
-42.62466301296824
 20
-275.5721532401115
 30
0.0
 11
-41.99266850676624
 21
-274.9401587339095
 31
0.0
  0
LINE
  5
1B85
330
1ABD
100
AcDbEntity
  8
0
 62
     0
100
AcDbLine
 10
-41.24320808781802
 20
-274.1906983149613
 30
0.0
 11
-41.16028905131896
 21
-274.1077792784622
 31
0.0
  0
LINE
  5
1B86
330
1ABD
100
AcDbEntity
  8
0
 62
     0
100
AcDbLine
 10
-41.52698834430164
 20
-274.4744785714449
 30
0.0
 11
-41.50513044512558
 21
-274.4526206722688
 31
0.0
  0
LINE
  5
1B87
330
1ABD
100
AcDbEntity
  8
0
 62
     0
100
AcDbLine
 10
-41.2918472873847
 20
-274.2393375145279
 30
0.0
 11
-41.26594175883485
 21
-274.2134319859781
 31
0.0
  0
LINE
  5
1B88
330
1ABD
100
AcDbEntity
  8
0
 62
     0
100
AcDbLine
 10
-41.50513044512556
 20
-274.4526206722688
 30
0.0
 11
-41.29184728738475
 21
-274.239337514528
 31
0.0
  0
LINE
  5
1B89
330
1ABD
100
AcDbEntity
  8
0
 62
     0
100
AcDbLine
 10
-42.77155887179236
 20
-275.5864665774631
 30
0.0
 11
-42.66941493740316
 21
-275.484322643074
 31
0.0
  0
LINE
  5
1B8A
330
1ABD
100
AcDbEntity
  8
0
 62
     0
100
AcDbLine
 10
-38.192676442087
 20
-271.0075841477578
 30
0.0
 11
-37.29790725263395
 21
-270.1128149583047
 31
0.0
  0
LINE
  5
1B8B
330
1ABD
100
AcDbEntity
  8
0
 62
     0
100
AcDbLine
 10
-42.66941493740316
 20
-275.484322643074
 30
0.0
 11
-42.03742043120118
 21
-274.8523281368719
 31
0.0
  0
LINE
  5
1B8C
330
1ABD
100
AcDbEntity
  8
0
 62
     0
100
AcDbLine
 10
-41.39132135807054
 20
-274.2062290637413
 30
0.0
 11
-41.15044255176923
 21
-273.96535025744
 31
0.0
  0
LINE
  5
1B8D
330
1ABD
100
AcDbEntity
  8
0
 62
     0
100
AcDbLine
 10
-41.57174026873658
 20
-274.3866479744074
 30
0.0
 11
-41.47195166249413
 21
-274.2868593681649
 31
0.0
  0
LINE
  5
1B8E
330
1ABD
100
AcDbEntity
  8
0
 62
     0
100
AcDbLine
 10
-42.81631079622728
 20
-275.4986359804255
 30
0.0
 11
-42.71416686183809
 21
-275.3964920460364
 31
0.0
  0
LINE
  5
1B8F
330
1ABD
100
AcDbEntity
  8
0
 62
     0
100
AcDbLine
 10
-38.32525896355949
 20
-271.0075841477578
 30
0.0
 11
-37.43048977410643
 21
-270.1128149583047
 31
0.0
  0
LINE
  5
1B90
330
1ABD
100
AcDbEntity
  8
0
 62
     0
100
AcDbLine
 10
-42.71416686183809
 20
-275.3964920460364
 30
0.0
 11
-42.0821723556361
 21
-274.7644975398344
 31
0.0
  0
LINE
  5
1B91
330
1ABD
100
AcDbEntity
  8
0
 62
     0
100
AcDbLine
 10
-41.3814748585208
 20
-274.0638000427191
 30
0.0
 11
-41.1405960522195
 21
-273.8229212364178
 31
0.0
  0
LINE
  5
1B92
330
1ABD
100
AcDbEntity
  8
0
 62
     0
100
AcDbLine
 10
-41.6164921931715
 20
-274.2988173773698
 30
0.0
 11
-41.51670358692905
 21
-274.1990287711273
 31
0.0
  0
LINE
  5
1B93
330
1ABD
100
AcDbEntity
  8
0
 62
     0
100
AcDbLine
 10
-42.86106272066221
 20
-275.410805383388
 30
0.0
 11
-42.75891878627302
 21
-275.3086614489988
 31
0.0
  0
LINE
  5
1B94
330
1ABD
100
AcDbEntity
  8
0
 62
     0
100
AcDbLine
 10
-38.45784148503194
 20
-271.0075841477578
 30
0.0
 11
-37.56307229557891
 21
-270.1128149583047
 31
0.0
  0
LINE
  5
1B95
330
1ABD
100
AcDbEntity
  8
0
 62
     0
100
AcDbLine
 10
-42.75891878627301
 20
-275.3086614489988
 30
0.0
 11
-42.12692428007102
 21
-274.6766669427968
 31
0.0
  0
LINE
  5
1B96
330
1ABD
100
AcDbEntity
  8
0
 62
     0
100
AcDbLine
 10
-41.37162835897107
 20
-273.9213710216969
 30
0.0
 11
-41.13074955266977
 21
-273.6804922153956
 31
0.0
  0
LINE
  5
1B97
330
1ABD
100
AcDbEntity
  8
0
 62
     0
100
AcDbLine
 10
-41.66124411760642
 20
-274.2109867803322
 30
0.0
 11
-41.56145551136398
 21
-274.1111981740898
 31
0.0
  0
LINE
  5
1B98
330
1ABD
100
AcDbEntity
  8
0
 62
     0
100
AcDbLine
 10
-42.90581464509713
 20
-275.3229747863504
 30
0.0
 11
-42.80367071070794
 21
-275.2208308519613
 31
0.0
  0
LINE
  5
1B99
330
1ABD
100
AcDbEntity
  8
0
 62
     0
100
AcDbLine
 10
-38.59042400650442
 20
-271.0075841477578
 30
0.0
 11
-37.69565481705136
 21
-270.1128149583047
 31
0.0
  0
LINE
  5
1B9A
330
1ABD
100
AcDbEntity
  8
0
 62
     0
100
AcDbLine
 10
-42.80367071070794
 20
-275.2208308519613
 30
0.0
 11
-42.17167620450595
 21
-274.5888363457593
 31
0.0
  0
LINE
  5
1B9B
330
1ABD
100
AcDbEntity
  8
0
 62
     0
100
AcDbLine
 10
-41.36178185942134
 20
-273.7789420006746
 30
0.0
 11
-41.12090305312004
 21
-273.5380631943733
 31
0.0
  0
LINE
  5
1B9C
330
1ABD
100
AcDbEntity
  8
0
 62
     0
100
AcDbLine
 10
-41.70599604204134
 20
-274.1231561832947
 30
0.0
 11
-41.60620743579889
 21
-274.0233675770522
 31
0.0
  0
LINE
  5
1B9D
330
1ABD
100
AcDbEntity
  8
0
 62
     0
100
AcDbLine
 10
-42.95056656953206
 20
-275.2351441893129
 30
0.0
 11
-42.84842263514287
 21
-275.1330002549237
 31
0.0
  0
LINE
  5
1B9E
330
1ABD
100
AcDbEntity
  8
0
 62
     0
100
AcDbLine
 10
-38.72300652797691
 20
-271.0075841477578
 30
0.0
 11
-37.82823733852385
 21
-270.1128149583047
 31
0.0
  0
LINE
  5
1B9F
330
1ABD
100
AcDbEntity
  8
0
 62
     0
100
AcDbLine
 10
-42.84842263514287
 20
-275.1330002549237
 30
0.0
 11
-42.21642812894087
 21
-274.5010057487217
 31
0.0
  0
LINE
  5
1BA0
330
1ABD
100
AcDbEntity
  8
0
 62
     0
100
AcDbLine
 10
-41.35193535987162
 20
-273.6365129796524
 30
0.0
 11
-41.11105655357031
 21
-273.3956341733511
 31
0.0
  0
LINE
  5
1BA1
330
1ABD
100
AcDbEntity
  8
0
 62
     0
100
AcDbLine
 10
-41.75074796647627
 20
-274.0353255862571
 30
0.0
 11
-41.65095936023383
 21
-273.9355369800147
 31
0.0
  0
LINE
  5
1BA2
330
1ABD
100
AcDbEntity
  8
0
 62
     0
100
AcDbLine
 10
-42.99531849396698
 20
-275.1473135922753
 30
0.0
 11
-42.89317455957778
 21
-275.0451696578862
 31
0.0
  0
LINE
  5
1BA3
330
1ABD
100
AcDbEntity
  8
0
 62
     0
100
AcDbLine
 10
-38.85558904944939
 20
-271.0075841477578
 30
0.0
 11
-37.96081985999633
 21
-270.1128149583047
 31
0.0
  0
LINE
  5
1BA4
330
1ABD
100
AcDbEntity
  8
0
 62
     0
100
AcDbLine
 10
-42.89317455957778
 20
-275.0451696578862
 30
0.0
 11
-42.2611800533758
 21
-274.4131751516842
 31
0.0
  0
LINE
  5
1BA5
330
1ABD
100
AcDbEntity
  8
0
 62
     0
100
AcDbLine
 10
-41.34208886032189
 20
-273.4940839586302
 30
0.0
 11
-41.10121005402058
 21
-273.2532051523289
 31
0.0
  0
LINE
  5
1BA6
330
1ABD
100
AcDbEntity
  8
0
 62
     0
100
AcDbLine
 10
-41.79549989091119
 20
-273.9474949892195
 30
0.0
 11
-41.69571128466874
 21
-273.8477063829771
 31
0.0
  0
LINE
  5
1BA7
330
1ABD
100
AcDbEntity
  8
0
 62
     0
100
AcDbLine
 10
-43.0400704184019
 20
-275.0594829952378
 30
0.0
 11
-42.93792648401271
 21
-274.9573390608487
 31
0.0
  0
LINE
  5
1BA8
330
1ABD
100
AcDbEntity
  8
0
 62
     0
100
AcDbLine
 10
-38.98817157092188
 20
-271.0075841477578
 30
0.0
 11
-38.09340238146882
 21
-270.1128149583047
 31
0.0
  0
LINE
  5
1BA9
330
1ABD
100
AcDbEntity
  8
0
 62
     0
100
AcDbLine
 10
-42.93792648401271
 20
-274.9573390608486
 30
0.0
 11
-42.30593197781072
 21
-274.3253445546466
 31
0.0
  0
LINE
  5
1BAA
330
1ABD
100
AcDbEntity
  8
0
 62
     0
100
AcDbLine
 10
-41.33224236077215
 20
-273.351654937608
 30
0.0
 11
-41.09136355447085
 21
-273.1107761313067
 31
0.0
  0
LINE
  5
1BAB
330
1ABD
100
AcDbEntity
  8
0
 62
     0
100
AcDbLine
 10
-41.84025181534611
 20
-273.859664392182
 30
0.0
 11
-41.74046320910367
 21
-273.7598757859395
 31
0.0
  0
LINE
  5
1BAC
330
1ABD
100
AcDbEntity
  8
0
 62
     0
100
AcDbLine
 10
-43.08482234283682
 20
-274.9716523982002
 30
0.0
 11
-42.98267840844763
 21
-274.8695084638111
 31
0.0
  0
LINE
  5
1BAD
330
1ABD
100
AcDbEntity
  8
0
 62
     0
100
AcDbLine
 10
-39.12075409239436
 20
-271.0075841477578
 30
0.0
 11
-38.2259849029413
 21
-270.1128149583047
 31
0.0
  0
LINE
  5
1BAE
330
1ABD
100
AcDbEntity
  8
0
 62
     0
100
AcDbLine
 10
-42.98267840844764
 20
-274.8695084638111
 30
0.0
 11
-42.35068390224564
 21
-274.2375139576091
 31
0.0
  0
LINE
  5
1BAF
330
1ABD
100
AcDbEntity
  8
0
 62
     0
100
AcDbLine
 10
-41.08151705492112
 20
-272.9683471102845
 30
0.0
 11
-40.96181643366968
 21
-272.848646489033
 31
0.0
  0
LINE
  5
1BB0
330
1ABD
100
AcDbEntity
  8
0
 62
     0
100
AcDbLine
 10
-41.88500373978103
 20
-273.7718337951445
 30
0.0
 11
-41.78521513353859
 21
-273.672045188902
 31
0.0
  0
LINE
  5
1BB1
330
1ABD
100
AcDbEntity
  8
0
 62
     0
100
AcDbLine
 10
-41.32239586122242
 20
-273.2092259165858
 30
0.0
 11
-41.08151705492112
 21
-272.9683471102845
 31
0.0
  0
LINE
  5
1BB2
330
1ABD
100
AcDbEntity
  8
0
 62
     0
100
AcDbLine
 10
-43.12957426727176
 20
-274.8838218011627
 30
0.0
 11
-43.02743033288257
 21
-274.7816778667736
 31
0.0
  0
LINE
  5
1BB3
330
1ABD
100
AcDbEntity
  8
0
 62
     0
100
AcDbLine
 10
-39.25333661386681
 20
-271.0075841477578
 30
0.0
 11
-38.35856742441375
 21
-270.1128149583047
 31
0.0
  0
LINE
  5
1BB4
330
1ABD
100
AcDbEntity
  8
0
 62
     0
100
AcDbLine
 10
-43.02743033288256
 20
-274.7816778667735
 30
0.0
 11
-42.39543582668058
 21
-274.1496833605715
 31
0.0
  0
LINE
  5
1BB5
330
1ABD
100
AcDbEntity
  8
0
 62
     0
100
AcDbLine
 10
-41.07167055537138
 20
-272.8259180892623
 30
0.0
 11
-40.79761027123158
 21
-272.5518578051226
 31
0.0
  0
LINE
  5
1BB6
330
1ABD
100
AcDbEntity
  8
0
 62
     0
100
AcDbLine
 10
-41.92975566421597
 20
-273.6840031981069
 30
0.0
 11
-41.82996705797352
 21
-273.5842145918645
 31
0.0
  0
LINE
  5
1BB7
330
1ABD
100
AcDbEntity
  8
0
 62
     0
100
AcDbLine
 10
-41.3125493616727
 20
-273.0667968955636
 30
0.0
 11
-41.07167055537138
 21
-272.8259180892623
 31
0.0
  0
LINE
  5
1BB8
330
1ABD
100
AcDbEntity
  8
0
 62
     0
100
AcDbLine
 10
-43.17432619170667
 20
-274.7959912041251
 30
0.0
 11
-43.07218225731747
 21
-274.693847269736
 31
0.0
  0
LINE
  5
1BB9
330
1ABD
100
AcDbEntity
  8
0
 62
     0
100
AcDbLine
 10
-39.3859191353393
 20
-271.0075841477578
 30
0.0
 11
-38.49114994588624
 21
-270.1128149583047
 31
0.0
  0
LINE
  5
1BBA
330
1ABD
100
AcDbEntity
  8
0
 62
     0
100
AcDbLine
 10
-43.07218225731748
 20
-274.693847269736
 30
0.0
 11
-42.44018775111549
 21
-274.0618527635339
 31
0.0
  0
LINE
  5
1BBB
330
1ABD
100
AcDbEntity
  8
0
 62
     0
100
AcDbLine
 10
-41.06182405582166
 20
-272.6834890682401
 30
0.0
 11
-40.63340410879347
 21
-272.2550691212119
 31
0.0
  0
LINE
  5
1BBC
330
1ABD
100
AcDbEntity
  8
0
 62
     0
100
AcDbLine
 10
-41.97450758865088
 20
-273.5961726010693
 30
0.0
 11
-41.87471898240843
 21
-273.4963839948269
 31
0.0
  0
LINE
  5
1BBD
330
1ABD
100
AcDbEntity
  8
0
 62
     0
100
AcDbLine
 10
-41.30270286212296
 20
-272.9243678745414
 30
0.0
 11
-41.06182405582166
 21
-272.6834890682401
 31
0.0
  0
LINE
  5
1BBE
330
1ABD
100
AcDbEntity
  8
0
 62
     0
100
AcDbLine
 10
-43.2190781161416
 20
-274.7081606070876
 30
0.0
 11
-43.11693418175241
 21
-274.6060166726984
 31
0.0
  0
LINE
  5
1BBF
330
1ABD
100
AcDbEntity
  8
0
 62
     0
100
AcDbLine
 10
-39.51850165681178
 20
-271.0075841477578
 30
0.0
 11
-38.62373246735872
 21
-270.1128149583047
 31
0.0
  0
LINE
  5
1BC0
330
1ABD
100
AcDbEntity
  8
0
 62
     0
100
AcDbLine
 10
-43.11693418175241
 20
-274.6060166726984
 30
0.0
 11
-42.48493967555043
 21
-273.9740221664964
 31
0.0
  0
LINE
  5
1BC1
330
1ABD
100
AcDbEntity
  8
0
 62
     0
100
AcDbLine
 10
-41.04147028864789
 20
-272.5305527795939
 30
0.0
 11
-40.46919794635537
 21
-271.9582804373014
 31
0.0
  0
LINE
  5
1BC2
330
1ABD
100
AcDbEntity
  8
0
 62
     0
100
AcDbLine
 10
-42.0192595130858
 20
-273.5083420040318
 30
0.0
 11
-41.91947090684336
 21
-273.4085533977893
 31
0.0
  0
LINE
  5
1BC3
330
1ABD
100
AcDbEntity
  8
0
 62
     0
100
AcDbLine
 10
-41.29285636257323
 20
-272.7819388535192
 30
0.0
 11
-41.05197755627193
 21
-272.5410600472179
 31
0.0
  0
LINE
  5
1BC4
330
1ABD
100
AcDbEntity
  8
0
 62
     0
100
AcDbLine
 10
-43.26383004057651
 20
-274.62033001005
 30
0.0
 11
-43.16168610618734
 21
-274.5181860756609
 31
0.0
  0
LINE
  5
1BC5
330
1ABD
100
AcDbEntity
  8
0
 62
     0
100
AcDbLine
 10
-39.65108417828427
 20
-271.0075841477578
 30
0.0
 11
-38.7563149888312
 21
-270.1128149583047
 31
0.0
  0
LINE
  5
1BC6
330
1ABD
100
AcDbEntity
  8
0
 62
     0
100
AcDbLine
 10
-43.16168610618732
 20
-274.5181860756608
 30
0.0
 11
-42.52969159998534
 21
-273.8861915694589
 31
0.0
  0
LINE
  5
1BC7
330
1ABD
100
AcDbEntity
  8
0
 62
     0
100
AcDbLine
 10
-40.87726412620977
 20
-272.2337640956832
 30
0.0
 11
-40.30499178391731
 21
-271.6614917533908
 31
0.0
  0
LINE
  5
1BC8
330
1ABD
100
AcDbEntity
  8
0
 62
     0
100
AcDbLine
 10
-42.06401143752072
 20
-273.4205114069942
 30
0.0
 11
-41.96422283127828
 21
-273.3207228007517
 31
0.0
  0
LINE
  5
1BC9
330
1ABD
100
AcDbEntity
  8
0
 62
     0
100
AcDbLine
 10
-41.2830098630235
 20
-272.639509832497
 30
0.0
 11
-41.04213105672219
 21
-272.3986310261957
 31
0.0
  0
LINE
  5
1BCA
330
1ABD
100
AcDbEntity
  8
0
 62
     0
100
AcDbLine
 10
-43.30858196501145
 20
-274.5324994130124
 30
0.0
 11
-43.20643803062226
 21
-274.4303554786233
 31
0.0
  0
LINE
  5
1BCB
330
1ABD
100
AcDbEntity
  8
0
 62
     0
100
AcDbLine
 10
-39.78366669975674
 20
-271.0075841477578
 30
0.0
 11
-38.88889751030369
 21
-270.1128149583047
 31
0.0
  0
LINE
  5
1BCC
330
1ABD
100
AcDbEntity
  8
0
 62
     0
100
AcDbLine
 10
-43.20643803062226
 20
-274.4303554786232
 30
0.0
 11
-42.57444352442026
 21
-273.7983609724213
 31
0.0
  0
LINE
  5
1BCD
330
1ABD
100
AcDbEntity
  8
0
 62
     0
100
AcDbLine
 10
-40.71305796377171
 20
-271.9369754117727
 30
0.0
 11
-40.14078562147921
 21
-271.3647030694802
 31
0.0
  0
LINE
  5
1BCE
330
1ABD
100
AcDbEntity
  8
0
 62
     0
100
AcDbLine
 10
-42.10876336195565
 20
-273.3326808099567
 30
0.0
 11
-42.00897475571321
 21
-273.2328922037142
 31
0.0
  0
LINE
  5
1BCF
330
1ABD
100
AcDbEntity
  8
0
 62
     0
100
AcDbLine
 10
-41.27316336347377
 20
-272.4970808114748
 30
0.0
 11
-41.03228455717245
 21
-272.2562020051735
 31
0.0
  0
LINE
  5
1BD0
330
1ABD
100
AcDbEntity
  8
0
 62
     0
100
AcDbLine
 10
-43.35333388944637
 20
-274.4446688159749
 30
0.0
 11
-43.25118995505717
 21
-274.3425248815857
 31
0.0
  0
LINE
  5
1BD1
330
1ABD
100
AcDbEntity
  8
0
 62
     0
100
AcDbLine
 10
-39.9162492212292
 20
-271.0075841477578
 30
0.0
 11
-39.02148003177617
 21
-270.1128149583047
 31
0.0
  0
LINE
  5
1BD2
330
1ABD
100
AcDbEntity
  8
0
 62
     0
100
AcDbLine
 10
-43.25118995505718
 20
-274.3425248815857
 30
0.0
 11
-42.61919544885519
 21
-273.7105303753837
 31
0.0
  0
LINE
  5
1BD3
330
1ABD
100
AcDbEntity
  8
0
 62
     0
100
AcDbLine
 10
-40.5488518013336
 20
-271.6401867278622
 30
0.0
 11
-39.97657945904111
 21
-271.0679143855696
 31
0.0
  0
LINE
  5
1BD4
330
1ABD
100
AcDbEntity
  8
0
 62
     0
100
AcDbLine
 10
-42.15351528639057
 20
-273.2448502129191
 30
0.0
 11
-42.05372668014815
 21
-273.1450616066767
 31
0.0
  0
LINE
  5
1BD5
330
1ABD
100
AcDbEntity
  8
0
 62
     0
100
AcDbLine
 10
-41.26331686392403
 20
-272.3546517904526
 30
0.0
 11
-41.02243805762273
 21
-272.1137729841512
 31
0.0
  0
LINE
  5
1BD6
330
1ABD
100
AcDbEntity
  8
0
 62
     0
100
AcDbLine
 10
-43.39808581388129
 20
-274.3568382189374
 30
0.0
 11
-43.29594187949211
 21
-274.2546942845482
 31
0.0
  0
LINE
  5
1BD7
330
1ABD
100
AcDbEntity
  8
0
 62
     0
100
AcDbLine
 10
-40.04883174270166
 20
-271.0075841477577
 30
0.0
 11
-39.15406255324862
 21
-270.1128149583047
 31
0.0
  0
LINE
  5
1BD8
330
1ABD
100
AcDbEntity
  8
0
 62
     0
100
AcDbLine
 10
-43.29594187949211
 20
-274.2546942845482
 30
0.0
 11
-42.66394737329011
 21
-273.6226997783461
 31
0.0
  0
LINE
  5
1BD9
330
1ABD
100
AcDbEntity
  8
0
 62
     0
100
AcDbLine
 10
-40.38464563889553
 20
-271.3433980439516
 30
0.0
 11
-40.04883174270168
 21
-271.0075841477578
 31
0.0
  0
LINE
  5
1BDA
330
1ABD
100
AcDbEntity
  8
0
 62
     0
100
AcDbLine
 10
-42.19826721082549
 20
-273.1570196158815
 30
0.0
 11
-42.09847860458307
 21
-273.0572310096391
 31
0.0
  0
LINE
  5
1BDB
330
1ABD
100
AcDbEntity
  8
0
 62
     0
100
AcDbLine
 10
-41.25347036437431
 20
-272.2122227694304
 30
0.0
 11
-41.01259155807299
 21
-271.971343963129
 31
0.0
  0
LINE
  5
1BDC
330
1ABD
100
AcDbEntity
  8
0
 62
     0
100
AcDbLine
 10
-43.44283773831622
 20
-274.2690076218998
 30
0.0
 11
-43.34069380392703
 21
-274.1668636875106
 31
0.0
  0
LINE
  5
1BDD
330
1ABD
100
AcDbEntity
  8
0
 62
     0
100
AcDbLine
 10
-40.18141426417416
 20
-271.0075841477577
 30
0.0
 11
-39.28664507472111
 21
-270.1128149583047
 31
0.0
  0
LINE
  5
1BDE
330
1ABD
100
AcDbEntity
  8
0
 62
     0
100
AcDbLine
 10
-43.34069380392703
 20
-274.1668636875106
 30
0.0
 11
-42.70869929772504
 21
-273.5348691813086
 31
0.0
  0
LINE
  5
1BDF
330
1ABD
100
AcDbEntity
  8
0
 62
     0
100
AcDbLine
 10
-40.22043947645742
 20
-271.046609360041
 30
0.0
 11
-40.18141426417416
 21
-271.0075841477578
 31
0.0
  0
LINE
  5
1BE0
330
1ABD
100
AcDbEntity
  8
0
 62
     0
100
AcDbLine
 10
-42.24301913526041
 20
-273.069189018844
 30
0.0
 11
-42.14323052901799
 21
-272.9694004126015
 31
0.0
  0
LINE
  5
1BE1
330
1ABD
100
AcDbEntity
  8
0
 62
     0
100
AcDbLine
 10
-41.24362386482458
 20
-272.0697937484081
 30
0.0
 11
-41.00274505852326
 21
-271.8289149421068
 31
0.0
  0
LINE
  5
1BE2
330
1ABD
100
AcDbEntity
  8
0
 62
     0
100
AcDbLine
 10
-43.48758966275113
 20
-274.1811770248623
 30
0.0
 11
-43.38544572836195
 21
-274.0790330904731
 31
0.0
  0
LINE
  5
1BE3
330
1ABD
100
AcDbEntity
  8
0
 62
     0
100
AcDbLine
 10
-40.31399678564665
 20
-271.0075841477578
 30
0.0
 11
-39.41922759619359
 21
-270.1128149583047
 31
0.0
  0
LINE
  5
1BE4
330
1ABD
100
AcDbEntity
  8
0
 62
     0
100
AcDbLine
 10
-43.38544572836195
 20
-274.0790330904731
 30
0.0
 11
-42.75345122215997
 21
-273.447038584271
 31
0.0
  0
LINE
  5
1BE5
330
1ABD
100
AcDbEntity
  8
0
 62
     0
100
AcDbLine
 10
-41.23377736527484
 20
-271.9273647273859
 30
0.0
 11
-40.99289855897352
 21
-271.6864859210846
 31
0.0
  0
LINE
  5
1BE6
330
1ABD
100
AcDbEntity
  8
0
 62
     0
100
AcDbLine
 10
-42.28777105969533
 20
-272.9813584218064
 30
0.0
 11
-42.18798245345292
 21
-272.881569815564
 31
0.0
  0
LINE
  5
1BE7
330
1ABD
100
AcDbEntity
  8
0
 62
     0
100
AcDbLine
 10
-43.53234158718605
 20
-274.0933464278247
 30
0.0
 11
-43.43019765279687
 21
-273.9912024934355
 31
0.0
  0
LINE
  5
1BE8
330
1ABD
100
AcDbEntity
  8
0
 62
     0
100
AcDbLine
 10
-40.44657930711912
 20
-271.0075841477578
 30
0.0
 11
-39.55181011766607
 21
-270.1128149583047
 31
0.0
  0
LINE
  5
1BE9
330
1ABD
100
AcDbEntity
  8
0
 62
     0
100
AcDbLine
 10
-43.43019765279688
 20
-273.9912024934355
 30
0.0
 11
-42.79820314659487
 21
-273.3592079872335
 31
0.0
  0
LINE
  5
1BEA
330
1ABD
100
AcDbEntity
  8
0
 62
     0
100
AcDbLine
 10
-41.22393086572511
 20
-271.7849357063637
 30
0.0
 11
-40.9830520594238
 21
-271.5440569000624
 31
0.0
  0
LINE
  5
1BEB
330
1ABD
100
AcDbEntity
  8
0
 62
     0
100
AcDbLine
 10
-42.33252298413026
 20
-272.8935278247689
 30
0.0
 11
-42.23273437788784
 21
-272.7937392185264
 31
0.0
  0
LINE
  5
1BEC
330
1ABD
100
AcDbEntity
  8
0
 62
     0
100
AcDbLine
 10
-43.57709351162099
 20
-274.0055158307872
 30
0.0
 11
-43.4749495772318
 21
-273.903371896398
 31
0.0
  0
LINE
  5
1BED
330
1ABD
100
AcDbEntity
  8
0
 62
     0
100
AcDbLine
 10
-40.57916182859158
 20
-271.0075841477578
 30
0.0
 11
-39.68439263913856
 21
-270.1128149583047
 31
0.0
  0
LINE
  5
1BEE
330
1ABD
100
AcDbEntity
  8
0
 62
     0
100
AcDbLine
 10
-43.4749495772318
 20
-273.903371896398
 30
0.0
 11
-42.84295507102982
 21
-273.2713773901959
 31
0.0
  0
LINE
  5
1BEF
330
1ABD
100
AcDbEntity
  8
0
 62
     0
100
AcDbLine
 10
-41.21408436617539
 20
-271.6425066853415
 30
0.0
 11
-40.97320555987406
 21
-271.4016278790402
 31
0.0
  0
LINE
  5
1BF0
330
1ABD
100
AcDbEntity
  8
0
 62
     0
100
AcDbLine
 10
-42.37727490856518
 20
-272.8056972277314
 30
0.0
 11
-42.27748630232276
 21
-272.705908621489
 31
0.0
  0
LINE
  5
1BF1
330
1ABD
100
AcDbEntity
  8
0
 62
     0
100
AcDbLine
 10
-43.6218454360559
 20
-273.9176852337496
 30
0.0
 11
-43.51970150166672
 21
-273.8155412993604
 31
0.0
  0
LINE
  5
1BF2
330
1ABD
100
AcDbEntity
  8
0
 62
     0
100
AcDbLine
 10
-40.71174435006406
 20
-271.0075841477578
 30
0.0
 11
-39.81697516061101
 21
-270.1128149583047
 31
0.0
  0
LINE
  5
1BF3
330
1ABD
100
AcDbEntity
  8
0
 62
     0
100
AcDbLine
 10
-43.51970150166672
 20
-273.8155412993604
 30
0.0
 11
-42.88770699546473
 21
-273.1835467931584
 31
0.0
  0
LINE
  5
1BF4
330
1ABD
100
AcDbEntity
  8
0
 62
     0
100
AcDbLine
 10
-41.20423786662565
 20
-271.5000776643193
 30
0.0
 11
-40.96335906032432
 21
-271.259198858018
 31
0.0
  0
LINE
  5
1BF5
330
1ABD
100
AcDbEntity
  8
0
 62
     0
100
AcDbLine
 10
-42.4220268330001
 20
-272.7178666306938
 30
0.0
 11
-42.32223822675769
 21
-272.6180780244514
 31
0.0
  0
LINE
  5
1BF6
330
1ABD
100
AcDbEntity
  8
0
 62
     0
100
AcDbLine
 10
-43.66659736049083
 20
-273.829854636712
 30
0.0
 11
-43.56445342610165
 21
-273.7277107023229
 31
0.0
  0
LINE
  5
1BF7
330
1ABD
100
AcDbEntity
  8
0
 62
     0
100
AcDbLine
 10
-40.84432687153655
 20
-271.0075841477578
 30
0.0
 11
-39.94955768208349
 21
-270.1128149583047
 31
0.0
  0
LINE
  5
1BF8
330
1ABD
100
AcDbEntity
  8
0
 62
     0
100
AcDbLine
 10
-43.56445342610164
 20
-273.7277107023228
 30
0.0
 11
-42.93245891989965
 21
-273.0957161961208
 31
0.0
  0
LINE
  5
1BF9
330
1ABD
100
AcDbEntity
  8
0
 62
     0
100
AcDbLine
 10
-41.19439136707593
 20
-271.3576486432971
 30
0.0
 11
-40.95351256077459
 21
-271.1167698369958
 31
0.0
  0
LINE
  5
1BFA
330
1ABD
100
AcDbEntity
  8
0
 62
     0
100
AcDbLine
 10
-42.46677875743502
 20
-272.6300360336562
 30
0.0
 11
-42.36699015119261
 21
-272.5302474274138
 31
0.0
  0
LINE
  5
1BFB
330
1ABD
100
AcDbEntity
  8
0
 62
     0
100
AcDbLine
 10
-43.71134928492576
 20
-273.7420240396744
 30
0.0
 11
-43.60920535053657
 21
-273.6398801052853
 31
0.0
  0
LINE
  5
1BFC
330
1ABD
100
AcDbEntity
  8
0
 62
     0
100
AcDbLine
 10
-40.97690939300903
 20
-271.0075841477578
 30
0.0
 11
-40.08214020355597
 21
-270.1128149583047
 31
0.0
  0
LINE
  5
1BFD
330
1ABD
100
AcDbEntity
  8
0
 62
     0
100
AcDbLine
 10
-43.60920535053657
 20
-273.6398801052853
 30
0.0
 11
-42.97721084433458
 21
-273.0078855990833
 31
0.0
  0
LINE
  5
1BFE
330
1ABD
100
AcDbEntity
  8
0
 62
     0
100
AcDbLine
 10
-41.1845448675262
 20
-271.2152196222749
 30
0.0
 11
-40.97690939300904
 21
-271.0075841477578
 31
0.0
  0
LINE
  5
1BFF
330
1ABD
100
AcDbEntity
  8
0
 62
     0
100
AcDbLine
 10
-42.51153068186996
 20
-272.5422054366187
 30
0.0
 11
-42.41174207562753
 21
-272.4424168303762
 31
0.0
  0
LINE
  5
1C00
330
1ABD
100
AcDbEntity
  8
0
 62
     0
100
AcDbLine
 10
-43.75610120936068
 20
-273.6541934426369
 30
0.0
 11
-43.65395727497149
 21
-273.5520495082478
 31
0.0
  0
LINE
  5
1C01
330
1ABD
100
AcDbEntity
  8
0
 62
     0
100
AcDbLine
 10
-41.10949191448152
 20
-271.0075841477578
 30
0.0
 11
-40.21472272502846
 21
-270.1128149583047
 31
0.0
  0
LINE
  5
1C02
330
1ABD
100
AcDbEntity
  8
0
 62
     0
100
AcDbLine
 10
-43.65395727497149
 20
-273.5520495082478
 30
0.0
 11
-43.02196276876951
 21
-272.9200550020458
 31
0.0
  0
LINE
  5
1C03
330
1ABD
100
AcDbEntity
  8
0
 62
     0
100
AcDbLine
 10
-41.17469836797646
 20
-271.0727906012527
 30
0.0
 11
-41.10949191448153
 21
-271.0075841477578
 31
0.0
  0
LINE
  5
1C04
330
1ABD
100
AcDbEntity
  8
0
 62
     0
100
AcDbLine
 10
-42.55628260630487
 20
-272.4543748395811
 30
0.0
 11
-42.45649400006246
 21
-272.3545862333387
 31
0.0
  0
LINE
  5
1C05
330
1ABD
100
AcDbEntity
  8
0
 62
     0
100
AcDbLine
 10
-43.8008531337956
 20
-273.5663628455994
 30
0.0
 11
-43.69870919940642
 21
-273.4642189112102
 31
0.0
  0
LINE
  5
1C06
330
1ABD
100
AcDbEntity
  8
0
 62
     0
100
AcDbLine
 10
-41.242074435954
 20
-271.0075841477578
 30
0.0
 11
-40.34730524650094
 21
-270.1128149583047
 31
0.0
  0
LINE
  5
1C07
330
1ABD
100
AcDbEntity
  8
0
 62
     0
100
AcDbLine
 10
-43.69870919940643
 20
-273.4642189112102
 30
0.0
 11
-43.06671469320444
 21
-272.8322244050082
 31
0.0
  0
LINE
  5
1C08
330
1ABD
100
AcDbEntity
  8
0
 62
     0
100
AcDbLine
 10
-42.6010345307398
 20
-272.3665442425436
 30
0.0
 11
-42.50124592449738
 21
-272.2667556363012
 31
0.0
  0
LINE
  5
1C09
330
1ABD
100
AcDbEntity
  8
0
 62
     0
100
AcDbLine
 10
-43.84560505823052
 20
-273.4785322485618
 30
0.0
 11
-43.74346112384134
 21
-273.3763883141727
 31
0.0
  0
LINE
  5
1C0A
330
1ABD
100
AcDbEntity
  8
0
 62
     0
100
AcDbLine
 10
-41.37465695742645
 20
-271.0075841477578
 30
0.0
 11
-40.47988776797339
 21
-270.1128149583047
 31
0.0
  0
LINE
  5
1C0B
330
1ABD
100
AcDbEntity
  8
0
 62
     0
100
AcDbLine
 10
-43.74346112384134
 20
-273.3763883141726
 30
0.0
 11
-43.11146661763936
 21
-272.7443938079706
 31
0.0
  0
LINE
  5
1C0C
330
1ABD
100
AcDbEntity
  8
0
 62
     0
100
AcDbLine
 10
-42.64578645517471
 20
-272.278713645506
 30
0.0
 11
-42.5459978489323
 21
-272.1789250392636
 31
0.0
  0
LINE
  5
1C0D
330
1ABD
100
AcDbEntity
  8
0
 62
     0
100
AcDbLine
 10
-43.89035698266545
 20
-273.3907016515242
 30
0.0
 11
-43.78821304827627
 21
-273.2885577171351
 31
0.0
  0
LINE
  5
1C0E
330
1ABD
100
AcDbEntity
  8
0
 62
     0
100
AcDbLine
 10
-41.50723947889893
 20
-271.0075841477578
 30
0.0
 11
-40.61247028944587
 21
-270.1128149583047
 31
0.0
  0
LINE
  5
1C0F
330
1ABD
100
AcDbEntity
  8
0
 62
     0
100
AcDbLine
 10
-43.78821304827627
 20
-273.2885577171351
 30
0.0
 11
-43.15621854207427
 21
-272.6565632109331
 31
0.0
  0
LINE
  5
1C10
330
1ABD
100
AcDbEntity
  8
0
 62
     0
100
AcDbLine
 10
-42.69053837960965
 20
-272.1908830484685
 30
0.0
 11
-42.59074977336722
 21
-272.0910944422261
 31
0.0
  0
LINE
  5
1C11
330
1ABD
100
AcDbEntity
  8
0
 62
     0
100
AcDbLine
 10
-43.93510890710039
 20
-273.3028710544867
 30
0.0
 11
-43.83296497271119
 21
-273.2007271200976
 31
0.0
  0
LINE
  5
1C12
330
1ABD
100
AcDbEntity
  8
0
 62
     0
100
AcDbLine
 10
-41.63982200037142
 20
-271.0075841477578
 30
0.0
 11
-40.74505281091837
 21
-270.1128149583047
 31
0.0
  0
LINE
  5
1C13
330
1ABD
100
AcDbEntity
  8
0
 62
     0
100
AcDbLine
 10
-43.83296497271119
 20
-273.2007271200975
 30
0.0
 11
-43.2009704665092
 21
-272.5687326138955
 31
0.0
  0
LINE
  5
1C14
330
1ABD
100
AcDbEntity
  8
0
 62
     0
100
AcDbLine
 10
-42.73529030404456
 20
-272.1030524514309
 30
0.0
 11
-42.63550169780215
 21
-272.0032638451885
 31
0.0
  0
LINE
  5
1C15
330
1ABD
100
AcDbEntity
  8
0
 62
     0
100
AcDbLine
 10
-43.97986083153529
 20
-273.2150404574491
 30
0.0
 11
-43.87771689714611
 21
-273.11289652306
 31
0.0
  0
LINE
  5
1C16
330
1ABD
100
AcDbEntity
  8
0
 62
     0
100
AcDbLine
 10
-41.7724045218439
 20
-271.0075841477578
 30
0.0
 11
-40.87763533239084
 21
-270.1128149583047
 31
0.0
  0
LINE
  5
1C17
330
1ABD
100
AcDbEntity
  8
0
 62
     0
100
AcDbLine
 10
-43.87771689714612
 20
-273.11289652306
 30
0.0
 11
-43.24572239094412
 21
-272.480902016858
 31
0.0
  0
LINE
  5
1C18
330
1ABD
100
AcDbEntity
  8
0
 62
     0
100
AcDbLine
 10
-42.78004222847949
 20
-272.0152218543934
 30
0.0
 11
-42.68025362223707
 21
-271.9154332481509
 31
0.0
  0
LINE
  5
1C19
330
1ABD
100
AcDbEntity
  8
0
 62
     0
100
AcDbLine
 10
-44.02461275597022
 20
-273.1272098604116
 30
0.0
 11
-43.92246882158103
 21
-273.0250659260224
 31
0.0
  0
LINE
  5
1C1A
330
1ABD
100
AcDbEntity
  8
0
 62
     0
100
AcDbLine
 10
-41.90498704331639
 20
-271.0075841477578
 30
0.0
 11
-41.01021785386333
 21
-270.1128149583047
 31
0.0
  0
LINE
  5
1C1B
330
1ABD
100
AcDbEntity
  8
0
 62
     0
100
AcDbLine
 10
-43.92246882158103
 20
-273.0250659260224
 30
0.0
 11
-43.29047431537905
 21
-272.3930714198204
 31
0.0
  0
LINE
  5
1C1C
330
1ABD
100
AcDbEntity
  8
0
 62
     0
100
AcDbLine
 10
-42.8247941529144
 20
-271.9273912573558
 30
0.0
 11
-42.72500554667199
 21
-271.8276026511134
 31
0.0
  0
LINE
  5
1C1D
330
1ABD
100
AcDbEntity
  8
0
 62
     0
100
AcDbLine
 10
-44.06936468040514
 20
-273.0393792633741
 30
0.0
 11
-43.96722074601596
 21
-272.9372353289849
 31
0.0
  0
LINE
  5
1C1E
330
1ABD
100
AcDbEntity
  8
0
 62
     0
100
AcDbLine
 10
-42.03756956478883
 20
-271.0075841477578
 30
0.0
 11
-41.14280037533577
 21
-270.1128149583047
 31
0.0
  0
LINE
  5
1C1F
330
1ABD
100
AcDbEntity
  8
0
 62
     0
100
AcDbLine
 10
-43.96722074601596
 20
-272.9372353289849
 30
0.0
 11
-43.33522623981397
 21
-272.3052408227829
 31
0.0
  0
LINE
  5
1C20
330
1ABD
100
AcDbEntity
  8
0
 62
     0
100
AcDbLine
 10
-42.86954607734934
 20
-271.8395606603182
 30
0.0
 11
-42.76975747110692
 21
-271.7397720540759
 31
0.0
  0
LINE
  5
1C21
330
1ABD
100
AcDbEntity
  8
0
 62
     0
100
AcDbLine
 10
-44.11411660484007
 20
-272.9515486663365
 30
0.0
 11
-44.01197267045088
 21
-272.8494047319474
 31
0.0
  0
LINE
  5
1C22
330
1ABD
100
AcDbEntity
  8
0
 62
     0
100
AcDbLine
 10
-42.17015208626132
 20
-271.0075841477578
 30
0.0
 11
-41.27538289680827
 21
-270.1128149583047
 31
0.0
  0
LINE
  5
1C23
330
1ABD
100
AcDbEntity
  8
0
 62
     0
100
AcDbLine
 10
-44.01197267045089
 20
-272.8494047319474
 30
0.0
 11
-43.3799781642489
 21
-272.2174102257453
 31
0.0
  0
LINE
  5
1C24
330
1ABD
100
AcDbEntity
  8
0
 62
     0
100
AcDbLine
 10
-42.91429800178426
 20
-271.7517300632807
 30
0.0
 11
-42.81450939554184
 21
-271.6519414570383
 31
0.0
  0
LINE
  5
1C25
330
1ABD
100
AcDbEntity
  8
0
 62
     0
100
AcDbLine
 10
-43.03552049306387
 20
-271.8729525545603
 30
0.0
 11
-42.91429800178426
 21
-271.7517300632807
 31
0.0
  0
LINE
  5
1C26
330
1ABD
100
AcDbEntity
  8
0
 62
     0
100
AcDbLine
 10
-44.15886852927499
 20
-272.8637180692989
 30
0.0
 11
-44.0567245948858
 21
-272.7615741349098
 31
0.0
  0
LINE
  5
1C27
330
1ABD
100
AcDbEntity
  8
0
 62
     0
100
AcDbLine
 10
-42.30273460773381
 20
-271.0075841477578
 30
0.0
 11
-41.40796541828075
 21
-270.1128149583047
 31
0.0
  0
LINE
  5
1C28
330
1ABD
100
AcDbEntity
  8
0
 62
     0
100
AcDbLine
 10
-44.05672459488581
 20
-272.7615741349098
 30
0.0
 11
-43.42473008868381
 21
-272.1295796287078
 31
0.0
  0
LINE
  5
1C29
330
1ABD
100
AcDbEntity
  8
0
 62
     0
100
AcDbLine
 10
-42.95904992621917
 20
-271.6638994662432
 30
0.0
 11
-42.85926131997678
 21
-271.5641108600007
 31
0.0
  0
LINE
  5
1C2A
330
1ABD
100
AcDbEntity
  8
0
 62
     0
100
AcDbLine
 10
-43.30583527562661
 20
-272.0106848156506
 30
0.0
 11
-43.03567928394395
 21
-271.7405288239679
 31
0.0
  0
LINE
  5
1C2B
330
1ABD
100
AcDbEntity
  8
0
 62
     0
100
AcDbLine
 10
-44.20362045370992
 20
-272.7758874722614
 30
0.0
 11
-44.10147651932073
 21
-272.6737435378722
 31
0.0
  0
LINE
  5
1C2C
330
1ABD
100
AcDbEntity
  8
0
 62
     0
100
AcDbLine
 10
-42.43531712920629
 20
-271.0075841477578
 30
0.0
 11
-41.54054793975324
 21
-270.1128149583047
 31
0.0
  0
LINE
  5
1C2D
330
1ABD
100
AcDbEntity
  8
0
 62
     0
100
AcDbLine
 10
-44.10147651932073
 20
-272.6737435378722
 30
0.0
 11
-43.57615005818931
 21
-272.1484170767408
 31
0.0
  0
LINE
  5
1C2E
330
1ABD
100
AcDbEntity
  8
0
 62
     0
100
AcDbLine
 10
-43.00380185065409
 20
-271.5760688692056
 30
0.0
 11
-42.9040132444117
 21
-271.4762802629631
 31
0.0
  0
LINE
  5
1C2F
330
1ABD
100
AcDbEntity
  8
0
 62
     0
100
AcDbLine
 10
-43.57615005818945
 20
-272.1484170767408
 30
0.0
 11
-43.29449434520518
 21
-271.8667613637567
 31
0.0
  0
LINE
  5
1C30
330
1ABD
100
AcDbEntity
  8
0
 62
     0
100
AcDbLine
 10
-44.24837237814484
 20
-272.6880568752238
 30
0.0
 11
-44.14622844375565
 21
-272.5859129408347
 31
0.0
  0
LINE
  5
1C31
330
1ABD
100
AcDbEntity
  8
0
 62
     0
100
AcDbLine
 10
-42.56789965067877
 20
-271.0075841477578
 30
0.0
 11
-41.67313046122571
 21
-270.1128149583047
 31
0.0
  0
LINE
  5
1C32
330
1ABD
100
AcDbEntity
  8
0
 62
     0
100
AcDbLine
 10
-44.14622844375567
 20
-272.5859129408347
 30
0.0
 11
-43.81389900091518
 21
-272.2535834979942
 31
0.0
  0
LINE
  5
1C33
330
1ABD
100
AcDbEntity
  8
0
 62
     0
100
AcDbLine
 10
-43.04855377508903
 20
-271.488238272168
 30
0.0
 11
-42.94876516884662
 21
-271.3884496659257
 31
0.0
  0
LINE
  5
1C34
330
1ABD
100
AcDbEntity
  8
0
 62
     0
100
AcDbLine
 10
-43.81389900091516
 20
-272.2535834979942
 30
0.0
 11
-43.5533094064665
 21
-271.9929939035455
 31
0.0
  0
LINE
  5
1C35
330
1ABD
100
AcDbEntity
  8
0
 62
     0
100
AcDbLine
 10
-43.55330940646641
 20
-271.9929939035454
 30
0.0
 11
-43.51423393755367
 21
-271.9539184346327
 31
0.0
  0
LINE
  5
1C36
330
1ABD
100
AcDbEntity
  8
0
 62
     0
100
AcDbLine
 10
-44.29312430257975
 20
-272.6002262781863
 30
0.0
 11
-44.19098036819057
 21
-272.4980823437971
 31
0.0
  0
LINE
  5
1C37
330
1ABD
100
AcDbEntity
  8
0
 62
     0
100
AcDbLine
 10
-42.70048217215122
 20
-271.0075841477578
 30
0.0
 11
-41.80571298269817
 21
-270.1128149583047
 31
0.0
  0
LINE
  5
1C38
330
1ABD
100
AcDbEntity
  8
0
 62
     0
100
AcDbLine
 10
-44.19098036819058
 20
-272.4980823437971
 30
0.0
 11
-43.85736435006013
 21
-272.1644663256667
 31
0.0
  0
LINE
  5
1C39
330
1ABD
100
AcDbEntity
  8
0
 62
     0
100
AcDbLine
 10
-43.09330569952394
 20
-271.4004076751304
 30
0.0
 11
-42.99351709328155
 21
-271.3006190688881
 31
0.0
  0
LINE
  5
1C3A
330
1ABD
100
AcDbEntity
  8
0
 62
     0
100
AcDbLine
 10
-43.85736435006017
 20
-272.1644663256666
 30
0.0
 11
-43.81212446772781
 21
-272.1192264433343
 31
0.0
  0
LINE
  5
1C3B
330
1ABD
100
AcDbEntity
  8
0
 62
     0
100
AcDbLine
 10
-43.81212446772774
 20
-272.1192264433343
 30
0.0
 11
-43.5589858619886
 21
-271.8660878375951
 31
0.0
  0
LINE
  5
1C3C
330
1ABD
100
AcDbEntity
  8
0
 62
     0
100
AcDbLine
 10
-44.33787622701468
 20
-272.5123956811487
 30
0.0
 11
-44.23573229262551
 21
-272.4102517467596
 31
0.0
  0
LINE
  5
1C3D
330
1ABD
100
AcDbEntity
  8
0
 62
     0
100
AcDbLine
 10
-42.83306469362371
 20
-271.0075841477578
 30
0.0
 11
-41.93829550417065
 21
-270.1128149583047
 31
0.0
  0
LINE
  5
1C3E
330
1ABD
100
AcDbEntity
  8
0
 62
     0
100
AcDbLine
 10
-44.23573229262551
 20
-272.4102517467596
 30
0.0
 11
-43.60373778642352
 21
-271.7782572405575
 31
0.0
  0
LINE
  5
1C3F
330
1ABD
100
AcDbEntity
  8
0
 62
     0
100
AcDbLine
 10
-43.13805762395886
 20
-271.3125770780929
 30
0.0
 11
-43.03826901771647
 21
-271.2127884718505
 31
0.0
  0
LINE
  5
1C40
330
1ABD
100
AcDbEntity
  8
0
 62
     0
100
AcDbLine
 10
-44.38262815144962
 20
-272.4245650841112
 30
0.0
 11
-44.28048421706043
 21
-272.3224211497221
 31
0.0
  0
LINE
  5
1C41
330
1ABD
100
AcDbEntity
  8
0
 62
     0
100
AcDbLine
 10
-42.9656472150962
 20
-271.0075841477578
 30
0.0
 11
-42.07087802564314
 21
-270.1128149583047
 31
0.0
  0
LINE
  5
1C42
330
1ABD
100
AcDbEntity
  8
0
 62
     0
100
AcDbLine
 10
-44.28048421706043
 20
-272.322421149722
 30
0.0
 11
-43.64848971085844
 21
-271.69042664352
 31
0.0
  0
LINE
  5
1C43
330
1ABD
100
AcDbEntity
  8
0
 62
     0
100
AcDbLine
 10
-43.18280954839378
 20
-271.2247464810554
 30
0.0
 11
-43.08302094215139
 21
-271.1249578748129
 31
0.0
  0
LINE
  5
1C44
330
1ABD
100
AcDbEntity
  8
0
 62
     0
100
AcDbLine
 10
-44.42738007588452
 20
-272.3367344870736
 30
0.0
 11
-44.32523614149536
 21
-272.2345905526844
 31
0.0
  0
LINE
  5
1C45
330
1ABD
100
AcDbEntity
  8
0
 62
     0
100
AcDbLine
 10
-43.09822973656867
 20
-271.0075841477578
 30
0.0
 11
-42.20346054711562
 21
-270.1128149583047
 31
0.0
  0
LINE
  5
1C46
330
1ABD
100
AcDbEntity
  8
0
 62
     0
100
AcDbLine
 10
-44.32523614149537
 20
-272.2345905526844
 30
0.0
 11
-43.69324163529338
 21
-271.6025960464825
 31
0.0
  0
LINE
  5
1C47
330
1ABD
100
AcDbEntity
  8
0
 62
     0
100
AcDbLine
 10
-43.22756147282872
 20
-271.1369158840178
 30
0.0
 11
-43.12777286658632
 21
-271.0371272777754
 31
0.0
  0
LINE
  5
1C48
330
1ABD
100
AcDbEntity
  8
0
 62
     0
100
AcDbLine
 10
-44.47213200031946
 20
-272.2489038900361
 30
0.0
 11
-44.36998806593027
 21
-272.1467599556469
 31
0.0
  0
LINE
  5
1C49
330
1ABD
100
AcDbEntity
  8
0
 62
     0
100
AcDbLine
 10
-43.23081225804116
 20
-271.0075841477578
 30
0.0
 11
-42.3360430685881
 21
-270.1128149583047
 31
0.0
  0
LINE
  5
1C4A
330
1ABD
100
AcDbEntity
  8
0
 62
     0
100
AcDbLine
 10
-44.36998806593028
 20
-272.1467599556469
 30
0.0
 11
-43.7379935597283
 21
-271.5147654494449
 31
0.0
  0
LINE
  5
1C4B
330
1ABD
100
AcDbEntity
  8
0
 62
     0
100
AcDbLine
 10
-43.27231339726363
 20
-271.0490852869802
 30
0.0
 11
-43.23081225804115
 21
-271.0075841477578
 31
0.0
  0
LINE
  5
1C4C
330
1ABD
100
AcDbEntity
  8
0
 62
     0
100
AcDbLine
 10
-44.51688392475437
 20
-272.1610732929985
 30
0.0
 11
-44.41473999036521
 21
-272.0589293586094
 31
0.0
  0
LINE
  5
1C4D
330
1ABD
100
AcDbEntity
  8
0
 62
     0
100
AcDbLine
 10
-43.36339477951361
 20
-271.0075841477578
 30
0.0
 11
-42.46862559006059
 21
-270.1128149583047
 31
0.0
  0
LINE
  5
1C4E
330
1ABD
100
AcDbEntity
  8
0
 62
     0
100
AcDbLine
 10
-44.4147399903652
 20
-272.0589293586093
 30
0.0
 11
-43.78274548416323
 21
-271.4269348524073
 31
0.0
  0
LINE
  5
1C4F
330
1ABD
100
AcDbEntity
  8
0
 62
     0
100
AcDbLine
 10
-44.5616358491893
 20
-272.0732426959609
 30
0.0
 11
-44.45949191480012
 21
-271.9710987615718
 31
0.0
  0
LINE
  5
1C50
330
1ABD
100
AcDbEntity
  8
0
 62
     0
100
AcDbLine
 10
-43.4959773009861
 20
-271.0075841477578
 30
0.0
 11
-42.60120811153304
 21
-270.1128149583047
 31
0.0
  0
LINE
  5
1C51
330
1ABD
100
AcDbEntity
  8
0
 62
     0
100
AcDbLine
 10
-44.45949191480013
 20
-271.9710987615718
 30
0.0
 11
-43.82749740859814
 21
-271.3391042553698
 31
0.0
  0
LINE
  5
1C52
330
1ABD
100
AcDbEntity
  8
0
 62
     0
100
AcDbLine
 10
-44.60638777362423
 20
-271.9854120989233
 30
0.0
 11
-44.50424383923505
 21
-271.8832681645342
 31
0.0
  0
LINE
  5
1C53
330
1ABD
100
AcDbEntity
  8
0
 62
     0
100
AcDbLine
 10
-43.62855982245858
 20
-271.0075841477578
 30
0.0
 11
-42.73379063300552
 21
-270.1128149583047
 31
0.0
  0
LINE
  5
1C54
330
1ABD
100
AcDbEntity
  8
0
 62
     0
100
AcDbLine
 10
-44.50424383923506
 20
-271.8832681645342
 30
0.0
 11
-43.87224933303307
 21
-271.2512736583323
 31
0.0
  0
LINE
  5
1C55
330
1ABD
100
AcDbEntity
  8
0
 62
     0
100
AcDbLine
 10
-44.65113969805915
 20
-271.8975815018858
 30
0.0
 11
-44.54899576366996
 21
-271.7954375674967
 31
0.0
  0
LINE
  5
1C56
330
1ABD
100
AcDbEntity
  8
0
 62
     0
100
AcDbLine
 10
-43.76114234393106
 20
-271.0075841477578
 30
0.0
 11
-42.86637315447801
 21
-270.1128149583047
 31
0.0
  0
LINE
  5
1C57
330
1ABD
100
AcDbEntity
  8
0
 62
     0
100
AcDbLine
 10
-44.54899576366997
 20
-271.7954375674967
 30
0.0
 11
-43.91700125746799
 21
-271.1634430612947
 31
0.0
  0
LINE
  5
1C58
330
1ABD
100
AcDbEntity
  8
0
 62
     0
100
AcDbLine
 10
-44.69589162249408
 20
-271.8097509048483
 30
0.0
 11
-44.5937476881049
 21
-271.7076069704591
 31
0.0
  0
LINE
  5
1C59
330
1ABD
100
AcDbEntity
  8
0
 62
     0
100
AcDbLine
 10
-43.89372486540355
 20
-271.0075841477578
 30
0.0
 11
-42.99895567595049
 21
-270.1128149583047
 31
0.0
  0
LINE
  5
1C5A
330
1ABD
100
AcDbEntity
  8
0
 62
     0
100
AcDbLine
 10
-44.59374768810491
 20
-271.7076069704591
 30
0.0
 11
-43.96175318190293
 21
-271.0756124642572
 31
0.0
  0
LINE
  5
1C5B
330
1ABD
100
AcDbEntity
  8
0
 62
     0
100
AcDbLine
 10
-44.74064354692899
 20
-271.7219203078107
 30
0.0
 11
-44.63849961253981
 21
-271.6197763734216
 31
0.0
  0
LINE
  5
1C5C
330
1ABD
100
AcDbEntity
  8
0
 62
     0
100
AcDbLine
 10
-44.02630738687596
 20
-271.0075841477577
 30
0.0
 11
-43.13153819742297
 21
-270.1128149583047
 31
0.0
  0
LINE
  5
1C5D
330
1ABD
100
AcDbEntity
  8
0
 62
     0
100
AcDbLine
 10
-44.63849961253983
 20
-271.6197763734216
 30
0.0
 11
-44.02630738687603
 21
-271.0075841477578
 31
0.0
  0
LINE
  5
1C5E
330
1ABD
100
AcDbEntity
  8
0
 62
     0
100
AcDbLine
 10
-44.78539547136391
 20
-271.6340897107732
 30
0.0
 11
-44.68325153697474
 21
-271.5319457763841
 31
0.0
  0
LINE
  5
1C5F
330
1ABD
100
AcDbEntity
  8
0
 62
     0
100
AcDbLine
 10
-44.15888990834845
 20
-271.0075841477577
 30
0.0
 11
-43.26412071889542
 21
-270.1128149583047
 31
0.0
  0
LINE
  5
1C60
330
1ABD
100
AcDbEntity
  8
0
 62
     0
100
AcDbLine
 10
-44.68325153697477
 20
-271.531945776384
 30
0.0
 11
-44.15888990834848
 21
-271.0075841477578
 31
0.0
  0
LINE
  5
1C61
330
1ABD
100
AcDbEntity
  8
0
 62
     0
100
AcDbLine
 10
-44.83014739579885
 20
-271.5462591137356
 30
0.0
 11
-44.72800346140967
 21
-271.4441151793465
 31
0.0
  0
LINE
  5
1C62
330
1ABD
100
AcDbEntity
  8
0
 62
     0
100
AcDbLine
 10
-44.29147242982091
 20
-271.0075841477577
 30
0.0
 11
-43.39670324036791
 21
-270.1128149583047
 31
0.0
  0
LINE
  5
1C63
330
1ABD
100
AcDbEntity
  8
0
 62
     0
100
AcDbLine
 10
-44.72800346140968
 20
-271.4441151793465
 30
0.0
 11
-44.29147242982097
 21
-271.0075841477578
 31
0.0
  0
LINE
  5
1C64
330
1ABD
100
AcDbEntity
  8
0
 62
     0
100
AcDbLine
 10
-44.87489932023376
 20
-271.4584285166981
 30
0.0
 11
-44.7727553858446
 21
-271.3562845823089
 31
0.0
  0
LINE
  5
1C65
330
1ABD
100
AcDbEntity
  8
0
 62
     0
100
AcDbLine
 10
-44.42405495129341
 20
-271.0075841477577
 30
0.0
 11
-43.5292857618404
 21
-270.1128149583047
 31
0.0
  0
LINE
  5
1C66
330
1ABD
100
AcDbEntity
  8
0
 62
     0
100
AcDbLine
 10
-44.77275538584461
 20
-271.3562845823089
 30
0.0
 11
-44.42405495129345
 21
-271.0075841477578
 31
0.0
  0
LINE
  5
1C67
330
1ABD
100
AcDbEntity
  8
0
 62
     0
100
AcDbLine
 10
-44.91965124466869
 20
-271.3705979196606
 30
0.0
 11
-44.81750731027952
 21
-271.2684539852714
 31
0.0
  0
LINE
  5
1C68
330
1ABD
100
AcDbEntity
  8
0
 62
     0
100
AcDbLine
 10
-44.55663747276587
 20
-271.0075841477577
 30
0.0
 11
-43.66186828331287
 21
-270.1128149583047
 31
0.0
  0
LINE
  5
1C69
330
1ABD
100
AcDbEntity
  8
0
 62
     0
100
AcDbLine
 10
-44.81750731027953
 20
-271.2684539852714
 30
0.0
 11
-44.55663747276593
 21
-271.0075841477578
 31
0.0
  0
LINE
  5
1C6A
330
1ABD
100
AcDbEntity
  8
0
 62
     0
100
AcDbLine
 10
-44.96440316910361
 20
-271.282767322623
 30
0.0
 11
-44.86225923471444
 21
-271.1806233882338
 31
0.0
  0
LINE
  5
1C6B
330
1ABD
100
AcDbEntity
  8
0
 62
     0
100
AcDbLine
 10
-44.68921999423836
 20
-271.0075841477577
 30
0.0
 11
-43.79445080478536
 21
-270.1128149583047
 31
0.0
  0
LINE
  5
1C6C
330
1ABD
100
AcDbEntity
  8
0
 62
     0
100
AcDbLine
 10
-44.86225923471446
 20
-271.1806233882338
 30
0.0
 11
-44.68921999423842
 21
-271.0075841477578
 31
0.0
  0
LINE
  5
1C6D
330
1ABD
100
AcDbEntity
  8
0
 62
     0
100
AcDbLine
 10
-45.00915509353854
 20
-271.1949367255854
 30
0.0
 11
-44.93619626528839
 21
-271.1219778973352
 31
0.0
  0
LINE
  5
1C6E
330
1ABD
100
AcDbEntity
  8
0
 62
     0
100
AcDbLine
 10
-44.82180251571087
 20
-271.0075841477578
 30
0.0
 11
-43.92703332625781
 21
-270.1128149583047
 31
0.0
  0
LINE
  5
1C6F
330
1ABD
100
AcDbEntity
  8
0
 62
     0
100
AcDbLine
 10
-44.95438503718335
 20
-271.0075841477578
 30
0.0
 11
-44.0596158477303
 21
-270.1128149583047
 31
0.0
  0
LINE
  5
1C70
330
1ABD
100
AcDbEntity
  8
0
 62
     0
100
AcDbLine
 10
-45.08696755865584
 20
-271.0075841477578
 30
0.0
 11
-44.19219836920278
 21
-270.1128149583047
 31
0.0
  0
LINE
  5
1C71
330
1ABD
100
AcDbEntity
  8
0
 62
     0
100
AcDbLine
 10
-45.21955008012832
 20
-271.0075841477578
 30
0.0
 11
-44.32478089067527
 21
-270.1128149583047
 31
0.0
  0
LINE
  5
1C72
330
1ABD
100
AcDbEntity
  8
0
 62
     0
100
AcDbLine
 10
-45.23372463886881
 20
-270.8891761850257
 30
0.0
 11
-44.45736341214774
 21
-270.1128149583047
 31
0.0
  0
LINE
  5
1C73
330
1ABD
100
AcDbEntity
  8
0
 62
     0
100
AcDbLine
 10
-45.23372463886881
 20
-270.7565936635533
 30
0.0
 11
-44.5899459336202
 21
-270.1128149583047
 31
0.0
  0
LINE
  5
1C74
330
1ABD
100
AcDbEntity
  8
0
 62
     0
100
AcDbLine
 10
-45.23372463886881
 20
-270.6240111420808
 30
0.0
 11
-44.72252845509268
 21
-270.1128149583047
 31
0.0
  0
LINE
  5
1C75
330
1ABD
100
AcDbEntity
  8
0
 62
     0
100
AcDbLine
 10
-45.23372463886881
 20
-270.4914286206083
 30
0.0
 11
-44.85511097656517
 21
-270.1128149583047
 31
0.0
  0
LINE
  5
1C76
330
1ABD
100
AcDbEntity
  8
0
 62
     0
100
AcDbLine
 10
-45.2337246388688
 20
-270.3588460991359
 30
0.0
 11
-44.98769349803765
 21
-270.1128149583047
 31
0.0
  0
LINE
  5
1C77
330
1ABD
100
AcDbEntity
  8
0
 62
     0
100
AcDbLine
 10
-45.2337246388688
 20
-270.2262635776634
 30
0.0
 11
-45.12027601951014
 21
-270.1128149583047
 31
0.0
  0
LINE
  5
1C78
330
1ABD
100
AcDbEntity
  8
0
 62
     0
100
AcDbLine
 10
-39.27512850824
 20
-279.5146574163695
 30
0.0
 11
-38.5413666900566
 21
-278.7808955981861
 31
0.0
  0
LINE
  5
1C79
330
1ABD
100
AcDbEntity
  8
0
 62
     0
100
AcDbLine
 10
-39.16241960701883
 20
-279.5345310366208
 30
0.0
 11
-38.42865778883542
 21
-278.8007692184374
 31
0.0
  0
LINE
  5
1C7A
330
1ABD
100
AcDbEntity
  8
0
 62
     0
100
AcDbLine
 10
-39.04971070579762
 20
-279.5544046568721
 30
0.0
 11
-38.31594888761424
 21
-278.8206428386887
 31
0.0
  0
LINE
  5
1C7B
330
1ABD
100
AcDbEntity
  8
0
 62
     0
100
AcDbLine
 10
-38.93700180457646
 20
-279.5742782771234
 30
0.0
 11
-38.20323998639308
 21
-278.84051645894
 31
0.0
  0
LINE
  5
1C7C
330
1ABD
100
AcDbEntity
  8
0
 62
     0
100
AcDbLine
 10
-38.82429290335529
 20
-279.5941518973747
 30
0.0
 11
-38.0905310851719
 21
-278.8603900791913
 31
0.0
  0
LINE
  5
1C7D
330
1ABD
100
AcDbEntity
  8
0
 62
     0
100
AcDbLine
 10
-38.71158400213412
 20
-279.614025517626
 30
0.0
 11
-37.97782218395072
 21
-278.8802636994426
 31
0.0
  0
LINE
  5
1C7E
330
1ABD
100
AcDbEntity
  8
0
 62
     0
100
AcDbLine
 10
-38.59887510091292
 20
-279.6338991378773
 30
0.0
 11
-37.86511328272954
 21
-278.9001373196939
 31
0.0
  0
LINE
  5
1C7F
330
1ABD
100
AcDbEntity
  8
0
 62
     0
100
AcDbLine
 10
-38.48616619969174
 20
-279.6537727581286
 30
0.0
 11
-37.75240438150836
 21
-278.9200109399452
 31
0.0
  0
LINE
  5
1C80
330
1ABD
100
AcDbEntity
  8
0
 62
     0
100
AcDbLine
 10
-38.37345729847058
 20
-279.6736463783799
 30
0.0
 11
-37.63969548028717
 21
-278.9398845601965
 31
0.0
  0
LINE
  5
1C81
330
1ABD
100
AcDbEntity
  8
0
 62
     0
100
AcDbLine
 10
-38.26074839724942
 20
-279.6935199986312
 30
0.0
 11
-37.526986579066
 21
-278.9597581804478
 31
0.0
  0
LINE
  5
1C82
330
1ABD
100
AcDbEntity
  8
0
 62
     0
100
AcDbLine
 10
-38.14803949602821
 20
-279.7133936188825
 30
0.0
 11
-37.41427767784482
 21
-278.9796318006991
 31
0.0
  0
LINE
  5
1C83
330
1ABD
100
AcDbEntity
  8
0
 62
     0
100
AcDbLine
 10
-38.03533059480704
 20
-279.7332672391338
 30
0.0
 11
-37.30156877662363
 21
-278.9995054209504
 31
0.0
  0
LINE
  5
1C84
330
1ABD
100
AcDbEntity
  8
0
 62
     0
100
AcDbLine
 10
-37.92262169358588
 20
-279.7531408593851
 30
0.0
 11
-37.18885987540245
 21
-279.0193790412017
 31
0.0
  0
LINE
  5
1C85
330
1ABD
100
AcDbEntity
  8
0
 62
     0
100
AcDbLine
 10
-37.80991279236471
 20
-279.7730144796364
 30
0.0
 11
-37.07615097418127
 21
-279.039252661453
 31
0.0
  0
LINE
  5
1C86
330
1ABD
100
AcDbEntity
  8
0
 62
     0
100
AcDbLine
 10
-37.6972038911435
 20
-279.7928880998877
 30
0.0
 11
-36.96344207296009
 21
-279.0591262817043
 31
0.0
  0
LINE
  5
1C87
330
1ABD
100
AcDbEntity
  8
0
 62
     0
100
AcDbLine
 10
-37.58449498992233
 20
-279.812761720139
 30
0.0
 11
-36.85073317173891
 21
-279.0789999019556
 31
0.0
  0
LINE
  5
1C88
330
1ABD
100
AcDbEntity
  8
0
 62
     0
100
AcDbLine
 10
-37.47178608870117
 20
-279.8326353403903
 30
0.0
 11
-36.73802427051778
 21
-279.0988735222069
 31
0.0
  0
LINE
  5
1C89
330
1ABD
100
AcDbEntity
  8
0
 62
     0
100
AcDbLine
 10
-37.35907718748001
 20
-279.8525089606416
 30
0.0
 11
-36.62531536929659
 21
-279.1187471424582
 31
0.0
  0
LINE
  5
1C8A
330
1ABD
100
AcDbEntity
  8
0
 62
     0
100
AcDbLine
 10
-37.24636828625879
 20
-279.8723825808929
 30
0.0
 11
-36.51260646807542
 21
-279.1386207627095
 31
0.0
  0
LINE
  5
1C8B
330
1ABD
100
AcDbEntity
  8
0
 62
     0
100
AcDbLine
 10
-37.13365938503763
 20
-279.8922562011442
 30
0.0
 11
-36.39989756685424
 21
-279.1584943829608
 31
0.0
  0
LINE
  5
1C8C
330
1ABD
100
AcDbEntity
  8
0
 62
     0
100
AcDbLine
 10
-37.02095048381647
 20
-279.9121298213955
 30
0.0
 11
-36.28718866563306
 21
-279.1783680032121
 31
0.0
  0
LINE
  5
1C8D
330
1ABD
100
AcDbEntity
  8
0
 62
     0
100
AcDbLine
 10
-36.9082415825953
 20
-279.9320034416468
 30
0.0
 11
-36.17447976441188
 21
-279.1982416234634
 31
0.0
  0
LINE
  5
1C8E
330
1ABD
100
AcDbEntity
  8
0
 62
     0
100
AcDbLine
 10
-36.79553268137409
 20
-279.9518770618981
 30
0.0
 11
-36.0617708631907
 21
-279.2181152437147
 31
0.0
  0
LINE
  5
1C8F
330
1ABD
100
AcDbEntity
  8
0
 62
     0
100
AcDbLine
 10
-36.68282378015292
 20
-279.9717506821494
 30
0.0
 11
-35.94906196196951
 21
-279.237988863966
 31
0.0
  0
LINE
  5
1C90
330
1ABD
100
AcDbEntity
  8
0
 62
     0
100
AcDbLine
 10
-36.57011487893175
 20
-279.9916243024007
 30
0.0
 11
-35.83635306074833
 21
-279.2578624842173
 31
0.0
  0
LINE
  5
1C91
330
1ABD
100
AcDbEntity
  8
0
 62
     0
100
AcDbLine
 10
-36.45740597771059
 20
-280.011497922652
 30
0.0
 11
-35.72364415952716
 21
-279.2777361044686
 31
0.0
  0
LINE
  5
1C92
330
1ABD
100
AcDbEntity
  8
0
 62
     0
100
AcDbLine
 10
-36.34469707648938
 20
-280.0313715429033
 30
0.0
 11
-35.61093525830597
 21
-279.2976097247199
 31
0.0
  0
LINE
  5
1C93
330
1ABD
100
AcDbEntity
  8
0
 62
     0
100
AcDbLine
 10
-36.23198817526822
 20
-280.0512451631546
 30
0.0
 11
-35.49822635708479
 21
-279.3174833449712
 31
0.0
  0
LINE
  5
1C94
330
1ABD
100
AcDbEntity
  8
0
 62
     0
100
AcDbLine
 10
-36.11927927404706
 20
-280.0711187834059
 30
0.0
 11
-35.38551745586361
 21
-279.3373569652225
 31
0.0
  0
LINE
  5
1C95
330
1ABD
100
AcDbEntity
  8
0
 62
     0
100
AcDbLine
 10
-36.00657037282589
 20
-280.0909924036572
 30
0.0
 11
-35.27280855464243
 21
-279.3572305854738
 31
0.0
  0
LINE
  5
1C96
330
1ABD
100
AcDbEntity
  8
0
 62
     0
100
AcDbLine
 10
-35.89386147160467
 20
-280.1108660239085
 30
0.0
 11
-35.16009965342125
 21
-279.3771042057251
 31
0.0
  0
LINE
  5
1C97
330
1ABD
100
AcDbEntity
  8
0
 62
     0
100
AcDbLine
 10
-35.78115257038351
 20
-280.1307396441598
 30
0.0
 11
-35.04739075220007
 21
-279.3969778259764
 31
0.0
  0
LINE
  5
1C98
330
1ABD
100
AcDbEntity
  8
0
 62
     0
100
AcDbLine
 10
-35.66844366916234
 20
-280.1506132644111
 30
0.0
 11
-34.93468185097889
 21
-279.4168514462277
 31
0.0
  0
LINE
  5
1C99
330
1ABD
100
AcDbEntity
  8
0
 62
     0
100
AcDbLine
 10
-35.55573476794118
 20
-280.1704868846624
 30
0.0
 11
-34.82197294975771
 21
-279.436725066479
 31
0.0
  0
LINE
  5
1C9A
330
1ABD
100
AcDbEntity
  8
0
 62
     0
100
AcDbLine
 10
-35.44302586671997
 20
-280.1903605049137
 30
0.0
 11
-34.70926404853658
 21
-279.4565986867303
 31
0.0
  0
LINE
  5
1C9B
330
1ABD
100
AcDbEntity
  8
0
 62
     0
100
AcDbLine
 10
-35.3303169654988
 20
-280.210234125165
 30
0.0
 11
-34.59655514731539
 21
-279.4764723069816
 31
0.0
  0
LINE
  5
1C9C
330
1ABD
100
AcDbEntity
  8
0
 62
     0
100
AcDbLine
 10
-35.21760806427764
 20
-280.2301077454163
 30
0.0
 11
-34.48384624609421
 21
-279.496345927233
 31
0.0
  0
LINE
  5
1C9D
330
1ABD
100
AcDbEntity
  8
0
 62
     0
100
AcDbLine
 10
-35.10489916305647
 20
-280.2499813656676
 30
0.0
 11
-34.65961316436878
 21
-279.80469536698
 31
0.0
  0
LINE
  5
1C9E
330
1ABD
100
AcDbEntity
  8
0
 62
     0
100
AcDbLine
 10
-34.49507239555112
 20
-279.6401545981623
 30
0.0
 11
-34.37113734487303
 21
-279.5162195474842
 31
0.0
  0
LINE
  5
1C9F
330
1ABD
100
AcDbEntity
  8
0
 62
     0
100
AcDbLine
 10
-34.65961316436874
 20
-279.8046953669799
 30
0.0
 11
-34.49507239555113
 21
-279.6401545981623
 31
0.0
  0
LINE
  5
1CA0
330
1ABD
100
AcDbEntity
  8
0
 62
     0
100
AcDbLine
 10
-34.99219026183526
 20
-280.2698549859189
 30
0.0
 11
-34.61254978408334
 21
-279.890214508167
 31
0.0
  0
LINE
  5
1CA1
330
1ABD
100
AcDbEntity
  8
0
 62
     0
100
AcDbLine
 10
-34.4505443932725
 20
-279.7282091173562
 30
0.0
 11
-34.25842844365185
 21
-279.5360931677355
 31
0.0
  0
LINE
  5
1CA2
330
1ABD
100
AcDbEntity
  8
0
 62
     0
100
AcDbLine
 10
-34.61254978408327
 20
-279.8902145081669
 30
0.0
 11
-34.45054439327251
 21
-279.7282091173562
 31
0.0
  0
LINE
  5
1CA3
330
1ABD
100
AcDbEntity
  8
0
 62
     0
100
AcDbLine
 10
-34.8794813606141
 20
-280.2897286061702
 30
0.0
 11
-34.56548640379791
 21
-279.975733649354
 31
0.0
  0
LINE
  5
1CA4
330
1ABD
100
AcDbEntity
  8
0
 62
     0
100
AcDbLine
 10
-34.40601639099387
 20
-279.81626363655
 30
0.0
 11
-34.18212969867614
 21
-279.5923769442322
 31
0.0
  0
LINE
  5
1CA5
330
1ABD
100
AcDbEntity
  8
0
 62
     0
100
AcDbLine
 10
-34.5654864037978
 20
-279.975733649354
 30
0.0
 11
-34.4060163909939
 21
-279.81626363655
 31
0.0
  0
LINE
  5
1CA6
330
1ABD
100
AcDbEntity
  8
0
 62
     0
100
AcDbLine
 10
-34.76677245939293
 20
-280.3096022264215
 30
0.0
 11
-34.51842302351247
 21
-280.0612527905411
 31
0.0
  0
LINE
  5
1CA7
330
1ABD
100
AcDbEntity
  8
0
 62
     0
100
AcDbLine
 10
-34.36148838871525
 20
-279.9043181557439
 30
0.0
 11
-34.21610863625688
 21
-279.7589384032855
 31
0.0
  0
LINE
  5
1CA8
330
1ABD
100
AcDbEntity
  8
0
 62
     0
100
AcDbLine
 10
-34.51842302351233
 20
-280.0612527905409
 30
0.0
 11
-34.36148838871528
 21
-279.9043181557439
 31
0.0
  0
LINE
  5
1CA9
330
1ABD
100
AcDbEntity
  8
0
 62
     0
100
AcDbLine
 10
-34.65406355817177
 20
-280.3294758466728
 30
0.0
 11
-34.47135964322703
 21
-280.1467719317281
 31
0.0
  0
LINE
  5
1CAA
330
1ABD
100
AcDbEntity
  8
0
 62
     0
100
AcDbLine
 10
-34.31696038643663
 20
-279.9923726749377
 30
0.0
 11
-34.25008757383762
 21
-279.9254998623387
 31
0.0
  0
LINE
  5
1CAB
330
1ABD
100
AcDbEntity
  8
0
 62
     0
100
AcDbLine
 10
-34.47135964322686
 20
-280.1467719317279
 30
0.0
 11
-34.31696038643667
 21
-279.9923726749378
 31
0.0
  0
LINE
  5
1CAC
330
1ABD
100
AcDbEntity
  8
0
 62
     0
100
AcDbLine
 10
-34.54135465695056
 20
-280.3493494669242
 30
0.0
 11
-34.4242962629416
 21
-280.2322910729151
 31
0.0
  0
LINE
  5
1CAD
330
1ABD
100
AcDbEntity
  8
0
 62
     0
100
AcDbLine
 10
-34.42429626294139
 20
-280.232291072915
 30
0.0
 11
-34.27243238415805
 21
-280.0804271941316
 31
0.0
  0
LINE
  5
1CAE
330
1ABD
100
AcDbEntity
  8
0
 62
     0
100
AcDbLine
 10
-34.42864575572939
 20
-280.3692230871754
 30
0.0
 11
-34.37723288265617
 21
-280.3178102141022
 31
0.0
  0
LINE
  5
1CAF
330
1ABD
100
AcDbEntity
  8
0
 62
     0
100
AcDbLine
 10
-34.23763487951733
 20
-280.1782122109634
 30
0.0
 11
-34.22790438187941
 21
-280.1684817133254
 31
0.0
  0
LINE
  5
1CB0
330
1ABD
100
AcDbEntity
  8
0
 62
     0
100
AcDbLine
 10
-34.37723288265592
 20
-280.317810214102
 30
0.0
 11
-34.32222178119469
 21
-280.2627991126407
 31
0.0
  0
LINE
  5
1CB1
330
1ABD
100
AcDbEntity
  8
0
 62
     0
100
AcDbLine
 10
-34.3180454489991
 20
-280.2586227804452
 30
0.0
 11
-34.23763487951734
 21
-280.1782122109634
 31
0.0
  0
LINE
  5
1CB2
330
1ABD
100
AcDbEntity
  8
0
 62
     0
100
AcDbLine
 10
-34.33279649784393
 20
-280.4059563507625
 30
0.0
 11
-34.31594377963411
 21
-280.3891036325526
 31
0.0
  0
LINE
  5
1CB3
330
1ABD
100
AcDbEntity
  8
0
 62
     0
100
AcDbLine
 10
-34.31594377963405
 20
-280.3891036325526
 30
0.0
 11
-34.12832042519916
 21
-280.2014802781177
 31
0.0
  0
LINE
  5
1CB4
330
1ABD
100
AcDbEntity
  8
0
 62
     0
100
AcDbLine
 10
-34.2886183190611
 20
-280.4943606934521
 30
0.0
 11
-34.20326302751831
 21
-280.4090054019093
 31
0.0
  0
LINE
  5
1CB5
330
1ABD
100
AcDbEntity
  8
0
 62
     0
100
AcDbLine
 10
-34.01900597088106
 20
-280.224748345272
 30
0.0
 11
-34.00684354492805
 21
-280.2125859193191
 31
0.0
  0
LINE
  5
1CB6
330
1ABD
100
AcDbEntity
  8
0
 62
     0
100
AcDbLine
 10
-34.20326302751827
 20
-280.4090054019093
 30
0.0
 11
-34.01900597088101
 21
-280.224748345272
 31
0.0
  0
LINE
  5
1CB7
330
1ABD
100
AcDbEntity
  8
0
 62
     0
100
AcDbLine
 10
-34.24444014027825
 20
-280.5827650361417
 30
0.0
 11
-34.09058227540249
 21
-280.4289071712659
 31
0.0
  0
LINE
  5
1CB8
330
1ABD
100
AcDbEntity
  8
0
 62
     0
100
AcDbLine
 10
-33.90969151656292
 20
-280.2480164124263
 30
0.0
 11
-33.73652476279732
 21
-280.0748496586608
 31
0.0
  0
LINE
  5
1CB9
330
1ABD
100
AcDbEntity
  8
0
 62
     0
100
AcDbLine
 10
-34.09058227540246
 20
-280.4289071712659
 30
0.0
 11
-33.90969151656286
 21
-280.2480164124263
 31
0.0
  0
LINE
  5
1CBA
330
1ABD
100
AcDbEntity
  8
0
 62
     0
100
AcDbLine
 10
-34.20026196149541
 20
-280.6711693788314
 30
0.0
 11
-33.9779015232867
 21
-280.4488089406227
 31
0.0
  0
LINE
  5
1CBB
330
1ABD
100
AcDbEntity
  8
0
 62
     0
100
AcDbLine
 10
-33.80037706224471
 20
-280.2712844795807
 30
0.0
 11
-33.56665993146914
 21
-280.0375673488051
 31
0.0
  0
LINE
  5
1CBC
330
1ABD
100
AcDbEntity
  8
0
 62
     0
100
AcDbLine
 10
-33.97790152328667
 20
-280.4488089406226
 30
0.0
 11
-33.80037706224476
 21
-280.2712844795808
 31
0.0
  0
LINE
  5
1CBD
330
1ABD
100
AcDbEntity
  8
0
 62
     0
100
AcDbLine
 10
-34.15608378271257
 20
-280.759573721521
 30
0.0
 11
-33.86522077117088
 21
-280.4687107099793
 31
0.0
  0
LINE
  5
1CBE
330
1ABD
100
AcDbEntity
  8
0
 62
     0
100
AcDbLine
 10
-33.69106260792654
 20
-280.294552546735
 30
0.0
 11
-33.52248175268631
 21
-280.1259716914947
 31
0.0
  0
LINE
  5
1CBF
330
1ABD
100
AcDbEntity
  8
0
 62
     0
100
AcDbLine
 10
-33.86522077117085
 20
-280.4687107099793
 30
0.0
 11
-33.69106260792662
 21
-280.2945525467351
 31
0.0
  0
LINE
  5
1CC0
330
1ABD
100
AcDbEntity
  8
0
 62
     0
100
AcDbLine
 10
-34.11190560392971
 20
-280.8479780642106
 30
0.0
 11
-33.75254001905505
 21
-280.488612479336
 31
0.0
  0
LINE
  5
1CC1
330
1ABD
100
AcDbEntity
  8
0
 62
     0
100
AcDbLine
 10
-33.59453372366715
 20
-280.330606183948
 30
0.0
 11
-33.47830357390347
 21
-280.2143760341844
 31
0.0
  0
LINE
  5
1CC2
330
1ABD
100
AcDbEntity
  8
0
 62
     0
100
AcDbLine
 10
-33.75254001905507
 20
-280.4886124793359
 30
0.0
 11
-33.59453372366719
 21
-280.3306061839481
 31
0.0
  0
LINE
  5
1CC3
330
1ABD
100
AcDbEntity
  8
0
 62
     0
100
AcDbLine
 10
-34.06772742514688
 20
-280.9363824069003
 30
0.0
 11
-33.64145204273529
 21
-280.5101070244887
 31
0.0
  0
LINE
  5
1CC4
330
1ABD
100
AcDbEntity
  8
0
 62
     0
100
AcDbLine
 10
-33.62039977625162
 20
-280.489054758005
 30
0.0
 11
-33.43412539512061
 21
-280.302780376874
 31
0.0
  0
LINE
  5
1CC5
330
1ABD
100
AcDbEntity
  8
0
 62
     0
100
AcDbLine
 10
-33.64145204273528
 20
-280.5101070244887
 30
0.0
 11
-33.62039977625164
 21
-280.489054758005
 31
0.0
  0
LINE
  5
1CC6
330
1ABD
100
AcDbEntity
  8
0
 62
     0
100
AcDbLine
 10
-34.02354924636404
 20
-281.0247867495899
 30
0.0
 11
-33.38994721633778
 21
-280.3911847195636
 31
0.0
  0
LINE
  5
1CC7
330
1ABD
100
AcDbEntity
  8
0
 62
     0
100
AcDbLine
 10
-33.97937106758119
 20
-281.1131910922795
 30
0.0
 11
-33.34576903755494
 21
-280.4795890622533
 31
0.0
  0
LINE
  5
1CC8
330
1ABD
100
AcDbEntity
  8
0
 62
     0
100
AcDbLine
 10
-33.93519288879836
 20
-281.2015954349691
 30
0.0
 11
-33.30159085877209
 21
-280.567993404943
 31
0.0
  0
LINE
  5
1CC9
330
1ABD
100
AcDbEntity
  8
0
 62
     0
100
AcDbLine
 10
-33.89101471001551
 20
-281.2899997776588
 30
0.0
 11
-33.25741267998925
 21
-280.6563977476325
 31
0.0
  0
LINE
  5
1CCA
330
1ABD
100
AcDbEntity
  8
0
 62
     0
100
AcDbLine
 10
-33.84683653123266
 20
-281.3784041203485
 30
0.0
 11
-33.21323450120642
 21
-280.7448020903222
 31
0.0
  0
LINE
  5
1CCB
330
1ABD
100
AcDbEntity
  8
0
 62
     0
100
AcDbLine
 10
-33.80265835244982
 20
-281.4668084630381
 30
0.0
 11
-33.16905632242356
 21
-280.8332064330118
 31
0.0
  0
LINE
  5
1CCC
330
1ABD
100
AcDbEntity
  8
0
 62
     0
100
AcDbLine
 10
-33.75848017366698
 20
-281.5552128057277
 30
0.0
 11
-33.12487814364072
 21
-280.9216107757015
 31
0.0
  0
LINE
  5
1CCD
330
1ABD
100
AcDbEntity
  8
0
 62
     0
100
AcDbLine
 10
-33.71430199488414
 20
-281.6436171484174
 30
0.0
 11
-33.08069996485789
 21
-281.010015118391
 31
0.0
  0
LINE
  5
1CCE
330
1ABD
100
AcDbEntity
  8
0
 62
     0
100
AcDbLine
 10
-33.6701238161013
 20
-281.732021491107
 30
0.0
 11
-33.03652178607503
 21
-281.0984194610807
 31
0.0
  0
LINE
  5
1CCF
330
1ABD
100
AcDbEntity
  8
0
 62
     0
100
AcDbLine
 10
-33.62594563731845
 20
-281.8204258337966
 30
0.0
 11
-32.9923436072922
 21
-281.1868238037704
 31
0.0
  0
LINE
  5
1CD0
330
1ABD
100
AcDbEntity
  8
0
 62
     0
100
AcDbLine
 10
-33.58176745853561
 20
-281.9088301764862
 30
0.0
 11
-32.94816542850937
 21
-281.2752281464601
 31
0.0
  0
LINE
  5
1CD1
330
1ABD
100
AcDbEntity
  8
0
 62
     0
100
AcDbLine
 10
-33.53758927975277
 20
-281.9972345191759
 30
0.0
 11
-32.90398724972653
 21
-281.3636324891497
 31
0.0
  0
LINE
  5
1CD2
330
1ABD
100
AcDbEntity
  8
0
 62
     0
100
AcDbLine
 10
-33.49341110096992
 20
-282.0856388618656
 30
0.0
 11
-32.85980907094367
 21
-281.4520368318393
 31
0.0
  0
LINE
  5
1CD3
330
1ABD
100
AcDbEntity
  8
0
 62
     0
100
AcDbLine
 10
-33.44923292218708
 20
-282.1740432045552
 30
0.0
 11
-32.81563089216084
 21
-281.5404411745289
 31
0.0
  0
LINE
  5
1CD4
330
1ABD
100
AcDbEntity
  8
0
 62
     0
100
AcDbLine
 10
-33.40505474340423
 20
-282.2624475472448
 30
0.0
 11
-32.771452713378
 21
-281.6288455172186
 31
0.0
  0
LINE
  5
1CD5
330
1ABD
100
AcDbEntity
  8
0
 62
     0
100
AcDbLine
 10
-33.36087656462139
 20
-282.3508518899345
 30
0.0
 11
-32.72727453459515
 21
-281.7172498599082
 31
0.0
  0
LINE
  5
1CD6
330
1ABD
100
AcDbEntity
  8
0
 62
     0
100
AcDbLine
 10
-33.31669838583855
 20
-282.4392562326241
 30
0.0
 11
-32.68309635581231
 21
-281.8056542025978
 31
0.0
  0
LINE
  5
1CD7
330
1ABD
100
AcDbEntity
  8
0
 62
     0
100
AcDbLine
 10
-33.27252020705571
 20
-282.5276605753137
 30
0.0
 11
-32.63891817702948
 21
-281.8940585452875
 31
0.0
  0
LINE
  5
1CD8
330
1ABD
100
AcDbEntity
  8
0
 62
     0
100
AcDbLine
 10
-33.22834202827287
 20
-282.6160649180033
 30
0.0
 11
-32.59473999824662
 21
-281.9824628879771
 31
0.0
  0
LINE
  5
1CD9
330
1ABD
100
AcDbEntity
  8
0
 62
     0
100
AcDbLine
 10
-33.18416384949003
 20
-282.704469260693
 30
0.0
 11
-32.55056181946378
 21
-282.0708672306667
 31
0.0
  0
LINE
  5
1CDA
330
1ABD
100
AcDbEntity
  8
0
 62
     0
100
AcDbLine
 10
-33.13998567070718
 20
-282.7928736033826
 30
0.0
 11
-32.50638364068095
 21
-282.1592715733564
 31
0.0
  0
LINE
  5
1CDB
330
1ABD
100
AcDbEntity
  8
0
 62
     0
100
AcDbLine
 10
-33.09580749192433
 20
-282.8812779460723
 30
0.0
 11
-32.46220546189811
 21
-282.247675916046
 31
0.0
  0
LINE
  5
1CDC
330
1ABD
100
AcDbEntity
  8
0
 62
     0
100
AcDbLine
 10
-33.0516293131415
 20
-282.9696822887619
 30
0.0
 11
-32.41802728311526
 21
-282.3360802587357
 31
0.0
  0
LINE
  5
1CDD
330
1ABD
100
AcDbEntity
  8
0
 62
     0
100
AcDbLine
 10
-33.00745113435866
 20
-283.0580866314516
 30
0.0
 11
-32.37384910433242
 21
-282.4244846014253
 31
0.0
  0
LINE
  5
1CDE
330
1ABD
100
AcDbEntity
  8
0
 62
     0
100
AcDbLine
 10
-32.96327295557581
 20
-283.1464909741411
 30
0.0
 11
-32.32967092554959
 21
-282.5128889441149
 31
0.0
  0
LINE
  5
1CDF
330
1ABD
100
AcDbEntity
  8
0
 62
     0
100
AcDbLine
 10
-32.91909477679296
 20
-283.2348953168308
 30
0.0
 11
-32.28549274676673
 21
-282.6012932868045
 31
0.0
  0
LINE
  5
1CE0
330
1ABD
100
AcDbEntity
  8
0
 62
     0
100
AcDbLine
 10
-32.87491659801013
 20
-283.3232996595204
 30
0.0
 11
-32.24131456798389
 21
-282.6896976294942
 31
0.0
  0
LINE
  5
1CE1
330
1ABD
100
AcDbEntity
  8
0
 62
     0
100
AcDbLine
 10
-32.83073841922728
 20
-283.4117040022101
 30
0.0
 11
-32.19713638920106
 21
-282.7781019721838
 31
0.0
  0
LINE
  5
1CE2
330
1ABD
100
AcDbEntity
  8
0
 62
     0
100
AcDbLine
 10
-32.78656024044444
 20
-283.5001083448997
 30
0.0
 11
-32.1529582104182
 21
-282.8665063148735
 31
0.0
  0
LINE
  5
1CE3
330
1ABD
100
AcDbEntity
  8
0
 62
     0
100
AcDbLine
 10
-32.7423820616616
 20
-283.5885126875893
 30
0.0
 11
-32.10878003163537
 21
-282.9549106575631
 31
0.0
  0
LINE
  5
1CE4
330
1ABD
100
AcDbEntity
  8
0
 62
     0
100
AcDbLine
 10
-32.69820388287876
 20
-283.6769170302789
 30
0.0
 11
-32.06460185285254
 21
-283.0433150002527
 31
0.0
  0
LINE
  5
1CE5
330
1ABD
100
AcDbEntity
  8
0
 62
     0
100
AcDbLine
 10
-32.65402570409591
 20
-283.7653213729686
 30
0.0
 11
-32.0204236740697
 21
-283.1317193429424
 31
0.0
  0
LINE
  5
1CE6
330
1ABD
100
AcDbEntity
  8
0
 62
     0
100
AcDbLine
 10
-32.60984752531307
 20
-283.8537257156582
 30
0.0
 11
-31.97624549528684
 21
-283.220123685632
 31
0.0
  0
LINE
  5
1CE7
330
1ABD
100
AcDbEntity
  8
0
 62
     0
100
AcDbLine
 10
-32.56566934653022
 20
-283.9421300583479
 30
0.0
 11
-31.93206731650401
 21
-283.3085280283216
 31
0.0
  0
LINE
  5
1CE8
330
1ABD
100
AcDbEntity
  8
0
 62
     0
100
AcDbLine
 10
-32.52149116774738
 20
-284.0305344010375
 30
0.0
 11
-31.88788913772117
 21
-283.3969323710113
 31
0.0
  0
LINE
  5
1CE9
330
1ABD
100
AcDbEntity
  8
0
 62
     0
100
AcDbLine
 10
-32.47731298896454
 20
-284.1189387437271
 30
0.0
 11
-31.84371095893832
 21
-283.4853367137009
 31
0.0
  0
LINE
  5
1CEA
330
1ABD
100
AcDbEntity
  8
0
 62
     0
100
AcDbLine
 10
-32.43313481018169
 20
-284.2073430864168
 30
0.0
 11
-31.79953278015548
 21
-283.5737410563906
 31
0.0
  0
LINE
  5
1CEB
330
1ABD
100
AcDbEntity
  8
0
 62
     0
100
AcDbLine
 10
-32.38895663139885
 20
-284.2957474291064
 30
0.0
 11
-31.75535460137264
 21
-283.6621453990801
 31
0.0
  0
LINE
  5
1CEC
330
1ABD
100
AcDbEntity
  8
0
 62
     0
100
AcDbLine
 10
-32.34477845261601
 20
-284.384151771796
 30
0.0
 11
-31.71117642258979
 21
-283.7505497417698
 31
0.0
  0
LINE
  5
1CED
330
1ABD
100
AcDbEntity
  8
0
 62
     0
100
AcDbLine
 10
-32.30060027383317
 20
-284.4725561144857
 30
0.0
 11
-31.66699824380695
 21
-283.8389540844595
 31
0.0
  0
LINE
  5
1CEE
330
1ABD
100
AcDbEntity
  8
0
 62
     0
100
AcDbLine
 10
-32.25642209505032
 20
-284.5609604571753
 30
0.0
 11
-31.62282006502412
 21
-283.9273584271491
 31
0.0
  0
LINE
  5
1CEF
330
1ABD
100
AcDbEntity
  8
0
 62
     0
100
AcDbLine
 10
-32.21224391626749
 20
-284.649364799865
 30
0.0
 11
-31.57864188624126
 21
-284.0157627698387
 31
0.0
  0
LINE
  5
1CF0
330
1ABD
100
AcDbEntity
  8
0
 62
     0
100
AcDbLine
 10
-32.16806573748464
 20
-284.7377691425545
 30
0.0
 11
-31.53446370745843
 21
-284.1041671125284
 31
0.0
  0
LINE
  5
1CF1
330
1ABD
100
AcDbEntity
  8
0
 62
     0
100
AcDbLine
 10
-32.1238875587018
 20
-284.8261734852442
 30
0.0
 11
-31.49028552867559
 21
-284.192571455218
 31
0.0
  0
LINE
  5
1CF2
330
1ABD
100
AcDbEntity
  8
0
 62
     0
100
AcDbLine
 10
-32.07970937991895
 20
-284.9145778279338
 30
0.0
 11
-31.44610734989275
 21
-284.2809757979077
 31
0.0
  0
LINE
  5
1CF3
330
1ABD
100
AcDbEntity
  8
0
 62
     0
100
AcDbLine
 10
-32.03553120113612
 20
-285.0029821706235
 30
0.0
 11
-31.4019291711099
 21
-284.3693801405972
 31
0.0
  0
LINE
  5
1CF4
330
1ABD
100
AcDbEntity
  8
0
 62
     0
100
AcDbLine
 10
-31.99135302235327
 20
-285.0913865133131
 30
0.0
 11
-31.35775099232706
 21
-284.4577844832869
 31
0.0
  0
LINE
  5
1CF5
330
1ABD
100
AcDbEntity
  8
0
 62
     0
100
AcDbLine
 10
-31.94717484357042
 20
-285.1797908560028
 30
0.0
 11
-31.31357281354423
 21
-284.5461888259766
 31
0.0
  0
LINE
  5
1CF6
330
1ABD
100
AcDbEntity
  8
0
 62
     0
100
AcDbLine
 10
-31.90299666478758
 20
-285.2681951986924
 30
0.0
 11
-31.26939463476138
 21
-284.6345931686662
 31
0.0
  0
LINE
  5
1CF7
330
1ABD
100
AcDbEntity
  8
0
 62
     0
100
AcDbLine
 10
-31.85881848600474
 20
-285.356599541382
 30
0.0
 11
-31.22521645597854
 21
-284.7229975113558
 31
0.0
  0
LINE
  5
1CF8
330
1ABD
100
AcDbEntity
  8
0
 62
     0
100
AcDbLine
 10
-31.8146403072219
 20
-285.4450038840717
 30
0.0
 11
-31.1810382771957
 21
-284.8114018540455
 31
0.0
  0
LINE
  5
1CF9
330
1ABD
100
AcDbEntity
  8
0
 62
     0
100
AcDbLine
 10
-31.77046212843906
 20
-285.5334082267613
 30
0.0
 11
-31.13686009841285
 21
-284.8998061967351
 31
0.0
  0
LINE
  5
1CFA
330
1ABD
100
AcDbEntity
  8
0
 62
     0
100
AcDbLine
 10
-31.72628394965622
 20
-285.6218125694509
 30
0.0
 11
-31.09268191963001
 21
-284.9882105394248
 31
0.0
  0
LINE
  5
1CFB
330
1ABD
100
AcDbEntity
  8
0
 62
     0
100
AcDbLine
 10
-31.68210577087337
 20
-285.7102169121406
 30
0.0
 11
-31.04850374084718
 21
-285.0766148821143
 31
0.0
  0
LINE
  5
1CFC
330
1ABD
100
AcDbEntity
  8
0
 62
     0
100
AcDbLine
 10
-31.63792759209052
 20
-285.7986212548302
 30
0.0
 11
-31.00432556206434
 21
-285.165019224804
 31
0.0
  0
LINE
  5
1CFD
330
1ABD
100
AcDbEntity
  8
0
 62
     0
100
AcDbLine
 10
-31.59374941330769
 20
-285.8870255975199
 30
0.0
 11
-30.96014738328149
 21
-285.2534235674937
 31
0.0
  0
LINE
  5
1CFE
330
1ABD
100
AcDbEntity
  8
0
 62
     0
100
AcDbLine
 10
-31.50332316272872
 20
-285.9291818684134
 30
0.0
 11
-30.91596920449865
 21
-285.3418279101833
 31
0.0
  0
LINE
  5
1CFF
330
1ABD
100
AcDbEntity
  8
0
 62
     0
100
AcDbLine
 10
-31.37157195278595
 20
-285.9300131799431
 30
0.0
 11
-30.87179102571581
 21
-285.4302322528729
 31
0.0
  0
LINE
  5
1D00
330
1ABD
100
AcDbEntity
  8
0
 62
     0
100
AcDbLine
 10
-31.23982074284319
 20
-285.9308444914728
 30
0.0
 11
-30.82761284693296
 21
-285.5186365955626
 31
0.0
  0
LINE
  5
1D01
330
1ABD
100
AcDbEntity
  8
0
 62
     0
100
AcDbLine
 10
-31.25232952633624
 20
-286.0759357964383
 30
0.0
 11
-31.16460760049095
 21
-285.988213870593
 31
0.0
  0
LINE
  5
1D02
330
1ABD
100
AcDbEntity
  8
0
 62
     0
100
AcDbLine
 10
-31.10806953290039
 20
-285.9316758030024
 30
0.0
 11
-30.78343466815012
 21
-285.6070409382521
 31
0.0
  0
LINE
  5
1D03
330
1ABD
100
AcDbEntity
  8
0
 62
     0
100
AcDbLine
 10
-31.15811563536502
 20
-285.981721905467
 30
0.0
 11
-31.10806953290039
 21
-285.9316758030025
 31
0.0
  0
LINE
  5
1D04
330
1ABD
100
AcDbEntity
  8
0
 62
     0
100
AcDbLine
 10
-31.12177404626793
 20
-286.0779628378424
 30
0.0
 11
-31.0328563905482
 21
-285.9890451821227
 31
0.0
  0
LINE
  5
1D05
330
1ABD
100
AcDbEntity
  8
0
 62
     0
100
AcDbLine
 10
-30.97631832295762
 20
-285.9325071145322
 30
0.0
 11
-30.73925648936729
 21
-285.6954452809418
 31
0.0
  0
LINE
  5
1D06
330
1ABD
100
AcDbEntity
  8
0
 62
     0
100
AcDbLine
 10
-30.99002283632514
 20
-286.0787941493721
 30
0.0
 11
-30.93156545569635
 21
-286.0203367687433
 31
0.0
  0
LINE
  5
1D07
330
1ABD
100
AcDbEntity
  8
0
 62
     0
100
AcDbLine
 10
-30.84456711301486
 20
-285.9333384260619
 30
0.0
 11
-30.69507831058443
 21
-285.7838496236314
 31
0.0
  0
LINE
  5
1D08
330
1ABD
100
AcDbEntity
  8
0
 62
     0
100
AcDbLine
 10
-30.7128159030721
 20
-285.9341697375916
 30
0.0
 11
-30.6509001318016
 21
-285.8722539663211
 31
0.0
  0
ENDBLK
  5
1D09
330
1ABD
100
AcDbEntity
  8
0
100
AcDbBlockEnd
  0
ENDSEC
  0
SECTION
  2
ENTITIES
  0
LINE
  5
24C
330
46E
100
AcDbEntity
  8
0
100
AcDbLine
 10
719.5947739403675
 20
300.257360521589
 30
0.0
 11
719.5947739403675
 21
303.382360521589
 31
0.0
  0
LINE
  5
24D
330
46E
100
AcDbEntity
  8
0
100
AcDbLine
 10
718.2666489403675
 20
300.257360521589
 30
0.0
 11
718.2666489403675
 21
300.413610521589
 31
0.0
  0
LINE
  5
24E
330
46E
100
AcDbEntity
  8
0
100
AcDbLine
 10
719.9072739403675
 20
300.257360521589
 30
0.0
 11
718.2666489403675
 21
300.257360521589
 31
0.0
  0
LINE
  5
24F
330
46E
100
AcDbEntity
  8
0
100
AcDbLine
 10
718.2666489403675
 20
303.382360521589
 30
0.0
 11
719.5947739403675
 21
303.382360521589
 31
0.0
  0
LINE
  5
250
330
46E
100
AcDbEntity
  8
0
100
AcDbLine
 10
718.2666489403675
 20
303.226110521589
 30
0.0
 11
719.4385239403675
 21
303.226110521589
 31
0.0
  0
LINE
  5
251
330
46E
100
AcDbEntity
  8
0
100
AcDbLine
 10
719.4385239403675
 20
300.413610521589
 30
0.0
 11
719.4385239403675
 21
303.226110521589
 31
0.0
  0
LINE
  5
252
330
46E
100
AcDbEntity
  8
0
100
AcDbLine
 10
719.4385239403675
 20
300.413610521589
 30
0.0
 11
718.2666489403675
 21
300.413610521589
 31
0.0
  0
LINE
  5
253
330
46E
100
AcDbEntity
  8
0
100
AcDbLine
 10
718.2666489403675
 20
303.226110521589
 30
0.0
 11
718.2666489403675
 21
303.382360521589
 31
0.0
  0
LINE
  5
254
330
46E
100
AcDbEntity
  8
0
100
AcDbLine
 10
686.9385239403675
 20
300.257360521589
 30
0.0
 11
686.9385239403675
 21
303.382360521589
 31
0.0
  0
LINE
  5
255
330
46E
100
AcDbEntity
  8
0
100
AcDbLine
 10
687.0947739403675
 20
300.413610521589
 30
0.0
 11
687.0947739403675
 21
303.226110521589
 31
0.0
  0
LINE
  5
256
330
46E
100
AcDbEntity
  8
0
100
AcDbLine
 10
688.2666489403675
 20
300.257360521589
 30
0.0
 11
688.2666489403675
 21
300.413610521589
 31
0.0
  0
LINE
  5
257
330
46E
100
AcDbEntity
  8
0
100
AcDbLine
 10
686.9385239403675
 20
300.257360521589
 30
0.0
 11
688.2666489403675
 21
300.257360521589
 31
0.0
  0
LINE
  5
258
330
46E
100
AcDbEntity
  8
0
100
AcDbLine
 10
687.0947739403675
 20
300.413610521589
 30
0.0
 11
688.2666489403675
 21
300.413610521589
 31
0.0
  0
LINE
  5
259
330
46E
100
AcDbEntity
  8
0
100
AcDbLine
 10
688.2666489403675
 20
303.382360521589
 30
0.0
 11
686.9385239403675
 21
303.382360521589
 31
0.0
  0
LINE
  5
25A
330
46E
100
AcDbEntity
  8
0
100
AcDbLine
 10
688.2666489403675
 20
303.226110521589
 30
0.0
 11
687.0947739403675
 21
303.226110521589
 31
0.0
  0
LINE
  5
25B
330
46E
100
AcDbEntity
  8
0
100
AcDbLine
 10
688.2666489403675
 20
303.226110521589
 30
0.0
 11
688.2666489403675
 21
303.382360521589
 31
0.0
  0
LINE
  5
25C
330
46E
100
AcDbEntity
  8
0
100
AcDbLine
 10
688.2666489403675
 20
303.226110521589
 30
0.0
 11
718.2666489403675
 21
303.226110521589
 31
0.0
  0
LINE
  5
25D
330
46E
100
AcDbEntity
  8
0
100
AcDbLine
 10
718.2666489403675
 20
300.413610521589
 30
0.0
 11
688.2666489403675
 21
300.413610521589
 31
0.0
  0
LINE
  5
25E
330
46E
100
AcDbEntity
  8
0
100
AcDbLine
 10
719.9072739403675
 20
300.257360521589
 30
0.0
 11
719.9072739403675
 21
310.882360521589
 31
0.0
  0
LINE
  5
25F
330
46E
100
AcDbEntity
  8
0
100
AcDbLine
 10
719.9072739403675
 20
310.882360521589
 30
0.0
 11
717.4072739403675
 21
310.882360521589
 31
0.0
  0
LINE
  5
260
330
46E
100
AcDbEntity
  8
0
100
AcDbLine
 10
719.5947739403675
 20
303.382360521589
 30
0.0
 11
719.5947739403675
 21
310.569860521589
 31
0.0
  0
LINE
  5
261
330
46E
100
AcDbEntity
  8
0
100
AcDbLine
 10
717.4072739403675
 20
310.569860521589
 30
0.0
 11
717.4072739403675
 21
310.882360521589
 31
0.0
  0
LINE
  5
262
330
46E
100
AcDbEntity
  8
0
100
AcDbLine
 10
719.5947739403675
 20
310.569860521589
 30
0.0
 11
717.4072739403675
 21
310.569860521589
 31
0.0
  0
LINE
  5
263
330
46E
100
AcDbEntity
  8
0
100
AcDbLine
 10
686.6260239403675
 20
300.257360521589
 30
0.0
 11
686.6260239403675
 21
310.882360521589
 31
0.0
  0
LINE
  5
264
330
46E
100
AcDbEntity
  8
0
100
AcDbLine
 10
686.6260239403675
 20
310.882360521589
 30
0.0
 11
689.1260239403675
 21
310.882360521589
 31
0.0
  0
LINE
  5
265
330
46E
100
AcDbEntity
  8
0
100
AcDbLine
 10
686.9385239403675
 20
303.382360521589
 30
0.0
 11
686.9385239403675
 21
310.569860521589
 31
0.0
  0
LINE
  5
266
330
46E
100
AcDbEntity
  8
0
100
AcDbLine
 10
686.9385239403675
 20
310.569860521589
 30
0.0
 11
689.1260239403675
 21
310.569860521589
 31
0.0
  0
LINE
  5
267
330
46E
100
AcDbEntity
  8
0
100
AcDbLine
 10
689.1260239403675
 20
310.569860521589
 30
0.0
 11
689.1260239403675
 21
310.882360521589
 31
0.0
  0
LINE
  5
268
330
46E
100
AcDbEntity
  8
0
100
AcDbLine
 10
719.4385239403675
 20
301.819860521589
 30
0.0
 11
687.0947739403675
 21
301.819860521589
 31
0.0
  0
LINE
  5
269
330
46E
100
AcDbEntity
  8
0
100
AcDbLine
 10
686.9385239403675
 20
300.257360521589
 30
0.0
 11
686.9385239403675
 21
295.3582715594614
 31
0.0
  0
LINE
  5
26A
330
46E
100
AcDbEntity
  8
0
100
AcDbLine
 10
686.6260239403675
 20
300.257360521589
 30
0.0
 11
686.6260239403675
 21
295.4643863679219
 31
0.0
  0
LINE
  5
26B
330
46E
100
AcDbEntity
  8
0
100
AcDbLine
 10
719.4385239403675
 20
302.319860521589
 30
0.0
 11
687.0947739403675
 21
302.319860521589
 31
0.0
  0
LINE
  5
26C
330
46E
100
AcDbEntity
  8
0
100
AcDbLine
 10
719.4385239403675
 20
302.819860521589
 30
0.0
 11
687.0947739403675
 21
302.819860521589
 31
0.0
  0
LINE
  5
26D
330
46E
100
AcDbEntity
  8
0
100
AcDbLine
 10
719.4385239403675
 20
301.319860521589
 30
0.0
 11
687.0947739403675
 21
301.319860521589
 31
0.0
  0
LINE
  5
26E
330
46E
100
AcDbEntity
  8
0
100
AcDbLine
 10
719.4385239403675
 20
300.8198605215889
 30
0.0
 11
687.0947739403675
 21
300.8198605215889
 31
0.0
  0
ARC
  5
26F
330
46E
100
AcDbEntity
  8
0
100
AcDbCircle
 10
703.2666489403675
 20
285.9756892345358
 30
0.0
 40
19.15582871294677
100
AcDbArc
 50
150.3076586782387
 51
306.7290038813294
  0
ARC
  5
270
330
46E
100
AcDbEntity
  8
0
100
AcDbCircle
 10
703.2666489403675
 20
285.9680629105536
 30
0.0
 40
18.83570238896462
100
AcDbArc
 50
150.0970456620547
 51
306.8051354468734
  0
LINE
  5
271
330
46E
100
AcDbEntity
  8
0
100
AcDbLine
 10
702.0166489403675
 20
267.4863833731103
 30
0.0
 11
702.0166489403675
 21
267.1738833731104
 31
0.0
  0
LINE
  5
272
330
46E
100
AcDbEntity
  8
0
100
AcDbLine
 10
704.5166489403675
 20
267.4863833731103
 30
0.0
 11
704.5166489403675
 21
267.1738833731104
 31
0.0
  0
LINE
  5
273
330
46E
100
AcDbEntity
  8
0
100
AcDbLine
 10
704.5166489403675
 20
267.4863833731103
 30
0.0
 11
702.0166489403675
 21
267.4863833731103
 31
0.0
  0
LINE
  5
274
330
46E
100
AcDbEntity
  8
0
100
AcDbLine
 10
694.2491430415693
 20
269.787223442532
 30
0.0
 11
694.078943343127
 21
269.5251388900491
 31
0.0
  0
LINE
  5
275
330
46E
100
AcDbEntity
  8
0
100
AcDbLine
 10
692.1524666217058
 20
271.1488210300696
 30
0.0
 11
691.9822669232635
 21
270.8867364775867
 31
0.0
  0
LINE
  5
276
330
46E
100
AcDbEntity
  8
0
100
AcDbLine
 10
694.2491430415693
 20
269.787223442532
 30
0.0
 11
692.1524666217058
 21
271.1488210300696
 31
0.0
  0
LINE
  5
277
330
46E
100
AcDbEntity
  8
0
100
AcDbLine
 10
686.8912153531748
 20
277.308954795038
 30
0.0
 11
686.6057323976615
 21
277.1818495940768
 31
0.0
  0
LINE
  5
278
330
46E
100
AcDbEntity
  8
0
100
AcDbLine
 10
685.8743737454854
 20
279.5928184391445
 30
0.0
 11
685.588890789972
 21
279.4657132381833
 31
0.0
  0
LINE
  5
279
330
46E
100
AcDbEntity
  8
0
100
AcDbLine
 10
686.8912153531748
 20
277.308954795038
 30
0.0
 11
685.8743737454854
 21
279.5928184391445
 31
0.0
  0
LINE
  5
27A
330
46E
100
AcDbEntity
  8
0
100
AcDbLine
 10
684.8169664653189
 20
287.6246241362946
 30
0.0
 11
684.5083138588829
 21
287.6735099066197
 31
0.0
  0
LINE
  5
27B
330
46E
100
AcDbEntity
  8
0
100
AcDbLine
 10
685.2080526279195
 20
290.0938449877824
 30
0.0
 11
684.8994000214835
 21
290.1427307581075
 31
0.0
  0
LINE
  5
27C
330
46E
100
AcDbEntity
  8
0
100
AcDbLine
 10
684.8169664653189
 20
287.6246241362946
 30
0.0
 11
685.2080526279195
 21
290.0938449877824
 31
0.0
  0
LINE
  5
27D
330
46E
100
AcDbEntity
  8
0
100
AcDbLine
 10
712.2841548391658
 20
269.787223442532
 30
0.0
 11
714.3808312590294
 21
271.1488210300696
 31
0.0
  0
LINE
  5
27E
330
46E
100
AcDbEntity
  8
0
100
AcDbLine
 10
712.2841548391658
 20
269.787223442532
 30
0.0
 11
712.4543545376079
 21
269.5251388900491
 31
0.0
  0
LINE
  5
27F
330
46E
100
AcDbEntity
  8
0
100
AcDbLine
 10
714.3808312590294
 20
271.1488210300696
 30
0.0
 11
714.7224271886318
 21
270.622809426293
 31
0.0
  0
LINE
  5
280
330
46E
100
AcDbEntity
  8
0
100
AcDbLine
 10
790.812575047
 20
305.1167642330355
 30
0.0
 11
790.812575047
 21
305.1167642330355
 31
0.0
  0
LINE
  5
281
330
46E
100
AcDbEntity
  8
0
100
AcDbLine
 10
791.875075047
 20
305.1167642330355
 30
0.0
 11
791.875075047
 21
305.1167642330355
 31
0.0
  0
LINE
  5
282
330
46E
100
AcDbEntity
  8
0
100
AcDbLine
 10
815.8750750470002
 20
305.1167642330355
 30
0.0
 11
815.8750750470002
 21
255.1167642330354
 31
0.0
  0
LINE
  5
283
330
46E
100
AcDbEntity
  8
0
100
AcDbLine
 10
816.9375750470001
 20
305.1167642330355
 30
0.0
 11
816.9375750470001
 21
255.1167642330354
 31
0.0
  0
LINE
  5
284
330
46E
100
AcDbEntity
  8
0
100
AcDbLine
 10
790.812575047
 20
72.11676423303541
 30
0.0
 11
791.875075047
 21
72.11676423303541
 31
0.0
  0
LINE
  5
285
330
46E
100
AcDbEntity
  8
0
100
AcDbLine
 10
815.8750750470002
 20
72.11676423303547
 30
0.0
 11
816.9375750470001
 21
72.11676423303552
 31
0.0
  0
LINE
  5
286
330
46E
100
AcDbEntity
  8
0
100
AcDbLine
 10
820.6250750470001
 20
162.1167642330354
 30
0.0
 11
787.1250750470001
 21
162.1167642330354
 31
0.0
  0
LINE
  5
287
330
46E
100
AcDbEntity
  8
0
100
AcDbLine
 10
820.6250750470001
 20
164.1167642330354
 30
0.0
 11
820.6250750470001
 21
162.1167642330354
 31
0.0
  0
LINE
  5
288
330
46E
100
AcDbEntity
  8
0
100
AcDbLine
 10
787.1250750470001
 20
164.1167642330354
 30
0.0
 11
787.1250750470001
 21
162.1167642330354
 31
0.0
  0
LINE
  5
289
330
46E
100
AcDbEntity
  8
0
100
AcDbLine
 10
820.6250750470001
 20
164.1167642330354
 30
0.0
 11
787.1250750470001
 21
164.1167642330354
 31
0.0
  0
LINE
  5
28A
330
46E
100
AcDbEntity
  8
0
100
AcDbLine
 10
816.9375750470001
 20
305.1167642330355
 30
0.0
 11
815.8750750470002
 21
305.1167642330355
 31
0.0
  0
LINE
  5
28B
330
46E
100
AcDbEntity
  8
0
100
AcDbLine
 10
813.0396976456115
 20
304.3667642330354
 30
0.0
 11
815.8750750470002
 21
304.3667642330354
 31
0.0
  0
LINE
  5
28C
330
46E
100
AcDbEntity
  8
0
100
AcDbLine
 10
819.1997380173575
 20
210.1167642330354
 30
0.0
 11
788.5504120766427
 21
210.1167642330354
 31
0.0
  0
LINE
  5
28D
330
46E
100
AcDbEntity
  8
0
100
AcDbLine
 10
819.1997380173575
 20
212.1167642330354
 30
0.0
 11
788.5504120766427
 21
212.1167642330354
 31
0.0
  0
LINE
  5
28E
330
46E
100
AcDbEntity
  8
0
100
AcDbLine
 10
819.1997380173575
 20
212.1167642330354
 30
0.0
 11
819.1997380173575
 21
210.1167642330354
 31
0.0
  0
LINE
  5
28F
330
46E
100
AcDbEntity
  8
0
100
AcDbLine
 10
788.5504120766427
 20
212.1167642330354
 30
0.0
 11
788.5504120766427
 21
210.1167642330354
 31
0.0
  0
LINE
  5
290
330
46E
100
AcDbEntity
  8
0
100
AcDbLine
 10
818.9497380173575
 20
253.1167642330354
 30
0.0
 11
818.9497380173575
 21
212.1167642330354
 31
0.0
  0
LINE
  5
291
330
46E
100
AcDbEntity
  8
0
100
AcDbLine
 10
818.6997380173576
 20
253.1167642330354
 30
0.0
 11
818.6997380173576
 21
212.1167642330354
 31
0.0
  0
LINE
  5
292
330
46E
100
AcDbEntity
  8
0
100
AcDbLine
 10
818.9497380173575
 20
210.1167642330354
 30
0.0
 11
820.3750750470002
 21
164.1167642330354
 31
0.0
  0
LINE
  5
293
330
46E
100
AcDbEntity
  8
0
100
AcDbLine
 10
820.125075047
 20
164.1167642330354
 30
0.0
 11
818.6997380173576
 21
210.1167642330354
 31
0.0
  0
LINE
  5
294
330
46E
100
AcDbEntity
  8
0
100
AcDbLine
 10
819.1997380173575
 20
255.1167642330354
 30
0.0
 11
788.5504120766427
 21
255.1167642330354
 31
0.0
  0
LINE
  5
295
330
46E
100
AcDbEntity
  8
0
100
AcDbLine
 10
788.5504120766427
 20
253.1167642330354
 30
0.0
 11
819.1997380173575
 21
253.1167642330354
 31
0.0
  0
LINE
  5
296
330
46E
100
AcDbEntity
  8
0
100
AcDbLine
 10
788.5504120766427
 20
253.1167642330354
 30
0.0
 11
788.5504120766427
 21
255.1167642330354
 31
0.0
  0
LINE
  5
297
330
46E
100
AcDbEntity
  8
0
100
AcDbLine
 10
819.1997380173575
 20
253.1167642330354
 30
0.0
 11
819.1997380173575
 21
255.1167642330354
 31
0.0
  0
LINE
  5
298
330
46E
100
AcDbEntity
  8
0
100
AcDbLine
 10
791.875075047
 20
292.3667642330354
 30
0.0
 11
794.7104524483886
 21
292.3667642330354
 31
0.0
  0
LINE
  5
299
330
46E
100
AcDbEntity
  8
0
100
AcDbLine
 10
791.875075047
 20
293.1167642330354
 30
0.0
 11
794.7104524483886
 21
293.1167642330354
 31
0.0
  0
LINE
  5
29A
330
46E
100
AcDbEntity
  8
0
100
AcDbLine
 10
791.875075047
 20
280.3667642330354
 30
0.0
 11
794.7104524483886
 21
280.3667642330354
 31
0.0
  0
LINE
  5
29B
330
46E
100
AcDbEntity
  8
0
100
AcDbLine
 10
791.875075047
 20
281.1167642330354
 30
0.0
 11
794.7104524483886
 21
281.1167642330354
 31
0.0
  0
LINE
  5
29C
330
46E
100
AcDbEntity
  8
0
100
AcDbLine
 10
791.875075047
 20
268.3667642330354
 30
0.0
 11
794.7104524483886
 21
268.3667642330354
 31
0.0
  0
LINE
  5
29D
330
46E
100
AcDbEntity
  8
0
100
AcDbLine
 10
791.875075047
 20
269.1167642330354
 30
0.0
 11
794.7104524483886
 21
269.1167642330354
 31
0.0
  0
LINE
  5
29E
330
46E
100
AcDbEntity
  8
0
100
AcDbLine
 10
791.875075047
 20
257.1167642330354
 30
0.0
 11
794.7104524483886
 21
257.1167642330354
 31
0.0
  0
LINE
  5
29F
330
46E
100
AcDbEntity
  8
0
100
AcDbLine
 10
791.875075047
 20
256.3667642330354
 30
0.0
 11
794.7104524483886
 21
256.3667642330354
 31
0.0
  0
LINE
  5
2A0
330
46E
100
AcDbEntity
  8
0
100
AcDbLine
 10
788.5504120766427
 20
303.1167642330355
 30
0.0
 11
788.5504120766427
 21
305.1167642330355
 31
0.0
  0
LINE
  5
2A1
330
46E
100
AcDbEntity
  8
0
100
AcDbLine
 10
813.0396976456115
 20
303.1167642330355
 30
0.0
 11
788.5504120766427
 21
303.1167642330355
 31
0.0
  0
LINE
  5
2A2
330
46E
100
AcDbEntity
  8
0
100
AcDbLine
 10
813.0396976456115
 20
305.1167642330355
 30
0.0
 11
788.5504120766427
 21
305.1167642330355
 31
0.0
  0
LINE
  5
2A3
330
46E
100
AcDbEntity
  8
0
100
AcDbLine
 10
804.875075047
 20
210.1167642330354
 30
0.0
 11
804.875075047
 21
164.1167642330354
 31
0.0
  0
LINE
  5
2A4
330
46E
100
AcDbEntity
  8
0
100
AcDbLine
 10
802.8750750470001
 20
210.1167642330354
 30
0.0
 11
802.8750750470001
 21
164.1167642330354
 31
0.0
  0
LINE
  5
2A5
330
46E
100
AcDbEntity
  8
0
100
AcDbLine
 10
804.875075047
 20
303.1167642330355
 30
0.0
 11
804.875075047
 21
255.1167642330354
 31
0.0
  0
LINE
  5
2A6
330
46E
100
AcDbEntity
  8
0
100
AcDbLine
 10
802.8750750470001
 20
303.1167642330355
 30
0.0
 11
802.8750750470001
 21
255.1167642330354
 31
0.0
  0
LINE
  5
2A7
330
46E
100
AcDbEntity
  8
0
100
AcDbLine
 10
804.875075047
 20
253.1167642330354
 30
0.0
 11
804.875075047
 21
212.1167642330354
 31
0.0
  0
LINE
  5
2A8
330
46E
100
AcDbEntity
  8
0
100
AcDbLine
 10
802.8750750470001
 20
253.1167642330354
 30
0.0
 11
802.8750750470001
 21
212.1167642330354
 31
0.0
  0
LINE
  5
2A9
330
46E
100
AcDbEntity
  8
0
100
AcDbLine
 10
792.9720989151363
 20
164.1167642330354
 30
0.0
 11
794.7104524483886
 21
210.1167642330354
 31
0.0
  0
LINE
  5
2AA
330
46E
100
AcDbEntity
  8
0
100
AcDbLine
 10
796.3880302789366
 20
210.1167642330354
 30
0.0
 11
794.5565795728501
 21
164.1167642330354
 31
0.0
  0
LINE
  5
2AB
330
46E
100
AcDbEntity
  8
0
100
AcDbLine
 10
796.3880302789366
 20
212.1167642330354
 30
0.0
 11
796.3880302789366
 21
253.1167642330354
 31
0.0
  0
LINE
  5
2AC
330
46E
100
AcDbEntity
  8
0
100
AcDbLine
 10
794.7104524483886
 20
212.1167642330354
 30
0.0
 11
794.7104524483886
 21
253.1167642330354
 31
0.0
  0
LINE
  5
2AD
330
46E
100
AcDbEntity
  8
0
100
AcDbLine
 10
788.8004120766427
 20
303.1167642330355
 30
0.0
 11
788.8004120766427
 21
255.1167642330354
 31
0.0
  0
LINE
  5
2AE
330
46E
100
AcDbEntity
  8
0
100
AcDbLine
 10
789.0504120766427
 20
303.1167642330355
 30
0.0
 11
789.0504120766427
 21
255.1167642330354
 31
0.0
  0
LINE
  5
2AF
330
46E
100
AcDbEntity
  8
0
100
AcDbLine
 10
811.3621198150635
 20
210.1167642330354
 30
0.0
 11
813.1935705211501
 21
164.1167642330354
 31
0.0
  0
LINE
  5
2B0
330
46E
100
AcDbEntity
  8
0
100
AcDbLine
 10
814.7780511788639
 20
164.1167642330354
 30
0.0
 11
813.0396976456115
 21
210.1167642330354
 31
0.0
  0
LINE
  5
2B1
330
46E
100
AcDbEntity
  8
0
100
AcDbLine
 10
813.0396976456115
 20
212.1167642330354
 30
0.0
 11
813.0396976456115
 21
253.1167642330354
 31
0.0
  0
LINE
  5
2B2
330
46E
100
AcDbEntity
  8
0
100
AcDbLine
 10
811.3621198150635
 20
212.1167642330354
 30
0.0
 11
811.3621198150635
 21
253.1167642330354
 31
0.0
  0
LINE
  5
2B3
330
46E
100
AcDbEntity
  8
0
100
AcDbLine
 10
788.8004120766427
 20
253.1167642330354
 30
0.0
 11
788.8004120766427
 21
212.1167642330354
 31
0.0
  0
LINE
  5
2B4
330
46E
100
AcDbEntity
  8
0
100
AcDbLine
 10
789.0504120766427
 20
253.1167642330354
 30
0.0
 11
789.0504120766427
 21
212.1167642330354
 31
0.0
  0
LINE
  5
2B5
330
46E
100
AcDbEntity
  8
0
100
AcDbLine
 10
787.6250750470001
 20
164.1167642330354
 30
0.0
 11
789.0504120766427
 21
210.1167642330354
 31
0.0
  0
LINE
  5
2B6
330
46E
100
AcDbEntity
  8
0
100
AcDbLine
 10
788.8004120766427
 20
210.1167642330354
 30
0.0
 11
787.3750750470001
 21
164.1167642330354
 31
0.0
  0
LINE
  5
2B7
330
46E
100
AcDbEntity
  8
0
100
AcDbLine
 10
796.3880302789366
 20
255.1167642330354
 30
0.0
 11
796.3880302789366
 21
303.1167642330355
 31
0.0
  0
LINE
  5
2B8
330
46E
100
AcDbEntity
  8
0
100
AcDbLine
 10
794.7104524483886
 20
255.1167642330354
 30
0.0
 11
794.7104524483886
 21
303.1167642330355
 31
0.0
  0
LINE
  5
2B9
330
46E
100
AcDbEntity
  8
0
100
AcDbLine
 10
813.0396976456115
 20
255.1167642330354
 30
0.0
 11
813.0396976456117
 21
305.1167642330355
 31
0.0
  0
LINE
  5
2BA
330
46E
100
AcDbEntity
  8
0
100
AcDbLine
 10
811.3621198150635
 20
255.1167642330354
 30
0.0
 11
811.3621198150635
 21
303.1167642330355
 31
0.0
  0
LINE
  5
2BB
330
46E
100
AcDbEntity
  8
0
100
AcDbLine
 10
816.9375750470001
 20
253.1167642330354
 30
0.0
 11
816.9375750470001
 21
212.1167642330354
 31
0.0
  0
LINE
  5
2BC
330
46E
100
AcDbEntity
  8
0
100
AcDbLine
 10
815.8750750470002
 20
253.1167642330354
 30
0.0
 11
815.8750750470002
 21
212.1167642330354
 31
0.0
  0
LINE
  5
2BD
330
46E
100
AcDbEntity
  8
0
100
AcDbLine
 10
791.875075047
 20
253.1167642330354
 30
0.0
 11
791.875075047
 21
212.1167642330354
 31
0.0
  0
LINE
  5
2BE
330
46E
100
AcDbEntity
  8
0
100
AcDbLine
 10
790.812575047
 20
253.1167642330354
 30
0.0
 11
790.812575047
 21
212.1167642330354
 31
0.0
  0
LINE
  5
2BF
330
46E
100
AcDbEntity
  8
0
100
AcDbLine
 10
813.0396976456115
 20
256.3667642330354
 30
0.0
 11
815.8750750470002
 21
256.3667642330354
 31
0.0
  0
LINE
  5
2C0
330
46E
100
AcDbEntity
  8
0
100
AcDbLine
 10
813.0396976456115
 20
257.1167642330354
 30
0.0
 11
815.8750750470002
 21
257.1167642330354
 31
0.0
  0
LINE
  5
2C1
330
46E
100
AcDbEntity
  8
0
100
AcDbLine
 10
813.0396976456115
 20
269.1167642330354
 30
0.0
 11
815.8750750470002
 21
269.1167642330354
 31
0.0
  0
LINE
  5
2C2
330
46E
100
AcDbEntity
  8
0
100
AcDbLine
 10
813.0396976456115
 20
268.3667642330354
 30
0.0
 11
815.8750750470002
 21
268.3667642330354
 31
0.0
  0
LINE
  5
2C3
330
46E
100
AcDbEntity
  8
0
100
AcDbLine
 10
813.0396976456115
 20
280.3667642330354
 30
0.0
 11
815.8750750470002
 21
280.3667642330354
 31
0.0
  0
LINE
  5
2C4
330
46E
100
AcDbEntity
  8
0
100
AcDbLine
 10
813.0396976456115
 20
281.1167642330354
 30
0.0
 11
815.8750750470002
 21
281.1167642330354
 31
0.0
  0
LINE
  5
2C5
330
46E
100
AcDbEntity
  8
0
100
AcDbLine
 10
813.0396976456117
 20
292.3667642330354
 30
0.0
 11
815.8750750470002
 21
292.3667642330354
 31
0.0
  0
LINE
  5
2C6
330
46E
100
AcDbEntity
  8
0
100
AcDbLine
 10
813.0396976456117
 20
293.1167642330354
 30
0.0
 11
815.8750750470002
 21
293.1167642330354
 31
0.0
  0
LINE
  5
2C7
330
46E
100
AcDbEntity
  8
0
100
AcDbLine
 10
804.875075047
 20
293.1167642330354
 30
0.0
 11
811.3621198150635
 21
293.1167642330354
 31
0.0
  0
LINE
  5
2C8
330
46E
100
AcDbEntity
  8
0
100
AcDbLine
 10
804.875075047
 20
292.3667642330354
 30
0.0
 11
811.3621198150635
 21
292.3667642330354
 31
0.0
  0
LINE
  5
2C9
330
46E
100
AcDbEntity
  8
0
100
AcDbLine
 10
804.875075047
 20
281.1167642330354
 30
0.0
 11
811.3621198150635
 21
281.1167642330354
 31
0.0
  0
LINE
  5
2CA
330
46E
100
AcDbEntity
  8
0
100
AcDbLine
 10
804.875075047
 20
280.3667642330354
 30
0.0
 11
811.3621198150635
 21
280.3667642330354
 31
0.0
  0
LINE
  5
2CB
330
46E
100
AcDbEntity
  8
0
100
AcDbLine
 10
804.875075047
 20
269.1167642330354
 30
0.0
 11
811.3621198150635
 21
269.1167642330354
 31
0.0
  0
LINE
  5
2CC
330
46E
100
AcDbEntity
  8
0
100
AcDbLine
 10
804.875075047
 20
268.3667642330354
 30
0.0
 11
811.3621198150635
 21
268.3667642330354
 31
0.0
  0
LINE
  5
2CD
330
46E
100
AcDbEntity
  8
0
100
AcDbLine
 10
804.875075047
 20
257.1167642330354
 30
0.0
 11
811.3621198150635
 21
257.1167642330354
 31
0.0
  0
LINE
  5
2CE
330
46E
100
AcDbEntity
  8
0
100
AcDbLine
 10
804.875075047
 20
256.3667642330354
 30
0.0
 11
811.3621198150635
 21
256.3667642330354
 31
0.0
  0
LINE
  5
2CF
330
46E
100
AcDbEntity
  8
0
100
AcDbLine
 10
796.3880302789366
 20
256.3667642330354
 30
0.0
 11
802.8750750470001
 21
256.3667642330354
 31
0.0
  0
LINE
  5
2D0
330
46E
100
AcDbEntity
  8
0
100
AcDbLine
 10
796.3880302789366
 20
257.1167642330354
 30
0.0
 11
802.8750750470001
 21
257.1167642330354
 31
0.0
  0
LINE
  5
2D1
330
46E
100
AcDbEntity
  8
0
100
AcDbLine
 10
796.3880302789366
 20
269.1167642330354
 30
0.0
 11
802.8750750470001
 21
269.1167642330354
 31
0.0
  0
LINE
  5
2D2
330
46E
100
AcDbEntity
  8
0
100
AcDbLine
 10
796.3880302789366
 20
268.3667642330354
 30
0.0
 11
802.8750750470001
 21
268.3667642330354
 31
0.0
  0
LINE
  5
2D3
330
46E
100
AcDbEntity
  8
0
100
AcDbLine
 10
796.3880302789366
 20
281.1167642330354
 30
0.0
 11
802.8750750470001
 21
281.1167642330354
 31
0.0
  0
LINE
  5
2D4
330
46E
100
AcDbEntity
  8
0
100
AcDbLine
 10
796.3880302789366
 20
280.3667642330354
 30
0.0
 11
802.8750750470001
 21
280.3667642330354
 31
0.0
  0
LINE
  5
2D5
330
46E
100
AcDbEntity
  8
0
100
AcDbLine
 10
796.3880302789366
 20
292.3667642330354
 30
0.0
 11
802.8750750470001
 21
292.3667642330354
 31
0.0
  0
LINE
  5
2D6
330
46E
100
AcDbEntity
  8
0
100
AcDbLine
 10
796.3880302789366
 20
293.1167642330354
 30
0.0
 11
802.8750750470001
 21
293.1167642330354
 31
0.0
  0
LINE
  5
2D7
330
46E
100
AcDbEntity
  8
0
100
AcDbLine
 10
811.3621198150635
 20
244.3667642330354
 30
0.0
 11
804.875075047
 21
244.3667642330354
 31
0.0
  0
LINE
  5
2D8
330
46E
100
AcDbEntity
  8
0
100
AcDbLine
 10
815.8750750470002
 20
244.3667642330354
 30
0.0
 11
813.0396976456115
 21
244.3667642330354
 31
0.0
  0
LINE
  5
2D9
330
46E
100
AcDbEntity
  8
0
100
AcDbLine
 10
811.3621198150635
 20
245.1167642330354
 30
0.0
 11
804.875075047
 21
245.1167642330354
 31
0.0
  0
LINE
  5
2DA
330
46E
100
AcDbEntity
  8
0
100
AcDbLine
 10
815.8750750470002
 20
245.1167642330354
 30
0.0
 11
813.0396976456115
 21
245.1167642330354
 31
0.0
  0
LINE
  5
2DB
330
46E
100
AcDbEntity
  8
0
100
AcDbLine
 10
802.8750750470001
 20
244.3667642330354
 30
0.0
 11
796.3880302789366
 21
244.3667642330354
 31
0.0
  0
LINE
  5
2DC
330
46E
100
AcDbEntity
  8
0
100
AcDbLine
 10
802.8750750470001
 20
245.1167642330354
 30
0.0
 11
796.3880302789366
 21
245.1167642330354
 31
0.0
  0
LINE
  5
2DD
330
46E
100
AcDbEntity
  8
0
100
AcDbLine
 10
794.7104524483886
 20
244.3667642330354
 30
0.0
 11
791.875075047
 21
244.3667642330354
 31
0.0
  0
LINE
  5
2DE
330
46E
100
AcDbEntity
  8
0
100
AcDbLine
 10
794.7104524483886
 20
245.1167642330354
 30
0.0
 11
791.875075047
 21
245.1167642330354
 31
0.0
  0
LINE
  5
2DF
330
46E
100
AcDbEntity
  8
0
100
AcDbLine
 10
816.9375750470001
 20
210.1167642330354
 30
0.0
 11
816.9375750470001
 21
164.1167642330354
 31
0.0
  0
LINE
  5
2E0
330
46E
100
AcDbEntity
  8
0
100
AcDbLine
 10
815.8750750470002
 20
210.1167642330354
 30
0.0
 11
815.8750750470002
 21
164.1167642330354
 31
0.0
  0
LINE
  5
2E1
330
46E
100
AcDbEntity
  8
0
100
AcDbLine
 10
790.812575047
 20
210.1167642330354
 30
0.0
 11
790.812575047
 21
164.1167642330354
 31
0.0
  0
LINE
  5
2E2
330
46E
100
AcDbEntity
  8
0
100
AcDbLine
 10
791.875075047
 20
210.1167642330354
 30
0.0
 11
791.875075047
 21
164.1167642330354
 31
0.0
  0
LINE
  5
2E3
330
46E
100
AcDbEntity
  8
0
100
AcDbLine
 10
791.875075047
 20
162.1167642330354
 30
0.0
 11
791.875075047
 21
72.11676423303547
 31
0.0
  0
LINE
  5
2E4
330
46E
100
AcDbEntity
  8
0
100
AcDbLine
 10
790.812575047
 20
162.1167642330354
 30
0.0
 11
790.812575047
 21
72.11676423303541
 31
0.0
  0
LINE
  5
2E5
330
46E
100
AcDbEntity
  8
0
100
AcDbLine
 10
815.8750750470002
 20
162.1167642330354
 30
0.0
 11
815.8750750470002
 21
72.11676423303547
 31
0.0
  0
LINE
  5
2E6
330
46E
100
AcDbEntity
  8
0
100
AcDbLine
 10
816.9375750470001
 20
162.1167642330354
 30
0.0
 11
816.9375750470001
 21
72.11676423303547
 31
0.0
  0
LINE
  5
2E7
330
46E
100
AcDbEntity
  8
0
100
AcDbLine
 10
791.875075047
 20
303.1167642330355
 30
0.0
 11
791.875075047
 21
255.1167642330354
 31
0.0
  0
LINE
  5
2E8
330
46E
100
AcDbEntity
  8
0
100
AcDbLine
 10
790.812575047
 20
303.1167642330355
 30
0.0
 11
790.812575047
 21
255.1167642330354
 31
0.0
  0
LINE
  5
2E9
330
46E
100
AcDbEntity
  8
0
100
AcDbLine
 10
592.1547528892131
 20
316.6654807145724
 30
0.0
 11
592.1547528892131
 21
72.11676423303535
 31
0.0
  0
LINE
  5
2EA
330
46E
100
AcDbEntity
  8
0
100
AcDbLine
 10
598.154752889213
 20
305.1167642330355
 30
0.0
 11
598.1547528892132
 21
299.1167642330355
 31
0.0
  0
LINE
  5
2EB
330
46E
100
AcDbEntity
  8
0
100
AcDbLine
 10
616.1547528892131
 20
72.11676423303535
 30
0.0
 11
592.1547528892131
 21
72.11676423303535
 31
0.0
  0
LINE
  5
2EC
330
46E
100
AcDbEntity
  8
0
100
AcDbLine
 10
631.4047528892132
 20
164.1167642330353
 30
0.0
 11
631.4047528892132
 21
162.1167642330353
 31
0.0
  0
LINE
  5
2ED
330
46E
100
AcDbEntity
  8
0
100
AcDbLine
 10
631.4047528892132
 20
162.1167642330353
 30
0.0
 11
598.154752889213
 21
162.1167642330354
 31
0.0
  0
LINE
  5
2EE
330
46E
100
AcDbEntity
  8
0
100
AcDbLine
 10
631.4047528892132
 20
164.1167642330354
 30
0.0
 11
598.154752889213
 21
164.1167642330354
 31
0.0
  0
LINE
  5
2EF
330
46E
100
AcDbEntity
  8
0
100
AcDbLine
 10
627.4047528892131
 20
212.1167642330354
 30
0.0
 11
598.154752889213
 21
212.1167642330354
 31
0.0
  0
LINE
  5
2F0
330
46E
100
AcDbEntity
  8
0
100
AcDbLine
 10
627.4047528892131
 20
210.1167642330354
 30
0.0
 11
598.154752889213
 21
210.1167642330354
 31
0.0
  0
LINE
  5
2F1
330
46E
100
AcDbEntity
  8
0
100
AcDbLine
 10
627.4047528892131
 20
212.1167642330354
 30
0.0
 11
627.4047528892131
 21
210.1167642330354
 31
0.0
  0
LINE
  5
2F2
330
46E
100
AcDbEntity
  8
0
100
AcDbLine
 10
627.154752889213
 20
253.1167642330354
 30
0.0
 11
627.154752889213
 21
212.1167642330354
 31
0.0
  0
LINE
  5
2F3
330
46E
100
AcDbEntity
  8
0
100
AcDbLine
 10
626.9047528892131
 20
253.1167642330354
 30
0.0
 11
626.9047528892131
 21
212.1167642330354
 31
0.0
  0
LINE
  5
2F4
330
46E
100
AcDbEntity
  8
0
100
AcDbLine
 10
631.1547528892132
 20
164.1167642330353
 30
0.0
 11
627.154752889213
 21
210.1167642330354
 31
0.0
  0
LINE
  5
2F5
330
46E
100
AcDbEntity
  8
0
100
AcDbLine
 10
626.9047528892131
 20
210.1167642330354
 30
0.0
 11
630.9047528892132
 21
164.1167642330353
 31
0.0
  0
LINE
  5
2F6
330
46E
100
AcDbEntity
  8
0
100
AcDbLine
 10
627.4047528892131
 20
255.1167642330354
 30
0.0
 11
598.154752889213
 21
255.1167642330354
 31
0.0
  0
LINE
  5
2F7
330
46E
100
AcDbEntity
  8
0
100
AcDbLine
 10
627.4047528892131
 20
253.1167642330354
 30
0.0
 11
598.154752889213
 21
253.1167642330354
 31
0.0
  0
LINE
  5
2F8
330
46E
100
AcDbEntity
  8
0
100
AcDbLine
 10
627.4047528892131
 20
253.1167642330354
 30
0.0
 11
627.4047528892131
 21
255.1167642330354
 31
0.0
  0
LINE
  5
2F9
330
46E
100
AcDbEntity
  8
0
100
AcDbLine
 10
627.4047528892131
 20
303.1167642330355
 30
0.0
 11
598.1547528892132
 21
303.1167642330355
 31
0.0
  0
LINE
  5
2FA
330
46E
100
AcDbEntity
  8
0
100
AcDbLine
 10
627.4047528892131
 20
305.1167642330355
 30
0.0
 11
598.154752889213
 21
305.1167642330355
 31
0.0
  0
LINE
  5
2FB
330
46E
100
AcDbEntity
  8
0
100
AcDbLine
 10
627.4047528892131
 20
303.1167642330355
 30
0.0
 11
627.4047528892131
 21
305.1167642330355
 31
0.0
  0
LINE
  5
2FC
330
46E
100
AcDbEntity
  8
0
100
AcDbLine
 10
600.6547528892131
 20
303.1167642330354
 30
0.0
 11
600.6547528892131
 21
255.1167642330354
 31
0.0
  0
LINE
  5
2FD
330
46E
100
AcDbEntity
  8
0
100
AcDbLine
 10
600.6547528892131
 20
253.1167642330354
 30
0.0
 11
600.6547528892131
 21
212.1167642330354
 31
0.0
  0
LINE
  5
2FE
330
46E
100
AcDbEntity
  8
0
100
AcDbLine
 10
600.6547528892131
 20
210.1167642330354
 30
0.0
 11
600.6547528892131
 21
164.1167642330354
 31
0.0
  0
LINE
  5
2FF
330
46E
100
AcDbEntity
  8
0
100
AcDbLine
 10
600.6547528892131
 20
162.1167642330353
 30
0.0
 11
600.6547528892131
 21
72.11676423303541
 31
0.0
  0
LINE
  5
300
330
46E
100
AcDbEntity
  8
0
100
AcDbLine
 10
626.9047528892131
 20
303.1167642330355
 30
0.0
 11
626.9047528892131
 21
255.1167642330354
 31
0.0
  0
LINE
  5
301
330
46E
100
AcDbEntity
  8
0
100
AcDbLine
 10
627.154752889213
 20
303.1167642330355
 30
0.0
 11
627.154752889213
 21
255.1167642330354
 31
0.0
  0
LINE
  5
302
330
46E
100
AcDbEntity
  8
0
100
AcDbLine
 10
620.1134364109209
 20
303.1167642330355
 30
0.0
 11
620.1134364109209
 21
255.1167642330354
 31
0.0
  0
LINE
  5
303
330
46E
100
AcDbEntity
  8
0
100
AcDbLine
 10
618.1692476949464
 20
303.1167642330355
 30
0.0
 11
618.1692476949464
 21
255.1167642330354
 31
0.0
  0
LINE
  5
304
330
46E
100
AcDbEntity
  8
0
100
AcDbLine
 10
608.633662844642
 20
303.1167642330355
 30
0.0
 11
608.633662844642
 21
255.1167642330354
 31
0.0
  0
LINE
  5
305
330
46E
100
AcDbEntity
  8
0
100
AcDbLine
 10
606.6894741286675
 20
303.1167642330355
 30
0.0
 11
606.6894741286675
 21
255.1167642330354
 31
0.0
  0
LINE
  5
306
330
46E
100
AcDbEntity
  8
0
100
AcDbLine
 10
608.633662844642
 20
210.1167642330354
 30
0.0
 11
608.633662844642
 21
164.1167642330354
 31
0.0
  0
LINE
  5
307
330
46E
100
AcDbEntity
  8
0
100
AcDbLine
 10
606.6894741286675
 20
210.1167642330354
 30
0.0
 11
606.6894741286675
 21
164.1167642330354
 31
0.0
  0
LINE
  5
308
330
46E
100
AcDbEntity
  8
0
100
AcDbLine
 10
618.1692476949464
 20
210.1167642330354
 30
0.0
 11
618.1692476949464
 21
164.1167642330354
 31
0.0
  0
LINE
  5
309
330
46E
100
AcDbEntity
  8
0
100
AcDbLine
 10
620.1134364109209
 20
210.1167642330354
 30
0.0
 11
620.1134364109209
 21
164.1167642330354
 31
0.0
  0
LINE
  5
30A
330
46E
100
AcDbEntity
  8
0
100
AcDbLine
 10
620.1134364109209
 20
253.1167642330354
 30
0.0
 11
620.1134364109209
 21
212.1167642330354
 31
0.0
  0
LINE
  5
30B
330
46E
100
AcDbEntity
  8
0
100
AcDbLine
 10
618.1692476949464
 20
253.1167642330354
 30
0.0
 11
618.1692476949464
 21
212.1167642330354
 31
0.0
  0
LINE
  5
30C
330
46E
100
AcDbEntity
  8
0
100
AcDbLine
 10
608.633662844642
 20
253.1167642330354
 30
0.0
 11
608.633662844642
 21
212.1167642330354
 31
0.0
  0
LINE
  5
30D
330
46E
100
AcDbEntity
  8
0
100
AcDbLine
 10
606.6894741286675
 20
253.1167642330354
 30
0.0
 11
606.6894741286675
 21
212.1167642330354
 31
0.0
  0
LINE
  5
30E
330
46E
100
AcDbEntity
  8
0
100
AcDbLine
 10
813.0396976456117
 20
305.1167642330355
 30
0.0
 11
815.8750750470002
 21
305.1167642330355
 31
0.0
  0
LINE
  5
310
330
46E
100
AcDbEntity
  8
0
100
AcDbLine
 10
600.6547528892132
 20
299.1167642330355
 30
0.0
 11
592.1547528892131
 21
299.1167642330355
 31
0.0
  0
LINE
  5
311
330
46E
100
AcDbEntity
  8
0
100
AcDbLine
 10
600.6547528892132
 20
296.1167642330354
 30
0.0
 11
592.1547528892131
 21
296.1167642330354
 31
0.0
  0
LINE
  5
312
330
46E
100
AcDbEntity
  8
0
100
AcDbLine
 10
600.6547528892132
 20
251.1167642330354
 30
0.0
 11
592.1547528892131
 21
251.1167642330354
 31
0.0
  0
LINE
  5
313
330
46E
100
AcDbEntity
  8
0
100
AcDbLine
 10
600.6547528892132
 20
248.1167642330354
 30
0.0
 11
592.1547528892131
 21
248.1167642330354
 31
0.0
  0
LINE
  5
314
330
46E
100
AcDbEntity
  8
0
100
AcDbLine
 10
598.1547528892132
 20
296.1167642330354
 30
0.0
 11
598.1547528892132
 21
251.1167642330354
 31
0.0
  0
LINE
  5
315
330
46E
100
AcDbEntity
  8
0
100
AcDbLine
 10
598.1547528892132
 20
248.1167642330354
 30
0.0
 11
598.1547528892132
 21
203.1167642330354
 31
0.0
  0
DIMENSION
  5
316
330
46E
100
AcDbEntity
  8
0
100
AcDbDimension
  2
*D9
 10
851.1416869428655
 20
305.1167642330355
 30
0.0
 11
851.1416869428654
 21
281.1167642330356
 31
0.0
 70
    32
  1
4'-0"
 71
     5
 42
48.00000000000006
  3
STANDARD
100
AcDbAlignedDimension
 13
815.8750750470002
 23
257.1167642330354
 33
0.0
 14
816.9375750470001
 24
305.1167642330355
 34
0.0
 50
90.0
100
AcDbRotatedDimension
  0
DIMENSION
  5
317
330
46E
100
AcDbEntity
  8
0
100
AcDbDimension
  2
*D3
 10
645.1390041677441
 20
210.1167642330354
 30
0.0
 11
645.1390041677441
 21
186.1167642330354
 31
0.0
 70
    32
  1
4' TYP
 71
     5
 42
48.00000000000003
  3
STANDARD
100
AcDbAlignedDimension
 13
631.4047528892132
 23
162.1167642330353
 33
0.0
 14
627.4047528892131
 24
210.1167642330354
 34
0.0
 50
90.0
100
AcDbRotatedDimension
  0
DIMENSION
  5
318
330
46E
100
AcDbEntity
  8
0
100
AcDbDimension
  2
*D5
 10
574.6500313380468
 20
299.1167642330355
 30
0.0
 11
575.3362623720306
 21
301.9578321329624
 31
0.0
 70
   160
 71
     5
 42
6.0
  3
STANDARD
100
AcDbAlignedDimension
 13
598.154752889213
 23
305.1167642330355
 33
0.0
 14
592.1547528892131
 24
299.1167642330355
 34
0.0
 50
90.0
100
AcDbRotatedDimension
  0
DIMENSION
  5
319
330
46E
100
AcDbEntity
  8
0
100
AcDbDimension
  2
*D6
 10
574.6500313380468
 20
251.1167642330355
 30
0.0
 11
574.6500313380468
 21
275.1167642330355
 31
0.0
 70
    32
  1
4' TYP
 71
     5
 42
48.0
  3
STANDARD
100
AcDbAlignedDimension
 13
592.1547528892131
 23
299.1167642330355
 33
0.0
 14
592.1547528892131
 24
251.1167642330354
 34
0.0
 50
90.0
100
AcDbRotatedDimension
  0
TEXT
  5
31A
330
46E
100
AcDbEntity
  8
0
100
AcDbText
 10
749.3038215990345
 20
237.7320906126982
 30
0.0
 40
3.0954
  1
1/4" x 2"
  7
ROMANS
100
AcDbText
  0
TEXT
  5
31B
330
46E
100
AcDbEntity
  8
0
100
AcDbText
 10
746.5074817078005
 20
232.7204906126981
 30
0.0
 40
3.0954
  1
SAFETY CAGE
  7
ROMANS
100
AcDbText
  0
TEXT
  5
31C
330
46E
100
AcDbEntity
  8
0
100
AcDbText
 10
749.3038215990345
 20
227.7088906126981
 30
0.0
 40
3.0954
  1
(6005-T5)
  7
ROMANS
100
AcDbText
  0
TEXT
  5
31D
330
46E
100
AcDbEntity
  8
0
100
AcDbText
 10
740.1520488592102
 20
145.0715263948362
 30
0.0
 40
3.0954
  1
2-1/2" ALUMINUM
  7
ROMANS
100
AcDbText
  0
TEXT
  5
31E
330
46E
100
AcDbEntity
  8
0
100
AcDbText
 10
740.1520488592102
 20
140.0599263948362
 30
0.0
 40
3.0954
  1
CHANNEL SIDERAIL
  7
ROMANS
100
AcDbText
  0
TEXT
  5
31F
330
46E
100
AcDbEntity
  8
0
100
AcDbText
 10
749.0071262702624
 20
135.0483263948362
 30
0.0
 40
3.0954
  1
(6005-T5)
  7
ROMANS
100
AcDbText
  0
TEXT
  5
320
330
46E
100
AcDbEntity
  8
0
100
AcDbText
 10
738.7782491081726
 20
102.5920858481378
 30
0.0
 40
3.0954
  1
2-1/4" SERRATED
  7
ROMANS
100
AcDbText
  0
TEXT
  5
321
330
46E
100
AcDbEntity
  8
0
100
AcDbText
 10
741.1085325686298
 20
97.58048584813778
 30
0.0
 40
3.0954
  1
ALUMINUM RUNG
  7
ROMANS
100
AcDbText
  0
TEXT
  5
322
330
46E
100
AcDbEntity
  8
0
100
AcDbText
 10
749.0314958115547
 20
92.56888584813779
 30
0.0
 40
3.0954
  1
(6005-T5)
  7
ROMANS
100
AcDbText
  0
SOLID
  5
323
330
46E
100
AcDbEntity
  8
0
100
AcDbTrace
 10
789.0217380964929
 20
133.2163175466409
 30
0.0
 11
788.6291188897636
 21
132.553935362017
 31
0.0
 12
790.812575047
 22
131.7072688341408
 32
0.0
 13
790.812575047
 23
131.7072688341408
 33
0.0
  0
LINE
  5
324
330
46E
100
AcDbEntity
  8
0
100
AcDbLine
 10
788.8254284931283
 20
132.885126454329
 30
0.0
 11
782.8338039028356
 21
136.4365910744055
 31
0.0
  0
LINE
  5
325
330
46E
100
AcDbEntity
  8
0
100
AcDbLine
 10
782.8338039028356
 20
136.4365910744055
 30
0.0
 11
775.2042231897121
 21
136.4365910744056
 31
0.0
  0
SOLID
  5
326
330
46E
100
AcDbEntity
  8
0
100
AcDbTrace
 10
800.3988017980596
 20
90.62581294553552
 30
0.0
 11
800.0061825913302
 21
89.96343076091159
 31
0.0
 12
802.1896387485666
 22
89.11676423303541
 32
0.0
 13
802.1896387485666
 23
89.11676423303541
 33
0.0
  0
LINE
  5
327
330
46E
100
AcDbEntity
  8
0
100
AcDbLine
 10
800.2024921946949
 20
90.29462185322358
 30
0.0
 11
794.2108676044022
 21
93.84608647330015
 31
0.0
  0
LINE
  5
328
330
46E
100
AcDbEntity
  8
0
100
AcDbLine
 10
794.2108676044022
 20
93.84608647330015
 30
0.0
 11
775.0792560873265
 21
93.84608647330015
 31
0.0
  0
LINE
  5
329
330
46E
100
AcDbEntity
  8
0
100
AcDbLine
 10
780.5716409324782
 20
228.83221811346
 30
0.0
 11
775.2723423732377
 21
228.8322181134601
 31
0.0
  0
LINE
  5
32A
330
46E
100
AcDbEntity
  8
0
100
AcDbLine
 10
786.563265522771
 20
225.2807534933834
 30
0.0
 11
780.5716409324782
 21
228.83221811346
 31
0.0
  0
SOLID
  5
32B
330
46E
100
AcDbEntity
  8
0
100
AcDbTrace
 10
786.7595751261355
 20
225.6119445856954
 30
0.0
 11
786.3669559194062
 21
224.9495624010714
 31
0.0
 12
788.5504120766427
 22
224.1028958731952
 32
0.0
 13
788.5504120766427
 23
224.1028958731952
 33
0.0
  0
DIMENSION
  5
32C
330
46E
100
AcDbEntity
  8
0
100
AcDbDimension
  2
*D8
 10
830.7536317971148
 20
113.1167642330354
 30
0.0
 11
831.1497638516524
 21
119.2160186567439
 31
0.0
 70
   160
  1
12" TYP
 71
     5
 42
12.0
  3
STANDARD
100
AcDbAlignedDimension
 13
815.8750750470002
 23
125.1167642330354
 33
0.0
 14
815.8750750470002
 24
113.1167642330354
 34
0.0
 50
90.0
100
AcDbRotatedDimension
  0
TEXT
  5
3B6
330
46E
100
AcDbEntity
  8
0
100
AcDbText
 10
824.8916496432585
 20
295.9152307718893
 30
0.0
 40
3.0954
  1
SIDE EXIT
  7
ROMANS
100
AcDbText
  0
TEXT
  5
3B7
330
46E
100
AcDbEntity
  8
0
100
AcDbText
 10
824.8916496432585
 20
290.9036307718892
 30
0.0
 40
3.0954
  1
TO RIGHT
  7
ROMANS
100
AcDbText
  0
TEXT
  5
3B8
330
46E
100
AcDbEntity
  8
0
100
AcDbText
 10
715.5414115833904
 20
282.3042640099946
 30
0.0
 40
3.0954
  1
BREAK TOP RING
  7
ROMANS
100
AcDbText
  0
TEXT
  5
3B9
330
46E
100
AcDbEntity
  8
0
100
AcDbText
 10
718.6183309176794
 20
277.2926640099945
 30
0.0
 40
3.0954
  1
FOR SIDE EXIT
  7
ROMANS
100
AcDbText
  0
LINE
  5
3BA
330
46E
100
AcDbEntity
  8
0
100
AcDbLine
 10
713.372850354237
 20
272.8723635156943
 30
0.0
 11
709.8213857341605
 21
278.8639881059869
 31
0.0
  0
SOLID
  5
3BB
330
46E
100
AcDbEntity
  8
0
100
AcDbTrace
 10
713.0416592619251
 20
272.6760539123295
 30
0.0
 11
713.704041446549
 21
273.0686731190589
 31
0.0
 12
714.5507079744252
 22
270.8852169618224
 32
0.0
 13
714.5507079744252
 23
270.8852169618224
 33
0.0
  0
LINE
  5
3BC
330
46E
100
AcDbEntity
  8
0
100
AcDbLine
 10
709.8213857341605
 20
278.8639881059869
 30
0.0
 11
717.4250562518237
 21
278.863988105987
 31
0.0
  0
DIMENSION
  5
3BE
330
46E
100
AcDbEntity
  8
0
100
AcDbDimension
  2
*D4
 10
645.1390041677441
 20
162.1167642330353
 30
0.0
 11
645.1390041677441
 21
117.1167642330354
 31
0.0
 70
    32
 71
     5
 42
90.0
  3
STANDARD
100
AcDbAlignedDimension
 13
616.1547528892131
 23
72.11676423303535
 33
0.0
 14
631.4047528892132
 24
162.1167642330353
 34
0.0
 50
90.0
100
AcDbRotatedDimension
  0
LINE
  5
3BF
330
46E
100
AcDbEntity
  8
0
100
AcDbLine
 10
811.3621198150635
 20
220.3667642330354
 30
0.0
 11
804.875075047
 21
220.3667642330354
 31
0.0
  0
LINE
  5
3C0
330
46E
100
AcDbEntity
  8
0
100
AcDbLine
 10
811.3621198150635
 20
221.1167642330354
 30
0.0
 11
804.875075047
 21
221.1167642330354
 31
0.0
  0
LINE
  5
3C1
330
46E
100
AcDbEntity
  8
0
100
AcDbLine
 10
802.8750750470001
 20
220.3667642330354
 30
0.0
 11
796.3880302789366
 21
220.3667642330354
 31
0.0
  0
LINE
  5
3C2
330
46E
100
AcDbEntity
  8
0
100
AcDbLine
 10
802.8750750470001
 20
221.1167642330354
 30
0.0
 11
796.3880302789366
 21
221.1167642330354
 31
0.0
  0
LINE
  5
3C3
330
46E
100
AcDbEntity
  8
0
100
AcDbLine
 10
794.7104524483886
 20
220.3667642330354
 30
0.0
 11
791.875075047
 21
220.3667642330354
 31
0.0
  0
LINE
  5
3C4
330
46E
100
AcDbEntity
  8
0
100
AcDbLine
 10
794.7104524483886
 20
221.1167642330354
 30
0.0
 11
791.875075047
 21
221.1167642330354
 31
0.0
  0
LINE
  5
3C5
330
46E
100
AcDbEntity
  8
0
100
AcDbLine
 10
815.8750750470002
 20
220.3667642330354
 30
0.0
 11
813.0396976456115
 21
220.3667642330354
 31
0.0
  0
LINE
  5
3C6
330
46E
100
AcDbEntity
  8
0
100
AcDbLine
 10
815.8750750470002
 20
221.1167642330354
 30
0.0
 11
813.0396976456115
 21
221.1167642330354
 31
0.0
  0
DIMENSION
  5
3C8
330
46E
100
AcDbEntity
  8
0
100
AcDbDimension
  2
*D7
 10
790.812575047
 20
65.54071192286944
 30
0.0
 11
803.8750750470001
 21
65.54071192286944
 31
0.0
 70
    32
  1
26-1/8"
 71
     5
 42
26.125
  3
STANDARD
100
AcDbAlignedDimension
 13
816.9375750470001
 23
72.11676423303552
 33
0.0
 14
790.812575047
 24
72.11676423303541
 34
0.0
100
AcDbRotatedDimension
  0
LINE
  5
3C9
330
46E
100
AcDbEntity
  8
0
100
AcDbLine
 10
811.3621198150635
 20
232.3667642330354
 30
0.0
 11
804.875075047
 21
232.3667642330354
 31
0.0
  0
LINE
  5
3CA
330
46E
100
AcDbEntity
  8
0
100
AcDbLine
 10
811.3621198150635
 20
233.1167642330354
 30
0.0
 11
804.875075047
 21
233.1167642330354
 31
0.0
  0
LINE
  5
3CB
330
46E
100
AcDbEntity
  8
0
100
AcDbLine
 10
802.8750750470001
 20
232.3667642330354
 30
0.0
 11
796.3880302789366
 21
232.3667642330354
 31
0.0
  0
LINE
  5
3CC
330
46E
100
AcDbEntity
  8
0
100
AcDbLine
 10
802.8750750470001
 20
233.1167642330354
 30
0.0
 11
796.3880302789366
 21
233.1167642330354
 31
0.0
  0
LINE
  5
3CD
330
46E
100
AcDbEntity
  8
0
100
AcDbLine
 10
794.7104524483886
 20
232.3667642330354
 30
0.0
 11
791.875075047
 21
232.3667642330354
 31
0.0
  0
LINE
  5
3CE
330
46E
100
AcDbEntity
  8
0
100
AcDbLine
 10
794.7104524483886
 20
233.1167642330354
 30
0.0
 11
791.875075047
 21
233.1167642330354
 31
0.0
  0
LINE
  5
3CF
330
46E
100
AcDbEntity
  8
0
100
AcDbLine
 10
815.8750750470002
 20
232.3667642330354
 30
0.0
 11
813.0396976456115
 21
232.3667642330354
 31
0.0
  0
LINE
  5
3D0
330
46E
100
AcDbEntity
  8
0
100
AcDbLine
 10
815.8750750470002
 20
233.1167642330354
 30
0.0
 11
813.0396976456115
 21
233.1167642330354
 31
0.0
  0
LINE
  5
3D1
330
46E
100
AcDbEntity
  8
0
100
AcDbLine
 10
815.8750750470002
 20
208.3667642330354
 30
0.0
 11
813.1058306604636
 21
208.3667642330354
 31
0.0
  0
LINE
  5
3D2
330
46E
100
AcDbEntity
  8
0
100
AcDbLine
 10
815.8750750470002
 20
209.1167642330354
 30
0.0
 11
813.0774879398128
 21
209.1167642330354
 31
0.0
  0
LINE
  5
3D3
330
46E
100
AcDbEntity
  8
0
100
AcDbLine
 10
815.8750750470002
 20
196.3667642330354
 30
0.0
 11
813.5593141908772
 21
196.3667642330354
 31
0.0
  0
LINE
  5
3D4
330
46E
100
AcDbEntity
  8
0
100
AcDbLine
 10
815.8750750470002
 20
197.1167642330354
 30
0.0
 11
813.5309714702264
 21
197.1167642330354
 31
0.0
  0
LINE
  5
3D5
330
46E
100
AcDbEntity
  8
0
100
AcDbLine
 10
815.8750750470002
 20
184.3667642330354
 30
0.0
 11
814.0127977212909
 21
184.3667642330354
 31
0.0
  0
LINE
  5
3D6
330
46E
100
AcDbEntity
  8
0
100
AcDbLine
 10
815.8750750470002
 20
185.1167642330354
 30
0.0
 11
813.9844550006401
 21
185.1167642330354
 31
0.0
  0
LINE
  5
3D7
330
46E
100
AcDbEntity
  8
0
100
AcDbLine
 10
815.8750750470002
 20
172.3667642330354
 30
0.0
 11
814.4662812517045
 21
172.3667642330354
 31
0.0
  0
LINE
  5
3D8
330
46E
100
AcDbEntity
  8
0
100
AcDbLine
 10
815.8750750470002
 20
173.1167642330354
 30
0.0
 11
814.4379385310537
 21
173.1167642330354
 31
0.0
  0
LINE
  5
3D9
330
46E
100
AcDbEntity
  8
0
100
AcDbLine
 10
815.8750750470002
 20
160.3667642330354
 30
0.0
 11
791.875075047
 21
160.3667642330354
 31
0.0
  0
LINE
  5
3DA
330
46E
100
AcDbEntity
  8
0
100
AcDbLine
 10
815.8750750470002
 20
161.1167642330354
 30
0.0
 11
791.875075047
 21
161.1167642330354
 31
0.0
  0
LINE
  5
3DB
330
46E
100
AcDbEntity
  8
0
100
AcDbLine
 10
815.8750750470002
 20
148.3667642330354
 30
0.0
 11
791.875075047
 21
148.3667642330354
 31
0.0
  0
LINE
  5
3DC
330
46E
100
AcDbEntity
  8
0
100
AcDbLine
 10
815.8750750470002
 20
149.1167642330354
 30
0.0
 11
791.875075047
 21
149.1167642330354
 31
0.0
  0
LINE
  5
3DD
330
46E
100
AcDbEntity
  8
0
100
AcDbLine
 10
815.8750750470002
 20
136.3667642330354
 30
0.0
 11
791.875075047
 21
136.3667642330354
 31
0.0
  0
LINE
  5
3DE
330
46E
100
AcDbEntity
  8
0
100
AcDbLine
 10
815.8750750470002
 20
137.1167642330354
 30
0.0
 11
791.875075047
 21
137.1167642330354
 31
0.0
  0
LINE
  5
3DF
330
46E
100
AcDbEntity
  8
0
100
AcDbLine
 10
815.8750750470002
 20
124.3667642330354
 30
0.0
 11
791.875075047
 21
124.3667642330354
 31
0.0
  0
LINE
  5
3E0
330
46E
100
AcDbEntity
  8
0
100
AcDbLine
 10
815.8750750470002
 20
125.1167642330354
 30
0.0
 11
791.875075047
 21
125.1167642330354
 31
0.0
  0
LINE
  5
3E1
330
46E
100
AcDbEntity
  8
0
100
AcDbLine
 10
815.8750750470002
 20
112.3667642330354
 30
0.0
 11
791.875075047
 21
112.3667642330354
 31
0.0
  0
LINE
  5
3E2
330
46E
100
AcDbEntity
  8
0
100
AcDbLine
 10
815.8750750470002
 20
113.1167642330354
 30
0.0
 11
791.875075047
 21
113.1167642330354
 31
0.0
  0
LINE
  5
3E3
330
46E
100
AcDbEntity
  8
0
100
AcDbLine
 10
815.8750750470002
 20
100.3667642330354
 30
0.0
 11
791.875075047
 21
100.3667642330354
 31
0.0
  0
LINE
  5
3E4
330
46E
100
AcDbEntity
  8
0
100
AcDbLine
 10
815.8750750470002
 20
101.1167642330354
 30
0.0
 11
791.875075047
 21
101.1167642330354
 31
0.0
  0
LINE
  5
3E5
330
46E
100
AcDbEntity
  8
0
100
AcDbLine
 10
815.8750750470002
 20
88.36676423303542
 30
0.0
 11
791.875075047
 21
88.36676423303542
 31
0.0
  0
LINE
  5
3E6
330
46E
100
AcDbEntity
  8
0
100
AcDbLine
 10
815.8750750470002
 20
89.11676423303541
 30
0.0
 11
791.875075047
 21
89.11676423303541
 31
0.0
  0
LINE
  5
3E7
330
46E
100
AcDbEntity
  8
0
100
AcDbLine
 10
815.8750750470002
 20
76.36676423303541
 30
0.0
 11
791.875075047
 21
76.36676423303541
 31
0.0
  0
LINE
  5
3E8
330
46E
100
AcDbEntity
  8
0
100
AcDbLine
 10
815.8750750470002
 20
77.11676423303541
 30
0.0
 11
791.875075047
 21
77.11676423303541
 31
0.0
  0
LINE
  5
3E9
330
46E
100
AcDbEntity
  8
0
100
AcDbLine
 10
793.3122115629465
 20
173.1167642330354
 30
0.0
 11
791.875075047
 21
173.1167642330354
 31
0.0
  0
LINE
  5
3EA
330
46E
100
AcDbEntity
  8
0
100
AcDbLine
 10
793.2838688422956
 20
172.3667642330354
 30
0.0
 11
791.875075047
 21
172.3667642330354
 31
0.0
  0
LINE
  5
3EB
330
46E
100
AcDbEntity
  8
0
100
AcDbLine
 10
793.7656950933601
 20
185.1167642330354
 30
0.0
 11
791.875075047
 21
185.1167642330354
 31
0.0
  0
LINE
  5
3EC
330
46E
100
AcDbEntity
  8
0
100
AcDbLine
 10
793.7373523727093
 20
184.3667642330354
 30
0.0
 11
791.875075047
 21
184.3667642330354
 31
0.0
  0
LINE
  5
3ED
330
46E
100
AcDbEntity
  8
0
100
AcDbLine
 10
794.2191786237738
 20
197.1167642330354
 30
0.0
 11
791.875075047
 21
197.1167642330354
 31
0.0
  0
LINE
  5
3EE
330
46E
100
AcDbEntity
  8
0
100
AcDbLine
 10
794.190835903123
 20
196.3667642330354
 30
0.0
 11
791.875075047
 21
196.3667642330354
 31
0.0
  0
LINE
  5
3EF
330
46E
100
AcDbEntity
  8
0
100
AcDbLine
 10
802.8750750470001
 20
184.3667642330354
 30
0.0
 11
795.362816024986
 21
184.3667642330354
 31
0.0
  0
LINE
  5
3F0
330
46E
100
AcDbEntity
  8
0
100
AcDbLine
 10
802.8750750470001
 20
185.1167642330354
 30
0.0
 11
795.3926766343244
 21
185.1167642330354
 31
0.0
  0
LINE
  5
3F1
330
46E
100
AcDbEntity
  8
0
100
AcDbLine
 10
802.8750750470001
 20
172.3667642330354
 30
0.0
 11
794.8850462755721
 21
172.3667642330354
 31
0.0
  0
LINE
  5
3F2
330
46E
100
AcDbEntity
  8
0
100
AcDbLine
 10
802.8750750470001
 20
173.1167642330354
 30
0.0
 11
794.9149068849104
 21
173.1167642330354
 31
0.0
  0
LINE
  5
3F3
330
46E
100
AcDbEntity
  8
0
100
AcDbLine
 10
802.8750750470001
 20
196.3667642330354
 30
0.0
 11
795.8405857743998
 21
196.3667642330354
 31
0.0
  0
LINE
  5
3F4
330
46E
100
AcDbEntity
  8
0
100
AcDbLine
 10
802.8750750470001
 20
197.1167642330354
 30
0.0
 11
795.8704463837383
 21
197.1167642330354
 31
0.0
  0
LINE
  5
3F5
330
46E
100
AcDbEntity
  8
0
100
AcDbLine
 10
812.8352432090897
 20
173.1167642330354
 30
0.0
 11
804.875075047
 21
173.1167642330354
 31
0.0
  0
LINE
  5
3F6
330
46E
100
AcDbEntity
  8
0
100
AcDbLine
 10
812.8651038184282
 20
172.3667642330354
 30
0.0
 11
804.875075047
 21
172.3667642330354
 31
0.0
  0
LINE
  5
3F7
330
46E
100
AcDbEntity
  8
0
100
AcDbLine
 10
812.3574734596759
 20
185.1167642330354
 30
0.0
 11
804.875075047
 21
185.1167642330354
 31
0.0
  0
LINE
  5
3F8
330
46E
100
AcDbEntity
  8
0
100
AcDbLine
 10
812.3873340690142
 20
184.3667642330354
 30
0.0
 11
804.875075047
 21
184.3667642330354
 31
0.0
  0
LINE
  5
3F9
330
46E
100
AcDbEntity
  8
0
100
AcDbLine
 10
811.879703710262
 20
197.1167642330354
 30
0.0
 11
804.875075047
 21
197.1167642330354
 31
0.0
  0
LINE
  5
3FA
330
46E
100
AcDbEntity
  8
0
100
AcDbLine
 10
811.9095643196002
 20
196.3667642330354
 30
0.0
 11
804.875075047
 21
196.3667642330354
 31
0.0
  0
LINE
  5
3FB
330
46E
100
AcDbEntity
  8
0
100
AcDbLine
 10
811.401933960848
 20
209.1167642330354
 30
0.0
 11
804.875075047
 21
209.1167642330354
 31
0.0
  0
LINE
  5
3FC
330
46E
100
AcDbEntity
  8
0
100
AcDbLine
 10
811.4317945701865
 20
208.3667642330354
 30
0.0
 11
804.875075047
 21
208.3667642330354
 31
0.0
  0
LINE
  5
3FD
330
46E
100
AcDbEntity
  8
0
100
AcDbLine
 10
802.8750750470001
 20
208.3667642330354
 30
0.0
 11
796.3183555238138
 21
208.3667642330354
 31
0.0
  0
LINE
  5
3FE
330
46E
100
AcDbEntity
  8
0
100
AcDbLine
 10
802.8750750470001
 20
209.1167642330354
 30
0.0
 11
796.3482161331521
 21
209.1167642330354
 31
0.0
  0
LINE
  5
3FF
330
46E
100
AcDbEntity
  8
0
100
AcDbLine
 10
794.6726621541874
 20
209.1167642330354
 30
0.0
 11
791.875075047
 21
209.1167642330354
 31
0.0
  0
LINE
  5
400
330
46E
100
AcDbEntity
  8
0
100
AcDbLine
 10
794.6443194335366
 20
208.3667642330354
 30
0.0
 11
791.875075047
 21
208.3667642330354
 31
0.0
  0
LINE
  5
401
330
46E
100
AcDbEntity
  8
0
100
AcDbLine
 10
600.6547528892132
 20
203.1167642330354
 30
0.0
 11
592.1547528892131
 21
203.1167642330354
 31
0.0
  0
LINE
  5
402
330
46E
100
AcDbEntity
  8
0
100
AcDbLine
 10
600.6547528892132
 20
200.1167642330354
 30
0.0
 11
592.1547528892131
 21
200.1167642330354
 31
0.0
  0
LINE
  5
403
330
46E
100
AcDbEntity
  8
0
100
AcDbLine
 10
600.6547528892132
 20
155.1167642330354
 30
0.0
 11
592.1547528892131
 21
155.1167642330354
 31
0.0
  0
LINE
  5
404
330
46E
100
AcDbEntity
  8
0
100
AcDbLine
 10
600.6547528892132
 20
152.1167642330354
 30
0.0
 11
592.1547528892131
 21
152.1167642330354
 31
0.0
  0
LINE
  5
405
330
46E
100
AcDbEntity
  8
0
100
AcDbLine
 10
600.6547528892132
 20
104.1167642330354
 30
0.0
 11
592.1547528892131
 21
104.1167642330354
 31
0.0
  0
LINE
  5
406
330
46E
100
AcDbEntity
  8
0
100
AcDbLine
 10
600.6547528892132
 20
107.1167642330354
 30
0.0
 11
592.1547528892131
 21
107.1167642330354
 31
0.0
  0
LINE
  5
407
330
46E
100
AcDbEntity
  8
0
100
AcDbLine
 10
600.6547528892132
 20
83.11676423303541
 30
0.0
 11
592.1547528892131
 21
83.11676423303541
 31
0.0
  0
LINE
  5
408
330
46E
100
AcDbEntity
  8
0
100
AcDbLine
 10
600.6547528892132
 20
80.11676423303541
 30
0.0
 11
592.1547528892131
 21
80.11676423303541
 31
0.0
  0
LINE
  5
409
330
46E
100
AcDbEntity
  8
0
100
AcDbLine
 10
598.1547528892132
 20
152.1167642330354
 30
0.0
 11
598.1547528892132
 21
107.1167642330354
 31
0.0
  0
LINE
  5
40A
330
46E
100
AcDbEntity
  8
0
100
AcDbLine
 10
598.1547528892132
 20
104.1167642330354
 30
0.0
 11
598.1547528892132
 21
83.11676423303538
 31
0.0
  0
LINE
  5
40B
330
46E
100
AcDbEntity
  8
0
100
AcDbLine
 10
598.1547528892132
 20
80.11676423303541
 30
0.0
 11
598.1547528892132
 21
72.11676423303538
 31
0.0
  0
LINE
  5
40C
330
46E
100
AcDbEntity
  8
0
100
AcDbLine
 10
598.1547528892132
 20
200.1167642330354
 30
0.0
 11
598.1547528892132
 21
155.1167642330354
 31
0.0
  0
DIMENSION
  5
40E
330
46E
100
AcDbEntity
  8
0
100
AcDbDimension
  2
*D10
 10
782.4780650408317
 20
255.1167642330354
 30
0.0
 11
777.6476417648457
 21
262.7235082272052
 31
0.0
 70
   160
 71
     5
 42
1.999999999999971
  3
STANDARD
100
AcDbAlignedDimension
 13
791.875075047
 23
257.1167642330354
 33
0.0
 14
788.5504120766427
 24
255.1167642330354
 34
0.0
 50
90.0
100
AcDbRotatedDimension
  0
TEXT
  5
410
330
46E
100
AcDbEntity
  8
0
100
AcDbText
 10
823.0763499159662
 20
263.1526875977243
 30
0.0
 40
3.095399999999999
  1
MEZZANINE
  7
ROMANS
100
AcDbText
  0
TEXT
  5
411
330
46E
100
AcDbEntity
  8
0
100
AcDbText
 10
829.204080335246
 20
258.1410875977243
 30
0.0
 40
3.095399999999999
  1
LEVEL
  7
ROMANS
100
AcDbText
  0
TEXT
  5
412
330
46E
100
AcDbEntity
  8
0
100
AcDbText
 10
901.1020457135256
 20
102.1868730602859
 30
0.0
 40
3.0954
  1
NOTE:
  7
ROMANS
100
AcDbText
  0
TEXT
  5
413
330
46E
100
AcDbEntity
  8
0
100
AcDbText
 10
901.1020457135256
 20
97.17527306028589
 30
0.0
 40
3.0954
  1
ALL BOLTS/FASTENERS
  7
ROMANS
100
AcDbText
  0
TEXT
  5
414
330
46E
100
AcDbEntity
  8
0
100
AcDbText
 10
901.1020457135256
 20
92.1636730602859
 30
0.0
 40
3.0954
  1
NECESSARY TO ANCHOR
  7
ROMANS
100
AcDbText
  0
TEXT
  5
415
330
46E
100
AcDbEntity
  8
0
100
AcDbText
 10
901.1020457135256
 20
87.15207306028588
 30
0.0
 40
3.0954
  1
LADDER ARE BY OTHERS.
  7
ROMANS
100
AcDbText
  0
SOLID
  5
416
330
46E
100
AcDbEntity
  8
0
100
AcDbTrace
 10
819.1698383638978
 20
290.2238719543261
 30
0.0
 11
818.7301033119554
 21
290.8946705513015
 31
0.0
 12
816.9375750470001
 22
289.2400660969864
 32
0.0
 13
816.9375750470001
 23
289.2400660969864
 33
0.0
  0
LINE
  5
417
330
46E
100
AcDbEntity
  8
0
100
AcDbLine
 10
818.9499708379267
 20
290.5592712528139
 30
0.0
 11
821.949980811477
 21
292.5258966266522
 31
0.0
  0
LINE
  5
418
330
46E
100
AcDbEntity
  8
0
100
AcDbLine
 10
821.949980811477
 20
292.5258966266522
 30
0.0
 11
824.3562308114771
 21
292.5258966266522
 31
0.0
  0
INSERT
  5
42E
330
46E
100
AcDbEntity
  8
0
100
AcDbBlockReference
  2
LINETYPE
 10
0.0
 20
0.0
 30
0.0
  0
TEXT
  5
948
330
46E
100
AcDbEntity
  8
0
100
AcDbText
 10
899.3606913336789
 20
68.83094872099525
 30
0.0
 40
5.159
  1
FACTORY FINISH
  7
ROMANS
 72
     1
 11
930.4375246670122
 21
68.83094872099525
 31
0.0
100
AcDbText
  0
TEXT
  5
949
330
46E
100
AcDbEntity
  8
0
100
AcDbText
 10
886.0087080003456
 20
60.47828205432859
 30
0.0
 40
5.159
  1
%%OALUMINUM-MILL FINISH
  7
ROMANS
 72
     1
 11
930.4375246670122
 21
60.47828205432859
 31
0.0
100
AcDbText
  0
TEXT
  5
95A
330
46E
100
AcDbEntity
  8
0
100
AcDbText
 10
662.9049965314964
 20
335.3527526777879
 30
0.0
 40
7.236
  1
FIXED LADDER w/CAGE & OVERSHOOT
  7
ROMANC
100
AcDbText
  0
INSERT
  5
9B0
330
46E
100
AcDbEntity
  8
0
100
AcDbBlockReference
  2
LINETYPE
 10
665.8713576931797
 20
326.1372498544226
 30
0.0
  0
INSERT
  5
9F2
330
46E
100
AcDbEntity
  8
0
100
AcDbBlockReference
  2
LINETYPE
 10
676.3878962744658
 20
323.252156666412
 30
0.0
  0
INSERT
  5
11B2
330
46E
100
AcDbEntity
  8
0
100
AcDbBlockReference
  2
LINETYPE
 10
801.5798350347042
 20
469.2881302442645
 30
0.0
  0
INSERT
  5
11F4
330
46E
100
AcDbEntity
  8
0
100
AcDbBlockReference
  2
LINETYPE
 10
812.0963736159904
 20
466.4030370562539
 30
0.0
  0
LINE
  5
1492
330
46E
100
AcDbEntity
  8
0
100
AcDbLine
 10
782.4780650408317
 20
261.8667642330354
 30
0.0
 11
779.9004174351673
 21
261.8667642330354
 31
0.0
  0
TEXT
  5
14F3
330
46E
100
AcDbEntity
  8
0
 62
     7
100
AcDbText
 10
898.6618321287071
 20
133.3627798745429
 30
0.0
 40
2.778895349999999
  1
%%C9/16"
  7
ROMANS
 72
     2
 11
913.6149356787072
 21
134.7522275495429
 31
0.0
100
AcDbText
 73
     2
  0
LINE
  5
14F4
330
46E
100
AcDbEntity
  8
0
 62
     7
100
AcDbLine
 10
908.2492547783845
 20
156.9382057294719
 30
0.0
 11
919.8959155603462
 21
134.7522275495429
 31
0.0
  0
LINE
  5
14F5
330
46E
100
AcDbEntity
  8
0
 62
     7
100
AcDbLine
 10
897.2819922363063
 20
163.185838802453
 30
0.0
 11
915.2416487106231
 21
173.554851302453
 31
0.0
  0
LINE
  5
14F6
330
46E
100
AcDbEntity
  8
0
 62
     7
100
AcDbLine
 10
898.404470765951
 20
162.537775521203
 30
0.0
 11
915.2416487106231
 21
172.258724739953
 31
0.0
  0
LINE
  5
14F7
330
46E
100
AcDbEntity
  8
0
 62
     7
100
AcDbLine
 10
898.404470765951
 20
146.984256771203
 30
0.0
 11
915.2416487106231
 21
156.7052059899529
 31
0.0
  0
SOLID
  5
14F8
330
46E
100
AcDbEntity
  8
0
  6
ByBlock
 62
     7
100
AcDbTrace
 10
910.2115070434518
 20
179.3294017139699
 30
0.0
 11
910.6479132934516
 21
178.5735239162292
 31
0.0
 12
908.1620767752296
 22
177.6422440650996
 32
0.0
 13
908.1620767752296
 23
177.6422440650996
 33
0.0
  0
LINE
  5
14F9
330
46E
100
AcDbEntity
  8
0
  6
ByBlock
 62
     7
100
AcDbLine
 10
910.4297101684517
 20
178.9514628150996
 30
0.0
 11
912.6973435616735
 21
180.2606815650996
 31
0.0
  0
LINE
  5
14FA
330
46E
100
AcDbEntity
  8
0
  6
ByBlock
 62
     7
100
AcDbLine
 10
912.6232112106231
 20
175.0666068979342
 30
0.0
 11
905.5436392752296
 21
179.1539996605808
 31
0.0
  0
TEXT
  5
14FB
330
46E
100
AcDbEntity
  8
0
100
AcDbText
 10
902.0813525640555
 20
121.6273794179367
 30
0.0
 40
4.63149225
  1
BRACKET DETAIL
  7
ROMANS
 72
     1
 11
930.7524950640553
 21
121.6273794179367
 31
0.0
100
AcDbText
  0
LINE
  5
14FC
330
46E
100
AcDbEntity
  8
0
 62
     7
100
AcDbLine
 10
897.2819922363063
 20
147.632320052453
 30
0.0
 11
897.2819922363063
 21
163.185838802453
 31
0.0
  0
LINE
  5
14FD
330
46E
100
AcDbEntity
  8
0
 62
     7
100
AcDbLine
 10
898.404470765951
 20
146.984256771203
 30
0.0
 11
898.404470765951
 21
162.537775521203
 31
0.0
  0
LINE
  5
14FE
330
46E
100
AcDbEntity
  8
0
  6
ByBlock
 62
     7
100
AcDbLine
 10
895.2033282925198
 20
144.1947342340499
 30
0.0
 11
893.1246643487328
 21
145.39485142155
 31
0.0
  0
MTEXT
  5
14FF
330
46E
100
AcDbEntity
  8
0
  6
ByBlock
 62
     7
100
AcDbMText
 10
886.0555747892954
 20
145.3948514215499
 30
0.0
 40
2.400234375
 41
0.0
 71
     5
 72
     5
  1
\A1;1/4"
  7
ROMANS
 73
     1
 44
1.0
1001
ACAD
1000
MTEXTBEGIN
1070
    73
1070
     1
1070
    44
1040
1.0
1070
    74
1070
     0
1000
MTEXTEND
  0
LINE
  5
1500
330
46E
100
AcDbEntity
  8
0
  6
ByBlock
 62
     7
100
AcDbLine
 10
893.1246643487328
 20
145.39485142155
 30
0.0
 11
890.724429973733
 21
145.39485142155
 31
0.0
  0
LINE
  5
1501
330
46E
100
AcDbEntity
  8
0
  6
ByBlock
 62
     7
100
AcDbLine
 10
898.404470765951
 20
144.2127048461541
 30
0.0
 11
898.404470765951
 21
139.575001840251
 31
0.0
  0
LINE
  5
1502
330
46E
100
AcDbEntity
  8
0
  6
ByBlock
 62
     7
100
AcDbLine
 10
900.4831347097377
 20
141.1464365777999
 30
0.0
 11
902.5617986535243
 21
139.9463193902999
 31
0.0
  0
POINT
  5
1503
330
46E
100
AcDbEntity
  8
DEFPOINTS
  6
ByBlock
 62
     7
100
AcDbPoint
 10
897.2819922363063
 20
142.9946170465498
 30
0.0
  0
SOLID
  5
1504
330
46E
100
AcDbEntity
  8
0
  6
ByBlock
 62
     7
100
AcDbTrace
 10
895.4033478237695
 20
144.541178224681
 30
0.0
 11
895.0033087612697
 21
143.8482902434189
 31
0.0
 12
897.2819922363063
 22
142.9946170465498
 32
0.0
 13
897.2819922363063
 23
142.9946170465498
 33
0.0
  0
LINE
  5
1505
330
46E
100
AcDbEntity
  8
0
  6
ByBlock
 62
     7
100
AcDbLine
 10
897.2819922363063
 20
144.860768127404
 30
0.0
 11
897.2819922363063
 21
140.223065121501
 31
0.0
  0
SOLID
  5
1506
330
46E
100
AcDbEntity
  8
0
  6
ByBlock
 62
     7
100
AcDbTrace
 10
900.6831542409875
 20
141.492880568431
 30
0.0
 11
900.2831151784876
 21
140.7999925871688
 31
0.0
 12
898.404470765951
 22
142.3465537653
 32
0.0
 13
898.404470765951
 23
142.3465537653
 33
0.0
  0
LINE
  5
1507
330
46E
100
AcDbEntity
  8
0
 62
     7
100
AcDbLine
 10
898.404470765951
 20
146.984256771203
 30
0.0
 11
897.2819922363063
 21
147.632320052453
 31
0.0
  0
POINT
  5
1508
330
46E
100
AcDbEntity
  8
DEFPOINTS
  6
ByBlock
 62
     7
100
AcDbPoint
 10
897.2819922363063
 20
147.632320052453
 30
0.0
  0
POINT
  5
1509
330
46E
100
AcDbEntity
  8
DEFPOINTS
  6
ByBlock
 62
     7
100
AcDbPoint
 10
898.404470765951
 20
146.984256771203
 30
0.0
  0
MTEXT
  5
150A
330
46E
100
AcDbEntity
  8
0
  6
ByBlock
 62
     7
100
AcDbMText
 10
897.9850231848388
 20
173.5123330687191
 30
0.0
 40
2.618437499999999
 41
0.0
 71
     5
 72
     5
  1
4-1/2"
  7
ROMANS
 73
     1
 44
1.0
1001
ACAD
1000
MTEXTBEGIN
1070
    73
1070
     1
1070
    44
1040
1.0
1070
    74
1070
     0
1000
MTEXTEND
  0
LINE
  5
150B
330
46E
100
AcDbEntity
  8
0
  6
ByBlock
 62
     7
100
AcDbLine
 10
894.6635547363063
 20
164.6975943979342
 30
0.0
 11
887.5839828009132
 21
168.7849871605808
 31
0.0
  0
SOLID
  5
150C
330
46E
100
AcDbEntity
  8
0
  6
ByBlock
 62
     7
100
AcDbTrace
 10
887.7165837826915
 20
166.3419517139698
 30
0.0
 11
888.1529900326915
 21
165.5860739162292
 31
0.0
 12
890.2024203009132
 22
167.2732315650995
 32
0.0
 13
890.2024203009132
 23
167.2732315650995
 33
0.0
  0
LINE
  5
150D
330
46E
100
AcDbEntity
  8
0
  6
ByBlock
 62
     7
100
AcDbLine
 10
887.9347869076914
 20
165.9640128150995
 30
0.0
 11
885.6671535144695
 21
164.6547940650995
 31
0.0
  0
POINT
  5
150E
330
46E
100
AcDbEntity
  8
DEFPOINTS
  6
ByBlock
 62
     7
100
AcDbPoint
 10
890.2024203009132
 20
167.2732315650995
 30
0.0
  0
LINE
  5
150F
330
46E
100
AcDbEntity
  8
0
 62
     7
100
AcDbLine
 10
898.404470765951
 20
162.537775521203
 30
0.0
 11
897.2819922363063
 21
163.185838802453
 31
0.0
  0
POINT
  5
1510
330
46E
100
AcDbEntity
  8
DEFPOINTS
  6
ByBlock
 62
     7
100
AcDbPoint
 10
897.2819922363063
 20
163.185838802453
 30
0.0
  0
POINT
  5
1511
330
46E
100
AcDbEntity
  8
DEFPOINTS
  6
ByBlock
 62
     7
100
AcDbPoint
 10
897.2819922363063
 20
163.185838802453
 30
0.0
  0
LWPOLYLINE
  5
1512
330
46E
100
AcDbEntity
  8
0
 62
     7
100
AcDbPolyline
 90
        7
 70
     0
 43
0.0
 10
905.5470565614225
 20
158.9104996764117
 42
0.0283695723264663
 10
905.6789901696392
 20
158.9769995687562
 42
0.0723410840577375
 10
906.1401592224616
 20
159.3408857506078
 42
0.0587518675353654
 10
906.5719163721935
 20
159.9196107681575
 42
0.0587518675353444
 10
906.8572283643314
 20
160.5828859368658
 42
0.0723410840576672
 10
906.9417785154897
 20
161.1642131429749
 42
0.0283695723264929
 10
906.9334023075004
 20
161.3117209454757
 42
0.1568512196709102
  0
LWPOLYLINE
  5
1513
330
46E
100
AcDbEntity
  8
0
 62
     7
100
AcDbPolyline
 90
       16
 70
     1
 43
0.0
 10
905.9085424967298
 20
160.3026098537298
 42
0.0587518675353646
 10
905.6232305045918
 20
159.6393346850215
 42
0.0723410840576763
 10
905.5386803534334
 20
159.0580074789125
 42
0.106617054391126
 10
905.6545250871767
 20
158.520908116291
 42
0.1568512196706424
 10
905.9085424967298
 20
158.2404851200854
 42
0.1568512196706761
 10
906.2784046400262
 20
158.1607110885119
 42
0.1066170543910004
 10
906.8014686992839
 20
158.3289362875061
 42
0.0723410840577375
 10
907.2626377521062
 20
158.6928224693578
 42
0.0587518675353654
 10
907.6943949018382
 20
159.2715474869075
 42
0.0587518675353444
 10
907.9797068939759
 20
159.9348226556158
 42
0.0723410840576672
 10
908.0642570451344
 20
160.5161498617249
 42
0.1066170543911832
 10
907.9484123113912
 20
161.0532492243461
 42
0.1568512196709102
 10
907.6943949018382
 20
161.3336722205521
 42
0.1568512196706761
 10
907.3245327585416
 20
161.4134462521255
 42
0.1066170543910004
 10
906.8014686992839
 20
161.2452210531312
 42
0.0723410840577166
 10
906.3402996464615
 20
160.8813348712797
 42
0.0587518675353862
  0
SOLID
  5
1514
330
46E
100
AcDbEntity
  8
0
 62
     7
100
AcDbTrace
 10
907.9357701648413
 20
156.7926375797592
 30
0.0
 11
908.5627393919278
 21
157.0837738791848
 31
0.0
 12
907.3758458801076
 22
158.8191134107304
 32
0.0
 13
907.3758458801076
 23
158.8191134107304
 33
0.0
  0
DIMENSION
  5
1515
330
46E
100
AcDbEntity
  8
0
 62
     7
100
AcDbDimension
  2
*D11
 10
962.3264421335361
 20
156.6709663349098
 30
0.0
 11
943.2443071295747
 21
167.6880421161598
 31
0.0
 70
    33
  1
{8-1/2"}
 71
     5
 42
44.06830312499994
  3
STANDARD$0
100
AcDbAlignedDimension
 13
915.2416487106231
 23
173.554851302453
 33
0.0
 14
953.4059187185462
 24
151.520699739953
 34
0.0
  0
LINE
  5
1516
330
46E
100
AcDbEntity
  8
0
 62
     7
100
AcDbLine
 10
952.2834401889012
 20
135.319117708703
 30
0.0
 11
915.2416487106231
 21
156.7052059899529
 31
0.0
  0
LINE
  5
1517
330
46E
100
AcDbEntity
  8
0
 62
     7
100
AcDbLine
 10
953.4059187185462
 20
151.520699739953
 30
0.0
 11
915.2416487106231
 21
173.554851302453
 31
0.0
  0
LINE
  5
1518
330
46E
100
AcDbEntity
  8
0
 62
     7
100
AcDbLine
 10
952.2834401889012
 20
150.8726364587029
 30
0.0
 11
915.2416487106231
 21
172.258724739953
 31
0.0
  0
LINE
  5
1519
330
46E
100
AcDbEntity
  8
0
 62
     7
100
AcDbLine
 10
919.8959155603462
 20
134.7522275495429
 30
0.0
 11
915.6887381787074
 21
134.7522275495429
 31
0.0
  0
MTEXT
  5
151A
330
46E
100
AcDbEntity
  8
0
  6
ByBlock
 62
     7
100
AcDbMText
 10
963.2236554875753
 20
148.89420695991
 30
0.0
 40
2.618437499999999
 41
0.0
 71
     5
 72
     5
  1
\A1;{3"}
  7
ROMANS
 73
     1
 44
1.0
1001
ACAD
1000
MTEXTBEGIN
1070
    73
1070
     1
1070
    44
1040
1.0
1070
    74
1070
     0
1000
MTEXTEND
  0
LINE
  5
151B
330
46E
100
AcDbEntity
  8
0
  6
ByBlock
 62
     7
100
AcDbLine
 10
956.0243562185462
 20
137.4789365854342
 30
0.0
 11
964.9448796335363
 21
142.6292031803911
 31
0.0
  0
LINE
  5
151C
330
46E
100
AcDbEntity
  8
0
 62
     7
100
AcDbLine
 10
953.4059187185462
 20
135.967180989953
 30
0.0
 11
953.4059187185462
 21
151.520699739953
 31
0.0
  0
LINE
  5
151D
330
46E
100
AcDbEntity
  8
0
 62
     7
100
AcDbLine
 10
952.2834401889012
 20
135.319117708703
 30
0.0
 11
952.2834401889012
 21
150.8726364587029
 31
0.0
  0
LINE
  5
151E
330
46E
100
AcDbEntity
  8
0
 62
     7
100
AcDbLine
 10
952.2834401889012
 20
135.319117708703
 30
0.0
 11
953.4059187185462
 21
135.967180989953
 31
0.0
  0
POINT
  5
151F
330
46E
100
AcDbEntity
  8
DEFPOINTS
  6
ByBlock
 62
     7
100
AcDbPoint
 10
953.4059187185462
 20
135.967180989953
 30
0.0
  0
POINT
  5
1520
330
46E
100
AcDbEntity
  8
DEFPOINTS
  6
ByBlock
 62
     7
100
AcDbPoint
 10
953.4059187185462
 20
135.967180989953
 30
0.0
  0
LINE
  5
1521
330
46E
100
AcDbEntity
  8
0
 62
     7
100
AcDbLine
 10
952.2834401889012
 20
150.8726364587029
 30
0.0
 11
953.4059187185462
 21
151.520699739953
 31
0.0
  0
POINT
  5
1522
330
46E
100
AcDbEntity
  8
DEFPOINTS
  6
ByBlock
 62
     7
100
AcDbPoint
 10
953.4059187185464
 20
151.520699739953
 30
0.0
  0
POINT
  5
1523
330
46E
100
AcDbEntity
  8
DEFPOINTS
  6
ByBlock
 62
     7
100
AcDbPoint
 10
953.4059187185462
 20
151.520699739953
 30
0.0
  0
POINT
  5
1524
330
46E
100
AcDbEntity
  8
DEFPOINTS
  6
ByBlock
 62
     7
100
AcDbPoint
 10
953.4059187185462
 20
151.520699739953
 30
0.0
  0
SOLID
  5
1525
330
46E
100
AcDbEntity
  8
0
  6
ByBlock
 62
     7
100
AcDbTrace
 10
962.7628483835364
 20
138.4990100849099
 30
0.0
 11
961.8900358835363
 21
138.4990100849099
 31
0.0
 12
962.3264421335363
 22
141.1174475849099
 32
0.0
 13
962.3264421335363
 23
141.1174475849099
 33
0.0
  0
LINE
  5
1526
330
46E
100
AcDbEntity
  8
0
  6
ByBlock
 62
     7
100
AcDbLine
 10
962.3264421335363
 20
136.6400315337145
 30
0.0
 11
962.3264421335363
 21
138.4990100849099
 31
0.0
  0
POINT
  5
1527
330
46E
100
AcDbEntity
  8
DEFPOINTS
  6
ByBlock
 62
     7
100
AcDbPoint
 10
962.3264421335363
 20
141.1174475849099
 30
0.0
  0
LINE
  5
1528
330
46E
100
AcDbEntity
  8
0
 62
     7
100
AcDbLine
 10
915.2416487106231
 20
172.258724739953
 30
0.0
 11
915.2416487106231
 21
156.7052059899529
 31
0.0
  0
POINT
  5
1529
330
46E
100
AcDbEntity
  8
DEFPOINTS
  6
ByBlock
 62
     7
100
AcDbPoint
 10
915.2416487106231
 20
173.554851302453
 30
0.0
  0
POINT
  5
152A
330
46E
100
AcDbEntity
  8
DEFPOINTS
  6
ByBlock
 62
     7
100
AcDbPoint
 10
915.2416487106231
 20
173.554851302453
 30
0.0
  0
POINT
  5
152B
330
46E
100
AcDbEntity
  8
DEFPOINTS
  6
ByBlock
 62
     7
100
AcDbPoint
 10
915.2416487106231
 20
173.554851302453
 30
0.0
  0
LINE
  5
152C
330
46E
100
AcDbEntity
  8
0
  6
ByBlock
 62
     7
100
AcDbLine
 10
962.3264421335365
 20
159.28940383491
 30
0.0
 11
962.3264421335365
 21
161.7597718997149
 31
0.0
  0
SOLID
  5
152D
330
46E
100
AcDbEntity
  8
0
  6
ByBlock
 62
     7
100
AcDbTrace
 10
962.7628483835366
 20
159.28940383491
 30
0.0
 11
961.8900358835366
 21
159.28940383491
 31
0.0
 12
962.3264421335365
 22
156.6709663349101
 32
0.0
 13
962.3264421335365
 23
156.6709663349101
 33
0.0
  0
DIMENSION
  5
152E
330
46E
100
AcDbEntity
  8
0
100
AcDbDimension
  2
*D12
 10
950.975460600028
 20
327.8611834943425
 30
0.0
 11
928.6327074750278
 21
327.8611834943425
 31
0.0
 70
    32
  1
22-1/8"
 71
     5
 42
44.68550625
  3
STANDARD$0
100
AcDbAlignedDimension
 13
906.2899543500279
 23
320.4108658262242
 33
0.0
 14
950.975460600028
 24
320.4108658262242
 34
0.0
100
AcDbRotatedDimension
  0
DIMENSION
  5
152F
330
46E
100
AcDbEntity
  8
0
 62
     7
100
AcDbDimension
  2
*D13
 10
952.3333074750279
 20
296.2163592418179
 30
0.0
 11
928.6327074750278
 21
296.2163592418179
 31
0.0
 70
    32
  1
{24"}
 71
     5
 42
47.40120000000001
  3
STANDARD$0
100
AcDbAlignedDimension
 13
904.9321074750279
 23
303.6229408262242
 33
0.0
 14
952.3333074750279
 24
303.6229408262242
 34
0.0
100
AcDbRotatedDimension
  0
DIMENSION
  5
1530
330
46E
100
AcDbEntity
  8
0
 62
     7
100
AcDbDimension
  2
*D14
 10
958.8043611733606
 20
234.0436332621955
 30
0.0
 11
928.5850465243921
 21
234.0436332621955
 31
0.0
 70
    32
  1
{29-1/2"}
 71
     5
 42
60.43862929793715
  3
STANDARD$0
100
AcDbAlignedDimension
 13
898.3657318754234
 23
278.6570945508288
 33
0.0
 14
958.8043611733606
 24
278.6570945508288
 34
0.0
100
AcDbRotatedDimension
  0
DIMENSION
  5
1531
330
46E
100
AcDbEntity
  8
0
 62
     7
100
AcDbDimension
  2
*D15
 10
895.550619975028
 20
226.2997623011092
 30
0.0
 11
928.5891134393226
 21
226.2997623011092
 31
0.0
 70
    32
  1
{33-1/2"}
 71
     5
 42
66.07698692858935
  3
STANDARD$0
100
AcDbAlignedDimension
 13
961.6276069036173
 23
273.5720064512242
 33
0.0
 14
895.550619975028
 24
273.5720064512242
 34
0.0
100
AcDbRotatedDimension
  0
LINE
  5
1532
330
46E
100
AcDbEntity
  8
0
 62
     7
100
AcDbLine
 10
913.8454197058642
 20
254.648505923298
 30
0.0
 11
910.2282129888079
 21
249.0784960328281
 31
0.0
  0
LINE
  5
1533
330
46E
100
AcDbEntity
  8
0
 62
     7
100
AcDbLine
 10
910.5321196116404
 20
256.7991647136127
 30
0.0
 11
907.0987844657903
 21
251.5122922134849
 31
0.0
  0
LINE
  5
1534
330
46E
100
AcDbEntity
  8
0
 62
     7
100
AcDbLine
 10
952.3333074750279
 20
308.3136845762242
 30
0.0
 11
904.9321074750279
 21
308.3136845762242
 31
0.0
  0
LINE
  5
1535
330
46E
100
AcDbEntity
  8
0
 62
     7
100
AcDbLine
 10
904.9321074750279
 20
303.8698220762243
 30
0.0
 11
952.3333074750279
 21
303.8698220762243
 31
0.0
  0
LINE
  5
1536
330
46E
100
AcDbEntity
  8
0
 62
     7
100
AcDbLine
 10
903.0804981000278
 20
306.0917533262243
 30
0.0
 11
954.1849168500279
 21
306.0917533262243
 31
0.0
  0
LINE
  5
1537
330
46E
100
AcDbEntity
  8
0
 62
     7
100
AcDbLine
 10
903.0804981000278
 20
306.8817733262243
 30
0.0
 11
954.1849168500279
 21
306.8817733262243
 31
0.0
  0
LINE
  5
1538
330
46E
100
AcDbEntity
  8
0
 62
     7
100
AcDbLine
 10
903.0804981000278
 20
307.6717933262244
 30
0.0
 11
954.1849168500279
 21
307.6717933262244
 31
0.0
  0
LINE
  5
1539
330
46E
100
AcDbEntity
  8
0
 62
     7
100
AcDbLine
 10
903.0804981000278
 20
305.3017333262242
 30
0.0
 11
954.1849168500279
 21
305.3017333262242
 31
0.0
  0
LINE
  5
153A
330
46E
100
AcDbEntity
  8
0
 62
     7
100
AcDbLine
 10
903.0804981000278
 20
304.5117133262242
 30
0.0
 11
954.1849168500279
 21
304.5117133262242
 31
0.0
  0
ARC
  5
153B
330
46E
100
AcDbEntity
  8
0
 62
     7
100
AcDbCircle
 10
928.6327074750278
 20
275.9722408262241
 30
0.0
 40
32.588325
100
AcDbArc
 50
148.7842226536308
 51
31.21577734636918
  0
ARC
  5
153C
330
46E
100
AcDbEntity
  8
0
 62
     7
100
AcDbCircle
 10
928.6327074750278
 20
275.9722408262241
 30
0.0
 40
33.0820875
100
AcDbArc
 50
142.6341146741217
 51
37.3658853258784
  0
ARC
  5
153D
330
46E
100
AcDbEntity
  8
0
 62
     7
100
AcDbCircle
 10
928.6327074750278
 20
281.0573289258288
 30
0.0
 40
30.26697559960443
100
AcDbArc
 50
150.3076586782387
 51
29.69234132176127
  0
ARC
  5
153E
330
46E
100
AcDbEntity
  8
0
 62
     7
100
AcDbCircle
 10
928.6327074750278
 20
281.0452790288839
 30
0.0
 40
29.76116320265966
100
AcDbArc
 50
150.0970456620551
 51
29.902954337945
  0
LWPOLYLINE
  5
153F
330
46E
100
AcDbEntity
  8
0
 62
     7
100
AcDbPolyline
 90
        9
 70
     0
 43
0.0
 10
902.8336168500279
 20
295.8821843025042
 10
902.8336168500279
 20
303.6229408262242
 10
902.8336168500279
 20
308.5605658262242
 10
902.8336168500279
 20
319.9171033262242
 10
910.240054350028
 20
319.9171033262242
 10
910.240054350028
 20
320.4108658262242
 10
902.3398543500279
 20
320.4108658262242
 10
902.3398543500279
 20
303.6229408262242
 10
902.3398543500279
 20
296.0498499444642
  0
LWPOLYLINE
  5
1540
330
46E
100
AcDbEntity
  8
0
 62
     7
100
AcDbPolyline
 90
        8
 70
     0
 43
0.0
 10
902.8336168500279
 20
303.6229408262242
 10
904.9321074750279
 20
303.6229408262242
 10
904.9321074750279
 20
303.8698220762242
 10
903.0804981000278
 20
303.8698220762242
 10
903.0804981000278
 20
308.3136845762242
 10
904.9321074750279
 20
308.3136845762242
 10
904.9321074750279
 20
308.5605658262242
 10
902.8336168500279
 20
308.5605658262242
  0
LINE
  5
1541
330
46E
100
AcDbEntity
  8
0
 62
     7
100
AcDbLine
 10
902.7588673899201
 20
267.3635418420446
 30
0.0
 11
901.1522169761063
 21
270.9721377542787
 31
0.0
  0
LINE
  5
1542
330
46E
100
AcDbEntity
  8
0
 62
     7
100
AcDbLine
 10
900.2418777083878
 20
270.5668285989276
 30
0.0
 11
896.7922106284184
 21
269.0309378601609
 31
0.0
  0
LINE
  5
1543
330
46E
100
AcDbEntity
  8
0
 62
     7
100
AcDbLine
 10
901.8498433753926
 20
266.9588182751427
 30
0.0
 11
897.8794111081134
 21
265.1910679366754
 31
0.0
  0
LINE
  5
1544
330
46E
100
AcDbEntity
  8
0
 62
     7
100
AcDbLine
 10
901.1522169761063
 20
270.9721377542787
 30
0.0
 11
900.7011424870769
 21
270.771306452552
 31
0.0
  0
LINE
  5
1545
330
46E
100
AcDbEntity
  8
0
 62
     7
100
AcDbLine
 10
902.7588673899201
 20
267.3635418420446
 30
0.0
 11
902.3077929008909
 21
267.1627105403179
 31
0.0
  0
LINE
  5
1546
330
46E
100
AcDbEntity
  8
0
 62
     7
100
AcDbLine
 10
899.4814711771523
 20
283.6627120280036
 30
0.0
 11
900.0994029575075
 21
287.5641797421886
 31
0.0
  0
LINE
  5
1547
330
46E
100
AcDbEntity
  8
0
 62
     7
100
AcDbLine
 10
898.4920266731329
 20
283.8194246420049
 30
0.0
 11
897.0604005798545
 21
284.0461719395429
 31
0.0
  0
LINE
  5
1548
330
46E
100
AcDbEntity
  8
0
 62
     7
100
AcDbLine
 10
899.4814711771523
 20
283.6627120280036
 30
0.0
 11
898.993787712879
 21
283.7399535005482
 31
0.0
  0
LINE
  5
1549
330
46E
100
AcDbEntity
  8
0
 62
     7
100
AcDbLine
 10
900.0994029575075
 20
287.5641797421886
 30
0.0
 11
899.6117194932343
 21
287.6414212147329
 31
0.0
  0
LINE
  5
154A
330
46E
100
AcDbEntity
  8
0
 62
     7
100
AcDbLine
 10
899.1084210463327
 20
287.7211358575617
 30
0.0
 11
898.286589886397
 21
287.8513011258694
 31
0.0
  0
LWPOLYLINE
  5
154B
330
46E
100
AcDbEntity
  8
0
 62
     7
100
AcDbPolyline
 90
        9
 70
     0
 43
0.0
 10
954.4317981000279
 20
295.8821843025042
 10
954.4317981000279
 20
303.6229408262242
 10
954.4317981000279
 20
308.5605658262242
 10
954.4317981000279
 20
319.9171033262242
 10
947.025360600028
 20
319.9171033262242
 10
947.025360600028
 20
320.4108658262242
 10
954.9255606000279
 20
320.4108658262242
 10
954.9255606000279
 20
303.6229408262242
 10
954.9255606000279
 20
296.0498499444642
  0
DIMENSION
  5
154C
330
46E
100
AcDbEntity
  8
0
 62
     7
100
AcDbDimension
  2
*D16
 10
976.4397424267276
 20
250.7903533262243
 30
0.0
 11
976.4397424267276
 21
278.4410533262244
 31
0.0
 70
    32
  1
{28"}
 71
     5
 42
55.30139999999992
  3
STANDARD$0
100
AcDbAlignedDimension
 13
954.1849168500279
 23
306.0917533262243
 33
0.0
 14
928.6327074750278
 24
250.7903533262243
 34
0.0
 50
90.0
100
AcDbRotatedDimension
  0
LWPOLYLINE
  5
154D
330
46E
100
AcDbEntity
  8
0
 62
     7
100
AcDbPolyline
 90
        8
 70
     0
 43
0.0
 10
954.4317981000279
 20
303.6229408262242
 10
952.3333074750279
 20
303.6229408262242
 10
952.3333074750279
 20
303.8698220762242
 10
954.1849168500279
 20
303.8698220762242
 10
954.1849168500279
 20
308.3136845762242
 10
952.3333074750279
 20
308.3136845762242
 10
952.3333074750279
 20
308.5605658262242
 10
954.4317981000279
 20
308.5605658262242
  0
LINE
  5
154E
330
46E
100
AcDbEntity
  8
0
  6
ByBlock
 62
     7
100
AcDbLine
 10
931.251144975028
 20
242.8901533262242
 30
0.0
 11
979.0581799267274
 21
242.8901533262242
 31
0.0
  0
LINE
  5
154F
330
46E
100
AcDbEntity
  8
0
  6
ByBlock
 62
     7
100
AcDbLine
 10
931.251144975028
 20
250.7903533262243
 30
0.0
 11
979.0581799267274
 21
250.7903533262243
 31
0.0
  0
LINE
  5
1550
330
46E
100
AcDbEntity
  8
0
 62
     7
100
AcDbLine
 10
943.4199952441915
 20
254.648505923298
 30
0.0
 11
947.0372019612479
 21
249.0784960328281
 31
0.0
  0
LINE
  5
1551
330
46E
100
AcDbEntity
  8
0
 62
     7
100
AcDbLine
 10
946.7332953384154
 20
256.7991647136127
 30
0.0
 11
950.1666304842656
 21
251.5122922134849
 31
0.0
  0
LINE
  5
1552
330
46E
100
AcDbEntity
  8
0
 62
     7
100
AcDbLine
 10
930.6077574750279
 20
251.8434860925422
 30
0.0
 11
930.6077574750279
 21
251.3497235925422
 31
0.0
  0
LINE
  5
1553
330
46E
100
AcDbEntity
  8
0
 62
     7
100
AcDbLine
 10
926.6576574750279
 20
251.8434860925422
 30
0.0
 11
926.6576574750279
 21
251.3497235925422
 31
0.0
  0
TEXT
  5
1554
330
46E
100
AcDbEntity
  8
0
100
AcDbText
 10
919.861771947281
 20
213.8998618560614
 30
0.0
 40
4.63149225
  1
PLAN
  7
ROMANS
 72
     1
 11
928.463114697281
 21
213.8998618560614
 31
0.0
100
AcDbText
  0
LINE
  5
1555
330
46E
100
AcDbEntity
  8
0
 62
     7
100
AcDbLine
 10
926.6576574750279
 20
250.854862313902
 30
0.0
 11
926.6576574750279
 21
243.4438208860684
 31
0.0
  0
LINE
  5
1556
330
46E
100
AcDbEntity
  8
0
 62
     7
100
AcDbLine
 10
930.6077574750279
 20
250.854862313902
 30
0.0
 11
930.6077574750279
 21
243.4438208860684
 31
0.0
  0
POINT
  5
1557
330
46E
100
AcDbEntity
  8
DEFPOINTS
  6
ByBlock
 62
     7
100
AcDbPoint
 10
928.6327074750278
 20
242.8901533262242
 30
0.0
  0
POINT
  5
1558
330
46E
100
AcDbEntity
  8
DEFPOINTS
  6
ByBlock
 62
     7
100
AcDbPoint
 10
928.6327074750278
 20
250.7903533262243
 30
0.0
  0
LINE
  5
1559
330
46E
100
AcDbEntity
  8
0
  6
ByBlock
 62
     7
100
AcDbLine
 10
976.4397424267276
 20
240.2717158262242
 30
0.0
 11
976.4397424267276
 21
237.6532783262241
 31
0.0
  0
POINT
  5
155A
330
46E
100
AcDbEntity
  8
DEFPOINTS
  6
ByBlock
 62
     7
100
AcDbPoint
 10
976.4397424267276
 20
242.8901533262242
 30
0.0
  0
SOLID
  5
155B
330
46E
100
AcDbEntity
  8
0
  6
ByBlock
 62
     7
100
AcDbTrace
 10
976.0033361767275
 20
240.2717158262242
 30
0.0
 11
976.8761486767274
 21
240.2717158262242
 31
0.0
 12
976.4397424267276
 22
242.8901533262242
 32
0.0
 13
976.4397424267276
 23
242.8901533262242
 33
0.0
  0
MTEXT
  5
155C
330
46E
100
AcDbEntity
  8
0
  6
ByBlock
 62
     7
100
AcDbMText
 10
976.8083753134478
 20
246.8402533262242
 30
0.0
 40
2.618437499999999
 41
0.0
 71
     5
 72
     5
  1
\A1;{4"}
  7
ROMANS
 73
     1
 44
1.0
1001
ACAD
1000
MTEXTBEGIN
1070
    73
1070
     1
1070
    44
1040
1.0
1070
    74
1070
     0
1000
MTEXTEND
  0
LINE
  5
155D
330
46E
100
AcDbEntity
  8
0
 62
     7
100
AcDbLine
 10
942.8807274953651
 20
255.4789054358311
 30
0.0
 11
946.1935601058062
 21
257.630284088044
 31
0.0
  0
LINE
  5
155E
330
46E
100
AcDbEntity
  8
0
 62
     7
100
AcDbLine
 10
926.6576574750279
 20
251.8434860925422
 30
0.0
 11
930.6077574750279
 21
251.8434860925422
 31
0.0
  0
LINE
  5
155F
330
46E
100
AcDbEntity
  8
0
 62
     7
100
AcDbLine
 10
914.3846874546907
 20
255.4789054358311
 30
0.0
 11
911.0718548442495
 21
257.630284088044
 31
0.0
  0
LINE
  5
1560
330
46E
100
AcDbEntity
  8
0
 62
     7
100
AcDbLine
 10
911.0718548442495
 20
257.630284088044
 30
0.0
 11
910.802932512723
 21
257.2161800117389
 31
0.0
  0
LINE
  5
1561
330
46E
100
AcDbEntity
  8
0
 62
     7
100
AcDbLine
 10
914.3846874546907
 20
255.4789054358311
 30
0.0
 11
914.1157651231642
 21
255.0648013595258
 31
0.0
  0
LINE
  5
1562
330
46E
100
AcDbEntity
  8
0
 62
     7
100
AcDbLine
 10
942.8807274953651
 20
255.4789054358311
 30
0.0
 11
943.1496498268918
 21
255.0648013595258
 31
0.0
  0
LINE
  5
1563
330
46E
100
AcDbEntity
  8
0
 62
     7
100
AcDbLine
 10
946.1935601058062
 20
257.630284088044
 30
0.0
 11
946.4624824373329
 21
257.2161800117389
 31
0.0
  0
LINE
  5
1564
330
46E
100
AcDbEntity
  8
0
 62
     7
100
AcDbLine
 10
957.023537241668
 20
270.5668285989276
 30
0.0
 11
960.4732043216374
 21
269.0309378601609
 31
0.0
  0
LINE
  5
1565
330
46E
100
AcDbEntity
  8
0
 62
     7
100
AcDbLine
 10
955.4155715746633
 20
266.9588182751427
 30
0.0
 11
959.3860038419427
 21
265.1910679366754
 31
0.0
  0
LINE
  5
1566
330
46E
100
AcDbEntity
  8
0
 62
     7
100
AcDbLine
 10
954.506547560136
 20
267.3635418420446
 30
0.0
 11
954.9576220491651
 21
267.1627105403179
 31
0.0
  0
LINE
  5
1567
330
46E
100
AcDbEntity
  8
0
 62
     7
100
AcDbLine
 10
954.506547560136
 20
267.3635418420446
 30
0.0
 11
956.1131979739498
 21
270.9721377542787
 31
0.0
  0
LINE
  5
1568
330
46E
100
AcDbEntity
  8
0
 62
     7
100
AcDbLine
 10
956.1131979739498
 20
270.9721377542787
 30
0.0
 11
956.5642724629787
 21
270.771306452552
 31
0.0
  0
LINE
  5
1569
330
46E
100
AcDbEntity
  8
0
 62
     7
100
AcDbLine
 10
957.7839437729037
 20
283.6627120280036
 30
0.0
 11
957.1660119925484
 21
287.5641797421886
 31
0.0
  0
LINE
  5
156A
330
46E
100
AcDbEntity
  8
0
 62
     7
100
AcDbLine
 10
957.7839437729037
 20
283.6627120280036
 30
0.0
 11
958.271627237177
 21
283.7399535005482
 31
0.0
  0
LINE
  5
156B
330
46E
100
AcDbEntity
  8
0
 62
     7
100
AcDbLine
 10
958.773388276923
 20
283.8194246420049
 30
0.0
 11
960.2050143702012
 21
284.0461719395429
 31
0.0
  0
LINE
  5
156C
330
46E
100
AcDbEntity
  8
0
 62
     7
100
AcDbLine
 10
957.1660119925484
 20
287.5641797421886
 30
0.0
 11
957.6536954568213
 21
287.6414212147329
 31
0.0
  0
LINE
  5
156D
330
46E
100
AcDbEntity
  8
0
 62
     7
100
AcDbLine
 10
958.1569939037231
 20
287.7211358575617
 30
0.0
 11
958.9788250636591
 21
287.8513011258694
 31
0.0
  0
MTEXT
  5
156E
330
46E
100
AcDbEntity
  8
0
  6
ByBlock
 62
     7
100
AcDbMText
 10
976.8384812955158
 20
313.2513095762242
 30
0.0
 40
2.618437499999999
 41
0.0
 71
     5
 72
     5
  1
\A1;{7-1/4"}
  7
ROMANS
 73
     1
 44
1.0
1001
ACAD
1000
MTEXTBEGIN
1070
    73
1070
     1
1070
    44
1040
1.0
1070
    74
1070
     0
1000
MTEXTEND
  0
LINE
  5
156F
330
46E
100
AcDbEntity
  8
0
  6
ByBlock
 62
     7
100
AcDbLine
 10
957.5439981000281
 20
320.4108658262242
 30
0.0
 11
979.0581799267274
 21
320.4108658262242
 31
0.0
  0
POINT
  5
1570
330
46E
100
AcDbEntity
  8
DEFPOINTS
  6
ByBlock
 62
     7
100
AcDbPoint
 10
954.1849168500279
 20
306.0917533262243
 30
0.0
  0
POINT
  5
1571
330
46E
100
AcDbEntity
  8
DEFPOINTS
  6
ByBlock
 62
     7
100
AcDbPoint
 10
954.9255606000279
 20
320.4108658262242
 30
0.0
  0
LINE
  5
1572
330
46E
100
AcDbEntity
  8
0
  6
ByBlock
 62
     7
100
AcDbLine
 10
976.4397424267276
 20
323.0293033262242
 30
0.0
 11
976.4397424267276
 21
325.2647790853683
 31
0.0
  0
SOLID
  5
1573
330
46E
100
AcDbEntity
  8
0
  6
ByBlock
 62
     7
100
AcDbTrace
 10
976.8761486767274
 20
323.0293033262242
 30
0.0
 11
976.0033361767275
 21
323.0293033262242
 31
0.0
 12
976.4397424267276
 22
320.4108658262242
 32
0.0
 13
976.4397424267276
 23
320.4108658262242
 33
0.0
  0
LINE
  5
1574
330
46E
100
AcDbEntity
  8
0
 62
     7
100
AcDbLine
 10
791.8750750470002
 20
152.1167642330354
 30
0.0
 11
795.0625750470002
 21
152.1167642330354
 31
0.0
  0
LINE
  5
1575
330
46E
100
AcDbEntity
  8
0
 62
     7
100
AcDbLine
 10
791.8750750470002
 20
155.1167642330354
 30
0.0
 11
795.0625750470002
 21
155.1167642330354
 31
0.0
  0
CIRCLE
  5
1576
330
46E
100
AcDbEntity
  8
0
100
AcDbCircle
 10
792.8125750470002
 20
153.6167642330354
 30
0.0
 40
0.28125
  0
LINE
  5
1577
330
46E
100
AcDbEntity
  8
0
 62
     7
100
AcDbLine
 10
790.5625750470002
 20
152.1167642330354
 30
0.0
 11
790.8125750470002
 21
152.1167642330354
 31
0.0
  0
LINE
  5
1578
330
46E
100
AcDbEntity
  8
0
 62
     7
100
AcDbLine
 10
790.5625750470002
 20
155.1167642330354
 30
0.0
 11
790.5625750470002
 21
152.1167642330354
 31
0.0
  0
LINE
  5
1579
330
46E
100
AcDbEntity
  8
0
 62
     7
100
AcDbLine
 10
790.5625750470002
 20
155.1167642330354
 30
0.0
 11
790.8125750470002
 21
155.1167642330354
 31
0.0
  0
LINE
  5
157A
330
46E
100
AcDbEntity
  8
0
 62
     7
100
AcDbLine
 10
795.0625750470002
 20
155.1167642330354
 30
0.0
 11
795.0625750470002
 21
152.1167642330354
 31
0.0
  0
CIRCLE
  5
157B
330
46E
100
AcDbEntity
  8
0
100
AcDbCircle
 10
814.9375750470001
 20
153.6167642330354
 30
0.0
 40
0.28125
  0
LINE
  5
157C
330
46E
100
AcDbEntity
  8
0
 62
     7
100
AcDbLine
 10
815.8750750470002
 20
155.1167642330354
 30
0.0
 11
812.6875750470002
 21
155.1167642330354
 31
0.0
  0
LINE
  5
157D
330
46E
100
AcDbEntity
  8
0
 62
     7
100
AcDbLine
 10
815.8750750470002
 20
152.1167642330354
 30
0.0
 11
812.6875750470002
 21
152.1167642330354
 31
0.0
  0
LINE
  5
157E
330
46E
100
AcDbEntity
  8
0
 62
     7
100
AcDbLine
 10
812.6875750470002
 20
155.1167642330354
 30
0.0
 11
812.6875750470002
 21
152.1167642330354
 31
0.0
  0
LINE
  5
157F
330
46E
100
AcDbEntity
  8
0
 62
     7
100
AcDbLine
 10
817.1875750470002
 20
155.1167642330354
 30
0.0
 11
816.9375750470003
 21
155.1167642330354
 31
0.0
  0
LINE
  5
1580
330
46E
100
AcDbEntity
  8
0
 62
     7
100
AcDbLine
 10
817.1875750470002
 20
155.1167642330354
 30
0.0
 11
817.1875750470002
 21
152.1167642330354
 31
0.0
  0
LINE
  5
1581
330
46E
100
AcDbEntity
  8
0
 62
     7
100
AcDbLine
 10
817.1875750470002
 20
152.1167642330354
 30
0.0
 11
816.9375750470003
 21
152.1167642330354
 31
0.0
  0
LINE
  5
161B
330
46E
100
AcDbEntity
  8
0
 62
     7
100
AcDbLine
 10
790.5625750470002
 20
107.1167642330354
 30
0.0
 11
790.5625750470002
 21
104.1167642330354
 31
0.0
  0
LINE
  5
161C
330
46E
100
AcDbEntity
  8
0
 62
     7
100
AcDbLine
 10
790.5625750470002
 20
104.1167642330354
 30
0.0
 11
790.8125750470002
 21
104.1167642330354
 31
0.0
  0
LINE
  5
161D
330
46E
100
AcDbEntity
  8
0
 62
     7
100
AcDbLine
 10
790.5625750470002
 20
107.1167642330354
 30
0.0
 11
790.8125750470002
 21
107.1167642330354
 31
0.0
  0
LINE
  5
161E
330
46E
100
AcDbEntity
  8
0
 62
     7
100
AcDbLine
 10
795.0625750470002
 20
107.1167642330354
 30
0.0
 11
795.0625750470002
 21
104.1167642330354
 31
0.0
  0
LINE
  5
161F
330
46E
100
AcDbEntity
  8
0
 62
     7
100
AcDbLine
 10
791.8750750470002
 20
104.1167642330354
 30
0.0
 11
795.0625750470002
 21
104.1167642330354
 31
0.0
  0
CIRCLE
  5
1620
330
46E
100
AcDbEntity
  8
0
100
AcDbCircle
 10
792.8125750470002
 20
105.6167642330354
 30
0.0
 40
0.28125
  0
LINE
  5
1621
330
46E
100
AcDbEntity
  8
0
 62
     7
100
AcDbLine
 10
791.8750750470002
 20
107.1167642330354
 30
0.0
 11
795.0625750470002
 21
107.1167642330354
 31
0.0
  0
LINE
  5
1622
330
46E
100
AcDbEntity
  8
0
 62
     7
100
AcDbLine
 10
812.6875750470002
 20
107.1167642330354
 30
0.0
 11
812.6875750470002
 21
104.1167642330354
 31
0.0
  0
LINE
  5
1623
330
46E
100
AcDbEntity
  8
0
 62
     7
100
AcDbLine
 10
817.1875750470002
 20
107.1167642330354
 30
0.0
 11
817.1875750470002
 21
104.1167642330354
 31
0.0
  0
LINE
  5
1624
330
46E
100
AcDbEntity
  8
0
 62
     7
100
AcDbLine
 10
815.8750750470002
 20
104.1167642330354
 30
0.0
 11
812.6875750470002
 21
104.1167642330354
 31
0.0
  0
CIRCLE
  5
1625
330
46E
100
AcDbEntity
  8
0
100
AcDbCircle
 10
814.9375750470001
 20
105.6167642330354
 30
0.0
 40
0.28125
  0
LINE
  5
1626
330
46E
100
AcDbEntity
  8
0
 62
     7
100
AcDbLine
 10
817.1875750470002
 20
104.1167642330354
 30
0.0
 11
816.9375750470003
 21
104.1167642330354
 31
0.0
  0
LINE
  5
1627
330
46E
100
AcDbEntity
  8
0
 62
     7
100
AcDbLine
 10
815.8750750470002
 20
107.1167642330354
 30
0.0
 11
812.6875750470002
 21
107.1167642330354
 31
0.0
  0
LINE
  5
1628
330
46E
100
AcDbEntity
  8
0
 62
     7
100
AcDbLine
 10
817.1875750470002
 20
107.1167642330354
 30
0.0
 11
816.9375750470003
 21
107.1167642330354
 31
0.0
  0
LINE
  5
1629
330
46E
100
AcDbEntity
  8
0
 62
     7
100
AcDbLine
 10
795.0625750470002
 20
83.11676423303541
 30
0.0
 11
795.0625750470002
 21
80.11676423303541
 31
0.0
  0
LINE
  5
162A
330
46E
100
AcDbEntity
  8
0
 62
     7
100
AcDbLine
 10
790.5625750470002
 20
83.11676423303541
 30
0.0
 11
790.5625750470002
 21
80.11676423303541
 31
0.0
  0
LINE
  5
162B
330
46E
100
AcDbEntity
  8
0
 62
     7
100
AcDbLine
 10
790.5625750470002
 20
80.11676423303541
 30
0.0
 11
790.8125750470002
 21
80.11676423303541
 31
0.0
  0
CIRCLE
  5
162C
330
46E
100
AcDbEntity
  8
0
100
AcDbCircle
 10
792.8125750470002
 20
81.61676423303541
 30
0.0
 40
0.28125
  0
LINE
  5
162D
330
46E
100
AcDbEntity
  8
0
 62
     7
100
AcDbLine
 10
791.8750750470002
 20
80.11676423303541
 30
0.0
 11
795.0625750470002
 21
80.11676423303541
 31
0.0
  0
LINE
  5
162E
330
46E
100
AcDbEntity
  8
0
 62
     7
100
AcDbLine
 10
790.5625750470002
 20
83.11676423303541
 30
0.0
 11
790.8125750470002
 21
83.11676423303541
 31
0.0
  0
LINE
  5
162F
330
46E
100
AcDbEntity
  8
0
 62
     7
100
AcDbLine
 10
791.8750750470002
 20
83.11676423303541
 30
0.0
 11
795.0625750470002
 21
83.11676423303541
 31
0.0
  0
LINE
  5
1630
330
46E
100
AcDbEntity
  8
0
 62
     7
100
AcDbLine
 10
817.1875750470002
 20
83.11676423303541
 30
0.0
 11
817.1875750470002
 21
80.11676423303541
 31
0.0
  0
LINE
  5
1631
330
46E
100
AcDbEntity
  8
0
 62
     7
100
AcDbLine
 10
812.6875750470002
 20
83.11676423303541
 30
0.0
 11
812.6875750470002
 21
80.11676423303541
 31
0.0
  0
LINE
  5
1632
330
46E
100
AcDbEntity
  8
0
 62
     7
100
AcDbLine
 10
815.8750750470002
 20
80.11676423303541
 30
0.0
 11
812.6875750470002
 21
80.11676423303541
 31
0.0
  0
LINE
  5
1633
330
46E
100
AcDbEntity
  8
0
 62
     7
100
AcDbLine
 10
817.1875750470002
 20
80.11676423303541
 30
0.0
 11
816.9375750470003
 21
80.11676423303541
 31
0.0
  0
CIRCLE
  5
1634
330
46E
100
AcDbEntity
  8
0
100
AcDbCircle
 10
814.9375750470001
 20
81.61676423303541
 30
0.0
 40
0.28125
  0
LINE
  5
1635
330
46E
100
AcDbEntity
  8
0
 62
     7
100
AcDbLine
 10
815.8750750470002
 20
83.11676423303541
 30
0.0
 11
812.6875750470002
 21
83.11676423303541
 31
0.0
  0
LINE
  5
1636
330
46E
100
AcDbEntity
  8
0
 62
     7
100
AcDbLine
 10
817.1875750470002
 20
83.11676423303541
 30
0.0
 11
816.9375750470003
 21
83.11676423303541
 31
0.0
  0
LINE
  5
16AA
330
46E
100
AcDbEntity
  8
0
100
AcDbLine
 10
819.3125750470001
 20
72.11676423303552
 30
0.0
 11
853.5166869428655
 21
72.11676423303552
 31
0.0
  0
LINE
  5
16AB
330
46E
100
AcDbEntity
  8
0
100
AcDbLine
 10
820.6250750470001
 20
257.1167642330354
 30
0.0
 11
853.5166869428655
 21
257.1167642330354
 31
0.0
  0
LINE
  5
16AC
330
46E
100
AcDbEntity
  8
0
100
AcDbLine
 10
851.1416869428654
 20
74.49176423303552
 30
0.0
 11
851.1416869428654
 21
141.0827714369889
 31
0.0
  0
LINE
  5
16AD
330
46E
100
AcDbEntity
  8
0
100
AcDbLine
 10
851.1416869428655
 20
254.7417642330354
 30
0.0
 11
851.1416869428655
 21
168.8103356616069
 31
0.0
  0
SOLID
  5
16AE
330
46E
100
AcDbEntity
  8
0
100
AcDbTrace
 10
850.745853609532
 20
74.49176423303552
 30
0.0
 11
851.5375202761989
 21
74.49176423303552
 31
0.0
 12
851.1416869428654
 22
72.11676423303552
 32
0.0
 13
851.1416869428654
 23
72.11676423303552
 33
0.0
  0
SOLID
  5
16AF
330
46E
100
AcDbEntity
  8
0
100
AcDbTrace
 10
850.7458536095322
 20
254.7417642330354
 30
0.0
 11
851.5375202761989
 21
254.7417642330354
 31
0.0
 12
851.1416869428655
 22
257.1167642330354
 32
0.0
 13
851.1416869428655
 23
257.1167642330354
 33
0.0
  0
DIMENSION
  5
16C6
330
46E
100
AcDbEntity
  8
0
100
AcDbDimension
  2
*D19
 10
574.6500313380468
 20
72.11676423303535
 30
0.0
 11
574.6500313380468
 21
77.50925753143258
 31
0.0
 70
   160
  1
AS REQ'D
 71
     5
 42
11.00000000000005
  3
STANDARD$0
100
AcDbAlignedDimension
 13
592.1547528892131
 23
83.11676423303541
 33
0.0
 14
592.1547528892131
 24
72.11676423303535
 34
0.0
 50
90.0
100
AcDbRotatedDimension
  0
TEXT
  5
1D9C
330
46E
100
AcDbEntity
  8
0
 62
     7
100
AcDbText
 10
580.0553214589622
 20
29.15117872442697
 30
0.0
 40
2.32006371539574
  1
Ph: (423) 586-2265 Fax: (423) 586-2091
  7
CAT_BORDER$0$ROMANS
100
AcDbText
  0
TEXT
  5
1D9D
330
46E
100
AcDbEntity
  8
0
 62
     7
100
AcDbText
 10
578.7557867216123
 20
32.9074723588771
 30
0.0
 40
2.32006371539574
  1
P.O. BOX 2279 Morristown, TN 37816-2279
  7
CAT_BORDER$0$ROMANS
100
AcDbText
  0
POLYLINE
  5
1D9E
330
46E
100
AcDbEntity
  8
0
 62
     7
100
AcDb2dPolyline
 66
     1
 10
0.0
 20
0.0
 30
0.0
1001
ACAD
1000
ASC_BOUNDS
1002
{
1070
    19
1002
}
  0
VERTEX
  5
1D9F
330
1D9E
100
AcDbEntity
  8
0
 62
     7
100
AcDbVertex
100
AcDb2dVertex
 10
570.099384721437
 20
33.85444410758836
 30
0.0
  0
VERTEX
  5
1DA0
330
1D9E
100
AcDbEntity
  8
0
 62
     7
100
AcDbVertex
100
AcDb2dVertex
 10
570.4704733205383
 20
34.04352588581398
 30
0.0
1001
ACAD
1000
ASC_BOUNDS
1002
{
1070
    19
1002
}
  0
VERTEX
  5
1DA1
330
1D9E
100
AcDbEntity
  8
0
 62
     7
100
AcDbVertex
100
AcDb2dVertex
 10
572.9669132256786
 20
29.0479345111008
 30
0.0
1001
ACAD
1000
ASC_BOUNDS
1002
{
1070
    19
1002
}
  0
VERTEX
  5
1DA2
330
1D9E
100
AcDbEntity
  8
0
 62
     7
100
AcDbVertex
100
AcDb2dVertex
 10
572.1647548301998
 20
29.05299589553211
 30
0.0
  0
VERTEX
  5
1DA3
330
1D9E
100
AcDbEntity
  8
0
 62
     7
100
AcDbVertex
100
AcDb2dVertex
 10
569.8331297944666
 20
33.71877851404852
 30
0.0
  0
SEQEND
  5
1DA4
330
1D9E
100
AcDbEntity
  8
0
 62
     7
  0
TEXT
  5
1DA5
330
46E
100
AcDbEntity
  8
0
 62
     7
100
AcDbText
 10
570.5043478562438
 20
36.85354409767888
 30
0.0
 40
3.792347262225233
  1
Precision Ladders, LLC
  7
CAT_BORDER$0$STYLE1
100
AcDbText
  0
CIRCLE
  5
1DA6
330
46E
100
AcDbEntity
  8
0
100
AcDbCircle
 10
567.5720556833909
 20
36.29753513833371
 30
0.0
 40
10.40020827141569
1001
ACAD
1000
ASC_BOUNDS
1002
{
1070
    19
1002
}
  0
INSERT
  5
1DA7
330
46E
100
AcDbEntity
  8
0
100
AcDbBlockReference
  2
*X20
 10
598.7336714707059
 20
269.6649265647655
 30
0.0
 41
0.8415101198801266
 42
0.8415101198802261
 43
0.8415101198802242
1001
ACAD
1000
HATCH
1002
{
1070
    19
1000
ANSI31
1040
0.8843871093750001
1040
0.0
1002
}
  0
LWPOLYLINE
  5
1DA8
330
46E
100
AcDbEntity
  8
0
 62
     7
100
AcDbPolyline
 90
        4
 70
     1
 43
0.0
 10
560.6690344272224
 20
41.60930194013592
 10
560.6690344272224
 20
42.36225926801783
 10
568.6880299691638
 20
42.36225926801783
 10
568.6880299691638
 20
41.60930194013592
1001
ACAD
1000
ASC_BOUNDS
1002
{
1070
    19
1005
0
1005
0
1002
}
  0
LINE
  5
1DA9
330
46E
100
AcDbEntity
  8
0
 62
     7
100
AcDbLine
 10
560.9488397714299
 20
41.52803490065965
 30
0.0
 11
564.2817356387142
 21
34.9868584577727
 31
0.0
1001
ACAD
1000
ASC_BOUNDS
1002
{
1070
    19
1002
}
  0
LWPOLYLINE
  5
1DAA
330
46E
100
AcDbEntity
  8
0
 62
     7
100
AcDbPolyline
 90
        4
 70
     0
 43
0.0
 10
560.7793629619273
 20
41.60600022378544
 10
564.3084723910394
 20
34.67973298313254
 10
564.2923710336415
 20
34.67152893176696
 10
560.7632616045293
 20
41.59779617241979
1001
ACAD
1000
ASC_BOUNDS
1002
{
1070
    19
1002
}
  0
LINE
  5
1DAB
330
46E
100
AcDbEntity
  8
0
 62
     7
100
AcDbLine
 10
560.8482062876933
 20
41.47675957962447
 30
0.0
 11
560.9488397714299
 21
41.52803490065965
 31
0.0
1001
ACAD
1000
ASC_BOUNDS
1002
{
1070
    19
1002
}
  0
LINE
  5
1DAC
330
46E
100
AcDbEntity
  8
0
 62
     7
100
AcDbLine
 10
560.9488397714299
 20
41.52803490065965
 30
0.0
 11
561.1083353168574
 21
41.60930194013592
 31
0.0
1001
ACAD
1000
ASC_BOUNDS
1002
{
1070
    19
1002
}
  0
LINE
  5
1DAD
330
46E
100
AcDbEntity
  8
0
 62
     7
100
AcDbLine
 10
560.9488397714299
 20
41.52803490065965
 30
0.0
 11
561.1539410555706
 21
41.12550096571282
 31
0.0
1001
ACAD
1000
ASC_BOUNDS
1002
{
1070
    19
1002
}
  0
LINE
  5
1DAE
330
46E
100
AcDbEntity
  8
0
 62
     7
100
AcDbLine
 10
564.0834737368684
 20
38.8926552564687
 30
0.0
 11
563.3074563991108
 21
37.31612784808499
 31
0.0
1001
ACAD
1000
ASC_BOUNDS
1002
{
1070
    19
1005
0
1002
}
  0
LWPOLYLINE
  5
1DAF
330
46E
100
AcDbEntity
  8
0
 62
     7
100
AcDbPolyline
 90
        2
 70
     0
 43
0.0
 10
563.9014281734343
 20
38.90274715900044
 10
563.1571008835071
 20
37.39060005057531
1001
ACAD
1000
ASC_BOUNDS
1002
{
1070
    19
1005
0
1002
}
  0
LINE
  5
1DB0
330
46E
100
AcDbEntity
  8
0
 62
     7
100
AcDbLine
 10
562.4285469234332
 20
41.60930194013592
 30
0.0
 11
563.855326652068
 21
38.80908905567502
 31
0.0
1001
ACAD
1000
ASC_BOUNDS
1002
{
1070
    19
1002
}
  0
LINE
  5
1DB1
330
46E
100
AcDbEntity
  8
0
 62
     7
100
AcDbLine
 10
562.301787358698
 20
41.60930194013592
 30
0.0
 11
563.7930409978637
 21
38.68255188153641
 31
0.0
1001
ACAD
1000
ASC_BOUNDS
1002
{
1070
    19
1002
}
  0
LINE
  5
1DB2
330
46E
100
AcDbEntity
  8
0
 62
     7
100
AcDbLine
 10
562.1714713798439
 20
40.70408973329875
 30
0.0
 11
563.5023746115764
 21
38.09204506889008
 31
0.0
1001
ACAD
1000
ASC_BOUNDS
1002
{
1070
    19
1002
}
  0
LINE
  5
1DB3
330
46E
100
AcDbEntity
  8
0
 62
     7
100
AcDbLine
 10
564.754010875273
 20
34.61436421772928
 30
0.0
 11
569.8331297944666
 21
33.71877851404852
 31
0.0
1001
ACAD
1000
ASC_BOUNDS
1002
{
1070
    19
1002
}
  0
POLYLINE
  5
1DB4
330
46E
100
AcDbEntity
  8
0
 62
     7
100
AcDb2dPolyline
 66
     1
 10
0.0
 20
0.0
 30
0.0
1001
ACAD
1000
ASC_BOUNDS
1002
{
1070
    19
1002
}
  0
VERTEX
  5
1DB5
330
1DB4
100
AcDbEntity
  8
0
 62
     7
100
AcDbVertex
100
AcDb2dVertex
 10
564.8759220390882
 20
35.12844930324722
 30
0.0
  0
VERTEX
  5
1DB6
330
1DB4
100
AcDbEntity
  8
0
 62
     7
100
AcDbVertex
100
AcDb2dVertex
 10
564.9190810357135
 20
35.31160215766211
 30
0.0
1001
ACAD
1000
ASC_BOUNDS
1002
{
1070
    19
1002
}
  0
VERTEX
  5
1DB7
330
1DB4
100
AcDbEntity
  8
0
 62
     7
100
AcDbVertex
100
AcDb2dVertex
 10
569.9761607822527
 20
34.4199025547528
 30
0.0
1001
ACAD
1000
ASC_BOUNDS
1002
{
1070
    19
1002
}
  0
VERTEX
  5
1DB8
330
1DB4
100
AcDbEntity
  8
0
 62
     7
100
AcDbVertex
100
AcDb2dVertex
 10
569.8875199061831
 20
33.98539357062576
 30
0.0
  0
SEQEND
  5
1DB9
330
1DB4
100
AcDbEntity
  8
0
 62
     7
  0
LINE
  5
1DBA
330
46E
100
AcDbEntity
  8
0
 62
     7
100
AcDbLine
 10
563.8881617667339
 20
38.49586686126038
 30
0.0
 11
565.3465907707582
 21
35.63353877642881
 31
0.0
1001
ACAD
1000
ASC_BOUNDS
1002
{
1070
    19
1005
0
1002
}
  0
LWPOLYLINE
  5
1DBB
330
46E
100
AcDbEntity
  8
0
 62
     7
100
AcDbPolyline
 90
        2
 70
     0
 43
0.0
 10
563.9504474209381
 20
38.62240403539893
 10
565.443865440157
 20
35.69140614176939
1001
ACAD
1000
ASC_BOUNDS
1002
{
1070
    19
1002
}
  0
LWPOLYLINE
  5
1DBC
330
46E
100
AcDbEntity
  8
0
 62
     7
100
AcDbPolyline
 90
        3
 70
     0
 43
0.0
 10
563.1584526784957
 20
37.20290018776509
 10
563.4291541038628
 20
37.33493009468786
 10
563.3719622345416
 20
37.44717545824709
1001
ACAD
1000
ASC_BOUNDS
1002
{
1070
    19
1002
}
  0
CIRCLE
  5
1DBD
330
46E
100
AcDbEntity
  8
0
 62
     7
100
AcDbCircle
 10
563.2657899240054
 20
37.41926954327947
 30
0.0
 40
0.0282358997955687
1001
ACAD
1000
ASC_BOUNDS
1002
{
1070
    19
1002
}
  0
LINE
  5
1DBE
330
46E
100
AcDbEntity
  8
0
 62
     7
100
AcDbLine
 10
563.2521155848739
 20
37.58362831633148
 30
0.0
 11
563.0217184890686
 21
37.47125614439636
 31
0.0
1001
ACAD
1000
ASC_BOUNDS
1002
{
1070
    19
1002
}
  0
LINE
  5
1DBF
330
46E
100
AcDbEntity
  8
0
 62
     7
100
AcDbLine
 10
562.984966108364
 20
37.52738216432269
 30
0.0
 11
563.1900673925047
 21
37.12484822937586
 31
0.0
1001
ACAD
1000
ASC_BOUNDS
1002
{
1070
    19
1002
}
  0
LINE
  5
1DC0
330
46E
100
AcDbEntity
  8
0
 62
     7
100
AcDbLine
 10
563.307338022222
 20
37.31596116986218
 30
0.0
 11
563.1568104259631
 21
37.39008493650121
 31
0.0
1001
ACAD
1000
ASC_BOUNDS
1002
{
1070
    19
1002
}
  0
LWPOLYLINE
  5
1DC1
330
46E
100
AcDbEntity
  8
0
 62
     1
100
AcDbPolyline
 90
        2
 70
     1
 43
0.0
 10
563.2940258238011
 20
37.41926954327947
 42
-1.0
 10
563.2375540242101
 20
37.41926954327947
 42
-1.0
1001
ACAD
1000
ASC_BOUNDS
1002
{
1070
    19
1002
}
  0
LINE
  5
1DC2
330
46E
100
AcDbEntity
  8
0
 62
     7
100
AcDbLine
 10
565.4446730515112
 20
35.69189140362765
 30
0.0
 11
565.3478614914686
 21
35.63372114973144
 31
0.0
1001
ACAD
1000
ASC_BOUNDS
1002
{
1070
    19
1002
}
  0
LINE
  5
1DC3
330
46E
100
AcDbEntity
  8
0
 62
     7
100
AcDbLine
 10
564.6661495373816
 20
35.18272712228303
 30
0.0
 11
564.1787268850375
 21
34.93437287625385
 31
0.0
1001
ACAD
1000
ASC_BOUNDS
1002
{
1070
    19
1002
}
  0
POLYLINE
  5
1DC4
330
46E
100
AcDbEntity
  8
0
 62
     7
100
AcDb2dPolyline
 66
     1
 10
0.0
 20
0.0
 30
0.0
1001
ACAD
1000
ASC_BOUNDS
1002
{
1070
    19
1002
}
  0
VERTEX
  5
1DC5
330
1DC4
100
AcDbEntity
  8
0
 62
     7
100
AcDbVertex
100
AcDb2dVertex
 10
564.7547499137856
 20
34.61423390529954
 30
0.0
  0
VERTEX
  5
1DC6
330
1DC4
100
AcDbEntity
  8
0
 62
     7
100
AcDbVertex
100
AcDb2dVertex
 10
564.8555985076098
 20
35.04220279398789
 30
0.0
1001
ACAD
1000
ASC_BOUNDS
1002
{
1070
    19
1002
}
  0
SEQEND
  5
1DC7
330
1DC4
100
AcDbEntity
  8
0
 62
     7
  0
LINE
  5
1DC8
330
46E
100
AcDbEntity
  8
0
 62
     7
100
AcDbLine
 10
563.5974953804463
 20
37.90536004861389
 30
0.0
 11
564.518228401436
 21
36.0983197488544
 31
0.0
1001
ACAD
1000
ASC_BOUNDS
1002
{
1070
    19
1002
}
  0
LINE
  5
1DC9
330
46E
100
AcDbEntity
  8
0
 62
     7
100
AcDbLine
 10
564.5722042338586
 20
35.99238621309856
 30
0.0
 11
564.9190810357135
 21
35.31160215766211
 31
0.0
1001
ACAD
1000
ASC_BOUNDS
1002
{
1070
    19
1002
}
  0
LWPOLYLINE
  5
1DCA
330
46E
100
AcDbEntity
  8
0
 62
     7
100
AcDbPolyline
 90
        4
 70
     0
 43
0.0
 10
565.0460038902333
 20
36.22347374596386
 10
564.2658639456547
 20
35.84297407135078
 10
564.2145886246193
 20
35.94360755508757
 10
564.9878513255408
 20
36.33760458035174
1001
ACAD
1000
ASC_BOUNDS
1002
{
1070
    19
1005
0
1002
}
  0
LWPOLYLINE
  5
1DCB
330
46E
100
AcDbEntity
  8
0
 62
     7
100
AcDbPolyline
 90
        5
 70
     0
 43
0.0
 10
564.9190810357494
 20
35.31160215781877
 10
564.9394136423214
 20
35.26558497728248
 10
565.1899291080949
 20
34.75947390615825
 10
565.0212254177204
 20
34.67596875090058
 10
564.8087317438908
 20
35.14583453083445
1001
ACAD
1000
ASC_BOUNDS
1002
{
1070
    19
1002
}
  0
POLYLINE
  5
1DCC
330
46E
100
AcDbEntity
  8
0
 62
     7
100
AcDb2dPolyline
 66
     1
 10
0.0
 20
0.0
 30
0.0
 70
     1
1001
ACAD
1000
ASC_BOUNDS
1002
{
1070
    19
1002
}
  0
VERTEX
  5
1DCD
330
1DCC
100
AcDbEntity
  8
0
 62
     7
100
AcDbVertex
100
AcDb2dVertex
 10
564.2842638157251
 20
35.27927986465639
 30
0.0
1001
ACAD
1000
ASC_BOUNDS
1002
{
1070
    19
1002
}
  0
VERTEX
  5
1DCE
330
1DCC
100
AcDbEntity
  8
0
 62
     7
100
AcDbVertex
100
AcDb2dVertex
 10
564.3191698232662
 20
35.44691964269122
 30
0.0
  0
VERTEX
  5
1DCF
330
1DCC
100
AcDbEntity
  8
0
 62
     7
100
AcDbVertex
100
AcDb2dVertex
 10
564.3677638393888
 20
35.43389591850719
 30
0.0
  0
VERTEX
  5
1DD0
330
1DCC
100
AcDbEntity
  8
0
 62
     7
100
AcDbVertex
100
AcDb2dVertex
 10
564.9190810357494
 20
35.31160215781877
 30
0.0
  0
VERTEX
  5
1DD1
330
1DCC
100
AcDbEntity
  8
0
 62
     7
100
AcDbVertex
100
AcDb2dVertex
 10
564.8783164488532
 20
35.12782975903203
 30
0.0
  0
VERTEX
  5
1DD2
330
1DCC
100
AcDbEntity
  8
0
 62
     7
100
AcDbVertex
100
AcDb2dVertex
 10
564.3316030907306
 20
35.26928971434209
 30
0.0
  0
SEQEND
  5
1DD3
330
1DCC
100
AcDbEntity
  8
0
 62
     7
  0
LWPOLYLINE
  5
1DD4
330
46E
100
AcDbEntity
  8
0
 62
     7
100
AcDbPolyline
 90
        5
 70
     0
 43
0.0
 10
569.8331297944666
 20
33.71877851404852
 10
569.8108167167681
 20
33.76386867215602
 10
569.5385448237402
 20
34.25861550759136
 10
569.7034604355521
 20
34.34937280526714
 10
569.9361714126644
 20
33.88918478532105
1001
ACAD
1000
ASC_BOUNDS
1002
{
1070
    19
1002
}
  0
LINE
  5
1DD5
330
46E
100
AcDbEntity
  8
0
 62
     7
100
AcDbLine
 10
569.8707345364855
 20
33.90311331507309
 30
0.0
 11
569.8331297944666
 21
33.71877851404852
 31
0.0
1001
ACAD
1000
ASC_BOUNDS
1002
{
1070
    19
1002
}
  0
POLYLINE
  5
1DD6
330
46E
100
AcDbEntity
  8
0
 62
     7
100
AcDb2dPolyline
 66
     1
 10
0.0
 20
0.0
 30
0.0
 70
     1
1001
ACAD
1000
ASC_BOUNDS
1002
{
1070
    19
1002
}
  0
VERTEX
  5
1DD7
330
1DD6
100
AcDbEntity
  8
0
 62
     7
100
AcDbVertex
100
AcDb2dVertex
 10
570.4659427902283
 20
33.77865627177236
 30
0.0
1001
ACAD
1000
ASC_BOUNDS
1002
{
1070
    19
1002
}
  0
VERTEX
  5
1DD8
330
1DD6
100
AcDbEntity
  8
0
 62
     7
100
AcDbVertex
100
AcDb2dVertex
 10
570.4383545458076
 20
33.60965800754521
 30
0.0
  0
VERTEX
  5
1DD9
330
1DD6
100
AcDbEntity
  8
0
 62
     7
100
AcDbVertex
100
AcDb2dVertex
 10
570.389240486123
 20
33.62055777524191
 30
0.0
  0
VERTEX
  5
1DDA
330
1DD6
100
AcDbEntity
  8
0
 62
     7
100
AcDbVertex
100
AcDb2dVertex
 10
569.8331297944666
 20
33.71877851404852
 30
0.0
  0
VERTEX
  5
1DDB
330
1DD6
100
AcDbEntity
  8
0
 62
     7
100
AcDbVertex
100
AcDb2dVertex
 10
569.8658700407357
 20
33.90414874460058
 30
0.0
  0
VERTEX
  5
1DDC
330
1DD6
100
AcDbEntity
  8
0
 62
     7
100
AcDbVertex
100
AcDb2dVertex
 10
570.418214110434
 20
33.78657985596459
 30
0.0
  0
SEQEND
  5
1DDD
330
1DD6
100
AcDbEntity
  8
0
 62
     7
  0
LINE
  5
1DDE
330
46E
100
AcDbEntity
  8
0
 62
     1
100
AcDbLine
 10
569.9761607822527
 20
34.4199025547528
 30
0.0
 11
569.8875199061831
 21
33.98539357062576
 31
0.0
1001
ACAD
1000
ASC_BOUNDS
1002
{
1070
    19
1002
}
  0
LINE
  5
1DDF
330
46E
100
AcDbEntity
  8
0
 62
     1
100
AcDbLine
 10
569.8875199061831
 20
33.98539357062576
 30
0.0
 11
569.9361714126644
 21
33.88918478532105
 31
0.0
1001
ACAD
1000
ASC_BOUNDS
1002
{
1070
    19
1002
}
  0
LINE
  5
1DE0
330
46E
100
AcDbEntity
  8
0
 62
     1
100
AcDbLine
 10
569.9361714126644
 20
33.88918478532105
 30
0.0
 11
570.0993847214371
 21
33.85444410758836
 31
0.0
  0
LINE
  5
1DE1
330
46E
100
AcDbEntity
  8
0
 62
     1
100
AcDbLine
 10
570.0993847214371
 20
33.85444410758836
 30
0.0
 11
570.4704733205383
 21
34.04352588581398
 31
0.0
1001
ACAD
1000
ASC_BOUNDS
1002
{
1070
    19
1002
}
  0
LINE
  5
1DE2
330
46E
100
AcDbEntity
  8
0
 62
     7
100
AcDbLine
 10
561.7102427232675
 20
41.60930194013592
 30
0.0
 11
562.1228776308341
 21
40.7994603356073
 31
0.0
1001
ACAD
1000
ASC_BOUNDS
1002
{
1070
    19
1002
}
  0
LWPOLYLINE
  5
1DE3
330
46E
100
AcDbEntity
  8
0
 62
     7
100
AcDbPolyline
 90
        4
 70
     0
 43
0.0
 10
562.596677287209
 20
41.03054786847261
 10
561.8195716745502
 20
40.65152813642129
 10
561.869082889646
 20
40.55001510190871
 10
562.6410943039489
 20
40.943374564796
1001
ACAD
1000
ASC_BOUNDS
1002
{
1070
    19
1002
}
  0
LINE
  5
1DE4
330
46E
100
AcDbEntity
  8
0
 62
     7
100
AcDbLine
 10
565.121064311689
 20
41.60930194013592
 30
0.0
 11
564.1567336753621
 21
39.86635626647468
 31
0.0
1001
ACAD
1000
ASC_BOUNDS
1002
{
1070
    19
1002
}
  0
LINE
  5
1DE5
330
46E
100
AcDbEntity
  8
0
 62
     7
100
AcDbLine
 10
564.9059342823184
 20
41.60930194013592
 30
0.0
 11
564.1874528925306
 21
40.31070788664111
 31
0.0
1001
ACAD
1000
ASC_BOUNDS
1002
{
1070
    19
1002
}
  0
CIRCLE
  5
1DE6
330
46E
100
AcDbEntity
  8
0
 62
     7
100
AcDbCircle
 10
564.0000038305722
 20
38.93863920770839
 30
0.0
 40
0.0282358997955687
1001
ACAD
1000
ASC_BOUNDS
1002
{
1070
    19
1002
}
  0
LWPOLYLINE
  5
1DE7
330
46E
100
AcDbEntity
  8
0
 62
     1
100
AcDbPolyline
 90
        2
 70
     1
 43
0.0
 10
564.0282397303677
 20
38.93863920770839
 42
-1.0
 10
563.9717679307763
 20
38.93863920770839
 42
-1.0
1001
ACAD
1000
ASC_BOUNDS
1002
{
1070
    19
1002
}
  0
LINE
  5
1DE8
330
46E
100
AcDbEntity
  8
0
 62
     1
100
AcDbLine
 10
564.0892181849379
 20
38.88974877704182
 30
0.0
 11
564.0820430745057
 21
38.88974877704182
 31
0.0
  0
LINE
  5
1DE9
330
46E
100
AcDbEntity
  8
0
 62
     7
100
AcDbLine
 10
564.277228176186
 20
41.60930194013592
 30
0.0
 11
564.0883206698053
 21
38.87676627488003
 31
0.0
1001
ACAD
1000
ASC_BOUNDS
1002
{
1070
    19
1005
0
1002
}
  0
LWPOLYLINE
  5
1DEA
330
46E
100
AcDbEntity
  8
0
 62
     7
100
AcDbPolyline
 90
        3
 70
     0
 43
0.0
 10
564.088539551737
 20
41.60930194013592
 10
563.9005295604888
 20
38.88974877704182
 10
564.0887688924592
 20
38.88974877704182
1001
ACAD
1000
ASC_BOUNDS
1002
{
1070
    19
1005
0
1002
}
  0
TEXT
  5
1DEB
330
46E
100
AcDbEntity
  8
0
 62
     7
100
AcDbText
 10
590.6230260967149
 20
24.95864585336957
 30
0.0
 40
2.668073272705102
  1
www.PrecisionLadders.com
  7
CAT_BORDER$0$ROMANS
100
AcDbText
  0
LWPOLYLINE
  5
1DEC
330
46E
100
AcDbEntity
  8
0
 62
     7
100
AcDbPolyline
 90
        9
 70
     0
 43
0.0
 10
572.7042525509843
 20
28.94524134406405
 10
572.7046088643999
 20
29.00171201954977
 10
572.5351968379429
 20
29.00278095979657
 10
572.4222554869716
 20
29.00349358662763
 10
572.4218991735559
 20
28.94702291114206
 42
0.4142135623730939
 10
572.4406039609125
 20
28.92808058150814
 10
572.6853102213506
 20
28.92653655670731
 42
0.4142135623730989
 10
572.7042525509843
 20
28.94524134406405
 42
-0.4142135623730944
 10
572.6853102213506
 20
28.92653655670731
1001
ACAD
1000
ASC_BOUNDS
1002
{
1070
    19
1002
}
  0
LINE
  5
1DED
330
46E
100
AcDbEntity
  8
0
 62
     7
100
AcDbLine
 10
572.617598813801
 20
29.05013858268551
 30
0.0
 11
572.6169301449021
 21
29.00226524657863
 31
0.0
1001
ACAD
1000
ASC_BOUNDS
1002
{
1070
    19
1002
}
  0
LINE
  5
1DEE
330
46E
100
AcDbEntity
  8
0
 62
     7
100
AcDbLine
 10
572.5140692420775
 20
29.05079182394741
 30
0.0
 11
572.617598813801
 21
29.05013858268551
 31
0.0
1001
ACAD
1000
ASC_BOUNDS
1002
{
1070
    19
1002
}
  0
LINE
  5
1DEF
330
46E
100
AcDbEntity
  8
0
 62
     7
100
AcDbLine
 10
572.5138052435843
 20
29.0089517680122
 30
0.0
 11
572.5140692420775
 21
29.05079182394741
 31
0.0
1001
ACAD
1000
ASC_BOUNDS
1002
{
1070
    19
1002
}
  0
TEXT
  5
1DF0
330
46E
100
AcDbEntity
  8
0
100
AcDbText
 10
663.6965233242169
 20
24.61553731591958
 30
0.0
 40
1.80019101796875
  1
WORK ORDER: ( )
 50
90.0
 41
0.9
  7
CAT_BORDER$0$ROMANS
100
AcDbText
  0
TEXT
  5
1DF1
330
46E
100
AcDbEntity
  8
0
100
AcDbText
 10
666.403051798934
 20
29.06578648361615
 30
0.0
 40
1.80019101796875
  1
CHECKED BY:
  7
CAT_BORDER$0$ROMANS
100
AcDbText
  0
TEXT
  5
1DF2
330
46E
100
AcDbEntity
  8
0
100
AcDbText
 10
666.403051798934
 20
45.84722495831702
 30
0.0
 40
1.80019101796875
  1
DWG. CHECK
  7
CAT_BORDER$0$ROMANS
100
AcDbText
  0
TEXT
  5
1DF3
330
46E
100
AcDbEntity
  8
0
100
AcDbText
 10
666.403051798934
 20
37.45650572096657
 30
0.0
 40
1.80019101796875
  1
BUILT BY:
  7
CAT_BORDER$0$ROMANS
100
AcDbText
  0
TEXT
  5
1DF4
330
46E
100
AcDbEntity
  8
0
100
AcDbText
 10
717.706611776128
 20
29.06578648361615
 30
0.0
 40
1.80019101796875
  1
DRAWN BY:
  7
CAT_BORDER$0$ROMANS
100
AcDbText
  0
TEXT
  5
1DF5
330
46E
100
AcDbEntity
  8
0
100
AcDbText
 10
717.706611776128
 20
37.45650572096657
 30
0.0
 40
1.80019101796875
  1
PURCHASE ORDER
  7
CAT_BORDER$0$ROMANS
100
AcDbText
  0
TEXT
  5
1DF6
330
46E
100
AcDbEntity
  8
0
100
AcDbText
 10
717.706611776128
 20
45.84722495831702
 30
0.0
 40
1.80019101796875
  1
ARCH'T OR ENG'R.
  7
CAT_BORDER$0$ROMANS
100
AcDbText
  0
TEXT
  5
1DF7
330
46E
100
AcDbEntity
  8
0
100
AcDbText
 10
914.9703213192843
 20
36.77350354954014
 30
0.0
 40
1.80019101796875
  1
SERIAL#
  7
CAT_BORDER$0$ROMANS
100
AcDbText
  0
TEXT
  5
1DF8
330
46E
100
AcDbEntity
  8
0
100
AcDbText
 10
914.7424445886281
 20
45.84722495831702
 30
0.0
 40
1.80019101796875
  1
PRECISION REP
  7
CAT_BORDER$0$ROMANS
100
AcDbText
  0
TEXT
  5
1DF9
330
46E
100
AcDbEntity
  8
0
100
AcDbText
 10
789.3560055261279
 20
29.06578648361615
 30
0.0
 40
1.80019101796875
  1
DATE
  7
CAT_BORDER$0$ROMANS
100
AcDbText
  0
TEXT
  5
1DFA
330
46E
100
AcDbEntity
  8
0
100
AcDbText
 10
816.2245281823782
 20
29.06578648361615
 30
0.0
 40
1.80019101796875
  1
MODEL#
  7
CAT_BORDER$0$ROMANS
100
AcDbText
  0
TEXT
  5
1DFB
330
46E
100
AcDbEntity
  8
0
100
AcDbText
 10
789.3560055261279
 20
45.84722495831702
 30
0.0
 40
1.80019101796875
  1
PROJECT
  7
CAT_BORDER$0$ROMANS
100
AcDbText
  0
TEXT
  5
1DFC
330
46E
100
AcDbEntity
  8
0
100
AcDbText
 10
789.3560055261279
 20
37.45650572096657
 30
0.0
 40
1.80019101796875
  1
REVISION
  7
CAT_BORDER$0$ROMANS
100
AcDbText
  0
TEXT
  5
1DFD
330
46E
100
AcDbEntity
  8
0
100
AcDbText
 10
816.2245281823782
 20
37.45650572096657
 30
0.0
 40
1.80019101796875
  1
PURCHASER
  7
CAT_BORDER$0$ROMANS
100
AcDbText
  0
TEXT
  5
1DFE
330
46E
100
AcDbEntity
  8
0
100
AcDbText
 10
896.8300961511282
 20
29.06578648361615
 30
0.0
 40
1.80019101796875
  1
QTY.
  7
CAT_BORDER$0$ROMANS
100
AcDbText
  0
LINE
  5
1DFF
330
46E
100
AcDbEntity
  8
0
100
AcDbLine
 10
665.7313387325277
 20
31.75263874924122
 30
0.0
 11
914.0707315222218
 21
31.75263874924122
 31
0.0
  0
LINE
  5
1E00
330
46E
100
AcDbEntity
  8
0
100
AcDbLine
 10
1003.632473709721
 20
23.36191951189078
 30
0.0
 11
1003.632473709721
 21
348.1550199773251
 31
0.0
  0
LINE
  5
1E01
330
46E
100
AcDbEntity
  8
0
100
AcDbLine
 10
1003.632473709721
 20
348.1550199773251
 30
0.0
 11
555.8237627722217
 21
348.1550199773251
 31
0.0
  0
LINE
  5
1E02
330
46E
100
AcDbEntity
  8
0
100
AcDbLine
 10
555.8237627722217
 20
348.1550199773251
 30
0.0
 11
555.8237627722217
 21
23.36191951189078
 31
0.0
  0
LINE
  5
1E03
330
46E
100
AcDbEntity
  8
0
100
AcDbLine
 10
555.8237627722217
 20
23.36191951189078
 30
0.0
 11
1003.632473709721
 21
23.36191951189078
 31
0.0
  0
LINE
  5
1E04
330
46E
100
AcDbEntity
  8
0
100
AcDbLine
 10
665.7313387325277
 20
23.36191951189078
 30
0.0
 11
665.7313387325277
 21
48.53407722394199
 31
0.0
  0
LINE
  5
1E05
330
46E
100
AcDbEntity
  8
0
100
AcDbLine
 10
717.0348987097217
 20
23.36191951189078
 30
0.0
 11
717.0348987097217
 21
48.53407722394199
 31
0.0
  0
LINE
  5
1E06
330
46E
100
AcDbEntity
  8
0
100
AcDbLine
 10
788.6842924597218
 20
23.36191951189078
 30
0.0
 11
788.6842924597218
 21
48.53407722394199
 31
0.0
  0
LINE
  5
1E07
330
46E
100
AcDbEntity
  8
0
100
AcDbLine
 10
815.5528151159719
 20
23.36191951189078
 30
0.0
 11
815.5528151159719
 21
40.14335798659156
 31
0.0
  0
LINE
  5
1E08
330
46E
100
AcDbEntity
  8
0
100
AcDbLine
 10
914.0707315222218
 20
23.36191951189078
 30
0.0
 11
914.0707315222218
 21
48.53407722394199
 31
0.0
  0
LINE
  5
1E09
330
46E
100
AcDbEntity
  8
0
100
AcDbLine
 10
896.1583830847219
 20
23.36191951189078
 30
0.0
 11
896.1583830847219
 21
31.75263874924122
 31
0.0
  0
LINE
  5
1E0A
330
46E
100
AcDbEntity
  8
0
100
AcDbLine
 10
555.8237627722217
 20
48.53407722394199
 30
0.0
 11
1003.632473709721
 21
48.53407722394199
 31
0.0
  0
LINE
  5
1E0B
330
46E
100
AcDbEntity
  8
0
100
AcDbLine
 10
665.7313387325277
 20
40.14335798659156
 30
0.0
 11
1003.632473709721
 21
40.14335798659156
 31
0.0
  0
INSERT
  5
1E0C
330
46E
100
AcDbEntity
  8
0
100
AcDbBlockReference
 66
     1
  2
border-T
 10
555.8237627722217
 20
23.36191951189078
 30
0.0
 41
1.62839531250006
 42
1.628395312500011
 43
1.6283953125
  0
ATTRIB
  5
1E0D
330
1E0C
100
AcDbEntity
  8
0
 62
     5
100
AcDbText
 10
557.8927986475205
 20
50.96804117036454
 30
0.0
 40
3.663889453125
  1

  7
ROMANS
100
AcDbAttribute
  2
SCALE
 70
     0
  0
ATTRIB
  5
1E0E
330
1E0C
100
AcDbEntity
  8
0
100
AcDbText
 10
984.9692897370115
 20
60.03002472951969
 30
0.0
 40
2.852681428894043
  1
FL-11
  7
ROMANS
 72
     4
 11
991.4897044316264
 21
61.45636544396672
 31
0.0
100
AcDbAttribute
  2
SAVEDAS
 70
     0
  0
ATTRIB
  5
1E0F
330
1E0C
100
AcDbEntity
  8
0
 62
     5
100
AcDbText
 10
662.9271051635692
 20
45.33075634403944
 30
0.0
 40
2.032500766888786
  1

 50
90.0
  7
ROMANS
 72
     4
 11
662.9271051635692
 21
45.33075634403944
 31
0.0
100
AcDbAttribute
  2
X
 70
     0
  0
ATTRIB
  5
1E10
330
1E0C
100
AcDbEntity
  8
0
100
AcDbText
 10
752.4961697618
 20
41.54833325829168
 30
0.0
 40
2.880679694416071
  1

  7
ROMANS
 72
     1
 11
752.4961697618
 21
41.54833325829168
 31
0.0
100
AcDbAttribute
  2
ARCHORENG
 70
     0
  0
ATTRIB
  5
1E11
330
1E0C
100
AcDbEntity
  8
0
100
AcDbText
 10
752.4961697618
 20
33.15652431714433
 30
0.0
 40
2.880679694416071
  1

  7
ROMANS
 72
     1
 11
752.4961697618
 21
33.15652431714433
 31
0.0
100
AcDbAttribute
  2
PURCHASEORDER
 70
     0
  0
ATTRIB
  5
1E12
330
1E0C
100
AcDbEntity
  8
0
100
AcDbText
 10
748.0379749966323
 20
24.7647153759968
 30
0.0
 40
2.880679694416071
  1
DNH
  7
ROMANS
 72
     1
 11
752.4961697618
 21
24.7647153759968
 31
0.0
100
AcDbAttribute
  2
DRAWNBY
 70
     0
  0
ATTRIB
  5
1E13
330
1E0C
100
AcDbEntity
  8
0
100
AcDbText
 10
801.761525232224
 20
33.15652431714433
 30
0.0
 40
2.880679694416071
  1

  7
ROMANS
 72
     1
 11
801.761525232224
 21
33.15652431714433
 31
0.0
100
AcDbAttribute
  2
REV
 70
     0
  0
ATTRIB
  5
1E14
330
1E0C
100
AcDbEntity
  8
0
100
AcDbText
 10
793.6681870431503
 20
24.7647153759968
 30
0.0
 40
2.880679694416071
  1
9/1/21
  7
ROMANS
 72
     1
 11
801.761525232224
 21
24.7647153759968
 31
0.0
100
AcDbAttribute
  2
DATE
 70
     0
  0
ATTRIB
  5
1E15
330
1E0C
100
AcDbEntity
  8
0
100
AcDbText
 10
851.0268807026482
 20
41.54833325829168
 30
0.0
 40
2.880679694416071
  1

  7
ROMANS
 72
     1
 11
851.0268807026482
 21
41.54833325829168
 31
0.0
100
AcDbAttribute
  2
PROJECT
 70
     0
  0
ATTRIB
  5
1E16
330
1E0C
100
AcDbEntity
  8
0
100
AcDbText
 10
864.4628867400365
 20
33.15652431714433
 30
0.0
 40
2.880679694416071
  1

  7
ROMANS
 72
     1
 11
864.4628867400365
 21
33.15652431714433
 31
0.0
100
AcDbAttribute
  2
PURCHASER
 70
     0
  0
ATTRIB
  5
1E17
330
1E0C
100
AcDbEntity
  8
0
100
AcDbText
 10
851.3217050636972
 20
24.76471537599696
 30
0.0
 40
2.880679694416071
  1
FL-
  7
ROMANS
 72
     1
 11
855.5055493817777
 21
24.76471537599696
 31
0.0
100
AcDbAttribute
  2
MODEL
 70
     0
  0
ATTRIB
  5
1E18
330
1E0C
100
AcDbEntity
  8
0
100
AcDbText
 10
904.7709048522017
 20
24.7647153759968
 30
0.0
 40
2.880679694416071
  1

  7
ROMANS
 72
     1
 11
904.7709048522017
 21
24.7647153759968
 31
0.0
100
AcDbAttribute
  2
QTY
 70
     0
  0
ATTRIB
  5
1E19
330
1E0C
100
AcDbEntity
  8
0
100
AcDbText
 10
958.5149290017552
 20
41.54724355449476
 30
0.0
 40
2.880679694416071
  1

  7
ROMANS
 72
     1
 11
958.5149290017552
 21
41.54724355449476
 31
0.0
100
AcDbAttribute
  2
REP
 70
     0
  0
ATTRIB
  5
1E1A
330
1E0C
100
AcDbEntity
  8
0
100
AcDbText
 10
958.5705701617072
 20
28.49663860643426
 30
0.0
 40
5.626327528156389
  1

  7
ROMANS
 72
     1
 11
958.5705701617072
 21
28.49663860643426
 31
0.0
100
AcDbAttribute
  2
L010000
 70
     0
  0
SEQEND
  5
1E1B
330
1E0C
100
AcDbEntity
  8
0
  0
TEXT
  5
1E1C
330
46E
100
AcDbEntity
  8
0
100
AcDbText
 10
856.0196970288625
 20
51.71689230973204
 30
0.0
 40
2.510596977539062
  1
LADDER RATED AT 1,500 LBS
  7
ROMANS
100
AcDbText
  0
TEXT
  5
1E1F
330
46E
100
AcDbEntity
  8
0
100
AcDbText
 10
603.3767404518528
 20
53.34039604278323
 30
0.0
 40
2.510596977539062
  1
LADDERS MANUFACTURED BY PRECISION LADDERS, LLC
  7
ROMANS
100
AcDbText
  0
TEXT
  5
1E20
330
46E
100
AcDbEntity
  8
0
100
AcDbText
 10
603.3767404518528
 20
49.27561998391048
 30
0.0
 40
2.510596977539062
  1
COMPLY WITH OSHA 1910 SUBPART D AND ANSI 14.3
  7
ROMANS
100
AcDbText
  0
LINE
  5
1E21
330
46E
100
AcDbEntity
  8
0
100
AcDbLine
 10
1003.632473709721
 20
57.58055685057993
 30
0.0
 11
555.8237627722217
 21
57.58055685057993
 31
0.0
  0
LINE
  5
1E22
330
46E
100
AcDbEntity
  8
0
100
AcDbLine
 10
779.7281182409717
 20
57.58055685057993
 30
0.0
 11
779.7281182409717
 21
48.53407722394199
 31
0.0
  0
TEXT
  5
1EFE
330
46E
100
AcDbEntity
  8
0
  6
ByBlock
 62
     0
100
AcDbText
 10
837.2860869428656
 20
147.4928856616069
 30
0.0
 40
3.0954
  1
GROUND TO
  7
ROMANS
 72
     1
 11
851.1416869428655
 21
149.0405856616069
 31
0.0
100
AcDbText
 73
     2
  0
LINE
  5
1EFF
330
46E
100
AcDbEntity
  8
0
  6
ByBlock
 62
     0
100
AcDbLine
 10
836.0590369428654
 20
141.0827714369889
 30
0.0
 11
866.2243369428656
 21
141.0827714369889
 31
0.0
  0
LINE
  5
1F00
330
46E
100
AcDbEntity
  8
0
  6
ByBlock
 62
     0
100
AcDbLine
 10
866.2243369428654
 20
141.0827714369889
 30
0.0
 11
866.2243369428656
 21
168.8103356616069
 31
0.0
  0
LINE
  5
1F01
330
46E
100
AcDbEntity
  8
0
  6
ByBlock
 62
     0
100
AcDbLine
 10
866.2243369428656
 20
152.9945356616069
 30
0.0
 11
836.0590369428654
 21
152.9945356616069
 31
0.0
  0
LINE
  5
1F02
330
46E
100
AcDbEntity
  8
0
  6
ByBlock
 62
     0
100
AcDbLine
 10
836.0590369428654
 20
168.8103356616069
 30
0.0
 11
836.0590369428656
 21
141.0827714369889
 31
0.0
  0
LINE
  5
1F03
330
46E
100
AcDbEntity
  8
0
  6
ByBlock
 62
     0
100
AcDbLine
 10
866.2243369428656
 20
168.8103356616069
 30
0.0
 11
836.0590369428654
 21
168.8103356616069
 31
0.0
  0
TEXT
  5
1F4E
330
46E
100
AcDbEntity
  8
0
100
AcDbText
 10
560.8563885190261
 20
61.22463491493641
 30
0.0
 40
2.510596977539062
  1
NOTE: FALL ARREST SYSTEM REQUIRED ON LADDERS EXCEEDING 24'-0" (SEE DETAIL FL-13-FAS)
  7
ROMANS
100
AcDbText
  0
TEXT
  5
1F4F
330
46E
100
AcDbEntity
  8
0
100
AcDbText
 10
867.4726781854841
 20
279.4339058314173
 30
0.0
 40
3.0954
  1
CAGE NOT
  7
ROMANS
100
AcDbText
  0
TEXT
  5
1F50
330
46E
100
AcDbEntity
  8
0
100
AcDbText
 10
867.4726781854841
 20
274.4223058314172
 30
0.0
 40
3.0954
  1
REQUIRED
  7
ROMANS
100
AcDbText
  0
TEXT
  5
1F51
330
46E
100
AcDbEntity
  8
0
100
AcDbText
 10
867.4726781854841
 20
269.4107058314173
 30
0.0
 40
3.0954
  1
BY CODE
  7
ROMANS
100
AcDbText
  0
TEXT
  5
1F8B
330
46E
100
AcDbEntity
  8
0
  6
ByBlock
 62
     0
100
AcDbText
 10
836.6227869428655
 20
142.6804420462419
 30
0.0
 40
3.0954
  1
MEZZ LEVEL
  7
ROMANS
 72
     1
 11
851.1416869428655
 21
144.2281420462419
 31
0.0
100
AcDbText
 73
     2
  0
ENDSEC
  0
SECTION
  2
OBJECTS
  0
DICTIONARY
  5
462
330
0
100
AcDbDictionary
281
     1
  3
ACAD_COLOR
350
16A1
  3
ACAD_GROUP
350
463
  3
ACAD_LAYOUT
350
13B6
  3
ACAD_MATERIAL
350
168C
  3
ACAD_MLINESTYLE
350
464
  3
ACAD_PLOTSETTINGS
350
13B7
  3
ACAD_PLOTSTYLENAME
350
13B4
  3
ACAD_TABLESTYLE
350
16A2
  3
ACAD_VISUALSTYLE
350
1690
  3
AcDbVariableDictionary
350
16C4
  3
DWGPROPS
350
1F8C
  0
DICTIONARY
  5
1EE2
330
45E
100
AcDbDictionary
280
     1
281
     1
  0
DICTIONARY
  5
16B1
330
46E
100
AcDbDictionary
280
     1
281
     1
  3
ACAD_SORTENTS
360
16B2
  0
DICTIONARY
  5
16BE
330
16BC
100
AcDbDictionary
280
     1
281
     1
  3
ACAD_SORTENTS
360
16BF
  0
DICTIONARY
  5
16A1
102
{ACAD_REACTORS
330
462
102
}
330
462
100
AcDbDictionary
281
     1
  0
DICTIONARY
  5
463
102
{ACAD_REACTORS
330
462
102
}
330
462
100
AcDbDictionary
281
     1
  0
DICTIONARY
  5
13B6
102
{ACAD_REACTORS
330
462
102
}
330
462
100
AcDbDictionary
281
     1
  3
Layout1
350
13B9
  3
Model
350
13B8
  0
DICTIONARY
  5
168C
102
{ACAD_REACTORS
330
462
102
}
330
462
100
AcDbDictionary
281
     1
  3
ByBlock
350
168E
  3
ByLayer
350
168D
  3
Global
350
168F
  0
DICTIONARY
  5
464
102
{ACAD_REACTORS
330
462
102
}
330
462
100
AcDbDictionary
281
     1
  3
STANDARD
350
471
  0
DICTIONARY
  5
13B7
102
{ACAD_REACTORS
330
462
102
}
330
462
100
AcDbDictionary
281
     1
  0
ACDBDICTIONARYWDFLT
  5
13B4
102
{ACAD_REACTORS
330
462
102
}
330
462
100
AcDbDictionary
281
     1
  3
Normal
350
13B5
100
AcDbDictionaryWithDefault
340
13B5
  0
DICTIONARY
  5
16A2
102
{ACAD_REACTORS
330
462
102
}
330
462
100
AcDbDictionary
281
     1
  3
Standard
350
16A3
  0
DICTIONARY
  5
1690
102
{ACAD_REACTORS
330
462
102
}
330
462
100
AcDbDictionary
281
     1
  3
2dWireframe
350
1696
  3
3D Hidden
350
1698
  3
3dWireframe
350
1697
  3
Basic
350
1695
  3
Brighten
350
169C
  3
ColorChange
350
16A0
  3
Conceptual
350
1699
  3
Dim
350
169B
  3
Facepattern
350
169F
  3
Flat
350
1691
  3
FlatWithEdges
350
1692
  3
Gouraud
350
1693
  3
GouraudWithEdges
350
1694
  3
Linepattern
350
169E
  3
Realistic
350
169A
  3
Thicken
350
169D
  0
DICTIONARY
  5
16C4
102
{ACAD_REACTORS
330
462
102
}
330
462
100
AcDbDictionary
281
     1
  3
CTABLESTYLE
350
16C5
  3
DIMASSOC
350
1EF6
  3
INDEXCTL
350
1EF5
  3
SORTENTS
350
1EF4
  0
XRECORD
  5
1F8C
102
{ACAD_REACTORS
330
462
102
}
330
462
100
AcDbXrecord
280
     1
  1
DWGPROPS COOKIE
  2

  3

  4

  6

  7

  8
XPMUser
  9

300
=
301
=
302
=
303
=
304
=
305
=
306
=
307
=
308
=
309
=
 40
0.2387409606481481
 41
2450687.378820139
 42
2459472.727783032
  1

 90
        0
  0
SORTENTSTABLE
  5
16B2
102
{ACAD_REACTORS
330
16B1
102
}
330
16B1
100
AcDbSortentsTable
330
46E
331
1E22
  5
1F02
331
1DAC
  5
1DB3
331
1DEB
  5
1DF2
331
283
  5
283
331
1DB4
  5
1DC0
331
24C
  5
24C
331
28B
  5
28B
331
254
  5
254
331
293
  5
293
331
2B8
  5
2B8
331
25C
  5
25C
331
3F5
  5
3F5
331
2C0
  5
2C0
331
2FF
  5
2FF
331
3B6
  5
3B6
331
11B2
  5
11B2
331
2C8
  5
2C8
331
307
  5
307
331
3BE
  5
3BE
331
3FD
  5
3FD
331
2D0
  5
2D0
331
3C6
  5
3C6
331
405
  5
405
331
3CE
  5
3CE
331
150F
  5
150F
331
1546
  5
1546
331
16AB
  5
1653
331
161C
  5
161C
331
1517
  5
1517
331
154E
  5
154E
331
1624
  5
1624
331
151F
  5
151F
331
1556
  5
1556
331
162C
  5
162C
331
155E
  5
155E
331
1DF3
  5
1DFA
331
1DBC
  5
1DC3
331
1DFB
  5
1E02
331
1DC4
  5
1DD5
331
1E03
  5
1E0A
331
1DCC
  5
1DE1
331
1EFF
  5
1D9D
331
264
  5
264
331
1E0B
  5
1E21
331
1DD4
  5
1DE2
331
26C
  5
26C
331
274
  5
274
331
299
  5
299
331
2D8
  5
2D8
331
27C
  5
27C
331
317
  5
317
331
2A1
  5
2A1
331
2E0
  5
2E0
331
3D6
  5
3D6
331
415
  5
415
331
2A9
  5
2A9
331
2E8
  5
2E8
331
31F
  5
31F
331
3DE
  5
3DE
331
3E6
  5
3E6
331
2B1
  5
2B1
331
2F0
  5
2F0
331
327
  5
327
331
3EE
  5
3EE
331
1634
  5
1634
331
1566
  5
1566
331
1527
  5
1527
331
156E
  5
156E
331
14F8
  5
14F8
331
152F
  5
152F
331
1576
  5
1576
331
1500
  5
1500
331
1537
  5
1537
331
157E
  5
157E
331
153F
  5
153F
331
1D9D
  5
1DAA
331
1DE4
  5
1DEB
331
1DA5
  5
1DAC
331
1DAD
  5
1DB4
331
1DEC
  5
1DF3
331
284
  5
284
331
24D
  5
24D
331
28C
  5
28C
331
294
  5
294
331
255
  5
255
331
2B9
  5
2B9
331
2F8
  5
2F8
331
25D
  5
25D
331
3B7
  5
3B7
331
2C1
  5
2C1
331
300
  5
300
331
3F6
  5
3F6
331
308
  5
308
331
2C9
  5
2C9
331
3BF
  5
3BF
331
3FE
  5
3FE
331
2D1
  5
2D1
331
406
  5
406
331
3CF
  5
3CF
331
1508
  5
1508
331
1510
  5
1510
331
1547
  5
1547
331
16AC
  5
16AA
331
161D
  5
161D
331
1518
  5
1518
331
154F
  5
154F
331
1625
  5
1625
331
1557
  5
1557
331
162D
  5
162D
331
155F
  5
155F
331
1DF4
  5
1DFB
331
1DBD
  5
1DC4
331
1DFC
  5
1E03
331
1E04
  5
1E0B
331
1F00
  5
1D9E
331
265
  5
265
331
1E0C
  5
1E22
331
1DD5
  5
1DE3
331
26D
  5
26D
331
275
  5
275
331
29A
  5
29A
331
2D9
  5
2D9
331
310
  5
310
331
27D
  5
27D
331
3D7
  5
3D7
331
2A2
  5
2A2
331
2E1
  5
2E1
331
318
  5
318
331
40E
  5
40E
331
320
  5
320
331
2AA
  5
2AA
331
2E9
  5
2E9
331
3DF
  5
3DF
331
416
  5
416
331
328
  5
328
331
2B2
  5
2B2
331
2F1
  5
2F1
331
3E7
  5
3E7
331
42E
  5
42E
331
3EF
  5
3EF
331
1520
  5
1520
331
1635
  5
1635
331
1528
  5
1528
331
1567
  5
1567
331
156F
  5
156F
331
14F9
  5
14F9
331
1530
  5
1530
331
1577
  5
1577
331
1501
  5
1501
331
1538
  5
1538
331
157F
  5
157F
331
1D9E
  5
1DAB
331
1E1C
  5
1E23
331
1DE5
  5
1DEC
331
1DA6
  5
1DAD
331
1DED
  5
1DF4
331
1DAE
  5
1DBA
331
285
  5
285
331
24E
  5
24E
331
28D
  5
28D
331
256
  5
256
331
295
  5
295
331
2BA
  5
2BA
331
2F9
  5
2F9
331
25E
  5
25E
331
3F7
  5
3F7
331
2C2
  5
2C2
331
301
  5
301
331
3B8
  5
3B8
331
2CA
  5
2CA
331
309
  5
309
331
3C0
  5
3C0
331
3FF
  5
3FF
331
11F4
  5
11F4
331
2D2
  5
2D2
331
3C8
  5
3C8
331
407
  5
407
331
1509
  5
1509
331
1540
  5
1540
331
1511
  5
1511
331
1548
  5
1548
331
16AD
  5
16AB
331
161E
  5
161E
331
1519
  5
1519
331
1550
  5
1550
331
1626
  5
1626
331
1558
  5
1558
331
162E
  5
162E
331
1DF5
  5
1DFC
331
1DBE
  5
1DC8
331
1DFD
  5
1E04
331
1E05
  5
1E0C
331
1F01
  5
1DA5
331
266
  5
266
331
1DD6
  5
1DE4
331
26E
  5
26E
331
276
  5
276
331
311
  5
311
331
29B
  5
29B
331
2DA
  5
2DA
331
3D0
  5
3D0
331
27E
  5
27E
331
2A3
  5
2A3
331
2E2
  5
2E2
331
319
  5
319
331
3D8
  5
3D8
331
417
  5
417
331
2AB
  5
2AB
331
2EA
  5
2EA
331
321
  5
321
331
3E0
  5
3E0
331
3E8
  5
3E8
331
2B3
  5
2B3
331
2F2
  5
2F2
331
329
  5
329
331
1560
  5
1560
331
1521
  5
1521
331
1492
  5
1492
331
1636
  5
1636
331
1568
  5
1568
331
1529
  5
1529
331
1570
  5
1570
331
14FA
  5
14FA
331
1531
  5
1531
331
1578
  5
1578
331
1502
  5
1502
331
1539
  5
1539
331
1DDE
  5
1DE5
331
1DE6
  5
1DED
331
1DA7
  5
1DAE
331
1DAF
  5
1DBB
331
1DEE
  5
1DF5
331
286
  5
286
331
24F
  5
24F
331
28E
  5
28E
331
296
  5
296
331
257
  5
257
331
3F0
  5
3F0
331
2BB
  5
2BB
331
2FA
  5
2FA
331
25F
  5
25F
331
3B9
  5
3B9
331
2C3
  5
2C3
331
302
  5
302
331
3F8
  5
3F8
331
30A
  5
30A
331
2CB
  5
2CB
331
3C1
  5
3C1
331
400
  5
400
331
2D3
  5
2D3
331
3C9
  5
3C9
331
1580
  5
1580
331
150A
  5
150A
331
1541
  5
1541
331
1512
  5
1512
331
1549
  5
1549
331
16AE
  5
16AC
331
161F
  5
161F
331
151A
  5
151A
331
1551
  5
1551
331
1627
  5
1627
331
1559
  5
1559
331
162F
  5
162F
331
1DF6
  5
1DFD
331
1DBF
  5
1DC9
331
1DFE
  5
1E05
331
1E06
  5
1E1C
331
1F02
  5
1DA6
331
267
  5
267
331
26F
  5
26F
331
277
  5
277
331
29C
  5
29C
331
2DB
  5
2DB
331
312
  5
312
331
3D1
  5
3D1
331
408
  5
408
331
27F
  5
27F
331
3D9
  5
3D9
331
2A4
  5
2A4
331
2E3
  5
2E3
331
31A
  5
31A
331
410
  5
410
331
322
  5
322
331
2AC
  5
2AC
331
2EB
  5
2EB
331
3E1
  5
3E1
331
418
  5
418
331
2B4
  5
2B4
331
2F3
  5
2F3
331
32A
  5
32A
331
3E9
  5
3E9
331
1561
  5
1561
331
1522
  5
1522
331
1569
  5
1569
331
152A
  5
152A
331
14F3
  5
14F3
331
16C6
  5
1DA8
331
1571
  5
1571
331
14FB
  5
14FB
331
1532
  5
1532
331
1579
  5
1579
331
1503
  5
1503
331
153A
  5
153A
331
1DDF
  5
1DE6
331
1DE7
  5
1DEE
331
1DA8
  5
1DAF
331
287
  5
287
331
1DB0
  5
1DBC
331
1DEF
  5
1DF6
331
250
  5
250
331
28F
  5
28F
331
258
  5
258
331
297
  5
297
331
2FB
  5
2FB
331
2BC
  5
2BC
331
3F1
  5
3F1
331
3F9
  5
3F9
331
2C4
  5
2C4
331
303
  5
303
331
3BA
  5
3BA
331
2CC
  5
2CC
331
30B
  5
30B
331
3C2
  5
3C2
331
401
  5
401
331
2D4
  5
2D4
331
3CA
  5
3CA
331
1581
  5
1581
331
150B
  5
150B
331
1542
  5
1542
331
1513
  5
1513
331
154A
  5
154A
331
16AF
  5
16AD
331
1620
  5
1620
331
151B
  5
151B
331
1552
  5
1552
331
1628
  5
1628
331
155A
  5
155A
331
1DF7
  5
1DFE
331
1DC0
  5
1DCA
331
260
  5
260
331
1DFF
  5
1E06
331
1DC8
  5
1DD6
331
268
  5
268
331
1E07
  5
1E1D
331
1F03
  5
1DA7
331
270
  5
270
331
278
  5
278
331
313
  5
313
331
29D
  5
29D
331
2DC
  5
2DC
331
3D2
  5
3D2
331
409
  5
409
331
411
  5
411
331
2A5
  5
2A5
331
2E4
  5
2E4
331
31B
  5
31B
331
3DA
  5
3DA
331
3E2
  5
3E2
331
2AD
  5
2AD
331
2EC
  5
2EC
331
323
  5
323
331
3EA
  5
3EA
331
2B5
  5
2B5
331
2F4
  5
2F4
331
32B
  5
32B
331
1630
  5
1630
331
1562
  5
1562
331
1523
  5
1523
331
156A
  5
156A
331
14F4
  5
14F4
331
152B
  5
152B
331
1572
  5
1572
331
14FC
  5
14FC
331
1533
  5
1533
331
157A
  5
157A
331
1504
  5
1504
331
153B
  5
153B
331
1DE0
  5
1DE7
331
280
  5
280
331
1E1F
  5
1EFF
331
1DA9
  5
1DB0
331
1DE8
  5
1DEF
331
288
  5
288
331
1DB1
  5
1DBD
331
290
  5
290
331
251
  5
251
331
259
  5
259
331
3F2
  5
3F2
331
2BD
  5
2BD
331
2FC
  5
2FC
331
304
  5
304
331
2C5
  5
2C5
331
3BB
  5
3BB
331
3FA
  5
3FA
331
948
  5
948
331
30C
  5
30C
331
2CD
  5
2CD
331
3C3
  5
3C3
331
402
  5
402
331
2D5
  5
2D5
331
3CB
  5
3CB
331
150C
  5
150C
331
1543
  5
1543
331
1514
  5
1514
331
154B
  5
154B
331
1621
  5
1621
331
151C
  5
151C
331
1553
  5
1553
331
1629
  5
1629
331
155B
  5
155B
331
1DF0
  5
1DF7
331
1DF8
  5
1DFF
331
1DC1
  5
1DCB
331
261
  5
261
331
1E00
  5
1E07
331
1DC9
  5
1DDE
331
269
  5
269
331
1E08
  5
1E1E
331
271
  5
271
331
279
  5
279
331
29E
  5
29E
331
2DD
  5
2DD
331
314
  5
314
331
3D3
  5
3D3
331
40A
  5
40A
331
9B0
  5
9B0
331
3DB
  5
3DB
331
2A6
  5
2A6
331
2E5
  5
2E5
331
31C
  5
31C
331
412
  5
412
331
324
  5
324
331
2AE
  5
2AE
331
2ED
  5
2ED
331
3E3
  5
3E3
331
2B6
  5
2B6
331
2F5
  5
2F5
331
32C
  5
32C
331
3EB
  5
3EB
331
1631
  5
1631
331
1563
  5
1563
331
1524
  5
1524
331
156B
  5
156B
331
14F5
  5
14F5
331
152C
  5
152C
331
1573
  5
1573
331
14FD
  5
14FD
331
1534
  5
1534
331
157B
  5
157B
331
1505
  5
1505
331
153C
  5
153C
331
1DE1
  5
1DE8
331
1E20
  5
1F00
331
1DAA
  5
1DB1
331
1DE9
  5
1DF0
331
281
  5
281
331
1DB2
  5
1DBE
331
289
  5
289
331
252
  5
252
331
291
  5
291
331
25A
  5
25A
331
3F3
  5
3F3
331
2FD
  5
2FD
331
2BE
  5
2BE
331
2C6
  5
2C6
331
305
  5
305
331
3BC
  5
3BC
331
3FB
  5
3FB
331
949
  5
949
331
2CE
  5
2CE
331
30D
  5
30D
331
3C4
  5
3C4
331
403
  5
403
331
2D6
  5
2D6
331
3CC
  5
3CC
331
150D
  5
150D
331
1544
  5
1544
331
1515
  5
1515
331
154C
  5
154C
331
151D
  5
151D
331
1554
  5
1554
331
1622
  5
1622
331
155C
  5
155C
331
162A
  5
162A
331
1DF1
  5
1DF8
331
1DBA
  5
1DC1
331
1DF9
  5
1E00
331
1DC2
  5
1DCC
331
1E01
  5
1E08
331
1DCA
  5
1DDF
331
262
  5
262
331
1E09
  5
1E1F
331
26A
  5
26A
331
272
  5
272
331
27A
  5
27A
331
315
  5
315
331
29F
  5
29F
331
2DE
  5
2DE
331
3D4
  5
3D4
331
40B
  5
40B
331
413
  5
413
331
2A7
  5
2A7
331
2E6
  5
2E6
331
31D
  5
31D
331
3DC
  5
3DC
331
3E4
  5
3E4
331
2AF
  5
2AF
331
2EE
  5
2EE
331
325
  5
325
331
3EC
  5
3EC
331
2B7
  5
2B7
331
2F6
  5
2F6
331
1564
  5
1564
331
1525
  5
1525
331
1632
  5
1632
331
156C
  5
156C
331
14F6
  5
14F6
331
152D
  5
152D
331
1574
  5
1574
331
14FE
  5
14FE
331
1535
  5
1535
331
157C
  5
157C
331
1506
  5
1506
331
153D
  5
153D
331
1DE2
  5
1DE9
331
1E21
  5
1F01
331
1DAB
  5
1DB2
331
1DEA
  5
1DF1
331
282
  5
282
331
1DB3
  5
1DBF
331
28A
  5
28A
331
292
  5
292
331
253
  5
253
331
25B
  5
25B
331
3F4
  5
3F4
331
2BF
  5
2BF
331
2FE
  5
2FE
331
306
  5
306
331
2C7
  5
2C7
331
3FC
  5
3FC
331
404
  5
404
331
30E
  5
30E
331
2CF
  5
2CF
331
3C5
  5
3C5
331
2D7
  5
2D7
331
3CD
  5
3CD
331
150E
  5
150E
331
1545
  5
1545
331
16AA
  5
1645
331
1516
  5
1516
331
154D
  5
154D
331
161B
  5
161B
331
1555
  5
1555
331
151E
  5
151E
331
1623
  5
1623
331
162B
  5
162B
331
155D
  5
155D
331
1DF2
  5
1DF9
331
1DBB
  5
1DC2
331
1DFA
  5
1E01
331
1DC3
  5
1DD4
331
1E02
  5
1E09
331
1DCB
  5
1DE0
331
1EFE
  5
1D9C
331
263
  5
263
331
1E0A
  5
1E20
331
26B
  5
26B
331
273
  5
273
331
298
  5
298
331
27B
  5
27B
331
95A
  5
95A
331
2A0
  5
2A0
331
2DF
  5
2DF
331
316
  5
316
331
3D5
  5
3D5
331
40C
  5
40C
331
31E
  5
31E
331
2A8
  5
2A8
331
2E7
  5
2E7
331
3DD
  5
3DD
331
414
  5
414
331
326
  5
326
331
2B0
  5
2B0
331
2EF
  5
2EF
331
3E5
  5
3E5
331
9F2
  5
9F2
331
2F7
  5
2F7
331
3ED
  5
3ED
331
1633
  5
1633
331
1565
  5
1565
331
1526
  5
1526
331
156D
  5
156D
331
14F7
  5
14F7
331
152E
  5
152E
331
1575
  5
1575
331
14FF
  5
14FF
331
1536
  5
1536
331
157D
  5
157D
331
1507
  5
1507
331
153E
  5
153E
331
1D9C
  5
1DA9
331
1DE3
  5
1DEA
  0
SORTENTSTABLE
  5
16BF
102
{ACAD_REACTORS
330
16BE
102
}
330
16BE
100
AcDbSortentsTable
330
16BC
  0
LAYOUT
  5
13B9
102
{ACAD_XDICTIONARY
360
1F8F
102
}
102
{ACAD_REACTORS
330
13B6
102
}
330
13B6
100
AcDbPlotSettings
  1

  2
HP LaserJet 2100 Series PCL 6
  4

  6

 40
0.0
 41
0.0
 42
0.0
 43
0.0
 44
0.0
 45
0.0
 46
0.0
 47
0.0
 48
0.0
 49
0.0
140
0.0
141
0.0
142
1.0
143
1.0
 70
   688
 72
     0
 73
     0
 74
     5
  7
Erik.ctb
 75
    16
147
1.0
148
0.0
149
0.0
100
AcDbLayout
  1
Layout1
 70
     1
 71
     1
 10
0.0
 20
0.0
 11
12.0
 21
9.0
 12
0.0
 22
0.0
 32
0.0
 14
1.000000000000000E+20
 24
1.000000000000000E+20
 34
1.000000000000000E+20
 15
-1.000000000000000E+20
 25
-1.000000000000000E+20
 35
-1.000000000000000E+20
146
0.0
 13
0.0
 23
0.0
 33
0.0
 16
1.0
 26
0.0
 36
0.0
 17
0.0
 27
1.0
 37
0.0
 76
     0
330
46B
  0
LAYOUT
  5
13B8
102
{ACAD_XDICTIONARY
360
1F8D
102
}
102
{ACAD_REACTORS
330
13B6
102
}
330
13B6
100
AcDbPlotSettings
  1

  2
PDF Pro 10
  4
Letter
  6

 40
3.174999952316284
 41
3.174999952316284
 42
3.175003051757812
 43
3.17498779296875
 44
215.8999938964844
 45
279.3999938964844
 46
5.757564277389994
 47
0.0
 48
0.0
 49
0.0
140
0.0
141
0.0
142
1.0
143
41.66183800860642
 70
  3764
 72
     0
 73
     1
 74
     1
  7
acad.ctb
 75
     0
147
0.0240027816293996
148
-14117.30711154327
149
-592.8104643546821
100
AcDbLayout
  1
Model
 70
     1
 71
     0
 10
0.0
 20
0.0
 11
12.0
 21
9.0
 12
0.0
 22
0.0
 32
0.0
 14
0.0
 24
0.0
 34
0.0
 15
0.0
 25
0.0
 35
0.0
146
0.0
 13
0.0
 23
0.0
 33
0.0
 16
1.0
 26
0.0
 36
0.0
 17
0.0
 27
1.0
 37
0.0
 76
     0
330
46E
331
168A
1001
ACAD_PSEXT
1000
PDF Pro 10
1000
Visage PDF
1000
VSP1:
1000

1070
     0
  0
MATERIAL
  5
168E
102
{ACAD_XDICTIONARY
360
1F93
102
}
102
{ACAD_REACTORS
330
168C
102
}
330
168C
100
AcDbMaterial
  1
ByBlock
  0
MATERIAL
  5
168D
102
{ACAD_XDICTIONARY
360
1F91
102
}
102
{ACAD_REACTORS
330
168C
102
}
330
168C
100
AcDbMaterial
  1
ByLayer
  0
MATERIAL
  5
168F
102
{ACAD_XDICTIONARY
360
1F95
102
}
102
{ACAD_REACTORS
330
168C
102
}
330
168C
100
AcDbMaterial
  1
Global
  0
MLINESTYLE
  5
471
102
{ACAD_REACTORS
330
464
102
}
330
464
100
AcDbMlineStyle
  2
STANDARD
 70
     0
  3

 62
     0
 51
90.0
 52
90.0
 71
     2
 49
0.5
 62
   256
  6
BYLAYER
 49
-0.5
 62
   256
  6
BYLAYER
  0
ACDBPLACEHOLDER
  5
13B5
102
{ACAD_REACTORS
330
13B4
102
}
330
13B4
  0
TABLESTYLE
  5
16A3
102
{ACAD_XDICTIONARY
360
1F97
102
}
102
{ACAD_REACTORS
330
16A2
102
}
330
16A2
100
AcDbTableStyle
  3
Standard
 70
     0
 71
     0
 40
0.06
 41
0.06
280
     0
281
     0
  7
STANDARD
140
0.18
170
     2
 62
     0
 63
     7
283
     0
274
    -2
284
     1
 64
     0
275
    -2
285
     1
 65
     0
276
    -2
286
     1
 66
     0
277
    -2
287
     1
 67
     0
278
    -2
288
     1
 68
     0
279
    -2
289
     1
 69
     0
  7
STANDARD
140
0.25
170
     5
 62
     0
 63
     7
283
     0
274
    -2
284
     1
 64
     0
275
    -2
285
     1
 65
     0
276
    -2
286
     1
 66
     0
277
    -2
287
     1
 67
     0
278
    -2
288
     1
 68
     0
279
    -2
289
     1
 69
     0
  7
STANDARD
140
0.18
170
     5
 62
     0
 63
     7
283
     0
274
    -2
284
     1
 64
     0
275
    -2
285
     1
 65
     0
276
    -2
286
     1
 66
     0
277
    -2
287
     1
 67
     0
278
    -2
288
     1
 68
     0
279
    -2
289
     1
 69
     0
  0
VISUALSTYLE
  5
1696
102
{ACAD_REACTORS
330
1690
102
}
330
1690
100
AcDbVisualStyle
  2
2dWireframe
 70
     4
 71
     0
 72
     2
 73
     0
 90
        0
 40
-0.6
 41
-30.0
 62
     5
 63
     7
 74
     1
 91
        4
 64
     7
 65
   257
 75
     1
175
     1
 42
1.0
 92
        0
 66
   257
 43
1.0
 76
     1
 77
     6
 78
     2
 67
     7
 79
     5
170
     0
171
     0
290
     0
174
     0
 93
        1
 44
0.0
173
     0
291
     0
 45
0.0
1001
ACAD
1000
AcDbSavedByObjectVersion
1070
     0
  0
VISUALSTYLE
  5
1698
102
{ACAD_REACTORS
330
1690
102
}
330
1690
100
AcDbVisualStyle
  2
3D Hidden
 70
     6
 71
     1
 72
     2
 73
     2
 90
        0
 40
-0.6
 41
-30.0
 62
     5
 63
     7
 74
     2
 91
        2
 64
     7
 65
   257
 75
     2
175
     1
 42
40.0
 92
        0
 66
   257
 43
1.0
 76
     1
 77
     6
 78
     2
 67
     7
 79
     3
170
     0
171
     0
290
     0
174
     0
 93
        1
 44
0.0
173
     0
291
     0
 45
0.0
1001
ACAD
1000
AcDbSavedByObjectVersion
1070
     0
  0
VISUALSTYLE
  5
1697
102
{ACAD_REACTORS
330
1690
102
}
330
1690
100
AcDbVisualStyle
  2
3dWireframe
 70
     5
 71
     0
 72
     2
 73
     0
 90
        0
 40
-0.6
 41
-30.0
 62
     5
 63
     7
 74
     1
 91
        4
 64
     7
 65
   257
 75
     1
175
     1
 42
1.0
 92
        0
 66
   257
 43
1.0
 76
     1
 77
     6
 78
     2
 67
     7
 79
     5
170
     0
171
     0
290
     0
174
     0
 93
        1
 44
0.0
173
     0
291
     0
 45
0.0
1001
ACAD
1000
AcDbSavedByObjectVersion
1070
     0
  0
VISUALSTYLE
  5
1695
102
{ACAD_REACTORS
330
1690
102
}
330
1690
100
AcDbVisualStyle
  2
Basic
 70
     7
 71
     1
 72
     0
 73
     1
 90
        0
 40
-0.6
 41
-30.0
 62
     5
 63
     7
 74
     0
 91
        4
 64
     7
 65
   257
 75
     1
175
     1
 42
1.0
 92
        8
 66
     7
 43
1.0
 76
     1
 77
     6
 78
     2
 67
     7
 79
     5
170
     0
171
     0
290
     0
174
     0
 93
        1
 44
0.0
173
     0
291
     1
 45
0.0
1001
ACAD
1000
AcDbSavedByObjectVersion
1070
     0
  0
VISUALSTYLE
  5
169C
102
{ACAD_REACTORS
330
1690
102
}
330
1690
100
AcDbVisualStyle
  2
Brighten
 70
    12
 71
     2
 72
     2
 73
     0
 90
        0
 40
-0.6
 41
-30.0
 62
     5
 63
     7
 74
     1
 91
        4
 64
     7
 65
   257
 75
     1
175
     1
 42
1.0
 92
        8
 66
     7
 43
1.0
 76
     1
 77
     6
 78
     2
 67
     7
 79
     5
170
     0
171
     0
290
     0
174
     0
 93
        1
 44
50.0
173
     0
291
     1
 45
0.0
1001
ACAD
1000
AcDbSavedByObjectVersion
1070
     0
  0
VISUALSTYLE
  5
16A0
102
{ACAD_REACTORS
330
1690
102
}
330
1690
100
AcDbVisualStyle
  2
ColorChange
 70
    16
 71
     2
 72
     2
 73
     3
 90
        0
 40
-0.6
 41
-30.0
 62
     5
 63
     8
 74
     1
 91
        4
 64
     7
 65
   257
 75
     1
175
     1
 42
1.0
 92
        8
 66
     8
 43
1.0
 76
     1
 77
     6
 78
     2
 67
     7
 79
     5
170
     0
171
     0
290
     0
174
     0
 93
        1
 44
0.0
173
     0
291
     1
 45
0.0
1001
ACAD
1000
AcDbSavedByObjectVersion
1070
     0
  0
VISUALSTYLE
  5
1699
102
{ACAD_REACTORS
330
1690
102
}
330
1690
100
AcDbVisualStyle
  2
Conceptual
 70
     9
 71
     3
 72
     2
 73
     0
 90
        0
 40
-0.6
 41
-30.0
 62
     5
 63
     7
 74
     2
 91
        2
 64
     7
 65
   257
 75
     1
175
     1
 42
40.0
 92
        8
 66
     7
 43
1.0
 76
     1
 77
     6
 78
     2
 67
     7
 79
     3
170
     0
171
     0
290
     0
174
     0
 93
        1
 44
0.0
173
     0
291
     0
 45
0.0
1001
ACAD
1000
AcDbSavedByObjectVersion
1070
     0
  0
VISUALSTYLE
  5
169B
102
{ACAD_REACTORS
330
1690
102
}
330
1690
100
AcDbVisualStyle
  2
Dim
 70
    11
 71
     2
 72
     2
 73
     0
 90
        0
 40
-0.6
 41
-30.0
 62
     5
 63
     7
 74
     1
 91
        4
 64
     7
 65
   257
 75
     1
175
     1
 42
1.0
 92
        8
 66
     7
 43
1.0
 76
     1
 77
     6
 78
     2
 67
     7
 79
     5
170
     0
171
     0
290
     0
174
     0
 93
        1
 44
-50.0
173
     0
291
     1
 45
0.0
1001
ACAD
1000
AcDbSavedByObjectVersion
1070
     0
  0
VISUALSTYLE
  5
169F
102
{ACAD_REACTORS
330
1690
102
}
330
1690
100
AcDbVisualStyle
  2
Facepattern
 70
    15
 71
     2
 72
     2
 73
     0
 90
        0
 40
-0.6
 41
-30.0
 62
     5
 63
     7
 74
     1
 91
        4
 64
     7
 65
   257
 75
     1
175
     1
 42
1.0
 92
        8
 66
     7
 43
1.0
 76
     1
 77
     6
 78
     2
 67
     7
 79
     5
170
     0
171
     0
290
     0
174
     0
 93
        1
 44
0.0
173
     0
291
     1
 45
0.0
1001
ACAD
1000
AcDbSavedByObjectVersion
1070
     0
  0
VISUALSTYLE
  5
1691
102
{ACAD_REACTORS
330
1690
102
}
330
1690
100
AcDbVisualStyle
  2
Flat
 70
     0
 71
     2
 72
     1
 73
     1
 90
        2
 40
-0.6
 41
30.0
 62
     5
 63
     7
 74
     0
 91
        4
 64
     7
 65
   257
 75
     1
175
     1
 42
1.0
 92
        8
 66
     7
 43
1.0
 76
     1
 77
     6
 78
     2
 67
     7
 79
     5
170
     0
171
     0
290
     0
174
     0
 93
       13
 44
0.0
173
     0
291
     1
 45
0.0
1001
ACAD
1000
AcDbSavedByObjectVersion
1070
     0
  0
VISUALSTYLE
  5
1692
102
{ACAD_REACTORS
330
1690
102
}
330
1690
100
AcDbVisualStyle
  2
FlatWithEdges
 70
     1
 71
     2
 72
     1
 73
     1
 90
        2
 40
-0.6
 41
30.0
 62
     5
 63
     7
 74
     1
 91
        4
 64
     7
 65
   257
 75
     1
175
     1
 42
1.0
 92
        0
 66
   257
 43
1.0
 76
     1
 77
     6
 78
     2
 67
     7
 79
     5
170
     0
171
     0
290
     0
174
     0
 93
       13
 44
0.0
173
     0
291
     1
 45
0.0
1001
ACAD
1000
AcDbSavedByObjectVersion
1070
     0
  0
VISUALSTYLE
  5
1693
102
{ACAD_REACTORS
330
1690
102
}
330
1690
100
AcDbVisualStyle
  2
Gouraud
 70
     2
 71
     2
 72
     2
 73
     1
 90
        2
 40
-0.6
 41
30.0
 62
     5
 63
     7
 74
     0
 91
        4
 64
     7
 65
   257
 75
     1
175
     1
 42
1.0
 92
        0
 66
     7
 43
1.0
 76
     1
 77
     6
 78
     2
 67
     7
 79
     5
170
     0
171
     0
290
     0
174
     0
 93
       13
 44
0.0
173
     0
291
     1
 45
0.0
1001
ACAD
1000
AcDbSavedByObjectVersion
1070
     0
  0
VISUALSTYLE
  5
1694
102
{ACAD_REACTORS
330
1690
102
}
330
1690
100
AcDbVisualStyle
  2
GouraudWithEdges
 70
     3
 71
     2
 72
     2
 73
     1
 90
        2
 40
-0.6
 41
30.0
 62
     5
 63
     7
 74
     1
 91
        4
 64
     7
 65
   257
 75
     1
175
     1
 42
1.0
 92
        0
 66
   257
 43
1.0
 76
     1
 77
     6
 78
     2
 67
     7
 79
     5
170
     0
171
     0
290
     0
174
     0
 93
       13
 44
0.0
173
     0
291
     1
 45
0.0
1001
ACAD
1000
AcDbSavedByObjectVersion
1070
     0
  0
VISUALSTYLE
  5
169E
102
{ACAD_REACTORS
330
1690
102
}
330
1690
100
AcDbVisualStyle
  2
Linepattern
 70
    14
 71
     2
 72
     2
 73
     0
 90
        0
 40
-0.6
 41
-30.0
 62
     5
 63
     7
 74
     1
 91
        4
 64
     7
 65
   257
 75
     7
175
     7
 42
1.0
 92
        8
 66
     7
 43
1.0
 76
     1
 77
     6
 78
     2
 67
     7
 79
     5
170
     0
171
     0
290
     0
174
     0
 93
        1
 44
0.0
173
     0
291
     1
 45
0.0
1001
ACAD
1000
AcDbSavedByObjectVersion
1070
     0
  0
VISUALSTYLE
  5
169A
102
{ACAD_REACTORS
330
1690
102
}
330
1690
100
AcDbVisualStyle
  2
Realistic
 70
     8
 71
     2
 72
     2
 73
     0
 90
        0
 40
-0.6
 41
-30.0
 62
     5
 63
     7
 74
     1
 91
        0
 64
     7
 65
   257
 75
     1
175
     1
 42
1.0
 92
        8
 66
     8
 43
1.0
 76
     1
 77
     6
 78
     2
 67
     7
 79
     5
170
     0
171
     0
290
     0
174
     0
 93
       13
 44
0.0
173
     0
291
     0
 45
0.0
1001
ACAD
1000
AcDbSavedByObjectVersion
1070
     0
  0
VISUALSTYLE
  5
169D
102
{ACAD_REACTORS
330
1690
102
}
330
1690
100
AcDbVisualStyle
  2
Thicken
 70
    13
 71
     2
 72
     2
 73
     0
 90
        0
 40
-0.6
 41
-30.0
 62
     5
 63
     7
 74
     1
 91
        4
 64
     7
 65
   257
 75
     1
175
     1
 42
1.0
 92
       12
 66
     7
 43
1.0
 76
     1
 77
     6
 78
     2
 67
     7
 79
     5
170
     0
171
     0
290
     0
174
     0
 93
        1
 44
0.0
173
     0
291
     1
 45
0.0
1001
ACAD
1000
AcDbSavedByObjectVersion
1070
     0
  0
DICTIONARYVAR
  5
16C5
102
{ACAD_REACTORS
330
16C4
102
}
330
16C4
100
DictionaryVariables
280
     0
  1
STANDARD
  0
DICTIONARYVAR
  5
1EF6
102
{ACAD_REACTORS
330
16C4
102
}
330
16C4
100
DictionaryVariables
280
     0
  1
1
  0
DICTIONARYVAR
  5
1EF5
102
{ACAD_REACTORS
330
16C4
102
}
330
16C4
100
DictionaryVariables
280
     0
  1
0
  0
DICTIONARYVAR
  5
1EF4
102
{ACAD_REACTORS
330
16C4
102
}
330
16C4
100
DictionaryVariables
280
     0
  1
127
  0
DICTIONARY
  5
1F8F
330
13B9
100
AcDbDictionary
280
     1
281
     1
  3
ACAD_XREC_ROUNDTRIP
360
1F90
  0
DICTIONARY
  5
1F8D
330
13B8
100
AcDbDictionary
280
     1
281
     1
  3
ACAD_XREC_ROUNDTRIP
360
1F8E
  0
DICTIONARY
  5
1F93
330
168E
100
AcDbDictionary
280
     1
281
     1
  3
ACAD_XREC_ROUNDTRIP
360
1F94
  0
DICTIONARY
  5
1F91
330
168D
100
AcDbDictionary
280
     1
281
     1
  3
ACAD_XREC_ROUNDTRIP
360
1F92
  0
DICTIONARY
  5
1F95
330
168F
100
AcDbDictionary
280
     1
281
     1
  3
ACAD_XREC_ROUNDTRIP
360
1F96
  0
DICTIONARY
  5
1F97
330
16A3
100
AcDbDictionary
280
     1
281
     1
  3
ACAD_XREC_ROUNDTRIP
360
1F98
  0
XRECORD
  5
1F90
102
{ACAD_REACTORS
330
1F8F
102
}
330
1F8F
100
AcDbXrecord
280
     1
102
SHADEPLOT
 70
     0
102
SHADEPLOTRESLEVEL
 70
     2
102
SHADEPLOTCUSTOMDPI
 70
   300
  0
XRECORD
  5
1F8E
102
{ACAD_REACTORS
330
1F8D
102
}
330
1F8D
100
AcDbXrecord
280
     1
102
SHADEPLOT
 70
     1
102
SHADEPLOTRESLEVEL
 70
     2
102
SHADEPLOTCUSTOMDPI
 70
   300
  0
XRECORD
  5
1F94
102
{ACAD_REACTORS
330
1F93
102
}
330
1F93
100
AcDbXrecord
280
     1
102
MATERIAL
148
0.0
149
0.0
149
0.0
 93
        0
 94
       63
282
     0
 72
     1
 77
     1
171
     1
175
     1
179
     1
273
     0
  0
XRECORD
  5
1F92
102
{ACAD_REACTORS
330
1F91
102
}
330
1F91
100
AcDbXrecord
280
     1
102
MATERIAL
148
0.0
149
0.0
149
0.0
 93
        0
 94
       63
282
     0
 72
     1
 77
     1
171
     1
175
     1
179
     1
273
     0
  0
XRECORD
  5
1F96
102
{ACAD_REACTORS
330
1F95
102
}
330
1F95
100
AcDbXrecord
280
     1
102
MATERIAL
148
0.0
149
0.0
149
0.0
 93
        0
 94
       63
282
     0
 72
     1
 77
     1
171
     1
175
     1
179
     1
273
     0
  0
XRECORD
  5
1F98
102
{ACAD_REACTORS
330
1F97
102
}
330
1F97
100
AcDbXrecord
280
     1
102
ACAD_ROUNDTRIP_PRE2007_TABLESTYLE
 90
      512
 91
        0
  1

 92
      512
 93
        0
  2

 94
      512
 95
        0
  3

  0
ENDSEC
  0
EOF
