  0
SECTION
  2
HEADER
  9
$ACADVER
  1
AC1015
  9
$ACADMAINTVER
 70
    20
  9
$DWGCODEPAGE
  3
ANSI_1252
  9
$INSBASE
 10
0.0
 20
0.0
 30
0.0
  9
$EXTMIN
 10
-151.2795396399944
 20
-30.37405791912567
 30
0.0
  9
$EXTMAX
 10
218.520265047504
 20
448.1903952058736
 30
0.0
  9
$LIMMIN
 10
0.0
 20
0.0
  9
$LIMMAX
 10
12.0
 20
9.0
  9
$ORTHOMODE
 70
     1
  9
$REGENMODE
 70
     1
  9
$FILLMODE
 70
     1
  9
$QTEXTMODE
 70
     0
  9
$MIRRTEXT
 70
     0
  9
$LTSCALE
 40
5.0
  9
$ATTMODE
 70
     1
  9
$TEXTSIZE
 40
2.122599999999999
  9
$TRACEWID
 40
0.05
  9
$TEXTSTYLE
  7
ROMANS
  9
$CLAYER
  8
0
  9
$CELTYPE
  6
BYLAYER
  9
$CECOLOR
 62
   256
  9
$CELTSCALE
 40
1.0
  9
$DISPSILH
 70
     0
  9
$DIMSCALE
 40
26.0
  9
$DIMASZ
 40
0.0625
  9
$DIMEXO
 40
0.0625
  9
$DIMDLI
 40
0.375
  9
$DIMRND
 40
0.0
  9
$DIMDLE
 40
0.0
  9
$DIMEXE
 40
0.0625
  9
$DIMTP
 40
0.0
  9
$DIMTM
 40
0.0
  9
$DIMTXT
 40
0.0804
  9
$DIMCEN
 40
0.0625
  9
$DIMTSZ
 40
0.0
  9
$DIMTOL
 70
     0
  9
$DIMLIM
 70
     0
  9
$DIMTIH
 70
     1
  9
$DIMTOH
 70
     1
  9
$DIMSE1
 70
     0
  9
$DIMSE2
 70
     0
  9
$DIMTAD
 70
     0
  9
$DIMZIN
 70
     3
  9
$DIMBLK
  1

  9
$DIMASO
 70
     1
  9
$DIMSHO
 70
     1
  9
$DIMPOST
  1

  9
$DIMAPOST
  1

  9
$DIMALT
 70
     0
  9
$DIMALTD
 70
     2
  9
$DIMALTF
 40
25.4
  9
$DIMLFAC
 40
1.0
  9
$DIMTOFL
 70
     0
  9
$DIMTVP
 40
0.0
  9
$DIMTIX
 70
     0
  9
$DIMSOXD
 70
     0
  9
$DIMSAH
 70
     0
  9
$DIMBLK1
  1

  9
$DIMBLK2
  1

  9
$DIMSTYLE
  2
STANDARD
  9
$DIMCLRD
 70
     0
  9
$DIMCLRE
 70
     0
  9
$DIMCLRT
 70
     0
  9
$DIMTFAC
 40
1.0
  9
$DIMGAP
 40
0.0625
  9
$DIMJUST
 70
     0
  9
$DIMSD1
 70
     0
  9
$DIMSD2
 70
     0
  9
$DIMTOLJ
 70
     1
  9
$DIMTZIN
 70
     3
  9
$DIMALTZ
 70
     0
  9
$DIMALTTZ
 70
     0
  9
$DIMUPT
 70
     0
  9
$DIMDEC
 70
     4
  9
$DIMTDEC
 70
     4
  9
$DIMALTU
 70
     2
  9
$DIMALTTD
 70
     2
  9
$DIMTXSTY
  7
ROMANS
  9
$DIMAUNIT
 70
     0
  9
$DIMADEC
 70
     0
  9
$DIMALTRND
 40
0.0
  9
$DIMAZIN
 70
     0
  9
$DIMDSEP
 70
    46
  9
$DIMATFIT
 70
     3
  9
$DIMFRAC
 70
     2
  9
$DIMLDRBLK
  1

  9
$DIMLUNIT
 70
     4
  9
$DIMLWD
 70
    -2
  9
$DIMLWE
 70
    -2
  9
$DIMTMOVE
 70
     2
  9
$LUNITS
 70
     4
  9
$LUPREC
 70
     4
  9
$SKETCHINC
 40
0.1
  9
$FILLETRAD
 40
0.0
  9
$AUNITS
 70
     0
  9
$AUPREC
 70
     0
  9
$MENU
  1
acad
  9
$ELEVATION
 40
0.0
  9
$PELEVATION
 40
0.0
  9
$THICKNESS
 40
0.0
  9
$LIMCHECK
 70
     0
  9
$CHAMFERA
 40
0.0
  9
$CHAMFERB
 40
0.0
  9
$CHAMFERC
 40
0.0
  9
$CHAMFERD
 40
0.0
  9
$SKPOLY
 70
     0
  9
$TDCREATE
 40
2450687.337153472
  9
$TDUCREATE
 40
2450687.503820139
  9
$TDUPDATE
 40
2459472.658516655
  9
$TDUUPDATE
 40
2459472.825183322
  9
$TDINDWG
 40
0.2303103704
  9
$TDUSRTIMER
 40
0.2303103704
  9
$USRTIMER
 70
     1
  9
$ANGBASE
 50
0.0
  9
$ANGDIR
 70
     0
  9
$PDMODE
 70
    33
  9
$PDSIZE
 40
0.0
  9
$PLINEWID
 40
0.0
  9
$SPLFRAME
 70
     0
  9
$SPLINETYPE
 70
     6
  9
$SPLINESEGS
 70
     8
  9
$HANDSEED
  5
1EC8
  9
$SURFTAB1
 70
     6
  9
$SURFTAB2
 70
     6
  9
$SURFTYPE
 70
     6
  9
$SURFU
 70
     6
  9
$SURFV
 70
     6
  9
$UCSBASE
  2

  9
$UCSNAME
  2

  9
$UCSORG
 10
0.0
 20
0.0
 30
0.0
  9
$UCSXDIR
 10
1.0
 20
0.0
 30
0.0
  9
$UCSYDIR
 10
0.0
 20
1.0
 30
0.0
  9
$UCSORTHOREF
  2

  9
$UCSORTHOVIEW
 70
     0
  9
$UCSORGTOP
 10
0.0
 20
0.0
 30
0.0
  9
$UCSORGBOTTOM
 10
0.0
 20
0.0
 30
0.0
  9
$UCSORGLEFT
 10
0.0
 20
0.0
 30
0.0
  9
$UCSORGRIGHT
 10
0.0
 20
0.0
 30
0.0
  9
$UCSORGFRONT
 10
0.0
 20
0.0
 30
0.0
  9
$UCSORGBACK
 10
0.0
 20
0.0
 30
0.0
  9
$PUCSBASE
  2

  9
$PUCSNAME
  2

  9
$PUCSORG
 10
0.0
 20
0.0
 30
0.0
  9
$PUCSXDIR
 10
1.0
 20
0.0
 30
0.0
  9
$PUCSYDIR
 10
0.0
 20
1.0
 30
0.0
  9
$PUCSORTHOREF
  2

  9
$PUCSORTHOVIEW
 70
     0
  9
$PUCSORGTOP
 10
0.0
 20
0.0
 30
0.0
  9
$PUCSORGBOTTOM
 10
0.0
 20
0.0
 30
0.0
  9
$PUCSORGLEFT
 10
0.0
 20
0.0
 30
0.0
  9
$PUCSORGRIGHT
 10
0.0
 20
0.0
 30
0.0
  9
$PUCSORGFRONT
 10
0.0
 20
0.0
 30
0.0
  9
$PUCSORGBACK
 10
0.0
 20
0.0
 30
0.0
  9
$USERI1
 70
     0
  9
$USERI2
 70
     0
  9
$USERI3
 70
     0
  9
$USERI4
 70
     0
  9
$USERI5
 70
     0
  9
$USERR1
 40
0.0
  9
$USERR2
 40
0.0
  9
$USERR3
 40
0.0
  9
$USERR4
 40
0.0
  9
$USERR5
 40
0.0
  9
$WORLDVIEW
 70
     1
  9
$SHADEDGE
 70
     3
  9
$SHADEDIF
 70
    70
  9
$TILEMODE
 70
     1
  9
$MAXACTVP
 70
    16
  9
$PINSBASE
 10
0.0
 20
0.0
 30
0.0
  9
$PLIMCHECK
 70
     0
  9
$PEXTMIN
 10
1.000000000000000E+20
 20
1.000000000000000E+20
 30
1.000000000000000E+20
  9
$PEXTMAX
 10
-1.000000000000000E+20
 20
-1.000000000000000E+20
 30
-1.000000000000000E+20
  9
$PLIMMIN
 10
0.0
 20
0.0
  9
$PLIMMAX
 10
12.0
 20
9.0
  9
$UNITMODE
 70
     0
  9
$VISRETAIN
 70
     0
  9
$PLINEGEN
 70
     0
  9
$PSLTSCALE
 70
     1
  9
$TREEDEPTH
 70
  3020
  9
$CMLSTYLE
  2
STANDARD
  9
$CMLJUST
 70
     0
  9
$CMLSCALE
 40
1.0
  9
$PROXYGRAPHICS
 70
     1
  9
$MEASUREMENT
 70
     0
  9
$CELWEIGHT
370
    -1
  9
$ENDCAPS
280
     0
  9
$JOINSTYLE
280
     0
  9
$LWDISPLAY
290
     0
  9
$INSUNITS
 70
     0
  9
$HYPERLINKBASE
  1

  9
$STYLESHEET
  1

  9
$XEDIT
290
     1
  9
$CEPSNTYPE
380
     0
  9
$PSTYLEMODE
290
     1
  9
$FINGERPRINTGUID
  2
{803BCDDA-9973-11D6-8737-0010B50CF566}
  9
$VERSIONGUID
  2
{0B198619-B9B8-4B7F-A15D-0009C97A8A98}
  9
$EXTNAMES
290
     1
  9
$PSVPSCALE
 40
0.0
  9
$OLESTARTUP
290
     0
  0
ENDSEC
  0
SECTION
  2
CLASSES
  0
CLASS
  1
ACDBDICTIONARYWDFLT
  2
AcDbDictionaryWithDefault
  3
ObjectDBX Classes
 90
        0
280
     0
281
     0
  0
CLASS
  1
ACDBPLACEHOLDER
  2
AcDbPlaceHolder
  3
ObjectDBX Classes
 90
        0
280
     0
281
     0
  0
CLASS
  1
LAYOUT
  2
AcDbLayout
  3
ObjectDBX Classes
 90
        0
280
     0
281
     0
  0
CLASS
  1
MATERIAL
  2
AcDbMaterial
  3
ObjectDBX Classes
 90
     1024
280
     0
281
     0
  0
CLASS
  1
VISUALSTYLE
  2
AcDbVisualStyle
  3
ObjectDBX Classes
 90
     4095
280
     0
281
     0
  0
CLASS
  1
TABLESTYLE
  2
AcDbTableStyle
  3
ObjectDBX Classes
 90
     4095
280
     0
281
     0
  0
CLASS
  1
DICTIONARYVAR
  2
AcDbDictionaryVar
  3
ObjectDBX Classes
 90
        0
280
     0
281
     0
  0
CLASS
  1
SORTENTSTABLE
  2
AcDbSortentsTable
  3
ObjectDBX Classes
 90
        0
280
     0
281
     0
  0
CLASS
  1
EXACXREFPANELOBJECT
  2
ExAcXREFPanelObject
  3
EXAC_ESW
 90
     1025
280
     0
281
     0
  0
CLASS
  1
NPOCOLLECTION
  2
AcDbImpNonPersistentObjectsCollection
  3
ObjectDBX Classes
 90
     1153
280
     0
281
     0
  0
CLASS
  1
EXACTERMXREFMAP
  2
ExAcTermXrefMap
  3
EXAC_SERVICE
 90
    33793
280
     0
281
     0
  0
ENDSEC
  0
SECTION
  2
TABLES
  0
TABLE
  2
VPORT
  5
33E
330
0
100
AcDbSymbolTable
 70
     1
  0
VPORT
  5
F6F
330
33E
100
AcDbSymbolTableRecord
100
AcDbViewportTableRecord
  2
*Active
 70
     0
 10
0.0
 20
0.0
 11
1.0
 21
1.0
 12
28.27369897210952
 22
212.0762970672416
 13
0.0
 23
0.0
 14
1.0
 24
1.0
 15
0.0
 25
0.0
 16
0.0
 26
0.0
 36
1.0
 17
0.0
 27
0.0
 37
0.0
 40
494.2195617358372
 41
2.153388822829964
 42
50.0
 43
0.0
 44
0.0
 50
0.0
 51
0.0
 71
     0
 72
   100
 73
     1
 74
     0
 75
     0
 76
     0
 77
     0
 78
     2
281
     0
 65
     1
110
0.0
120
0.0
130
0.0
111
1.0
121
0.0
131
0.0
112
0.0
122
1.0
132
0.0
 79
     0
146
0.0
  0
ENDTAB
  0
TABLE
  2
LTYPE
  5
33B
330
0
100
AcDbSymbolTable
 70
     2
  0
LTYPE
  5
348
330
33B
100
AcDbSymbolTableRecord
100
AcDbLinetypeTableRecord
  2
BYBLOCK
 70
     0
  3

 72
    65
 73
     0
 40
0.0
  0
LTYPE
  5
349
330
33B
100
AcDbSymbolTableRecord
100
AcDbLinetypeTableRecord
  2
BYLAYER
 70
     0
  3

 72
    65
 73
     0
 40
0.0
  0
LTYPE
  5
34A
330
33B
100
AcDbSymbolTableRecord
100
AcDbLinetypeTableRecord
  2
CONTINUOUS
 70
     0
  3
Solid line
 72
    65
 73
     0
 40
0.0
  0
ENDTAB
  0
TABLE
  2
LAYER
  5
338
102
{ACAD_XDICTIONARY
360
1172
102
}
330
0
100
AcDbSymbolTable
 70
     2
  0
LAYER
  5
345
330
338
100
AcDbSymbolTableRecord
100
AcDbLayerTableRecord
  2
0
 70
     0
 62
     7
  6
CONTINUOUS
370
    -3
390
A66
  0
LAYER
  5
370
330
338
100
AcDbSymbolTableRecord
100
AcDbLayerTableRecord
  2
DEFPOINTS
 70
     0
 62
     7
  6
CONTINUOUS
290
     0
370
    -3
390
A66
  0
ENDTAB
  0
TABLE
  2
STYLE
  5
339
330
0
100
AcDbSymbolTable
 70
     4
  0
STYLE
  5
346
330
339
100
AcDbSymbolTableRecord
100
AcDbTextStyleTableRecord
  2
STANDARD
 70
     0
 40
0.0
 41
1.0
 50
0.0
 71
     0
 42
0.2
  3
txt
  4

  0
STYLE
  5
365
330
339
100
AcDbSymbolTableRecord
100
AcDbTextStyleTableRecord
  2
ROMANS
 70
     0
 40
0.0
 41
1.0
 50
0.0
 71
     0
 42
2.122599999999999
  3
romans
  4

  0
STYLE
  5
366
330
339
100
AcDbSymbolTableRecord
100
AcDbTextStyleTableRecord
  2
ROMANC
 70
     0
 40
1.837699999999999
 41
1.0
 50
0.0
 71
     0
 42
2.122599999999999
  3
romanc
  4

  0
STYLE
  5
997
330
339
100
AcDbSymbolTableRecord
100
AcDbTextStyleTableRecord
  2
STYLE1
 70
     0
 40
0.0
 41
1.0
 50
0.0
 71
     0
 42
3.0954
  3
C:\Program Files\AutoCAD LT\romanc.shx
  4

  0
ENDTAB
  0
TABLE
  2
VIEW
  5
33C
330
0
100
AcDbSymbolTable
 70
     0
  0
ENDTAB
  0
TABLE
  2
UCS
  5
33D
330
0
100
AcDbSymbolTable
 70
     0
  0
ENDTAB
  0
TABLE
  2
APPID
  5
33F
330
0
100
AcDbSymbolTable
 70
     3
  0
APPID
  5
347
330
33F
100
AcDbSymbolTableRecord
100
AcDbRegAppTableRecord
  2
ACAD
 70
     0
  0
APPID
  5
F93
330
33F
100
AcDbSymbolTableRecord
100
AcDbRegAppTableRecord
  2
ACAD_PSEXT
 70
     0
  0
APPID
  5
13D5
330
33F
100
AcDbSymbolTableRecord
100
AcDbRegAppTableRecord
  2
ACAD_EXEMPT_FROM_CAD_STANDARDS
 70
     0
  0
ENDTAB
  0
TABLE
  2
DIMSTYLE
  5
340
330
0
100
AcDbSymbolTable
 70
     3
100
AcDbDimStyleTable
 71
     2
340
36F
340
6FB
  0
DIMSTYLE
105
36F
330
340
100
AcDbSymbolTableRecord
100
AcDbDimStyleTableRecord
  2
STANDARD
 70
     0
 40
26.0
 41
0.0625
 43
0.375
 44
0.0625
 78
     3
140
0.0804
141
0.0625
147
0.0625
276
     2
277
     4
279
     2
284
     3
340
365
  0
DIMSTYLE
105
6FB
102
{ACAD_REACTORS
330
2A6
330
2C5
330
2A5
330
DC0
330
DC8
330
DCD
330
DD1
330
111D
330
1135
330
13AE
330
145F
102
}
330
340
100
AcDbSymbolTableRecord
100
AcDbDimStyleTableRecord
  2
STANDARD$0
 70
     0
 40
26.0
 41
0.0625
 43
0.375
 44
0.0625
 78
     3
140
0.0804
141
0.0625
147
0.0625
276
     2
277
     4
279
     2
284
     3
340
365
  0
ENDTAB
  0
TABLE
  2
BLOCK_RECORD
  5
337
330
0
100
AcDbSymbolTable
 70
    28
  0
BLOCK_RECORD
  5
34E
102
{ACAD_XDICTIONARY
360
13AA
102
}
330
337
100
AcDbSymbolTableRecord
100
AcDbBlockTableRecord
  2
*MODEL_SPACE
340
A69
  0
BLOCK_RECORD
  5
34B
330
337
100
AcDbSymbolTableRecord
100
AcDbBlockTableRecord
  2
*PAPER_SPACE
340
A6A
  0
BLOCK_RECORD
  5
364
330
337
100
AcDbSymbolTableRecord
100
AcDbBlockTableRecord
  2
LINETYPE
340
0
102
{BLKREFS
331
2F1
331
9B5
102
}
  0
BLOCK_RECORD
  5
6FC
330
337
100
AcDbSymbolTableRecord
100
AcDbBlockTableRecord
  2
*D1
340
0
  0
BLOCK_RECORD
  5
716
330
337
100
AcDbSymbolTableRecord
100
AcDbBlockTableRecord
  2
*D2
340
0
  0
BLOCK_RECORD
  5
723
330
337
100
AcDbSymbolTableRecord
100
AcDbBlockTableRecord
  2
*D3
340
0
  0
BLOCK_RECORD
  5
982
330
337
100
AcDbSymbolTableRecord
100
AcDbBlockTableRecord
  2
TB-ATT
340
0
  0
BLOCK_RECORD
  5
A70
102
{ACAD_XDICTIONARY
360
1A6D
102
}
330
337
100
AcDbSymbolTableRecord
100
AcDbBlockTableRecord
  2
Border
340
0
102
{BLKREFS
331
A74
102
}
  0
BLOCK_RECORD
  5
A75
330
337
100
AcDbSymbolTableRecord
100
AcDbBlockTableRecord
  2
border-T
340
0
102
{BLKREFS
331
A86
102
}
  0
BLOCK_RECORD
  5
D0D
330
337
100
AcDbSymbolTableRecord
100
AcDbBlockTableRecord
  2
*D8
340
0
  0
BLOCK_RECORD
  5
D1A
330
337
100
AcDbSymbolTableRecord
100
AcDbBlockTableRecord
  2
*D9
340
0
  0
BLOCK_RECORD
  5
D27
330
337
100
AcDbSymbolTableRecord
100
AcDbBlockTableRecord
  2
*D10
340
0
  0
BLOCK_RECORD
  5
D34
330
337
100
AcDbSymbolTableRecord
100
AcDbBlockTableRecord
  2
*D11
340
0
  0
BLOCK_RECORD
  5
D41
330
337
100
AcDbSymbolTableRecord
100
AcDbBlockTableRecord
  2
NEWBKT-C
340
0
  0
BLOCK_RECORD
  5
D7B
330
337
100
AcDbSymbolTableRecord
100
AcDbBlockTableRecord
  2
*D13
340
0
  0
BLOCK_RECORD
  5
D88
330
337
100
AcDbSymbolTableRecord
100
AcDbBlockTableRecord
  2
*D14
340
0
  0
BLOCK_RECORD
  5
D95
330
337
100
AcDbSymbolTableRecord
100
AcDbBlockTableRecord
  2
*D15
340
0
  0
BLOCK_RECORD
  5
DE5
330
337
100
AcDbSymbolTableRecord
100
AcDbBlockTableRecord
  2
*D16
340
0
  0
BLOCK_RECORD
  5
DF1
330
337
100
AcDbSymbolTableRecord
100
AcDbBlockTableRecord
  2
*D17
340
0
  0
BLOCK_RECORD
  5
DFE
330
337
100
AcDbSymbolTableRecord
100
AcDbBlockTableRecord
  2
*D18
340
0
  0
BLOCK_RECORD
  5
E0B
330
337
100
AcDbSymbolTableRecord
100
AcDbBlockTableRecord
  2
*D19
340
0
  0
BLOCK_RECORD
  5
111E
330
337
100
AcDbSymbolTableRecord
100
AcDbBlockTableRecord
  2
*D20
340
0
  0
BLOCK_RECORD
  5
1136
330
337
100
AcDbSymbolTableRecord
100
AcDbBlockTableRecord
  2
*D21
340
0
  0
BLOCK_RECORD
  5
13AF
330
337
100
AcDbSymbolTableRecord
100
AcDbBlockTableRecord
  2
*D22
340
0
  0
BLOCK_RECORD
  5
1460
330
337
100
AcDbSymbolTableRecord
100
AcDbBlockTableRecord
  2
*D24
340
0
  0
BLOCK_RECORD
  5
17BC
330
337
100
AcDbSymbolTableRecord
100
AcDbBlockTableRecord
  2
*X26
340
0
102
{BLKREFS
331
17BB
102
}
  0
ENDTAB
  0
ENDSEC
  0
SECTION
  2
BLOCKS
  0
BLOCK
  5
373
330
34E
100
AcDbEntity
  8
0
100
AcDbBlockBegin
  2
*MODEL_SPACE
 70
     0
 10
0.0
 20
0.0
 30
0.0
  3
*MODEL_SPACE
  1

  0
ENDBLK
  5
374
330
34E
100
AcDbEntity
  8
0
100
AcDbBlockEnd
  0
BLOCK
  5
371
330
34B
100
AcDbEntity
 67
     1
  8
0
100
AcDbBlockBegin
  2
*PAPER_SPACE
 70
     0
 10
0.0
 20
0.0
 30
0.0
  3
*PAPER_SPACE
  1

  0
ENDBLK
  5
372
330
34B
100
AcDbEntity
 67
     1
  8
0
100
AcDbBlockEnd
  0
BLOCK
  5
1B9
330
364
100
AcDbEntity
  8
0
100
AcDbBlockBegin
  2
LINETYPE
 70
     0
 10
0.0
 20
0.0
 30
0.0
  3
LINETYPE
  1

  0
ENDBLK
  5
1BA
330
364
100
AcDbEntity
  8
0
100
AcDbBlockEnd
  0
BLOCK
  5
6FD
330
6FC
100
AcDbEntity
  8
0
100
AcDbBlockBegin
  2
*D1
 70
     1
 10
0.0
 20
0.0
 30
0.0
  3
*D1
  1

  0
LINE
  5
1E51
330
6FC
100
AcDbEntity
  8
0
 62
     0
370
    -2
100
AcDbLine
 10
117.5814198816759
 20
371.7944384951118
 30
0.0
 11
140.905227956548
 21
371.7944384951117
 31
0.0
  0
LINE
  5
1E52
330
6FC
100
AcDbEntity
  8
0
 62
     0
370
    -2
100
AcDbLine
 10
118.6439198816761
 20
419.7944384951117
 30
0.0
 11
140.905227956548
 21
419.7944384951116
 31
0.0
  0
LINE
  5
1E53
330
6FC
100
AcDbEntity
  8
0
 62
     0
370
    -2
100
AcDbLine
 10
139.280227956548
 20
373.4194384951117
 30
0.0
 11
139.280227956548
 21
392.2349146855879
 31
0.0
  0
LINE
  5
1E54
330
6FC
100
AcDbEntity
  8
0
 62
     0
370
    -2
100
AcDbLine
 10
139.280227956548
 20
418.1694384951117
 30
0.0
 11
139.280227956548
 21
399.3539623046355
 31
0.0
  0
SOLID
  5
1E55
330
6FC
100
AcDbEntity
  8
0
 62
     0
100
AcDbTrace
 10
139.0093946232147
 20
373.4194384951117
 30
0.0
 11
139.5510612898814
 21
373.4194384951117
 31
0.0
 12
139.280227956548
 22
371.7944384951117
 32
0.0
 13
139.280227956548
 23
371.7944384951117
 33
0.0
  0
SOLID
  5
1E56
330
6FC
100
AcDbEntity
  8
0
 62
     0
100
AcDbTrace
 10
139.0093946232147
 20
418.1694384951117
 30
0.0
 11
139.5510612898814
 21
418.1694384951117
 31
0.0
 12
139.280227956548
 22
419.7944384951116
 32
0.0
 13
139.280227956548
 23
419.7944384951116
 33
0.0
  0
MTEXT
  5
1E57
330
6FC
100
AcDbEntity
  8
0
 62
     0
100
AcDbMText
 10
139.280227956548
 20
395.7944384951117
 30
0.0
 40
3.25
 41
0.0
 71
     5
 72
     1
  1
\A1;{4'-0"}
  7
ROMANS
 73
     1
 44
1.0
1001
ACAD
1000
MTEXTBEGIN
1070
    73
1070
     1
1070
    44
1040
1.0
1070
    74
1070
     0
1000
MTEXTEND
  0
POINT
  5
1E58
330
6FC
100
AcDbEntity
  8
DEFPOINTS
 62
     0
100
AcDbPoint
 10
115.9564198816759
 20
371.7944384951118
 30
0.0
  0
POINT
  5
1E59
330
6FC
100
AcDbEntity
  8
DEFPOINTS
 62
     0
100
AcDbPoint
 10
117.018919881676
 20
419.7944384951117
 30
0.0
  0
POINT
  5
1E5A
330
6FC
100
AcDbEntity
  8
DEFPOINTS
 62
     0
100
AcDbPoint
 10
139.280227956548
 20
419.7944384951116
 30
0.0
  0
ENDBLK
  5
708
330
6FC
100
AcDbEntity
  8
0
100
AcDbBlockEnd
  0
BLOCK
  5
717
330
716
100
AcDbEntity
  8
0
100
AcDbBlockBegin
  2
*D2
 70
     1
 10
0.0
 20
0.0
 30
0.0
  3
*D2
  1

  0
LINE
  5
1E47
330
716
100
AcDbEntity
  8
0
 62
     0
370
    -2
100
AcDbLine
 10
117.0189198816759
 20
-15.83056150488841
 30
0.0
 11
117.0189198816759
 21
-19.50361105331348
 31
0.0
  0
LINE
  5
1E48
330
716
100
AcDbEntity
  8
0
 62
     0
370
    -2
100
AcDbLine
 10
97.01891988167597
 20
-15.83056150488841
 30
0.0
 11
97.01891988167597
 21
-19.50361105331348
 31
0.0
  0
LINE
  5
1E49
330
716
100
AcDbEntity
  8
0
 62
     0
370
    -2
100
AcDbLine
 10
115.3939198816759
 20
-17.87861105331348
 30
0.0
 11
112.4355865483426
 21
-17.87861105331348
 31
0.0
  0
LINE
  5
1E4A
330
716
100
AcDbEntity
  8
0
 62
     0
370
    -2
100
AcDbLine
 10
98.64391988167596
 20
-17.87861105331348
 30
0.0
 11
101.6022532150093
 21
-17.87861105331348
 31
0.0
  0
SOLID
  5
1E4B
330
716
100
AcDbEntity
  8
0
 62
     0
100
AcDbTrace
 10
115.3939198816759
 20
-17.60777771998014
 30
0.0
 11
115.3939198816759
 21
-18.14944438664681
 31
0.0
 12
117.0189198816759
 22
-17.87861105331348
 32
0.0
 13
117.0189198816759
 23
-17.87861105331348
 33
0.0
  0
SOLID
  5
1E4C
330
716
100
AcDbEntity
  8
0
 62
     0
100
AcDbTrace
 10
98.64391988167596
 20
-17.60777771998014
 30
0.0
 11
98.64391988167596
 21
-18.14944438664681
 31
0.0
 12
97.01891988167597
 22
-17.87861105331348
 32
0.0
 13
97.01891988167597
 23
-17.87861105331348
 33
0.0
  0
MTEXT
  5
1E4D
330
716
100
AcDbEntity
  8
0
 62
     0
100
AcDbMText
 10
107.018919881676
 20
-17.87861105331348
 30
0.0
 40
3.25
 41
0.0
 71
     5
 72
     1
  1
\A1;{20"}
  7
ROMANS
 73
     1
 44
1.0
1001
ACAD
1000
MTEXTBEGIN
1070
    73
1070
     1
1070
    44
1040
1.0
1070
    74
1070
     0
1000
MTEXTEND
  0
POINT
  5
1E4E
330
716
100
AcDbEntity
  8
DEFPOINTS
 62
     0
100
AcDbPoint
 10
117.0189198816759
 20
-14.20556150488841
 30
0.0
  0
POINT
  5
1E4F
330
716
100
AcDbEntity
  8
DEFPOINTS
 62
     0
100
AcDbPoint
 10
97.01891988167597
 20
-14.20556150488841
 30
0.0
  0
POINT
  5
1E50
330
716
100
AcDbEntity
  8
DEFPOINTS
 62
     0
100
AcDbPoint
 10
97.01891988167597
 20
-17.87861105331348
 30
0.0
  0
ENDBLK
  5
722
330
716
100
AcDbEntity
  8
0
100
AcDbBlockEnd
  0
BLOCK
  5
724
330
723
100
AcDbEntity
  8
0
100
AcDbBlockBegin
  2
*D3
 70
     1
 10
0.0
 20
0.0
 30
0.0
  3
*D3
  1

  0
LINE
  5
1E3D
330
723
100
AcDbEntity
  8
0
 62
     0
370
    -2
100
AcDbLine
 10
117.5814198816759
 20
335.7944384951118
 30
0.0
 11
130.0085626692073
 21
335.7944384951117
 31
0.0
  0
LINE
  5
1E3E
330
723
100
AcDbEntity
  8
0
 62
     0
370
    -2
100
AcDbLine
 10
117.5814198816759
 20
347.7944384951118
 30
0.0
 11
130.0085626692073
 21
347.7944384951117
 31
0.0
  0
LINE
  5
1E3F
330
723
100
AcDbEntity
  8
0
 62
     0
370
    -2
100
AcDbLine
 10
128.3835626692073
 20
337.4194384951117
 30
0.0
 11
128.3835626692073
 21
338.2900373639593
 31
0.0
  0
LINE
  5
1E40
330
723
100
AcDbEntity
  8
0
 62
     0
370
    -2
100
AcDbLine
 10
128.3835626692073
 20
346.1694384951117
 30
0.0
 11
128.3835626692073
 21
345.4090849830069
 31
0.0
  0
MTEXT
  5
1E41
330
723
100
AcDbEntity
  8
0
 62
     0
100
AcDbMText
 10
128.3835626692073
 20
341.8495611734832
 30
0.0
 40
3.25
 41
0.0
 71
     5
 72
     1
  1
\A1;{12" TYP}
  7
ROMANS
 73
     1
 44
1.0
1001
ACAD
1000
MTEXTBEGIN
1070
    73
1070
     1
1070
    44
1040
1.0
1070
    74
1070
     0
1000
MTEXTEND
  0
SOLID
  5
1E42
330
723
100
AcDbEntity
  8
0
 62
     0
100
AcDbTrace
 10
128.112729335874
 20
337.4194384951117
 30
0.0
 11
128.6543960025406
 21
337.4194384951117
 31
0.0
 12
128.3835626692073
 22
335.7944384951117
 32
0.0
 13
128.3835626692073
 23
335.7944384951117
 33
0.0
  0
SOLID
  5
1E43
330
723
100
AcDbEntity
  8
0
 62
     0
100
AcDbTrace
 10
128.112729335874
 20
346.1694384951117
 30
0.0
 11
128.6543960025406
 21
346.1694384951117
 31
0.0
 12
128.3835626692073
 22
347.7944384951117
 32
0.0
 13
128.3835626692073
 23
347.7944384951117
 33
0.0
  0
POINT
  5
1E44
330
723
100
AcDbEntity
  8
DEFPOINTS
 62
     0
100
AcDbPoint
 10
115.9564198816759
 20
335.7944384951118
 30
0.0
  0
POINT
  5
1E45
330
723
100
AcDbEntity
  8
DEFPOINTS
 62
     0
100
AcDbPoint
 10
115.9564198816759
 20
347.7944384951118
 30
0.0
  0
POINT
  5
1E46
330
723
100
AcDbEntity
  8
DEFPOINTS
 62
     0
100
AcDbPoint
 10
128.3835626692073
 20
347.7944384951117
 30
0.0
  0
ENDBLK
  5
72F
330
723
100
AcDbEntity
  8
0
100
AcDbBlockEnd
  0
BLOCK
  5
995
330
982
100
AcDbEntity
  8
0
100
AcDbBlockBegin
  2
TB-ATT
 70
     2
 10
0.0
 20
0.0
 30
0.0
  3
TB-ATT
  1

  0
ATTDEF
  5
983
330
982
100
AcDbEntity
  8
0
 62
     5
100
AcDbText
 10
-215.598003151808
 20
12.89673285282586
 30
0.0
 40
1.248161764705882
  1

 50
90.0
  7
ROMANS
 72
     4
 11
-216.2220840341609
 21
13.4910955979239
 31
0.0
100
AcDbAttributeDefinition
  3
WORK ORDER (X)
  2
X
 70
     0
  0
ATTDEF
  5
984
330
982
100
AcDbEntity
  8
0
100
AcDbText
 10
-99.56996915842902
 20
11.16830391662092
 30
0.0
 40
1.769029714285714
  1

  7
ROMANS
 72
     1
 11
-93.71532319924535
 21
11.16830391662092
 31
0.0
100
AcDbAttributeDefinition
  3
PROJECT
  2
PROJECT
 70
     0
  0
ATTDEF
  5
985
330
982
100
AcDbEntity
  8
0
100
AcDbText
 10
-93.29852621965358
 20
6.014881478758579
 30
0.0
 40
1.769029714285714
  1

  7
ROMANS
 72
     1
 11
-85.464251770674
 21
6.014881478758579
 31
0.0
100
AcDbAttributeDefinition
  3
PURCHASER
  2
PURCHASER
 70
     0
  0
ATTDEF
  5
986
330
982
100
AcDbEntity
  8
0
100
AcDbText
 10
-165.5533944645515
 20
6.014881478758579
 30
0.0
 40
1.769029714285714
  1

  7
ROMANS
 72
     1
 11
-154.2231803421025
 21
6.014881478758579
 31
0.0
100
AcDbAttributeDefinition
  3
PURCHASE ORDER
  2
PURCHASEORDER
 70
     0
  0
ATTDEF
  5
987
330
982
100
AcDbEntity
  8
0
100
AcDbText
 10
-33.81411626046983
 20
11.16830391662092
 30
0.0
 40
1.769029714285714
  1

  7
ROMANS
 72
     1
 11
-27.70675177067392
 21
11.16830391662092
 31
0.0
100
AcDbAttributeDefinition
  3
GENERAL CONTRACTOR
  2
GENCONT
 70
     0
  0
ATTDEF
  5
988
330
982
100
AcDbEntity
  8
0
100
AcDbText
 10
-162.01533503598
 20
11.16830391662092
 30
0.0
 40
1.769029714285714
  1

  7
ROMANS
 72
     1
 11
-154.2231803421025
 21
11.16830391662092
 31
0.0
100
AcDbAttributeDefinition
  3
ARCHITECT OR ENGINEER
  2
ARCHORENG
 70
     0
  0
ATTDEF
  5
989
330
982
100
AcDbEntity
  8
0
100
AcDbText
 10
-30.31817658700044
 20
6.014881478758579
 30
0.0
 40
1.769029714285714
  1

  7
ROMANS
 72
     1
 11
-27.70675177067392
 21
6.014881478758579
 31
0.0
100
AcDbAttributeDefinition
  3
PRECISION REP
  2
REP
 70
     0
  0
ATTDEF
  5
98A
330
982
100
AcDbEntity
  8
0
100
AcDbText
 10
-95.42966009720457
 20
0.8614590408962374
 30
0.0
 40
1.769029714285714
  1

  7
ROMANS
 72
     1
 11
-90.96496605638822
 21
0.8614590408962374
 31
0.0
100
AcDbAttributeDefinition
  3
MODEL #
  2
MODEL
 70
     0
  0
ATTDEF
  5
98B
330
982
100
AcDbEntity
  8
0
100
AcDbText
 10
-63.15398328087806
 20
0.8614590408961362
 30
0.0
 40
1.769029714285714
  1
1
  7
ROMANS
 72
     1
 11
-60.71103748495969
 21
0.8614590408961362
 31
0.0
100
AcDbAttributeDefinition
  3
QUANTITY
  2
QTY
 70
     0
  0
ATTDEF
  5
98C
330
982
100
AcDbEntity
  8
0
100
AcDbText
 10
-127.1703531584289
 20
6.014881478758579
 30
0.0
 40
1.769029714285714
  1

  7
ROMANS
 72
     1
 11
-123.9692517706739
 21
6.014881478758579
 31
0.0
100
AcDbAttributeDefinition
  3
WORK ORDER DATE?
  2
DATE
 70
     0
  0
ATTDEF
  5
98D
330
982
100
AcDbEntity
  8
0
100
AcDbText
 10
-127.1703531584289
 20
0.8614590408961362
 30
0.0
 40
1.769029714285714
  1

  7
ROMANS
 72
     1
 11
-123.9692517706739
 21
0.8614590408961362
 31
0.0
100
AcDbAttributeDefinition
  3
WHAT IS TODAY'S DATE?
  2
DATE
 70
     0
  0
ATTDEF
  5
98E
330
982
100
AcDbEntity
  8
0
100
AcDbText
 10
-160.4569040972046
 20
0.8614590408961362
 30
0.0
 40
1.769029714285714
  1
JEB
  7
ROMANS
 72
     1
 11
-154.2231803421025
 21
0.8614590408961362
 31
0.0
100
AcDbAttributeDefinition
  3
WHO ARE YOU?
  2
DRAWNBY
 70
     0
  0
ATTDEF
  5
98F
330
982
100
AcDbEntity
  8
0
100
AcDbText
 10
-32.12932605638821
 20
0.8614590408961362
 30
0.0
 40
1.769029714285714
  1

  7
ROMANS
 72
     1
 11
-27.70675177067392
 21
0.8614590408961362
 31
0.0
100
AcDbAttributeDefinition
  3
SERIAL #
  2
SERIAL
 70
     0
  0
ATTDEF
  5
990
330
982
100
AcDbEntity
  8
0
 62
     5
100
AcDbText
 10
-273.7294019705065
 20
16.95296065185261
 30
0.0
 40
2.25
  1

  7
ROMANS
100
AcDbAttributeDefinition
  3
SCALE
  2
SCALE
 70
     0
  0
ATTDEF
  5
991
330
982
100
AcDbEntity
  8
0
100
AcDbText
 10
-13.04608364622476
 20
16.97014926946124
 30
0.0
 40
1.7518359375
  1

  7
ROMANS
 72
     4
 11
-7.456892798010471
 21
17.84606723821125
 31
0.0
100
AcDbAttributeDefinition
  3
SAVED AS
  2
SAVEDAS
 70
     0
  0
ATTDEF
  5
992
330
982
100
AcDbEntity
  8
0
100
AcDbText
 10
-201.8500886821915
 20
11.16830391662092
 30
0.0
 40
1.769029714285714
  1

  7
ROMANS
 72
     1
 11
-194.6476105597425
 21
11.16830391662092
 31
0.0
100
AcDbAttributeDefinition
  3
DWG CHECK
  2
DWGCHECK
 70
     0
  0
ATTDEF
  5
993
330
982
100
AcDbEntity
  8
0
100
AcDbText
 10
-199.9546997025996
 20
6.67317671248219
 30
0.0
 40
1.769029714285714
  1

  7
ROMANS
 72
     1
 11
-194.6476105597425
 21
6.67317671248219
 31
0.0
100
AcDbAttributeDefinition
  3
BUILT BY
  2
BUILTBY
 70
     0
  0
ATTDEF
  5
994
330
982
100
AcDbEntity
  8
0
100
AcDbText
 10
-202.4397652536201
 20
1.519754274619748
 30
0.0
 40
1.769029714285714
  1

  7
ROMANS
 72
     1
 11
-194.6476105597425
 21
1.519754274619748
 31
0.0
100
AcDbAttributeDefinition
  3
CHECKED BY
  2
CHECKEDBY
 70
     0
  0
ENDBLK
  5
996
330
982
100
AcDbEntity
  8
0
100
AcDbBlockEnd
  0
BLOCK
  5
A71
330
A70
100
AcDbEntity
  8
0
100
AcDbBlockBegin
  2
Border
 70
     0
 10
-0.7091800116219247
 20
15.8157349101412
 30
0.0
  3
Border
  1
\\tsclient\C\Users\Dustin.Hodges\OneDrive\STANDARD\X-REF\BORDER.DWG
  0
TEXT
  5
17B0
330
A70
100
AcDbEntity
  8
0
 62
     7
100
AcDbText
 10
14.88063647735446
 20
3.555192752089312
 30
0.0
 40
1.424754602022192
  1
Ph: (423) 586-2265 Fax: (423) 586-2091
  7
ROMANS
100
AcDbText
  0
TEXT
  5
17B1
330
A70
100
AcDbEntity
  8
0
 62
     7
100
AcDbText
 10
14.08259024903725
 20
5.861938298220419
 30
0.0
 40
1.424754602022192
  1
P.O. BOX 2279 Morristown, TN 37816-2279
  7
ROMANS
100
AcDbText
  0
POLYLINE
  5
17B2
330
A70
100
AcDbEntity
  8
0
 62
     7
100
AcDb2dPolyline
 66
     1
 10
0.0
 20
0.0
 30
0.0
1001
ACAD
1000
ASC_BOUNDS
1002
{
1070
    19
1002
}
  0
VERTEX
  5
17B3
330
17B2
100
AcDbEntity
  8
0
 62
     7
100
AcDbVertex
100
AcDb2dVertex
 10
8.76668081738618
 20
6.443475067235917
 30
0.0
  0
VERTEX
  5
17B4
330
17B2
100
AcDbEntity
  8
0
 62
     7
100
AcDbVertex
100
AcDb2dVertex
 10
8.994566881815796
 20
6.559590470402543
 30
0.0
1001
ACAD
1000
ASC_BOUNDS
1002
{
1070
    19
1002
}
  0
VERTEX
  5
17B5
330
17B2
100
AcDbEntity
  8
0
 62
     7
100
AcDbVertex
100
AcDb2dVertex
 10
10.52763436609126
 20
3.491790326072929
 30
0.0
1001
ACAD
1000
ASC_BOUNDS
1002
{
1070
    19
1002
}
  0
VERTEX
  5
17B6
330
17B2
100
AcDbEntity
  8
0
 62
     7
100
AcDbVertex
100
AcDb2dVertex
 10
10.03502769416031
 20
3.494898529831858
 30
0.0
  0
VERTEX
  5
17B7
330
17B2
100
AcDbEntity
  8
0
 62
     7
100
AcDbVertex
100
AcDb2dVertex
 10
8.603173268005281
 20
6.360162623077897
 30
0.0
  0
SEQEND
  5
17B8
330
17B2
100
AcDbEntity
  8
0
 62
     7
  0
TEXT
  5
17B9
330
A70
100
AcDbEntity
  8
0
 62
     7
100
AcDbText
 10
9.015369284921124
 20
8.285226862434923
 30
0.0
 40
2.328886132939683
  1
Precision Ladders, LLC
  7
STYLE1
100
AcDbText
  0
CIRCLE
  5
17BA
330
A70
100
AcDbEntity
  8
0
100
AcDbCircle
 10
7.214644270335542
 20
7.94378092785312
 30
0.0
 40
6.38678347424664
1001
ACAD
1000
ASC_BOUNDS
1002
{
1070
    19
1002
}
  0
INSERT
  5
17BB
330
A70
100
AcDbEntity
  8
0
100
AcDbBlockReference
  2
*X26
 10
26.35103919121864
 20
151.2550454807789
 30
0.0
 41
0.5167726248169388
 42
0.5167726248169388
 43
0.5167726248169388
1001
ACAD
1000
HATCH
1002
{
1070
    19
1000
ANSI31
1040
0.8843871093750001
1040
0.0
1002
}
  0
LWPOLYLINE
  5
1A09
330
A70
100
AcDbEntity
  8
0
 62
     7
100
AcDbPolyline
 90
        4
 70
     1
 43
0.0
 10
2.975488579343778
 20
11.20574487544478
 10
2.975488579343778
 20
11.66813709808385
 10
7.899965750449311
 20
11.66813709808385
 10
7.899965750449311
 20
11.20574487544478
1001
ACAD
1000
ASC_BOUNDS
1002
{
1070
    19
1005
0
1005
0
1002
}
  0
LINE
  5
1A0A
330
A70
100
AcDbEntity
  8
0
 62
     7
100
AcDbLine
 10
3.147317460242414
 20
11.15583866480144
 30
0.0
 11
5.194053803500196
 21
7.138892415524503
 31
0.0
1001
ACAD
1000
ASC_BOUNDS
1002
{
1070
    19
1002
}
  0
LWPOLYLINE
  5
1A0B
330
A70
100
AcDbEntity
  8
0
 62
     7
100
AcDbPolyline
 90
        4
 70
     0
 43
0.0
 10
3.043241497727863
 20
11.20371728648949
 10
5.210472883142562
 20
6.950286201614064
 10
5.200585015452041
 20
6.945248081384525
 10
3.033353630037339
 20
11.19867916625991
1001
ACAD
1000
ASC_BOUNDS
1002
{
1070
    19
1002
}
  0
LINE
  5
1A0C
330
A70
100
AcDbEntity
  8
0
 62
     7
100
AcDbLine
 10
3.085518287176609
 20
11.12435041336667
 30
0.0
 11
3.147317460242414
 21
11.15583866480144
 31
0.0
1001
ACAD
1000
ASC_BOUNDS
1002
{
1070
    19
1002
}
  0
LINE
  5
1A0D
330
A70
100
AcDbEntity
  8
0
 62
     7
100
AcDbLine
 10
3.147317460242414
 20
11.15583866480144
 30
0.0
 11
3.24526391354098
 21
11.20574487544478
 31
0.0
1001
ACAD
1000
ASC_BOUNDS
1002
{
1070
    19
1002
}
  0
LINE
  5
1A0E
330
A70
100
AcDbEntity
  8
0
 62
     7
100
AcDbLine
 10
3.147317460242414
 20
11.15583866480144
 30
0.0
 11
3.273270465981353
 21
10.90864197253827
 31
0.0
1001
ACAD
1000
ASC_BOUNDS
1002
{
1070
    19
1002
}
  0
LINE
  5
1A0F
330
A70
100
AcDbEntity
  8
0
 62
     7
100
AcDbLine
 10
5.072300872670789
 20
9.537448078706589
 30
0.0
 11
4.595747463433541
 21
8.569300236298884
 31
0.0
1001
ACAD
1000
ASC_BOUNDS
1002
{
1070
    19
1005
0
1002
}
  0
LWPOLYLINE
  5
1A10
330
A70
100
AcDbEntity
  8
0
 62
     7
100
AcDbPolyline
 90
        2
 70
     0
 43
0.0
 10
4.96050641954463
 20
9.543645531164395
 10
4.503413916137343
 20
8.615033727373596
1001
ACAD
1000
ASC_BOUNDS
1002
{
1070
    19
1005
0
1002
}
  0
LINE
  5
1A11
330
A70
100
AcDbEntity
  8
0
 62
     7
100
AcDbLine
 10
4.056007838214296
 20
11.20574487544478
 30
0.0
 11
4.932195406234606
 21
9.486129949655133
 31
0.0
1001
ACAD
1000
ASC_BOUNDS
1002
{
1070
    19
1002
}
  0
LINE
  5
1A12
330
A70
100
AcDbEntity
  8
0
 62
     7
100
AcDbLine
 10
3.978164599682428
 20
11.20574487544478
 30
0.0
 11
4.89394569271214
 21
9.408423281521599
 31
0.0
1001
ACAD
1000
ASC_BOUNDS
1002
{
1070
    19
1002
}
  0
LINE
  5
1A13
330
A70
100
AcDbEntity
  8
0
 62
     7
100
AcDbLine
 10
3.898137361914258
 20
10.64985270363091
 30
0.0
 11
4.715447029607362
 21
9.045792163565488
 31
0.0
1001
ACAD
1000
ASC_BOUNDS
1002
{
1070
    19
1002
}
  0
LINE
  5
1A14
330
A70
100
AcDbEntity
  8
0
 62
     7
100
AcDbLine
 10
5.484078733523913
 20
6.9101431448873
 30
0.0
 11
8.603173268005281
 21
6.360162623077897
 31
0.0
1001
ACAD
1000
ASC_BOUNDS
1002
{
1070
    19
1002
}
  0
POLYLINE
  5
1A15
330
A70
100
AcDbEntity
  8
0
 62
     7
100
AcDb2dPolyline
 66
     1
 10
0.0
 20
0.0
 30
0.0
1001
ACAD
1000
ASC_BOUNDS
1002
{
1070
    19
1002
}
  0
VERTEX
  5
1A16
330
1A15
100
AcDbEntity
  8
0
 62
     7
100
AcDbVertex
100
AcDb2dVertex
 10
5.558944561790159
 20
7.225843565768943
 30
0.0
  0
VERTEX
  5
1A17
330
1A15
100
AcDbEntity
  8
0
 62
     7
100
AcDbVertex
100
AcDb2dVertex
 10
5.585448566250242
 20
7.338318007944602
 30
0.0
1001
ACAD
1000
ASC_BOUNDS
1002
{
1070
    19
1002
}
  0
VERTEX
  5
1A18
330
1A15
100
AcDbEntity
  8
0
 62
     7
100
AcDbVertex
100
AcDb2dVertex
 10
8.691008811799829
 20
6.790723946438552
 30
0.0
1001
ACAD
1000
ASC_BOUNDS
1002
{
1070
    19
1002
}
  0
VERTEX
  5
1A19
330
1A15
100
AcDbEntity
  8
0
 62
     7
100
AcDbVertex
100
AcDb2dVertex
 10
8.636574317061809
 20
6.523891328589773
 30
0.0
  0
SEQEND
  5
1A1A
330
1A15
100
AcDbEntity
  8
0
 62
     7
  0
LINE
  5
1A1B
330
A70
100
AcDbEntity
  8
0
 62
     7
100
AcDbLine
 10
4.952359499322801
 20
9.293779731001045
 30
0.0
 11
5.847982934755888
 21
7.536019767643503
 31
0.0
1001
ACAD
1000
ASC_BOUNDS
1002
{
1070
    19
1005
0
1002
}
  0
LWPOLYLINE
  5
1A1C
330
A70
100
AcDbEntity
  8
0
 62
     7
100
AcDbPolyline
 90
        2
 70
     0
 43
0.0
 10
4.990609212845239
 20
9.371486399134528
 10
5.907719454906818
 20
7.571556203358111
1001
ACAD
1000
ASC_BOUNDS
1002
{
1070
    19
1002
}
  0
LWPOLYLINE
  5
1A1D
330
A70
100
AcDbEntity
  8
0
 62
     7
100
AcDbPolyline
 90
        3
 70
     0
 43
0.0
 10
4.504244055464262
 20
8.499766960532991
 10
4.670482206169474
 20
8.58084672409489
 10
4.635360593571968
 20
8.64977676994899
1001
ACAD
1000
ASC_BOUNDS
1002
{
1070
    19
1002
}
  0
CIRCLE
  5
1A1E
330
A70
100
AcDbEntity
  8
0
 62
     7
100
AcDbCircle
 10
4.570160018674123
 20
8.632639705777032
 30
0.0
 40
0.0173397083489631
1001
ACAD
1000
ASC_BOUNDS
1002
{
1070
    19
1002
}
  0
LINE
  5
1A1F
330
A70
100
AcDbEntity
  8
0
 62
     7
100
AcDbLine
 10
4.561762586535445
 20
8.733572674442774
 30
0.0
 11
4.420275384971654
 21
8.664564755375153
 31
0.0
1001
ACAD
1000
ASC_BOUNDS
1002
{
1070
    19
1002
}
  0
LINE
  5
1A20
330
A70
100
AcDbEntity
  8
0
 62
     7
100
AcDbLine
 10
4.39770569294264
 20
8.699031828263089
 30
0.0
 11
4.523658698681582
 21
8.451835135999917
 31
0.0
1001
ACAD
1000
ASC_BOUNDS
1002
{
1070
    19
1002
}
  0
LINE
  5
1A21
330
A70
100
AcDbEntity
  8
0
 62
     7
100
AcDbLine
 10
4.595674768008855
 20
8.569197878952621
 30
0.0
 11
4.503235545724734
 21
8.614717395049259
 31
0.0
1001
ACAD
1000
ASC_BOUNDS
1002
{
1070
    19
1002
}
  0
LWPOLYLINE
  5
1A22
330
A70
100
AcDbEntity
  8
0
 62
     1
100
AcDbPolyline
 90
        2
 70
     1
 43
0.0
 10
4.587499727023093
 20
8.632639705777032
 42
-1.0
 10
4.55282031032517
 20
8.632639705777032
 42
-1.0
1001
ACAD
1000
ASC_BOUNDS
1002
{
1070
    19
1002
}
  0
LINE
  5
1A23
330
A70
100
AcDbEntity
  8
0
 62
     7
100
AcDbLine
 10
5.908215410248866
 20
7.571854203391936
 30
0.0
 11
5.848763286247107
 21
7.536131763361781
 31
0.0
1001
ACAD
1000
ASC_BOUNDS
1002
{
1070
    19
1002
}
  0
LINE
  5
1A24
330
A70
100
AcDbEntity
  8
0
 62
     7
100
AcDbLine
 10
5.430122954348517
 20
7.259175655722275
 30
0.0
 11
5.130795973607249
 21
7.106660941314313
 31
0.0
1001
ACAD
1000
ASC_BOUNDS
1002
{
1070
    19
1002
}
  0
POLYLINE
  5
1A25
330
A70
100
AcDbEntity
  8
0
 62
     7
100
AcDb2dPolyline
 66
     1
 10
0.0
 20
0.0
 30
0.0
1001
ACAD
1000
ASC_BOUNDS
1002
{
1070
    19
1002
}
  0
VERTEX
  5
1A26
330
1A25
100
AcDbEntity
  8
0
 62
     7
100
AcDbVertex
100
AcDb2dVertex
 10
5.484532578181232
 20
6.910063119829056
 30
0.0
  0
VERTEX
  5
1A27
330
1A25
100
AcDbEntity
  8
0
 62
     7
100
AcDbVertex
100
AcDb2dVertex
 10
5.546463850673873
 20
7.172879455274847
 30
0.0
1001
ACAD
1000
ASC_BOUNDS
1002
{
1070
    19
1002
}
  0
SEQEND
  5
1A28
330
1A25
100
AcDbEntity
  8
0
 62
     7
  0
LINE
  5
1A29
330
A70
100
AcDbEntity
  8
0
 62
     7
100
AcDbLine
 10
4.77386083621802
 20
8.931148613044875
 30
0.0
 11
5.339284363245942
 21
7.821442458840071
 31
0.0
1001
ACAD
1000
ASC_BOUNDS
1002
{
1070
    19
1002
}
  0
LINE
  5
1A2A
330
A70
100
AcDbEntity
  8
0
 62
     7
100
AcDbLine
 10
5.372431002767807
 20
7.756388515892282
 30
0.0
 11
5.585448566250242
 21
7.338318007944602
 31
0.0
1001
ACAD
1000
ASC_BOUNDS
1002
{
1070
    19
1002
}
  0
LWPOLYLINE
  5
1A2B
330
A70
100
AcDbEntity
  8
0
 62
     7
100
AcDbPolyline
 90
        4
 70
     0
 43
0.0
 10
5.663392081283449
 20
7.89829971588861
 10
5.184306973023732
 20
7.664634295893696
 10
5.152818721589007
 20
7.726433468959536
 10
5.627680504219661
 20
7.968387632202146
1001
ACAD
1000
ASC_BOUNDS
1002
{
1070
    19
1005
0
1002
}
  0
LWPOLYLINE
  5
1A2C
330
A70
100
AcDbEntity
  8
0
 62
     7
100
AcDbPolyline
 90
        5
 70
     0
 43
0.0
 10
5.58544856627228
 20
7.338318008040809
 10
5.59793485041721
 20
7.310058788560711
 10
5.75177677310665
 20
6.999255221859691
 10
5.648175584206336
 20
6.947974580963293
 10
5.517682900888962
 20
7.236519860065415
1001
ACAD
1000
ASC_BOUNDS
1002
{
1070
    19
1002
}
  0
POLYLINE
  5
1A2D
330
A70
100
AcDbEntity
  8
0
 62
     7
100
AcDb2dPolyline
 66
     1
 10
0.0
 20
0.0
 30
0.0
 70
     1
1001
ACAD
1000
ASC_BOUNDS
1002
{
1070
    19
1002
}
  0
VERTEX
  5
1A2E
330
1A2D
100
AcDbEntity
  8
0
 62
     7
100
AcDbVertex
100
AcDb2dVertex
 10
5.195606360788612
 20
7.318468839405728
 30
0.0
1001
ACAD
1000
ASC_BOUNDS
1002
{
1070
    19
1002
}
  0
VERTEX
  5
1A2F
330
1A2D
100
AcDbEntity
  8
0
 62
     7
100
AcDbVertex
100
AcDb2dVertex
 10
5.217042192292936
 20
7.421416678144876
 30
0.0
  0
VERTEX
  5
1A30
330
1A2D
100
AcDbEntity
  8
0
 62
     7
100
AcDbVertex
100
AcDb2dVertex
 10
5.246883850365481
 20
7.413418789619864
 30
0.0
  0
VERTEX
  5
1A31
330
1A2D
100
AcDbEntity
  8
0
 62
     7
100
AcDbVertex
100
AcDb2dVertex
 10
5.58544856627228
 20
7.338318008040809
 30
0.0
  0
VERTEX
  5
1A32
330
1A2D
100
AcDbEntity
  8
0
 62
     7
100
AcDbVertex
100
AcDb2dVertex
 10
5.560414972412596
 20
7.225463102738613
 30
0.0
  0
VERTEX
  5
1A33
330
1A2D
100
AcDbEntity
  8
0
 62
     7
100
AcDbVertex
100
AcDb2dVertex
 10
5.224677480462091
 20
7.312333873137037
 30
0.0
  0
SEQEND
  5
1A34
330
1A2D
100
AcDbEntity
  8
0
 62
     7
  0
LWPOLYLINE
  5
1A35
330
A70
100
AcDbEntity
  8
0
 62
     7
100
AcDbPolyline
 90
        5
 70
     0
 43
0.0
 10
8.603173268005274
 20
6.360162623077897
 10
8.589470773575794
 20
6.387852556696197
 10
8.422268196328207
 20
6.69167732924224
 10
8.523543120510186
 20
6.747411521657982
 10
8.666451280049759
 20
6.464809369457251
1001
ACAD
1000
ASC_BOUNDS
1002
{
1070
    19
1002
}
  0
LINE
  5
1A36
330
A70
100
AcDbEntity
  8
0
 62
     7
100
AcDbLine
 10
8.626266396393791
 20
6.473362900436553
 30
0.0
 11
8.603173268005281
 21
6.360162623077897
 31
0.0
1001
ACAD
1000
ASC_BOUNDS
1002
{
1070
    19
1002
}
  0
POLYLINE
  5
1A37
330
A70
100
AcDbEntity
  8
0
 62
     7
100
AcDb2dPolyline
 66
     1
 10
0.0
 20
0.0
 30
0.0
 70
     1
1001
ACAD
1000
ASC_BOUNDS
1002
{
1070
    19
1002
}
  0
VERTEX
  5
1A38
330
1A37
100
AcDbEntity
  8
0
 62
     7
100
AcDbVertex
100
AcDb2dVertex
 10
8.991784676367736
 20
6.396933643765679
 30
0.0
1001
ACAD
1000
ASC_BOUNDS
1002
{
1070
    19
1002
}
  0
VERTEX
  5
1A39
330
1A37
100
AcDbEntity
  8
0
 62
     7
100
AcDbVertex
100
AcDb2dVertex
 10
8.974842694154414
 20
6.293151556621433
 30
0.0
  0
VERTEX
  5
1A3A
330
1A37
100
AcDbEntity
  8
0
 62
     7
100
AcDbVertex
100
AcDb2dVertex
 10
8.94468167655167
 20
6.299845120286859
 30
0.0
  0
VERTEX
  5
1A3B
330
1A37
100
AcDbEntity
  8
0
 62
     7
100
AcDbVertex
100
AcDb2dVertex
 10
8.603173268005274
 20
6.360162623077897
 30
0.0
  0
VERTEX
  5
1A3C
330
1A37
100
AcDbEntity
  8
0
 62
     7
100
AcDbVertex
100
AcDb2dVertex
 10
8.623279102268952
 20
6.473998759260011
 30
0.0
  0
VERTEX
  5
1A3D
330
1A37
100
AcDbEntity
  8
0
 62
     7
100
AcDbVertex
100
AcDb2dVertex
 10
8.96247442263037
 20
6.401799528684037
 30
0.0
  0
SEQEND
  5
1A3E
330
1A37
100
AcDbEntity
  8
0
 62
     7
  0
LINE
  5
1A3F
330
A70
100
AcDbEntity
  8
0
 62
     1
100
AcDbLine
 10
8.691008811799829
 20
6.790723946438552
 30
0.0
 11
8.636574317061809
 21
6.523891328589773
 31
0.0
1001
ACAD
1000
ASC_BOUNDS
1002
{
1070
    19
1002
}
  0
LINE
  5
1A40
330
A70
100
AcDbEntity
  8
0
 62
     1
100
AcDbLine
 10
8.636574317061809
 20
6.523891328589773
 30
0.0
 11
8.666451280049759
 21
6.464809369457251
 31
0.0
1001
ACAD
1000
ASC_BOUNDS
1002
{
1070
    19
1002
}
  0
LINE
  5
1A41
330
A70
100
AcDbEntity
  8
0
 62
     1
100
AcDbLine
 10
8.666451280049759
 20
6.464809369457251
 30
0.0
 11
8.766680817386196
 21
6.443475067235917
 31
0.0
  0
LINE
  5
1A42
330
A70
100
AcDbEntity
  8
0
 62
     1
100
AcDbLine
 10
8.766680817386196
 20
6.443475067235917
 30
0.0
 11
8.994566881815796
 21
6.559590470402543
 31
0.0
1001
ACAD
1000
ASC_BOUNDS
1002
{
1070
    19
1002
}
  0
LINE
  5
1A43
330
A70
100
AcDbEntity
  8
0
 62
     7
100
AcDbLine
 10
3.614896153200331
 20
11.20574487544478
 30
0.0
 11
3.868295867876062
 21
10.70841993333026
 31
0.0
1001
ACAD
1000
ASC_BOUNDS
1002
{
1070
    19
1002
}
  0
LWPOLYLINE
  5
1A44
330
A70
100
AcDbEntity
  8
0
 62
     7
100
AcDbPolyline
 90
        4
 70
     0
 43
0.0
 10
4.159256946391717
 20
10.85033113332661
 10
3.682035225907973
 20
10.61757454827515
 10
3.712440137243662
 20
10.55523524176073
 10
4.186533502887983
 20
10.79679787699294
1001
ACAD
1000
ASC_BOUNDS
1002
{
1070
    19
1002
}
  0
LINE
  5
1A45
330
A70
100
AcDbEntity
  8
0
 62
     7
100
AcDbLine
 10
5.709486798505537
 20
11.20574487544478
 30
0.0
 11
5.117289910609759
 21
10.13539932711145
 31
0.0
1001
ACAD
1000
ASC_BOUNDS
1002
{
1070
    19
1002
}
  0
LINE
  5
1A46
330
A70
100
AcDbEntity
  8
0
 62
     7
100
AcDbLine
 10
5.577375125302518
 20
11.20574487544478
 30
0.0
 11
5.136154627876381
 21
10.40827632249178
 31
0.0
1001
ACAD
1000
ASC_BOUNDS
1002
{
1070
    19
1002
}
  0
CIRCLE
  5
1A47
330
A70
100
AcDbEntity
  8
0
 62
     7
100
AcDbCircle
 10
5.02104187821431
 20
9.565686892025858
 30
0.0
 40
0.0173397083489631
1001
ACAD
1000
ASC_BOUNDS
1002
{
1070
    19
1002
}
  0
LWPOLYLINE
  5
1A48
330
A70
100
AcDbEntity
  8
0
 62
     1
100
AcDbPolyline
 90
        2
 70
     1
 43
0.0
 10
5.038381586563277
 20
9.565686892025858
 42
-1.0
 10
5.00370216986535
 20
9.565686892025858
 42
-1.0
1001
ACAD
1000
ASC_BOUNDS
1002
{
1070
    19
1002
}
  0
LINE
  5
1A49
330
A70
100
AcDbEntity
  8
0
 62
     1
100
AcDbLine
 10
5.075828546832793
 20
9.53566320533798
 30
0.0
 11
5.071422300771322
 21
9.53566320533798
 31
0.0
  0
LINE
  5
1A4A
330
A70
100
AcDbEntity
  8
0
 62
     7
100
AcDbLine
 10
5.191285764011574
 20
11.20574487544478
 30
0.0
 11
5.07527738144579
 21
9.527690631318536
 31
0.0
1001
ACAD
1000
ASC_BOUNDS
1002
{
1070
    19
1005
0
1002
}
  0
LWPOLYLINE
  5
1A4B
330
A70
100
AcDbEntity
  8
0
 62
     7
100
AcDbPolyline
 90
        3
 70
     0
 43
0.0
 10
5.075411797167864
 20
11.20574487544478
 10
4.9599545799891
 20
9.53566320533798
 10
5.075552635648852
 20
9.53566320533798
1001
ACAD
1000
ASC_BOUNDS
1002
{
1070
    19
1005
0
1002
}
  0
TEXT
  5
1A4C
330
A70
100
AcDbEntity
  8
0
 62
     7
100
AcDbText
 10
21.37027972100178
 20
0.9805520374701973
 30
0.0
 40
1.638467792325521
  1
www.PrecisionLadders.com
  7
ROMANS
100
AcDbText
  0
LWPOLYLINE
  5
1A4D
330
A70
100
AcDbEntity
  8
0
 62
     7
100
AcDbPolyline
 90
        9
 70
     0
 43
0.0
 10
10.36633405241564
 20
3.428726298408128
 10
10.36655286501773
 20
3.463405024791236
 10
10.26251668586845
 20
3.464061462597577
 10
10.19315923310224
 20
3.464499087801734
 10
10.19294042050013
 20
3.429820361418696
 42
0.4142135623730939
 10
10.20442705842713
 20
3.418187848423537
 10
10.35470153942057
 20
3.417239660481111
 42
0.4142135623730989
 10
10.36633405241563
 20
3.428726298408128
 42
-0.4142135623730944
 10
10.35470153942057
 20
3.417239660481111
1001
ACAD
1000
ASC_BOUNDS
1002
{
1070
    19
1002
}
  0
LINE
  5
1A4E
330
A70
100
AcDbEntity
  8
0
 62
     7
100
AcDbLine
 10
10.31311986264364
 20
3.493143849733801
 30
0.0
 11
10.31270923207142
 21
3.463744762338133
 31
0.0
1001
ACAD
1000
ASC_BOUNDS
1002
{
1070
    19
1002
}
  0
LINE
  5
1A4F
330
A70
100
AcDbEntity
  8
0
 62
     7
100
AcDbLine
 10
10.24954219760797
 20
3.493545006170978
 30
0.0
 11
10.31311986264364
 21
3.493143849733801
 31
0.0
1001
ACAD
1000
ASC_BOUNDS
1002
{
1070
    19
1002
}
  0
LINE
  5
1A50
330
A70
100
AcDbEntity
  8
0
 62
     7
100
AcDbLine
 10
10.24938007573795
 20
3.467850965163849
 30
0.0
 11
10.24954219760797
 21
3.493545006170978
 31
0.0
1001
ACAD
1000
ASC_BOUNDS
1002
{
1070
    19
1002
}
  0
TEXT
  5
1A51
330
A70
100
AcDbEntity
  8
0
100
AcDbText
 10
66.24482379919353
 20
0.7698485708019996
 30
0.0
 40
1.1055
  1
WORK ORDER: ( )
 50
90.0
 41
0.9
  7
ROMANS
100
AcDbText
  0
TEXT
  5
1A52
330
A70
100
AcDbEntity
  8
0
100
AcDbText
 10
67.90690698866296
 20
3.50275324912874
 30
0.0
 40
1.1055
  1
CHECKED BY:
  7
ROMANS
100
AcDbText
  0
TEXT
  5
1A53
330
A70
100
AcDbEntity
  8
0
100
AcDbText
 10
67.90690698866296
 20
13.80825974738629
 30
0.0
 40
1.1055
  1
DWG. CHECK
  7
ROMANS
100
AcDbText
  0
TEXT
  5
1A54
330
A70
100
AcDbEntity
  8
0
100
AcDbText
 10
67.90690698866296
 20
8.655506498257526
 30
0.0
 40
1.1055
  1
BUILT BY:
  7
ROMANS
100
AcDbText
  0
TEXT
  5
1A55
330
A70
100
AcDbEntity
  8
0
100
AcDbText
 10
99.41250000000003
 20
3.50275324912874
 30
0.0
 40
1.1055
  1
DRAWN BY:
  7
ROMANS
100
AcDbText
  0
TEXT
  5
1A56
330
A70
100
AcDbEntity
  8
0
100
AcDbText
 10
99.41250000000003
 20
8.655506498257526
 30
0.0
 40
1.1055
  1
PURCHASE ORDER
  7
ROMANS
100
AcDbText
  0
TEXT
  5
1A57
330
A70
100
AcDbEntity
  8
0
100
AcDbText
 10
99.41250000000003
 20
13.80825974738629
 30
0.0
 40
1.1055
  1
ARCH'T OR ENG'R.
  7
ROMANS
100
AcDbText
  0
TEXT
  5
1A58
330
A70
100
AcDbEntity
  8
0
100
AcDbText
 10
220.5524394415514
 20
8.236073841958665
 30
0.0
 40
1.1055
  1
SERIAL#
  7
ROMANS
100
AcDbText
  0
TEXT
  5
1A59
330
A70
100
AcDbEntity
  8
0
100
AcDbText
 10
220.4125000000001
 20
13.80825974738629
 30
0.0
 40
1.1055
  1
PRECISION REP
  7
ROMANS
100
AcDbText
  0
TEXT
  5
1A5A
330
A70
100
AcDbEntity
  8
0
100
AcDbText
 10
143.4125
 20
3.50275324912874
 30
0.0
 40
1.1055
  1
DATE
  7
ROMANS
100
AcDbText
  0
TEXT
  5
1A5B
330
A70
100
AcDbEntity
  8
0
100
AcDbText
 10
159.9125
 20
3.50275324912874
 30
0.0
 40
1.1055
  1
MODEL#
  7
ROMANS
100
AcDbText
  0
TEXT
  5
1A5C
330
A70
100
AcDbEntity
  8
0
100
AcDbText
 10
143.4125
 20
13.80825974738629
 30
0.0
 40
1.1055
  1
PROJECT
  7
ROMANS
100
AcDbText
  0
TEXT
  5
1A5D
330
A70
100
AcDbEntity
  8
0
100
AcDbText
 10
143.4125
 20
8.655506498257526
 30
0.0
 40
1.1055
  1
WORK ORDER
  7
ROMANS
100
AcDbText
  0
TEXT
  5
1A5E
330
A70
100
AcDbEntity
  8
0
100
AcDbText
 10
159.9125
 20
8.655506498257526
 30
0.0
 40
1.1055
  1
PURCHASER
  7
ROMANS
100
AcDbText
  0
TEXT
  5
1A5F
330
A70
100
AcDbEntity
  8
0
100
AcDbText
 10
209.4125000000002
 20
3.50275324912874
 30
0.0
 40
1.1055
  1
QTY.
  7
ROMANS
100
AcDbText
  0
LINE
  5
1A60
330
A70
100
AcDbEntity
  8
0
 62
     1
100
AcDbLine
 10
67.49440698866294
 20
5.152753249128782
 30
0.0
 11
220.0000000000001
 21
5.152753249128782
 31
0.0
  0
LINE
  5
1A61
330
A70
100
AcDbEntity
  8
0
 62
     1
100
AcDbLine
 10
275.0000000000007
 20
212.5
 30
0.0
 11
0.0
 21
212.5
 31
0.0
  0
LINE
  5
1A62
330
A70
100
AcDbEntity
  8
0
 62
     1
100
AcDbLine
 10
0.0
 20
212.5
 30
0.0
 11
0.0
 21
0.0000000000000067
 31
0.0
  0
LINE
  5
1A63
330
A70
100
AcDbEntity
  8
0
 62
     1
100
AcDbLine
 10
0.0
 20
0.0000000000000067
 30
0.0
 11
275.0000000000007
 21
0.0000000000000067
 31
0.0
  0
LINE
  5
1A64
330
A70
100
AcDbEntity
  8
0
 62
     1
100
AcDbLine
 10
67.49440698866294
 20
0.0000000000000067
 30
0.0
 11
67.49440698866294
 21
15.45825974738628
 31
0.0
  0
LINE
  5
1A65
330
A70
100
AcDbEntity
  8
0
 62
     1
100
AcDbLine
 10
99.0
 20
0.0000000000000067
 30
0.0
 11
99.0
 21
15.45825974738628
 31
0.0
  0
LINE
  5
1A66
330
A70
100
AcDbEntity
  8
0
 62
     1
100
AcDbLine
 10
143.0
 20
0.0000000000000067
 30
0.0
 11
143.0
 21
15.45825974738628
 31
0.0
  0
LINE
  5
1A67
330
A70
100
AcDbEntity
  8
0
 62
     1
100
AcDbLine
 10
159.5
 20
0.0000000000000067
 30
0.0
 11
159.5
 21
10.30550649825751
 31
0.0
  0
LINE
  5
1A68
330
A70
100
AcDbEntity
  8
0
 62
     1
100
AcDbLine
 10
220.0000000000001
 20
0.0000000000000067
 30
0.0
 11
220.0000000000001
 21
15.45825974738628
 31
0.0
  0
LINE
  5
1A69
330
A70
100
AcDbEntity
  8
0
 62
     1
100
AcDbLine
 10
209.0
 20
0.0000000000000067
 30
0.0
 11
209.0
 21
5.152753249128782
 31
0.0
  0
LINE
  5
1A6A
330
A70
100
AcDbEntity
  8
0
 62
     1
100
AcDbLine
 10
0.0
 20
15.45825974738628
 30
0.0
 11
275.0000000000007
 21
15.45825974738628
 31
0.0
  0
LINE
  5
1A6B
330
A70
100
AcDbEntity
  8
0
 62
     1
100
AcDbLine
 10
67.49440698866294
 20
10.30550649825751
 30
0.0
 11
275.0000000000007
 21
10.30550649825751
 31
0.0
  0
LINE
  5
1A6C
330
A70
100
AcDbEntity
  8
0
 62
     1
100
AcDbLine
 10
275.0000000000008
 20
0.000000000000008
 30
0.0
 11
275.0000000000008
 21
212.5
 31
0.0
  0
ENDBLK
  5
A72
330
A70
100
AcDbEntity
  8
0
100
AcDbBlockEnd
  0
BLOCK
  5
A84
330
A75
100
AcDbEntity
  8
0
100
AcDbBlockBegin
  2
border-T
 70
     2
 10
0.0
 20
0.0
 30
0.0
  3
border-T
  1

  0
ATTDEF
  5
A76
330
A75
100
AcDbEntity
  8
0
 62
     5
100
AcDbText
 10
1.270598029493498
 20
16.95296065185261
 30
0.0
 40
2.25
  1

  7
ROMANS
100
AcDbAttributeDefinition
  3
SCALE
  2
SCALE
 70
     0
  0
ATTDEF
  5
A77
330
A75
100
AcDbEntity
  8
0
100
AcDbText
 10
267.5431072019895
 20
17.84606723821125
 30
0.0
 40
1.7518359375
  1

  7
ROMANS
 72
     4
 11
267.5431072019895
 21
17.84606723821125
 31
0.0
100
AcDbAttributeDefinition
  3
SAVED AS
  2
SAVEDAS
 70
     0
  0
ATTDEF
  5
A78
330
A75
100
AcDbEntity
  8
0
 62
     5
100
AcDbText
 10
65.77232295450201
 20
13.4910955979239
 30
0.0
 40
1.248161764705882
  1

 50
90.0
  7
ROMANS
 72
     4
 11
65.77232295450201
 21
13.4910955979239
 31
0.0
100
AcDbAttributeDefinition
  3
WORK ORDER (X)
  2
X
 70
     0
  0
ATTDEF
  5
A79
330
A75
100
AcDbEntity
  8
0
100
AcDbText
 10
120.7768196578975
 20
11.16830391662092
 30
0.0
 40
1.769029714285714
  1

  7
ROMANS
 72
     1
 11
120.7768196578975
 21
11.16830391662092
 31
0.0
100
AcDbAttributeDefinition
  3
ARCHITECT OR ENGINEER
  2
ARCHORENG
 70
     0
  0
ATTDEF
  5
A7A
330
A75
100
AcDbEntity
  8
0
100
AcDbText
 10
120.7768196578975
 20
6.014881478758579
 30
0.0
 40
1.769029714285714
  1

  7
ROMANS
 72
     1
 11
120.7768196578975
 21
6.014881478758579
 31
0.0
100
AcDbAttributeDefinition
  3
PURCHASE ORDER
  2
PURCHASEORDER
 70
     0
  0
ATTDEF
  5
A7B
330
A75
100
AcDbEntity
  8
0
100
AcDbText
 10
118.4602331272852
 20
0.8614590408961362
 30
0.0
 40
1.769029714285714
  1
JEB
  7
ROMANS
 72
     1
 11
120.7768196578975
 21
0.8614590408961362
 31
0.0
100
AcDbAttributeDefinition
  3
WHO ARE YOU?
  2
DRAWNBY
 70
     0
  0
ATTDEF
  5
A7C
330
A75
100
AcDbEntity
  8
0
100
AcDbText
 10
151.0307482293261
 20
6.014881478758579
 30
0.0
 40
1.769029714285714
  1

  7
ROMANS
 72
     1
 11
151.0307482293261
 21
6.014881478758579
 31
0.0
100
AcDbAttributeDefinition
  3
WORK ORDER DATE?
  2
DATE
 70
     0
  0
ATTDEF
  5
A7D
330
A75
100
AcDbEntity
  8
0
100
AcDbText
 10
151.0307482293261
 20
0.8614590408961362
 30
0.0
 40
1.769029714285714
  1

  7
ROMANS
 72
     1
 11
151.0307482293261
 21
0.8614590408961362
 31
0.0
100
AcDbAttributeDefinition
  3
WHAT IS TODAY'S DATE?
  2
DATE
 70
     0
  0
ATTDEF
  5
A7E
330
A75
100
AcDbEntity
  8
0
100
AcDbText
 10
181.2846768007546
 20
11.16830391662092
 30
0.0
 40
1.769029714285714
  1

  7
ROMANS
 72
     1
 11
181.2846768007546
 21
11.16830391662092
 31
0.0
100
AcDbAttributeDefinition
  3
PROJECT
  2
PROJECT
 70
     0
  0
ATTDEF
  5
A7F
330
A75
100
AcDbEntity
  8
0
100
AcDbText
 10
189.535748229326
 20
6.014881478758579
 30
0.0
 40
1.769029714285714
  1

  7
ROMANS
 72
     1
 11
189.535748229326
 21
6.014881478758579
 31
0.0
100
AcDbAttributeDefinition
  3
PURCHASER
  2
PURCHASER
 70
     0
  0
ATTDEF
  5
A80
330
A75
100
AcDbEntity
  8
0
100
AcDbText
 10
184.0350339436118
 20
0.8614590408962374
 30
0.0
 40
1.769029714285714
  1

  7
ROMANS
 72
     1
 11
184.0350339436118
 21
0.8614590408962374
 31
0.0
100
AcDbAttributeDefinition
  3
MODEL #
  2
MODEL
 70
     0
  0
ATTDEF
  5
A81
330
A75
100
AcDbEntity
  8
0
100
AcDbText
 10
213.5729266783056
 20
0.8614590408961362
 30
0.0
 40
1.769029714285714
  1
1
  7
ROMANS
 72
     1
 11
214.2889625150403
 21
0.8614590408961362
 31
0.0
100
AcDbAttributeDefinition
  3
QUANTITY
  2
QTY
 70
     0
  0
ATTDEF
  5
A82
330
A75
100
AcDbEntity
  8
0
100
AcDbText
 10
247.2932482293261
 20
11.16763472788734
 30
0.0
 40
1.769029714285714
  1

  7
ROMANS
 72
     1
 11
247.2932482293261
 21
11.16763472788734
 31
0.0
100
AcDbAttributeDefinition
  3
PRECISION REP
  2
REP
 70
     0
  0
ATTDEF
  5
A83
330
A75
100
AcDbEntity
  8
0
100
AcDbText
 10
247.3274175489777
 20
3.153238685427304
 30
0.0
 40
3.455136160714285
  1

  7
ROMANS
 72
     1
 11
247.3274175489777
 21
3.153238685427304
 31
0.0
100
AcDbAttributeDefinition
  3
SERIAL #
  2
L010000
 70
     0
  0
ENDBLK
  5
A85
330
A75
100
AcDbEntity
  8
0
100
AcDbBlockEnd
  0
BLOCK
  5
D18
330
D0D
100
AcDbEntity
  8
0
100
AcDbBlockBegin
  2
*D8
 70
     1
 10
0.0
 20
0.0
 30
0.0
  3
*D8
  1

  0
LINE
  5
D0E
330
D0D
100
AcDbEntity
  8
0
 62
     0
370
    -2
100
AcDbLine
 10
143.4908392324766
 20
55.65919151270844
 30
0.0
 11
146.7048467760861
 21
57.51479963318884
 31
0.0
  0
LINE
  5
D0F
330
D0D
100
AcDbEntity
  8
0
 62
     0
370
    -2
100
AcDbLine
 10
159.4556603157637
 20
46.44189776270847
 30
0.0
 11
162.6696678593732
 21
48.29750588318887
 31
0.0
  0
LINE
  5
D10
330
D0D
100
AcDbEntity
  8
0
 62
     0
370
    -2
100
AcDbLine
 10
146.5541253553436
 20
56.30278058035051
 30
0.0
 11
149.7038914516232
 21
54.48426227677909
 31
0.0
  0
LINE
  5
D11
330
D0D
100
AcDbEntity
  8
0
 62
     0
370
    -2
100
AcDbLine
 10
160.5703892801157
 20
48.21048683035054
 30
0.0
 11
157.420623183836
 21
50.02900513392195
 31
0.0
  0
SOLID
  5
D12
330
D0D
100
AcDbEntity
  8
0
 62
     0
100
AcDbTrace
 10
146.6478753553436
 20
56.46516034356009
 30
0.0
 11
146.4603753553436
 21
56.14040081714093
 31
0.0
 12
145.5798467760861
 22
56.86528058035051
 32
0.0
 13
145.5798467760861
 23
56.86528058035051
 33
0.0
  0
SOLID
  5
D13
330
D0D
100
AcDbEntity
  8
0
 62
     0
100
AcDbTrace
 10
160.6641392801157
 20
48.37286659356013
 30
0.0
 11
160.4766392801157
 21
48.04810706714096
 31
0.0
 12
161.5446678593732
 22
47.64798683035055
 32
0.0
 13
161.5446678593732
 23
47.64798683035055
 33
0.0
  0
MTEXT
  5
D14
330
D0D
100
AcDbEntity
  8
0
 62
     0
100
AcDbMText
 10
153.5622573177296
 20
52.25663370535054
 30
0.0
 40
1.4472
 41
0.0
 71
     5
 72
     1
  1
\A1;8-1/2"
  7
ROMANS
 73
     1
 44
1.0
1001
ACAD
1000
MTEXTBEGIN
1070
    73
1070
     1
1070
    44
1040
1.0
1070
    74
1070
     0
1000
MTEXTEND
  0
POINT
  5
D15
330
D0D
100
AcDbEntity
  8
DEFPOINTS
 62
     0
100
AcDbPoint
 10
142.3658392324766
 20
55.00967245987011
 30
0.0
  0
POINT
  5
D16
330
D0D
100
AcDbEntity
  8
DEFPOINTS
 62
     0
100
AcDbPoint
 10
158.3306603157637
 20
45.79237870987014
 30
0.0
  0
POINT
  5
D17
330
D0D
100
AcDbEntity
  8
DEFPOINTS
 62
     0
100
AcDbPoint
 10
161.5446678593732
 20
47.64798683035055
 30
0.0
  0
ENDBLK
  5
D19
330
D0D
100
AcDbEntity
  8
0
100
AcDbBlockEnd
  0
BLOCK
  5
D25
330
D1A
100
AcDbEntity
  8
0
100
AcDbBlockBegin
  2
*D9
 70
     1
 10
0.0
 20
0.0
 30
0.0
  3
*D9
  1

  0
LINE
  5
D1B
330
D1A
100
AcDbEntity
  8
0
 62
     0
370
    -2
100
AcDbLine
 10
135.3225358133794
 20
42.59566247919347
 30
0.0
 11
135.3225358133794
 21
40.65562540495402
 31
0.0
  0
LINE
  5
D1C
330
D1A
100
AcDbEntity
  8
0
 62
     0
370
    -2
100
AcDbLine
 10
134.8529822521063
 20
42.86675935419347
 30
0.0
 11
134.8529822521063
 21
40.92672227995403
 31
0.0
  0
LINE
  5
D1D
330
D1A
100
AcDbEntity
  8
0
 62
     0
370
    -2
100
AcDbLine
 10
136.2968143926369
 20
41.39216351063065
 30
0.0
 11
137.2710929718944
 21
40.82966351063062
 31
0.0
  0
LINE
  5
D1E
330
D1A
100
AcDbEntity
  8
0
 62
     0
370
    -2
100
AcDbLine
 10
133.8787036728488
 20
42.78826038563071
 30
0.0
 11
132.9044250935913
 21
43.35076038563073
 31
0.0
  0
MTEXT
  5
D1F
330
D1A
100
AcDbEntity
  8
0
 62
     0
100
AcDbMText
 10
130.3463461189406
 20
43.50894689503458
 30
0.0
 40
1.4472
 41
0.0
 71
     5
 72
     1
  1
\A1;1/4"
  7
ROMANS
 73
     1
 44
1.0
1001
ACAD
1000
MTEXTBEGIN
1070
    73
1070
     1
1070
    44
1040
1.0
1070
    74
1070
     0
1000
MTEXTEND
  0
SOLID
  5
D20
330
D1A
100
AcDbEntity
  8
0
 62
     0
100
AcDbTrace
 10
136.3905643926369
 20
41.55454327384023
 30
0.0
 11
136.2030643926369
 21
41.22978374742107
 31
0.0
 12
135.3225358133794
 22
41.95466351063068
 32
0.0
 13
135.3225358133794
 23
41.95466351063068
 33
0.0
  0
SOLID
  5
D21
330
D1A
100
AcDbEntity
  8
0
 62
     0
100
AcDbTrace
 10
133.9724536728488
 20
42.95064014884029
 30
0.0
 11
133.7849536728488
 21
42.62588062242113
 31
0.0
 12
134.8529822521063
 22
42.22576038563068
 32
0.0
 13
134.8529822521063
 23
42.22576038563068
 33
0.0
  0
POINT
  5
D22
330
D1A
100
AcDbEntity
  8
DEFPOINTS
 62
     0
100
AcDbPoint
 10
135.3225358133795
 20
43.89470058487013
 30
0.0
  0
POINT
  5
D23
330
D1A
100
AcDbEntity
  8
DEFPOINTS
 62
     0
100
AcDbPoint
 10
134.8529822521063
 20
44.16579745987013
 30
0.0
  0
POINT
  5
D24
330
D1A
100
AcDbEntity
  8
DEFPOINTS
 62
     0
100
AcDbPoint
 10
134.8529822521063
 20
42.22576038563068
 30
0.0
  0
ENDBLK
  5
D26
330
D1A
100
AcDbEntity
  8
0
100
AcDbBlockEnd
  0
BLOCK
  5
D32
330
D27
100
AcDbEntity
  8
0
100
AcDbBlockBegin
  2
*D10
 70
     1
 10
0.0
 20
0.0
 30
0.0
  3
*D10
  1

  0
LINE
  5
D28
330
D27
100
AcDbEntity
  8
0
 62
     0
370
    -2
100
AcDbLine
 10
141.2408392324767
 20
55.65919151270843
 30
0.0
 11
139.2544978268227
 21
56.80600625796522
 31
0.0
  0
LINE
  5
D29
330
D27
100
AcDbEntity
  8
0
 62
     0
370
    -2
100
AcDbLine
 10
133.7279822521063
 20
51.32164151270846
 30
0.0
 11
131.7416408464524
 21
52.46845625796524
 31
0.0
  0
LINE
  5
D2A
330
D27
100
AcDbEntity
  8
0
 62
     0
370
    -2
100
AcDbLine
 10
141.3537764060802
 20
56.71898720512689
 30
0.0
 11
142.3280549853377
 21
57.28148720512688
 31
0.0
  0
LINE
  5
D2B
330
D27
100
AcDbEntity
  8
0
 62
     0
370
    -2
100
AcDbLine
 10
131.8923622671949
 20
51.25643720512691
 30
0.0
 11
130.9180836879374
 21
50.69393720512691
 31
0.0
  0
MTEXT
  5
D2C
330
D27
100
AcDbEntity
  8
0
 62
     0
100
AcDbMText
 10
135.2863305183877
 20
54.28614125172661
 30
0.0
 40
1.4472
 41
0.0
 71
     5
 72
     1
  1
\A1;4-1/2"
  7
ROMANS
 73
     1
 44
1.0
1001
ACAD
1000
MTEXTBEGIN
1070
    73
1070
     1
1070
    44
1040
1.0
1070
    74
1070
     0
1000
MTEXTEND
  0
SOLID
  5
D2D
330
D27
100
AcDbEntity
  8
0
 62
     0
100
AcDbTrace
 10
141.2600264060802
 20
56.88136696833646
 30
0.0
 11
141.4475264060802
 21
56.5566074419173
 31
0.0
 12
140.3794978268227
 22
56.15648720512687
 32
0.0
 13
140.3794978268227
 23
56.15648720512687
 33
0.0
  0
SOLID
  5
D2E
330
D27
100
AcDbEntity
  8
0
 62
     0
100
AcDbTrace
 10
131.7986122671949
 20
51.41881696833649
 30
0.0
 11
131.9861122671949
 21
51.09405744191732
 31
0.0
 12
132.8666408464524
 22
51.8189372051269
 32
0.0
 13
132.8666408464524
 23
51.8189372051269
 33
0.0
  0
POINT
  5
D2F
330
D27
100
AcDbEntity
  8
DEFPOINTS
 62
     0
100
AcDbPoint
 10
142.3658392324766
 20
55.00967245987009
 30
0.0
  0
POINT
  5
D30
330
D27
100
AcDbEntity
  8
DEFPOINTS
 62
     0
100
AcDbPoint
 10
134.8529822521063
 20
50.67212245987012
 30
0.0
  0
POINT
  5
D31
330
D27
100
AcDbEntity
  8
DEFPOINTS
 62
     0
100
AcDbPoint
 10
132.8666408464524
 20
51.8189372051269
 30
0.0
  0
ENDBLK
  5
D33
330
D27
100
AcDbEntity
  8
0
100
AcDbBlockEnd
  0
BLOCK
  5
D3F
330
D34
100
AcDbEntity
  8
0
 62
     7
100
AcDbBlockBegin
  2
*D11
 70
     1
 10
0.0
 20
0.0
 30
0.0
  3
*D11
  1

  0
LINE
  5
D35
330
D34
100
AcDbEntity
  8
0
 62
     0
370
    -2
100
AcDbLine
 10
159.4556603157637
 20
46.44189776270846
 30
0.0
 11
162.6696678593732
 21
48.29750588318885
 31
0.0
  0
LINE
  5
D36
330
D34
100
AcDbEntity
  8
0
 62
     0
370
    -2
100
AcDbLine
 10
159.4556603157637
 20
39.93557276270846
 30
0.0
 11
162.6696678593732
 21
41.79118088318885
 31
0.0
  0
LINE
  5
D37
330
D34
100
AcDbEntity
  8
0
 62
     0
370
    -2
100
AcDbLine
 10
161.5446678593732
 20
48.77298683035053
 30
0.0
 11
161.5446678593732
 21
49.89798683035052
 31
0.0
  0
LINE
  5
D38
330
D34
100
AcDbEntity
  8
0
 62
     0
370
    -2
100
AcDbLine
 10
161.5446678593732
 20
40.01666183035052
 30
0.0
 11
161.5446678593732
 21
38.89166183035052
 31
0.0
  0
MTEXT
  5
D39
330
D34
100
AcDbEntity
  8
0
 62
     0
100
AcDbMText
 10
161.9184358716045
 20
43.96342964808081
 30
0.0
 40
1.4472
 41
0.0
 71
     5
 72
     1
  1
\A1;3"
  7
ROMANS
 73
     1
 44
1.0
1001
ACAD
1000
MTEXTBEGIN
1070
    73
1070
     1
1070
    44
1040
1.0
1070
    74
1070
     0
1000
MTEXTEND
  0
SOLID
  5
D3A
330
D34
100
AcDbEntity
  8
0
 62
     0
100
AcDbTrace
 10
161.3571678593732
 20
48.77298683035053
 30
0.0
 11
161.7321678593732
 21
48.77298683035053
 31
0.0
 12
161.5446678593732
 22
47.64798683035052
 32
0.0
 13
161.5446678593732
 23
47.64798683035052
 33
0.0
  0
SOLID
  5
D3B
330
D34
100
AcDbEntity
  8
0
 62
     0
100
AcDbTrace
 10
161.3571678593732
 20
40.01666183035052
 30
0.0
 11
161.7321678593732
 21
40.01666183035052
 31
0.0
 12
161.5446678593732
 22
41.14166183035051
 32
0.0
 13
161.5446678593732
 23
41.14166183035051
 33
0.0
  0
POINT
  5
D3C
330
D34
100
AcDbEntity
  8
DEFPOINTS
 62
     0
100
AcDbPoint
 10
158.3306603157637
 20
45.79237870987014
 30
0.0
  0
POINT
  5
D3D
330
D34
100
AcDbEntity
  8
DEFPOINTS
 62
     0
100
AcDbPoint
 10
158.3306603157637
 20
39.28605370987013
 30
0.0
  0
POINT
  5
D3E
330
D34
100
AcDbEntity
  8
DEFPOINTS
 62
     0
100
AcDbPoint
 10
161.5446678593732
 20
41.14166183035051
 30
0.0
  0
ENDBLK
  5
D40
330
D34
100
AcDbEntity
  8
0
 62
     7
100
AcDbBlockEnd
  0
BLOCK
  5
D69
330
D41
100
AcDbEntity
  8
0
 62
     7
100
AcDbBlockBegin
  2
NEWBKT-C
 70
     0
 10
0.0
 20
0.0
 30
0.0
  3
NEWBKT-C
  1

  0
LINE
  5
D42
330
D41
100
AcDbEntity
  8
0
 62
     7
100
AcDbLine
 10
-39.40031931969298
 20
36.15604266011621
 30
0.0
 11
-32.35701590059577
 21
40.22249578511616
 31
0.0
  0
LINE
  5
D43
330
D41
100
AcDbEntity
  8
0
 62
     7
100
AcDbLine
 10
-39.86987288096609
 20
36.42713953511621
 30
0.0
 11
-32.35701590059577
 21
40.76468953511617
 31
0.0
  0
DIMENSION
  5
D44
330
D41
100
AcDbEntity
  8
0
 62
     7
100
AcDbDimension
  2
*D10
 10
-41.85621428662005
 20
37.57395428037297
 30
0.0
 11
-39.43652461468474
 21
40.04115832697268
 31
0.0
 12
-174.7228551330725
 22
-14.24498292475394
 32
0.0
 70
   129
  1
4-1/2"
 71
     5
 42
8.675099999999929
  3
STANDARD$0
100
AcDbAlignedDimension
 13
-32.3570159005958
 23
40.76468953511616
 33
0.0
 14
-39.86987288096612
 24
36.4271395351162
 34
0.0
  0
TEXT
  5
D45
330
D41
100
AcDbEntity
  8
0
 62
     7
100
AcDbText
 10
-38.62979902755895
 20
23.60824149392302
 30
0.0
 40
1.09603692
  1
%%C9/16"
  7
ROMANS
 72
     2
 11
-32.73207655327323
 21
24.15625995392302
 31
0.0
100
AcDbText
 73
     2
  0
LINE
  5
D46
330
D41
100
AcDbEntity
  8
0
 62
     7
100
AcDbLine
 10
-39.40031931969298
 20
29.64971766011622
 30
0.0
 11
-32.35701590059577
 21
33.71617078511618
 31
0.0
  0
LEADER
  5
D47
330
D41
100
AcDbEntity
  8
0
 62
     7
100
AcDbLeader
  3
STANDARD
 73
     0
 40
1.4472
 41
1.4472
 76
     3
 10
-35.67776426924317
 20
34.62078583355693
 30
0.0
 10
-30.40543120343418
 20
24.2482308223235
 30
0.0
 10
-34.73685448573085
 20
24.2482308223235
 30
0.0
340
D48
213
0.0
223
-0.6300796045167207
233
0.0
1001
ACAD
1000
DSTYLE
1002
{
1070
   147
1040
0.0625
1070
    77
1070
     0
1002
}
  0
MTEXT
  5
D48
102
{ACAD_REACTORS
330
D47
102
}
330
D41
100
AcDbEntity
  8
0
 62
     7
100
AcDbMText
 10
-35.86185448573085
 20
24.87831042684022
 30
0.0
 40
1.4472
 41
0.0
 71
     9
 72
     1
  1
 
  7
ROMANS
 73
     1
 44
1.0
1001
ACAD
1000
MTEXTBEGIN
1070
    73
1070
     1
1070
    44
1040
1.0
1070
    74
1070
     0
1000
MTEXTEND
  0
TEXT
  5
D49
330
D41
100
AcDbEntity
  8
0
 62
     5
100
AcDbText
 10
-39.55500425680043
 20
18.90448522029914
 30
0.0
 40
1.8267282
  1
BRACKET DETAIL
  7
ROMANS
 72
     1
 11
-28.246686828229
 21
18.90448522029914
 31
0.0
100
AcDbText
  0
LINE
  5
D4A
330
D41
100
AcDbEntity
  8
0
 62
     7
100
AcDbLine
 10
-39.40031931969298
 20
29.64971766011622
 30
0.0
 11
-39.40031931969298
 21
36.15604266011621
 31
0.0
  0
LINE
  5
D4B
330
D41
100
AcDbEntity
  8
0
 62
     7
100
AcDbLine
 10
-39.86987288096609
 20
29.92081453511621
 30
0.0
 11
-39.86987288096609
 21
36.42713953511621
 31
0.0
  0
DIMENSION
  5
D4C
330
D41
100
AcDbEntity
  8
0
 62
     7
100
AcDbDimension
  2
*D9
 10
-39.86987288096614
 20
27.98077746087675
 30
0.0
 11
-44.37650901413189
 21
29.26396397028064
 31
0.0
 12
-174.7228551330725
 22
-14.24498292475394
 32
0.0
 70
   129
  1
1/4"
 71
     5
 42
0.5421937499999956
  3
STANDARD$0
100
AcDbAlignedDimension
 13
-39.40031931969298
 23
29.6497176601162
 33
0.0
 14
-39.86987288096612
 24
29.92081453511621
 34
0.0
  0
LINE
  5
D4D
330
D41
100
AcDbEntity
  8
0
 62
     7
100
AcDbLine
 10
-39.40031931969298
 20
29.64971766011622
 30
0.0
 11
-39.86987288096609
 21
29.92081453511621
 31
0.0
  0
LINE
  5
D4E
330
D41
100
AcDbEntity
  8
0
 62
     7
100
AcDbLine
 10
-39.40031931969298
 20
36.15604266011621
 30
0.0
 11
-39.86987288096609
 21
36.42713953511621
 31
0.0
  0
LWPOLYLINE
  5
D4F
330
D41
100
AcDbEntity
  8
0
 62
     7
100
AcDbPolyline
 90
        7
 70
     0
 43
0.0
 10
-36.57603567343614
 20
34.46975284652791
 42
0.0283695723264663
 10
-36.52084540123616
 20
34.49757098331179
 42
0.0723410840577375
 10
-36.32792984393791
 20
34.64979131365574
 42
0.0587518675353654
 10
-36.14731783051627
 20
34.89188270855694
 42
0.0587518675353444
 10
-36.02796653920498
 20
35.16934299785935
 42
0.0723410840576672
 10
-35.99259764480379
 20
35.4125229364368
 42
0.0283695723264929
 10
-35.99610156776302
 20
35.47422818259565
 42
0.1568512196709102
  0
LWPOLYLINE
  5
D50
330
D41
100
AcDbEntity
  8
0
 62
     7
100
AcDbPolyline
 90
       16
 70
     1
 43
0.0
 10
-36.4248194106828
 20
35.05209832056663
 42
0.0587518675353646
 10
-36.54417070199412
 20
34.77463803126421
 42
0.0723410840576763
 10
-36.57953959639531
 20
34.53145809268678
 42
0.106617054391126
 10
-36.53107959841106
 20
34.3067794802983
 42
0.1568512196706424
 10
-36.4248194106828
 20
34.18947334654722
 42
0.1568512196706761
 10
-36.27009922497041
 20
34.15610239143923
 42
0.1066170543910004
 10
-36.051291839963
 20
34.22647410831179
 42
0.0723410840577375
 10
-35.85837628266475
 20
34.37869443865576
 42
0.0587518675353654
 10
-35.67776426924317
 20
34.62078583355693
 42
0.0587518675353444
 10
-35.55841297793185
 20
34.89824612285933
 42
0.0723410840576672
 10
-35.52304408353069
 20
35.14142606143678
 42
0.1066170543911832
 10
-35.57150408151489
 20
35.36610467382515
 42
0.1568512196709102
 10
-35.67776426924317
 20
35.48341080757636
 42
0.1568512196706761
 10
-35.83248445495559
 20
35.51678176268432
 42
0.1066170543910004
 10
-36.051291839963
 20
35.44641004581179
 42
0.0723410840577166
 10
-36.24420739726114
 20
35.29418971546788
 42
0.0587518675353862
  0
DIMENSION
  5
D51
330
D41
100
AcDbEntity
  8
0
 62
     7
100
AcDbDimension
  2
*D11
 10
-13.17818727369928
 20
26.89667890559658
 30
0.0
 11
-12.80441926146792
 21
29.71844672332688
 31
0.0
 12
-174.7228551330725
 22
-14.24498292475394
 32
0.0
 70
   129
  1
3"
 71
     5
 42
6.506325000000003
  3
STANDARD$0
100
AcDbAlignedDimension
 13
-16.3921948173087
 23
31.5473957851162
 33
0.0
 14
-16.3921948173087
 24
25.0410707851162
 34
0.0
  0
LINE
  5
D52
330
D41
100
AcDbEntity
  8
0
 62
     7
100
AcDbLine
 10
-16.86174837858184
 20
31.27629891011619
 30
0.0
 11
-32.35701590059577
 21
40.22249578511616
 31
0.0
  0
LINE
  5
D53
330
D41
100
AcDbEntity
  8
0
 62
     7
100
AcDbLine
 10
-16.3921948173087
 20
31.5473957851162
 30
0.0
 11
-32.35701590059577
 21
40.76468953511617
 31
0.0
  0
LINE
  5
D54
330
D41
100
AcDbEntity
  8
0
 62
     7
100
AcDbLine
 10
-16.86174837858184
 20
24.7699739101162
 30
0.0
 11
-32.35701590059577
 21
33.71617078511618
 31
0.0
  0
DIMENSION
  5
D55
330
D41
100
AcDbEntity
  8
0
 62
     7
100
AcDbDimension
  2
*D8
 10
-13.17818727369928
 20
33.40300390559661
 30
0.0
 11
-21.16059781534284
 21
38.0116507805966
 31
0.0
 12
-174.7228551330725
 22
-14.24498292475394
 32
0.0
 70
     1
  1
8-1/2"
 71
     5
 42
18.4345875
  3
STANDARD$0
100
AcDbAlignedDimension
 13
-32.3570159005958
 23
40.76468953511617
 33
0.0
 14
-16.3921948173087
 24
31.54739578511621
 34
0.0
  0
LINE
  5
D56
330
D41
100
AcDbEntity
  8
0
 62
     7
100
AcDbLine
 10
-16.3921948173087
 20
25.0410707851162
 30
0.0
 11
-16.3921948173087
 21
31.5473957851162
 31
0.0
  0
LINE
  5
D57
330
D41
100
AcDbEntity
  8
0
 62
     7
100
AcDbLine
 10
-16.86174837858184
 20
24.7699739101162
 30
0.0
 11
-16.86174837858184
 21
31.27629891011619
 31
0.0
  0
LINE
  5
D58
330
D41
100
AcDbEntity
  8
0
 62
     7
100
AcDbLine
 10
-16.86174837858184
 20
24.7699739101162
 30
0.0
 11
-16.3921948173087
 21
25.0410707851162
 31
0.0
  0
LINE
  5
D59
330
D41
100
AcDbEntity
  8
0
 62
     7
100
AcDbLine
 10
-16.86174837858184
 20
31.27629891011619
 30
0.0
 11
-16.3921948173087
 21
31.5473957851162
 31
0.0
  0
LINE
  5
D5A
330
D41
100
AcDbEntity
  8
0
 62
     7
100
AcDbLine
 10
-32.35701590059577
 20
40.22249578511616
 30
0.0
 11
-32.35701590059577
 21
33.71617078511618
 31
0.0
  0
LINE
  5
D5B
330
D41
100
AcDbEntity
  8
0
 62
     7
100
AcDbLine
 10
-77.29163092573151
 20
20.83356115786182
 30
0.0
 11
-77.29163092573151
 21
23.83356115786182
 31
0.0
  0
LINE
  5
D5C
330
D41
100
AcDbEntity
  8
0
 62
     7
100
AcDbLine
 10
-74.10413092573151
 20
20.83356115786181
 30
0.0
 11
-77.29163092573151
 21
20.83356115786182
 31
0.0
  0
LINE
  5
D5D
330
D41
100
AcDbEntity
  8
0
 62
     7
100
AcDbLine
 10
-74.10413092573151
 20
23.83356115786181
 30
0.0
 11
-77.29163092573151
 21
23.83356115786182
 31
0.0
  0
CIRCLE
  5
D5E
330
D41
100
AcDbEntity
  8
0
 62
     7
100
AcDbCircle
 10
-75.04163092573151
 20
22.33356115786182
 30
0.0
 40
0.28125
  0
LINE
  5
D5F
330
D41
100
AcDbEntity
  8
0
 62
     7
100
AcDbLine
 10
-72.79163092573151
 20
20.83356115786181
 30
0.0
 11
-72.79163092573151
 21
23.83356115786181
 31
0.0
  0
LINE
  5
D60
330
D41
100
AcDbEntity
  8
0
 62
     7
100
AcDbLine
 10
-72.79163092573151
 20
20.83356115786181
 30
0.0
 11
-73.04163092573151
 21
20.83356115786181
 31
0.0
  0
LINE
  5
D61
330
D41
100
AcDbEntity
  8
0
 62
     7
100
AcDbLine
 10
-72.79163092573151
 20
23.83356115786181
 30
0.0
 11
-73.04163092573151
 21
23.83356115786181
 31
0.0
  0
LINE
  5
D62
330
D41
100
AcDbEntity
  8
0
 62
     7
100
AcDbLine
 10
-93.29163092573152
 20
20.83356115786181
 30
0.0
 11
-93.29163092573152
 21
23.83356115786181
 31
0.0
  0
LINE
  5
D63
330
D41
100
AcDbEntity
  8
0
 62
     7
100
AcDbLine
 10
-88.79163092573151
 20
20.83356115786182
 30
0.0
 11
-88.79163092573151
 21
23.83356115786182
 31
0.0
  0
LINE
  5
D64
330
D41
100
AcDbEntity
  8
0
 62
     7
100
AcDbLine
 10
-91.9791309257315
 20
20.83356115786181
 30
0.0
 11
-88.79163092573151
 21
20.83356115786182
 31
0.0
  0
LINE
  5
D65
330
D41
100
AcDbEntity
  8
0
 62
     7
100
AcDbLine
 10
-93.29163092573152
 20
20.83356115786181
 30
0.0
 11
-93.04163092573151
 21
20.83356115786181
 31
0.0
  0
CIRCLE
  5
D66
330
D41
100
AcDbEntity
  8
0
 62
     7
100
AcDbCircle
 10
-91.0416309257315
 20
22.33356115786182
 30
0.0
 40
0.28125
  0
LINE
  5
D67
330
D41
100
AcDbEntity
  8
0
 62
     7
100
AcDbLine
 10
-91.9791309257315
 20
23.83356115786181
 30
0.0
 11
-88.79163092573151
 21
23.83356115786182
 31
0.0
  0
LINE
  5
D68
330
D41
100
AcDbEntity
  8
0
 62
     7
100
AcDbLine
 10
-93.29163092573152
 20
23.83356115786181
 30
0.0
 11
-93.04163092573151
 21
23.83356115786181
 31
0.0
  0
ENDBLK
  5
D6A
330
D41
100
AcDbEntity
  8
0
 62
     7
100
AcDbBlockEnd
  0
BLOCK
  5
D86
330
D7B
100
AcDbEntity
  8
0
100
AcDbBlockBegin
  2
*D13
 70
     1
 10
0.0
 20
0.0
 30
0.0
  3
*D13
  1

  0
LINE
  5
1DF7
330
D7B
100
AcDbEntity
  8
0
 62
     0
370
    -2
100
AcDbLine
 10
-54.88128938900391
 20
325.0515304324419
 30
0.0
 11
-54.88128938900391
 21
337.7035111912645
 31
0.0
  0
LINE
  5
1DF8
330
D7B
100
AcDbEntity
  8
0
 62
     0
370
    -2
100
AcDbLine
 10
-127.1635148376122
 20
325.0515304324419
 30
0.0
 11
-127.1635148376122
 21
337.7035111912645
 31
0.0
  0
LINE
  5
1DF9
330
D7B
100
AcDbEntity
  8
0
 62
     0
370
    -2
100
AcDbLine
 10
-56.50628938900391
 20
336.0785111912645
 30
0.0
 11
-85.83787830378424
 21
336.0785111912645
 31
0.0
  0
LINE
  5
1DFA
330
D7B
100
AcDbEntity
  8
0
 62
     0
370
    -2
100
AcDbLine
 10
-125.5385148376122
 20
336.0785111912645
 30
0.0
 11
-96.20692592283186
 21
336.0785111912645
 31
0.0
  0
SOLID
  5
1DFB
330
D7B
100
AcDbEntity
  8
0
 62
     0
100
AcDbTrace
 10
-56.50628938900391
 20
336.3493445245978
 30
0.0
 11
-56.50628938900391
 21
335.8076778579312
 31
0.0
 12
-54.88128938900391
 22
336.0785111912645
 32
0.0
 13
-54.88128938900391
 23
336.0785111912645
 33
0.0
  0
SOLID
  5
1DFC
330
D7B
100
AcDbEntity
  8
0
 62
     0
100
AcDbTrace
 10
-125.5385148376122
 20
336.3493445245978
 30
0.0
 11
-125.5385148376122
 21
335.8076778579312
 31
0.0
 12
-127.1635148376122
 22
336.0785111912645
 32
0.0
 13
-127.1635148376122
 23
336.0785111912645
 33
0.0
  0
MTEXT
  5
1DFD
330
D7B
100
AcDbEntity
  8
0
 62
     0
100
AcDbMText
 10
-91.02240211330805
 20
336.0785111912645
 30
0.0
 40
3.25
 41
0.0
 71
     5
 72
     1
  1
\A1;16"
  7
ROMANS
 73
     1
 44
1.0
1001
ACAD
1000
MTEXTBEGIN
1070
    73
1070
     1
1070
    44
1040
1.0
1070
    74
1070
     0
1000
MTEXTEND
  0
POINT
  5
1DFE
330
D7B
100
AcDbEntity
  8
DEFPOINTS
 62
     0
100
AcDbPoint
 10
-54.88128938900391
 20
323.4265304324418
 30
0.0
  0
POINT
  5
1DFF
330
D7B
100
AcDbEntity
  8
DEFPOINTS
 62
     0
100
AcDbPoint
 10
-127.1635148376122
 20
323.4265304324418
 30
0.0
  0
POINT
  5
1E00
330
D7B
100
AcDbEntity
  8
DEFPOINTS
 62
     0
100
AcDbPoint
 10
-127.1635148376122
 20
336.0785111912645
 30
0.0
  0
ENDBLK
  5
D87
330
D7B
100
AcDbEntity
  8
0
100
AcDbBlockEnd
  0
BLOCK
  5
D93
330
D88
100
AcDbEntity
  8
0
100
AcDbBlockBegin
  2
*D14
 70
     1
 10
0.0
 20
0.0
 30
0.0
  3
*D14
  1

  0
LINE
  5
1E01
330
D88
100
AcDbEntity
  8
0
 62
     0
370
    -2
100
AcDbLine
 10
-51.26717811657342
 20
285.104400589302
 30
0.0
 11
-51.26717811657342
 21
272.2775581553166
 31
0.0
  0
LINE
  5
1E02
330
D88
100
AcDbEntity
  8
0
 62
     0
370
    -2
100
AcDbLine
 10
-130.7776261100426
 20
285.104400589302
 30
0.0
 11
-130.7776261100426
 21
272.2775581553166
 31
0.0
  0
LINE
  5
1E03
330
D88
100
AcDbEntity
  8
0
 62
     0
370
    -2
100
AcDbLine
 10
-52.89217811657342
 20
273.9025581553166
 30
0.0
 11
-79.02835449426041
 21
273.9025581553166
 31
0.0
  0
LINE
  5
1E04
330
D88
100
AcDbEntity
  8
0
 62
     0
370
    -2
100
AcDbLine
 10
-129.1526261100426
 20
273.9025581553166
 30
0.0
 11
-103.0164497323556
 21
273.9025581553166
 31
0.0
  0
SOLID
  5
1E05
330
D88
100
AcDbEntity
  8
0
 62
     0
100
AcDbTrace
 10
-52.89217811657342
 20
274.1733914886499
 30
0.0
 11
-52.89217811657342
 21
273.6317248219833
 31
0.0
 12
-51.26717811657342
 22
273.9025581553166
 32
0.0
 13
-51.26717811657342
 23
273.9025581553166
 33
0.0
  0
SOLID
  5
1E06
330
D88
100
AcDbEntity
  8
0
 62
     0
100
AcDbTrace
 10
-129.1526261100426
 20
274.1733914886499
 30
0.0
 11
-129.1526261100426
 21
273.6317248219833
 31
0.0
 12
-130.7776261100426
 22
273.9025581553166
 32
0.0
 13
-130.7776261100426
 23
273.9025581553166
 33
0.0
  0
MTEXT
  5
1E07
330
D88
100
AcDbEntity
  8
0
 62
     0
100
AcDbMText
 10
-91.02240211330803
 20
273.9025581553166
 30
0.0
 40
3.25
 41
0.0
 71
     5
 72
     1
  1
\A1;17-7/8"
  7
ROMANS
 73
     1
 44
1.0
1001
ACAD
1000
MTEXTBEGIN
1070
    73
1070
     1
1070
    44
1040
1.0
1070
    74
1070
     0
1000
MTEXTEND
  0
POINT
  5
1E08
330
D88
100
AcDbEntity
  8
DEFPOINTS
 62
     0
100
AcDbPoint
 10
-51.26717811657342
 20
286.729400589302
 30
0.0
  0
POINT
  5
1E09
330
D88
100
AcDbEntity
  8
DEFPOINTS
 62
     0
100
AcDbPoint
 10
-130.7776261100426
 20
286.729400589302
 30
0.0
  0
POINT
  5
1E0A
330
D88
100
AcDbEntity
  8
DEFPOINTS
 62
     0
100
AcDbPoint
 10
-130.7776261100426
 20
273.9025581553166
 30
0.0
  0
ENDBLK
  5
D94
330
D88
100
AcDbEntity
  8
0
100
AcDbBlockEnd
  0
BLOCK
  5
D9F
330
D95
100
AcDbEntity
  8
0
100
AcDbBlockBegin
  2
*D15
 70
     1
 10
0.0
 20
0.0
 30
0.0
  3
*D15
  1

  0
LINE
  5
1E0B
330
D95
100
AcDbEntity
  8
0
 62
     0
370
    -2
100
AcDbLine
 10
-45.47204972530745
 20
292.2895717776566
 30
0.0
 11
-29.84571154397798
 21
292.2895717776566
 31
0.0
  0
LINE
  5
1E0C
330
D95
100
AcDbEntity
  8
0
 62
     0
370
    -2
100
AcDbLine
 10
-43.80399836880126
 20
324.5385646701127
 30
0.0
 11
-29.84571154397797
 21
324.5385646701127
 31
0.0
  0
LINE
  5
1E0D
330
D95
100
AcDbEntity
  8
0
 62
     0
370
    -2
100
AcDbLine
 10
-31.47071154397798
 20
293.9145717776566
 30
0.0
 11
-31.47071154397798
 21
304.3128777476942
 31
0.0
  0
LINE
  5
1E0E
330
D95
100
AcDbEntity
  8
0
 62
     0
370
    -2
100
AcDbLine
 10
-31.47071154397797
 20
322.9135646701127
 30
0.0
 11
-31.47071154397797
 21
312.5152587000751
 31
0.0
  0
SOLID
  5
1E0F
330
D95
100
AcDbEntity
  8
0
 62
     0
100
AcDbTrace
 10
-31.74154487731131
 20
293.9145717776566
 30
0.0
 11
-31.19987821064464
 21
293.9145717776566
 31
0.0
 12
-31.47071154397798
 22
292.2895717776566
 32
0.0
 13
-31.47071154397798
 23
292.2895717776566
 33
0.0
  0
SOLID
  5
1E10
330
D95
100
AcDbEntity
  8
0
 62
     0
100
AcDbTrace
 10
-31.7415448773113
 20
322.9135646701127
 30
0.0
 11
-31.19987821064464
 21
322.9135646701127
 31
0.0
 12
-31.47071154397797
 22
324.5385646701127
 32
0.0
 13
-31.47071154397797
 23
324.5385646701127
 33
0.0
  0
MTEXT
  5
1E11
330
D95
100
AcDbEntity
  8
0
 62
     0
100
AcDbMText
 10
-31.47071154397802
 20
308.4140682238847
 30
0.0
 40
3.25
 41
0.0
 71
     5
 72
     1
  1
\A1;7-1/4"
  7
ROMANS
 73
     1
 44
1.0
1001
ACAD
1000
MTEXTBEGIN
1070
    73
1070
     1
1070
    44
1040
1.0
1070
    74
1070
     0
1000
MTEXTEND
  0
POINT
  5
1E12
330
D95
100
AcDbEntity
  8
DEFPOINTS
 62
     0
100
AcDbPoint
 10
-47.09704972530746
 20
292.2895717776566
 30
0.0
  0
POINT
  5
1E13
330
D95
100
AcDbEntity
  8
DEFPOINTS
 62
     0
100
AcDbPoint
 10
-45.42899836880127
 20
324.5385646701127
 30
0.0
  0
POINT
  5
1E14
330
D95
100
AcDbEntity
  8
DEFPOINTS
 62
     0
100
AcDbPoint
 10
-31.47071154397797
 20
324.5385646701127
 30
0.0
  0
ENDBLK
  5
DA0
330
D95
100
AcDbEntity
  8
0
100
AcDbBlockEnd
  0
BLOCK
  5
DEF
330
DE5
100
AcDbEntity
  8
0
100
AcDbBlockBegin
  2
*D16
 70
     1
 10
0.0
 20
0.0
 30
0.0
  3
*D16
  1

  0
LINE
  5
1E15
330
DE5
100
AcDbEntity
  8
0
 62
     0
370
    -2
100
AcDbLine
 10
-102.1884317103215
 20
217.5499925428289
 30
0.0
 11
-107.8919860414191
 21
220.8429411712259
 31
0.0
  0
LINE
  5
1E16
330
DE5
100
AcDbEntity
  8
0
 62
     0
370
    -2
100
AcDbLine
 10
-123.760749463625
 20
205.095209080915
 30
0.0
 11
-129.4643037947227
 21
208.3881577093119
 31
0.0
  0
LINE
  5
1E17
330
DE5
100
AcDbEntity
  8
0
 62
     0
370
    -2
100
AcDbLine
 10
-107.6742773225688
 20
219.0922469837927
 30
0.0
 11
-109.3391696163698
 21
218.131020969795
 31
0.0
  0
LINE
  5
1E18
330
DE5
100
AcDbEntity
  8
0
 62
     0
370
    -2
100
AcDbLine
 10
-126.432012513573
 20
208.2624635218788
 30
0.0
 11
-123.5461101689288
 21
209.928640017414
 31
0.0
  0
MTEXT
  5
1E19
330
DE5
100
AcDbEntity
  8
0
 62
     0
100
AcDbMText
 10
-120.8914390072312
 20
214.5342604537316
 30
0.0
 40
3.25
 41
0.0
 71
     5
 72
     1
  1
\A1;4-1/2"
  7
ROMANS
 73
     1
 44
1.0
1001
ACAD
1000
MTEXTBEGIN
1070
    73
1070
     1
1070
    44
1040
1.0
1070
    74
1070
     0
1000
MTEXTEND
  0
SOLID
  5
1E1A
330
DE5
100
AcDbEntity
  8
0
 62
     0
100
AcDbTrace
 10
-107.8096939892355
 20
219.326795530651
 30
0.0
 11
-107.5388606559022
 21
218.8576984369344
 31
0.0
 12
-106.2669860414191
 22
219.9047469837927
 32
0.0
 13
-106.2669860414191
 23
219.9047469837927
 33
0.0
  0
SOLID
  5
1E1B
330
DE5
100
AcDbEntity
  8
0
 62
     0
100
AcDbTrace
 10
-126.5674291802396
 20
208.497012068737
 30
0.0
 11
-126.2965958469063
 21
208.0279149750205
 31
0.0
 12
-127.8393037947227
 22
207.4499635218788
 32
0.0
 13
-127.8393037947227
 23
207.4499635218788
 33
0.0
  0
POINT
  5
1E1C
330
DE5
100
AcDbEntity
  8
DEFPOINTS
 62
     0
100
AcDbPoint
 10
-100.5634317103215
 20
216.6117983553958
 30
0.0
  0
POINT
  5
1E1D
330
DE5
100
AcDbEntity
  8
DEFPOINTS
 62
     0
100
AcDbPoint
 10
-122.1357494636251
 20
204.1570148934819
 30
0.0
  0
POINT
  5
1E1E
330
DE5
100
AcDbEntity
  8
DEFPOINTS
 62
     0
100
AcDbPoint
 10
-127.8393037947227
 20
207.4499635218788
 30
0.0
  0
ENDBLK
  5
DF0
330
DE5
100
AcDbEntity
  8
0
100
AcDbBlockEnd
  0
BLOCK
  5
DFC
330
DF1
100
AcDbEntity
  8
0
100
AcDbBlockBegin
  2
*D17
 70
     1
 10
0.0
 20
0.0
 30
0.0
  3
*D17
  1

  0
LINE
  5
1E1F
330
DF1
100
AcDbEntity
  8
0
 62
     0
370
    -2
100
AcDbLine
 10
-120.7874796040436
 20
182.8200273593749
 30
0.0
 11
-120.7874796040436
 21
177.2494306705213
 31
0.0
  0
LINE
  5
1E20
330
DF1
100
AcDbEntity
  8
0
 62
     0
370
    -2
100
AcDbLine
 10
-122.135749463625
 20
183.5984513257445
 30
0.0
 11
-122.135749463625
 21
178.0278546368909
 31
0.0
  0
LINE
  5
1E21
330
DF1
100
AcDbEntity
  8
0
 62
     0
370
    -2
100
AcDbLine
 10
-119.3801883228938
 20
178.3133190453876
 30
0.0
 11
-117.9728970417441
 21
177.5008190453876
 31
0.0
  0
LINE
  5
1E22
330
DF1
100
AcDbEntity
  8
0
 62
     0
370
    -2
100
AcDbLine
 10
-123.5430407447747
 20
180.7167430117571
 30
0.0
 11
-124.9503320259244
 21
181.5292430117571
 31
0.0
  0
MTEXT
  5
1E23
330
DF1
100
AcDbEntity
  8
0
 62
     0
100
AcDbMText
 10
-135.0760446026361
 20
183.5887677125384
 30
0.0
 40
3.25
 41
0.0
 71
     5
 72
     1
  1
\A1;1/4"
  7
ROMANS
 73
     1
 44
1.0
1001
ACAD
1000
MTEXTBEGIN
1070
    73
1070
     1
1070
    44
1040
1.0
1070
    74
1070
     0
1000
MTEXTEND
  0
SOLID
  5
1E24
330
DF1
100
AcDbEntity
  8
0
 62
     0
100
AcDbTrace
 10
-119.2447716562272
 20
178.5478675922459
 30
0.0
 11
-119.5156049895605
 21
178.0787704985293
 31
0.0
 12
-120.7874796040436
 22
179.1258190453876
 32
0.0
 13
-120.7874796040436
 23
179.1258190453876
 33
0.0
  0
SOLID
  5
1E25
330
DF1
100
AcDbEntity
  8
0
 62
     0
100
AcDbTrace
 10
-123.4076240781081
 20
180.9512915586154
 30
0.0
 11
-123.6784574114414
 21
180.4821944648988
 31
0.0
 12
-122.135749463625
 22
179.9042430117571
 32
0.0
 13
-122.135749463625
 23
179.9042430117571
 33
0.0
  0
POINT
  5
1E26
330
DF1
100
AcDbEntity
  8
DEFPOINTS
 62
     0
100
AcDbPoint
 10
-120.7874796040436
 20
184.6964157342412
 30
0.0
  0
POINT
  5
1E27
330
DF1
100
AcDbEntity
  8
DEFPOINTS
 62
     0
100
AcDbPoint
 10
-122.135749463625
 20
185.4748397006108
 30
0.0
  0
POINT
  5
1E28
330
DF1
100
AcDbEntity
  8
DEFPOINTS
 62
     0
100
AcDbPoint
 10
-122.135749463625
 20
179.9042430117571
 30
0.0
  0
ENDBLK
  5
DFD
330
DF1
100
AcDbEntity
  8
0
100
AcDbBlockEnd
  0
BLOCK
  5
E09
330
DFE
100
AcDbEntity
  8
0
100
AcDbBlockBegin
  2
*D18
 70
     1
 10
0.0
 20
0.0
 30
0.0
  3
*D18
  1

  0
LINE
  5
1E29
330
DFE
100
AcDbEntity
  8
0
 62
     0
370
    -2
100
AcDbLine
 10
-53.09725648455092
 20
191.0835776862617
 30
0.0
 11
-43.86859790986851
 21
196.4117461986137
 31
0.0
  0
LINE
  5
1E2A
330
DFE
100
AcDbEntity
  8
0
 62
     0
370
    -2
100
AcDbLine
 10
-53.09725648455092
 20
172.4014024933906
 30
0.0
 11
-43.86859790986851
 21
177.7295710057426
 31
0.0
  0
LINE
  5
1E2B
330
DFE
100
AcDbEntity
  8
0
 62
     0
370
    -2
100
AcDbLine
 10
-45.49359790986851
 20
193.8485520111806
 30
0.0
 11
-45.49359790986851
 21
188.4532872630602
 31
0.0
  0
LINE
  5
1E2C
330
DFE
100
AcDbEntity
  8
0
 62
     0
370
    -2
100
AcDbLine
 10
-45.49359790986851
 20
178.4163768183095
 30
0.0
 11
-45.49359790986851
 21
181.3342396440126
 31
0.0
  0
MTEXT
  5
1E2D
330
DFE
100
AcDbEntity
  8
0
 62
     0
100
AcDbMText
 10
-44.4203654036538
 20
184.8937634535364
 30
0.0
 40
3.25
 41
0.0
 71
     5
 72
     1
  1
\A1;3"
  7
ROMANS
 73
     1
 44
1.0
1001
ACAD
1000
MTEXTBEGIN
1070
    73
1070
     1
1070
    44
1040
1.0
1070
    74
1070
     0
1000
MTEXTEND
  0
SOLID
  5
1E2E
330
DFE
100
AcDbEntity
  8
0
 62
     0
100
AcDbTrace
 10
-45.76443124320184
 20
193.8485520111806
 30
0.0
 11
-45.22276457653517
 21
193.8485520111806
 31
0.0
 12
-45.49359790986851
 22
195.4735520111805
 32
0.0
 13
-45.49359790986851
 23
195.4735520111805
 33
0.0
  0
SOLID
  5
1E2F
330
DFE
100
AcDbEntity
  8
0
 62
     0
100
AcDbTrace
 10
-45.76443124320184
 20
178.4163768183095
 30
0.0
 11
-45.22276457653517
 21
178.4163768183095
 31
0.0
 12
-45.49359790986851
 22
176.7913768183095
 32
0.0
 13
-45.49359790986851
 23
176.7913768183095
 33
0.0
  0
POINT
  5
1E30
330
DFE
100
AcDbEntity
  8
DEFPOINTS
 62
     0
100
AcDbPoint
 10
-54.72225648455092
 20
190.1453834988285
 30
0.0
  0
POINT
  5
1E31
330
DFE
100
AcDbEntity
  8
DEFPOINTS
 62
     0
100
AcDbPoint
 10
-54.72225648455092
 20
171.4632083059575
 30
0.0
  0
POINT
  5
1E32
330
DFE
100
AcDbEntity
  8
DEFPOINTS
 62
     0
100
AcDbPoint
 10
-45.49359790986851
 20
176.7913768183095
 30
0.0
  0
ENDBLK
  5
E0A
330
DFE
100
AcDbEntity
  8
0
100
AcDbBlockEnd
  0
BLOCK
  5
E16
330
E0B
100
AcDbEntity
  8
0
100
AcDbBlockBegin
  2
*D19
 70
     1
 10
0.0
 20
0.0
 30
0.0
  3
*D19
  1

  0
LINE
  5
1E33
330
E0B
100
AcDbEntity
  8
0
 62
     0
370
    -2
100
AcDbLine
 10
-98.9384317103215
 20
217.5499925428291
 30
0.0
 11
-89.70977313563905
 21
222.8781610551812
 31
0.0
  0
LINE
  5
1E34
330
E0B
100
AcDbEntity
  8
0
 62
     0
370
    -2
100
AcDbLine
 10
-53.09725648455092
 20
191.0835776862617
 30
0.0
 11
-43.86859790986849
 21
196.4117461986138
 31
0.0
  0
LINE
  5
1E35
330
E0B
100
AcDbEntity
  8
0
 62
     0
370
    -2
100
AcDbLine
 10
-89.92748185448936
 20
221.1274668677481
 30
0.0
 11
-75.51765579903322
 21
212.8079499156548
 31
0.0
  0
LINE
  5
1E36
330
E0B
100
AcDbEntity
  8
0
 62
     0
370
    -2
100
AcDbLine
 10
-46.9008891910182
 20
196.2860520111807
 30
0.0
 11
-61.31071524647417
 21
204.6055689632739
 31
0.0
  0
SOLID
  5
1E37
330
E0B
100
AcDbEntity
  8
0
 62
     0
100
AcDbTrace
 10
-89.79206518782268
 20
221.3620154146063
 30
0.0
 11
-90.06289852115603
 21
220.8929183208898
 31
0.0
 12
-91.33477313563906
 22
221.9399668677481
 32
0.0
 13
-91.33477313563906
 23
221.9399668677481
 33
0.0
  0
SOLID
  5
1E38
330
E0B
100
AcDbEntity
  8
0
 62
     0
100
AcDbTrace
 10
-46.76547252435153
 20
196.520600558039
 30
0.0
 11
-47.03630585768488
 21
196.0515034643224
 31
0.0
 12
-45.4935979098685
 22
195.4735520111807
 32
0.0
 13
-45.4935979098685
 23
195.4735520111807
 33
0.0
  0
MTEXT
  5
1E39
330
E0B
100
AcDbEntity
  8
0
 62
     0
100
AcDbMText
 10
-68.41418552275374
 20
208.7067594394644
 30
0.0
 40
3.25
 41
0.0
 71
     5
 72
     1
  1
\A1;8-1/2"
  7
ROMANS
 73
     1
 44
1.0
1001
ACAD
1000
MTEXTBEGIN
1070
    73
1070
     1
1070
    44
1040
1.0
1070
    74
1070
     0
1000
MTEXTEND
  0
POINT
  5
1E3A
330
E0B
100
AcDbEntity
  8
DEFPOINTS
 62
     0
100
AcDbPoint
 10
-100.5634317103215
 20
216.6117983553959
 30
0.0
  0
POINT
  5
1E3B
330
E0B
100
AcDbEntity
  8
DEFPOINTS
 62
     0
100
AcDbPoint
 10
-54.72225648455093
 20
190.1453834988286
 30
0.0
  0
POINT
  5
1E3C
330
E0B
100
AcDbEntity
  8
DEFPOINTS
 62
     0
100
AcDbPoint
 10
-45.4935979098685
 20
195.4735520111807
 30
0.0
  0
ENDBLK
  5
E17
330
E0B
100
AcDbEntity
  8
0
100
AcDbBlockEnd
  0
BLOCK
  5
1129
330
111E
100
AcDbEntity
  8
0
100
AcDbBlockBegin
  2
*D20
 70
     1
 10
0.0
 20
0.0
 30
0.0
  3
*D20
  1

  0
LINE
  5
1E65
330
111E
100
AcDbEntity
  8
0
 62
     0
370
    -2
100
AcDbLine
 10
12.01589008900316
 20
365.7944384951118
 30
0.0
 11
3.187070648677706
 21
365.7944384951118
 31
0.0
  0
LINE
  5
1E66
330
111E
100
AcDbEntity
  8
0
 62
     0
370
    -2
100
AcDbLine
 10
12.01589008900322
 20
413.7944384951117
 30
0.0
 11
3.187070648677717
 21
413.7944384951117
 31
0.0
  0
LINE
  5
1E67
330
111E
100
AcDbEntity
  8
0
 62
     0
370
    -2
100
AcDbLine
 10
4.812070648677708
 20
367.4194384951118
 30
0.0
 11
4.812070648677711
 21
383.5265813522546
 31
0.0
  0
LINE
  5
1E68
330
111E
100
AcDbEntity
  8
0
 62
     0
370
    -2
100
AcDbLine
 10
4.812070648677718
 20
412.1694384951117
 30
0.0
 11
4.812070648677714
 21
396.0622956379689
 31
0.0
  0
SOLID
  5
1E69
330
111E
100
AcDbEntity
  8
0
 62
     0
100
AcDbTrace
 10
4.541237315344375
 20
367.4194384951118
 30
0.0
 11
5.082903982011041
 21
367.4194384951118
 31
0.0
 12
4.812070648677707
 22
365.7944384951118
 32
0.0
 13
4.812070648677707
 23
365.7944384951118
 33
0.0
  0
SOLID
  5
1E6A
330
111E
100
AcDbEntity
  8
0
 62
     0
100
AcDbTrace
 10
4.541237315344385
 20
412.1694384951117
 30
0.0
 11
5.082903982011051
 21
412.1694384951117
 31
0.0
 12
4.812070648677718
 22
413.7944384951117
 32
0.0
 13
4.812070648677718
 23
413.7944384951117
 33
0.0
  0
MTEXT
  5
1E6B
330
111E
100
AcDbEntity
  8
0
 62
     0
100
AcDbMText
 10
4.81207064867765
 20
389.7944384951117
 30
0.0
 40
3.25
 41
0.0
 71
     5
 72
     1
  1
\A1;4'-0"\PTYP.
  7
ROMANS
 73
     1
 44
1.0
1001
ACAD
1000
MTEXTBEGIN
1070
    73
1070
     1
1070
    44
1040
1.0
1070
    74
1070
     0
1000
MTEXTEND
  0
POINT
  5
1E6C
330
111E
100
AcDbEntity
  8
DEFPOINTS
 62
     0
100
AcDbPoint
 10
13.64089008900316
 20
365.7944384951118
 30
0.0
  0
POINT
  5
1E6D
330
111E
100
AcDbEntity
  8
DEFPOINTS
 62
     0
100
AcDbPoint
 10
13.64089008900322
 20
413.7944384951117
 30
0.0
  0
POINT
  5
1E6E
330
111E
100
AcDbEntity
  8
DEFPOINTS
 62
     0
100
AcDbPoint
 10
4.812070648677718
 20
413.7944384951117
 30
0.0
  0
ENDBLK
  5
112A
330
111E
100
AcDbEntity
  8
0
100
AcDbBlockEnd
  0
BLOCK
  5
1141
330
1136
100
AcDbEntity
  8
0
100
AcDbBlockBegin
  2
*D21
 70
     1
 10
0.0
 20
0.0
 30
0.0
  3
*D21
  1

  0
LINE
  5
1E6F
330
1136
100
AcDbEntity
  8
0
 62
     0
370
    -2
100
AcDbLine
 10
18.01589008900322
 20
419.7944384951117
 30
0.0
 11
3.187070648677718
 21
419.7944384951117
 31
0.0
  0
LINE
  5
1E70
330
1136
100
AcDbEntity
  8
0
 62
     0
370
    -2
100
AcDbLine
 10
12.01589008900322
 20
413.7944384951117
 30
0.0
 11
3.187070648677717
 21
413.7944384951117
 31
0.0
  0
LINE
  5
1E71
330
1136
100
AcDbEntity
  8
0
 62
     0
370
    -2
100
AcDbLine
 10
4.812070648677719
 20
421.4194384951118
 30
0.0
 11
4.81207064867772
 21
423.0444384951117
 31
0.0
  0
LINE
  5
1E72
330
1136
100
AcDbEntity
  8
0
 62
     0
370
    -2
100
AcDbLine
 10
4.812070648677718
 20
412.1694384951117
 30
0.0
 11
4.812070648677718
 21
410.5444384951117
 31
0.0
  0
MTEXT
  5
1E73
330
1136
100
AcDbEntity
  8
0
 62
     0
100
AcDbMText
 10
5.552001825405568
 20
416.7944384951117
 30
0.0
 40
3.25
 41
0.0
 71
     5
 72
     1
  1
\A1;6"
  7
ROMANS
 73
     1
 44
1.0
1001
ACAD
1000
MTEXTBEGIN
1070
    73
1070
     1
1070
    44
1040
1.0
1070
    74
1070
     0
1000
MTEXTEND
  0
SOLID
  5
1E74
330
1136
100
AcDbEntity
  8
0
 62
     0
100
AcDbTrace
 10
4.541237315344386
 20
421.4194384951118
 30
0.0
 11
5.082903982011052
 21
421.4194384951118
 31
0.0
 12
4.812070648677719
 22
419.7944384951117
 32
0.0
 13
4.812070648677719
 23
419.7944384951117
 33
0.0
  0
SOLID
  5
1E75
330
1136
100
AcDbEntity
  8
0
 62
     0
100
AcDbTrace
 10
4.541237315344385
 20
412.1694384951117
 30
0.0
 11
5.082903982011051
 21
412.1694384951117
 31
0.0
 12
4.812070648677718
 22
413.7944384951117
 32
0.0
 13
4.812070648677718
 23
413.7944384951117
 33
0.0
  0
POINT
  5
1E76
330
1136
100
AcDbEntity
  8
DEFPOINTS
 62
     0
100
AcDbPoint
 10
19.64089008900322
 20
419.7944384951117
 30
0.0
  0
POINT
  5
1E77
330
1136
100
AcDbEntity
  8
DEFPOINTS
 62
     0
100
AcDbPoint
 10
13.64089008900322
 20
413.7944384951117
 30
0.0
  0
POINT
  5
1E78
330
1136
100
AcDbEntity
  8
DEFPOINTS
 62
     0
100
AcDbPoint
 10
4.812070648677718
 20
413.7944384951117
 30
0.0
  0
ENDBLK
  5
1142
330
1136
100
AcDbEntity
  8
0
100
AcDbBlockEnd
  0
BLOCK
  5
13B9
330
13AF
100
AcDbEntity
  8
0
100
AcDbBlockBegin
  2
*D22
 70
     1
 10
0.0
 20
0.0
 30
0.0
  3
*D22
  1

  0
LINE
  5
1E79
330
13AF
100
AcDbEntity
  8
0
 62
     0
370
    -2
100
AcDbLine
 10
12.01589008900316
 20
-14.20556150488821
 30
0.0
 11
-1.434162418637245
 21
-14.2055615048882
 31
0.0
  0
LINE
  5
1E7A
330
13AF
100
AcDbEntity
  8
0
 62
     0
370
    -2
100
AcDbLine
 10
12.01589008900316
 20
-3.205561504888208
 30
0.0
 11
-1.434162418637243
 21
-3.205561504888204
 31
0.0
  0
LINE
  5
1E7B
330
13AF
100
AcDbEntity
  8
0
 62
     0
370
    -2
100
AcDbLine
 10
0.1908375813627544
 20
-15.8305615048882
 30
0.0
 11
0.190837581362754
 21
-17.4555615048882
 31
0.0
  0
LINE
  5
1E7C
330
13AF
100
AcDbEntity
  8
0
 62
     0
370
    -2
100
AcDbLine
 10
0.1908375813627575
 20
-1.580561504888204
 30
0.0
 11
0.1908375813627579
 21
0.0444384951117951
 31
0.0
  0
MTEXT
  5
1E7D
330
13AF
100
AcDbEntity
  8
0
 62
     0
100
AcDbMText
 10
-1.125242845937464
 20
-8.274290263379725
 30
0.0
 40
3.25
 41
0.0
 71
     5
 72
     1
  1
\A1;AS REQ'D
  7
ROMANS
 73
     1
 44
1.0
1001
ACAD
1000
MTEXTBEGIN
1070
    73
1070
     1
1070
    44
1040
1.0
1070
    74
1070
     0
1000
MTEXTEND
  0
SOLID
  5
1E7E
330
13AF
100
AcDbEntity
  8
0
 62
     0
100
AcDbTrace
 10
-0.0799957519705789
 20
-15.8305615048882
 30
0.0
 11
0.4616709146960878
 21
-15.8305615048882
 31
0.0
 12
0.1908375813627547
 22
-14.2055615048882
 32
0.0
 13
0.1908375813627547
 23
-14.2055615048882
 33
0.0
  0
SOLID
  5
1E7F
330
13AF
100
AcDbEntity
  8
0
 62
     0
100
AcDbTrace
 10
-0.0799957519705758
 20
-1.580561504888204
 30
0.0
 11
0.461670914696091
 21
-1.580561504888204
 31
0.0
 12
0.1908375813627572
 22
-3.205561504888204
 32
0.0
 13
0.1908375813627572
 23
-3.205561504888204
 33
0.0
  0
POINT
  5
1E80
330
13AF
100
AcDbEntity
  8
DEFPOINTS
 62
     0
100
AcDbPoint
 10
13.64089008900316
 20
-14.20556150488821
 30
0.0
  0
POINT
  5
1E81
330
13AF
100
AcDbEntity
  8
DEFPOINTS
 62
     0
100
AcDbPoint
 10
13.64089008900316
 20
-3.205561504888208
 30
0.0
  0
POINT
  5
1E82
330
13AF
100
AcDbEntity
  8
DEFPOINTS
 62
     0
100
AcDbPoint
 10
0.1908375813627572
 20
-3.205561504888204
 30
0.0
  0
ENDBLK
  5
13BA
330
13AF
100
AcDbEntity
  8
0
100
AcDbBlockEnd
  0
BLOCK
  5
146B
330
1460
100
AcDbEntity
  8
0
100
AcDbBlockBegin
  2
*D24
 70
     1
 10
0.0
 20
0.0
 30
0.0
  3
*D24
  1

  0
LINE
  5
1E83
330
1460
100
AcDbEntity
  8
0
 62
     0
370
    -2
100
AcDbLine
 10
23.76589008900316
 20
-14.20556150488821
 30
0.0
 11
37.96574621859713
 21
-14.20556150488821
 31
0.0
  0
LINE
  5
1E84
330
1460
100
AcDbEntity
  8
0
 62
     0
370
    -2
100
AcDbLine
 10
25.265890089003
 20
21.79443849511179
 30
0.0
 11
37.96574621859714
 21
21.79443849511179
 31
0.0
  0
LINE
  5
1E85
330
1460
100
AcDbEntity
  8
0
 62
     0
370
    -2
100
AcDbLine
 10
36.34074621859713
 20
-12.58056150488821
 30
0.0
 11
36.34074621859713
 21
0.2349146855879777
 31
0.0
  0
LINE
  5
1E86
330
1460
100
AcDbEntity
  8
0
 62
     0
370
    -2
100
AcDbLine
 10
36.34074621859713
 20
20.16943849511179
 30
0.0
 11
36.34074621859713
 21
7.353962304635596
 31
0.0
  0
SOLID
  5
1E87
330
1460
100
AcDbEntity
  8
0
 62
     0
100
AcDbTrace
 10
36.06991288526379
 20
-12.58056150488821
 30
0.0
 11
36.61157955193046
 21
-12.58056150488821
 31
0.0
 12
36.34074621859713
 22
-14.20556150488821
 32
0.0
 13
36.34074621859713
 23
-14.20556150488821
 33
0.0
  0
SOLID
  5
1E88
330
1460
100
AcDbEntity
  8
0
 62
     0
100
AcDbTrace
 10
36.0699128852638
 20
20.16943849511179
 30
0.0
 11
36.61157955193047
 21
20.16943849511179
 31
0.0
 12
36.34074621859713
 22
21.79443849511179
 32
0.0
 13
36.34074621859713
 23
21.79443849511179
 33
0.0
  0
MTEXT
  5
1E89
330
1460
100
AcDbEntity
  8
0
 62
     0
100
AcDbMText
 10
36.34074621859713
 20
3.794438495111793
 30
0.0
 40
3.25
 41
0.0
 71
     5
 72
     1
  1
\A1;3'-0"
  7
ROMANS
 73
     1
 44
1.0
1001
ACAD
1000
MTEXTBEGIN
1070
    73
1070
     1
1070
    44
1040
1.0
1070
    74
1070
     0
1000
MTEXTEND
  0
POINT
  5
1E8A
330
1460
100
AcDbEntity
  8
DEFPOINTS
 62
     0
100
AcDbPoint
 10
22.14089008900316
 20
-14.20556150488821
 30
0.0
  0
POINT
  5
1E8B
330
1460
100
AcDbEntity
  8
DEFPOINTS
 62
     0
100
AcDbPoint
 10
23.64089008900299
 20
21.79443849511179
 30
0.0
  0
POINT
  5
1E8C
330
1460
100
AcDbEntity
  8
DEFPOINTS
 62
     0
100
AcDbPoint
 10
36.34074621859713
 20
21.79443849511179
 30
0.0
  0
ENDBLK
  5
146C
330
1460
100
AcDbEntity
  8
0
100
AcDbBlockEnd
  0
BLOCK
  5
17BD
330
17BC
100
AcDbEntity
  8
0
100
AcDbBlockBegin
  2
*X26
 70
     1
 10
0.0
 20
0.0
 30
0.0
  3
*X26
  1

  0
LINE
  5
17BE
330
17BC
100
AcDbEntity
  8
0
 62
     0
100
AcDbLine
 10
-39.38783740946116
 20
-279.4947837961181
 30
0.0
 11
-38.65407559127778
 21
-278.7610219779348
 31
0.0
  0
LINE
  5
17BF
330
17BC
100
AcDbEntity
  8
0
 62
     0
100
AcDbLine
 10
-39.50054631068232
 20
-279.4749101758668
 30
0.0
 11
-38.76678449249896
 21
-278.7411483576835
 31
0.0
  0
LINE
  5
17C0
330
17BC
100
AcDbEntity
  8
0
 62
     0
100
AcDbLine
 10
-39.61325521190351
 20
-279.4550365556156
 30
0.0
 11
-38.87949339372014
 21
-278.7212747374322
 31
0.0
  0
LINE
  5
17C1
330
17BC
100
AcDbEntity
  8
0
 62
     0
100
AcDbLine
 10
-39.7259641131247
 20
-279.4351629353642
 30
0.0
 11
-38.99220229494132
 21
-278.7014011171809
 31
0.0
  0
LINE
  5
17C2
330
17BC
100
AcDbEntity
  8
0
 62
     0
100
AcDbLine
 10
-39.83867301434587
 20
-279.415289315113
 30
0.0
 11
-39.1049111961625
 21
-278.6815274969296
 31
0.0
  0
LINE
  5
17C3
330
17BC
100
AcDbEntity
  8
0
 62
     0
100
AcDbLine
 10
-39.95138191556705
 20
-279.3954156948617
 30
0.0
 11
-39.21762009738368
 21
-278.6616538766783
 31
0.0
  0
LINE
  5
17C4
330
17BC
100
AcDbEntity
  8
0
 62
     0
100
AcDbLine
 10
-40.06409081678821
 20
-279.3755420746104
 30
0.0
 11
-39.33032899860484
 21
-278.641780256427
 31
0.0
  0
LINE
  5
17C5
330
17BC
100
AcDbEntity
  8
0
 62
     0
100
AcDbLine
 10
-40.1767997180094
 20
-279.3556684543591
 30
0.0
 11
-40.06372011526283
 21
-279.2425888516125
 31
0.0
  0
LINE
  5
17C6
330
17BC
100
AcDbEntity
  8
0
 62
     0
100
AcDbLine
 10
-39.89688315430998
 20
-279.0757518906596
 30
0.0
 11
-39.44303789982602
 21
-278.6219066361756
 31
0.0
  0
LINE
  5
17C7
330
17BC
100
AcDbEntity
  8
0
 62
     0
100
AcDbLine
 10
-40.06372011526283
 20
-279.2425888516125
 30
0.0
 11
-39.89688315430998
 21
-279.0757518906597
 31
0.0
  0
LINE
  5
17C8
330
17BC
100
AcDbEntity
  8
0
 62
     0
100
AcDbLine
 10
-40.28950861923056
 20
-279.3357948341077
 30
0.0
 11
-40.10500766087813
 21
-279.1512938757553
 31
0.0
  0
LINE
  5
17C9
330
17BC
100
AcDbEntity
  8
0
 62
     0
100
AcDbLine
 10
-39.94078059974761
 20
-278.9870668146248
 30
0.0
 11
-39.5557468010472
 21
-278.6020330159244
 31
0.0
  0
LINE
  5
17CA
330
17BC
100
AcDbEntity
  8
0
 62
     0
100
AcDbLine
 10
-40.10500766087811
 20
-279.1512938757553
 30
0.0
 11
-39.9407805997476
 21
-278.9870668146248
 31
0.0
  0
LINE
  5
17CB
330
17BC
100
AcDbEntity
  8
0
 62
     0
100
AcDbLine
 10
-40.36990717715883
 20
-279.2836108705636
 30
0.0
 11
-40.1462952064934
 21
-279.0599988998982
 31
0.0
  0
LINE
  5
17CC
330
17BC
100
AcDbEntity
  8
0
 62
     0
100
AcDbLine
 10
-39.98467804518519
 20
-278.8983817385899
 30
0.0
 11
-39.66845570226838
 21
-278.5821593956731
 31
0.0
  0
LINE
  5
17CD
330
17BC
100
AcDbEntity
  8
0
 62
     0
100
AcDbLine
 10
-40.14629520649338
 20
-279.0599988998981
 30
0.0
 11
-39.98467804518524
 21
-278.89838173859
 31
0.0
  0
LINE
  5
17CE
330
17BC
100
AcDbEntity
  8
0
 62
     0
100
AcDbLine
 10
-40.32903303677044
 20
-279.1101542087027
 30
0.0
 11
-40.18758275210868
 21
-278.968703924041
 31
0.0
  0
LINE
  5
17CF
330
17BC
100
AcDbEntity
  8
0
 62
     0
100
AcDbLine
 10
-40.02857549062279
 20
-278.8096966625551
 30
0.0
 11
-39.78116460348956
 21
-278.5622857754218
 31
0.0
  0
LINE
  5
17D0
330
17BC
100
AcDbEntity
  8
0
 62
     0
100
AcDbLine
 10
-40.18758275210866
 20
-278.9687039240409
 30
0.0
 11
-40.02857549062286
 21
-278.8096966625551
 31
0.0
  0
LINE
  5
17D1
330
17BC
100
AcDbEntity
  8
0
 62
     0
100
AcDbLine
 10
-40.28815889638206
 20
-278.9366975468419
 30
0.0
 11
-40.22887029772395
 21
-278.8774089481838
 31
0.0
  0
LINE
  5
17D2
330
17BC
100
AcDbEntity
  8
0
 62
     0
100
AcDbLine
 10
-40.07247293606041
 20
-278.7210115865202
 30
0.0
 11
-39.89387350471074
 21
-278.5424121551705
 31
0.0
  0
LINE
  5
17D3
330
17BC
100
AcDbEntity
  8
0
 62
     0
100
AcDbLine
 10
-40.22887029772394
 20
-278.8774089481837
 30
0.0
 11
-40.07247293606049
 21
-278.7210115865203
 31
0.0
  0
LINE
  5
17D4
330
17BC
100
AcDbEntity
  8
0
 62
     0
100
AcDbLine
 10
-40.27015784333923
 20
-278.7861139723266
 30
0.0
 11
-40.11637038149812
 21
-278.6323265104854
 31
0.0
  0
LINE
  5
17D5
330
17BC
100
AcDbEntity
  8
0
 62
     0
100
AcDbLine
 10
-40.116370381498
 20
-278.6323265104853
 30
0.0
 11
-40.00658240593192
 21
-278.5225385349192
 31
0.0
  0
LINE
  5
17D6
330
17BC
100
AcDbEntity
  8
0
 62
     0
100
AcDbLine
 10
-40.31144538895452
 20
-278.6948189964694
 30
0.0
 11
-40.30692854477254
 21
-278.6903021522874
 31
0.0
  0
LINE
  5
17D7
330
17BC
100
AcDbEntity
  8
0
 62
     0
100
AcDbLine
 10
-39.69215944246978
 20
-278.0755330499846
 30
0.0
 11
-39.59237083622737
 21
-277.9757444437422
 31
0.0
  0
LINE
  5
17D8
330
17BC
100
AcDbEntity
  8
0
 62
     0
100
AcDbLine
 10
-40.30692854477248
 20
-278.6903021522873
 30
0.0
 11
-40.20641061560525
 21
-278.5897842231201
 31
0.0
  0
LINE
  5
17D9
330
17BC
100
AcDbEntity
  8
0
 62
     0
100
AcDbLine
 10
-40.16017812122486
 20
-278.5435517287397
 30
0.0
 11
-40.11929130715309
 21
-278.5026649146679
 31
0.0
  0
LINE
  5
17DA
330
17BC
100
AcDbEntity
  8
0
 62
     0
100
AcDbLine
 10
-40.20466276288202
 20
-278.5880363703969
 30
0.0
 11
-40.16017812122502
 21
-278.5435517287398
 31
0.0
  0
LINE
  5
17DB
330
17BC
100
AcDbEntity
  8
0
 62
     0
100
AcDbLine
 10
-40.41225758634928
 20
-278.6630486723916
 30
0.0
 11
-40.23018407840633
 21
-278.4809751644487
 31
0.0
  0
LINE
  5
17DC
330
17BC
100
AcDbEntity
  8
0
 62
     0
100
AcDbLine
 10
-39.73691136690469
 20
-277.987702452947
 30
0.0
 11
-39.6371227606623
 21
-277.8879138467047
 31
0.0
  0
LINE
  5
17DD
330
17BC
100
AcDbEntity
  8
0
 62
     0
100
AcDbLine
 10
-40.23018407840633
 20
-278.4809751644486
 30
0.0
 11
-40.20259152936932
 21
-278.4533826154117
 31
0.0
  0
LINE
  5
17DE
330
17BC
100
AcDbEntity
  8
0
 62
     0
100
AcDbLine
 10
-40.57051962558798
 20
-278.6887281901577
 30
0.0
 11
-40.51758662792604
 21
-278.6357951924959
 31
0.0
  0
LINE
  5
17DF
330
17BC
100
AcDbEntity
  8
0
 62
     0
100
AcDbLine
 10
-39.78166329133961
 20
-277.8998718559094
 30
0.0
 11
-39.68187468509722
 21
-277.8000832496671
 31
0.0
  0
LINE
  5
17E0
330
17BC
100
AcDbEntity
  8
0
 62
     0
100
AcDbLine
 10
-40.51758662792603
 20
-278.6357951924959
 30
0.0
 11
-40.33869630383812
 21
-278.456904868408
 31
0.0
  0
LINE
  5
17E1
330
17BC
100
AcDbEntity
  8
0
 62
     0
100
AcDbLine
 10
-40.33869630383812
 20
-278.456904868408
 30
0.0
 11
-40.24734345380425
 21
-278.3655520183742
 31
0.0
  0
LINE
  5
17E2
330
17BC
100
AcDbEntity
  8
0
 62
     0
100
AcDbLine
 10
-40.84083440815077
 20
-278.8264604512481
 30
0.0
 11
-40.62291566950281
 21
-278.6085417126002
 31
0.0
  0
LINE
  5
17E3
330
17BC
100
AcDbEntity
  8
0
 62
     0
100
AcDbLine
 10
-39.82641521577454
 20
-277.812041258872
 30
0.0
 11
-39.72662660953214
 21
-277.7122526526295
 31
0.0
  0
LINE
  5
17E4
330
17BC
100
AcDbEntity
  8
0
 62
     0
100
AcDbLine
 10
-40.62291566950278
 20
-278.6085417126002
 30
0.0
 11
-40.44720852926992
 21
-278.4328345723673
 31
0.0
  0
LINE
  5
17E5
330
17BC
100
AcDbEntity
  8
0
 62
     0
100
AcDbLine
 10
-40.44720852926991
 20
-278.4328345723673
 30
0.0
 11
-40.29209537823916
 21
-278.2777214213366
 31
0.0
  0
LINE
  5
17E6
330
17BC
100
AcDbEntity
  8
0
 62
     0
100
AcDbLine
 10
-41.07098574326527
 20
-278.9240292648902
 30
0.0
 11
-40.96884180887604
 21
-278.821885330501
 31
0.0
  0
LINE
  5
17E7
330
17BC
100
AcDbEntity
  8
0
 62
     0
100
AcDbLine
 10
-39.87116714020946
 20
-277.7242106618344
 30
0.0
 11
-39.77137853396706
 21
-277.624422055592
 31
0.0
  0
LINE
  5
17E8
330
17BC
100
AcDbEntity
  8
0
 62
     0
100
AcDbLine
 10
-40.96884180887601
 20
-278.8218853305009
 30
0.0
 11
-40.72824471107957
 21
-278.5812882327045
 31
0.0
  0
LINE
  5
17E9
330
17BC
100
AcDbEntity
  8
0
 62
     0
100
AcDbLine
 10
-40.55572075470169
 20
-278.4087642763266
 30
0.0
 11
-40.33684730267409
 21
-278.189890824299
 31
0.0
  0
LINE
  5
17EA
330
17BC
100
AcDbEntity
  8
0
 62
     0
100
AcDbLine
 10
-40.72824471107958
 20
-278.5812882327045
 30
0.0
 11
-40.55572075470172
 21
-278.4087642763266
 31
0.0
  0
LINE
  5
17EB
330
17BC
100
AcDbEntity
  8
0
 62
     0
100
AcDbLine
 10
-41.11573766770019
 20
-278.8361986678526
 30
0.0
 11
-41.01359373331094
 21
-278.7340547334634
 31
0.0
  0
LINE
  5
17EC
330
17BC
100
AcDbEntity
  8
0
 62
     0
100
AcDbLine
 10
-39.91591906464438
 20
-277.6363800647968
 30
0.0
 11
-39.81613045840198
 21
-277.5365914585544
 31
0.0
  0
LINE
  5
17ED
330
17BC
100
AcDbEntity
  8
0
 62
     0
100
AcDbLine
 10
-41.01359373331097
 20
-278.7340547334634
 30
0.0
 11
-40.83357375265634
 21
-278.5540347528088
 31
0.0
  0
LINE
  5
17EE
330
17BC
100
AcDbEntity
  8
0
 62
     0
100
AcDbLine
 10
-40.66423298013347
 20
-278.3846939802859
 30
0.0
 11
-40.38159922710902
 21
-278.1020602272615
 31
0.0
  0
LINE
  5
17EF
330
17BC
100
AcDbEntity
  8
0
 62
     0
100
AcDbLine
 10
-40.83357375265634
 20
-278.5540347528088
 30
0.0
 11
-40.66423298013349
 21
-278.384693980286
 31
0.0
  0
LINE
  5
17F0
330
17BC
100
AcDbEntity
  8
0
 62
     0
100
AcDbLine
 10
-41.16048959213512
 20
-278.7483680708151
 30
0.0
 11
-41.05834565774588
 21
-278.6462241364259
 31
0.0
  0
LINE
  5
17F1
330
17BC
100
AcDbEntity
  8
0
 62
     0
100
AcDbLine
 10
-39.96067098907931
 20
-277.5485494677593
 30
0.0
 11
-39.86088238283691
 21
-277.4487608615169
 31
0.0
  0
LINE
  5
17F2
330
17BC
100
AcDbEntity
  8
0
 62
     0
100
AcDbLine
 10
-41.05834565774586
 20
-278.6462241364258
 30
0.0
 11
-40.93646758632097
 21
-278.524346065001
 31
0.0
  0
LINE
  5
17F3
330
17BC
100
AcDbEntity
  8
0
 62
     0
100
AcDbLine
 10
-40.77274520556526
 20
-278.3606236842452
 30
0.0
 11
-40.42635115154395
 21
-278.0142296302239
 31
0.0
  0
LINE
  5
17F4
330
17BC
100
AcDbEntity
  8
0
 62
     0
100
AcDbLine
 10
-40.93646758632099
 20
-278.524346065001
 30
0.0
 11
-40.77274520556528
 21
-278.3606236842453
 31
0.0
  0
LINE
  5
17F5
330
17BC
100
AcDbEntity
  8
0
 62
     0
100
AcDbLine
 10
-41.20524151657004
 20
-278.6605374737775
 30
0.0
 11
-41.10309758218079
 21
-278.5583935393883
 31
0.0
  0
LINE
  5
17F6
330
17BC
100
AcDbEntity
  8
0
 62
     0
100
AcDbLine
 10
-40.00542291351423
 20
-277.4607188707217
 30
0.0
 11
-39.90563430727183
 21
-277.3609302644794
 31
0.0
  0
LINE
  5
17F7
330
17BC
100
AcDbEntity
  8
0
 62
     0
100
AcDbLine
 10
-41.10309758218081
 20
-278.5583935393883
 30
0.0
 11
-40.90160135388338
 21
-278.3568973110909
 31
0.0
  0
LINE
  5
17F8
330
17BC
100
AcDbEntity
  8
0
 62
     0
100
AcDbLine
 10
-40.87969543086212
 20
-278.3349913880696
 30
0.0
 11
-40.47110307597886
 21
-277.9263990331864
 31
0.0
  0
LINE
  5
17F9
330
17BC
100
AcDbEntity
  8
0
 62
     0
100
AcDbLine
 10
-40.9016013538834
 20
-278.3568973110909
 30
0.0
 11
-40.87969543086214
 21
-278.3349913880696
 31
0.0
  0
LINE
  5
17FA
330
17BC
100
AcDbEntity
  8
0
 62
     0
100
AcDbLine
 10
-41.24999344100497
 20
-278.57270687674
 30
0.0
 11
-41.14784950661573
 21
-278.4705629423507
 31
0.0
  0
LINE
  5
17FB
330
17BC
100
AcDbEntity
  8
0
 62
     0
100
AcDbLine
 10
-40.05017483794916
 20
-277.3728882736842
 30
0.0
 11
-39.95038623170675
 21
-277.2730996674417
 31
0.0
  0
LINE
  5
17FC
330
17BC
100
AcDbEntity
  8
0
 62
     0
100
AcDbLine
 10
-41.14784950661571
 20
-278.4705629423507
 30
0.0
 11
-40.51585500041379
 21
-277.8385684361488
 31
0.0
  0
LINE
  5
17FD
330
17BC
100
AcDbEntity
  8
0
 62
     0
100
AcDbLine
 10
-40.13520989857035
 20
-277.4579233343053
 30
0.0
 11
-40.05017483794913
 21
-277.3728882736842
 31
0.0
  0
LINE
  5
17FE
330
17BC
100
AcDbEntity
  8
0
 62
     0
100
AcDbLine
 10
-41.29474536543989
 20
-278.4848762797024
 30
0.0
 11
-41.19260143105066
 21
-278.3827323453132
 31
0.0
  0
LINE
  5
17FF
330
17BC
100
AcDbEntity
  8
0
 62
     0
100
AcDbLine
 10
-40.09492676238408
 20
-277.2850576766466
 30
0.0
 11
-39.99513815614167
 21
-277.1852690704042
 31
0.0
  0
LINE
  5
1800
330
17BC
100
AcDbEntity
  8
0
 62
     0
100
AcDbLine
 10
-41.19260143105065
 20
-278.3827323453131
 30
0.0
 11
-40.56060692484869
 21
-277.7507378391113
 31
0.0
  0
LINE
  5
1801
330
17BC
100
AcDbEntity
  8
0
 62
     0
100
AcDbLine
 10
-40.39402495983168
 20
-277.5841558740942
 30
0.0
 11
-40.09492676238404
 21
-277.2850576766466
 31
0.0
  0
LINE
  5
1802
330
17BC
100
AcDbEntity
  8
0
 62
     0
100
AcDbLine
 10
-41.3394972898748
 20
-278.3970456826649
 30
0.0
 11
-41.23735335548558
 21
-278.2949017482756
 31
0.0
  0
LINE
  5
1803
330
17BC
100
AcDbEntity
  8
0
 62
     0
100
AcDbLine
 10
-40.13967868681899
 20
-277.197227079609
 30
0.0
 11
-40.0398900805766
 21
-277.0974384733666
 31
0.0
  0
LINE
  5
1804
330
17BC
100
AcDbEntity
  8
0
 62
     0
100
AcDbLine
 10
-41.23735335548557
 20
-278.2949017482756
 30
0.0
 11
-40.65284002109301
 21
-277.7103884138831
 31
0.0
  0
LINE
  5
1805
330
17BC
100
AcDbEntity
  8
0
 62
     0
100
AcDbLine
 10
-40.65284002109302
 20
-277.710388413883
 30
0.0
 11
-40.33209807941335
 21
-277.3896464722034
 31
0.0
  0
LINE
  5
1806
330
17BC
100
AcDbEntity
  8
0
 62
     0
100
AcDbLine
 10
-41.38424921430973
 20
-278.3092150856273
 30
0.0
 11
-41.28210527992051
 21
-278.2070711512381
 31
0.0
  0
LINE
  5
1807
330
17BC
100
AcDbEntity
  8
0
 62
     0
100
AcDbLine
 10
-40.18443061125393
 20
-277.1093964825715
 30
0.0
 11
-40.08464200501151
 21
-277.0096078763291
 31
0.0
  0
LINE
  5
1808
330
17BC
100
AcDbEntity
  8
0
 62
     0
100
AcDbLine
 10
-41.2821052799205
 20
-278.2070711512381
 30
0.0
 11
-40.91165508235433
 21
-277.8366209536719
 31
0.0
  0
LINE
  5
1809
330
17BC
100
AcDbEntity
  8
0
 62
     0
100
AcDbLine
 10
-40.91165508235427
 20
-277.8366209536719
 30
0.0
 11
-40.60241286197611
 21
-277.5273787332937
 31
0.0
  0
LINE
  5
180A
330
17BC
100
AcDbEntity
  8
0
 62
     0
100
AcDbLine
 10
-41.42900113874467
 20
-278.2213844885897
 30
0.0
 11
-41.32685720435543
 21
-278.1192405542005
 31
0.0
  0
LINE
  5
180B
330
17BC
100
AcDbEntity
  8
0
 62
     0
100
AcDbLine
 10
-40.22918253568884
 20
-277.0215658855339
 30
0.0
 11
-40.12939392944644
 21
-276.9217772792915
 31
0.0
  0
LINE
  5
180C
330
17BC
100
AcDbEntity
  8
0
 62
     0
100
AcDbLine
 10
-41.32685720435541
 20
-278.1192405542005
 30
0.0
 11
-40.99595323982196
 21
-277.788336589667
 31
0.0
  0
LINE
  5
180D
330
17BC
100
AcDbEntity
  8
0
 62
     0
100
AcDbLine
 10
-40.87272764453877
 20
-277.6651109943838
 30
0.0
 11
-40.69486269815346
 21
-277.4872460479985
 31
0.0
  0
LINE
  5
180E
330
17BC
100
AcDbEntity
  8
0
 62
     0
100
AcDbLine
 10
-40.99595323982194
 20
-277.788336589667
 30
0.0
 11
-40.87272764453897
 21
-277.665110994384
 31
0.0
  0
LINE
  5
180F
330
17BC
100
AcDbEntity
  8
0
 62
     0
100
AcDbLine
 10
-41.47375306317957
 20
-278.1335538915521
 30
0.0
 11
-41.37160912879036
 21
-278.031409957163
 31
0.0
  0
LINE
  5
1810
330
17BC
100
AcDbEntity
  8
0
 62
     0
100
AcDbLine
 10
-40.27393446012377
 20
-276.9337352884964
 30
0.0
 11
-40.17414585388136
 21
-276.833946682254
 31
0.0
  0
LINE
  5
1811
330
17BC
100
AcDbEntity
  8
0
 62
     0
100
AcDbLine
 10
-41.37160912879035
 20
-278.0314099571629
 30
0.0
 11
-40.73961462258838
 21
-277.399415450961
 31
0.0
  0
LINE
  5
1812
330
17BC
100
AcDbEntity
  8
0
 62
     0
100
AcDbLine
 10
-41.51850498761451
 20
-278.0457232945146
 30
0.0
 11
-41.41636105322528
 21
-277.9435793601255
 31
0.0
  0
LINE
  5
1813
330
17BC
100
AcDbEntity
  8
0
 62
     0
100
AcDbLine
 10
-40.3186863845587
 20
-276.8459046914588
 30
0.0
 11
-40.21889777831629
 21
-276.7461160852164
 31
0.0
  0
LINE
  5
1814
330
17BC
100
AcDbEntity
  8
0
 62
     0
100
AcDbLine
 10
-41.41636105322527
 20
-277.9435793601254
 30
0.0
 11
-40.78436654702331
 21
-277.3115848539234
 31
0.0
  0
LINE
  5
1815
330
17BC
100
AcDbEntity
  8
0
 62
     0
100
AcDbLine
 10
-41.56325691204942
 20
-277.9578926974771
 30
0.0
 11
-41.46111297766021
 21
-277.8557487630879
 31
0.0
  0
LINE
  5
1816
330
17BC
100
AcDbEntity
  8
0
 62
     0
100
AcDbLine
 10
-40.36343830899361
 20
-276.7580740944213
 30
0.0
 11
-40.2636497027512
 21
-276.6582854881789
 31
0.0
  0
LINE
  5
1817
330
17BC
100
AcDbEntity
  8
0
 62
     0
100
AcDbLine
 10
-41.4611129776602
 20
-277.8557487630878
 30
0.0
 11
-40.82911847145823
 21
-277.2237542568859
 31
0.0
  0
LINE
  5
1818
330
17BC
100
AcDbEntity
  8
0
 62
     0
100
AcDbLine
 10
-41.60800883648435
 20
-277.8700621004395
 30
0.0
 11
-41.50586490209513
 21
-277.7679181660503
 31
0.0
  0
LINE
  5
1819
330
17BC
100
AcDbEntity
  8
0
 62
     0
100
AcDbLine
 10
-40.40819023342854
 20
-276.6702434973837
 30
0.0
 11
-40.30840162718615
 21
-276.5704548911414
 31
0.0
  0
LINE
  5
181A
330
17BC
100
AcDbEntity
  8
0
 62
     0
100
AcDbLine
 10
-41.50586490209512
 20
-277.7679181660503
 30
0.0
 11
-40.87387039589315
 21
-277.1359236598483
 31
0.0
  0
LINE
  5
181B
330
17BC
100
AcDbEntity
  8
0
 62
     0
100
AcDbLine
 10
-41.65276076091928
 20
-277.782231503402
 30
0.0
 11
-41.55061682653006
 21
-277.6800875690128
 31
0.0
  0
LINE
  5
181C
330
17BC
100
AcDbEntity
  8
0
 62
     0
100
AcDbLine
 10
-40.45294215786347
 20
-276.5824129003462
 30
0.0
 11
-40.35315355162107
 21
-276.4826242941037
 31
0.0
  0
LINE
  5
181D
330
17BC
100
AcDbEntity
  8
0
 62
     0
100
AcDbLine
 10
-41.55061682653004
 20
-277.6800875690128
 30
0.0
 11
-40.91862232032808
 21
-277.0480930628108
 31
0.0
  0
LINE
  5
181E
330
17BC
100
AcDbEntity
  8
0
 62
     0
100
AcDbLine
 10
-41.6975126853542
 20
-277.6944009063644
 30
0.0
 11
-41.59536875096497
 21
-277.5922569719752
 31
0.0
  0
LINE
  5
181F
330
17BC
100
AcDbEntity
  8
0
 62
     0
100
AcDbLine
 10
-40.49769408229838
 20
-276.4945823033086
 30
0.0
 11
-40.39790547605599
 21
-276.3947936970662
 31
0.0
  0
LINE
  5
1820
330
17BC
100
AcDbEntity
  8
0
 62
     0
100
AcDbLine
 10
-41.59536875096496
 20
-277.5922569719751
 30
0.0
 11
-40.963374244763
 21
-276.9602624657732
 31
0.0
  0
LINE
  5
1821
330
17BC
100
AcDbEntity
  8
0
 62
     0
100
AcDbLine
 10
-41.74226460978912
 20
-277.6065703093268
 30
0.0
 11
-41.6401206753999
 21
-277.5044263749377
 31
0.0
  0
LINE
  5
1822
330
17BC
100
AcDbEntity
  8
0
 62
     0
100
AcDbLine
 10
-40.54244600673332
 20
-276.4067517062711
 30
0.0
 11
-40.44265740049091
 21
-276.3069631000287
 31
0.0
  0
LINE
  5
1823
330
17BC
100
AcDbEntity
  8
0
 62
     0
100
AcDbLine
 10
-41.64012067539989
 20
-277.5044263749376
 30
0.0
 11
-41.00812616919793
 21
-276.8724318687357
 31
0.0
  0
LINE
  5
1824
330
17BC
100
AcDbEntity
  8
0
 62
     0
100
AcDbLine
 10
-41.78701653422404
 20
-277.5187397122893
 30
0.0
 11
-41.68487259983481
 21
-277.4165957779001
 31
0.0
  0
LINE
  5
1825
330
17BC
100
AcDbEntity
  8
0
 62
     0
100
AcDbLine
 10
-40.58719793116824
 20
-276.3189211092335
 30
0.0
 11
-40.48740932492584
 21
-276.2191325029911
 31
0.0
  0
LINE
  5
1826
330
17BC
100
AcDbEntity
  8
0
 62
     0
100
AcDbLine
 10
-41.68487259983482
 20
-277.4165957779001
 30
0.0
 11
-41.05287809363285
 21
-276.7846012716981
 31
0.0
  0
LINE
  5
1827
330
17BC
100
AcDbEntity
  8
0
 62
     0
100
AcDbLine
 10
-41.83176845865896
 20
-277.4309091152518
 30
0.0
 11
-41.72962452426975
 21
-277.3287651808626
 31
0.0
  0
LINE
  5
1828
330
17BC
100
AcDbEntity
  8
0
 62
     0
100
AcDbLine
 10
-40.63194985560315
 20
-276.2310905121959
 30
0.0
 11
-40.53216124936076
 21
-276.1313019059535
 31
0.0
  0
LINE
  5
1829
330
17BC
100
AcDbEntity
  8
0
 62
     0
100
AcDbLine
 10
-41.72962452426975
 20
-277.3287651808625
 30
0.0
 11
-41.09763001806778
 21
-276.6967706746606
 31
0.0
  0
LINE
  5
182A
330
17BC
100
AcDbEntity
  8
0
 62
     0
100
AcDbLine
 10
-41.8765203830939
 20
-277.3430785182142
 30
0.0
 11
-41.77437644870467
 21
-277.240934583825
 31
0.0
  0
LINE
  5
182B
330
17BC
100
AcDbEntity
  8
0
 62
     0
100
AcDbLine
 10
-40.67670178003808
 20
-276.1432599151584
 30
0.0
 11
-40.57691317379568
 21
-276.043471308916
 31
0.0
  0
LINE
  5
182C
330
17BC
100
AcDbEntity
  8
0
 62
     0
100
AcDbLine
 10
-41.77437644870467
 20
-277.240934583825
 30
0.0
 11
-41.1423819425027
 21
-276.608940077623
 31
0.0
  0
LINE
  5
182D
330
17BC
100
AcDbEntity
  8
0
 62
     0
100
AcDbLine
 10
-41.92127230752881
 20
-277.2552479211766
 30
0.0
 11
-41.8191283731396
 21
-277.1531039867875
 31
0.0
  0
LINE
  5
182E
330
17BC
100
AcDbEntity
  8
0
 62
     0
100
AcDbLine
 10
-40.72145370447301
 20
-276.0554293181209
 30
0.0
 11
-40.6216650982306
 21
-275.9556407118785
 31
0.0
  0
LINE
  5
182F
330
17BC
100
AcDbEntity
  8
0
 62
     0
100
AcDbLine
 10
-41.81912837313959
 20
-277.1531039867874
 30
0.0
 11
-41.18713386693762
 21
-276.5211094805855
 31
0.0
  0
LINE
  5
1830
330
17BC
100
AcDbEntity
  8
0
 62
     0
100
AcDbLine
 10
-41.96602423196374
 20
-277.1674173241391
 30
0.0
 11
-41.86388029757452
 21
-277.0652733897499
 31
0.0
  0
LINE
  5
1831
330
17BC
100
AcDbEntity
  8
0
 62
     0
100
AcDbLine
 10
-35.8061910555824
 20
-271.0075841477578
 30
0.0
 11
-35.70443277119299
 21
-270.9058258633683
 31
0.0
  0
LINE
  5
1832
330
17BC
100
AcDbEntity
  8
0
 62
     0
100
AcDbLine
 10
-41.86388029757451
 20
-277.0652733897498
 30
0.0
 11
-41.23188579137255
 21
-276.4332788835479
 31
0.0
  0
LINE
  5
1833
330
17BC
100
AcDbEntity
  8
0
 62
     0
100
AcDbLine
 10
-40.76620562890794
 20
-275.9675987210833
 30
0.0
 11
-40.66641702266553
 21
-275.8678101148409
 31
0.0
  0
LINE
  5
1834
330
17BC
100
AcDbEntity
  8
0
 62
     0
100
AcDbLine
 10
-42.01077615639866
 20
-277.0795867271015
 30
0.0
 11
-41.90863222200944
 21
-276.9774427927123
 31
0.0
  0
LINE
  5
1835
330
17BC
100
AcDbEntity
  8
0
 62
     0
100
AcDbLine
 10
-35.93877357705487
 20
-271.0075841477578
 30
0.0
 11
-35.70443277119299
 21
-270.7732433418959
 31
0.0
  0
LINE
  5
1836
330
17BC
100
AcDbEntity
  8
0
 62
     0
100
AcDbLine
 10
-41.90863222200944
 20
-276.9774427927123
 30
0.0
 11
-41.27663771580747
 21
-276.3454482865104
 31
0.0
  0
LINE
  5
1837
330
17BC
100
AcDbEntity
  8
0
 62
     0
100
AcDbLine
 10
-40.81095755334286
 20
-275.8797681240458
 30
0.0
 11
-40.71116894710044
 21
-275.7799795178034
 31
0.0
  0
LINE
  5
1838
330
17BC
100
AcDbEntity
  8
0
 62
     0
100
AcDbLine
 10
-42.05552808083359
 20
-276.991756130064
 30
0.0
 11
-41.95338414644437
 21
-276.8896121956748
 31
0.0
  0
LINE
  5
1839
330
17BC
100
AcDbEntity
  8
0
 62
     0
100
AcDbLine
 10
-36.07135609852736
 20
-271.0075841477578
 30
0.0
 11
-35.70443277119299
 21
-270.6406608204234
 31
0.0
  0
LINE
  5
183A
330
17BC
100
AcDbEntity
  8
0
 62
     0
100
AcDbLine
 10
-41.95338414644437
 20
-276.8896121956748
 30
0.0
 11
-41.32138964024239
 21
-276.2576176894728
 31
0.0
  0
LINE
  5
183B
330
17BC
100
AcDbEntity
  8
0
 62
     0
100
AcDbLine
 10
-40.85570947777777
 20
-275.7919375270082
 30
0.0
 11
-40.75592087153537
 21
-275.6921489207658
 31
0.0
  0
LINE
  5
183C
330
17BC
100
AcDbEntity
  8
0
 62
     0
100
AcDbLine
 10
-42.10028000526851
 20
-276.9039255330264
 30
0.0
 11
-41.99813607087929
 21
-276.8017815986373
 31
0.0
  0
LINE
  5
183D
330
17BC
100
AcDbEntity
  8
0
 62
     0
100
AcDbLine
 10
-36.20393861999985
 20
-271.0075841477578
 30
0.0
 11
-35.70443277119299
 21
-270.5080782989509
 31
0.0
  0
LINE
  5
183E
330
17BC
100
AcDbEntity
  8
0
 62
     0
100
AcDbLine
 10
-41.99813607087929
 20
-276.8017815986372
 30
0.0
 11
-41.36614156467731
 21
-276.1697870924352
 31
0.0
  0
LINE
  5
183F
330
17BC
100
AcDbEntity
  8
0
 62
     0
100
AcDbLine
 10
-40.90046140221271
 20
-275.7041069299706
 30
0.0
 11
-40.80067279597029
 21
-275.6043183237283
 31
0.0
  0
LINE
  5
1840
330
17BC
100
AcDbEntity
  8
0
 62
     0
100
AcDbLine
 10
-42.14503192970343
 20
-276.8160949359889
 30
0.0
 11
-42.04288799531422
 21
-276.7139510015997
 31
0.0
  0
LINE
  5
1841
330
17BC
100
AcDbEntity
  8
0
 62
     0
100
AcDbLine
 10
-36.33652114147233
 20
-271.0075841477578
 30
0.0
 11
-35.70443277119299
 21
-270.3754957774785
 31
0.0
  0
LINE
  5
1842
330
17BC
100
AcDbEntity
  8
0
 62
     0
100
AcDbLine
 10
-42.04288799531422
 20
-276.7139510015996
 30
0.0
 11
-41.41089348911224
 21
-276.0819564953977
 31
0.0
  0
LINE
  5
1843
330
17BC
100
AcDbEntity
  8
0
 62
     0
100
AcDbLine
 10
-40.94521332664762
 20
-275.6162763329331
 30
0.0
 11
-40.84542472040522
 21
-275.5164877266907
 31
0.0
  0
LINE
  5
1844
330
17BC
100
AcDbEntity
  8
0
 62
     0
100
AcDbLine
 10
-42.18978385413836
 20
-276.7282643389513
 30
0.0
 11
-42.08763991974914
 21
-276.6261204045621
 31
0.0
  0
LINE
  5
1845
330
17BC
100
AcDbEntity
  8
0
 62
     0
100
AcDbLine
 10
-36.46910366294478
 20
-271.0075841477578
 30
0.0
 11
-35.70443277119299
 21
-270.242913256006
 31
0.0
  0
LINE
  5
1846
330
17BC
100
AcDbEntity
  8
0
 62
     0
100
AcDbLine
 10
-42.08763991974914
 20
-276.6261204045621
 30
0.0
 11
-41.45564541354717
 21
-275.9941258983601
 31
0.0
  0
LINE
  5
1847
330
17BC
100
AcDbEntity
  8
0
 62
     0
100
AcDbLine
 10
-40.98996525108254
 20
-275.5284457358955
 30
0.0
 11
-40.89017664484013
 21
-275.4286571296531
 31
0.0
  0
LINE
  5
1848
330
17BC
100
AcDbEntity
  8
0
 62
     0
100
AcDbLine
 10
-42.23453577857329
 20
-276.6404337419138
 30
0.0
 11
-42.13239184418406
 21
-276.5382898075245
 31
0.0
  0
LINE
  5
1849
330
17BC
100
AcDbEntity
  8
0
 62
     0
100
AcDbLine
 10
-36.60168618441726
 20
-271.0075841477578
 30
0.0
 11
-35.7069169949642
 21
-270.1128149583047
 31
0.0
  0
LINE
  5
184A
330
17BC
100
AcDbEntity
  8
0
 62
     0
100
AcDbLine
 10
-42.13239184418408
 20
-276.5382898075245
 30
0.0
 11
-41.50039733798208
 21
-275.9062953013226
 31
0.0
  0
LINE
  5
184B
330
17BC
100
AcDbEntity
  8
0
 62
     0
100
AcDbLine
 10
-41.03471717551747
 20
-275.4406151388579
 30
0.0
 11
-40.93492856927506
 21
-275.3408265326156
 31
0.0
  0
LINE
  5
184C
330
17BC
100
AcDbEntity
  8
0
 62
     0
100
AcDbLine
 10
-42.2792877030082
 20
-276.5526031448762
 30
0.0
 11
-42.17714376861898
 21
-276.450459210487
 31
0.0
  0
LINE
  5
184D
330
17BC
100
AcDbEntity
  8
0
 62
     0
100
AcDbLine
 10
-36.73426870588975
 20
-271.0075841477578
 30
0.0
 11
-35.83949951643669
 21
-270.1128149583047
 31
0.0
  0
LINE
  5
184E
330
17BC
100
AcDbEntity
  8
0
 62
     0
100
AcDbLine
 10
-42.17714376861898
 20
-276.450459210487
 30
0.0
 11
-41.54514926241701
 21
-275.818464704285
 31
0.0
  0
LINE
  5
184F
330
17BC
100
AcDbEntity
  8
0
 62
     0
100
AcDbLine
 10
-41.0794690999524
 20
-275.3527845418204
 30
0.0
 11
-40.97968049370998
 21
-275.2529959355781
 31
0.0
  0
LINE
  5
1850
330
17BC
100
AcDbEntity
  8
0
 62
     0
100
AcDbLine
 10
-42.32403962744313
 20
-276.4647725478386
 30
0.0
 11
-42.22189569305391
 21
-276.3626286134495
 31
0.0
  0
LINE
  5
1851
330
17BC
100
AcDbEntity
  8
0
 62
     0
100
AcDbLine
 10
-36.86685122736224
 20
-271.0075841477578
 30
0.0
 11
-35.97208203790917
 21
-270.1128149583047
 31
0.0
  0
LINE
  5
1852
330
17BC
100
AcDbEntity
  8
0
 62
     0
100
AcDbLine
 10
-42.22189569305391
 20
-276.3626286134494
 30
0.0
 11
-41.58990118685194
 21
-275.7306341072474
 31
0.0
  0
LINE
  5
1853
330
17BC
100
AcDbEntity
  8
0
 62
     0
100
AcDbLine
 10
-41.12422102438733
 20
-275.2649539447828
 30
0.0
 11
-41.02443241814492
 21
-275.1651653385405
 31
0.0
  0
LINE
  5
1854
330
17BC
100
AcDbEntity
  8
0
 62
     0
100
AcDbLine
 10
-42.36879155187804
 20
-276.3769419508011
 30
0.0
 11
-42.2684645752521
 21
-276.2766149741751
 31
0.0
  0
LINE
  5
1855
330
17BC
100
AcDbEntity
  8
0
 62
     0
100
AcDbLine
 10
-36.99943374883472
 20
-271.0075841477578
 30
0.0
 11
-36.10466455938166
 21
-270.1128149583047
 31
0.0
  0
LINE
  5
1856
330
17BC
100
AcDbEntity
  8
0
 62
     0
100
AcDbLine
 10
-42.26664761748884
 20
-276.2747980164119
 30
0.0
 11
-42.19792528481469
 21
-276.2060756837377
 31
0.0
  0
LINE
  5
1857
330
17BC
100
AcDbEntity
  8
0
 62
     0
100
AcDbLine
 10
-41.16897294882225
 20
-275.1771233477454
 30
0.0
 11
-41.06918434257984
 21
-275.0773347415029
 31
0.0
  0
LINE
  5
1858
330
17BC
100
AcDbEntity
  8
0
 62
     0
100
AcDbLine
 10
-42.1979252848146
 20
-276.2060756837377
 30
0.0
 11
-42.10043854447298
 21
-276.108588943396
 31
0.0
  0
LINE
  5
1859
330
17BC
100
AcDbEntity
  8
0
 62
     0
100
AcDbLine
 10
-41.99598251496389
 20
-276.004132913887
 30
0.0
 11
-41.63465311128686
 21
-275.6428035102099
 31
0.0
  0
LINE
  5
185A
330
17BC
100
AcDbEntity
  8
0
 62
     0
100
AcDbLine
 10
-42.10043854447292
 20
-276.1085889433959
 30
0.0
 11
-42.09566753742882
 21
-276.1038179363519
 31
0.0
  0
LINE
  5
185B
330
17BC
100
AcDbEntity
  8
0
 62
     0
100
AcDbLine
 10
-42.09566753742871
 20
-276.1038179363518
 30
0.0
 11
-41.99598251496389
 21
-276.004132913887
 31
0.0
  0
LINE
  5
185C
330
17BC
100
AcDbEntity
  8
0
 62
     0
100
AcDbLine
 10
-42.41354347631298
 20
-276.2891113537635
 30
0.0
 11
-42.31321649968703
 21
-276.1887843771376
 31
0.0
  0
LINE
  5
185D
330
17BC
100
AcDbEntity
  8
0
 62
     0
100
AcDbLine
 10
-37.13201627030717
 20
-271.0075841477578
 30
0.0
 11
-36.23724708085414
 21
-270.1128149583047
 31
0.0
  0
LINE
  5
185E
330
17BC
100
AcDbEntity
  8
0
 62
     0
100
AcDbLine
 10
-42.31139954192374
 20
-276.1869674193743
 30
0.0
 11
-42.1892754338011
 21
-276.0648433112517
 31
0.0
  0
LINE
  5
185F
330
17BC
100
AcDbEntity
  8
0
 62
     0
100
AcDbLine
 10
-41.21372487325716
 20
-275.0892927507078
 30
0.0
 11
-41.11393626701477
 21
-274.9895041444653
 31
0.0
  0
LINE
  5
1860
330
17BC
100
AcDbEntity
  8
0
 62
     0
100
AcDbLine
 10
-42.18927543380108
 20
-276.0648433112517
 30
0.0
 11
-42.14458912338753
 21
-276.0201570008381
 31
0.0
  0
LINE
  5
1861
330
17BC
100
AcDbEntity
  8
0
 62
     0
100
AcDbLine
 10
-41.96714156490001
 20
-275.8427094423506
 30
0.0
 11
-41.67940503572178
 21
-275.5549729131724
 31
0.0
  0
LINE
  5
1862
330
17BC
100
AcDbEntity
  8
0
 62
     0
100
AcDbLine
 10
-42.11450619999326
 20
-275.9900740774438
 30
0.0
 11
-41.96714156489998
 21
-275.8427094423506
 31
0.0
  0
LINE
  5
1863
330
17BC
100
AcDbEntity
  8
0
 62
     0
100
AcDbLine
 10
-42.4582954007479
 20
-276.201280756726
 30
0.0
 11
-42.35796842412195
 21
-276.1009537801001
 31
0.0
  0
LINE
  5
1864
330
17BC
100
AcDbEntity
  8
0
 62
     0
100
AcDbLine
 10
-37.26459879177965
 20
-271.0075841477578
 30
0.0
 11
-36.36982960232659
 21
-270.1128149583047
 31
0.0
  0
LINE
  5
1865
330
17BC
100
AcDbEntity
  8
0
 62
     0
100
AcDbLine
 10
-42.35615146635868
 20
-276.0991368223368
 30
0.0
 11
-42.27628628029851
 21
-276.0192716362766
 31
0.0
  0
LINE
  5
1866
330
17BC
100
AcDbEntity
  8
0
 62
     0
100
AcDbLine
 10
-41.2584767976921
 20
-275.0014621536702
 30
0.0
 11
-41.15868819144969
 21
-274.9016735474278
 31
0.0
  0
LINE
  5
1867
330
17BC
100
AcDbEntity
  8
0
 62
     0
100
AcDbLine
 10
-42.27628628029848
 20
-276.0192716362765
 30
0.0
 11
-41.83861559237119
 21
-275.5816009483493
 31
0.0
  0
LINE
  5
1868
330
17BC
100
AcDbEntity
  8
0
 62
     0
100
AcDbLine
 10
-41.83861559237118
 20
-275.5816009483492
 30
0.0
 11
-41.72415696015671
 21
-275.4671423161348
 31
0.0
  0
LINE
  5
1869
330
17BC
100
AcDbEntity
  8
0
 62
     0
100
AcDbLine
 10
-42.50304732518282
 20
-276.1134501596885
 30
0.0
 11
-42.40272034855689
 21
-276.0131231830625
 31
0.0
  0
LINE
  5
186A
330
17BC
100
AcDbEntity
  8
0
 62
     0
100
AcDbLine
 10
-37.39718131325214
 20
-271.0075841477578
 30
0.0
 11
-36.50241212379908
 21
-270.1128149583047
 31
0.0
  0
LINE
  5
186B
330
17BC
100
AcDbEntity
  8
0
 62
     0
100
AcDbLine
 10
-42.4009033907936
 20
-276.0113062252992
 30
0.0
 11
-42.19714334742477
 21
-275.8075461819304
 31
0.0
  0
LINE
  5
186C
330
17BC
100
AcDbEntity
  8
0
 62
     0
100
AcDbLine
 10
-41.30322872212701
 20
-274.9136315566326
 30
0.0
 11
-41.20344011588461
 21
-274.8138429503903
 31
0.0
  0
LINE
  5
186D
330
17BC
100
AcDbEntity
  8
0
 62
     0
100
AcDbLine
 10
-42.19714334742469
 20
-275.8075461819303
 30
0.0
 11
-42.14776030776967
 21
-275.7581631422754
 31
0.0
  0
LINE
  5
186E
330
17BC
100
AcDbEntity
  8
0
 62
     0
100
AcDbLine
 10
-42.14776030776969
 20
-275.7581631422754
 30
0.0
 11
-41.71008961984234
 21
-275.320492454348
 31
0.0
  0
LINE
  5
186F
330
17BC
100
AcDbEntity
  8
0
 62
     0
100
AcDbLine
 10
-42.54779924961775
 20
-276.0256195626509
 30
0.0
 11
-42.44747227299181
 21
-275.925292586025
 31
0.0
  0
LINE
  5
1870
330
17BC
100
AcDbEntity
  8
0
 62
     0
100
AcDbLine
 10
-37.52976383472462
 20
-271.0075841477578
 30
0.0
 11
-36.63499464527156
 21
-270.1128149583047
 31
0.0
  0
LINE
  5
1871
330
17BC
100
AcDbEntity
  8
0
 62
     0
100
AcDbLine
 10
-42.44565531522854
 20
-275.9234756282617
 30
0.0
 11
-42.01923433524084
 21
-275.497054648274
 31
0.0
  0
LINE
  5
1872
330
17BC
100
AcDbEntity
  8
0
 62
     0
100
AcDbLine
 10
-41.34798064656194
 20
-274.8258009595951
 30
0.0
 11
-41.24819204031953
 21
-274.7260123533527
 31
0.0
  0
LINE
  5
1873
330
17BC
100
AcDbEntity
  8
0
 62
     0
100
AcDbLine
 10
-42.01923433524087
 20
-275.497054648274
 30
0.0
 11
-41.58156364731355
 21
-275.0593839603467
 31
0.0
  0
LINE
  5
1874
330
17BC
100
AcDbEntity
  8
0
 62
     0
100
AcDbLine
 10
-42.59255117405266
 20
-275.9377889656133
 30
0.0
 11
-42.49040723966347
 21
-275.8356450312241
 31
0.0
  0
LINE
  5
1875
330
17BC
100
AcDbEntity
  8
0
 62
     0
100
AcDbLine
 10
-37.6623463561971
 20
-271.0075841477578
 30
0.0
 11
-36.76757716674404
 21
-270.1128149583047
 31
0.0
  0
LINE
  5
1876
330
17BC
100
AcDbEntity
  8
0
 62
     0
100
AcDbLine
 10
-42.49040723966347
 20
-275.8356450312241
 30
0.0
 11
-41.89070836271205
 21
-275.2359461542728
 31
0.0
  0
LINE
  5
1877
330
17BC
100
AcDbEntity
  8
0
 62
     0
100
AcDbLine
 10
-41.39273257099687
 20
-274.7379703625575
 30
0.0
 11
-41.29294396475446
 21
-274.6381817563151
 31
0.0
  0
LINE
  5
1878
330
17BC
100
AcDbEntity
  8
0
 62
     0
100
AcDbLine
 10
-41.89070836271203
 20
-275.2359461542727
 30
0.0
 11
-41.45303767478471
 21
-274.7982754663454
 31
0.0
  0
LINE
  5
1879
330
17BC
100
AcDbEntity
  8
0
 62
     0
100
AcDbLine
 10
-42.63730309848759
 20
-275.8499583685758
 30
0.0
 11
-42.53515916409838
 21
-275.7478144341866
 31
0.0
  0
LINE
  5
187A
330
17BC
100
AcDbEntity
  8
0
 62
     0
100
AcDbLine
 10
-37.79492887766956
 20
-271.0075841477578
 30
0.0
 11
-36.90015968821653
 21
-270.1128149583047
 31
0.0
  0
LINE
  5
187B
330
17BC
100
AcDbEntity
  8
0
 62
     0
100
AcDbLine
 10
-42.53515916409839
 20
-275.7478144341866
 30
0.0
 11
-41.90316465789641
 21
-275.1158199279846
 31
0.0
  0
LINE
  5
187C
330
17BC
100
AcDbEntity
  8
0
 62
     0
100
AcDbLine
 10
-41.76218239018321
 20
-274.9748376602715
 30
0.0
 11
-41.32451170225591
 21
-274.5371669723441
 31
0.0
  0
LINE
  5
187D
330
17BC
100
AcDbEntity
  8
0
 62
     0
100
AcDbLine
 10
-42.68205502292253
 20
-275.7621277715383
 30
0.0
 11
-42.57991108853331
 21
-275.6599838371491
 31
0.0
  0
LINE
  5
187E
330
17BC
100
AcDbEntity
  8
0
 62
     0
100
AcDbLine
 10
-37.92751139914204
 20
-271.0075841477578
 30
0.0
 11
-37.03274220968898
 21
-270.1128149583047
 31
0.0
  0
LINE
  5
187F
330
17BC
100
AcDbEntity
  8
0
 62
     0
100
AcDbLine
 10
-42.57991108853332
 20
-275.659983837149
 30
0.0
 11
-41.94791658233133
 21
-275.027989330947
 31
0.0
  0
LINE
  5
1880
330
17BC
100
AcDbEntity
  8
0
 62
     0
100
AcDbLine
 10
-41.63365641765442
 20
-274.7137291662701
 30
0.0
 11
-41.19598572972707
 21
-274.2760584783428
 31
0.0
  0
LINE
  5
1881
330
17BC
100
AcDbEntity
  8
0
 62
     0
100
AcDbLine
 10
-42.72680694735743
 20
-275.6742971745007
 30
0.0
 11
-42.62466301296824
 21
-275.5721532401115
 31
0.0
  0
LINE
  5
1882
330
17BC
100
AcDbEntity
  8
0
 62
     0
100
AcDbLine
 10
-38.06009392061452
 20
-271.0075841477578
 30
0.0
 11
-37.16532473116146
 21
-270.1128149583047
 31
0.0
  0
LINE
  5
1883
330
17BC
100
AcDbEntity
  8
0
 62
     0
100
AcDbLine
 10
-42.62466301296824
 20
-275.5721532401115
 30
0.0
 11
-41.99266850676624
 21
-274.9401587339095
 31
0.0
  0
LINE
  5
1884
330
17BC
100
AcDbEntity
  8
0
 62
     0
100
AcDbLine
 10
-41.24320808781802
 20
-274.1906983149613
 30
0.0
 11
-41.16028905131896
 21
-274.1077792784622
 31
0.0
  0
LINE
  5
1885
330
17BC
100
AcDbEntity
  8
0
 62
     0
100
AcDbLine
 10
-41.52698834430164
 20
-274.4744785714449
 30
0.0
 11
-41.50513044512558
 21
-274.4526206722688
 31
0.0
  0
LINE
  5
1886
330
17BC
100
AcDbEntity
  8
0
 62
     0
100
AcDbLine
 10
-41.2918472873847
 20
-274.2393375145279
 30
0.0
 11
-41.26594175883485
 21
-274.2134319859781
 31
0.0
  0
LINE
  5
1887
330
17BC
100
AcDbEntity
  8
0
 62
     0
100
AcDbLine
 10
-41.50513044512556
 20
-274.4526206722688
 30
0.0
 11
-41.29184728738475
 21
-274.239337514528
 31
0.0
  0
LINE
  5
1888
330
17BC
100
AcDbEntity
  8
0
 62
     0
100
AcDbLine
 10
-42.77155887179236
 20
-275.5864665774631
 30
0.0
 11
-42.66941493740316
 21
-275.484322643074
 31
0.0
  0
LINE
  5
1889
330
17BC
100
AcDbEntity
  8
0
 62
     0
100
AcDbLine
 10
-38.192676442087
 20
-271.0075841477578
 30
0.0
 11
-37.29790725263395
 21
-270.1128149583047
 31
0.0
  0
LINE
  5
188A
330
17BC
100
AcDbEntity
  8
0
 62
     0
100
AcDbLine
 10
-42.66941493740316
 20
-275.484322643074
 30
0.0
 11
-42.03742043120118
 21
-274.8523281368719
 31
0.0
  0
LINE
  5
188B
330
17BC
100
AcDbEntity
  8
0
 62
     0
100
AcDbLine
 10
-41.39132135807054
 20
-274.2062290637413
 30
0.0
 11
-41.15044255176923
 21
-273.96535025744
 31
0.0
  0
LINE
  5
188C
330
17BC
100
AcDbEntity
  8
0
 62
     0
100
AcDbLine
 10
-41.57174026873658
 20
-274.3866479744074
 30
0.0
 11
-41.47195166249413
 21
-274.2868593681649
 31
0.0
  0
LINE
  5
188D
330
17BC
100
AcDbEntity
  8
0
 62
     0
100
AcDbLine
 10
-42.81631079622728
 20
-275.4986359804255
 30
0.0
 11
-42.71416686183809
 21
-275.3964920460364
 31
0.0
  0
LINE
  5
188E
330
17BC
100
AcDbEntity
  8
0
 62
     0
100
AcDbLine
 10
-38.32525896355949
 20
-271.0075841477578
 30
0.0
 11
-37.43048977410643
 21
-270.1128149583047
 31
0.0
  0
LINE
  5
188F
330
17BC
100
AcDbEntity
  8
0
 62
     0
100
AcDbLine
 10
-42.71416686183809
 20
-275.3964920460364
 30
0.0
 11
-42.0821723556361
 21
-274.7644975398344
 31
0.0
  0
LINE
  5
1890
330
17BC
100
AcDbEntity
  8
0
 62
     0
100
AcDbLine
 10
-41.3814748585208
 20
-274.0638000427191
 30
0.0
 11
-41.1405960522195
 21
-273.8229212364178
 31
0.0
  0
LINE
  5
1891
330
17BC
100
AcDbEntity
  8
0
 62
     0
100
AcDbLine
 10
-41.6164921931715
 20
-274.2988173773698
 30
0.0
 11
-41.51670358692905
 21
-274.1990287711273
 31
0.0
  0
LINE
  5
1892
330
17BC
100
AcDbEntity
  8
0
 62
     0
100
AcDbLine
 10
-42.86106272066221
 20
-275.410805383388
 30
0.0
 11
-42.75891878627302
 21
-275.3086614489988
 31
0.0
  0
LINE
  5
1893
330
17BC
100
AcDbEntity
  8
0
 62
     0
100
AcDbLine
 10
-38.45784148503194
 20
-271.0075841477578
 30
0.0
 11
-37.56307229557891
 21
-270.1128149583047
 31
0.0
  0
LINE
  5
1894
330
17BC
100
AcDbEntity
  8
0
 62
     0
100
AcDbLine
 10
-42.75891878627301
 20
-275.3086614489988
 30
0.0
 11
-42.12692428007102
 21
-274.6766669427968
 31
0.0
  0
LINE
  5
1895
330
17BC
100
AcDbEntity
  8
0
 62
     0
100
AcDbLine
 10
-41.37162835897107
 20
-273.9213710216969
 30
0.0
 11
-41.13074955266977
 21
-273.6804922153956
 31
0.0
  0
LINE
  5
1896
330
17BC
100
AcDbEntity
  8
0
 62
     0
100
AcDbLine
 10
-41.66124411760642
 20
-274.2109867803322
 30
0.0
 11
-41.56145551136398
 21
-274.1111981740898
 31
0.0
  0
LINE
  5
1897
330
17BC
100
AcDbEntity
  8
0
 62
     0
100
AcDbLine
 10
-42.90581464509713
 20
-275.3229747863504
 30
0.0
 11
-42.80367071070794
 21
-275.2208308519613
 31
0.0
  0
LINE
  5
1898
330
17BC
100
AcDbEntity
  8
0
 62
     0
100
AcDbLine
 10
-38.59042400650442
 20
-271.0075841477578
 30
0.0
 11
-37.69565481705136
 21
-270.1128149583047
 31
0.0
  0
LINE
  5
1899
330
17BC
100
AcDbEntity
  8
0
 62
     0
100
AcDbLine
 10
-42.80367071070794
 20
-275.2208308519613
 30
0.0
 11
-42.17167620450595
 21
-274.5888363457593
 31
0.0
  0
LINE
  5
189A
330
17BC
100
AcDbEntity
  8
0
 62
     0
100
AcDbLine
 10
-41.36178185942134
 20
-273.7789420006746
 30
0.0
 11
-41.12090305312004
 21
-273.5380631943733
 31
0.0
  0
LINE
  5
189B
330
17BC
100
AcDbEntity
  8
0
 62
     0
100
AcDbLine
 10
-41.70599604204134
 20
-274.1231561832947
 30
0.0
 11
-41.60620743579889
 21
-274.0233675770522
 31
0.0
  0
LINE
  5
189C
330
17BC
100
AcDbEntity
  8
0
 62
     0
100
AcDbLine
 10
-42.95056656953206
 20
-275.2351441893129
 30
0.0
 11
-42.84842263514287
 21
-275.1330002549237
 31
0.0
  0
LINE
  5
189D
330
17BC
100
AcDbEntity
  8
0
 62
     0
100
AcDbLine
 10
-38.72300652797691
 20
-271.0075841477578
 30
0.0
 11
-37.82823733852385
 21
-270.1128149583047
 31
0.0
  0
LINE
  5
189E
330
17BC
100
AcDbEntity
  8
0
 62
     0
100
AcDbLine
 10
-42.84842263514287
 20
-275.1330002549237
 30
0.0
 11
-42.21642812894087
 21
-274.5010057487217
 31
0.0
  0
LINE
  5
189F
330
17BC
100
AcDbEntity
  8
0
 62
     0
100
AcDbLine
 10
-41.35193535987162
 20
-273.6365129796524
 30
0.0
 11
-41.11105655357031
 21
-273.3956341733511
 31
0.0
  0
LINE
  5
18A0
330
17BC
100
AcDbEntity
  8
0
 62
     0
100
AcDbLine
 10
-41.75074796647627
 20
-274.0353255862571
 30
0.0
 11
-41.65095936023383
 21
-273.9355369800147
 31
0.0
  0
LINE
  5
18A1
330
17BC
100
AcDbEntity
  8
0
 62
     0
100
AcDbLine
 10
-42.99531849396698
 20
-275.1473135922753
 30
0.0
 11
-42.89317455957778
 21
-275.0451696578862
 31
0.0
  0
LINE
  5
18A2
330
17BC
100
AcDbEntity
  8
0
 62
     0
100
AcDbLine
 10
-38.85558904944939
 20
-271.0075841477578
 30
0.0
 11
-37.96081985999633
 21
-270.1128149583047
 31
0.0
  0
LINE
  5
18A3
330
17BC
100
AcDbEntity
  8
0
 62
     0
100
AcDbLine
 10
-42.89317455957778
 20
-275.0451696578862
 30
0.0
 11
-42.2611800533758
 21
-274.4131751516842
 31
0.0
  0
LINE
  5
18A4
330
17BC
100
AcDbEntity
  8
0
 62
     0
100
AcDbLine
 10
-41.34208886032189
 20
-273.4940839586302
 30
0.0
 11
-41.10121005402058
 21
-273.2532051523289
 31
0.0
  0
LINE
  5
18A5
330
17BC
100
AcDbEntity
  8
0
 62
     0
100
AcDbLine
 10
-41.79549989091119
 20
-273.9474949892195
 30
0.0
 11
-41.69571128466874
 21
-273.8477063829771
 31
0.0
  0
LINE
  5
18A6
330
17BC
100
AcDbEntity
  8
0
 62
     0
100
AcDbLine
 10
-43.0400704184019
 20
-275.0594829952378
 30
0.0
 11
-42.93792648401271
 21
-274.9573390608487
 31
0.0
  0
LINE
  5
18A7
330
17BC
100
AcDbEntity
  8
0
 62
     0
100
AcDbLine
 10
-38.98817157092188
 20
-271.0075841477578
 30
0.0
 11
-38.09340238146882
 21
-270.1128149583047
 31
0.0
  0
LINE
  5
18A8
330
17BC
100
AcDbEntity
  8
0
 62
     0
100
AcDbLine
 10
-42.93792648401271
 20
-274.9573390608486
 30
0.0
 11
-42.30593197781072
 21
-274.3253445546466
 31
0.0
  0
LINE
  5
18A9
330
17BC
100
AcDbEntity
  8
0
 62
     0
100
AcDbLine
 10
-41.33224236077215
 20
-273.351654937608
 30
0.0
 11
-41.09136355447085
 21
-273.1107761313067
 31
0.0
  0
LINE
  5
18AA
330
17BC
100
AcDbEntity
  8
0
 62
     0
100
AcDbLine
 10
-41.84025181534611
 20
-273.859664392182
 30
0.0
 11
-41.74046320910367
 21
-273.7598757859395
 31
0.0
  0
LINE
  5
18AB
330
17BC
100
AcDbEntity
  8
0
 62
     0
100
AcDbLine
 10
-43.08482234283682
 20
-274.9716523982002
 30
0.0
 11
-42.98267840844763
 21
-274.8695084638111
 31
0.0
  0
LINE
  5
18AC
330
17BC
100
AcDbEntity
  8
0
 62
     0
100
AcDbLine
 10
-39.12075409239436
 20
-271.0075841477578
 30
0.0
 11
-38.2259849029413
 21
-270.1128149583047
 31
0.0
  0
LINE
  5
18AD
330
17BC
100
AcDbEntity
  8
0
 62
     0
100
AcDbLine
 10
-42.98267840844764
 20
-274.8695084638111
 30
0.0
 11
-42.35068390224564
 21
-274.2375139576091
 31
0.0
  0
LINE
  5
18AE
330
17BC
100
AcDbEntity
  8
0
 62
     0
100
AcDbLine
 10
-41.08151705492112
 20
-272.9683471102845
 30
0.0
 11
-40.96181643366968
 21
-272.848646489033
 31
0.0
  0
LINE
  5
18AF
330
17BC
100
AcDbEntity
  8
0
 62
     0
100
AcDbLine
 10
-41.88500373978103
 20
-273.7718337951445
 30
0.0
 11
-41.78521513353859
 21
-273.672045188902
 31
0.0
  0
LINE
  5
18B0
330
17BC
100
AcDbEntity
  8
0
 62
     0
100
AcDbLine
 10
-41.32239586122242
 20
-273.2092259165858
 30
0.0
 11
-41.08151705492112
 21
-272.9683471102845
 31
0.0
  0
LINE
  5
18B1
330
17BC
100
AcDbEntity
  8
0
 62
     0
100
AcDbLine
 10
-43.12957426727176
 20
-274.8838218011627
 30
0.0
 11
-43.02743033288257
 21
-274.7816778667736
 31
0.0
  0
LINE
  5
18B2
330
17BC
100
AcDbEntity
  8
0
 62
     0
100
AcDbLine
 10
-39.25333661386681
 20
-271.0075841477578
 30
0.0
 11
-38.35856742441375
 21
-270.1128149583047
 31
0.0
  0
LINE
  5
18B3
330
17BC
100
AcDbEntity
  8
0
 62
     0
100
AcDbLine
 10
-43.02743033288256
 20
-274.7816778667735
 30
0.0
 11
-42.39543582668058
 21
-274.1496833605715
 31
0.0
  0
LINE
  5
18B4
330
17BC
100
AcDbEntity
  8
0
 62
     0
100
AcDbLine
 10
-41.07167055537138
 20
-272.8259180892623
 30
0.0
 11
-40.79761027123158
 21
-272.5518578051226
 31
0.0
  0
LINE
  5
18B5
330
17BC
100
AcDbEntity
  8
0
 62
     0
100
AcDbLine
 10
-41.92975566421597
 20
-273.6840031981069
 30
0.0
 11
-41.82996705797352
 21
-273.5842145918645
 31
0.0
  0
LINE
  5
18B6
330
17BC
100
AcDbEntity
  8
0
 62
     0
100
AcDbLine
 10
-41.3125493616727
 20
-273.0667968955636
 30
0.0
 11
-41.07167055537138
 21
-272.8259180892623
 31
0.0
  0
LINE
  5
18B7
330
17BC
100
AcDbEntity
  8
0
 62
     0
100
AcDbLine
 10
-43.17432619170667
 20
-274.7959912041251
 30
0.0
 11
-43.07218225731747
 21
-274.693847269736
 31
0.0
  0
LINE
  5
18B8
330
17BC
100
AcDbEntity
  8
0
 62
     0
100
AcDbLine
 10
-39.3859191353393
 20
-271.0075841477578
 30
0.0
 11
-38.49114994588624
 21
-270.1128149583047
 31
0.0
  0
LINE
  5
18B9
330
17BC
100
AcDbEntity
  8
0
 62
     0
100
AcDbLine
 10
-43.07218225731748
 20
-274.693847269736
 30
0.0
 11
-42.44018775111549
 21
-274.0618527635339
 31
0.0
  0
LINE
  5
18BA
330
17BC
100
AcDbEntity
  8
0
 62
     0
100
AcDbLine
 10
-41.06182405582166
 20
-272.6834890682401
 30
0.0
 11
-40.63340410879347
 21
-272.2550691212119
 31
0.0
  0
LINE
  5
18BB
330
17BC
100
AcDbEntity
  8
0
 62
     0
100
AcDbLine
 10
-41.97450758865088
 20
-273.5961726010693
 30
0.0
 11
-41.87471898240843
 21
-273.4963839948269
 31
0.0
  0
LINE
  5
18BC
330
17BC
100
AcDbEntity
  8
0
 62
     0
100
AcDbLine
 10
-41.30270286212296
 20
-272.9243678745414
 30
0.0
 11
-41.06182405582166
 21
-272.6834890682401
 31
0.0
  0
LINE
  5
18BD
330
17BC
100
AcDbEntity
  8
0
 62
     0
100
AcDbLine
 10
-43.2190781161416
 20
-274.7081606070876
 30
0.0
 11
-43.11693418175241
 21
-274.6060166726984
 31
0.0
  0
LINE
  5
18BE
330
17BC
100
AcDbEntity
  8
0
 62
     0
100
AcDbLine
 10
-39.51850165681178
 20
-271.0075841477578
 30
0.0
 11
-38.62373246735872
 21
-270.1128149583047
 31
0.0
  0
LINE
  5
18BF
330
17BC
100
AcDbEntity
  8
0
 62
     0
100
AcDbLine
 10
-43.11693418175241
 20
-274.6060166726984
 30
0.0
 11
-42.48493967555043
 21
-273.9740221664964
 31
0.0
  0
LINE
  5
18C0
330
17BC
100
AcDbEntity
  8
0
 62
     0
100
AcDbLine
 10
-41.04147028864789
 20
-272.5305527795939
 30
0.0
 11
-40.46919794635537
 21
-271.9582804373014
 31
0.0
  0
LINE
  5
18C1
330
17BC
100
AcDbEntity
  8
0
 62
     0
100
AcDbLine
 10
-42.0192595130858
 20
-273.5083420040318
 30
0.0
 11
-41.91947090684336
 21
-273.4085533977893
 31
0.0
  0
LINE
  5
18C2
330
17BC
100
AcDbEntity
  8
0
 62
     0
100
AcDbLine
 10
-41.29285636257323
 20
-272.7819388535192
 30
0.0
 11
-41.05197755627193
 21
-272.5410600472179
 31
0.0
  0
LINE
  5
18C3
330
17BC
100
AcDbEntity
  8
0
 62
     0
100
AcDbLine
 10
-43.26383004057651
 20
-274.62033001005
 30
0.0
 11
-43.16168610618734
 21
-274.5181860756609
 31
0.0
  0
LINE
  5
18C4
330
17BC
100
AcDbEntity
  8
0
 62
     0
100
AcDbLine
 10
-39.65108417828427
 20
-271.0075841477578
 30
0.0
 11
-38.7563149888312
 21
-270.1128149583047
 31
0.0
  0
LINE
  5
18C5
330
17BC
100
AcDbEntity
  8
0
 62
     0
100
AcDbLine
 10
-43.16168610618732
 20
-274.5181860756608
 30
0.0
 11
-42.52969159998534
 21
-273.8861915694589
 31
0.0
  0
LINE
  5
18C6
330
17BC
100
AcDbEntity
  8
0
 62
     0
100
AcDbLine
 10
-40.87726412620977
 20
-272.2337640956832
 30
0.0
 11
-40.30499178391731
 21
-271.6614917533908
 31
0.0
  0
LINE
  5
18C7
330
17BC
100
AcDbEntity
  8
0
 62
     0
100
AcDbLine
 10
-42.06401143752072
 20
-273.4205114069942
 30
0.0
 11
-41.96422283127828
 21
-273.3207228007517
 31
0.0
  0
LINE
  5
18C8
330
17BC
100
AcDbEntity
  8
0
 62
     0
100
AcDbLine
 10
-41.2830098630235
 20
-272.639509832497
 30
0.0
 11
-41.04213105672219
 21
-272.3986310261957
 31
0.0
  0
LINE
  5
18C9
330
17BC
100
AcDbEntity
  8
0
 62
     0
100
AcDbLine
 10
-43.30858196501145
 20
-274.5324994130124
 30
0.0
 11
-43.20643803062226
 21
-274.4303554786233
 31
0.0
  0
LINE
  5
18CA
330
17BC
100
AcDbEntity
  8
0
 62
     0
100
AcDbLine
 10
-39.78366669975674
 20
-271.0075841477578
 30
0.0
 11
-38.88889751030369
 21
-270.1128149583047
 31
0.0
  0
LINE
  5
18CB
330
17BC
100
AcDbEntity
  8
0
 62
     0
100
AcDbLine
 10
-43.20643803062226
 20
-274.4303554786232
 30
0.0
 11
-42.57444352442026
 21
-273.7983609724213
 31
0.0
  0
LINE
  5
18CC
330
17BC
100
AcDbEntity
  8
0
 62
     0
100
AcDbLine
 10
-40.71305796377171
 20
-271.9369754117727
 30
0.0
 11
-40.14078562147921
 21
-271.3647030694802
 31
0.0
  0
LINE
  5
18CD
330
17BC
100
AcDbEntity
  8
0
 62
     0
100
AcDbLine
 10
-42.10876336195565
 20
-273.3326808099567
 30
0.0
 11
-42.00897475571321
 21
-273.2328922037142
 31
0.0
  0
LINE
  5
18CE
330
17BC
100
AcDbEntity
  8
0
 62
     0
100
AcDbLine
 10
-41.27316336347377
 20
-272.4970808114748
 30
0.0
 11
-41.03228455717245
 21
-272.2562020051735
 31
0.0
  0
LINE
  5
18CF
330
17BC
100
AcDbEntity
  8
0
 62
     0
100
AcDbLine
 10
-43.35333388944637
 20
-274.4446688159749
 30
0.0
 11
-43.25118995505717
 21
-274.3425248815857
 31
0.0
  0
LINE
  5
18D0
330
17BC
100
AcDbEntity
  8
0
 62
     0
100
AcDbLine
 10
-39.9162492212292
 20
-271.0075841477578
 30
0.0
 11
-39.02148003177617
 21
-270.1128149583047
 31
0.0
  0
LINE
  5
18D1
330
17BC
100
AcDbEntity
  8
0
 62
     0
100
AcDbLine
 10
-43.25118995505718
 20
-274.3425248815857
 30
0.0
 11
-42.61919544885519
 21
-273.7105303753837
 31
0.0
  0
LINE
  5
18D2
330
17BC
100
AcDbEntity
  8
0
 62
     0
100
AcDbLine
 10
-40.5488518013336
 20
-271.6401867278622
 30
0.0
 11
-39.97657945904111
 21
-271.0679143855696
 31
0.0
  0
LINE
  5
18D3
330
17BC
100
AcDbEntity
  8
0
 62
     0
100
AcDbLine
 10
-42.15351528639057
 20
-273.2448502129191
 30
0.0
 11
-42.05372668014815
 21
-273.1450616066767
 31
0.0
  0
LINE
  5
18D4
330
17BC
100
AcDbEntity
  8
0
 62
     0
100
AcDbLine
 10
-41.26331686392403
 20
-272.3546517904526
 30
0.0
 11
-41.02243805762273
 21
-272.1137729841512
 31
0.0
  0
LINE
  5
18D5
330
17BC
100
AcDbEntity
  8
0
 62
     0
100
AcDbLine
 10
-43.39808581388129
 20
-274.3568382189374
 30
0.0
 11
-43.29594187949211
 21
-274.2546942845482
 31
0.0
  0
LINE
  5
18D6
330
17BC
100
AcDbEntity
  8
0
 62
     0
100
AcDbLine
 10
-40.04883174270166
 20
-271.0075841477577
 30
0.0
 11
-39.15406255324862
 21
-270.1128149583047
 31
0.0
  0
LINE
  5
18D7
330
17BC
100
AcDbEntity
  8
0
 62
     0
100
AcDbLine
 10
-43.29594187949211
 20
-274.2546942845482
 30
0.0
 11
-42.66394737329011
 21
-273.6226997783461
 31
0.0
  0
LINE
  5
18D8
330
17BC
100
AcDbEntity
  8
0
 62
     0
100
AcDbLine
 10
-40.38464563889553
 20
-271.3433980439516
 30
0.0
 11
-40.04883174270168
 21
-271.0075841477578
 31
0.0
  0
LINE
  5
18D9
330
17BC
100
AcDbEntity
  8
0
 62
     0
100
AcDbLine
 10
-42.19826721082549
 20
-273.1570196158815
 30
0.0
 11
-42.09847860458307
 21
-273.0572310096391
 31
0.0
  0
LINE
  5
18DA
330
17BC
100
AcDbEntity
  8
0
 62
     0
100
AcDbLine
 10
-41.25347036437431
 20
-272.2122227694304
 30
0.0
 11
-41.01259155807299
 21
-271.971343963129
 31
0.0
  0
LINE
  5
18DB
330
17BC
100
AcDbEntity
  8
0
 62
     0
100
AcDbLine
 10
-43.44283773831622
 20
-274.2690076218998
 30
0.0
 11
-43.34069380392703
 21
-274.1668636875106
 31
0.0
  0
LINE
  5
18DC
330
17BC
100
AcDbEntity
  8
0
 62
     0
100
AcDbLine
 10
-40.18141426417416
 20
-271.0075841477577
 30
0.0
 11
-39.28664507472111
 21
-270.1128149583047
 31
0.0
  0
LINE
  5
18DD
330
17BC
100
AcDbEntity
  8
0
 62
     0
100
AcDbLine
 10
-43.34069380392703
 20
-274.1668636875106
 30
0.0
 11
-42.70869929772504
 21
-273.5348691813086
 31
0.0
  0
LINE
  5
18DE
330
17BC
100
AcDbEntity
  8
0
 62
     0
100
AcDbLine
 10
-40.22043947645742
 20
-271.046609360041
 30
0.0
 11
-40.18141426417416
 21
-271.0075841477578
 31
0.0
  0
LINE
  5
18DF
330
17BC
100
AcDbEntity
  8
0
 62
     0
100
AcDbLine
 10
-42.24301913526041
 20
-273.069189018844
 30
0.0
 11
-42.14323052901799
 21
-272.9694004126015
 31
0.0
  0
LINE
  5
18E0
330
17BC
100
AcDbEntity
  8
0
 62
     0
100
AcDbLine
 10
-41.24362386482458
 20
-272.0697937484081
 30
0.0
 11
-41.00274505852326
 21
-271.8289149421068
 31
0.0
  0
LINE
  5
18E1
330
17BC
100
AcDbEntity
  8
0
 62
     0
100
AcDbLine
 10
-43.48758966275113
 20
-274.1811770248623
 30
0.0
 11
-43.38544572836195
 21
-274.0790330904731
 31
0.0
  0
LINE
  5
18E2
330
17BC
100
AcDbEntity
  8
0
 62
     0
100
AcDbLine
 10
-40.31399678564665
 20
-271.0075841477578
 30
0.0
 11
-39.41922759619359
 21
-270.1128149583047
 31
0.0
  0
LINE
  5
18E3
330
17BC
100
AcDbEntity
  8
0
 62
     0
100
AcDbLine
 10
-43.38544572836195
 20
-274.0790330904731
 30
0.0
 11
-42.75345122215997
 21
-273.447038584271
 31
0.0
  0
LINE
  5
18E4
330
17BC
100
AcDbEntity
  8
0
 62
     0
100
AcDbLine
 10
-41.23377736527484
 20
-271.9273647273859
 30
0.0
 11
-40.99289855897352
 21
-271.6864859210846
 31
0.0
  0
LINE
  5
18E5
330
17BC
100
AcDbEntity
  8
0
 62
     0
100
AcDbLine
 10
-42.28777105969533
 20
-272.9813584218064
 30
0.0
 11
-42.18798245345292
 21
-272.881569815564
 31
0.0
  0
LINE
  5
18E6
330
17BC
100
AcDbEntity
  8
0
 62
     0
100
AcDbLine
 10
-43.53234158718605
 20
-274.0933464278247
 30
0.0
 11
-43.43019765279687
 21
-273.9912024934355
 31
0.0
  0
LINE
  5
18E7
330
17BC
100
AcDbEntity
  8
0
 62
     0
100
AcDbLine
 10
-40.44657930711912
 20
-271.0075841477578
 30
0.0
 11
-39.55181011766607
 21
-270.1128149583047
 31
0.0
  0
LINE
  5
18E8
330
17BC
100
AcDbEntity
  8
0
 62
     0
100
AcDbLine
 10
-43.43019765279688
 20
-273.9912024934355
 30
0.0
 11
-42.79820314659487
 21
-273.3592079872335
 31
0.0
  0
LINE
  5
18E9
330
17BC
100
AcDbEntity
  8
0
 62
     0
100
AcDbLine
 10
-41.22393086572511
 20
-271.7849357063637
 30
0.0
 11
-40.9830520594238
 21
-271.5440569000624
 31
0.0
  0
LINE
  5
18EA
330
17BC
100
AcDbEntity
  8
0
 62
     0
100
AcDbLine
 10
-42.33252298413026
 20
-272.8935278247689
 30
0.0
 11
-42.23273437788784
 21
-272.7937392185264
 31
0.0
  0
LINE
  5
18EB
330
17BC
100
AcDbEntity
  8
0
 62
     0
100
AcDbLine
 10
-43.57709351162099
 20
-274.0055158307872
 30
0.0
 11
-43.4749495772318
 21
-273.903371896398
 31
0.0
  0
LINE
  5
18EC
330
17BC
100
AcDbEntity
  8
0
 62
     0
100
AcDbLine
 10
-40.57916182859158
 20
-271.0075841477578
 30
0.0
 11
-39.68439263913856
 21
-270.1128149583047
 31
0.0
  0
LINE
  5
18ED
330
17BC
100
AcDbEntity
  8
0
 62
     0
100
AcDbLine
 10
-43.4749495772318
 20
-273.903371896398
 30
0.0
 11
-42.84295507102982
 21
-273.2713773901959
 31
0.0
  0
LINE
  5
18EE
330
17BC
100
AcDbEntity
  8
0
 62
     0
100
AcDbLine
 10
-41.21408436617539
 20
-271.6425066853415
 30
0.0
 11
-40.97320555987406
 21
-271.4016278790402
 31
0.0
  0
LINE
  5
18EF
330
17BC
100
AcDbEntity
  8
0
 62
     0
100
AcDbLine
 10
-42.37727490856518
 20
-272.8056972277314
 30
0.0
 11
-42.27748630232276
 21
-272.705908621489
 31
0.0
  0
LINE
  5
18F0
330
17BC
100
AcDbEntity
  8
0
 62
     0
100
AcDbLine
 10
-43.6218454360559
 20
-273.9176852337496
 30
0.0
 11
-43.51970150166672
 21
-273.8155412993604
 31
0.0
  0
LINE
  5
18F1
330
17BC
100
AcDbEntity
  8
0
 62
     0
100
AcDbLine
 10
-40.71174435006406
 20
-271.0075841477578
 30
0.0
 11
-39.81697516061101
 21
-270.1128149583047
 31
0.0
  0
LINE
  5
18F2
330
17BC
100
AcDbEntity
  8
0
 62
     0
100
AcDbLine
 10
-43.51970150166672
 20
-273.8155412993604
 30
0.0
 11
-42.88770699546473
 21
-273.1835467931584
 31
0.0
  0
LINE
  5
18F3
330
17BC
100
AcDbEntity
  8
0
 62
     0
100
AcDbLine
 10
-41.20423786662565
 20
-271.5000776643193
 30
0.0
 11
-40.96335906032432
 21
-271.259198858018
 31
0.0
  0
LINE
  5
18F4
330
17BC
100
AcDbEntity
  8
0
 62
     0
100
AcDbLine
 10
-42.4220268330001
 20
-272.7178666306938
 30
0.0
 11
-42.32223822675769
 21
-272.6180780244514
 31
0.0
  0
LINE
  5
18F5
330
17BC
100
AcDbEntity
  8
0
 62
     0
100
AcDbLine
 10
-43.66659736049083
 20
-273.829854636712
 30
0.0
 11
-43.56445342610165
 21
-273.7277107023229
 31
0.0
  0
LINE
  5
18F6
330
17BC
100
AcDbEntity
  8
0
 62
     0
100
AcDbLine
 10
-40.84432687153655
 20
-271.0075841477578
 30
0.0
 11
-39.94955768208349
 21
-270.1128149583047
 31
0.0
  0
LINE
  5
18F7
330
17BC
100
AcDbEntity
  8
0
 62
     0
100
AcDbLine
 10
-43.56445342610164
 20
-273.7277107023228
 30
0.0
 11
-42.93245891989965
 21
-273.0957161961208
 31
0.0
  0
LINE
  5
18F8
330
17BC
100
AcDbEntity
  8
0
 62
     0
100
AcDbLine
 10
-41.19439136707593
 20
-271.3576486432971
 30
0.0
 11
-40.95351256077459
 21
-271.1167698369958
 31
0.0
  0
LINE
  5
18F9
330
17BC
100
AcDbEntity
  8
0
 62
     0
100
AcDbLine
 10
-42.46677875743502
 20
-272.6300360336562
 30
0.0
 11
-42.36699015119261
 21
-272.5302474274138
 31
0.0
  0
LINE
  5
18FA
330
17BC
100
AcDbEntity
  8
0
 62
     0
100
AcDbLine
 10
-43.71134928492576
 20
-273.7420240396744
 30
0.0
 11
-43.60920535053657
 21
-273.6398801052853
 31
0.0
  0
LINE
  5
18FB
330
17BC
100
AcDbEntity
  8
0
 62
     0
100
AcDbLine
 10
-40.97690939300903
 20
-271.0075841477578
 30
0.0
 11
-40.08214020355597
 21
-270.1128149583047
 31
0.0
  0
LINE
  5
18FC
330
17BC
100
AcDbEntity
  8
0
 62
     0
100
AcDbLine
 10
-43.60920535053657
 20
-273.6398801052853
 30
0.0
 11
-42.97721084433458
 21
-273.0078855990833
 31
0.0
  0
LINE
  5
18FD
330
17BC
100
AcDbEntity
  8
0
 62
     0
100
AcDbLine
 10
-41.1845448675262
 20
-271.2152196222749
 30
0.0
 11
-40.97690939300904
 21
-271.0075841477578
 31
0.0
  0
LINE
  5
18FE
330
17BC
100
AcDbEntity
  8
0
 62
     0
100
AcDbLine
 10
-42.51153068186996
 20
-272.5422054366187
 30
0.0
 11
-42.41174207562753
 21
-272.4424168303762
 31
0.0
  0
LINE
  5
18FF
330
17BC
100
AcDbEntity
  8
0
 62
     0
100
AcDbLine
 10
-43.75610120936068
 20
-273.6541934426369
 30
0.0
 11
-43.65395727497149
 21
-273.5520495082478
 31
0.0
  0
LINE
  5
1900
330
17BC
100
AcDbEntity
  8
0
 62
     0
100
AcDbLine
 10
-41.10949191448152
 20
-271.0075841477578
 30
0.0
 11
-40.21472272502846
 21
-270.1128149583047
 31
0.0
  0
LINE
  5
1901
330
17BC
100
AcDbEntity
  8
0
 62
     0
100
AcDbLine
 10
-43.65395727497149
 20
-273.5520495082478
 30
0.0
 11
-43.02196276876951
 21
-272.9200550020458
 31
0.0
  0
LINE
  5
1902
330
17BC
100
AcDbEntity
  8
0
 62
     0
100
AcDbLine
 10
-41.17469836797646
 20
-271.0727906012527
 30
0.0
 11
-41.10949191448153
 21
-271.0075841477578
 31
0.0
  0
LINE
  5
1903
330
17BC
100
AcDbEntity
  8
0
 62
     0
100
AcDbLine
 10
-42.55628260630487
 20
-272.4543748395811
 30
0.0
 11
-42.45649400006246
 21
-272.3545862333387
 31
0.0
  0
LINE
  5
1904
330
17BC
100
AcDbEntity
  8
0
 62
     0
100
AcDbLine
 10
-43.8008531337956
 20
-273.5663628455994
 30
0.0
 11
-43.69870919940642
 21
-273.4642189112102
 31
0.0
  0
LINE
  5
1905
330
17BC
100
AcDbEntity
  8
0
 62
     0
100
AcDbLine
 10
-41.242074435954
 20
-271.0075841477578
 30
0.0
 11
-40.34730524650094
 21
-270.1128149583047
 31
0.0
  0
LINE
  5
1906
330
17BC
100
AcDbEntity
  8
0
 62
     0
100
AcDbLine
 10
-43.69870919940643
 20
-273.4642189112102
 30
0.0
 11
-43.06671469320444
 21
-272.8322244050082
 31
0.0
  0
LINE
  5
1907
330
17BC
100
AcDbEntity
  8
0
 62
     0
100
AcDbLine
 10
-42.6010345307398
 20
-272.3665442425436
 30
0.0
 11
-42.50124592449738
 21
-272.2667556363012
 31
0.0
  0
LINE
  5
1908
330
17BC
100
AcDbEntity
  8
0
 62
     0
100
AcDbLine
 10
-43.84560505823052
 20
-273.4785322485618
 30
0.0
 11
-43.74346112384134
 21
-273.3763883141727
 31
0.0
  0
LINE
  5
1909
330
17BC
100
AcDbEntity
  8
0
 62
     0
100
AcDbLine
 10
-41.37465695742645
 20
-271.0075841477578
 30
0.0
 11
-40.47988776797339
 21
-270.1128149583047
 31
0.0
  0
LINE
  5
190A
330
17BC
100
AcDbEntity
  8
0
 62
     0
100
AcDbLine
 10
-43.74346112384134
 20
-273.3763883141726
 30
0.0
 11
-43.11146661763936
 21
-272.7443938079706
 31
0.0
  0
LINE
  5
190B
330
17BC
100
AcDbEntity
  8
0
 62
     0
100
AcDbLine
 10
-42.64578645517471
 20
-272.278713645506
 30
0.0
 11
-42.5459978489323
 21
-272.1789250392636
 31
0.0
  0
LINE
  5
190C
330
17BC
100
AcDbEntity
  8
0
 62
     0
100
AcDbLine
 10
-43.89035698266545
 20
-273.3907016515242
 30
0.0
 11
-43.78821304827627
 21
-273.2885577171351
 31
0.0
  0
LINE
  5
190D
330
17BC
100
AcDbEntity
  8
0
 62
     0
100
AcDbLine
 10
-41.50723947889893
 20
-271.0075841477578
 30
0.0
 11
-40.61247028944587
 21
-270.1128149583047
 31
0.0
  0
LINE
  5
190E
330
17BC
100
AcDbEntity
  8
0
 62
     0
100
AcDbLine
 10
-43.78821304827627
 20
-273.2885577171351
 30
0.0
 11
-43.15621854207427
 21
-272.6565632109331
 31
0.0
  0
LINE
  5
190F
330
17BC
100
AcDbEntity
  8
0
 62
     0
100
AcDbLine
 10
-42.69053837960965
 20
-272.1908830484685
 30
0.0
 11
-42.59074977336722
 21
-272.0910944422261
 31
0.0
  0
LINE
  5
1910
330
17BC
100
AcDbEntity
  8
0
 62
     0
100
AcDbLine
 10
-43.93510890710039
 20
-273.3028710544867
 30
0.0
 11
-43.83296497271119
 21
-273.2007271200976
 31
0.0
  0
LINE
  5
1911
330
17BC
100
AcDbEntity
  8
0
 62
     0
100
AcDbLine
 10
-41.63982200037142
 20
-271.0075841477578
 30
0.0
 11
-40.74505281091837
 21
-270.1128149583047
 31
0.0
  0
LINE
  5
1912
330
17BC
100
AcDbEntity
  8
0
 62
     0
100
AcDbLine
 10
-43.83296497271119
 20
-273.2007271200975
 30
0.0
 11
-43.2009704665092
 21
-272.5687326138955
 31
0.0
  0
LINE
  5
1913
330
17BC
100
AcDbEntity
  8
0
 62
     0
100
AcDbLine
 10
-42.73529030404456
 20
-272.1030524514309
 30
0.0
 11
-42.63550169780215
 21
-272.0032638451885
 31
0.0
  0
LINE
  5
1914
330
17BC
100
AcDbEntity
  8
0
 62
     0
100
AcDbLine
 10
-43.97986083153529
 20
-273.2150404574491
 30
0.0
 11
-43.87771689714611
 21
-273.11289652306
 31
0.0
  0
LINE
  5
1915
330
17BC
100
AcDbEntity
  8
0
 62
     0
100
AcDbLine
 10
-41.7724045218439
 20
-271.0075841477578
 30
0.0
 11
-40.87763533239084
 21
-270.1128149583047
 31
0.0
  0
LINE
  5
1916
330
17BC
100
AcDbEntity
  8
0
 62
     0
100
AcDbLine
 10
-43.87771689714612
 20
-273.11289652306
 30
0.0
 11
-43.24572239094412
 21
-272.480902016858
 31
0.0
  0
LINE
  5
1917
330
17BC
100
AcDbEntity
  8
0
 62
     0
100
AcDbLine
 10
-42.78004222847949
 20
-272.0152218543934
 30
0.0
 11
-42.68025362223707
 21
-271.9154332481509
 31
0.0
  0
LINE
  5
1918
330
17BC
100
AcDbEntity
  8
0
 62
     0
100
AcDbLine
 10
-44.02461275597022
 20
-273.1272098604116
 30
0.0
 11
-43.92246882158103
 21
-273.0250659260224
 31
0.0
  0
LINE
  5
1919
330
17BC
100
AcDbEntity
  8
0
 62
     0
100
AcDbLine
 10
-41.90498704331639
 20
-271.0075841477578
 30
0.0
 11
-41.01021785386333
 21
-270.1128149583047
 31
0.0
  0
LINE
  5
191A
330
17BC
100
AcDbEntity
  8
0
 62
     0
100
AcDbLine
 10
-43.92246882158103
 20
-273.0250659260224
 30
0.0
 11
-43.29047431537905
 21
-272.3930714198204
 31
0.0
  0
LINE
  5
191B
330
17BC
100
AcDbEntity
  8
0
 62
     0
100
AcDbLine
 10
-42.8247941529144
 20
-271.9273912573558
 30
0.0
 11
-42.72500554667199
 21
-271.8276026511134
 31
0.0
  0
LINE
  5
191C
330
17BC
100
AcDbEntity
  8
0
 62
     0
100
AcDbLine
 10
-44.06936468040514
 20
-273.0393792633741
 30
0.0
 11
-43.96722074601596
 21
-272.9372353289849
 31
0.0
  0
LINE
  5
191D
330
17BC
100
AcDbEntity
  8
0
 62
     0
100
AcDbLine
 10
-42.03756956478883
 20
-271.0075841477578
 30
0.0
 11
-41.14280037533577
 21
-270.1128149583047
 31
0.0
  0
LINE
  5
191E
330
17BC
100
AcDbEntity
  8
0
 62
     0
100
AcDbLine
 10
-43.96722074601596
 20
-272.9372353289849
 30
0.0
 11
-43.33522623981397
 21
-272.3052408227829
 31
0.0
  0
LINE
  5
191F
330
17BC
100
AcDbEntity
  8
0
 62
     0
100
AcDbLine
 10
-42.86954607734934
 20
-271.8395606603182
 30
0.0
 11
-42.76975747110692
 21
-271.7397720540759
 31
0.0
  0
LINE
  5
1920
330
17BC
100
AcDbEntity
  8
0
 62
     0
100
AcDbLine
 10
-44.11411660484007
 20
-272.9515486663365
 30
0.0
 11
-44.01197267045088
 21
-272.8494047319474
 31
0.0
  0
LINE
  5
1921
330
17BC
100
AcDbEntity
  8
0
 62
     0
100
AcDbLine
 10
-42.17015208626132
 20
-271.0075841477578
 30
0.0
 11
-41.27538289680827
 21
-270.1128149583047
 31
0.0
  0
LINE
  5
1922
330
17BC
100
AcDbEntity
  8
0
 62
     0
100
AcDbLine
 10
-44.01197267045089
 20
-272.8494047319474
 30
0.0
 11
-43.3799781642489
 21
-272.2174102257453
 31
0.0
  0
LINE
  5
1923
330
17BC
100
AcDbEntity
  8
0
 62
     0
100
AcDbLine
 10
-42.91429800178426
 20
-271.7517300632807
 30
0.0
 11
-42.81450939554184
 21
-271.6519414570383
 31
0.0
  0
LINE
  5
1924
330
17BC
100
AcDbEntity
  8
0
 62
     0
100
AcDbLine
 10
-43.03552049306387
 20
-271.8729525545603
 30
0.0
 11
-42.91429800178426
 21
-271.7517300632807
 31
0.0
  0
LINE
  5
1925
330
17BC
100
AcDbEntity
  8
0
 62
     0
100
AcDbLine
 10
-44.15886852927499
 20
-272.8637180692989
 30
0.0
 11
-44.0567245948858
 21
-272.7615741349098
 31
0.0
  0
LINE
  5
1926
330
17BC
100
AcDbEntity
  8
0
 62
     0
100
AcDbLine
 10
-42.30273460773381
 20
-271.0075841477578
 30
0.0
 11
-41.40796541828075
 21
-270.1128149583047
 31
0.0
  0
LINE
  5
1927
330
17BC
100
AcDbEntity
  8
0
 62
     0
100
AcDbLine
 10
-44.05672459488581
 20
-272.7615741349098
 30
0.0
 11
-43.42473008868381
 21
-272.1295796287078
 31
0.0
  0
LINE
  5
1928
330
17BC
100
AcDbEntity
  8
0
 62
     0
100
AcDbLine
 10
-42.95904992621917
 20
-271.6638994662432
 30
0.0
 11
-42.85926131997678
 21
-271.5641108600007
 31
0.0
  0
LINE
  5
1929
330
17BC
100
AcDbEntity
  8
0
 62
     0
100
AcDbLine
 10
-43.30583527562661
 20
-272.0106848156506
 30
0.0
 11
-43.03567928394395
 21
-271.7405288239679
 31
0.0
  0
LINE
  5
192A
330
17BC
100
AcDbEntity
  8
0
 62
     0
100
AcDbLine
 10
-44.20362045370992
 20
-272.7758874722614
 30
0.0
 11
-44.10147651932073
 21
-272.6737435378722
 31
0.0
  0
LINE
  5
192B
330
17BC
100
AcDbEntity
  8
0
 62
     0
100
AcDbLine
 10
-42.43531712920629
 20
-271.0075841477578
 30
0.0
 11
-41.54054793975324
 21
-270.1128149583047
 31
0.0
  0
LINE
  5
192C
330
17BC
100
AcDbEntity
  8
0
 62
     0
100
AcDbLine
 10
-44.10147651932073
 20
-272.6737435378722
 30
0.0
 11
-43.57615005818931
 21
-272.1484170767408
 31
0.0
  0
LINE
  5
192D
330
17BC
100
AcDbEntity
  8
0
 62
     0
100
AcDbLine
 10
-43.00380185065409
 20
-271.5760688692056
 30
0.0
 11
-42.9040132444117
 21
-271.4762802629631
 31
0.0
  0
LINE
  5
192E
330
17BC
100
AcDbEntity
  8
0
 62
     0
100
AcDbLine
 10
-43.57615005818945
 20
-272.1484170767408
 30
0.0
 11
-43.29449434520518
 21
-271.8667613637567
 31
0.0
  0
LINE
  5
192F
330
17BC
100
AcDbEntity
  8
0
 62
     0
100
AcDbLine
 10
-44.24837237814484
 20
-272.6880568752238
 30
0.0
 11
-44.14622844375565
 21
-272.5859129408347
 31
0.0
  0
LINE
  5
1930
330
17BC
100
AcDbEntity
  8
0
 62
     0
100
AcDbLine
 10
-42.56789965067877
 20
-271.0075841477578
 30
0.0
 11
-41.67313046122571
 21
-270.1128149583047
 31
0.0
  0
LINE
  5
1931
330
17BC
100
AcDbEntity
  8
0
 62
     0
100
AcDbLine
 10
-44.14622844375567
 20
-272.5859129408347
 30
0.0
 11
-43.81389900091518
 21
-272.2535834979942
 31
0.0
  0
LINE
  5
1932
330
17BC
100
AcDbEntity
  8
0
 62
     0
100
AcDbLine
 10
-43.04855377508903
 20
-271.488238272168
 30
0.0
 11
-42.94876516884662
 21
-271.3884496659257
 31
0.0
  0
LINE
  5
1933
330
17BC
100
AcDbEntity
  8
0
 62
     0
100
AcDbLine
 10
-43.81389900091516
 20
-272.2535834979942
 30
0.0
 11
-43.5533094064665
 21
-271.9929939035455
 31
0.0
  0
LINE
  5
1934
330
17BC
100
AcDbEntity
  8
0
 62
     0
100
AcDbLine
 10
-43.55330940646641
 20
-271.9929939035454
 30
0.0
 11
-43.51423393755367
 21
-271.9539184346327
 31
0.0
  0
LINE
  5
1935
330
17BC
100
AcDbEntity
  8
0
 62
     0
100
AcDbLine
 10
-44.29312430257975
 20
-272.6002262781863
 30
0.0
 11
-44.19098036819057
 21
-272.4980823437971
 31
0.0
  0
LINE
  5
1936
330
17BC
100
AcDbEntity
  8
0
 62
     0
100
AcDbLine
 10
-42.70048217215122
 20
-271.0075841477578
 30
0.0
 11
-41.80571298269817
 21
-270.1128149583047
 31
0.0
  0
LINE
  5
1937
330
17BC
100
AcDbEntity
  8
0
 62
     0
100
AcDbLine
 10
-44.19098036819058
 20
-272.4980823437971
 30
0.0
 11
-43.85736435006013
 21
-272.1644663256667
 31
0.0
  0
LINE
  5
1938
330
17BC
100
AcDbEntity
  8
0
 62
     0
100
AcDbLine
 10
-43.09330569952394
 20
-271.4004076751304
 30
0.0
 11
-42.99351709328155
 21
-271.3006190688881
 31
0.0
  0
LINE
  5
1939
330
17BC
100
AcDbEntity
  8
0
 62
     0
100
AcDbLine
 10
-43.85736435006017
 20
-272.1644663256666
 30
0.0
 11
-43.81212446772781
 21
-272.1192264433343
 31
0.0
  0
LINE
  5
193A
330
17BC
100
AcDbEntity
  8
0
 62
     0
100
AcDbLine
 10
-43.81212446772774
 20
-272.1192264433343
 30
0.0
 11
-43.5589858619886
 21
-271.8660878375951
 31
0.0
  0
LINE
  5
193B
330
17BC
100
AcDbEntity
  8
0
 62
     0
100
AcDbLine
 10
-44.33787622701468
 20
-272.5123956811487
 30
0.0
 11
-44.23573229262551
 21
-272.4102517467596
 31
0.0
  0
LINE
  5
193C
330
17BC
100
AcDbEntity
  8
0
 62
     0
100
AcDbLine
 10
-42.83306469362371
 20
-271.0075841477578
 30
0.0
 11
-41.93829550417065
 21
-270.1128149583047
 31
0.0
  0
LINE
  5
193D
330
17BC
100
AcDbEntity
  8
0
 62
     0
100
AcDbLine
 10
-44.23573229262551
 20
-272.4102517467596
 30
0.0
 11
-43.60373778642352
 21
-271.7782572405575
 31
0.0
  0
LINE
  5
193E
330
17BC
100
AcDbEntity
  8
0
 62
     0
100
AcDbLine
 10
-43.13805762395886
 20
-271.3125770780929
 30
0.0
 11
-43.03826901771647
 21
-271.2127884718505
 31
0.0
  0
LINE
  5
193F
330
17BC
100
AcDbEntity
  8
0
 62
     0
100
AcDbLine
 10
-44.38262815144962
 20
-272.4245650841112
 30
0.0
 11
-44.28048421706043
 21
-272.3224211497221
 31
0.0
  0
LINE
  5
1940
330
17BC
100
AcDbEntity
  8
0
 62
     0
100
AcDbLine
 10
-42.9656472150962
 20
-271.0075841477578
 30
0.0
 11
-42.07087802564314
 21
-270.1128149583047
 31
0.0
  0
LINE
  5
1941
330
17BC
100
AcDbEntity
  8
0
 62
     0
100
AcDbLine
 10
-44.28048421706043
 20
-272.322421149722
 30
0.0
 11
-43.64848971085844
 21
-271.69042664352
 31
0.0
  0
LINE
  5
1942
330
17BC
100
AcDbEntity
  8
0
 62
     0
100
AcDbLine
 10
-43.18280954839378
 20
-271.2247464810554
 30
0.0
 11
-43.08302094215139
 21
-271.1249578748129
 31
0.0
  0
LINE
  5
1943
330
17BC
100
AcDbEntity
  8
0
 62
     0
100
AcDbLine
 10
-44.42738007588452
 20
-272.3367344870736
 30
0.0
 11
-44.32523614149536
 21
-272.2345905526844
 31
0.0
  0
LINE
  5
1944
330
17BC
100
AcDbEntity
  8
0
 62
     0
100
AcDbLine
 10
-43.09822973656867
 20
-271.0075841477578
 30
0.0
 11
-42.20346054711562
 21
-270.1128149583047
 31
0.0
  0
LINE
  5
1945
330
17BC
100
AcDbEntity
  8
0
 62
     0
100
AcDbLine
 10
-44.32523614149537
 20
-272.2345905526844
 30
0.0
 11
-43.69324163529338
 21
-271.6025960464825
 31
0.0
  0
LINE
  5
1946
330
17BC
100
AcDbEntity
  8
0
 62
     0
100
AcDbLine
 10
-43.22756147282872
 20
-271.1369158840178
 30
0.0
 11
-43.12777286658632
 21
-271.0371272777754
 31
0.0
  0
LINE
  5
1947
330
17BC
100
AcDbEntity
  8
0
 62
     0
100
AcDbLine
 10
-44.47213200031946
 20
-272.2489038900361
 30
0.0
 11
-44.36998806593027
 21
-272.1467599556469
 31
0.0
  0
LINE
  5
1948
330
17BC
100
AcDbEntity
  8
0
 62
     0
100
AcDbLine
 10
-43.23081225804116
 20
-271.0075841477578
 30
0.0
 11
-42.3360430685881
 21
-270.1128149583047
 31
0.0
  0
LINE
  5
1949
330
17BC
100
AcDbEntity
  8
0
 62
     0
100
AcDbLine
 10
-44.36998806593028
 20
-272.1467599556469
 30
0.0
 11
-43.7379935597283
 21
-271.5147654494449
 31
0.0
  0
LINE
  5
194A
330
17BC
100
AcDbEntity
  8
0
 62
     0
100
AcDbLine
 10
-43.27231339726363
 20
-271.0490852869802
 30
0.0
 11
-43.23081225804115
 21
-271.0075841477578
 31
0.0
  0
LINE
  5
194B
330
17BC
100
AcDbEntity
  8
0
 62
     0
100
AcDbLine
 10
-44.51688392475437
 20
-272.1610732929985
 30
0.0
 11
-44.41473999036521
 21
-272.0589293586094
 31
0.0
  0
LINE
  5
194C
330
17BC
100
AcDbEntity
  8
0
 62
     0
100
AcDbLine
 10
-43.36339477951361
 20
-271.0075841477578
 30
0.0
 11
-42.46862559006059
 21
-270.1128149583047
 31
0.0
  0
LINE
  5
194D
330
17BC
100
AcDbEntity
  8
0
 62
     0
100
AcDbLine
 10
-44.4147399903652
 20
-272.0589293586093
 30
0.0
 11
-43.78274548416323
 21
-271.4269348524073
 31
0.0
  0
LINE
  5
194E
330
17BC
100
AcDbEntity
  8
0
 62
     0
100
AcDbLine
 10
-44.5616358491893
 20
-272.0732426959609
 30
0.0
 11
-44.45949191480012
 21
-271.9710987615718
 31
0.0
  0
LINE
  5
194F
330
17BC
100
AcDbEntity
  8
0
 62
     0
100
AcDbLine
 10
-43.4959773009861
 20
-271.0075841477578
 30
0.0
 11
-42.60120811153304
 21
-270.1128149583047
 31
0.0
  0
LINE
  5
1950
330
17BC
100
AcDbEntity
  8
0
 62
     0
100
AcDbLine
 10
-44.45949191480013
 20
-271.9710987615718
 30
0.0
 11
-43.82749740859814
 21
-271.3391042553698
 31
0.0
  0
LINE
  5
1951
330
17BC
100
AcDbEntity
  8
0
 62
     0
100
AcDbLine
 10
-44.60638777362423
 20
-271.9854120989233
 30
0.0
 11
-44.50424383923505
 21
-271.8832681645342
 31
0.0
  0
LINE
  5
1952
330
17BC
100
AcDbEntity
  8
0
 62
     0
100
AcDbLine
 10
-43.62855982245858
 20
-271.0075841477578
 30
0.0
 11
-42.73379063300552
 21
-270.1128149583047
 31
0.0
  0
LINE
  5
1953
330
17BC
100
AcDbEntity
  8
0
 62
     0
100
AcDbLine
 10
-44.50424383923506
 20
-271.8832681645342
 30
0.0
 11
-43.87224933303307
 21
-271.2512736583323
 31
0.0
  0
LINE
  5
1954
330
17BC
100
AcDbEntity
  8
0
 62
     0
100
AcDbLine
 10
-44.65113969805915
 20
-271.8975815018858
 30
0.0
 11
-44.54899576366996
 21
-271.7954375674967
 31
0.0
  0
LINE
  5
1955
330
17BC
100
AcDbEntity
  8
0
 62
     0
100
AcDbLine
 10
-43.76114234393106
 20
-271.0075841477578
 30
0.0
 11
-42.86637315447801
 21
-270.1128149583047
 31
0.0
  0
LINE
  5
1956
330
17BC
100
AcDbEntity
  8
0
 62
     0
100
AcDbLine
 10
-44.54899576366997
 20
-271.7954375674967
 30
0.0
 11
-43.91700125746799
 21
-271.1634430612947
 31
0.0
  0
LINE
  5
1957
330
17BC
100
AcDbEntity
  8
0
 62
     0
100
AcDbLine
 10
-44.69589162249408
 20
-271.8097509048483
 30
0.0
 11
-44.5937476881049
 21
-271.7076069704591
 31
0.0
  0
LINE
  5
1958
330
17BC
100
AcDbEntity
  8
0
 62
     0
100
AcDbLine
 10
-43.89372486540355
 20
-271.0075841477578
 30
0.0
 11
-42.99895567595049
 21
-270.1128149583047
 31
0.0
  0
LINE
  5
1959
330
17BC
100
AcDbEntity
  8
0
 62
     0
100
AcDbLine
 10
-44.59374768810491
 20
-271.7076069704591
 30
0.0
 11
-43.96175318190293
 21
-271.0756124642572
 31
0.0
  0
LINE
  5
195A
330
17BC
100
AcDbEntity
  8
0
 62
     0
100
AcDbLine
 10
-44.74064354692899
 20
-271.7219203078107
 30
0.0
 11
-44.63849961253981
 21
-271.6197763734216
 31
0.0
  0
LINE
  5
195B
330
17BC
100
AcDbEntity
  8
0
 62
     0
100
AcDbLine
 10
-44.02630738687596
 20
-271.0075841477577
 30
0.0
 11
-43.13153819742297
 21
-270.1128149583047
 31
0.0
  0
LINE
  5
195C
330
17BC
100
AcDbEntity
  8
0
 62
     0
100
AcDbLine
 10
-44.63849961253983
 20
-271.6197763734216
 30
0.0
 11
-44.02630738687603
 21
-271.0075841477578
 31
0.0
  0
LINE
  5
195D
330
17BC
100
AcDbEntity
  8
0
 62
     0
100
AcDbLine
 10
-44.78539547136391
 20
-271.6340897107732
 30
0.0
 11
-44.68325153697474
 21
-271.5319457763841
 31
0.0
  0
LINE
  5
195E
330
17BC
100
AcDbEntity
  8
0
 62
     0
100
AcDbLine
 10
-44.15888990834845
 20
-271.0075841477577
 30
0.0
 11
-43.26412071889542
 21
-270.1128149583047
 31
0.0
  0
LINE
  5
195F
330
17BC
100
AcDbEntity
  8
0
 62
     0
100
AcDbLine
 10
-44.68325153697477
 20
-271.531945776384
 30
0.0
 11
-44.15888990834848
 21
-271.0075841477578
 31
0.0
  0
LINE
  5
1960
330
17BC
100
AcDbEntity
  8
0
 62
     0
100
AcDbLine
 10
-44.83014739579885
 20
-271.5462591137356
 30
0.0
 11
-44.72800346140967
 21
-271.4441151793465
 31
0.0
  0
LINE
  5
1961
330
17BC
100
AcDbEntity
  8
0
 62
     0
100
AcDbLine
 10
-44.29147242982091
 20
-271.0075841477577
 30
0.0
 11
-43.39670324036791
 21
-270.1128149583047
 31
0.0
  0
LINE
  5
1962
330
17BC
100
AcDbEntity
  8
0
 62
     0
100
AcDbLine
 10
-44.72800346140968
 20
-271.4441151793465
 30
0.0
 11
-44.29147242982097
 21
-271.0075841477578
 31
0.0
  0
LINE
  5
1963
330
17BC
100
AcDbEntity
  8
0
 62
     0
100
AcDbLine
 10
-44.87489932023376
 20
-271.4584285166981
 30
0.0
 11
-44.7727553858446
 21
-271.3562845823089
 31
0.0
  0
LINE
  5
1964
330
17BC
100
AcDbEntity
  8
0
 62
     0
100
AcDbLine
 10
-44.42405495129341
 20
-271.0075841477577
 30
0.0
 11
-43.5292857618404
 21
-270.1128149583047
 31
0.0
  0
LINE
  5
1965
330
17BC
100
AcDbEntity
  8
0
 62
     0
100
AcDbLine
 10
-44.77275538584461
 20
-271.3562845823089
 30
0.0
 11
-44.42405495129345
 21
-271.0075841477578
 31
0.0
  0
LINE
  5
1966
330
17BC
100
AcDbEntity
  8
0
 62
     0
100
AcDbLine
 10
-44.91965124466869
 20
-271.3705979196606
 30
0.0
 11
-44.81750731027952
 21
-271.2684539852714
 31
0.0
  0
LINE
  5
1967
330
17BC
100
AcDbEntity
  8
0
 62
     0
100
AcDbLine
 10
-44.55663747276587
 20
-271.0075841477577
 30
0.0
 11
-43.66186828331287
 21
-270.1128149583047
 31
0.0
  0
LINE
  5
1968
330
17BC
100
AcDbEntity
  8
0
 62
     0
100
AcDbLine
 10
-44.81750731027953
 20
-271.2684539852714
 30
0.0
 11
-44.55663747276593
 21
-271.0075841477578
 31
0.0
  0
LINE
  5
1969
330
17BC
100
AcDbEntity
  8
0
 62
     0
100
AcDbLine
 10
-44.96440316910361
 20
-271.282767322623
 30
0.0
 11
-44.86225923471444
 21
-271.1806233882338
 31
0.0
  0
LINE
  5
196A
330
17BC
100
AcDbEntity
  8
0
 62
     0
100
AcDbLine
 10
-44.68921999423836
 20
-271.0075841477577
 30
0.0
 11
-43.79445080478536
 21
-270.1128149583047
 31
0.0
  0
LINE
  5
196B
330
17BC
100
AcDbEntity
  8
0
 62
     0
100
AcDbLine
 10
-44.86225923471446
 20
-271.1806233882338
 30
0.0
 11
-44.68921999423842
 21
-271.0075841477578
 31
0.0
  0
LINE
  5
196C
330
17BC
100
AcDbEntity
  8
0
 62
     0
100
AcDbLine
 10
-45.00915509353854
 20
-271.1949367255854
 30
0.0
 11
-44.93619626528839
 21
-271.1219778973352
 31
0.0
  0
LINE
  5
196D
330
17BC
100
AcDbEntity
  8
0
 62
     0
100
AcDbLine
 10
-44.82180251571087
 20
-271.0075841477578
 30
0.0
 11
-43.92703332625781
 21
-270.1128149583047
 31
0.0
  0
LINE
  5
196E
330
17BC
100
AcDbEntity
  8
0
 62
     0
100
AcDbLine
 10
-44.95438503718335
 20
-271.0075841477578
 30
0.0
 11
-44.0596158477303
 21
-270.1128149583047
 31
0.0
  0
LINE
  5
196F
330
17BC
100
AcDbEntity
  8
0
 62
     0
100
AcDbLine
 10
-45.08696755865584
 20
-271.0075841477578
 30
0.0
 11
-44.19219836920278
 21
-270.1128149583047
 31
0.0
  0
LINE
  5
1970
330
17BC
100
AcDbEntity
  8
0
 62
     0
100
AcDbLine
 10
-45.21955008012832
 20
-271.0075841477578
 30
0.0
 11
-44.32478089067527
 21
-270.1128149583047
 31
0.0
  0
LINE
  5
1971
330
17BC
100
AcDbEntity
  8
0
 62
     0
100
AcDbLine
 10
-45.23372463886881
 20
-270.8891761850257
 30
0.0
 11
-44.45736341214774
 21
-270.1128149583047
 31
0.0
  0
LINE
  5
1972
330
17BC
100
AcDbEntity
  8
0
 62
     0
100
AcDbLine
 10
-45.23372463886881
 20
-270.7565936635533
 30
0.0
 11
-44.5899459336202
 21
-270.1128149583047
 31
0.0
  0
LINE
  5
1973
330
17BC
100
AcDbEntity
  8
0
 62
     0
100
AcDbLine
 10
-45.23372463886881
 20
-270.6240111420808
 30
0.0
 11
-44.72252845509268
 21
-270.1128149583047
 31
0.0
  0
LINE
  5
1974
330
17BC
100
AcDbEntity
  8
0
 62
     0
100
AcDbLine
 10
-45.23372463886881
 20
-270.4914286206083
 30
0.0
 11
-44.85511097656517
 21
-270.1128149583047
 31
0.0
  0
LINE
  5
1975
330
17BC
100
AcDbEntity
  8
0
 62
     0
100
AcDbLine
 10
-45.2337246388688
 20
-270.3588460991359
 30
0.0
 11
-44.98769349803765
 21
-270.1128149583047
 31
0.0
  0
LINE
  5
1976
330
17BC
100
AcDbEntity
  8
0
 62
     0
100
AcDbLine
 10
-45.2337246388688
 20
-270.2262635776634
 30
0.0
 11
-45.12027601951014
 21
-270.1128149583047
 31
0.0
  0
LINE
  5
1977
330
17BC
100
AcDbEntity
  8
0
 62
     0
100
AcDbLine
 10
-39.27512850824
 20
-279.5146574163695
 30
0.0
 11
-38.5413666900566
 21
-278.7808955981861
 31
0.0
  0
LINE
  5
1978
330
17BC
100
AcDbEntity
  8
0
 62
     0
100
AcDbLine
 10
-39.16241960701883
 20
-279.5345310366208
 30
0.0
 11
-38.42865778883542
 21
-278.8007692184374
 31
0.0
  0
LINE
  5
1979
330
17BC
100
AcDbEntity
  8
0
 62
     0
100
AcDbLine
 10
-39.04971070579762
 20
-279.5544046568721
 30
0.0
 11
-38.31594888761424
 21
-278.8206428386887
 31
0.0
  0
LINE
  5
197A
330
17BC
100
AcDbEntity
  8
0
 62
     0
100
AcDbLine
 10
-38.93700180457646
 20
-279.5742782771234
 30
0.0
 11
-38.20323998639308
 21
-278.84051645894
 31
0.0
  0
LINE
  5
197B
330
17BC
100
AcDbEntity
  8
0
 62
     0
100
AcDbLine
 10
-38.82429290335529
 20
-279.5941518973747
 30
0.0
 11
-38.0905310851719
 21
-278.8603900791913
 31
0.0
  0
LINE
  5
197C
330
17BC
100
AcDbEntity
  8
0
 62
     0
100
AcDbLine
 10
-38.71158400213412
 20
-279.614025517626
 30
0.0
 11
-37.97782218395072
 21
-278.8802636994426
 31
0.0
  0
LINE
  5
197D
330
17BC
100
AcDbEntity
  8
0
 62
     0
100
AcDbLine
 10
-38.59887510091292
 20
-279.6338991378773
 30
0.0
 11
-37.86511328272954
 21
-278.9001373196939
 31
0.0
  0
LINE
  5
197E
330
17BC
100
AcDbEntity
  8
0
 62
     0
100
AcDbLine
 10
-38.48616619969174
 20
-279.6537727581286
 30
0.0
 11
-37.75240438150836
 21
-278.9200109399452
 31
0.0
  0
LINE
  5
197F
330
17BC
100
AcDbEntity
  8
0
 62
     0
100
AcDbLine
 10
-38.37345729847058
 20
-279.6736463783799
 30
0.0
 11
-37.63969548028717
 21
-278.9398845601965
 31
0.0
  0
LINE
  5
1980
330
17BC
100
AcDbEntity
  8
0
 62
     0
100
AcDbLine
 10
-38.26074839724942
 20
-279.6935199986312
 30
0.0
 11
-37.526986579066
 21
-278.9597581804478
 31
0.0
  0
LINE
  5
1981
330
17BC
100
AcDbEntity
  8
0
 62
     0
100
AcDbLine
 10
-38.14803949602821
 20
-279.7133936188825
 30
0.0
 11
-37.41427767784482
 21
-278.9796318006991
 31
0.0
  0
LINE
  5
1982
330
17BC
100
AcDbEntity
  8
0
 62
     0
100
AcDbLine
 10
-38.03533059480704
 20
-279.7332672391338
 30
0.0
 11
-37.30156877662363
 21
-278.9995054209504
 31
0.0
  0
LINE
  5
1983
330
17BC
100
AcDbEntity
  8
0
 62
     0
100
AcDbLine
 10
-37.92262169358588
 20
-279.7531408593851
 30
0.0
 11
-37.18885987540245
 21
-279.0193790412017
 31
0.0
  0
LINE
  5
1984
330
17BC
100
AcDbEntity
  8
0
 62
     0
100
AcDbLine
 10
-37.80991279236471
 20
-279.7730144796364
 30
0.0
 11
-37.07615097418127
 21
-279.039252661453
 31
0.0
  0
LINE
  5
1985
330
17BC
100
AcDbEntity
  8
0
 62
     0
100
AcDbLine
 10
-37.6972038911435
 20
-279.7928880998877
 30
0.0
 11
-36.96344207296009
 21
-279.0591262817043
 31
0.0
  0
LINE
  5
1986
330
17BC
100
AcDbEntity
  8
0
 62
     0
100
AcDbLine
 10
-37.58449498992233
 20
-279.812761720139
 30
0.0
 11
-36.85073317173891
 21
-279.0789999019556
 31
0.0
  0
LINE
  5
1987
330
17BC
100
AcDbEntity
  8
0
 62
     0
100
AcDbLine
 10
-37.47178608870117
 20
-279.8326353403903
 30
0.0
 11
-36.73802427051778
 21
-279.0988735222069
 31
0.0
  0
LINE
  5
1988
330
17BC
100
AcDbEntity
  8
0
 62
     0
100
AcDbLine
 10
-37.35907718748001
 20
-279.8525089606416
 30
0.0
 11
-36.62531536929659
 21
-279.1187471424582
 31
0.0
  0
LINE
  5
1989
330
17BC
100
AcDbEntity
  8
0
 62
     0
100
AcDbLine
 10
-37.24636828625879
 20
-279.8723825808929
 30
0.0
 11
-36.51260646807542
 21
-279.1386207627095
 31
0.0
  0
LINE
  5
198A
330
17BC
100
AcDbEntity
  8
0
 62
     0
100
AcDbLine
 10
-37.13365938503763
 20
-279.8922562011442
 30
0.0
 11
-36.39989756685424
 21
-279.1584943829608
 31
0.0
  0
LINE
  5
198B
330
17BC
100
AcDbEntity
  8
0
 62
     0
100
AcDbLine
 10
-37.02095048381647
 20
-279.9121298213955
 30
0.0
 11
-36.28718866563306
 21
-279.1783680032121
 31
0.0
  0
LINE
  5
198C
330
17BC
100
AcDbEntity
  8
0
 62
     0
100
AcDbLine
 10
-36.9082415825953
 20
-279.9320034416468
 30
0.0
 11
-36.17447976441188
 21
-279.1982416234634
 31
0.0
  0
LINE
  5
198D
330
17BC
100
AcDbEntity
  8
0
 62
     0
100
AcDbLine
 10
-36.79553268137409
 20
-279.9518770618981
 30
0.0
 11
-36.0617708631907
 21
-279.2181152437147
 31
0.0
  0
LINE
  5
198E
330
17BC
100
AcDbEntity
  8
0
 62
     0
100
AcDbLine
 10
-36.68282378015292
 20
-279.9717506821494
 30
0.0
 11
-35.94906196196951
 21
-279.237988863966
 31
0.0
  0
LINE
  5
198F
330
17BC
100
AcDbEntity
  8
0
 62
     0
100
AcDbLine
 10
-36.57011487893175
 20
-279.9916243024007
 30
0.0
 11
-35.83635306074833
 21
-279.2578624842173
 31
0.0
  0
LINE
  5
1990
330
17BC
100
AcDbEntity
  8
0
 62
     0
100
AcDbLine
 10
-36.45740597771059
 20
-280.011497922652
 30
0.0
 11
-35.72364415952716
 21
-279.2777361044686
 31
0.0
  0
LINE
  5
1991
330
17BC
100
AcDbEntity
  8
0
 62
     0
100
AcDbLine
 10
-36.34469707648938
 20
-280.0313715429033
 30
0.0
 11
-35.61093525830597
 21
-279.2976097247199
 31
0.0
  0
LINE
  5
1992
330
17BC
100
AcDbEntity
  8
0
 62
     0
100
AcDbLine
 10
-36.23198817526822
 20
-280.0512451631546
 30
0.0
 11
-35.49822635708479
 21
-279.3174833449712
 31
0.0
  0
LINE
  5
1993
330
17BC
100
AcDbEntity
  8
0
 62
     0
100
AcDbLine
 10
-36.11927927404706
 20
-280.0711187834059
 30
0.0
 11
-35.38551745586361
 21
-279.3373569652225
 31
0.0
  0
LINE
  5
1994
330
17BC
100
AcDbEntity
  8
0
 62
     0
100
AcDbLine
 10
-36.00657037282589
 20
-280.0909924036572
 30
0.0
 11
-35.27280855464243
 21
-279.3572305854738
 31
0.0
  0
LINE
  5
1995
330
17BC
100
AcDbEntity
  8
0
 62
     0
100
AcDbLine
 10
-35.89386147160467
 20
-280.1108660239085
 30
0.0
 11
-35.16009965342125
 21
-279.3771042057251
 31
0.0
  0
LINE
  5
1996
330
17BC
100
AcDbEntity
  8
0
 62
     0
100
AcDbLine
 10
-35.78115257038351
 20
-280.1307396441598
 30
0.0
 11
-35.04739075220007
 21
-279.3969778259764
 31
0.0
  0
LINE
  5
1997
330
17BC
100
AcDbEntity
  8
0
 62
     0
100
AcDbLine
 10
-35.66844366916234
 20
-280.1506132644111
 30
0.0
 11
-34.93468185097889
 21
-279.4168514462277
 31
0.0
  0
LINE
  5
1998
330
17BC
100
AcDbEntity
  8
0
 62
     0
100
AcDbLine
 10
-35.55573476794118
 20
-280.1704868846624
 30
0.0
 11
-34.82197294975771
 21
-279.436725066479
 31
0.0
  0
LINE
  5
1999
330
17BC
100
AcDbEntity
  8
0
 62
     0
100
AcDbLine
 10
-35.44302586671997
 20
-280.1903605049137
 30
0.0
 11
-34.70926404853658
 21
-279.4565986867303
 31
0.0
  0
LINE
  5
199A
330
17BC
100
AcDbEntity
  8
0
 62
     0
100
AcDbLine
 10
-35.3303169654988
 20
-280.210234125165
 30
0.0
 11
-34.59655514731539
 21
-279.4764723069816
 31
0.0
  0
LINE
  5
199B
330
17BC
100
AcDbEntity
  8
0
 62
     0
100
AcDbLine
 10
-35.21760806427764
 20
-280.2301077454163
 30
0.0
 11
-34.48384624609421
 21
-279.496345927233
 31
0.0
  0
LINE
  5
199C
330
17BC
100
AcDbEntity
  8
0
 62
     0
100
AcDbLine
 10
-35.10489916305647
 20
-280.2499813656676
 30
0.0
 11
-34.65961316436878
 21
-279.80469536698
 31
0.0
  0
LINE
  5
199D
330
17BC
100
AcDbEntity
  8
0
 62
     0
100
AcDbLine
 10
-34.49507239555112
 20
-279.6401545981623
 30
0.0
 11
-34.37113734487303
 21
-279.5162195474842
 31
0.0
  0
LINE
  5
199E
330
17BC
100
AcDbEntity
  8
0
 62
     0
100
AcDbLine
 10
-34.65961316436874
 20
-279.8046953669799
 30
0.0
 11
-34.49507239555113
 21
-279.6401545981623
 31
0.0
  0
LINE
  5
199F
330
17BC
100
AcDbEntity
  8
0
 62
     0
100
AcDbLine
 10
-34.99219026183526
 20
-280.2698549859189
 30
0.0
 11
-34.61254978408334
 21
-279.890214508167
 31
0.0
  0
LINE
  5
19A0
330
17BC
100
AcDbEntity
  8
0
 62
     0
100
AcDbLine
 10
-34.4505443932725
 20
-279.7282091173562
 30
0.0
 11
-34.25842844365185
 21
-279.5360931677355
 31
0.0
  0
LINE
  5
19A1
330
17BC
100
AcDbEntity
  8
0
 62
     0
100
AcDbLine
 10
-34.61254978408327
 20
-279.8902145081669
 30
0.0
 11
-34.45054439327251
 21
-279.7282091173562
 31
0.0
  0
LINE
  5
19A2
330
17BC
100
AcDbEntity
  8
0
 62
     0
100
AcDbLine
 10
-34.8794813606141
 20
-280.2897286061702
 30
0.0
 11
-34.56548640379791
 21
-279.975733649354
 31
0.0
  0
LINE
  5
19A3
330
17BC
100
AcDbEntity
  8
0
 62
     0
100
AcDbLine
 10
-34.40601639099387
 20
-279.81626363655
 30
0.0
 11
-34.18212969867614
 21
-279.5923769442322
 31
0.0
  0
LINE
  5
19A4
330
17BC
100
AcDbEntity
  8
0
 62
     0
100
AcDbLine
 10
-34.5654864037978
 20
-279.975733649354
 30
0.0
 11
-34.4060163909939
 21
-279.81626363655
 31
0.0
  0
LINE
  5
19A5
330
17BC
100
AcDbEntity
  8
0
 62
     0
100
AcDbLine
 10
-34.76677245939293
 20
-280.3096022264215
 30
0.0
 11
-34.51842302351247
 21
-280.0612527905411
 31
0.0
  0
LINE
  5
19A6
330
17BC
100
AcDbEntity
  8
0
 62
     0
100
AcDbLine
 10
-34.36148838871525
 20
-279.9043181557439
 30
0.0
 11
-34.21610863625688
 21
-279.7589384032855
 31
0.0
  0
LINE
  5
19A7
330
17BC
100
AcDbEntity
  8
0
 62
     0
100
AcDbLine
 10
-34.51842302351233
 20
-280.0612527905409
 30
0.0
 11
-34.36148838871528
 21
-279.9043181557439
 31
0.0
  0
LINE
  5
19A8
330
17BC
100
AcDbEntity
  8
0
 62
     0
100
AcDbLine
 10
-34.65406355817177
 20
-280.3294758466728
 30
0.0
 11
-34.47135964322703
 21
-280.1467719317281
 31
0.0
  0
LINE
  5
19A9
330
17BC
100
AcDbEntity
  8
0
 62
     0
100
AcDbLine
 10
-34.31696038643663
 20
-279.9923726749377
 30
0.0
 11
-34.25008757383762
 21
-279.9254998623387
 31
0.0
  0
LINE
  5
19AA
330
17BC
100
AcDbEntity
  8
0
 62
     0
100
AcDbLine
 10
-34.47135964322686
 20
-280.1467719317279
 30
0.0
 11
-34.31696038643667
 21
-279.9923726749378
 31
0.0
  0
LINE
  5
19AB
330
17BC
100
AcDbEntity
  8
0
 62
     0
100
AcDbLine
 10
-34.54135465695056
 20
-280.3493494669242
 30
0.0
 11
-34.4242962629416
 21
-280.2322910729151
 31
0.0
  0
LINE
  5
19AC
330
17BC
100
AcDbEntity
  8
0
 62
     0
100
AcDbLine
 10
-34.42429626294139
 20
-280.232291072915
 30
0.0
 11
-34.27243238415805
 21
-280.0804271941316
 31
0.0
  0
LINE
  5
19AD
330
17BC
100
AcDbEntity
  8
0
 62
     0
100
AcDbLine
 10
-34.42864575572939
 20
-280.3692230871754
 30
0.0
 11
-34.37723288265617
 21
-280.3178102141022
 31
0.0
  0
LINE
  5
19AE
330
17BC
100
AcDbEntity
  8
0
 62
     0
100
AcDbLine
 10
-34.23763487951733
 20
-280.1782122109634
 30
0.0
 11
-34.22790438187941
 21
-280.1684817133254
 31
0.0
  0
LINE
  5
19AF
330
17BC
100
AcDbEntity
  8
0
 62
     0
100
AcDbLine
 10
-34.37723288265592
 20
-280.317810214102
 30
0.0
 11
-34.32222178119469
 21
-280.2627991126407
 31
0.0
  0
LINE
  5
19B0
330
17BC
100
AcDbEntity
  8
0
 62
     0
100
AcDbLine
 10
-34.3180454489991
 20
-280.2586227804452
 30
0.0
 11
-34.23763487951734
 21
-280.1782122109634
 31
0.0
  0
LINE
  5
19B1
330
17BC
100
AcDbEntity
  8
0
 62
     0
100
AcDbLine
 10
-34.33279649784393
 20
-280.4059563507625
 30
0.0
 11
-34.31594377963411
 21
-280.3891036325526
 31
0.0
  0
LINE
  5
19B2
330
17BC
100
AcDbEntity
  8
0
 62
     0
100
AcDbLine
 10
-34.31594377963405
 20
-280.3891036325526
 30
0.0
 11
-34.12832042519916
 21
-280.2014802781177
 31
0.0
  0
LINE
  5
19B3
330
17BC
100
AcDbEntity
  8
0
 62
     0
100
AcDbLine
 10
-34.2886183190611
 20
-280.4943606934521
 30
0.0
 11
-34.20326302751831
 21
-280.4090054019093
 31
0.0
  0
LINE
  5
19B4
330
17BC
100
AcDbEntity
  8
0
 62
     0
100
AcDbLine
 10
-34.01900597088106
 20
-280.224748345272
 30
0.0
 11
-34.00684354492805
 21
-280.2125859193191
 31
0.0
  0
LINE
  5
19B5
330
17BC
100
AcDbEntity
  8
0
 62
     0
100
AcDbLine
 10
-34.20326302751827
 20
-280.4090054019093
 30
0.0
 11
-34.01900597088101
 21
-280.224748345272
 31
0.0
  0
LINE
  5
19B6
330
17BC
100
AcDbEntity
  8
0
 62
     0
100
AcDbLine
 10
-34.24444014027825
 20
-280.5827650361417
 30
0.0
 11
-34.09058227540249
 21
-280.4289071712659
 31
0.0
  0
LINE
  5
19B7
330
17BC
100
AcDbEntity
  8
0
 62
     0
100
AcDbLine
 10
-33.90969151656292
 20
-280.2480164124263
 30
0.0
 11
-33.73652476279732
 21
-280.0748496586608
 31
0.0
  0
LINE
  5
19B8
330
17BC
100
AcDbEntity
  8
0
 62
     0
100
AcDbLine
 10
-34.09058227540246
 20
-280.4289071712659
 30
0.0
 11
-33.90969151656286
 21
-280.2480164124263
 31
0.0
  0
LINE
  5
19B9
330
17BC
100
AcDbEntity
  8
0
 62
     0
100
AcDbLine
 10
-34.20026196149541
 20
-280.6711693788314
 30
0.0
 11
-33.9779015232867
 21
-280.4488089406227
 31
0.0
  0
LINE
  5
19BA
330
17BC
100
AcDbEntity
  8
0
 62
     0
100
AcDbLine
 10
-33.80037706224471
 20
-280.2712844795807
 30
0.0
 11
-33.56665993146914
 21
-280.0375673488051
 31
0.0
  0
LINE
  5
19BB
330
17BC
100
AcDbEntity
  8
0
 62
     0
100
AcDbLine
 10
-33.97790152328667
 20
-280.4488089406226
 30
0.0
 11
-33.80037706224476
 21
-280.2712844795808
 31
0.0
  0
LINE
  5
19BC
330
17BC
100
AcDbEntity
  8
0
 62
     0
100
AcDbLine
 10
-34.15608378271257
 20
-280.759573721521
 30
0.0
 11
-33.86522077117088
 21
-280.4687107099793
 31
0.0
  0
LINE
  5
19BD
330
17BC
100
AcDbEntity
  8
0
 62
     0
100
AcDbLine
 10
-33.69106260792654
 20
-280.294552546735
 30
0.0
 11
-33.52248175268631
 21
-280.1259716914947
 31
0.0
  0
LINE
  5
19BE
330
17BC
100
AcDbEntity
  8
0
 62
     0
100
AcDbLine
 10
-33.86522077117085
 20
-280.4687107099793
 30
0.0
 11
-33.69106260792662
 21
-280.2945525467351
 31
0.0
  0
LINE
  5
19BF
330
17BC
100
AcDbEntity
  8
0
 62
     0
100
AcDbLine
 10
-34.11190560392971
 20
-280.8479780642106
 30
0.0
 11
-33.75254001905505
 21
-280.488612479336
 31
0.0
  0
LINE
  5
19C0
330
17BC
100
AcDbEntity
  8
0
 62
     0
100
AcDbLine
 10
-33.59453372366715
 20
-280.330606183948
 30
0.0
 11
-33.47830357390347
 21
-280.2143760341844
 31
0.0
  0
LINE
  5
19C1
330
17BC
100
AcDbEntity
  8
0
 62
     0
100
AcDbLine
 10
-33.75254001905507
 20
-280.4886124793359
 30
0.0
 11
-33.59453372366719
 21
-280.3306061839481
 31
0.0
  0
LINE
  5
19C2
330
17BC
100
AcDbEntity
  8
0
 62
     0
100
AcDbLine
 10
-34.06772742514688
 20
-280.9363824069003
 30
0.0
 11
-33.64145204273529
 21
-280.5101070244887
 31
0.0
  0
LINE
  5
19C3
330
17BC
100
AcDbEntity
  8
0
 62
     0
100
AcDbLine
 10
-33.62039977625162
 20
-280.489054758005
 30
0.0
 11
-33.43412539512061
 21
-280.302780376874
 31
0.0
  0
LINE
  5
19C4
330
17BC
100
AcDbEntity
  8
0
 62
     0
100
AcDbLine
 10
-33.64145204273528
 20
-280.5101070244887
 30
0.0
 11
-33.62039977625164
 21
-280.489054758005
 31
0.0
  0
LINE
  5
19C5
330
17BC
100
AcDbEntity
  8
0
 62
     0
100
AcDbLine
 10
-34.02354924636404
 20
-281.0247867495899
 30
0.0
 11
-33.38994721633778
 21
-280.3911847195636
 31
0.0
  0
LINE
  5
19C6
330
17BC
100
AcDbEntity
  8
0
 62
     0
100
AcDbLine
 10
-33.97937106758119
 20
-281.1131910922795
 30
0.0
 11
-33.34576903755494
 21
-280.4795890622533
 31
0.0
  0
LINE
  5
19C7
330
17BC
100
AcDbEntity
  8
0
 62
     0
100
AcDbLine
 10
-33.93519288879836
 20
-281.2015954349691
 30
0.0
 11
-33.30159085877209
 21
-280.567993404943
 31
0.0
  0
LINE
  5
19C8
330
17BC
100
AcDbEntity
  8
0
 62
     0
100
AcDbLine
 10
-33.89101471001551
 20
-281.2899997776588
 30
0.0
 11
-33.25741267998925
 21
-280.6563977476325
 31
0.0
  0
LINE
  5
19C9
330
17BC
100
AcDbEntity
  8
0
 62
     0
100
AcDbLine
 10
-33.84683653123266
 20
-281.3784041203485
 30
0.0
 11
-33.21323450120642
 21
-280.7448020903222
 31
0.0
  0
LINE
  5
19CA
330
17BC
100
AcDbEntity
  8
0
 62
     0
100
AcDbLine
 10
-33.80265835244982
 20
-281.4668084630381
 30
0.0
 11
-33.16905632242356
 21
-280.8332064330118
 31
0.0
  0
LINE
  5
19CB
330
17BC
100
AcDbEntity
  8
0
 62
     0
100
AcDbLine
 10
-33.75848017366698
 20
-281.5552128057277
 30
0.0
 11
-33.12487814364072
 21
-280.9216107757015
 31
0.0
  0
LINE
  5
19CC
330
17BC
100
AcDbEntity
  8
0
 62
     0
100
AcDbLine
 10
-33.71430199488414
 20
-281.6436171484174
 30
0.0
 11
-33.08069996485789
 21
-281.010015118391
 31
0.0
  0
LINE
  5
19CD
330
17BC
100
AcDbEntity
  8
0
 62
     0
100
AcDbLine
 10
-33.6701238161013
 20
-281.732021491107
 30
0.0
 11
-33.03652178607503
 21
-281.0984194610807
 31
0.0
  0
LINE
  5
19CE
330
17BC
100
AcDbEntity
  8
0
 62
     0
100
AcDbLine
 10
-33.62594563731845
 20
-281.8204258337966
 30
0.0
 11
-32.9923436072922
 21
-281.1868238037704
 31
0.0
  0
LINE
  5
19CF
330
17BC
100
AcDbEntity
  8
0
 62
     0
100
AcDbLine
 10
-33.58176745853561
 20
-281.9088301764862
 30
0.0
 11
-32.94816542850937
 21
-281.2752281464601
 31
0.0
  0
LINE
  5
19D0
330
17BC
100
AcDbEntity
  8
0
 62
     0
100
AcDbLine
 10
-33.53758927975277
 20
-281.9972345191759
 30
0.0
 11
-32.90398724972653
 21
-281.3636324891497
 31
0.0
  0
LINE
  5
19D1
330
17BC
100
AcDbEntity
  8
0
 62
     0
100
AcDbLine
 10
-33.49341110096992
 20
-282.0856388618656
 30
0.0
 11
-32.85980907094367
 21
-281.4520368318393
 31
0.0
  0
LINE
  5
19D2
330
17BC
100
AcDbEntity
  8
0
 62
     0
100
AcDbLine
 10
-33.44923292218708
 20
-282.1740432045552
 30
0.0
 11
-32.81563089216084
 21
-281.5404411745289
 31
0.0
  0
LINE
  5
19D3
330
17BC
100
AcDbEntity
  8
0
 62
     0
100
AcDbLine
 10
-33.40505474340423
 20
-282.2624475472448
 30
0.0
 11
-32.771452713378
 21
-281.6288455172186
 31
0.0
  0
LINE
  5
19D4
330
17BC
100
AcDbEntity
  8
0
 62
     0
100
AcDbLine
 10
-33.36087656462139
 20
-282.3508518899345
 30
0.0
 11
-32.72727453459515
 21
-281.7172498599082
 31
0.0
  0
LINE
  5
19D5
330
17BC
100
AcDbEntity
  8
0
 62
     0
100
AcDbLine
 10
-33.31669838583855
 20
-282.4392562326241
 30
0.0
 11
-32.68309635581231
 21
-281.8056542025978
 31
0.0
  0
LINE
  5
19D6
330
17BC
100
AcDbEntity
  8
0
 62
     0
100
AcDbLine
 10
-33.27252020705571
 20
-282.5276605753137
 30
0.0
 11
-32.63891817702948
 21
-281.8940585452875
 31
0.0
  0
LINE
  5
19D7
330
17BC
100
AcDbEntity
  8
0
 62
     0
100
AcDbLine
 10
-33.22834202827287
 20
-282.6160649180033
 30
0.0
 11
-32.59473999824662
 21
-281.9824628879771
 31
0.0
  0
LINE
  5
19D8
330
17BC
100
AcDbEntity
  8
0
 62
     0
100
AcDbLine
 10
-33.18416384949003
 20
-282.704469260693
 30
0.0
 11
-32.55056181946378
 21
-282.0708672306667
 31
0.0
  0
LINE
  5
19D9
330
17BC
100
AcDbEntity
  8
0
 62
     0
100
AcDbLine
 10
-33.13998567070718
 20
-282.7928736033826
 30
0.0
 11
-32.50638364068095
 21
-282.1592715733564
 31
0.0
  0
LINE
  5
19DA
330
17BC
100
AcDbEntity
  8
0
 62
     0
100
AcDbLine
 10
-33.09580749192433
 20
-282.8812779460723
 30
0.0
 11
-32.46220546189811
 21
-282.247675916046
 31
0.0
  0
LINE
  5
19DB
330
17BC
100
AcDbEntity
  8
0
 62
     0
100
AcDbLine
 10
-33.0516293131415
 20
-282.9696822887619
 30
0.0
 11
-32.41802728311526
 21
-282.3360802587357
 31
0.0
  0
LINE
  5
19DC
330
17BC
100
AcDbEntity
  8
0
 62
     0
100
AcDbLine
 10
-33.00745113435866
 20
-283.0580866314516
 30
0.0
 11
-32.37384910433242
 21
-282.4244846014253
 31
0.0
  0
LINE
  5
19DD
330
17BC
100
AcDbEntity
  8
0
 62
     0
100
AcDbLine
 10
-32.96327295557581
 20
-283.1464909741411
 30
0.0
 11
-32.32967092554959
 21
-282.5128889441149
 31
0.0
  0
LINE
  5
19DE
330
17BC
100
AcDbEntity
  8
0
 62
     0
100
AcDbLine
 10
-32.91909477679296
 20
-283.2348953168308
 30
0.0
 11
-32.28549274676673
 21
-282.6012932868045
 31
0.0
  0
LINE
  5
19DF
330
17BC
100
AcDbEntity
  8
0
 62
     0
100
AcDbLine
 10
-32.87491659801013
 20
-283.3232996595204
 30
0.0
 11
-32.24131456798389
 21
-282.6896976294942
 31
0.0
  0
LINE
  5
19E0
330
17BC
100
AcDbEntity
  8
0
 62
     0
100
AcDbLine
 10
-32.83073841922728
 20
-283.4117040022101
 30
0.0
 11
-32.19713638920106
 21
-282.7781019721838
 31
0.0
  0
LINE
  5
19E1
330
17BC
100
AcDbEntity
  8
0
 62
     0
100
AcDbLine
 10
-32.78656024044444
 20
-283.5001083448997
 30
0.0
 11
-32.1529582104182
 21
-282.8665063148735
 31
0.0
  0
LINE
  5
19E2
330
17BC
100
AcDbEntity
  8
0
 62
     0
100
AcDbLine
 10
-32.7423820616616
 20
-283.5885126875893
 30
0.0
 11
-32.10878003163537
 21
-282.9549106575631
 31
0.0
  0
LINE
  5
19E3
330
17BC
100
AcDbEntity
  8
0
 62
     0
100
AcDbLine
 10
-32.69820388287876
 20
-283.6769170302789
 30
0.0
 11
-32.06460185285254
 21
-283.0433150002527
 31
0.0
  0
LINE
  5
19E4
330
17BC
100
AcDbEntity
  8
0
 62
     0
100
AcDbLine
 10
-32.65402570409591
 20
-283.7653213729686
 30
0.0
 11
-32.0204236740697
 21
-283.1317193429424
 31
0.0
  0
LINE
  5
19E5
330
17BC
100
AcDbEntity
  8
0
 62
     0
100
AcDbLine
 10
-32.60984752531307
 20
-283.8537257156582
 30
0.0
 11
-31.97624549528684
 21
-283.220123685632
 31
0.0
  0
LINE
  5
19E6
330
17BC
100
AcDbEntity
  8
0
 62
     0
100
AcDbLine
 10
-32.56566934653022
 20
-283.9421300583479
 30
0.0
 11
-31.93206731650401
 21
-283.3085280283216
 31
0.0
  0
LINE
  5
19E7
330
17BC
100
AcDbEntity
  8
0
 62
     0
100
AcDbLine
 10
-32.52149116774738
 20
-284.0305344010375
 30
0.0
 11
-31.88788913772117
 21
-283.3969323710113
 31
0.0
  0
LINE
  5
19E8
330
17BC
100
AcDbEntity
  8
0
 62
     0
100
AcDbLine
 10
-32.47731298896454
 20
-284.1189387437271
 30
0.0
 11
-31.84371095893832
 21
-283.4853367137009
 31
0.0
  0
LINE
  5
19E9
330
17BC
100
AcDbEntity
  8
0
 62
     0
100
AcDbLine
 10
-32.43313481018169
 20
-284.2073430864168
 30
0.0
 11
-31.79953278015548
 21
-283.5737410563906
 31
0.0
  0
LINE
  5
19EA
330
17BC
100
AcDbEntity
  8
0
 62
     0
100
AcDbLine
 10
-32.38895663139885
 20
-284.2957474291064
 30
0.0
 11
-31.75535460137264
 21
-283.6621453990801
 31
0.0
  0
LINE
  5
19EB
330
17BC
100
AcDbEntity
  8
0
 62
     0
100
AcDbLine
 10
-32.34477845261601
 20
-284.384151771796
 30
0.0
 11
-31.71117642258979
 21
-283.7505497417698
 31
0.0
  0
LINE
  5
19EC
330
17BC
100
AcDbEntity
  8
0
 62
     0
100
AcDbLine
 10
-32.30060027383317
 20
-284.4725561144857
 30
0.0
 11
-31.66699824380695
 21
-283.8389540844595
 31
0.0
  0
LINE
  5
19ED
330
17BC
100
AcDbEntity
  8
0
 62
     0
100
AcDbLine
 10
-32.25642209505032
 20
-284.5609604571753
 30
0.0
 11
-31.62282006502412
 21
-283.9273584271491
 31
0.0
  0
LINE
  5
19EE
330
17BC
100
AcDbEntity
  8
0
 62
     0
100
AcDbLine
 10
-32.21224391626749
 20
-284.649364799865
 30
0.0
 11
-31.57864188624126
 21
-284.0157627698387
 31
0.0
  0
LINE
  5
19EF
330
17BC
100
AcDbEntity
  8
0
 62
     0
100
AcDbLine
 10
-32.16806573748464
 20
-284.7377691425545
 30
0.0
 11
-31.53446370745843
 21
-284.1041671125284
 31
0.0
  0
LINE
  5
19F0
330
17BC
100
AcDbEntity
  8
0
 62
     0
100
AcDbLine
 10
-32.1238875587018
 20
-284.8261734852442
 30
0.0
 11
-31.49028552867559
 21
-284.192571455218
 31
0.0
  0
LINE
  5
19F1
330
17BC
100
AcDbEntity
  8
0
 62
     0
100
AcDbLine
 10
-32.07970937991895
 20
-284.9145778279338
 30
0.0
 11
-31.44610734989275
 21
-284.2809757979077
 31
0.0
  0
LINE
  5
19F2
330
17BC
100
AcDbEntity
  8
0
 62
     0
100
AcDbLine
 10
-32.03553120113612
 20
-285.0029821706235
 30
0.0
 11
-31.4019291711099
 21
-284.3693801405972
 31
0.0
  0
LINE
  5
19F3
330
17BC
100
AcDbEntity
  8
0
 62
     0
100
AcDbLine
 10
-31.99135302235327
 20
-285.0913865133131
 30
0.0
 11
-31.35775099232706
 21
-284.4577844832869
 31
0.0
  0
LINE
  5
19F4
330
17BC
100
AcDbEntity
  8
0
 62
     0
100
AcDbLine
 10
-31.94717484357042
 20
-285.1797908560028
 30
0.0
 11
-31.31357281354423
 21
-284.5461888259766
 31
0.0
  0
LINE
  5
19F5
330
17BC
100
AcDbEntity
  8
0
 62
     0
100
AcDbLine
 10
-31.90299666478758
 20
-285.2681951986924
 30
0.0
 11
-31.26939463476138
 21
-284.6345931686662
 31
0.0
  0
LINE
  5
19F6
330
17BC
100
AcDbEntity
  8
0
 62
     0
100
AcDbLine
 10
-31.85881848600474
 20
-285.356599541382
 30
0.0
 11
-31.22521645597854
 21
-284.7229975113558
 31
0.0
  0
LINE
  5
19F7
330
17BC
100
AcDbEntity
  8
0
 62
     0
100
AcDbLine
 10
-31.8146403072219
 20
-285.4450038840717
 30
0.0
 11
-31.1810382771957
 21
-284.8114018540455
 31
0.0
  0
LINE
  5
19F8
330
17BC
100
AcDbEntity
  8
0
 62
     0
100
AcDbLine
 10
-31.77046212843906
 20
-285.5334082267613
 30
0.0
 11
-31.13686009841285
 21
-284.8998061967351
 31
0.0
  0
LINE
  5
19F9
330
17BC
100
AcDbEntity
  8
0
 62
     0
100
AcDbLine
 10
-31.72628394965622
 20
-285.6218125694509
 30
0.0
 11
-31.09268191963001
 21
-284.9882105394248
 31
0.0
  0
LINE
  5
19FA
330
17BC
100
AcDbEntity
  8
0
 62
     0
100
AcDbLine
 10
-31.68210577087337
 20
-285.7102169121406
 30
0.0
 11
-31.04850374084718
 21
-285.0766148821143
 31
0.0
  0
LINE
  5
19FB
330
17BC
100
AcDbEntity
  8
0
 62
     0
100
AcDbLine
 10
-31.63792759209052
 20
-285.7986212548302
 30
0.0
 11
-31.00432556206434
 21
-285.165019224804
 31
0.0
  0
LINE
  5
19FC
330
17BC
100
AcDbEntity
  8
0
 62
     0
100
AcDbLine
 10
-31.59374941330769
 20
-285.8870255975199
 30
0.0
 11
-30.96014738328149
 21
-285.2534235674937
 31
0.0
  0
LINE
  5
19FD
330
17BC
100
AcDbEntity
  8
0
 62
     0
100
AcDbLine
 10
-31.50332316272872
 20
-285.9291818684134
 30
0.0
 11
-30.91596920449865
 21
-285.3418279101833
 31
0.0
  0
LINE
  5
19FE
330
17BC
100
AcDbEntity
  8
0
 62
     0
100
AcDbLine
 10
-31.37157195278595
 20
-285.9300131799431
 30
0.0
 11
-30.87179102571581
 21
-285.4302322528729
 31
0.0
  0
LINE
  5
19FF
330
17BC
100
AcDbEntity
  8
0
 62
     0
100
AcDbLine
 10
-31.23982074284319
 20
-285.9308444914728
 30
0.0
 11
-30.82761284693296
 21
-285.5186365955626
 31
0.0
  0
LINE
  5
1A00
330
17BC
100
AcDbEntity
  8
0
 62
     0
100
AcDbLine
 10
-31.25232952633624
 20
-286.0759357964383
 30
0.0
 11
-31.16460760049095
 21
-285.988213870593
 31
0.0
  0
LINE
  5
1A01
330
17BC
100
AcDbEntity
  8
0
 62
     0
100
AcDbLine
 10
-31.10806953290039
 20
-285.9316758030024
 30
0.0
 11
-30.78343466815012
 21
-285.6070409382521
 31
0.0
  0
LINE
  5
1A02
330
17BC
100
AcDbEntity
  8
0
 62
     0
100
AcDbLine
 10
-31.15811563536502
 20
-285.981721905467
 30
0.0
 11
-31.10806953290039
 21
-285.9316758030025
 31
0.0
  0
LINE
  5
1A03
330
17BC
100
AcDbEntity
  8
0
 62
     0
100
AcDbLine
 10
-31.12177404626793
 20
-286.0779628378424
 30
0.0
 11
-31.0328563905482
 21
-285.9890451821227
 31
0.0
  0
LINE
  5
1A04
330
17BC
100
AcDbEntity
  8
0
 62
     0
100
AcDbLine
 10
-30.97631832295762
 20
-285.9325071145322
 30
0.0
 11
-30.73925648936729
 21
-285.6954452809418
 31
0.0
  0
LINE
  5
1A05
330
17BC
100
AcDbEntity
  8
0
 62
     0
100
AcDbLine
 10
-30.99002283632514
 20
-286.0787941493721
 30
0.0
 11
-30.93156545569635
 21
-286.0203367687433
 31
0.0
  0
LINE
  5
1A06
330
17BC
100
AcDbEntity
  8
0
 62
     0
100
AcDbLine
 10
-30.84456711301486
 20
-285.9333384260619
 30
0.0
 11
-30.69507831058443
 21
-285.7838496236314
 31
0.0
  0
LINE
  5
1A07
330
17BC
100
AcDbEntity
  8
0
 62
     0
100
AcDbLine
 10
-30.7128159030721
 20
-285.9341697375916
 30
0.0
 11
-30.6509001318016
 21
-285.8722539663211
 31
0.0
  0
ENDBLK
  5
1A08
330
17BC
100
AcDbEntity
  8
0
100
AcDbBlockEnd
  0
ENDSEC
  0
SECTION
  2
ENTITIES
  0
LINE
  5
1F0
330
34E
100
AcDbEntity
  8
0
 62
     7
100
AcDbLine
 10
98.08141988167598
 20
-14.20556150488821
 30
0.0
 11
98.08141988167603
 21
419.7944384951117
 31
0.0
  0
LINE
  5
1F1
330
34E
100
AcDbEntity
  8
0
 62
     7
100
AcDbLine
 10
115.9564198816759
 20
-14.20556150488823
 30
0.0
 11
115.9564198816761
 21
419.7944384951117
 31
0.0
  0
LINE
  5
1F2
330
34E
100
AcDbEntity
  8
0
 62
     7
100
AcDbLine
 10
117.0189198816759
 20
-14.20556150488823
 30
0.0
 11
117.018919881676
 21
419.7944384951117
 31
0.0
  0
LINE
  5
1F3
330
34E
100
AcDbEntity
  8
0
 62
     7
100
AcDbLine
 10
97.01891988167597
 20
-14.20556150488821
 30
0.0
 11
97.01891988167602
 21
419.7944384951117
 31
0.0
  0
LINE
  5
1F4
330
34E
100
AcDbEntity
  8
0
 62
     7
100
AcDbLine
 10
97.01891988167597
 20
-14.20556150488821
 30
0.0
 11
98.08141988167598
 21
-14.20556150488821
 31
0.0
  0
LINE
  5
1F5
330
34E
100
AcDbEntity
  8
0
 62
     7
100
AcDbLine
 10
117.0189198816759
 20
-14.20556150488823
 30
0.0
 11
115.9564198816759
 21
-14.20556150488823
 31
0.0
  0
LINE
  5
1F6
330
34E
100
AcDbEntity
  8
0
 62
     7
100
AcDbLine
 10
115.9564198816759
 20
371.7944384951118
 30
0.0
 11
108.0189198816761
 21
371.7944384951118
 31
0.0
  0
LINE
  5
1F7
330
34E
100
AcDbEntity
  8
0
 62
     7
100
AcDbLine
 10
115.9564198816759
 20
371.0444384951117
 30
0.0
 11
108.0189198816761
 21
371.0444384951117
 31
0.0
  0
LINE
  5
1F8
330
34E
100
AcDbEntity
  8
0
 62
     7
100
AcDbLine
 10
115.9564198816759
 20
359.0444384951118
 30
0.0
 11
108.0189198816761
 21
359.0444384951118
 31
0.0
  0
LINE
  5
1F9
330
34E
100
AcDbEntity
  8
0
 62
     7
100
AcDbLine
 10
115.9564198816759
 20
359.7944384951118
 30
0.0
 11
108.0189198816761
 21
359.7944384951118
 31
0.0
  0
LINE
  5
1FA
330
34E
100
AcDbEntity
  8
0
 62
     7
100
AcDbLine
 10
115.9564198816759
 20
347.0444384951118
 30
0.0
 11
108.0189198816761
 21
347.0444384951118
 31
0.0
  0
LINE
  5
1FB
330
34E
100
AcDbEntity
  8
0
 62
     7
100
AcDbLine
 10
115.9564198816759
 20
347.7944384951118
 30
0.0
 11
108.0189198816761
 21
347.7944384951118
 31
0.0
  0
LINE
  5
1FC
330
34E
100
AcDbEntity
  8
0
 62
     7
100
AcDbLine
 10
115.9564198816759
 20
335.0444384951118
 30
0.0
 11
108.018919881676
 21
335.0444384951118
 31
0.0
  0
LINE
  5
1FD
330
34E
100
AcDbEntity
  8
0
 62
     7
100
AcDbLine
 10
115.9564198816759
 20
335.7944384951118
 30
0.0
 11
108.018919881676
 21
335.7944384951118
 31
0.0
  0
LINE
  5
1FE
330
34E
100
AcDbEntity
  8
0
 62
     7
100
AcDbLine
 10
115.9564198816759
 20
323.0444384951117
 30
0.0
 11
108.018919881676
 21
323.0444384951117
 31
0.0
  0
LINE
  5
1FF
330
34E
100
AcDbEntity
  8
0
 62
     7
100
AcDbLine
 10
115.9564198816759
 20
323.7944384951118
 30
0.0
 11
108.018919881676
 21
323.7944384951118
 31
0.0
  0
LINE
  5
200
330
34E
100
AcDbEntity
  8
0
 62
     7
100
AcDbLine
 10
115.9564198816759
 20
311.0444384951118
 30
0.0
 11
108.018919881676
 21
311.0444384951118
 31
0.0
  0
LINE
  5
201
330
34E
100
AcDbEntity
  8
0
 62
     7
100
AcDbLine
 10
115.9564198816759
 20
311.7944384951118
 30
0.0
 11
108.018919881676
 21
311.7944384951118
 31
0.0
  0
LINE
  5
202
330
34E
100
AcDbEntity
  8
0
 62
     7
100
AcDbLine
 10
115.9564198816759
 20
299.0444384951118
 30
0.0
 11
108.018919881676
 21
299.0444384951118
 31
0.0
  0
LINE
  5
203
330
34E
100
AcDbEntity
  8
0
 62
     7
100
AcDbLine
 10
115.9564198816759
 20
299.7944384951118
 30
0.0
 11
108.018919881676
 21
299.7944384951118
 31
0.0
  0
LINE
  5
204
330
34E
100
AcDbEntity
  8
0
 62
     7
100
AcDbLine
 10
115.9564198816759
 20
287.0444384951118
 30
0.0
 11
108.018919881676
 21
287.0444384951118
 31
0.0
  0
LINE
  5
205
330
34E
100
AcDbEntity
  8
0
 62
     7
100
AcDbLine
 10
115.9564198816759
 20
287.7944384951117
 30
0.0
 11
108.018919881676
 21
287.7944384951117
 31
0.0
  0
LINE
  5
206
330
34E
100
AcDbEntity
  8
0
 62
     7
100
AcDbLine
 10
115.9564198816759
 20
275.0444384951117
 30
0.0
 11
108.018919881676
 21
275.0444384951117
 31
0.0
  0
LINE
  5
207
330
34E
100
AcDbEntity
  8
0
 62
     7
100
AcDbLine
 10
115.9564198816759
 20
275.7944384951118
 30
0.0
 11
108.018919881676
 21
275.7944384951118
 31
0.0
  0
LINE
  5
208
330
34E
100
AcDbEntity
  8
0
 62
     7
100
AcDbLine
 10
115.9564198816759
 20
263.0444384951118
 30
0.0
 11
108.018919881676
 21
263.0444384951118
 31
0.0
  0
LINE
  5
209
330
34E
100
AcDbEntity
  8
0
 62
     7
100
AcDbLine
 10
115.9564198816759
 20
263.7944384951118
 30
0.0
 11
108.018919881676
 21
263.7944384951118
 31
0.0
  0
LINE
  5
20A
330
34E
100
AcDbEntity
  8
0
 62
     7
100
AcDbLine
 10
115.9564198816759
 20
251.0444384951118
 30
0.0
 11
108.018919881676
 21
251.0444384951118
 31
0.0
  0
LINE
  5
20B
330
34E
100
AcDbEntity
  8
0
 62
     7
100
AcDbLine
 10
115.9564198816759
 20
251.7944384951118
 30
0.0
 11
108.018919881676
 21
251.7944384951118
 31
0.0
  0
LINE
  5
20C
330
34E
100
AcDbEntity
  8
0
 62
     6
100
AcDbLine
 10
13.64089008900316
 20
-14.20556150488821
 30
0.0
 11
13.64089008900322
 21
422.9804237732819
 31
0.0
  0
LINE
  5
20D
330
34E
100
AcDbEntity
  8
0
 62
     6
100
AcDbLine
 10
13.64089008900316
 20
-14.20556150488821
 30
0.0
 11
37.64089008900317
 21
-14.20556150488823
 31
0.0
  0
LINE
  5
20E
330
34E
100
AcDbEntity
  8
0
 62
     7
100
AcDbLine
 10
22.14089008900316
 20
-14.20556150488823
 30
0.0
 11
22.14089008900322
 21
419.7944384951117
 31
0.0
  0
LINE
  5
20F
330
34E
100
AcDbEntity
  8
0
 62
     7
100
AcDbLine
 10
19.64089008900316
 20
-14.20556150488821
 30
0.0
 11
19.64089008900322
 21
-6.205561504888208
 31
0.0
  0
LINE
  5
210
330
34E
100
AcDbEntity
  8
0
 62
     7
100
AcDbLine
 10
13.64089008900316
 20
365.7944384951118
 30
0.0
 11
22.14089008900316
 21
365.7944384951118
 31
0.0
  0
LINE
  5
211
330
34E
100
AcDbEntity
  8
0
 62
     7
100
AcDbLine
 10
13.64089008900316
 20
362.7944384951117
 30
0.0
 11
22.14089008900316
 21
362.7944384951117
 31
0.0
  0
LINE
  5
21E
330
34E
100
AcDbEntity
  8
0
 62
     7
100
AcDbLine
 10
13.64089008900316
 20
317.7944384951118
 30
0.0
 11
22.14089008900316
 21
317.7944384951118
 31
0.0
  0
LINE
  5
21F
330
34E
100
AcDbEntity
  8
0
 62
     7
100
AcDbLine
 10
13.64089008900316
 20
314.7944384951117
 30
0.0
 11
22.14089008900316
 21
314.7944384951117
 31
0.0
  0
LINE
  5
22C
330
34E
100
AcDbEntity
  8
0
 62
     7
100
AcDbLine
 10
13.64089008900316
 20
269.7944384951118
 30
0.0
 11
22.14089008900316
 21
269.7944384951118
 31
0.0
  0
LINE
  5
22D
330
34E
100
AcDbEntity
  8
0
 62
     7
100
AcDbLine
 10
13.64089008900316
 20
266.7944384951117
 30
0.0
 11
22.14089008900316
 21
266.7944384951117
 31
0.0
  0
LINE
  5
23A
330
34E
100
AcDbEntity
  8
0
 62
     7
100
AcDbLine
 10
13.64089008900316
 20
122.7944384951118
 30
0.0
 11
22.14089008900316
 21
122.7944384951118
 31
0.0
  0
LINE
  5
23B
330
34E
100
AcDbEntity
  8
0
 62
     7
100
AcDbLine
 10
13.64089008900316
 20
125.7944384951118
 30
0.0
 11
22.14089008900316
 21
125.7944384951118
 31
0.0
  0
LINE
  5
248
330
34E
100
AcDbEntity
  8
0
 62
     7
100
AcDbLine
 10
19.64089008900316
 20
365.7944384951118
 30
0.0
 11
19.64089008900322
 21
410.7944384951117
 31
0.0
  0
LINE
  5
249
330
34E
100
AcDbEntity
  8
0
 62
     7
100
AcDbLine
 10
19.64089008900316
 20
317.7944384951118
 30
0.0
 11
19.64089008900316
 21
362.7944384951117
 31
0.0
  0
LINE
  5
24A
330
34E
100
AcDbEntity
  8
0
 62
     7
100
AcDbLine
 10
19.64089008900316
 20
269.7944384951118
 30
0.0
 11
19.64089008900316
 21
314.7944384951117
 31
0.0
  0
LINE
  5
24B
330
34E
100
AcDbEntity
  8
0
 62
     7
100
AcDbLine
 10
19.64089008900316
 20
125.7944384951118
 30
0.0
 11
19.64089008900316
 21
170.7944384951118
 31
0.0
  0
TEXT
  5
29A
330
34E
100
AcDbEntity
  8
0
 62
     5
100
AcDbText
 10
-136.0558565301654
 20
437.9145043242579
 30
0.0
 40
6.761173270797729
  1
FIXED LADDER w/OVERSHOOT & FALL ARREST SYSTEM
  7
ROMANC
100
AcDbText
  0
DIMENSION
  5
2A5
330
34E
100
AcDbEntity
  8
0
 62
     7
100
AcDbDimension
  2
*D3
 10
128.3835626692073
 20
347.7944384951117
 30
0.0
 11
128.3835626692073
 21
341.8495611734832
 31
0.0
 70
   160
  1
{12" TYP}
 71
     5
 42
12.0
  3
STANDARD$0
100
AcDbAlignedDimension
 13
115.9564198816759
 23
335.7944384951118
 33
0.0
 14
115.9564198816759
 24
347.7944384951118
 34
0.0
 50
90.0
100
AcDbRotatedDimension
1001
ACAD
1000
DSTYLE
1002
{
1070
   140
1040
0.125
1002
}
  0
DIMENSION
  5
2A6
330
34E
100
AcDbEntity
  8
0
 62
     7
100
AcDbDimension
  2
*D2
 10
97.01891988167597
 20
-17.87861105331348
 30
0.0
 11
107.018919881676
 21
-17.87861105331348
 31
0.0
 70
    32
  1
{20"}
 71
     5
 42
20.0
  3
STANDARD$0
100
AcDbAlignedDimension
 13
117.0189198816759
 23
-14.20556150488841
 33
0.0
 14
97.01891988167597
 24
-14.20556150488841
 34
0.0
100
AcDbRotatedDimension
1001
ACAD
1000
DSTYLE
1002
{
1070
   140
1040
0.125
1002
}
  0
TEXT
  5
2A7
330
34E
100
AcDbEntity
  8
0
 62
     5
100
AcDbText
 10
-116.4166197151915
 20
-14.66495004246425
 30
0.0
 40
5.596593749999999
  1
FACTORY FINISH
  7
ROMANS
 72
     1
 11
-82.70380498304863
 21
-14.66495004246425
 31
0.0
100
AcDbText
  0
TEXT
  5
2A8
330
34E
100
AcDbEntity
  8
0
 62
     5
100
AcDbText
 10
-130.90113734912
 20
-23.72610182817858
 30
0.0
 40
5.596593749999999
  1
%%OALUMINUM-MILL FINISH
  7
ROMANS
 72
     1
 11
-82.70380498304863
 21
-23.72610182817858
 31
0.0
100
AcDbText
  0
TEXT
  5
2AB
330
34E
100
AcDbEntity
  8
0
 62
     7
100
AcDbText
 10
27.13731211935062
 20
350.3676428018838
 30
0.0
 40
2.12256
  1
2-1/2" ALUMINUM
  7
ROMANS
 72
     1
 11
42.24791783363634
 21
350.3676428018838
 31
0.0
100
AcDbText
  0
TEXT
  5
2AC
330
34E
100
AcDbEntity
  8
0
 62
     7
100
AcDbText
 10
27.28892354792205
 20
346.9311170875981
 30
0.0
 40
2.12256
  1
CHANNEL SIDERAIL
  7
ROMANS
 72
     1
 11
42.24791783363634
 21
346.9311170875981
 31
0.0
100
AcDbText
  0
TEXT
  5
2AD
330
34E
100
AcDbEntity
  8
0
 62
     7
100
AcDbText
 10
33.65660354792205
 20
343.4945913733124
 30
0.0
 40
2.12256
  1
(6005-T5)
  7
ROMANS
 72
     1
 11
42.24791783363634
 21
343.4945913733124
 31
0.0
100
AcDbText
  0
TEXT
  5
2AE
330
34E
100
AcDbEntity
  8
0
 62
     7
100
AcDbText
 10
62.44481180830884
 20
250.8207673706319
 30
0.0
 40
2.12256
  1
2-1/4" SERRATED
  7
ROMANS
 72
     1
 11
77.50488037973742
 21
250.8207673706319
 31
0.0
100
AcDbText
  0
TEXT
  5
2AF
330
34E
100
AcDbEntity
  8
0
 62
     7
100
AcDbText
 10
63.80931466545169
 20
247.3842416563462
 30
0.0
 40
2.12256
  1
ALUMINUM TREAD
  7
ROMANS
 72
     1
 11
77.50488037973742
 21
247.3842416563462
 31
0.0
100
AcDbText
  0
TEXT
  5
2B0
330
34E
100
AcDbEntity
  8
0
 62
     7
100
AcDbText
 10
68.91356609402312
 20
243.9477159420604
 30
0.0
 40
2.12256
  1
(6005-T5)
  7
ROMANS
 72
     1
 11
77.50488037973742
 21
243.9477159420604
 31
0.0
100
AcDbText
  0
LINE
  5
2B1
330
34E
100
AcDbEntity
  8
0
 62
     7
100
AcDbLine
 10
101.3103059334747
 20
244.905404731041
 30
0.0
 11
86.81769252208676
 21
244.905404731041
 31
0.0
  0
LINE
  5
2B2
330
34E
100
AcDbEntity
  8
0
 62
     7
100
AcDbLine
 10
104.5210264749471
 20
241.2265345464022
 30
0.0
 11
101.3103059334747
 21
244.905404731041
 31
0.0
  0
SOLID
  5
2B3
330
34E
100
AcDbEntity
  8
0
 62
     7
100
AcDbTrace
 10
104.282343799732
 20
241.0182251117811
 30
0.0
 11
104.7597091501623
 21
241.4348439810234
 31
0.0
 12
105.7708830826739
 22
239.7944384951118
 32
0.0
 13
105.7708830826739
 23
239.7944384951118
 33
0.0
  0
LINE
  5
2B4
330
34E
100
AcDbEntity
  8
0
 62
     7
100
AcDbLine
 10
26.6014672382023
 20
344.41056631374
 30
0.0
 11
32.54418360634213
 21
344.41056631374
 31
0.0
  0
LINE
  5
2B5
330
34E
100
AcDbEntity
  8
0
 62
     7
100
AcDbLine
 10
23.39074669672994
 20
340.7316961291012
 30
0.0
 11
26.6014672382023
 21
344.41056631374
 31
0.0
  0
SOLID
  5
2B6
330
34E
100
AcDbEntity
  8
0
 62
     7
100
AcDbTrace
 10
23.62942937194504
 20
340.5233866944801
 30
0.0
 11
23.15206402151489
 21
340.9400055637224
 31
0.0
 12
22.14089008900316
 22
339.2996000778107
 32
0.0
 13
22.14089008900316
 23
339.2996000778107
 33
0.0
  0
LINE
  5
2B8
330
34E
100
AcDbEntity
  8
0
 62
     7
100
AcDbLine
 10
115.9564198816759
 20
239.7944384951118
 30
0.0
 11
108.018919881676
 21
239.7944384951118
 31
0.0
  0
LINE
  5
2B9
330
34E
100
AcDbEntity
  8
0
 62
     7
100
AcDbLine
 10
115.9564198816759
 20
239.0444384951118
 30
0.0
 11
108.018919881676
 21
239.0444384951118
 31
0.0
  0
LINE
  5
2BA
330
34E
100
AcDbEntity
  8
0
 62
     7
100
AcDbLine
 10
19.64089008900322
 20
419.7944384951117
 30
0.0
 11
22.14089008900322
 21
419.7944384951117
 31
0.0
  0
LINE
  5
2BB
330
34E
100
AcDbEntity
  8
0
 62
     7
100
AcDbLine
 10
115.9564198816761
 20
419.7944384951117
 30
0.0
 11
117.018919881676
 21
419.7944384951117
 31
0.0
  0
LINE
  5
2BC
330
34E
100
AcDbEntity
  8
0
 62
     7
100
AcDbLine
 10
97.01891988167602
 20
419.7944384951117
 30
0.0
 11
98.08141988167603
 21
419.7944384951117
 31
0.0
  0
LINE
  5
2BD
330
34E
100
AcDbEntity
  8
0
 62
     7
100
AcDbLine
 10
115.9564198816759
 20
383.0444384951118
 30
0.0
 11
108.0189198816761
 21
383.0444384951118
 31
0.0
  0
LINE
  5
2BE
330
34E
100
AcDbEntity
  8
0
 62
     7
100
AcDbLine
 10
115.9564198816759
 20
383.7944384951118
 30
0.0
 11
108.0189198816761
 21
383.7944384951118
 31
0.0
  0
LINE
  5
2BF
330
34E
100
AcDbEntity
  8
0
 62
     7
100
AcDbLine
 10
115.9564198816759
 20
395.0444384951118
 30
0.0
 11
108.0189198816761
 21
395.0444384951118
 31
0.0
  0
LINE
  5
2C0
330
34E
100
AcDbEntity
  8
0
 62
     7
100
AcDbLine
 10
115.9564198816759
 20
395.7944384951117
 30
0.0
 11
108.0189198816761
 21
395.7944384951117
 31
0.0
  0
LINE
  5
2C1
330
34E
100
AcDbEntity
  8
0
 62
     7
100
AcDbLine
 10
115.9564198816761
 20
407.0444384951117
 30
0.0
 11
108.0189198816761
 21
407.0444384951118
 31
0.0
  0
LINE
  5
2C2
330
34E
100
AcDbEntity
  8
0
 62
     7
100
AcDbLine
 10
115.9564198816761
 20
407.7944384951117
 30
0.0
 11
108.0189198816761
 21
407.7944384951117
 31
0.0
  0
LINE
  5
2C3
330
34E
100
AcDbEntity
  8
0
 62
     7
100
AcDbLine
 10
115.9564198816761
 20
419.0444384951117
 30
0.0
 11
108.0189198816761
 21
419.0444384951117
 31
0.0
  0
LINE
  5
2C4
330
34E
100
AcDbEntity
  8
0
 62
     7
100
AcDbLine
 10
115.9564198816761
 20
419.7944384951117
 30
0.0
 11
108.0189198816761
 21
419.7944384951117
 31
0.0
  0
DIMENSION
  5
2C5
330
34E
100
AcDbEntity
  8
0
 62
     7
100
AcDbDimension
  2
*D1
 10
139.280227956548
 20
419.7944384951116
 30
0.0
 11
139.280227956548
 21
395.7944384951117
 31
0.0
 70
    32
  1
{4'-0"}
 71
     5
 42
48.0
  3
STANDARD$0
100
AcDbAlignedDimension
 13
115.9564198816759
 23
371.7944384951118
 33
0.0
 14
117.018919881676
 24
419.7944384951117
 34
0.0
 50
90.0
100
AcDbRotatedDimension
1001
ACAD
1000
DSTYLE
1002
{
1070
   140
1040
0.125
1002
}
  0
TEXT
  5
2C6
330
34E
100
AcDbEntity
  8
0
 62
     7
100
AcDbText
 10
119.3561110619691
 20
375.9982617665033
 30
0.0
 40
2.12256
  1
MEZZANINE
  7
ROMANS
 72
     1
 11
128.1495739191119
 21
375.9982617665033
 31
0.0
100
AcDbText
  0
TEXT
  5
2C7
330
34E
100
AcDbEntity
  8
0
 62
     7
100
AcDbText
 10
123.4496196333976
 20
372.5617360522175
 30
0.0
 40
2.12256
  1
LEVEL
  7
ROMANS
 72
     1
 11
128.1495739191119
 21
372.5617360522175
 31
0.0
100
AcDbText
  0
LINE
  5
2C8
330
34E
100
AcDbEntity
  8
0
 62
     7
100
AcDbLine
 10
13.64089008900322
 20
410.7944384951117
 30
0.0
 11
22.14089008900322
 21
410.7944384951117
 31
0.0
  0
LINE
  5
2C9
330
34E
100
AcDbEntity
  8
0
 62
     7
100
AcDbLine
 10
13.64089008900322
 20
413.7944384951117
 30
0.0
 11
22.14089008900322
 21
413.7944384951117
 31
0.0
  0
LINE
  5
2D6
330
34E
100
AcDbEntity
  8
0
 62
     7
100
AcDbLine
 10
19.64089008900322
 20
413.7944384951117
 30
0.0
 11
19.64089008900322
 21
419.7944384951117
 31
0.0
  0
TEXT
  5
2D8
330
34E
100
AcDbEntity
  8
0
 62
     7
100
AcDbText
 10
-130.1611120730399
 20
117.8725842763955
 30
0.0
 40
3.35801953125
  1
NOTE:
  7
ROMANS
100
AcDbText
  0
TEXT
  5
2D9
330
34E
100
AcDbEntity
  8
0
 62
     7
100
AcDbText
 10
-130.1611120730399
 20
112.4357907496097
 30
0.0
 40
3.35801953125
  1
ALL BOLTS/FASTENERS
  7
ROMANS
100
AcDbText
  0
TEXT
  5
2DA
330
34E
100
AcDbEntity
  8
0
 62
     7
100
AcDbText
 10
-130.1611120730399
 20
106.9989972228241
 30
0.0
 40
3.35801953125
  1
NECESSARY TO ANCHOR
  7
ROMANS
100
AcDbText
  0
TEXT
  5
2DB
330
34E
100
AcDbEntity
  8
0
 62
     7
100
AcDbText
 10
-130.1611120730399
 20
101.5622036960384
 30
0.0
 40
3.35801953125
  1
LADDER ARE BY OTHERS.
  7
ROMANS
100
AcDbText
  0
INSERT
  5
2F1
330
34E
100
AcDbEntity
  8
0
100
AcDbBlockReference
  2
LINETYPE
 10
0.0
 20
0.0
 30
0.0
  0
INSERT
  5
9B5
330
34E
100
AcDbEntity
  8
0
100
AcDbBlockReference
  2
LINETYPE
 10
-36.9243128877539
 20
-29.22154611677752
 30
0.0
  0
INSERT
  5
A74
330
34E
100
AcDbEntity
  8
0
100
AcDbBlockReference
  2
Border
 10
190.9971794909888
 20
-31.60819735341303
 30
0.0
 41
1.740234374999992
 42
1.740234374999992
 43
1.740234375
 50
90.0
  0
INSERT
  5
A86
330
34E
100
AcDbEntity
  8
0
100
AcDbBlockReference
 66
     1
  2
border-T
 10
218.520265047504
 20
-30.37405791912564
 30
0.0
 41
1.740234374999992
 42
1.740234374999992
 43
1.740234375
 50
90.0
  0
ATTRIB
  5
A87
330
A86
100
AcDbEntity
  8
0
 62
     5
100
AcDbText
 10
189.0181401631277
 20
-28.16291955139377
 30
0.0
 40
3.91552734375
  1

 50
90.0
  7
ROMANS
100
AcDbAttribute
  2
SCALE
 70
     0
  0
ATTRIB
  5
A88
330
A86
100
AcDbEntity
  8
0
100
AcDbText
 10
174.4472688241844
 20
412.5252980777349
 30
0.0
 40
3.048605117797852
  1
FL-13-FAS
 50
90.0
  7
ROMANS
 72
     4
 11
172.9229662652855
 21
425.8810919271351
 31
0.0
100
AcDbAttribute
  2
SAVEDAS
 70
     0
  0
ATTRIB
  5
A89
330
A86
100
AcDbEntity
  8
0
 62
     5
100
AcDbText
 10
195.0425967315857
 20
84.08519940990036
 30
0.0
 40
2.172094008501838
  1

 50
180.0
  7
ROMANS
 72
     4
 11
195.0425967315857
 21
84.08519940990036
 31
0.0
100
AcDbAttribute
  2
X
 70
     0
  0
ATTRIB
  5
A8A
330
A86
100
AcDbEntity
  8
0
100
AcDbText
 10
199.0847986613533
 20
179.8059153527232
 30
0.0
 40
3.078526319196428
  1

 50
90.0
  7
ROMANS
 72
     1
 11
199.0847986613533
 21
179.8059153527232
 31
0.0
100
AcDbAttribute
  2
ARCHORENG
 70
     0
  0
ATTRIB
  5
A8B
330
A86
100
AcDbEntity
  8
0
100
AcDbText
 10
208.0529615366176
 20
179.8059153527232
 30
0.0
 40
3.078526319196428
  1

 50
90.0
  7
ROMANS
 72
     1
 11
208.0529615366176
 21
179.8059153527232
 31
0.0
100
AcDbAttribute
  2
PURCHASEORDER
 70
     0
  0
ATTRIB
  5
A8C
330
A86
100
AcDbEntity
  8
0
100
AcDbText
 10
217.0211244118822
 20
175.0415293825383
 30
0.0
 40
3.078526319196428
  1
DNH
 50
90.0
  7
ROMANS
 72
     1
 11
217.0211244118822
 21
179.8059153527232
 31
0.0
100
AcDbAttribute
  2
DRAWNBY
 70
     0
  0
ATTRIB
  5
A8D
330
A86
100
AcDbEntity
  8
0
100
AcDbText
 10
208.0529615366176
 20
232.4548418315181
 30
0.0
 40
3.078526319196428
  1

 50
90.0
  7
ROMANS
 72
     1
 11
208.0529615366176
 21
232.4548418315181
 31
0.0
100
AcDbAttribute
  2
DATE
 70
     0
  0
ATTRIB
  5
A8E
330
A86
100
AcDbEntity
  8
0
100
AcDbText
 10
217.0211244118822
 20
223.80564883949
 30
0.0
 40
3.078526319196428
  1
9/1/21
 50
90.0
  7
ROMANS
 72
     1
 11
217.0211244118822
 21
232.4548418315181
 31
0.0
100
AcDbAttribute
  2
DATE
 70
     0
  0
ATTRIB
  5
A8F
330
A86
100
AcDbEntity
  8
0
100
AcDbText
 10
199.0847986613533
 20
285.1037683103127
 30
0.0
 40
3.078526319196428
  1

 50
90.0
  7
ROMANS
 72
     1
 11
199.0847986613533
 21
285.1037683103127
 31
0.0
100
AcDbAttribute
  2
PROJECT
 70
     0
  0
ATTRIB
  5
A90
330
A86
100
AcDbEntity
  8
0
100
AcDbText
 10
208.0529615366176
 20
299.462566440893
 30
0.0
 40
3.078526319196428
  1

 50
90.0
  7
ROMANS
 72
     1
 11
208.0529615366176
 21
299.462566440893
 31
0.0
100
AcDbAttribute
  2
PURCHASER
 70
     0
  0
ATTRIB
  5
A91
330
A86
100
AcDbEntity
  8
0
100
AcDbText
 10
217.021124411882
 20
285.4188413664351
 30
0.0
 40
3.078526319196428
  1
FL-
 50
90.0
  7
ROMANS
 72
     1
 11
217.021124411882
 21
289.8900343538394
 31
0.0
100
AcDbAttribute
  2
MODEL
 70
     0
  0
ATTRIB
  5
A92
330
A86
100
AcDbEntity
  8
0
100
AcDbText
 10
217.0211244118822
 20
342.538960832634
 30
0.0
 40
3.078526319196428
  1

 50
90.0
  7
ROMANS
 72
     1
 11
217.0211244118822
 21
342.538960832634
 31
0.0
100
AcDbAttribute
  2
QTY
 70
     0
  0
ATTRIB
  5
A93
330
A86
100
AcDbEntity
  8
0
100
AcDbText
 10
199.0859632065909
 20
399.9741533549556
 30
0.0
 40
3.078526319196428
  1

 50
90.0
  7
ROMANS
 72
     1
 11
199.0859632065909
 21
399.9741533549556
 31
0.0
100
AcDbAttribute
  2
REP
 70
     0
  0
ATTRIB
  5
A94
330
A86
100
AcDbEntity
  8
0
100
AcDbText
 10
213.0328906945438
 20
400.0336159795836
 30
0.0
 40
6.012746717180524
  1

 50
90.0
  7
ROMANS
 72
     1
 11
213.0328906945438
 21
400.0336159795836
 31
0.0
100
AcDbAttribute
  2
L010000
 70
     0
  0
SEQEND
  5
A95
330
A86
100
AcDbEntity
  8
0
  0
LINE
  5
BED
330
34E
100
AcDbEntity
  8
0
 62
     7
100
AcDbLine
 10
13.64089008900316
 20
221.7944384951118
 30
0.0
 11
22.14089008900316
 21
221.7944384951118
 31
0.0
  0
LINE
  5
BEE
330
34E
100
AcDbEntity
  8
0
 62
     7
100
AcDbLine
 10
13.64089008900316
 20
218.7944384951118
 30
0.0
 11
22.14089008900316
 21
218.7944384951118
 31
0.0
  0
LINE
  5
BFB
330
34E
100
AcDbEntity
  8
0
 62
     7
100
AcDbLine
 10
19.64089008900316
 20
221.7944384951118
 30
0.0
 11
19.64089008900316
 21
266.7944384951117
 31
0.0
  0
LINE
  5
BFC
330
34E
100
AcDbEntity
  8
0
 62
     7
100
AcDbLine
 10
115.9564198816759
 20
191.7944384951118
 30
0.0
 11
108.018919881676
 21
191.7944384951118
 31
0.0
  0
LINE
  5
BFD
330
34E
100
AcDbEntity
  8
0
 62
     7
100
AcDbLine
 10
115.9564198816759
 20
191.0444384951118
 30
0.0
 11
108.018919881676
 21
191.0444384951118
 31
0.0
  0
LINE
  5
BFE
330
34E
100
AcDbEntity
  8
0
 62
     7
100
AcDbLine
 10
115.9564198816759
 20
203.7944384951118
 30
0.0
 11
108.018919881676
 21
203.7944384951118
 31
0.0
  0
LINE
  5
BFF
330
34E
100
AcDbEntity
  8
0
 62
     7
100
AcDbLine
 10
115.9564198816759
 20
203.0444384951118
 30
0.0
 11
108.018919881676
 21
203.0444384951118
 31
0.0
  0
LINE
  5
C00
330
34E
100
AcDbEntity
  8
0
 62
     7
100
AcDbLine
 10
115.9564198816759
 20
179.0444384951117
 30
0.0
 11
108.018919881676
 21
179.0444384951117
 31
0.0
  0
LINE
  5
C01
330
34E
100
AcDbEntity
  8
0
 62
     7
100
AcDbLine
 10
115.9564198816759
 20
179.7944384951117
 30
0.0
 11
108.018919881676
 21
179.7944384951117
 31
0.0
  0
LINE
  5
C02
330
34E
100
AcDbEntity
  8
0
 62
     7
100
AcDbLine
 10
115.9564198816759
 20
227.7944384951118
 30
0.0
 11
108.018919881676
 21
227.7944384951118
 31
0.0
  0
LINE
  5
C03
330
34E
100
AcDbEntity
  8
0
 62
     7
100
AcDbLine
 10
115.9564198816759
 20
227.0444384951118
 30
0.0
 11
108.018919881676
 21
227.0444384951118
 31
0.0
  0
LINE
  5
C04
330
34E
100
AcDbEntity
  8
0
 62
     7
100
AcDbLine
 10
115.9564198816759
 20
215.7944384951118
 30
0.0
 11
108.018919881676
 21
215.7944384951118
 31
0.0
  0
LINE
  5
C05
330
34E
100
AcDbEntity
  8
0
 62
     7
100
AcDbLine
 10
115.9564198816759
 20
215.0444384951118
 30
0.0
 11
108.018919881676
 21
215.0444384951118
 31
0.0
  0
LINE
  5
C06
330
34E
100
AcDbEntity
  8
0
 62
     7
100
AcDbLine
 10
115.9564198816759
 20
167.7944384951118
 30
0.0
 11
108.018919881676
 21
167.7944384951118
 31
0.0
  0
LINE
  5
C07
330
34E
100
AcDbEntity
  8
0
 62
     7
100
AcDbLine
 10
115.9564198816759
 20
167.0444384951117
 30
0.0
 11
108.018919881676
 21
167.0444384951117
 31
0.0
  0
LINE
  5
C18
330
34E
100
AcDbEntity
  8
0
 62
     7
100
AcDbLine
 10
13.64089008900316
 20
170.7944384951118
 30
0.0
 11
22.14089008900316
 21
170.7944384951118
 31
0.0
  0
LINE
  5
C19
330
34E
100
AcDbEntity
  8
0
 62
     7
100
AcDbLine
 10
13.64089008900316
 20
173.7944384951118
 30
0.0
 11
22.14089008900316
 21
173.7944384951118
 31
0.0
  0
LINE
  5
C26
330
34E
100
AcDbEntity
  8
0
 62
     7
100
AcDbLine
 10
19.64089008900316
 20
173.7944384951118
 30
0.0
 11
19.64089008900316
 21
218.7944384951118
 31
0.0
  0
DIMENSION
  5
D6B
330
34E
100
AcDbEntity
  8
0
 62
     7
100
AcDbDimension
  2
*D13
 10
-127.1635148376122
 20
336.0785111912645
 30
0.0
 11
-91.02240211330805
 21
336.0785111912645
 31
0.0
 70
    32
  1
16"
 71
     5
 42
72.28222544860827
  3
STANDARD$0
100
AcDbAlignedDimension
 13
-54.88128938900391
 23
323.4265304324418
 33
0.0
 14
-127.1635148376122
 24
323.4265304324418
 34
0.0
100
AcDbRotatedDimension
1001
ACAD
1000
DSTYLE
1002
{
1070
   140
1040
0.125
1002
}
  0
DIMENSION
  5
D6C
330
34E
100
AcDbEntity
  8
0
 62
     7
100
AcDbDimension
  2
*D14
 10
-130.7776261100426
 20
273.9025581553166
 30
0.0
 11
-91.02240211330803
 21
273.9025581553166
 31
0.0
 70
    32
  1
17-7/8"
 71
     5
 42
79.51044799346921
  3
STANDARD$0
100
AcDbAlignedDimension
 13
-51.26717811657342
 23
286.729400589302
 33
0.0
 14
-130.7776261100426
 24
286.729400589302
 34
0.0
100
AcDbRotatedDimension
1001
ACAD
1000
DSTYLE
1002
{
1070
   140
1040
0.125
1002
}
  0
LINE
  5
D6D
330
34E
100
AcDbEntity
  8
0
 62
     7
100
AcDbLine
 10
-47.09704972530746
 20
288.9534690646439
 30
0.0
 11
-88.57215211330808
 21
288.9534690646441
 31
0.0
  0
LINE
  5
D6E
330
34E
100
AcDbEntity
  8
0
 62
     7
100
AcDbLine
 10
-47.09704972530746
 20
290.6215204211504
 30
0.0
 11
-88.57215211330808
 21
290.6215204211504
 31
0.0
  0
LINE
  5
D6F
330
34E
100
AcDbEntity
  8
0
 62
     7
100
AcDbLine
 10
-47.09704972530746
 20
295.6256744906694
 30
0.0
 11
-88.57215211330808
 21
295.6256744906694
 31
0.0
  0
LINE
  5
D70
330
34E
100
AcDbEntity
  8
0
 62
     7
100
AcDbLine
 10
-47.09704972530746
 20
293.9576231341629
 30
0.0
 11
-88.57215211330808
 21
293.9576231341629
 31
0.0
  0
LINE
  5
D71
330
34E
100
AcDbEntity
  8
0
 62
     7
100
AcDbLine
 10
-47.09704972530746
 20
292.2895717776566
 30
0.0
 11
-88.57215211330808
 21
292.2895717776566
 31
0.0
  0
LINE
  5
D72
330
34E
100
AcDbEntity
  8
0
 62
     7
100
AcDbLine
 10
-51.26717811657342
 20
287.2854177081377
 30
0.0
 11
-130.7776261100426
 21
287.2854177081377
 31
0.0
  0
LINE
  5
D73
330
34E
100
AcDbEntity
  8
0
 62
     7
100
AcDbLine
 10
-130.7776261100426
 20
297.2937258471757
 30
0.0
 11
-93.47265211330798
 21
297.2937258471757
 31
0.0
  0
LWPOLYLINE
  5
D74
330
34E
100
AcDbEntity
  8
0
 62
     7
100
AcDbPolyline
 90
        6
 70
     1
 43
0.0
 10
-135.5037716201439
 20
286.729400589302
 10
-136.6158058578149
 20
286.729400589302
 10
-136.6158058578149
 20
324.5385646701127
 10
-118.8232580550804
 20
324.5385646701127
 10
-118.8232580550804
 20
323.4265304324418
 10
-135.5037716201439
 20
323.4265304324418
  0
LWPOLYLINE
  5
D75
330
34E
100
AcDbEntity
  8
0
 62
     7
100
AcDbPolyline
 90
        8
 70
     0
 43
0.0
 10
-135.5037716201439
 20
286.729400589302
 10
-130.7776261100426
 20
286.729400589302
 10
-130.7776261100426
 20
287.2854177081377
 10
-134.9477545013085
 20
287.2854177081377
 10
-134.9477545013085
 20
297.2937258471757
 10
-130.7776261100426
 20
297.2937258471757
 10
-130.7776261100426
 20
297.8497429660111
 10
-135.5037716201439
 20
297.8497429660111
  0
LWPOLYLINE
  5
D76
330
34E
100
AcDbEntity
  8
0
 62
     7
100
AcDbPolyline
 90
        6
 70
     1
 43
0.0
 10
-45.42899836880127
 20
286.729400589302
 10
-46.54103260647217
 20
286.729400589302
 10
-46.54103260647217
 20
323.4265304324418
 10
-63.22154617153568
 20
323.4265304324418
 10
-63.22154617153568
 20
324.5385646701127
 10
-45.42899836880127
 20
324.5385646701127
  0
DIMENSION
  5
D77
330
34E
100
AcDbEntity
  8
0
 62
     7
100
AcDbDimension
  2
*D15
 10
-31.47071154397797
 20
324.5385646701127
 30
0.0
 11
-31.47071154397802
 21
308.4140682238847
 31
0.0
 70
    32
  1
7-1/4"
 71
     5
 42
32.2489928924561
  3
STANDARD$0
100
AcDbAlignedDimension
 13
-47.09704972530746
 23
292.2895717776566
 33
0.0
 14
-45.42899836880127
 24
324.5385646701127
 34
0.0
 50
90.0
100
AcDbRotatedDimension
1001
ACAD
1000
DSTYLE
1002
{
1070
   140
1040
0.125
1002
}
  0
TEXT
  5
D78
330
34E
100
AcDbEntity
  8
0
 62
     5
100
AcDbText
 10
-101.6750346791505
 20
255.0637898002197
 30
0.0
 40
5.245243092246096
  1
PLAN
  7
ROMANS
 72
     1
 11
-91.93386893640775
 21
255.0637898002197
 31
0.0
100
AcDbText
  0
LWPOLYLINE
  5
D79
330
34E
100
AcDbEntity
  8
0
 62
     7
100
AcDbPolyline
 90
        8
 70
     0
 43
0.0
 10
-46.54103260647199
 20
286.729400589302
 10
-51.26717811657342
 20
286.729400589302
 10
-51.26717811657342
 20
287.2854177081377
 10
-47.09704972530746
 20
287.2854177081377
 10
-47.09704972530746
 20
297.2937258471757
 10
-51.26717811657342
 20
297.2937258471757
 10
-51.26717811657342
 20
297.8497429660111
 10
-46.54103260647199
 20
297.8497429660111
  0
LINE
  5
DBE
330
34E
100
AcDbEntity
  8
0
 62
     7
100
AcDbLine
 10
-120.7874796040436
 20
203.3785909271124
 30
0.0
 11
-100.5634317103214
 21
215.0549504226567
 31
0.0
  0
LINE
  5
DBF
330
34E
100
AcDbEntity
  8
0
 62
     7
100
AcDbLine
 10
-122.1357494636249
 20
204.157014893482
 30
0.0
 11
-100.5634317103214
 21
216.6117983553959
 31
0.0
  0
DIMENSION
  5
DC0
330
34E
100
AcDbEntity
  8
0
 62
     7
100
AcDbDimension
  2
*D16
 10
-127.8393037947227
 20
207.4499635218788
 30
0.0
 11
-120.8914390072312
 21
214.5342604537316
 31
0.0
 70
   161
  1
4-1/2"
 71
     5
 42
24.9095669238279
  3
STANDARD$0
100
AcDbAlignedDimension
 13
-100.5634317103215
 23
216.6117983553958
 33
0.0
 14
-122.135749463625
 24
204.1570148934819
 34
0.0
1001
ACAD
1000
DSTYLE
1002
{
1070
   140
1040
0.125
1002
}
  0
TEXT
  5
DC1
330
34E
100
AcDbEntity
  8
0
 62
     7
100
AcDbText
 10
-132.8414146229327
 20
167.0319492366632
 30
0.0
 40
3.78125
  1
%%C9/16"
  7
ROMANS
 72
     2
 11
-112.4946884324566
 21
168.9225742366632
 31
0.0
100
AcDbText
 73
     2
  0
LINE
  5
DC2
330
34E
100
AcDbEntity
  8
0
 62
     7
100
AcDbLine
 10
-120.7874796040436
 20
184.6964157342412
 30
0.0
 11
-100.5634317103214
 21
196.3727752297855
 31
0.0
  0
LEADER
  5
DC3
330
34E
100
AcDbEntity
  8
0
 62
     7
100
AcDbLeader
  3
STANDARD
 73
     0
 40
1.4472
 41
1.4472
 76
     3
 10
-110.0985844723662
 20
198.9702748654596
 30
0.0
 10
-94.95967733037584
 20
169.1866581667003
 30
0.0
 10
-105.961175257072
 20
169.1866581667003
 30
0.0
340
DC4
211
1.0
221
-0.0000000000000002
231
0.0
213
-0.0000000000000004
223
-1.809202208164564
233
0.0
1001
ACAD
1000
DSTYLE
1002
{
1070
   147
1040
0.0625
1070
    77
1070
     0
1002
}
  0
MTEXT
  5
DC4
102
{ACAD_REACTORS
330
DC3
102
}
330
34E
100
AcDbEntity
  8
0
 62
     7
100
AcDbMText
 10
12.81239699993929
 20
99.60329555438322
 30
0.0
 40
1.4472
 41
0.0
 71
     9
 72
     1
  1
 
  7
ROMANS
 73
     1
 44
1.0
1001
ACAD
1000
MTEXTBEGIN
1070
    73
1070
     1
1070
    44
1040
1.0
1070
    74
1070
     0
1000
MTEXTEND
  0
TEXT
  5
DC5
330
34E
100
AcDbEntity
  8
0
 62
     5
100
AcDbText
 10
-121.2316398780446
 20
153.8426980166688
 30
0.0
 40
5.245243092246096
  1
BRACKET DETAIL
  7
ROMANS
 72
     1
 11
-88.76108740223545
 21
153.8426980166688
 31
0.0
100
AcDbText
  0
LINE
  5
DC6
330
34E
100
AcDbEntity
  8
0
 62
     7
100
AcDbLine
 10
-120.7874796040436
 20
184.6964157342412
 30
0.0
 11
-120.7874796040436
 21
203.3785909271124
 31
0.0
  0
LINE
  5
DC7
330
34E
100
AcDbEntity
  8
0
 62
     7
100
AcDbLine
 10
-122.1357494636249
 20
185.4748397006108
 30
0.0
 11
-122.1357494636249
 21
204.157014893482
 31
0.0
  0
DIMENSION
  5
DC8
330
34E
100
AcDbEntity
  8
0
 62
     7
100
AcDbDimension
  2
*D17
 10
-122.135749463625
 20
179.9042430117571
 30
0.0
 11
-135.0760446026361
 21
183.5887677125384
 31
0.0
 70
   161
  1
1/4"
 71
     5
 42
1.556847932739174
  3
STANDARD$0
100
AcDbAlignedDimension
 13
-120.7874796040436
 23
184.6964157342412
 33
0.0
 14
-122.135749463625
 24
185.4748397006108
 34
0.0
1001
ACAD
1000
DSTYLE
1002
{
1070
   140
1040
0.125
1002
}
  0
LINE
  5
DC9
330
34E
100
AcDbEntity
  8
0
 62
     7
100
AcDbLine
 10
-120.7874796040436
 20
184.6964157342412
 30
0.0
 11
-122.1357494636249
 21
185.4748397006108
 31
0.0
  0
LINE
  5
DCA
330
34E
100
AcDbEntity
  8
0
 62
     7
100
AcDbLine
 10
-120.7874796040436
 20
203.3785909271124
 30
0.0
 11
-122.1357494636249
 21
204.157014893482
 31
0.0
  0
LWPOLYLINE
  5
DCB
330
34E
100
AcDbEntity
  8
0
 62
     7
100
AcDbPolyline
 90
        7
 70
     0
 43
0.0
 10
-112.6778690521988
 20
198.5366007524114
 42
0.0283695723264663
 10
-112.5193964375996
 20
198.6164773809131
 42
0.0723410840577375
 10
-111.9654612685332
 20
199.0535608157864
 42
0.0587518675353654
 10
-111.4468543319476
 20
199.7486988318294
 42
0.0587518675353444
 10
-111.1041506192107
 20
200.5453946215129
 42
0.0723410840576672
 10
-111.0025928455702
 20
201.2436582674106
 42
0.0283695723264929
 10
-111.0126539634189
 20
201.4208378917082
 42
0.1568512196709102
  0
LWPOLYLINE
  5
DCC
330
34E
100
AcDbEntity
  8
0
 62
     7
100
AcDbPolyline
 90
       16
 70
     1
 43
0.0
 10
-112.2436686836699
 20
200.2087398122904
 42
0.0587518675353646
 10
-112.5863723964069
 20
199.4120440226069
 42
0.0723410840576763
 10
-112.6879301700473
 20
198.7137803767092
 42
0.106617054391126
 10
-112.5487827754447
 20
198.0686411931097
 42
0.1568512196706424
 10
-112.2436686836699
 20
197.7318099186291
 42
0.1568512196706761
 10
-111.7994071972928
 20
197.6359890013399
 42
0.1066170543910004
 10
-111.1711265780181
 20
197.8380534145435
 42
0.0723410840577375
 10
-110.6171914089516
 20
198.2751368494168
 42
0.0587518675353654
 10
-110.0985844723662
 20
198.9702748654596
 42
0.0587518675353444
 10
-109.7558807596292
 20
199.7669706551432
 42
0.0723410840576672
 10
-109.6543229859889
 20
200.4652343010409
 42
0.1066170543911832
 10
-109.7934703805914
 20
201.1103734846401
 42
0.1568512196709102
 10
-110.0985844723662
 20
201.4472047591212
 42
0.1568512196706761
 10
-110.5428459587434
 20
201.5430256764102
 42
0.1066170543910004
 10
-111.1711265780181
 20
201.3409612632067
 42
0.0723410840577166
 10
-111.7250617470842
 20
200.9038778283336
 42
0.0587518675353862
  0
DIMENSION
  5
DCD
330
34E
100
AcDbEntity
  8
0
 62
     7
100
AcDbDimension
  2
*D18
 10
-45.49359790986851
 20
176.7913768183095
 30
0.0
 11
-44.4203654036538
 21
184.8937634535364
 31
0.0
 70
   161
  1
3"
 71
     5
 42
18.68217519287106
  3
STANDARD$0
100
AcDbAlignedDimension
 13
-54.72225648455092
 23
190.1453834988285
 33
0.0
 14
-54.72225648455092
 24
171.4632083059575
 34
0.0
1001
ACAD
1000
DSTYLE
1002
{
1070
   140
1040
0.125
1002
}
  0
LINE
  5
DCE
330
34E
100
AcDbEntity
  8
0
 62
     7
100
AcDbLine
 10
-56.07052634413234
 20
189.3669595324589
 30
0.0
 11
-100.5634317103214
 21
215.0549504226567
 31
0.0
  0
LINE
  5
DCF
330
34E
100
AcDbEntity
  8
0
 62
     7
100
AcDbLine
 10
-54.72225648455092
 20
190.1453834988285
 30
0.0
 11
-100.5634317103214
 21
216.6117983553959
 31
0.0
  0
LINE
  5
DD0
330
34E
100
AcDbEntity
  8
0
 62
     7
100
AcDbLine
 10
-56.07052634413234
 20
170.6847843395878
 30
0.0
 11
-100.5634317103214
 21
196.3727752297855
 31
0.0
  0
DIMENSION
  5
DD1
330
34E
100
AcDbEntity
  8
0
 62
     7
100
AcDbDimension
  2
*D19
 10
-45.4935979098685
 20
195.4735520111807
 30
0.0
 11
-68.41418552275374
 21
208.7067594394644
 31
0.0
 70
    33
  1
8-1/2"
 71
     5
 42
52.93282971313482
  3
STANDARD$0
100
AcDbAlignedDimension
 13
-100.5634317103215
 23
216.6117983553959
 33
0.0
 14
-54.72225648455092
 24
190.1453834988285
 34
0.0
1001
ACAD
1000
DSTYLE
1002
{
1070
   140
1040
0.125
1002
}
  0
LINE
  5
DD2
330
34E
100
AcDbEntity
  8
0
 62
     7
100
AcDbLine
 10
-54.72225648455092
 20
171.4632083059575
 30
0.0
 11
-54.72225648455092
 21
190.1453834988285
 31
0.0
  0
LINE
  5
DD3
330
34E
100
AcDbEntity
  8
0
 62
     7
100
AcDbLine
 10
-56.07052634413234
 20
170.6847843395878
 30
0.0
 11
-56.07052634413234
 21
189.3669595324589
 31
0.0
  0
LINE
  5
DD4
330
34E
100
AcDbEntity
  8
0
 62
     7
100
AcDbLine
 10
-56.07052634413234
 20
170.6847843395878
 30
0.0
 11
-54.72225648455092
 21
171.4632083059575
 31
0.0
  0
LINE
  5
DD5
330
34E
100
AcDbEntity
  8
0
 62
     7
100
AcDbLine
 10
-56.07052634413234
 20
189.3669595324589
 30
0.0
 11
-54.72225648455092
 21
190.1453834988285
 31
0.0
  0
LINE
  5
DD6
330
34E
100
AcDbEntity
  8
0
 62
     7
100
AcDbLine
 10
-100.5634317103214
 20
215.0549504226567
 30
0.0
 11
-100.5634317103214
 21
196.3727752297855
 31
0.0
  0
LINE
  5
DD7
330
34E
100
AcDbEntity
  8
0
 62
     7
100
AcDbLine
 10
112.7689198816759
 20
122.7944384951118
 30
0.0
 11
112.7689198816759
 21
125.7944384951118
 31
0.0
  0
LINE
  5
DD8
330
34E
100
AcDbEntity
  8
0
 62
     7
100
AcDbLine
 10
115.9564198816759
 20
122.7944384951118
 30
0.0
 11
112.7689198816759
 21
122.7944384951118
 31
0.0
  0
LINE
  5
DD9
330
34E
100
AcDbEntity
  8
0
 62
     7
100
AcDbLine
 10
115.9564198816759
 20
125.7944384951118
 30
0.0
 11
112.7689198816759
 21
125.7944384951118
 31
0.0
  0
CIRCLE
  5
DDA
330
34E
100
AcDbEntity
  8
0
 62
     7
100
AcDbCircle
 10
115.0189198816759
 20
124.2944384951118
 30
0.0
 40
0.28125
  0
LINE
  5
DDB
330
34E
100
AcDbEntity
  8
0
 62
     7
100
AcDbLine
 10
117.268919881676
 20
122.7944384951118
 30
0.0
 11
117.268919881676
 21
125.7944384951118
 31
0.0
  0
LINE
  5
DDC
330
34E
100
AcDbEntity
  8
0
 62
     7
100
AcDbLine
 10
117.268919881676
 20
122.7944384951118
 30
0.0
 11
117.0189198816759
 21
122.7944384951118
 31
0.0
  0
LINE
  5
DDD
330
34E
100
AcDbEntity
  8
0
 62
     7
100
AcDbLine
 10
117.268919881676
 20
125.7944384951118
 30
0.0
 11
117.0189198816759
 21
125.7944384951118
 31
0.0
  0
LINE
  5
DDE
330
34E
100
AcDbEntity
  8
0
 62
     7
100
AcDbLine
 10
96.76891988167596
 20
122.7944384951118
 30
0.0
 11
96.76891988167596
 21
125.7944384951118
 31
0.0
  0
LINE
  5
DDF
330
34E
100
AcDbEntity
  8
0
 62
     7
100
AcDbLine
 10
101.2689198816759
 20
122.7944384951118
 30
0.0
 11
101.2689198816759
 21
125.7944384951118
 31
0.0
  0
LINE
  5
DE0
330
34E
100
AcDbEntity
  8
0
 62
     7
100
AcDbLine
 10
98.08141988167598
 20
122.7944384951118
 30
0.0
 11
101.2689198816759
 21
122.7944384951118
 31
0.0
  0
LINE
  5
DE1
330
34E
100
AcDbEntity
  8
0
 62
     7
100
AcDbLine
 10
96.76891988167596
 20
122.7944384951118
 30
0.0
 11
97.01891988167597
 21
122.7944384951118
 31
0.0
  0
CIRCLE
  5
DE2
330
34E
100
AcDbEntity
  8
0
 62
     7
100
AcDbCircle
 10
99.01891988167598
 20
124.2944384951118
 30
0.0
 40
0.28125
  0
LINE
  5
DE3
330
34E
100
AcDbEntity
  8
0
 62
     7
100
AcDbLine
 10
98.08141988167598
 20
125.7944384951118
 30
0.0
 11
101.2689198816759
 21
125.7944384951118
 31
0.0
  0
LINE
  5
DE4
330
34E
100
AcDbEntity
  8
0
 62
     7
100
AcDbLine
 10
96.76891988167596
 20
125.7944384951118
 30
0.0
 11
97.01891988167597
 21
125.7944384951118
 31
0.0
  0
LINE
  5
EE9
330
34E
100
AcDbEntity
  8
0
 62
     7
100
AcDbLine
 10
98.08141988167598
 20
173.7944384951118
 30
0.0
 11
101.2689198816759
 21
173.7944384951118
 31
0.0
  0
LINE
  5
EEA
330
34E
100
AcDbEntity
  8
0
 62
     7
100
AcDbLine
 10
98.08141988167598
 20
170.7944384951118
 30
0.0
 11
101.2689198816759
 21
170.7944384951118
 31
0.0
  0
LINE
  5
EEB
330
34E
100
AcDbEntity
  8
0
 62
     7
100
AcDbLine
 10
96.76891988167596
 20
170.7944384951118
 30
0.0
 11
96.76891988167596
 21
173.7944384951118
 31
0.0
  0
LINE
  5
EEC
330
34E
100
AcDbEntity
  8
0
 62
     7
100
AcDbLine
 10
96.76891988167596
 20
170.7944384951118
 30
0.0
 11
97.01891988167597
 21
170.7944384951118
 31
0.0
  0
LINE
  5
EED
330
34E
100
AcDbEntity
  8
0
 62
     7
100
AcDbLine
 10
96.76891988167596
 20
173.7944384951118
 30
0.0
 11
97.01891988167597
 21
173.7944384951118
 31
0.0
  0
CIRCLE
  5
EEE
330
34E
100
AcDbEntity
  8
0
 62
     7
100
AcDbCircle
 10
99.01891988167598
 20
172.2944384951118
 30
0.0
 40
0.28125
  0
LINE
  5
EEF
330
34E
100
AcDbEntity
  8
0
 62
     7
100
AcDbLine
 10
101.2689198816759
 20
170.7944384951118
 30
0.0
 11
101.2689198816759
 21
173.7944384951118
 31
0.0
  0
LINE
  5
EF0
330
34E
100
AcDbEntity
  8
0
 62
     7
100
AcDbLine
 10
115.9564198816759
 20
170.7944384951118
 30
0.0
 11
112.7689198816759
 21
170.7944384951118
 31
0.0
  0
LINE
  5
EF1
330
34E
100
AcDbEntity
  8
0
 62
     7
100
AcDbLine
 10
115.9564198816759
 20
173.7944384951118
 30
0.0
 11
112.7689198816759
 21
173.7944384951118
 31
0.0
  0
LINE
  5
EF2
330
34E
100
AcDbEntity
  8
0
 62
     7
100
AcDbLine
 10
112.7689198816759
 20
170.7944384951118
 30
0.0
 11
112.7689198816759
 21
173.7944384951118
 31
0.0
  0
CIRCLE
  5
EF3
330
34E
100
AcDbEntity
  8
0
 62
     7
100
AcDbCircle
 10
115.0189198816759
 20
172.2944384951118
 30
0.0
 40
0.28125
  0
LINE
  5
EF4
330
34E
100
AcDbEntity
  8
0
 62
     7
100
AcDbLine
 10
117.268919881676
 20
173.7944384951118
 30
0.0
 11
117.0189198816759
 21
173.7944384951118
 31
0.0
  0
LINE
  5
EF5
330
34E
100
AcDbEntity
  8
0
 62
     7
100
AcDbLine
 10
117.268919881676
 20
170.7944384951118
 30
0.0
 11
117.0189198816759
 21
170.7944384951118
 31
0.0
  0
LINE
  5
EF6
330
34E
100
AcDbEntity
  8
0
 62
     7
100
AcDbLine
 10
117.268919881676
 20
170.7944384951118
 30
0.0
 11
117.268919881676
 21
173.7944384951118
 31
0.0
  0
LINE
  5
EF7
330
34E
100
AcDbEntity
  8
0
 62
     7
100
AcDbLine
 10
98.08141988167598
 20
218.7944384951118
 30
0.0
 11
101.2689198816759
 21
218.7944384951118
 31
0.0
  0
LINE
  5
EF8
330
34E
100
AcDbEntity
  8
0
 62
     7
100
AcDbLine
 10
98.08141988167598
 20
221.7944384951118
 30
0.0
 11
101.2689198816759
 21
221.7944384951118
 31
0.0
  0
LINE
  5
EF9
330
34E
100
AcDbEntity
  8
0
 62
     7
100
AcDbLine
 10
96.76891988167596
 20
221.7944384951118
 30
0.0
 11
97.01891988167597
 21
221.7944384951118
 31
0.0
  0
LINE
  5
EFA
330
34E
100
AcDbEntity
  8
0
 62
     7
100
AcDbLine
 10
96.76891988167596
 20
218.7944384951118
 30
0.0
 11
97.01891988167597
 21
218.7944384951118
 31
0.0
  0
LINE
  5
EFB
330
34E
100
AcDbEntity
  8
0
 62
     7
100
AcDbLine
 10
96.76891988167596
 20
218.7944384951118
 30
0.0
 11
96.76891988167596
 21
221.7944384951118
 31
0.0
  0
CIRCLE
  5
EFC
330
34E
100
AcDbEntity
  8
0
 62
     7
100
AcDbCircle
 10
99.01891988167598
 20
220.2944384951118
 30
0.0
 40
0.28125
  0
LINE
  5
EFD
330
34E
100
AcDbEntity
  8
0
 62
     7
100
AcDbLine
 10
101.2689198816759
 20
218.7944384951118
 30
0.0
 11
101.2689198816759
 21
221.7944384951118
 31
0.0
  0
LINE
  5
EFE
330
34E
100
AcDbEntity
  8
0
 62
     7
100
AcDbLine
 10
115.9564198816759
 20
221.7944384951118
 30
0.0
 11
112.7689198816759
 21
221.7944384951118
 31
0.0
  0
LINE
  5
EFF
330
34E
100
AcDbEntity
  8
0
 62
     7
100
AcDbLine
 10
115.9564198816759
 20
218.7944384951118
 30
0.0
 11
112.7689198816759
 21
218.7944384951118
 31
0.0
  0
LINE
  5
F00
330
34E
100
AcDbEntity
  8
0
 62
     7
100
AcDbLine
 10
112.7689198816759
 20
218.7944384951118
 30
0.0
 11
112.7689198816759
 21
221.7944384951118
 31
0.0
  0
CIRCLE
  5
F01
330
34E
100
AcDbEntity
  8
0
 62
     7
100
AcDbCircle
 10
115.0189198816759
 20
220.2944384951118
 30
0.0
 40
0.28125
  0
LINE
  5
F02
330
34E
100
AcDbEntity
  8
0
 62
     7
100
AcDbLine
 10
117.268919881676
 20
218.7944384951118
 30
0.0
 11
117.268919881676
 21
221.7944384951118
 31
0.0
  0
LINE
  5
F03
330
34E
100
AcDbEntity
  8
0
 62
     7
100
AcDbLine
 10
117.268919881676
 20
218.7944384951118
 30
0.0
 11
117.0189198816759
 21
218.7944384951118
 31
0.0
  0
LINE
  5
F04
330
34E
100
AcDbEntity
  8
0
 62
     7
100
AcDbLine
 10
117.268919881676
 20
221.7944384951118
 30
0.0
 11
117.0189198816759
 21
221.7944384951118
 31
0.0
  0
LINE
  5
F05
330
34E
100
AcDbEntity
  8
0
 62
     7
100
AcDbLine
 10
98.08141988167598
 20
269.7944384951118
 30
0.0
 11
101.2689198816759
 21
269.7944384951118
 31
0.0
  0
LINE
  5
F06
330
34E
100
AcDbEntity
  8
0
 62
     7
100
AcDbLine
 10
98.08141988167598
 20
266.7944384951117
 30
0.0
 11
101.2689198816759
 21
266.7944384951117
 31
0.0
  0
LINE
  5
F07
330
34E
100
AcDbEntity
  8
0
 62
     7
100
AcDbLine
 10
96.76891988167596
 20
266.7944384951117
 30
0.0
 11
96.76891988167596
 21
269.7944384951118
 31
0.0
  0
LINE
  5
F08
330
34E
100
AcDbEntity
  8
0
 62
     7
100
AcDbLine
 10
96.76891988167596
 20
266.7944384951117
 30
0.0
 11
97.01891988167597
 21
266.7944384951117
 31
0.0
  0
LINE
  5
F09
330
34E
100
AcDbEntity
  8
0
 62
     7
100
AcDbLine
 10
96.76891988167596
 20
269.7944384951118
 30
0.0
 11
97.01891988167597
 21
269.7944384951118
 31
0.0
  0
CIRCLE
  5
F0A
330
34E
100
AcDbEntity
  8
0
 62
     7
100
AcDbCircle
 10
99.01891988167598
 20
268.2944384951118
 30
0.0
 40
0.28125
  0
LINE
  5
F0B
330
34E
100
AcDbEntity
  8
0
 62
     7
100
AcDbLine
 10
101.2689198816759
 20
266.7944384951117
 30
0.0
 11
101.2689198816759
 21
269.7944384951118
 31
0.0
  0
LINE
  5
F0C
330
34E
100
AcDbEntity
  8
0
 62
     7
100
AcDbLine
 10
115.9564198816759
 20
266.7944384951117
 30
0.0
 11
112.7689198816759
 21
266.7944384951117
 31
0.0
  0
LINE
  5
F0D
330
34E
100
AcDbEntity
  8
0
 62
     7
100
AcDbLine
 10
115.9564198816759
 20
269.7944384951118
 30
0.0
 11
112.7689198816759
 21
269.7944384951118
 31
0.0
  0
LINE
  5
F0E
330
34E
100
AcDbEntity
  8
0
 62
     7
100
AcDbLine
 10
112.7689198816759
 20
266.7944384951117
 30
0.0
 11
112.7689198816759
 21
269.7944384951118
 31
0.0
  0
CIRCLE
  5
F0F
330
34E
100
AcDbEntity
  8
0
 62
     7
100
AcDbCircle
 10
115.0189198816759
 20
268.2944384951118
 30
0.0
 40
0.28125
  0
LINE
  5
F10
330
34E
100
AcDbEntity
  8
0
 62
     7
100
AcDbLine
 10
117.268919881676
 20
269.7944384951118
 30
0.0
 11
117.0189198816759
 21
269.7944384951118
 31
0.0
  0
LINE
  5
F11
330
34E
100
AcDbEntity
  8
0
 62
     7
100
AcDbLine
 10
117.268919881676
 20
266.7944384951117
 30
0.0
 11
117.0189198816759
 21
266.7944384951117
 31
0.0
  0
LINE
  5
F12
330
34E
100
AcDbEntity
  8
0
 62
     7
100
AcDbLine
 10
117.268919881676
 20
266.7944384951117
 30
0.0
 11
117.268919881676
 21
269.7944384951118
 31
0.0
  0
LINE
  5
F13
330
34E
100
AcDbEntity
  8
0
 62
     7
100
AcDbLine
 10
98.08141988167598
 20
314.7944384951117
 30
0.0
 11
101.2689198816759
 21
314.7944384951117
 31
0.0
  0
LINE
  5
F14
330
34E
100
AcDbEntity
  8
0
 62
     7
100
AcDbLine
 10
98.08141988167598
 20
317.7944384951118
 30
0.0
 11
101.2689198816759
 21
317.7944384951118
 31
0.0
  0
LINE
  5
F15
330
34E
100
AcDbEntity
  8
0
 62
     7
100
AcDbLine
 10
96.76891988167596
 20
317.7944384951118
 30
0.0
 11
97.01891988167597
 21
317.7944384951118
 31
0.0
  0
LINE
  5
F16
330
34E
100
AcDbEntity
  8
0
 62
     7
100
AcDbLine
 10
96.76891988167596
 20
314.7944384951117
 30
0.0
 11
97.01891988167597
 21
314.7944384951117
 31
0.0
  0
LINE
  5
F17
330
34E
100
AcDbEntity
  8
0
 62
     7
100
AcDbLine
 10
96.76891988167596
 20
314.7944384951117
 30
0.0
 11
96.76891988167596
 21
317.7944384951118
 31
0.0
  0
CIRCLE
  5
F18
330
34E
100
AcDbEntity
  8
0
 62
     7
100
AcDbCircle
 10
99.01891988167598
 20
316.2944384951118
 30
0.0
 40
0.28125
  0
LINE
  5
F19
330
34E
100
AcDbEntity
  8
0
 62
     7
100
AcDbLine
 10
101.2689198816759
 20
314.7944384951117
 30
0.0
 11
101.2689198816759
 21
317.7944384951118
 31
0.0
  0
LINE
  5
F1A
330
34E
100
AcDbEntity
  8
0
 62
     7
100
AcDbLine
 10
115.9564198816759
 20
317.7944384951118
 30
0.0
 11
112.7689198816759
 21
317.7944384951118
 31
0.0
  0
LINE
  5
F1B
330
34E
100
AcDbEntity
  8
0
 62
     7
100
AcDbLine
 10
115.9564198816759
 20
314.7944384951117
 30
0.0
 11
112.7689198816759
 21
314.7944384951117
 31
0.0
  0
LINE
  5
F1C
330
34E
100
AcDbEntity
  8
0
 62
     7
100
AcDbLine
 10
112.7689198816759
 20
314.7944384951117
 30
0.0
 11
112.7689198816759
 21
317.7944384951118
 31
0.0
  0
CIRCLE
  5
F1D
330
34E
100
AcDbEntity
  8
0
 62
     7
100
AcDbCircle
 10
115.0189198816759
 20
316.2944384951118
 30
0.0
 40
0.28125
  0
LINE
  5
F1E
330
34E
100
AcDbEntity
  8
0
 62
     7
100
AcDbLine
 10
117.268919881676
 20
314.7944384951117
 30
0.0
 11
117.268919881676
 21
317.7944384951118
 31
0.0
  0
LINE
  5
F1F
330
34E
100
AcDbEntity
  8
0
 62
     7
100
AcDbLine
 10
117.268919881676
 20
314.7944384951117
 30
0.0
 11
117.0189198816759
 21
314.7944384951117
 31
0.0
  0
LINE
  5
F20
330
34E
100
AcDbEntity
  8
0
 62
     7
100
AcDbLine
 10
117.268919881676
 20
317.7944384951118
 30
0.0
 11
117.0189198816759
 21
317.7944384951118
 31
0.0
  0
LINE
  5
F21
330
34E
100
AcDbEntity
  8
0
 62
     7
100
AcDbLine
 10
98.08141988167598
 20
365.7944384951118
 30
0.0
 11
101.2689198816759
 21
365.7944384951118
 31
0.0
  0
LINE
  5
F22
330
34E
100
AcDbEntity
  8
0
 62
     7
100
AcDbLine
 10
98.08141988167598
 20
362.7944384951117
 30
0.0
 11
101.2689198816759
 21
362.7944384951117
 31
0.0
  0
LINE
  5
F23
330
34E
100
AcDbEntity
  8
0
 62
     7
100
AcDbLine
 10
96.76891988167596
 20
362.7944384951117
 30
0.0
 11
96.76891988167596
 21
365.7944384951118
 31
0.0
  0
LINE
  5
F24
330
34E
100
AcDbEntity
  8
0
 62
     7
100
AcDbLine
 10
96.76891988167596
 20
362.7944384951117
 30
0.0
 11
97.01891988167597
 21
362.7944384951117
 31
0.0
  0
LINE
  5
F25
330
34E
100
AcDbEntity
  8
0
 62
     7
100
AcDbLine
 10
96.76891988167596
 20
365.7944384951118
 30
0.0
 11
97.01891988167597
 21
365.7944384951118
 31
0.0
  0
CIRCLE
  5
F26
330
34E
100
AcDbEntity
  8
0
 62
     7
100
AcDbCircle
 10
99.01891988167598
 20
364.2944384951118
 30
0.0
 40
0.28125
  0
LINE
  5
F27
330
34E
100
AcDbEntity
  8
0
 62
     7
100
AcDbLine
 10
101.2689198816759
 20
362.7944384951117
 30
0.0
 11
101.2689198816759
 21
365.7944384951118
 31
0.0
  0
LINE
  5
F28
330
34E
100
AcDbEntity
  8
0
 62
     7
100
AcDbLine
 10
115.9564198816759
 20
362.7944384951117
 30
0.0
 11
112.7689198816759
 21
362.7944384951117
 31
0.0
  0
LINE
  5
F29
330
34E
100
AcDbEntity
  8
0
 62
     7
100
AcDbLine
 10
115.9564198816759
 20
365.7944384951118
 30
0.0
 11
112.7689198816759
 21
365.7944384951118
 31
0.0
  0
LINE
  5
F2A
330
34E
100
AcDbEntity
  8
0
 62
     7
100
AcDbLine
 10
112.7689198816759
 20
362.7944384951117
 30
0.0
 11
112.7689198816759
 21
365.7944384951118
 31
0.0
  0
CIRCLE
  5
F2B
330
34E
100
AcDbEntity
  8
0
 62
     7
100
AcDbCircle
 10
115.0189198816759
 20
364.2944384951118
 30
0.0
 40
0.28125
  0
LINE
  5
F2C
330
34E
100
AcDbEntity
  8
0
 62
     7
100
AcDbLine
 10
117.268919881676
 20
365.7944384951118
 30
0.0
 11
117.0189198816759
 21
365.7944384951118
 31
0.0
  0
LINE
  5
F2D
330
34E
100
AcDbEntity
  8
0
 62
     7
100
AcDbLine
 10
117.268919881676
 20
362.7944384951117
 30
0.0
 11
117.0189198816759
 21
362.7944384951117
 31
0.0
  0
LINE
  5
F2E
330
34E
100
AcDbEntity
  8
0
 62
     7
100
AcDbLine
 10
117.268919881676
 20
362.7944384951117
 30
0.0
 11
117.268919881676
 21
365.7944384951118
 31
0.0
  0
LINE
  5
F2F
330
34E
100
AcDbEntity
  8
0
 62
     7
100
AcDbLine
 10
101.268919881676
 20
410.7944384951117
 30
0.0
 11
101.268919881676
 21
413.7944384951117
 31
0.0
  0
LINE
  5
F30
330
34E
100
AcDbEntity
  8
0
 62
     7
100
AcDbLine
 10
96.76891988167604
 20
410.7944384951117
 30
0.0
 11
96.76891988167604
 21
413.7944384951117
 31
0.0
  0
LINE
  5
F31
330
34E
100
AcDbEntity
  8
0
 62
     7
100
AcDbLine
 10
98.08141988167603
 20
410.7944384951117
 30
0.0
 11
101.268919881676
 21
410.7944384951117
 31
0.0
  0
LINE
  5
F32
330
34E
100
AcDbEntity
  8
0
 62
     7
100
AcDbLine
 10
96.76891988167604
 20
410.7944384951117
 30
0.0
 11
97.01891988167602
 21
410.7944384951117
 31
0.0
  0
CIRCLE
  5
F33
330
34E
100
AcDbEntity
  8
0
 62
     7
100
AcDbCircle
 10
99.01891988167603
 20
412.2944384951117
 30
0.0
 40
0.28125
  0
LINE
  5
F34
330
34E
100
AcDbEntity
  8
0
 62
     7
100
AcDbLine
 10
98.08141988167603
 20
413.7944384951117
 30
0.0
 11
101.268919881676
 21
413.7944384951117
 31
0.0
  0
LINE
  5
F35
330
34E
100
AcDbEntity
  8
0
 62
     7
100
AcDbLine
 10
96.76891988167604
 20
413.7944384951117
 30
0.0
 11
97.01891988167602
 21
413.7944384951117
 31
0.0
  0
LINE
  5
F36
330
34E
100
AcDbEntity
  8
0
 62
     7
100
AcDbLine
 10
117.2689198816761
 20
410.7944384951117
 30
0.0
 11
117.2689198816761
 21
413.7944384951117
 31
0.0
  0
LINE
  5
F37
330
34E
100
AcDbEntity
  8
0
 62
     7
100
AcDbLine
 10
112.768919881676
 20
410.7944384951117
 30
0.0
 11
112.768919881676
 21
413.7944384951117
 31
0.0
  0
LINE
  5
F38
330
34E
100
AcDbEntity
  8
0
 62
     7
100
AcDbLine
 10
115.9564198816761
 20
410.7944384951117
 30
0.0
 11
112.768919881676
 21
410.7944384951117
 31
0.0
  0
CIRCLE
  5
F39
330
34E
100
AcDbEntity
  8
0
 62
     7
100
AcDbCircle
 10
115.0189198816761
 20
412.2944384951117
 30
0.0
 40
0.28125
  0
LINE
  5
F3A
330
34E
100
AcDbEntity
  8
0
 62
     7
100
AcDbLine
 10
117.2689198816761
 20
410.7944384951117
 30
0.0
 11
117.018919881676
 21
410.7944384951117
 31
0.0
  0
LINE
  5
F3B
330
34E
100
AcDbEntity
  8
0
 62
     7
100
AcDbLine
 10
115.9564198816761
 20
413.7944384951117
 30
0.0
 11
112.768919881676
 21
413.7944384951117
 31
0.0
  0
LINE
  5
F3C
330
34E
100
AcDbEntity
  8
0
 62
     7
100
AcDbLine
 10
117.2689198816761
 20
413.7944384951117
 30
0.0
 11
117.018919881676
 21
413.7944384951117
 31
0.0
  0
TEXT
  5
FA2
330
34E
100
AcDbEntity
  8
0
100
AcDbText
 10
186.4010382883818
 20
354.3581338183159
 30
0.0
 40
2.869347381591795
  1
LADDER RATED AT 1,500 LBS
 50
90.0
  7
ROMANS
100
AcDbText
  0
TEXT
  5
FA5
330
34E
100
AcDbEntity
  8
0
100
AcDbText
 10
183.6523551607463
 20
23.40297047312685
 30
0.0
 40
2.869347381591795
  1
LADDERS MANUFACTURED BY PRECISION LADDERS, LLC
 50
90.0
  7
ROMANS
100
AcDbText
  0
TEXT
  5
FA6
330
34E
100
AcDbEntity
  8
0
100
AcDbText
 10
188.2979652071329
 20
23.40297047312685
 30
0.0
 40
2.869347381591795
  1
COMPLY WITH OSHA 1910 SUBPART D AND ANSI 14.3
 50
90.0
  7
ROMANS
100
AcDbText
  0
LINE
  5
FA7
330
34E
100
AcDbEntity
  8
0
 62
     1
100
AcDbLine
 10
177.7720204218167
 20
448.1903952058718
 30
0.0
 11
177.7720204218163
 21
-30.37405791912564
 31
0.0
  0
LINE
  5
FA8
330
34E
100
AcDbEntity
  8
0
 62
     1
100
AcDbLine
 10
177.7720204218163
 20
186.126502039283
 30
0.0
 11
191.6192700574237
 21
186.126502039283
 31
0.0
  0
LINE
  5
FA9
330
34E
100
AcDbEntity
  8
0
 62
     1
100
AcDbLine
 10
177.7720204218167
 20
322.4740818985408
 30
0.0
 11
191.6192700574241
 21
322.4740818985408
 31
0.0
  0
DIMENSION
  5
111D
330
34E
100
AcDbEntity
  8
0
100
AcDbDimension
  2
*D20
 10
4.812070648677718
 20
413.7944384951117
 30
0.0
 11
4.81207064867765
 21
389.7944384951117
 31
0.0
 70
    32
  1
<>\PTYP.
 71
     5
 42
48.0
  3
STANDARD$0
100
AcDbAlignedDimension
 13
13.64089008900316
 23
365.7944384951118
 33
0.0
 14
13.64089008900322
 24
413.7944384951117
 34
0.0
 50
90.0
100
AcDbRotatedDimension
1001
ACAD
1000
DSTYLE
1002
{
1070
   140
1040
0.125
1002
}
  0
DIMENSION
  5
1135
330
34E
100
AcDbEntity
  8
0
100
AcDbDimension
  2
*D21
 10
4.812070648677718
 20
413.7944384951117
 30
0.0
 11
5.552001825405568
 21
416.7944384951117
 31
0.0
 70
   160
 71
     5
 42
6.0
  3
STANDARD$0
100
AcDbAlignedDimension
 13
19.64089008900322
 23
419.7944384951117
 33
0.0
 14
13.64089008900322
 24
413.7944384951117
 34
0.0
 50
90.0
100
AcDbRotatedDimension
1001
ACAD
1000
DSTYLE
1002
{
1070
   140
1040
0.125
1002
}
  0
LINE
  5
11F4
330
34E
100
AcDbEntity
  8
0
100
AcDbLine
 10
23.64089008900322
 20
419.7944384951117
 30
0.0
 11
22.14089008900322
 21
419.7944384951117
 31
0.0
  0
LINE
  5
11F5
330
34E
100
AcDbEntity
  8
0
100
AcDbLine
 10
106.0189198816763
 20
419.7944384951117
 30
0.0
 11
106.0189198816758
 21
21.79443849511179
 31
0.0
  0
LINE
  5
11F6
330
34E
100
AcDbEntity
  8
0
100
AcDbLine
 10
106.2689198816758
 20
419.7944384951117
 30
0.0
 11
106.2689198816758
 21
21.79443849511179
 31
0.0
  0
LINE
  5
11F7
330
34E
100
AcDbEntity
  8
0
100
AcDbLine
 10
106.7064198816761
 20
419.7944384951117
 30
0.0
 11
106.7064198816758
 21
21.79443849511179
 31
0.0
  0
LINE
  5
11F8
330
34E
100
AcDbEntity
  8
0
100
AcDbLine
 10
107.3314198816761
 20
419.7944384951117
 30
0.0
 11
107.3314198816758
 21
21.79443849511179
 31
0.0
  0
LINE
  5
11F9
330
34E
100
AcDbEntity
  8
0
100
AcDbLine
 10
107.7689198816761
 20
419.7944384951117
 30
0.0
 11
107.7689198816758
 21
21.79443849511179
 31
0.0
  0
LINE
  5
11FA
330
34E
100
AcDbEntity
  8
0
100
AcDbLine
 10
108.0189198816761
 20
419.7944384951117
 30
0.0
 11
108.0189198816758
 21
21.79443849511179
 31
0.0
  0
LINE
  5
11FB
330
34E
100
AcDbEntity
  8
0
100
AcDbLine
 10
23.64089008900299
 20
21.79443849511179
 30
0.0
 11
23.64089008900322
 21
419.7944384951117
 31
0.0
  0
LINE
  5
11FC
330
34E
100
AcDbEntity
  8
0
100
AcDbLine
 10
106.0189198816763
 20
419.7944384951117
 30
0.0
 11
108.0189198816761
 21
419.7944384951117
 31
0.0
  0
LINE
  5
11FD
330
34E
100
AcDbEntity
  8
0
100
AcDbLine
 10
106.0189198816758
 20
21.79443849511179
 30
0.0
 11
108.0189198816758
 21
21.79443849511179
 31
0.0
  0
LINE
  5
1204
330
34E
100
AcDbEntity
  8
0
100
AcDbLine
 10
-88.53539836330808
 20
284.8351677081375
 30
0.0
 11
-88.72161736330816
 21
284.5313367081376
 31
0.0
  0
LINE
  5
1205
330
34E
100
AcDbEntity
  8
0
100
AcDbLine
 10
-85.66615561330824
 20
280.6550412081378
 30
0.0
 11
-85.66615561330824
 21
280.9392702081377
 31
0.0
  0
ARC
  5
1206
330
34E
100
AcDbEntity
  8
0
100
AcDbCircle
 10
-85.89647911330823
 20
280.9392702081377
 30
0.0
 40
0.2303234999999958
100
AcDbArc
 50
0.0
 51
90.0
  0
ARC
  5
1207
330
34E
100
AcDbEntity
  8
0
100
AcDbCircle
 10
-85.89647911330823
 20
280.6550412081378
 30
0.0
 40
0.2303234999999958
100
AcDbArc
 50
270.0
 51
0.0
  0
LINE
  5
1208
330
34E
100
AcDbEntity
  8
0
100
AcDbLine
 10
-85.89647911330823
 20
281.1695937081377
 30
0.0
 11
-86.20031011330821
 21
281.1695937081377
 31
0.0
  0
LINE
  5
1209
330
34E
100
AcDbEntity
  8
0
100
AcDbLine
 10
-86.43063361330819
 20
281.3999172081376
 30
0.0
 11
-86.43063361330819
 21
281.7037482081377
 31
0.0
  0
ARC
  5
120A
330
34E
100
AcDbEntity
  8
0
100
AcDbCircle
 10
-86.20031011330821
 20
281.3999172081376
 30
0.0
 40
0.2303234999999958
100
AcDbArc
 50
180.0
 51
270.0
  0
ARC
  5
120B
330
34E
100
AcDbEntity
  8
0
100
AcDbCircle
 10
-86.66095711330818
 20
281.7037482081377
 30
0.0
 40
0.2303234999999958
100
AcDbArc
 50
0.0
 51
90.0
  0
LINE
  5
120C
330
34E
100
AcDbEntity
  8
0
100
AcDbLine
 10
-86.66095711330818
 20
281.9340717081377
 30
0.0
 11
-88.64810986330818
 21
281.9340717081377
 31
0.0
  0
ARC
  5
120D
330
34E
100
AcDbEntity
  8
0
100
AcDbCircle
 10
-88.64810986330818
 20
282.0075792081376
 30
0.0
 40
0.0735074999999987
100
AcDbArc
 50
180.0
 51
270.0
  0
LINE
  5
120E
330
34E
100
AcDbEntity
  8
0
100
AcDbLine
 10
-85.89647911330823
 20
280.4247177081377
 30
0.0
 11
-86.96478811330814
 21
280.4247177081377
 31
0.0
  0
LINE
  5
120F
330
34E
100
AcDbEntity
  8
0
100
AcDbLine
 10
-87.19511161330814
 20
280.6550412081378
 30
0.0
 11
-87.19511161330814
 21
280.9392702081377
 31
0.0
  0
ARC
  5
1210
330
34E
100
AcDbEntity
  8
0
100
AcDbCircle
 10
-87.42543511330813
 20
280.9392702081377
 30
0.0
 40
0.2303234999999958
100
AcDbArc
 50
0.0
 51
90.0
  0
ARC
  5
1211
330
34E
100
AcDbEntity
  8
0
100
AcDbCircle
 10
-86.96478811330814
 20
280.6550412081378
 30
0.0
 40
0.2303234999999958
100
AcDbArc
 50
180.0
 51
270.0
  0
LINE
  5
1212
330
34E
100
AcDbEntity
  8
0
100
AcDbLine
 10
-87.42543511330813
 20
281.1695937081377
 30
0.0
 11
-89.25822211330803
 21
281.1695937081377
 31
0.0
  0
ARC
  5
1213
330
34E
100
AcDbEntity
  8
0
100
AcDbCircle
 10
-89.25822211330803
 20
281.3999172081376
 30
0.0
 40
0.2303234999999958
100
AcDbArc
 50
180.0
 51
270.0
  0
LINE
  5
1214
330
34E
100
AcDbEntity
  8
0
100
AcDbLine
 10
-89.48854561330803
 20
281.3999172081376
 30
0.0
 11
-89.48854561330803
 21
283.0709877081377
 31
0.0
  0
ARC
  5
1215
330
34E
100
AcDbEntity
  8
0
100
AcDbCircle
 10
-89.71886911330804
 20
283.0709877081377
 30
0.0
 40
0.2303234999999958
100
AcDbArc
 50
0.0
 51
90.0
  0
LINE
  5
1216
330
34E
100
AcDbEntity
  8
0
100
AcDbLine
 10
-88.72161736330816
 20
282.0075792081376
 30
0.0
 11
-88.72161736330816
 21
284.5313367081376
 31
0.0
  0
LINE
  5
1217
330
34E
100
AcDbEntity
  8
0
100
AcDbLine
 10
-88.53539836330808
 20
284.8351677081375
 30
0.0
 11
-88.53539836330808
 21
287.0550942081375
 31
0.0
  0
ARC
  5
1218
330
34E
100
AcDbEntity
  8
0
100
AcDbCircle
 10
-88.76572186330809
 20
287.0550942081375
 30
0.0
 40
0.2303234999999958
100
AcDbArc
 50
0.0
 51
90.0
  0
LINE
  5
1219
330
34E
100
AcDbEntity
  8
0
100
AcDbLine
 10
-93.50940586330796
 20
284.8351677081375
 30
0.0
 11
-93.32318686330804
 21
284.5313367081376
 31
0.0
  0
LINE
  5
121A
330
34E
100
AcDbEntity
  8
0
100
AcDbLine
 10
-96.37864861330802
 20
280.6550412081378
 30
0.0
 11
-96.37864861330802
 21
280.9392702081377
 31
0.0
  0
ARC
  5
121B
330
34E
100
AcDbEntity
  8
0
100
AcDbCircle
 10
-96.14832511330803
 20
280.9392702081377
 30
0.0
 40
0.2303234999999958
100
AcDbArc
 50
90.0
 51
180.0
  0
LINE
  5
121C
330
34E
100
AcDbEntity
  8
0
100
AcDbLine
 10
-96.14832511330803
 20
281.1695937081377
 30
0.0
 11
-95.84449411330801
 21
281.1695937081377
 31
0.0
  0
LINE
  5
121D
330
34E
100
AcDbEntity
  8
0
100
AcDbLine
 10
-95.61417061330802
 20
281.3999172081376
 30
0.0
 11
-95.61417061330802
 21
281.7037482081377
 31
0.0
  0
ARC
  5
121E
330
34E
100
AcDbEntity
  8
0
100
AcDbCircle
 10
-95.84449411330801
 20
281.3999172081376
 30
0.0
 40
0.2303234999999958
100
AcDbArc
 50
270.0
 51
0.0
  0
ARC
  5
121F
330
34E
100
AcDbEntity
  8
0
100
AcDbCircle
 10
-95.38384711330806
 20
281.7037482081377
 30
0.0
 40
0.2303234999999958
100
AcDbArc
 50
90.0
 51
180.0
  0
LINE
  5
1220
330
34E
100
AcDbEntity
  8
0
100
AcDbLine
 10
-95.38384711330806
 20
281.9340717081377
 30
0.0
 11
-93.39669436330806
 21
281.9340717081377
 31
0.0
  0
ARC
  5
1221
330
34E
100
AcDbEntity
  8
0
100
AcDbCircle
 10
-93.39669436330806
 20
282.0075792081376
 30
0.0
 40
0.0735074999999987
100
AcDbArc
 50
270.0
 51
0.0
  0
LINE
  5
1222
330
34E
100
AcDbEntity
  8
0
100
AcDbLine
 10
-96.14832511330803
 20
280.4247177081377
 30
0.0
 11
-95.08001611330806
 21
280.4247177081377
 31
0.0
  0
ARC
  5
1223
330
34E
100
AcDbEntity
  8
0
100
AcDbCircle
 10
-96.14832511330803
 20
280.6550412081378
 30
0.0
 40
0.2303234999999958
100
AcDbArc
 50
180.0
 51
270.0
  0
LINE
  5
1224
330
34E
100
AcDbEntity
  8
0
100
AcDbLine
 10
-94.84969261330807
 20
280.6550412081378
 30
0.0
 11
-94.84969261330807
 21
280.9392702081377
 31
0.0
  0
ARC
  5
1225
330
34E
100
AcDbEntity
  8
0
100
AcDbCircle
 10
-94.61936911330807
 20
280.9392702081377
 30
0.0
 40
0.2303234999999958
100
AcDbArc
 50
90.0
 51
180.0
  0
ARC
  5
1226
330
34E
100
AcDbEntity
  8
0
100
AcDbCircle
 10
-95.08001611330806
 20
280.6550412081378
 30
0.0
 40
0.2303234999999958
100
AcDbArc
 50
270.0
 51
0.0
  0
LINE
  5
1227
330
34E
100
AcDbEntity
  8
0
100
AcDbLine
 10
-94.61936911330807
 20
281.1695937081377
 30
0.0
 11
-92.78658211330801
 21
281.1695937081377
 31
0.0
  0
LINE
  5
1228
330
34E
100
AcDbEntity
  8
0
100
AcDbLine
 10
-92.55625861330802
 20
281.3999172081376
 30
0.0
 11
-92.55625861330802
 21
283.0709877081377
 31
0.0
  0
ARC
  5
1229
330
34E
100
AcDbEntity
  8
0
100
AcDbCircle
 10
-92.32593511330804
 20
283.0709877081377
 30
0.0
 40
0.2303234999999958
100
AcDbArc
 50
90.0
 51
180.0
  0
ARC
  5
122A
330
34E
100
AcDbEntity
  8
0
100
AcDbCircle
 10
-92.78658211330801
 20
281.3999172081376
 30
0.0
 40
0.2303234999999958
100
AcDbArc
 50
270.0
 51
0.0
  0
LINE
  5
122B
330
34E
100
AcDbEntity
  8
0
100
AcDbLine
 10
-93.32318686330804
 20
282.0075792081376
 30
0.0
 11
-93.32318686330804
 21
284.5313367081376
 31
0.0
  0
LINE
  5
122C
330
34E
100
AcDbEntity
  8
0
100
AcDbLine
 10
-93.50940586330796
 20
284.8351677081375
 30
0.0
 11
-93.50940586330796
 21
287.0550942081375
 31
0.0
  0
ARC
  5
122D
330
34E
100
AcDbEntity
  8
0
100
AcDbCircle
 10
-93.27908236330797
 20
287.0550942081375
 30
0.0
 40
0.2303234999999958
100
AcDbArc
 50
90.0
 51
180.0
  0
LINE
  5
122E
330
34E
100
AcDbEntity
  8
0
100
AcDbLine
 10
-92.32593511330804
 20
283.3013112081376
 30
0.0
 11
-89.71886911330804
 21
283.3013112081376
 31
0.0
  0
LINE
  5
122F
330
34E
100
AcDbEntity
  8
0
100
AcDbLine
 10
-93.27908236330797
 20
287.2854177081375
 30
0.0
 11
-92.19362161330799
 21
287.2854177081375
 31
0.0
  0
LINE
  5
1230
330
34E
100
AcDbEntity
  8
0
100
AcDbLine
 10
-91.96329811330803
 20
287.0550942081375
 30
0.0
 11
-91.96329811330803
 21
286.5209397081376
 31
0.0
  0
ARC
  5
1231
330
34E
100
AcDbEntity
  8
0
100
AcDbCircle
 10
-92.19362161330799
 20
287.0550942081375
 30
0.0
 40
0.2303234999999958
100
AcDbArc
 50
0.0
 51
90.0
  0
LINE
  5
1232
330
34E
100
AcDbEntity
  8
0
100
AcDbLine
 10
-91.96329811330803
 20
286.5209397081376
 30
0.0
 11
-92.32593511330804
 21
286.5209397081376
 31
0.0
  0
LINE
  5
1233
330
34E
100
AcDbEntity
  8
0
100
AcDbLine
 10
-92.55625861330802
 20
286.2906162081375
 30
0.0
 11
-92.55625861330802
 21
285.8765239581376
 31
0.0
  0
LINE
  5
1234
330
34E
100
AcDbEntity
  8
0
100
AcDbLine
 10
-92.55625861330802
 20
285.7197079581377
 30
0.0
 11
-92.55625861330802
 21
285.3056157081375
 31
0.0
  0
ARC
  5
1235
330
34E
100
AcDbEntity
  8
0
100
AcDbCircle
 10
-92.32593511330804
 20
286.2906162081375
 30
0.0
 40
0.2303234999999958
100
AcDbArc
 50
90.0
 51
180.0
  0
LINE
  5
1236
330
34E
100
AcDbEntity
  8
0
100
AcDbLine
 10
-92.32593511330804
 20
285.0752922081376
 30
0.0
 11
-92.19362161330799
 21
285.0752922081376
 31
0.0
  0
ARC
  5
1237
330
34E
100
AcDbEntity
  8
0
100
AcDbCircle
 10
-92.32593511330804
 20
285.3056157081375
 30
0.0
 40
0.2303234999999958
100
AcDbArc
 50
180.0
 51
270.0
  0
LINE
  5
1238
330
34E
100
AcDbEntity
  8
0
100
AcDbLine
 10
-91.96329811330803
 20
284.8449687081376
 30
0.0
 11
-91.96329811330803
 21
284.7616602081377
 31
0.0
  0
ARC
  5
1239
330
34E
100
AcDbEntity
  8
0
100
AcDbCircle
 10
-91.73297461330802
 20
284.7616602081377
 30
0.0
 40
0.2303234999999958
100
AcDbArc
 50
179.9999999999935
 51
270.0
  0
ARC
  5
123A
330
34E
100
AcDbEntity
  8
0
100
AcDbCircle
 10
-92.19362161330799
 20
284.8449687081376
 30
0.0
 40
0.2303234999999958
100
AcDbArc
 50
0.0
 51
90.0
  0
LINE
  5
123B
330
34E
100
AcDbEntity
  8
0
100
AcDbLine
 10
-91.73297461330802
 20
284.5313367081376
 30
0.0
 11
-90.31182961330802
 21
284.5313367081376
 31
0.0
  0
LINE
  5
123C
330
34E
100
AcDbEntity
  8
0
100
AcDbLine
 10
-90.08150611330803
 20
287.0550942081375
 30
0.0
 11
-90.08150611330803
 21
286.5209397081376
 31
0.0
  0
ARC
  5
123D
330
34E
100
AcDbEntity
  8
0
100
AcDbCircle
 10
-89.85118261330809
 20
287.0550942081375
 30
0.0
 40
0.2303234999999958
100
AcDbArc
 50
90.0
 51
180.0
  0
LINE
  5
123E
330
34E
100
AcDbEntity
  8
0
100
AcDbLine
 10
-90.08150611330803
 20
286.5209397081376
 30
0.0
 11
-89.71886911330821
 21
286.5209397081376
 31
0.0
  0
LINE
  5
123F
330
34E
100
AcDbEntity
  8
0
100
AcDbLine
 10
-89.48854561330822
 20
286.2906162081375
 30
0.0
 11
-89.48854561330822
 21
285.8765239581376
 31
0.0
  0
LINE
  5
1240
330
34E
100
AcDbEntity
  8
0
100
AcDbLine
 10
-89.48854561330822
 20
285.7197079581377
 30
0.0
 11
-89.48854561330822
 21
285.3056157081375
 31
0.0
  0
ARC
  5
1241
330
34E
100
AcDbEntity
  8
0
100
AcDbCircle
 10
-89.71886911330821
 20
286.2906162081375
 30
0.0
 40
0.2303234999999958
100
AcDbArc
 50
359.9999999999935
 51
90.0
  0
ARC
  5
1242
330
34E
100
AcDbEntity
  8
0
100
AcDbCircle
 10
-89.71886911330821
 20
285.3056157081375
 30
0.0
 40
0.2303234999999958
100
AcDbArc
 50
270.0
 51
0.0
  0
LINE
  5
1243
330
34E
100
AcDbEntity
  8
0
100
AcDbLine
 10
-89.71886911330821
 20
285.0752922081376
 30
0.0
 11
-89.85118261330809
 21
285.0752922081376
 31
0.0
  0
LINE
  5
1244
330
34E
100
AcDbEntity
  8
0
100
AcDbLine
 10
-90.08150611330803
 20
284.8449687081376
 30
0.0
 11
-90.08150611330803
 21
284.7616602081377
 31
0.0
  0
ARC
  5
1245
330
34E
100
AcDbEntity
  8
0
100
AcDbCircle
 10
-89.85118261330809
 20
284.8449687081376
 30
0.0
 40
0.2303234999999958
100
AcDbArc
 50
90.0
 51
180.0
  0
ARC
  5
1246
330
34E
100
AcDbEntity
  8
0
100
AcDbCircle
 10
-90.31182961330802
 20
284.7616602081377
 30
0.0
 40
0.2303234999999958
100
AcDbArc
 50
270.0
 51
0.0
  0
ARC
  5
1247
330
34E
100
AcDbEntity
  8
0
100
AcDbCircle
 10
-92.55625861330802
 20
285.7981159581376
 30
0.0
 40
0.0784079999999986
100
AcDbArc
 50
270.0
 51
90.0
  0
ARC
  5
1248
330
34E
100
AcDbEntity
  8
0
100
AcDbCircle
 10
-89.48854561330822
 20
285.7981159581376
 30
0.0
 40
0.0784079999999986
100
AcDbArc
 50
90.0
 51
270.0
  0
LINE
  5
1249
330
34E
100
AcDbEntity
  8
0
100
AcDbLine
 10
-89.85118261330809
 20
287.2854177081375
 30
0.0
 11
-88.76572186330809
 21
287.2854177081375
 31
0.0
  0
LINE
  5
124A
330
34E
100
AcDbEntity
  8
0
100
AcDbLine
 10
-93.47265211330798
 20
298.3115427081374
 30
0.0
 11
-93.47265211330798
 21
287.2854177081377
 31
0.0
  0
LINE
  5
124B
330
34E
100
AcDbEntity
  8
0
100
AcDbLine
 10
-93.47265211330798
 20
287.2854177081377
 30
0.0
 11
-88.57215211330808
 21
287.2854177081377
 31
0.0
  0
LINE
  5
124C
330
34E
100
AcDbEntity
  8
0
100
AcDbLine
 10
-93.47265211330798
 20
288.2042614581376
 30
0.0
 11
-88.57215211330808
 21
288.2042614581376
 31
0.0
  0
LINE
  5
124D
330
34E
100
AcDbEntity
  8
0
100
AcDbLine
 10
-88.57215211330808
 20
287.2854177081377
 30
0.0
 11
-88.57215211330808
 21
298.3115427081374
 31
0.0
  0
LINE
  5
124E
330
34E
100
AcDbEntity
  8
0
100
AcDbLine
 10
-88.57215211330808
 20
298.3115427081374
 30
0.0
 11
-93.47265211330798
 21
298.3115427081374
 31
0.0
  0
LINE
  5
124F
330
34E
100
AcDbEntity
  8
0
100
AcDbLine
 10
-92.70694898830798
 20
288.8168239581377
 30
0.0
 11
-89.33785523830806
 21
288.8168239581377
 31
0.0
  0
LINE
  5
1250
330
34E
100
AcDbEntity
  8
0
100
AcDbLine
 10
-89.33785523830806
 20
288.8168239581377
 30
0.0
 11
-89.33785523830806
 21
288.2042614581376
 31
0.0
  0
LINE
  5
1251
330
34E
100
AcDbEntity
  8
0
100
AcDbLine
 10
-89.33785523830806
 20
288.2042614581376
 30
0.0
 11
-92.70694898830798
 21
288.2042614581376
 31
0.0
  0
LINE
  5
1252
330
34E
100
AcDbEntity
  8
0
100
AcDbLine
 10
-92.70694898830798
 20
288.2042614581376
 30
0.0
 11
-92.70694898830798
 21
288.8168239581377
 31
0.0
  0
LINE
  5
1253
330
34E
100
AcDbEntity
  8
0
100
AcDbLine
 10
-92.55380836330811
 20
290.3482302081375
 30
0.0
 11
-89.4909958633081
 21
290.3482302081375
 31
0.0
  0
LINE
  5
1254
330
34E
100
AcDbEntity
  8
0
100
AcDbLine
 10
-89.4909958633081
 20
290.3482302081375
 30
0.0
 11
-89.49099586330794
 21
288.8168239581377
 31
0.0
  0
LINE
  5
1255
330
34E
100
AcDbEntity
  8
0
100
AcDbLine
 10
-89.49099586330794
 20
288.8168239581377
 30
0.0
 11
-92.55380836330811
 21
288.8168239581377
 31
0.0
  0
LINE
  5
1256
330
34E
100
AcDbEntity
  8
0
100
AcDbLine
 10
-92.55380836330811
 20
288.8168239581377
 30
0.0
 11
-92.55380836330811
 21
290.3482302081375
 31
0.0
  0
LINE
  5
1257
330
34E
100
AcDbEntity
  8
0
100
AcDbLine
 10
-91.0224021133081
 20
288.8168239581377
 30
0.0
 11
-91.0224021133081
 21
290.3482302081375
 31
0.0
  0
LINE
  5
1258
330
34E
100
AcDbEntity
  8
0
100
AcDbLine
 10
-91.78810523830811
 20
290.3482302081375
 30
0.0
 11
-91.52285789510539
 21
290.5013708331376
 31
0.0
  0
LINE
  5
1259
330
34E
100
AcDbEntity
  8
0
100
AcDbLine
 10
-91.78810523830811
 20
290.6545114581376
 30
0.0
 11
-91.52285789510539
 21
290.5013708331376
 31
0.0
  0
LINE
  5
125A
330
34E
100
AcDbEntity
  8
0
100
AcDbLine
 10
-91.78810523830811
 20
290.6545114581376
 30
0.0
 11
-91.52285789510539
 21
290.8076520831376
 31
0.0
  0
LINE
  5
125B
330
34E
100
AcDbEntity
  8
0
100
AcDbLine
 10
-91.78810523830811
 20
290.9607927081376
 30
0.0
 11
-91.52285789510539
 21
290.8076520831376
 31
0.0
  0
LINE
  5
125C
330
34E
100
AcDbEntity
  8
0
100
AcDbLine
 10
-91.78810523830811
 20
290.9607927081376
 30
0.0
 11
-91.52285789510539
 21
291.1139333331376
 31
0.0
  0
LINE
  5
125D
330
34E
100
AcDbEntity
  8
0
100
AcDbLine
 10
-90.25669898830811
 20
290.3482302081375
 30
0.0
 11
-90.52194633151087
 21
290.5013708331376
 31
0.0
  0
LINE
  5
125E
330
34E
100
AcDbEntity
  8
0
100
AcDbLine
 10
-90.25669898830811
 20
290.6545114581376
 30
0.0
 11
-90.52194633151087
 21
290.5013708331376
 31
0.0
  0
LINE
  5
125F
330
34E
100
AcDbEntity
  8
0
100
AcDbLine
 10
-90.25669898830811
 20
290.6545114581376
 30
0.0
 11
-90.52194633151087
 21
290.8076520831376
 31
0.0
  0
LINE
  5
1260
330
34E
100
AcDbEntity
  8
0
100
AcDbLine
 10
-90.25669898830811
 20
290.9607927081376
 30
0.0
 11
-90.52194633151087
 21
290.8076520831376
 31
0.0
  0
LINE
  5
1261
330
34E
100
AcDbEntity
  8
0
100
AcDbLine
 10
-91.52285789510539
 20
290.5013708331376
 30
0.0
 11
-90.52194633151087
 21
290.5013708331376
 31
0.0
  0
LINE
  5
1262
330
34E
100
AcDbEntity
  8
0
100
AcDbLine
 10
-90.25669898830811
 20
290.6545114581374
 30
0.0
 11
-91.78810523830811
 21
290.6545114581376
 31
0.0
  0
LINE
  5
1263
330
34E
100
AcDbEntity
  8
0
100
AcDbLine
 10
-91.52285789510539
 20
290.8076520831376
 30
0.0
 11
-90.52194633151087
 21
290.8076520831376
 31
0.0
  0
LINE
  5
1264
330
34E
100
AcDbEntity
  8
0
100
AcDbLine
 10
-90.25669898830811
 20
290.9607927081376
 30
0.0
 11
-91.78810523830811
 21
290.9607927081376
 31
0.0
  0
LINE
  5
1265
330
34E
100
AcDbEntity
  8
0
100
AcDbLine
 10
-91.52285789510539
 20
291.1139333331376
 30
0.0
 11
-90.25669898830793
 21
290.9607927081376
 31
0.0
  0
LINE
  5
130E
330
34E
100
AcDbEntity
  8
0
 62
     7
100
AcDbLine
 10
115.9564198816759
 20
155.7944384951117
 30
0.0
 11
108.018919881676
 21
155.7944384951117
 31
0.0
  0
LINE
  5
130F
330
34E
100
AcDbEntity
  8
0
 62
     7
100
AcDbLine
 10
115.9564198816759
 20
155.0444384951117
 30
0.0
 11
108.018919881676
 21
155.0444384951118
 31
0.0
  0
LINE
  5
1310
330
34E
100
AcDbEntity
  8
0
 62
     7
100
AcDbLine
 10
115.9564198816759
 20
143.7944384951117
 30
0.0
 11
108.018919881676
 21
143.7944384951118
 31
0.0
  0
LINE
  5
1311
330
34E
100
AcDbEntity
  8
0
 62
     7
100
AcDbLine
 10
115.9564198816759
 20
143.0444384951117
 30
0.0
 11
108.018919881676
 21
143.0444384951118
 31
0.0
  0
LINE
  5
1312
330
34E
100
AcDbEntity
  8
0
 62
     7
100
AcDbLine
 10
115.9564198816759
 20
131.7944384951117
 30
0.0
 11
108.018919881676
 21
131.7944384951117
 31
0.0
  0
LINE
  5
1313
330
34E
100
AcDbEntity
  8
0
 62
     7
100
AcDbLine
 10
115.9564198816759
 20
131.0444384951117
 30
0.0
 11
108.018919881676
 21
131.0444384951117
 31
0.0
  0
LINE
  5
1314
330
34E
100
AcDbEntity
  8
0
 62
     7
100
AcDbLine
 10
115.9564198816759
 20
119.7944384951117
 30
0.0
 11
108.018919881676
 21
119.7944384951117
 31
0.0
  0
LINE
  5
1315
330
34E
100
AcDbEntity
  8
0
 62
     7
100
AcDbLine
 10
115.9564198816759
 20
119.0444384951117
 30
0.0
 11
108.018919881676
 21
119.0444384951117
 31
0.0
  0
LINE
  5
1316
330
34E
100
AcDbEntity
  8
0
 62
     7
100
AcDbLine
 10
115.9564198816759
 20
107.7944384951117
 30
0.0
 11
108.0189198816758
 21
107.7944384951118
 31
0.0
  0
LINE
  5
1317
330
34E
100
AcDbEntity
  8
0
 62
     7
100
AcDbLine
 10
115.9564198816759
 20
107.0444384951117
 30
0.0
 11
108.0189198816758
 21
107.0444384951118
 31
0.0
  0
LINE
  5
1318
330
34E
100
AcDbEntity
  8
0
 62
     7
100
AcDbLine
 10
115.9564198816759
 20
95.79443849511177
 30
0.0
 11
108.0189198816758
 21
95.79443849511177
 31
0.0
  0
LINE
  5
1319
330
34E
100
AcDbEntity
  8
0
 62
     7
100
AcDbLine
 10
115.9564198816759
 20
95.04443849511176
 30
0.0
 11
108.0189198816758
 21
95.04443849511176
 31
0.0
  0
LINE
  5
131A
330
34E
100
AcDbEntity
  8
0
 62
     7
100
AcDbLine
 10
115.9564198816759
 20
83.79443849511176
 30
0.0
 11
108.0189198816758
 21
83.79443849511176
 31
0.0
  0
LINE
  5
131B
330
34E
100
AcDbEntity
  8
0
 62
     7
100
AcDbLine
 10
115.9564198816759
 20
83.04443849511176
 30
0.0
 11
108.0189198816758
 21
83.04443849511176
 31
0.0
  0
LINE
  5
131C
330
34E
100
AcDbEntity
  8
0
 62
     7
100
AcDbLine
 10
115.9564198816759
 20
71.79443849511176
 30
0.0
 11
108.0189198816758
 21
71.79443849511176
 31
0.0
  0
LINE
  5
131D
330
34E
100
AcDbEntity
  8
0
 62
     7
100
AcDbLine
 10
115.9564198816759
 20
71.04443849511176
 30
0.0
 11
108.0189198816758
 21
71.04443849511176
 31
0.0
  0
LINE
  5
131E
330
34E
100
AcDbEntity
  8
0
 62
     7
100
AcDbLine
 10
115.9564198816759
 20
59.79443849511177
 30
0.0
 11
108.0189198816758
 21
59.79443849511177
 31
0.0
  0
LINE
  5
131F
330
34E
100
AcDbEntity
  8
0
 62
     7
100
AcDbLine
 10
115.9564198816759
 20
59.04443849511178
 30
0.0
 11
108.0189198816758
 21
59.04443849511181
 31
0.0
  0
LINE
  5
1320
330
34E
100
AcDbEntity
  8
0
 62
     7
100
AcDbLine
 10
115.9564198816759
 20
47.79443849511176
 30
0.0
 11
108.0189198816758
 21
47.79443849511177
 31
0.0
  0
LINE
  5
1321
330
34E
100
AcDbEntity
  8
0
 62
     7
100
AcDbLine
 10
115.9564198816759
 20
47.04443849511176
 30
0.0
 11
108.0189198816758
 21
47.04443849511178
 31
0.0
  0
LINE
  5
1322
330
34E
100
AcDbEntity
  8
0
 62
     7
100
AcDbLine
 10
115.9564198816759
 20
35.79443849511176
 30
0.0
 11
108.0189198816758
 21
35.79443849511179
 31
0.0
  0
LINE
  5
1323
330
34E
100
AcDbEntity
  8
0
 62
     7
100
AcDbLine
 10
115.9564198816759
 20
35.04443849511176
 30
0.0
 11
108.0189198816758
 21
35.04443849511179
 31
0.0
  0
LINE
  5
1324
330
34E
100
AcDbEntity
  8
0
 62
     7
100
AcDbLine
 10
115.9564198816759
 20
23.79443849511176
 30
0.0
 11
108.0189198816758
 21
23.79443849511179
 31
0.0
  0
LINE
  5
1325
330
34E
100
AcDbEntity
  8
0
 62
     7
100
AcDbLine
 10
115.9564198816759
 20
23.04443849511176
 30
0.0
 11
108.0189198816758
 21
23.04443849511179
 31
0.0
  0
LINE
  5
1326
330
34E
100
AcDbEntity
  8
0
 62
     7
100
AcDbLine
 10
115.9564198816759
 20
11.79443849511176
 30
0.0
 11
98.08141988167598
 21
11.79443849511179
 31
0.0
  0
LINE
  5
1327
330
34E
100
AcDbEntity
  8
0
 62
     7
100
AcDbLine
 10
115.9564198816759
 20
11.04443849511176
 30
0.0
 11
98.08141988167598
 21
11.04443849511179
 31
0.0
  0
LINE
  5
1328
330
34E
100
AcDbEntity
  8
0
 62
     7
100
AcDbLine
 10
115.9564198816759
 20
-0.2055615048882373
 30
0.0
 11
98.08141988167598
 21
-0.2055615048882089
 31
0.0
  0
LINE
  5
1329
330
34E
100
AcDbEntity
  8
0
 62
     7
100
AcDbLine
 10
115.9564198816759
 20
-0.9555615048882373
 30
0.0
 11
98.08141988167598
 21
-0.9555615048882089
 31
0.0
  0
LINE
  5
132A
330
34E
100
AcDbEntity
  8
0
 62
     7
100
AcDbLine
 10
115.9564198816759
 20
-12.20556150488824
 30
0.0
 11
98.08141988167598
 21
-12.20556150488821
 31
0.0
  0
LINE
  5
132B
330
34E
100
AcDbEntity
  8
0
 62
     7
100
AcDbLine
 10
115.9564198816759
 20
-12.95556150488823
 30
0.0
 11
98.08141988167598
 21
-12.95556150488821
 31
0.0
  0
LINE
  5
1368
330
34E
100
AcDbEntity
  8
0
 62
     7
100
AcDbLine
 10
13.64089008900316
 20
74.79443849511179
 30
0.0
 11
22.14089008900316
 21
74.79443849511179
 31
0.0
  0
LINE
  5
1369
330
34E
100
AcDbEntity
  8
0
 62
     7
100
AcDbLine
 10
13.64089008900316
 20
77.79443849511179
 30
0.0
 11
22.14089008900316
 21
77.79443849511179
 31
0.0
  0
LINE
  5
136A
330
34E
100
AcDbEntity
  8
0
 62
     7
100
AcDbLine
 10
112.7689198816759
 20
74.79443849511179
 30
0.0
 11
112.7689198816759
 21
77.79443849511179
 31
0.0
  0
LINE
  5
136B
330
34E
100
AcDbEntity
  8
0
 62
     7
100
AcDbLine
 10
115.9564198816759
 20
74.79443849511179
 30
0.0
 11
112.7689198816759
 21
74.79443849511179
 31
0.0
  0
LINE
  5
136C
330
34E
100
AcDbEntity
  8
0
 62
     7
100
AcDbLine
 10
115.9564198816759
 20
77.79443849511179
 30
0.0
 11
112.7689198816759
 21
77.79443849511179
 31
0.0
  0
CIRCLE
  5
136D
330
34E
100
AcDbEntity
  8
0
 62
     7
100
AcDbCircle
 10
115.0189198816759
 20
76.29443849511179
 30
0.0
 40
0.28125
  0
LINE
  5
136E
330
34E
100
AcDbEntity
  8
0
 62
     7
100
AcDbLine
 10
117.268919881676
 20
74.79443849511179
 30
0.0
 11
117.268919881676
 21
77.79443849511179
 31
0.0
  0
LINE
  5
136F
330
34E
100
AcDbEntity
  8
0
 62
     7
100
AcDbLine
 10
117.268919881676
 20
74.79443849511179
 30
0.0
 11
117.0189198816759
 21
74.79443849511179
 31
0.0
  0
LINE
  5
1370
330
34E
100
AcDbEntity
  8
0
 62
     7
100
AcDbLine
 10
117.268919881676
 20
77.79443849511179
 30
0.0
 11
117.0189198816759
 21
77.79443849511179
 31
0.0
  0
LINE
  5
1371
330
34E
100
AcDbEntity
  8
0
 62
     7
100
AcDbLine
 10
96.76891988167596
 20
74.79443849511179
 30
0.0
 11
96.76891988167596
 21
77.79443849511179
 31
0.0
  0
LINE
  5
1372
330
34E
100
AcDbEntity
  8
0
 62
     7
100
AcDbLine
 10
101.2689198816759
 20
74.79443849511179
 30
0.0
 11
101.2689198816759
 21
77.79443849511179
 31
0.0
  0
LINE
  5
1373
330
34E
100
AcDbEntity
  8
0
 62
     7
100
AcDbLine
 10
98.08141988167598
 20
74.79443849511179
 30
0.0
 11
101.2689198816759
 21
74.79443849511179
 31
0.0
  0
LINE
  5
1374
330
34E
100
AcDbEntity
  8
0
 62
     7
100
AcDbLine
 10
96.76891988167596
 20
74.79443849511179
 30
0.0
 11
97.01891988167597
 21
74.79443849511179
 31
0.0
  0
CIRCLE
  5
1375
330
34E
100
AcDbEntity
  8
0
 62
     7
100
AcDbCircle
 10
99.01891988167598
 20
76.29443849511182
 30
0.0
 40
0.28125
  0
LINE
  5
1376
330
34E
100
AcDbEntity
  8
0
 62
     7
100
AcDbLine
 10
98.08141988167598
 20
77.79443849511179
 30
0.0
 11
101.2689198816759
 21
77.79443849511179
 31
0.0
  0
LINE
  5
1377
330
34E
100
AcDbEntity
  8
0
 62
     7
100
AcDbLine
 10
96.76891988167596
 20
77.79443849511179
 30
0.0
 11
97.01891988167597
 21
77.79443849511179
 31
0.0
  0
LINE
  5
1378
330
34E
100
AcDbEntity
  8
0
 62
     7
100
AcDbLine
 10
13.64089008900316
 20
26.79443849511179
 30
0.0
 11
22.14089008900316
 21
26.79443849511179
 31
0.0
  0
LINE
  5
1379
330
34E
100
AcDbEntity
  8
0
 62
     7
100
AcDbLine
 10
13.64089008900316
 20
29.79443849511179
 30
0.0
 11
22.14089008900316
 21
29.79443849511179
 31
0.0
  0
LINE
  5
137A
330
34E
100
AcDbEntity
  8
0
 62
     7
100
AcDbLine
 10
112.7689198816759
 20
26.79443849511179
 30
0.0
 11
112.7689198816759
 21
29.79443849511179
 31
0.0
  0
LINE
  5
137B
330
34E
100
AcDbEntity
  8
0
 62
     7
100
AcDbLine
 10
115.9564198816759
 20
26.79443849511179
 30
0.0
 11
112.7689198816759
 21
26.79443849511179
 31
0.0
  0
LINE
  5
137C
330
34E
100
AcDbEntity
  8
0
 62
     7
100
AcDbLine
 10
115.9564198816759
 20
29.79443849511179
 30
0.0
 11
112.7689198816759
 21
29.79443849511179
 31
0.0
  0
CIRCLE
  5
137D
330
34E
100
AcDbEntity
  8
0
 62
     7
100
AcDbCircle
 10
115.0189198816759
 20
28.29443849511179
 30
0.0
 40
0.28125
  0
LINE
  5
137E
330
34E
100
AcDbEntity
  8
0
 62
     7
100
AcDbLine
 10
117.268919881676
 20
26.79443849511179
 30
0.0
 11
117.268919881676
 21
29.79443849511179
 31
0.0
  0
LINE
  5
137F
330
34E
100
AcDbEntity
  8
0
 62
     7
100
AcDbLine
 10
117.268919881676
 20
26.79443849511179
 30
0.0
 11
117.0189198816759
 21
26.79443849511179
 31
0.0
  0
LINE
  5
1380
330
34E
100
AcDbEntity
  8
0
 62
     7
100
AcDbLine
 10
117.268919881676
 20
29.79443849511179
 30
0.0
 11
117.0189198816759
 21
29.79443849511179
 31
0.0
  0
LINE
  5
1381
330
34E
100
AcDbEntity
  8
0
 62
     7
100
AcDbLine
 10
96.76891988167596
 20
26.79443849511179
 30
0.0
 11
96.76891988167596
 21
29.79443849511179
 31
0.0
  0
LINE
  5
1382
330
34E
100
AcDbEntity
  8
0
 62
     7
100
AcDbLine
 10
101.2689198816759
 20
26.79443849511179
 30
0.0
 11
101.2689198816759
 21
29.79443849511179
 31
0.0
  0
LINE
  5
1383
330
34E
100
AcDbEntity
  8
0
 62
     7
100
AcDbLine
 10
98.08141988167598
 20
26.79443849511179
 30
0.0
 11
101.2689198816759
 21
26.79443849511179
 31
0.0
  0
LINE
  5
1384
330
34E
100
AcDbEntity
  8
0
 62
     7
100
AcDbLine
 10
96.76891988167596
 20
26.79443849511179
 30
0.0
 11
97.01891988167597
 21
26.79443849511179
 31
0.0
  0
CIRCLE
  5
1385
330
34E
100
AcDbEntity
  8
0
 62
     7
100
AcDbCircle
 10
99.01891988167598
 20
28.29443849511182
 30
0.0
 40
0.28125
  0
LINE
  5
1386
330
34E
100
AcDbEntity
  8
0
 62
     7
100
AcDbLine
 10
98.08141988167598
 20
29.79443849511179
 30
0.0
 11
101.2689198816759
 21
29.79443849511179
 31
0.0
  0
LINE
  5
1387
330
34E
100
AcDbEntity
  8
0
 62
     7
100
AcDbLine
 10
96.76891988167596
 20
29.79443849511179
 30
0.0
 11
97.01891988167597
 21
29.79443849511179
 31
0.0
  0
LINE
  5
1399
330
34E
100
AcDbEntity
  8
0
 62
     7
100
AcDbLine
 10
13.64089008900316
 20
-6.205561504888208
 30
0.0
 11
22.14089008900316
 21
-6.205561504888208
 31
0.0
  0
LINE
  5
139A
330
34E
100
AcDbEntity
  8
0
 62
     7
100
AcDbLine
 10
13.64089008900316
 20
-3.205561504888208
 30
0.0
 11
22.14089008900316
 21
-3.205561504888208
 31
0.0
  0
LINE
  5
139B
330
34E
100
AcDbEntity
  8
0
 62
     7
100
AcDbLine
 10
112.7689198816759
 20
-6.205561504888208
 30
0.0
 11
112.7689198816759
 21
-3.205561504888208
 31
0.0
  0
LINE
  5
139C
330
34E
100
AcDbEntity
  8
0
 62
     7
100
AcDbLine
 10
115.9564198816759
 20
-6.205561504888208
 30
0.0
 11
112.7689198816759
 21
-6.205561504888208
 31
0.0
  0
LINE
  5
139D
330
34E
100
AcDbEntity
  8
0
 62
     7
100
AcDbLine
 10
115.9564198816759
 20
-3.205561504888208
 30
0.0
 11
112.7689198816759
 21
-3.205561504888208
 31
0.0
  0
CIRCLE
  5
139E
330
34E
100
AcDbEntity
  8
0
 62
     7
100
AcDbCircle
 10
115.0189198816759
 20
-4.705561504888208
 30
0.0
 40
0.28125
  0
LINE
  5
139F
330
34E
100
AcDbEntity
  8
0
 62
     7
100
AcDbLine
 10
117.268919881676
 20
-6.205561504888208
 30
0.0
 11
117.268919881676
 21
-3.205561504888208
 31
0.0
  0
LINE
  5
13A0
330
34E
100
AcDbEntity
  8
0
 62
     7
100
AcDbLine
 10
117.268919881676
 20
-6.205561504888208
 30
0.0
 11
117.0189198816759
 21
-6.205561504888208
 31
0.0
  0
LINE
  5
13A1
330
34E
100
AcDbEntity
  8
0
 62
     7
100
AcDbLine
 10
117.268919881676
 20
-3.205561504888208
 30
0.0
 11
117.0189198816759
 21
-3.205561504888208
 31
0.0
  0
LINE
  5
13A2
330
34E
100
AcDbEntity
  8
0
 62
     7
100
AcDbLine
 10
96.76891988167596
 20
-6.205561504888208
 30
0.0
 11
96.76891988167596
 21
-3.205561504888208
 31
0.0
  0
LINE
  5
13A3
330
34E
100
AcDbEntity
  8
0
 62
     7
100
AcDbLine
 10
101.2689198816759
 20
-6.205561504888208
 30
0.0
 11
101.2689198816759
 21
-3.205561504888208
 31
0.0
  0
LINE
  5
13A4
330
34E
100
AcDbEntity
  8
0
 62
     7
100
AcDbLine
 10
98.08141988167598
 20
-6.205561504888208
 30
0.0
 11
101.2689198816759
 21
-6.205561504888208
 31
0.0
  0
LINE
  5
13A5
330
34E
100
AcDbEntity
  8
0
 62
     7
100
AcDbLine
 10
96.76891988167596
 20
-6.205561504888208
 30
0.0
 11
97.01891988167597
 21
-6.205561504888208
 31
0.0
  0
CIRCLE
  5
13A6
330
34E
100
AcDbEntity
  8
0
 62
     7
100
AcDbCircle
 10
99.01891988167598
 20
-4.70556150488818
 30
0.0
 40
0.28125
  0
LINE
  5
13A7
330
34E
100
AcDbEntity
  8
0
 62
     7
100
AcDbLine
 10
98.08141988167598
 20
-3.205561504888208
 30
0.0
 11
101.2689198816759
 21
-3.205561504888208
 31
0.0
  0
LINE
  5
13A8
330
34E
100
AcDbEntity
  8
0
 62
     7
100
AcDbLine
 10
96.76891988167596
 20
-3.205561504888208
 30
0.0
 11
97.01891988167597
 21
-3.205561504888208
 31
0.0
  0
LINE
  5
13A9
330
34E
100
AcDbEntity
  8
0
 62
     7
100
AcDbLine
 10
19.64089008900322
 20
-3.205561504888208
 30
0.0
 11
19.64089008900322
 21
26.79443849511179
 31
0.0
  0
LINE
  5
13AC
330
34E
100
AcDbEntity
  8
0
 62
     7
100
AcDbLine
 10
19.64089008900322
 20
29.79443849511179
 30
0.0
 11
19.64089008900322
 21
74.79443849511179
 31
0.0
  0
LINE
  5
13AD
330
34E
100
AcDbEntity
  8
0
 62
     7
100
AcDbLine
 10
19.64089008900322
 20
77.79443849511179
 30
0.0
 11
19.64089008900316
 21
122.7944384951118
 31
0.0
  0
DIMENSION
  5
13AE
330
34E
100
AcDbEntity
  8
0
100
AcDbDimension
  2
*D22
 10
0.1908375813627572
 20
-3.205561504888204
 30
0.0
 11
-1.125242845937464
 21
-8.274290263379725
 31
0.0
 70
   160
  1
AS REQ'D
 71
     5
 42
11.0
  3
STANDARD$0
100
AcDbAlignedDimension
 13
13.64089008900316
 23
-14.20556150488821
 33
0.0
 14
13.64089008900316
 24
-3.205561504888208
 34
0.0
 50
90.0
100
AcDbRotatedDimension
1001
ACAD
1000
DSTYLE
1002
{
1070
   140
1040
0.125
1002
}
  0
LINE
  5
140C
330
34E
100
AcDbEntity
  8
0
100
AcDbLine
 10
23.64089008900299
 20
21.79443849511179
 30
0.0
 11
22.140890089003
 21
21.79443849511179
 31
0.0
  0
MTEXT
  5
1418
330
34E
100
AcDbEntity
  8
0
 62
     7
100
AcDbMText
 10
88.34463002875452
 20
291.2323040761976
 30
0.0
 40
2.12256
 41
0.0
 71
     9
 72
     1
  1
FALL-ARREST SYSTEM \P(HARRNESS BY OTHERS)
  7
ROMANS
 73
     1
 44
1.0
1001
ACAD
1000
MTEXTBEGIN
1070
    73
1070
     1
1070
    44
1040
1.0
1070
    74
1070
     0
1000
MTEXTEND
  0
LEADER
  5
1419
330
34E
100
AcDbEntity
  8
0
100
AcDbLeader
  3
STANDARD
 40
4.1015625
 76
     3
 10
106.0189198816761
 20
286.0610939466861
 30
0.0
 10
93.63358247638245
 20
292.4535419991876
 30
0.0
 10
89.55665822914312
 20
292.4535419991876
 30
0.0
211
1.0
221
-0.0000000000000002
231
0.0
213
0.0000000000000003
223
1.23046875
233
0.0
1001
ACAD
1000
DSTYLE
1002
{
1070
   147
1040
0.0625
1070
    77
1070
     0
1070
    40
1040
30.0
1002
}
  0
LINE
  5
141B
330
34E
100
AcDbEntity
  8
0
 62
     7
100
AcDbLine
 10
106.0189198816758
 20
23.04443849511179
 30
0.0
 11
98.08141988167598
 21
23.04443849511179
 31
0.0
  0
LINE
  5
141C
330
34E
100
AcDbEntity
  8
0
 62
     7
100
AcDbLine
 10
106.0189198816758
 20
23.79443849511179
 30
0.0
 11
98.08141988167598
 21
23.79443849511179
 31
0.0
  0
LINE
  5
141D
330
34E
100
AcDbEntity
  8
0
 62
     7
100
AcDbLine
 10
106.0189198816758
 20
35.04443849511179
 30
0.0
 11
98.08141988167598
 21
35.04443849511179
 31
0.0
  0
LINE
  5
141E
330
34E
100
AcDbEntity
  8
0
 62
     7
100
AcDbLine
 10
106.0189198816758
 20
35.79443849511179
 30
0.0
 11
98.08141988167598
 21
35.79443849511179
 31
0.0
  0
LINE
  5
141F
330
34E
100
AcDbEntity
  8
0
 62
     7
100
AcDbLine
 10
106.0189198816758
 20
47.04443849511178
 30
0.0
 11
98.08141988167598
 21
47.04443849511179
 31
0.0
  0
LINE
  5
1420
330
34E
100
AcDbEntity
  8
0
 62
     7
100
AcDbLine
 10
106.0189198816758
 20
47.79443849511177
 30
0.0
 11
98.08141988167598
 21
47.79443849511179
 31
0.0
  0
LINE
  5
1421
330
34E
100
AcDbEntity
  8
0
 62
     7
100
AcDbLine
 10
106.0189198816758
 20
59.04443849511181
 30
0.0
 11
98.08141988167598
 21
59.04443849511181
 31
0.0
  0
LINE
  5
1422
330
34E
100
AcDbEntity
  8
0
 62
     7
100
AcDbLine
 10
106.0189198816758
 20
59.79443849511177
 30
0.0
 11
98.08141988167598
 21
59.79443849511181
 31
0.0
  0
LINE
  5
1423
330
34E
100
AcDbEntity
  8
0
 62
     7
100
AcDbLine
 10
106.0189198816758
 20
71.04443849511176
 30
0.0
 11
98.08141988167598
 21
71.04443849511179
 31
0.0
  0
LINE
  5
1424
330
34E
100
AcDbEntity
  8
0
 62
     7
100
AcDbLine
 10
106.0189198816758
 20
71.79443849511176
 30
0.0
 11
98.08141988167598
 21
71.79443849511179
 31
0.0
  0
LINE
  5
1425
330
34E
100
AcDbEntity
  8
0
 62
     7
100
AcDbLine
 10
106.0189198816758
 20
83.04443849511176
 30
0.0
 11
98.08141988167598
 21
83.04443849511178
 31
0.0
  0
LINE
  5
1426
330
34E
100
AcDbEntity
  8
0
 62
     7
100
AcDbLine
 10
106.0189198816758
 20
83.79443849511176
 30
0.0
 11
98.08141988167598
 21
83.79443849511179
 31
0.0
  0
LINE
  5
1427
330
34E
100
AcDbEntity
  8
0
 62
     7
100
AcDbLine
 10
106.0189198816759
 20
95.04443849511176
 30
0.0
 11
98.08141988167598
 21
95.04443849511179
 31
0.0
  0
LINE
  5
1428
330
34E
100
AcDbEntity
  8
0
 62
     7
100
AcDbLine
 10
106.0189198816759
 20
95.79443849511177
 30
0.0
 11
98.08141988167598
 21
95.79443849511179
 31
0.0
  0
LINE
  5
1429
330
34E
100
AcDbEntity
  8
0
 62
     7
100
AcDbLine
 10
106.0189198816759
 20
107.0444384951118
 30
0.0
 11
98.08141988167598
 21
107.0444384951118
 31
0.0
  0
LINE
  5
142A
330
34E
100
AcDbEntity
  8
0
 62
     7
100
AcDbLine
 10
106.0189198816759
 20
107.7944384951118
 30
0.0
 11
98.08141988167598
 21
107.7944384951118
 31
0.0
  0
LINE
  5
142B
330
34E
100
AcDbEntity
  8
0
 62
     7
100
AcDbLine
 10
106.0189198816759
 20
119.0444384951117
 30
0.0
 11
98.08141988167598
 21
119.0444384951118
 31
0.0
  0
LINE
  5
142C
330
34E
100
AcDbEntity
  8
0
 62
     7
100
AcDbLine
 10
106.0189198816759
 20
119.7944384951117
 30
0.0
 11
98.08141988167598
 21
119.7944384951118
 31
0.0
  0
LINE
  5
142D
330
34E
100
AcDbEntity
  8
0
 62
     7
100
AcDbLine
 10
106.0189198816759
 20
131.0444384951117
 30
0.0
 11
98.08141988167598
 21
131.0444384951118
 31
0.0
  0
LINE
  5
142E
330
34E
100
AcDbEntity
  8
0
 62
     7
100
AcDbLine
 10
106.0189198816759
 20
131.7944384951117
 30
0.0
 11
98.08141988167598
 21
131.7944384951118
 31
0.0
  0
LINE
  5
142F
330
34E
100
AcDbEntity
  8
0
 62
     7
100
AcDbLine
 10
106.0189198816759
 20
143.0444384951118
 30
0.0
 11
98.08141988167598
 21
143.0444384951118
 31
0.0
  0
LINE
  5
1430
330
34E
100
AcDbEntity
  8
0
 62
     7
100
AcDbLine
 10
106.0189198816759
 20
143.7944384951118
 30
0.0
 11
98.08141988167598
 21
143.7944384951118
 31
0.0
  0
LINE
  5
1431
330
34E
100
AcDbEntity
  8
0
 62
     7
100
AcDbLine
 10
106.0189198816759
 20
155.0444384951118
 30
0.0
 11
98.08141988167598
 21
155.0444384951118
 31
0.0
  0
LINE
  5
1432
330
34E
100
AcDbEntity
  8
0
 62
     7
100
AcDbLine
 10
106.0189198816759
 20
155.7944384951118
 30
0.0
 11
98.08141988167598
 21
155.7944384951118
 31
0.0
  0
LINE
  5
1433
330
34E
100
AcDbEntity
  8
0
 62
     7
100
AcDbLine
 10
106.0189198816759
 20
167.0444384951118
 30
0.0
 11
98.08141988167598
 21
167.0444384951118
 31
0.0
  0
LINE
  5
1434
330
34E
100
AcDbEntity
  8
0
 62
     7
100
AcDbLine
 10
106.0189198816759
 20
167.7944384951118
 30
0.0
 11
98.08141988167598
 21
167.7944384951118
 31
0.0
  0
LINE
  5
1435
330
34E
100
AcDbEntity
  8
0
 62
     7
100
AcDbLine
 10
106.0189198816761
 20
215.0444384951118
 30
0.0
 11
98.08141988167598
 21
215.0444384951118
 31
0.0
  0
LINE
  5
1436
330
34E
100
AcDbEntity
  8
0
 62
     7
100
AcDbLine
 10
106.0189198816761
 20
215.7944384951118
 30
0.0
 11
98.08141988167598
 21
215.7944384951118
 31
0.0
  0
LINE
  5
1437
330
34E
100
AcDbEntity
  8
0
 62
     7
100
AcDbLine
 10
106.0189198816761
 20
227.0444384951118
 30
0.0
 11
98.08141988167598
 21
227.0444384951118
 31
0.0
  0
LINE
  5
1438
330
34E
100
AcDbEntity
  8
0
 62
     7
100
AcDbLine
 10
106.0189198816761
 20
227.7944384951118
 30
0.0
 11
98.08141988167598
 21
227.7944384951118
 31
0.0
  0
LINE
  5
1439
330
34E
100
AcDbEntity
  8
0
 62
     7
100
AcDbLine
 10
106.0189198816759
 20
179.7944384951118
 30
0.0
 11
98.08141988167598
 21
179.7944384951118
 31
0.0
  0
LINE
  5
143A
330
34E
100
AcDbEntity
  8
0
 62
     7
100
AcDbLine
 10
106.0189198816759
 20
179.0444384951118
 30
0.0
 11
98.08141988167598
 21
179.0444384951118
 31
0.0
  0
LINE
  5
143B
330
34E
100
AcDbEntity
  8
0
 62
     7
100
AcDbLine
 10
106.0189198816761
 20
203.0444384951118
 30
0.0
 11
98.08141988167598
 21
203.0444384951118
 31
0.0
  0
LINE
  5
143C
330
34E
100
AcDbEntity
  8
0
 62
     7
100
AcDbLine
 10
106.0189198816761
 20
203.7944384951118
 30
0.0
 11
98.08141988167598
 21
203.7944384951118
 31
0.0
  0
LINE
  5
143D
330
34E
100
AcDbEntity
  8
0
 62
     7
100
AcDbLine
 10
106.0189198816759
 20
191.0444384951118
 30
0.0
 11
98.08141988167598
 21
191.0444384951118
 31
0.0
  0
LINE
  5
143E
330
34E
100
AcDbEntity
  8
0
 62
     7
100
AcDbLine
 10
106.0189198816759
 20
191.7944384951118
 30
0.0
 11
98.08141988167598
 21
191.7944384951118
 31
0.0
  0
LINE
  5
143F
330
34E
100
AcDbEntity
  8
0
 62
     7
100
AcDbLine
 10
106.0189198816761
 20
239.0444384951118
 30
0.0
 11
98.08141988167598
 21
239.0444384951118
 31
0.0
  0
LINE
  5
1440
330
34E
100
AcDbEntity
  8
0
 62
     7
100
AcDbLine
 10
106.0189198816761
 20
239.7944384951118
 30
0.0
 11
98.08141988167598
 21
239.7944384951118
 31
0.0
  0
LINE
  5
1441
330
34E
100
AcDbEntity
  8
0
 62
     7
100
AcDbLine
 10
106.0189198816761
 20
251.7944384951118
 30
0.0
 11
98.08141988167598
 21
251.7944384951118
 31
0.0
  0
LINE
  5
1442
330
34E
100
AcDbEntity
  8
0
 62
     7
100
AcDbLine
 10
106.0189198816761
 20
251.0444384951118
 30
0.0
 11
98.08141988167598
 21
251.0444384951118
 31
0.0
  0
LINE
  5
1443
330
34E
100
AcDbEntity
  8
0
 62
     7
100
AcDbLine
 10
106.0189198816762
 20
263.7944384951118
 30
0.0
 11
98.08141988167598
 21
263.7944384951118
 31
0.0
  0
LINE
  5
1444
330
34E
100
AcDbEntity
  8
0
 62
     7
100
AcDbLine
 10
106.0189198816762
 20
263.0444384951118
 30
0.0
 11
98.08141988167598
 21
263.0444384951118
 31
0.0
  0
LINE
  5
1445
330
34E
100
AcDbEntity
  8
0
 62
     7
100
AcDbLine
 10
106.0189198816762
 20
275.7944384951118
 30
0.0
 11
98.08141988167598
 21
275.7944384951118
 31
0.0
  0
LINE
  5
1446
330
34E
100
AcDbEntity
  8
0
 62
     7
100
AcDbLine
 10
106.0189198816762
 20
275.0444384951117
 30
0.0
 11
98.08141988167598
 21
275.0444384951117
 31
0.0
  0
LINE
  5
1447
330
34E
100
AcDbEntity
  8
0
 62
     7
100
AcDbLine
 10
106.0189198816762
 20
287.7944384951117
 30
0.0
 11
98.08141988167598
 21
287.7944384951117
 31
0.0
  0
LINE
  5
1448
330
34E
100
AcDbEntity
  8
0
 62
     7
100
AcDbLine
 10
106.0189198816762
 20
287.0444384951118
 30
0.0
 11
98.08141988167598
 21
287.0444384951118
 31
0.0
  0
LINE
  5
1449
330
34E
100
AcDbEntity
  8
0
 62
     7
100
AcDbLine
 10
106.0189198816763
 20
419.7944384951117
 30
0.0
 11
98.08141988167603
 21
419.7944384951117
 31
0.0
  0
LINE
  5
144A
330
34E
100
AcDbEntity
  8
0
 62
     7
100
AcDbLine
 10
106.0189198816763
 20
419.0444384951117
 30
0.0
 11
98.08141988167603
 21
419.0444384951117
 31
0.0
  0
LINE
  5
144B
330
34E
100
AcDbEntity
  8
0
 62
     7
100
AcDbLine
 10
106.0189198816763
 20
407.7944384951117
 30
0.0
 11
98.08141988167603
 21
407.7944384951117
 31
0.0
  0
LINE
  5
144C
330
34E
100
AcDbEntity
  8
0
 62
     7
100
AcDbLine
 10
106.0189198816763
 20
407.0444384951118
 30
0.0
 11
98.08141988167603
 21
407.0444384951117
 31
0.0
  0
LINE
  5
144D
330
34E
100
AcDbEntity
  8
0
 62
     7
100
AcDbLine
 10
106.0189198816763
 20
395.7944384951117
 30
0.0
 11
98.08141988167598
 21
395.7944384951117
 31
0.0
  0
LINE
  5
144E
330
34E
100
AcDbEntity
  8
0
 62
     7
100
AcDbLine
 10
106.0189198816763
 20
395.0444384951118
 30
0.0
 11
98.08141988167598
 21
395.0444384951118
 31
0.0
  0
LINE
  5
144F
330
34E
100
AcDbEntity
  8
0
 62
     7
100
AcDbLine
 10
106.0189198816763
 20
383.7944384951118
 30
0.0
 11
98.08141988167598
 21
383.7944384951118
 31
0.0
  0
LINE
  5
1450
330
34E
100
AcDbEntity
  8
0
 62
     7
100
AcDbLine
 10
106.0189198816763
 20
383.0444384951118
 30
0.0
 11
98.08141988167598
 21
383.0444384951118
 31
0.0
  0
LINE
  5
1451
330
34E
100
AcDbEntity
  8
0
 62
     7
100
AcDbLine
 10
106.0189198816762
 20
299.7944384951118
 30
0.0
 11
98.08141988167598
 21
299.7944384951118
 31
0.0
  0
LINE
  5
1452
330
34E
100
AcDbEntity
  8
0
 62
     7
100
AcDbLine
 10
106.0189198816762
 20
299.0444384951118
 30
0.0
 11
98.08141988167598
 21
299.0444384951118
 31
0.0
  0
LINE
  5
1453
330
34E
100
AcDbEntity
  8
0
 62
     7
100
AcDbLine
 10
106.0189198816762
 20
311.7944384951118
 30
0.0
 11
98.08141988167598
 21
311.7944384951118
 31
0.0
  0
LINE
  5
1454
330
34E
100
AcDbEntity
  8
0
 62
     7
100
AcDbLine
 10
106.0189198816762
 20
311.0444384951118
 30
0.0
 11
98.08141988167598
 21
311.0444384951118
 31
0.0
  0
LINE
  5
1455
330
34E
100
AcDbEntity
  8
0
 62
     7
100
AcDbLine
 10
106.0189198816762
 20
323.7944384951118
 30
0.0
 11
98.08141988167598
 21
323.7944384951118
 31
0.0
  0
LINE
  5
1456
330
34E
100
AcDbEntity
  8
0
 62
     7
100
AcDbLine
 10
106.0189198816762
 20
323.0444384951117
 30
0.0
 11
98.08141988167598
 21
323.0444384951117
 31
0.0
  0
LINE
  5
1457
330
34E
100
AcDbEntity
  8
0
 62
     7
100
AcDbLine
 10
106.0189198816762
 20
335.7944384951118
 30
0.0
 11
98.08141988167598
 21
335.7944384951118
 31
0.0
  0
LINE
  5
1458
330
34E
100
AcDbEntity
  8
0
 62
     7
100
AcDbLine
 10
106.0189198816762
 20
335.0444384951118
 30
0.0
 11
98.08141988167598
 21
335.0444384951118
 31
0.0
  0
LINE
  5
1459
330
34E
100
AcDbEntity
  8
0
 62
     7
100
AcDbLine
 10
106.0189198816762
 20
347.7944384951118
 30
0.0
 11
98.08141988167598
 21
347.7944384951118
 31
0.0
  0
LINE
  5
145A
330
34E
100
AcDbEntity
  8
0
 62
     7
100
AcDbLine
 10
106.0189198816762
 20
347.0444384951118
 30
0.0
 11
98.08141988167598
 21
347.0444384951118
 31
0.0
  0
LINE
  5
145B
330
34E
100
AcDbEntity
  8
0
 62
     7
100
AcDbLine
 10
106.0189198816762
 20
359.7944384951118
 30
0.0
 11
98.08141988167598
 21
359.7944384951118
 31
0.0
  0
LINE
  5
145C
330
34E
100
AcDbEntity
  8
0
 62
     7
100
AcDbLine
 10
106.0189198816762
 20
359.0444384951118
 30
0.0
 11
98.08141988167598
 21
359.0444384951118
 31
0.0
  0
LINE
  5
145D
330
34E
100
AcDbEntity
  8
0
 62
     7
100
AcDbLine
 10
106.0189198816762
 20
371.0444384951117
 30
0.0
 11
98.08141988167598
 21
371.0444384951117
 31
0.0
  0
LINE
  5
145E
330
34E
100
AcDbEntity
  8
0
 62
     7
100
AcDbLine
 10
106.0189198816762
 20
371.7944384951118
 30
0.0
 11
98.08141988167598
 21
371.7944384951118
 31
0.0
  0
DIMENSION
  5
145F
330
34E
100
AcDbEntity
  8
0
100
AcDbDimension
  2
*D24
 10
36.34074621859713
 20
21.79443849511179
 30
0.0
 11
36.34074621859713
 21
3.794438495111793
 31
0.0
 70
    32
 71
     5
 42
36.0
  3
STANDARD$0
100
AcDbAlignedDimension
 13
22.14089008900316
 23
-14.20556150488821
 33
0.0
 14
23.64089008900299
 24
21.79443849511179
 34
0.0
 50
90.0
100
AcDbRotatedDimension
1001
ACAD
1000
DSTYLE
1002
{
1070
   140
1040
0.125
1002
}
  0
LINE
  5
14B3
330
34E
100
AcDbEntity
  8
0
 62
     7
100
AcDbLine
 10
-88.57215211330808
 20
297.2937258471757
 30
0.0
 11
-51.26717811657342
 21
297.2937258471757
 31
0.0
  0
LINE
  5
14B4
330
34E
100
AcDbEntity
  8
0
 62
     7
100
AcDbLine
 10
-93.47265211330798
 20
292.2895717776566
 30
0.0
 11
-134.9477545013085
 21
292.2895717776566
 31
0.0
  0
LINE
  5
14B5
330
34E
100
AcDbEntity
  8
0
 62
     7
100
AcDbLine
 10
-93.47265211330798
 20
293.9576231341629
 30
0.0
 11
-134.9477545013085
 21
293.9576231341629
 31
0.0
  0
LINE
  5
14B6
330
34E
100
AcDbEntity
  8
0
 62
     7
100
AcDbLine
 10
-93.47265211330798
 20
295.6256744906694
 30
0.0
 11
-134.9477545013085
 21
295.6256744906694
 31
0.0
  0
LINE
  5
14B7
330
34E
100
AcDbEntity
  8
0
 62
     7
100
AcDbLine
 10
-93.47265211330798
 20
290.6215204211504
 30
0.0
 11
-134.9477545013085
 21
290.6215204211504
 31
0.0
  0
LINE
  5
14B8
330
34E
100
AcDbEntity
  8
0
 62
     7
100
AcDbLine
 10
-93.47265211330798
 20
288.9534690646441
 30
0.0
 11
-134.9477545013085
 21
288.9534690646441
 31
0.0
  0
MTEXT
  5
175D
330
34E
100
AcDbEntity
  8
0
100
AcDbMText
 10
-131.6765700804711
 20
77.31980662809317
 30
0.0
 40
3.418783435821533
 41
0.0
 71
     1
 72
     5
  1
{\LFAS INCLUDED PARTS\P\P}CARRIER RAIL\PRUNG CLAMPS\P(2) LOCKING TROLLEYS\PSPLICE KIT (AS REQ'D)\P\P{\LITEMS REQ'D BUT NOT INCLUDED\P\P}(1) FULL BODY HARNESS\PWITH D-RING PER CLIMBER
  7
ROMANS
 73
     1
 44
1.0
1001
ACAD
1000
MTEXTBEGIN
1070
    73
1070
     1
1070
    44
1040
1.0
1070
    74
1070
     0
1000
MTEXTEND
  0
MTEXT
  5
1D4C
330
34E
100
AcDbEntity
  8
0
100
AcDbMText
 10
-79.24487773595882
 20
433.7791771446574
 30
0.0
 40
3.0
 41
0.0
 71
     1
 72
     5
  1
(FALL ARREST SYSTEM REQUIRED IF LEVEL TO LEVEL HEIGHT IS GREATER THAN 24'-0")
  7
ROMANS
 73
     1
 44
1.0
1001
ACAD
1000
MTEXTBEGIN
1070
    73
1070
     1
1070
    44
1040
1.0
1070
    74
1070
     0
1000
MTEXTEND
  0
LWPOLYLINE
  5
1E8D
330
34E
100
AcDbEntity
  8
0
100
AcDbPolyline
 90
        4
 70
     1
 43
0.0
 10
122.0748626429699
 20
192.0496830295254
 10
155.8407956583737
 20
192.0496830295253
 10
155.8407956583737
 20
172.5040109154126
 10
122.0748626429699
 20
172.5040109154127
  0
LINE
  5
1E94
330
34E
100
AcDbEntity
  8
0
100
AcDbLine
 10
122.0748626429699
 20
183.216233492671
 30
0.0
 11
155.7623708136908
 21
183.216233492671
 31
0.0
  0
LINE
  5
1E95
330
34E
100
AcDbEntity
  8
0
100
AcDbLine
 10
118.6439198816759
 20
-14.20556150488841
 30
0.0
 11
140.905227956548
 21
-14.20556150488841
 31
0.0
  0
LINE
  5
1E96
330
34E
100
AcDbEntity
  8
0
100
AcDbLine
 10
117.5814198816759
 20
371.7944384951116
 30
0.0
 11
140.905227956548
 21
371.7944384951116
 31
0.0
  0
LINE
  5
1E97
330
34E
100
AcDbEntity
  8
0
100
AcDbLine
 10
139.2802279565479
 20
-12.58056150488841
 30
0.0
 11
139.280227956548
 21
172.5076193059643
 31
0.0
  0
LINE
  5
1E98
330
34E
100
AcDbEntity
  8
0
100
AcDbLine
 10
139.280227956548
 20
370.1694384951116
 30
0.0
 11
139.280227956548
 21
192.0496830295253
 31
0.0
  0
SOLID
  5
1E99
330
34E
100
AcDbEntity
  8
0
100
AcDbTrace
 10
139.0093946232146
 20
-12.58056150488841
 30
0.0
 11
139.5510612898813
 21
-12.58056150488841
 31
0.0
 12
139.2802279565479
 22
-14.20556150488841
 32
0.0
 13
139.2802279565479
 23
-14.20556150488841
 33
0.0
  0
SOLID
  5
1E9A
330
34E
100
AcDbEntity
  8
0
100
AcDbTrace
 10
139.0093946232147
 20
370.1694384951116
 30
0.0
 11
139.5510612898814
 21
370.1694384951116
 31
0.0
 12
139.280227956548
 22
371.7944384951116
 32
0.0
 13
139.280227956548
 23
371.7944384951116
 33
0.0
  0
MTEXT
  5
1E9B
330
34E
100
AcDbEntity
  8
0
100
AcDbMText
 10
139.2802279565479
 20
177.9242859726309
 30
0.0
 40
3.25
 41
0.0
 71
     5
 72
     1
  1
\A1;GROUND TO\PMEZZ. LEVEL
  7
ROMANS
 73
     1
 44
1.0
1001
ACAD
1000
MTEXTBEGIN
1070
    73
1070
     1
1070
    44
1040
1.0
1070
    74
1070
     0
1000
MTEXTEND
  0
ENDSEC
  0
SECTION
  2
OBJECTS
  0
DICTIONARY
  5
342
330
0
100
AcDbDictionary
281
     1
  3
ACAD_COLOR
350
F86
  3
ACAD_GROUP
350
343
  3
ACAD_LAYOUT
350
A67
  3
ACAD_MATERIAL
350
F71
  3
ACAD_MLINESTYLE
350
344
  3
ACAD_PLOTSETTINGS
350
A68
  3
ACAD_PLOTSTYLENAME
350
A65
  3
ACAD_TABLESTYLE
350
F87
  3
ACAD_VISUALSTYLE
350
F75
  3
AcDbVariableDictionary
350
F89
  3
DWGPROPS
350
1EBB
  0
DICTIONARY
  5
1172
330
338
100
AcDbDictionary
280
     1
281
     1
  3
ACAD_LAYERSTATES
360
1173
  0
DICTIONARY
  5
13AA
330
34E
100
AcDbDictionary
280
     1
281
     1
  3
ACAD_SORTENTS
360
13AB
  0
DICTIONARY
  5
1A6D
330
A70
100
AcDbDictionary
280
     1
281
     1
  3
ACAD_SORTENTS
360
1A6E
  0
DICTIONARY
  5
F86
102
{ACAD_REACTORS
330
342
102
}
330
342
100
AcDbDictionary
281
     1
  0
DICTIONARY
  5
343
102
{ACAD_REACTORS
330
342
102
}
330
342
100
AcDbDictionary
281
     1
  0
DICTIONARY
  5
A67
102
{ACAD_REACTORS
330
342
102
}
330
342
100
AcDbDictionary
281
     1
  3
Layout1
350
A6A
  3
Model
350
A69
  0
DICTIONARY
  5
F71
102
{ACAD_REACTORS
330
342
102
}
330
342
100
AcDbDictionary
281
     1
  3
ByBlock
350
F73
  3
ByLayer
350
F72
  3
Global
350
F74
  0
DICTIONARY
  5
344
102
{ACAD_REACTORS
330
342
102
}
330
342
100
AcDbDictionary
281
     1
  3
STANDARD
350
351
  0
DICTIONARY
  5
A68
102
{ACAD_REACTORS
330
342
102
}
330
342
100
AcDbDictionary
281
     1
  0
ACDBDICTIONARYWDFLT
  5
A65
102
{ACAD_REACTORS
330
342
102
}
330
342
100
AcDbDictionary
281
     1
  3
Normal
350
A66
100
AcDbDictionaryWithDefault
340
A66
  0
DICTIONARY
  5
F87
102
{ACAD_REACTORS
330
342
102
}
330
342
100
AcDbDictionary
281
     1
  3
Standard
350
F88
  0
DICTIONARY
  5
F75
102
{ACAD_REACTORS
330
342
102
}
330
342
100
AcDbDictionary
281
     1
  3
2dWireframe
350
F7B
  3
3D Hidden
350
F7D
  3
3dWireframe
350
F7C
  3
Basic
350
F7A
  3
Brighten
350
F81
  3
ColorChange
350
F85
  3
Conceptual
350
F7E
  3
Dim
350
F80
  3
Facepattern
350
F84
  3
Flat
350
F76
  3
FlatWithEdges
350
F77
  3
Gouraud
350
F78
  3
GouraudWithEdges
350
F79
  3
Linepattern
350
F83
  3
Realistic
350
F7F
  3
Thicken
350
F82
  0
DICTIONARY
  5
F89
102
{ACAD_REACTORS
330
342
102
}
330
342
100
AcDbDictionary
281
     1
  3
CTABLESTYLE
350
F8A
  3
DIMASSOC
350
1E9E
  3
INDEXCTL
350
1E9D
  3
SORTENTS
350
1E9C
  0
XRECORD
  5
1EBB
102
{ACAD_REACTORS
330
342
102
}
330
342
100
AcDbXrecord
280
     1
  1
DWGPROPS COOKIE
  2

  3

  4

  6

  7

  8
XPMUser
  9

300
=
301
=
302
=
303
=
304
=
305
=
306
=
307
=
308
=
309
=
 40
0.2303102546296296
 41
2450687.337153472
 42
2459472.658516655
  1

 90
        0
  0
DICTIONARY
  5
1173
102
{ACAD_REACTORS
330
1172
102
}
330
1172
100
AcDbDictionary
281
     1
  0
SORTENTSTABLE
  5
13AB
102
{ACAD_REACTORS
330
13AA
102
}
330
13AA
100
AcDbSortentsTable
330
34E
331
C18
  5
DE2
331
208
  5
24A
331
D76
  5
EFA
331
DC5
  5
F05
331
2AF
  5
2C9
331
210
  5
2B3
331
DCD
  5
F0D
331
DD5
  5
F15
331
2BF
  5
C02
331
F13
  5
11FA
331
1208
  5
1244
331
1426
  5
1419
331
13AD
  5
2B2
331
F1B
  5
1208
331
1210
  5
124C
331
124F
  5
136F
331
1326
  5
1431
331
142E
  5
13A0
331
F23
  5
1210
331
1218
  5
1254
331
1257
  5
1377
331
1436
  5
DD3
331
14B5
  5
EF2
331
EEC
  5
F28
331
1220
  5
125C
331
125F
  5
137F
331
136E
  5
143D
331
143E
  5
DC3
331
1E96
  5
DDC
331
1376
  5
1445
331
2C5
  5
D6D
331
C01
  5
DCC
331
248
  5
2BC
331
1F1
  5
1F1
331
1F9
  5
1FC
331
201
  5
20C
331
D6F
  5
EEF
331
DBE
  5
EFE
331
DDD
  5
F1D
331
EF4
  5
F30
331
F2B
  5
1218
331
1228
  5
1264
331
1446
  5
23B
331
F33
  5
1220
331
EFC
  5
F38
331
FA2
  5
122C
331
1230
  5
1314
331
137E
  5
144D
331
144E
  5
C03
331
F04
  5
FA5
331
F3B
  5
122A
331
11F9
  5
123B
331
1238
  5
131C
331
130F
  5
1399
331
1386
  5
1455
331
1456
  5
207
331
F0C
  5
11F3
331
1240
  5
1324
331
1317
  5
13A9
331
139E
  5
145C
331
145E
  5
1F7
331
141F
  5
1428
331
131F
  5
1423
331
13A6
  5
14B8
331
175D
  5
1E98
331
C19
  5
DE3
331
2A8
  5
2C4
331
209
  5
29A
331
D77
  5
EFB
331
DC6
  5
F06
331
2B0
  5
2D6
331
211
  5
2B4
331
DCE
  5
F0E
331
2B8
  5
A74
331
DD6
  5
F16
331
F14
  5
11FB
331
1209
  5
1245
331
1248
  5
1368
331
1427
  5
140C
331
F1C
  5
1209
331
1211
  5
124D
331
1250
  5
1370
331
1327
  5
1432
331
13AE
  5
1E8D
331
142F
  5
139E
331
F24
  5
1211
331
1219
  5
1255
331
1258
  5
1378
331
1437
  5
DD1
331
14B6
  5
EF0
331
EED
  5
F29
331
1221
  5
125D
331
136F
  5
143E
331
143F
  5
BEE
331
1E97
  5
DDD
331
1377
  5
1446
331
2C6
  5
D6E
331
C02
  5
DCE
331
249
  5
2BD
331
1F2
  5
1F2
331
2D6
  5
D72
331
1FA
  5
1FE
331
202
  5
20E
331
DBF
  5
EFF
331
EF5
  5
F31
331
DDE
  5
F1E
331
F2C
  5
1219
331
1229
  5
1265
331
1260
  5
1380
331
1447
  5
22D
331
EFD
  5
F39
331
F34
  5
1221
331
1231
  5
1315
331
137F
  5
144E
331
144F
  5
C01
331
F05
  5
FA6
331
F3C
  5
122B
331
11FA
  5
123C
331
1239
  5
131D
331
1310
  5
139B
331
1387
  5
1456
331
1457
  5
205
331
1418
  5
1E95
331
F0D
  5
11F4
331
1241
  5
1325
331
1318
  5
13AD
331
139F
  5
145D
331
145F
  5
1E97
331
13A7
  5
175D
331
D70
  5
EF1
331
20A
  5
2A6
331
D78
  5
EFC
331
DC7
  5
F07
331
2B1
  5
2D8
331
DCF
  5
F0F
331
2B9
  5
BED
331
DD7
  5
F17
331
F15
  5
11FC
331
120A
  5
1246
331
1249
  5
1369
331
1320
  5
1425
331
1420
  5
1426
331
F1D
  5
120A
331
1212
  5
124E
331
1251
  5
1371
331
1328
  5
1433
331
1428
  5
13AE
331
F25
  5
1212
331
121A
  5
1256
331
1259
  5
1379
331
1368
  5
1437
331
1430
  5
139C
331
EEE
  5
F2A
331
1222
  5
125E
331
1370
  5
143F
331
1438
  5
DCF
331
14B7
  5
EEE
331
BFB
  5
DC1
331
2C7
  5
D6F
331
23A
  5
2BA
331
C03
  5
DD0
331
24A
  5
2BE
331
A74
  5
D79
331
1F3
  5
1F3
331
1FB
  5
200
331
29A
  5
2C0
331
203
  5
210
331
122A
  5
1266
331
DDF
  5
F1F
331
EF6
  5
F32
331
F2D
  5
121A
331
1261
  5
1381
331
1378
  5
1447
331
1E98
  5
DDE
331
1440
  5
A86
331
EFE
  5
F3A
331
F35
  5
1222
331
1232
  5
1316
331
1380
  5
144F
331
1448
  5
21F
331
F06
  5
FA7
331
11FB
  5
123D
331
123A
  5
131E
331
1311
  5
139D
331
1450
  5
BFF
331
13A0
  5
145E
331
1458
  5
203
331
F0E
  5
11F5
331
1242
  5
1326
331
1319
  5
13BB
331
1419
  5
1E96
331
D71
  5
EF3
331
DC0
  5
F00
331
20B
  5
2A8
331
D79
  5
EFD
331
DC8
  5
F08
331
2B2
  5
2D9
331
DD0
  5
F10
331
9B5
  5
D78
331
2BA
  5
BFB
331
13A8
  5
1D4C
331
F16
  5
11FD
331
120B
  5
1247
331
124A
  5
136A
331
1321
  5
1427
331
1421
  5
1424
331
F1E
  5
120B
331
1213
  5
124F
331
1252
  5
1372
331
1329
  5
1434
331
1429
  5
13AC
331
F26
  5
1213
331
121B
  5
1257
331
125A
  5
137A
331
1369
  5
1438
331
1431
  5
139A
331
EEF
  5
F2B
331
1223
  5
125F
331
1371
  5
1440
331
1439
  5
DCD
331
2C0
  5
C04
331
BFC
  5
DC2
331
2C8
  5
D70
331
23B
  5
2BB
331
C04
  5
DD2
331
24B
  5
2BF
331
1F4
  5
1F4
331
2D8
  5
D73
331
1FC
  5
202
331
204
  5
21E
331
DD8
  5
F18
331
EF7
  5
F33
331
DE0
  5
F20
331
F2E
  5
121B
331
122B
  5
1267
331
1262
  5
1382
331
1379
  5
1448
331
1E99
  5
DDF
331
1441
  5
2AB
331
14B8
  5
EEC
331
1D4C
  5
1E99
331
EFF
  5
F3B
331
F36
  5
1223
331
FA5
  5
122F
331
11F4
  5
1236
331
1233
  5
1317
331
1381
  5
1450
331
1449
  5
D6C
331
F07
  5
FA8
331
11FC
  5
123E
331
123B
  5
131F
331
1312
  5
139F
331
1399
  5
1457
331
1451
  5
211
331
F0F
  5
11F6
331
111D
  5
1234
331
1204
  5
1240
331
1243
  5
1327
331
131A
  5
1418
331
13A1
  5
145F
331
1459
  5
201
331
D72
  5
EF5
331
DC1
  5
F01
331
20C
  5
2AC
331
2AB
  5
2C5
331
DC9
  5
F09
331
2B3
  5
2DA
331
DD1
  5
F11
331
BED
  5
DBF
331
2BB
  5
BFC
331
22C
  5
2B8
331
13A9
  5
2B0
331
F17
  5
11FE
331
120C
  5
1248
331
124B
  5
136B
331
1322
  5
1429
331
F1F
  5
120C
331
1135
  5
1235
331
1214
  5
1250
331
1253
  5
1373
331
132A
  5
1435
331
142A
  5
13A8
331
F27
  5
1214
331
121C
  5
1258
331
125B
  5
137B
331
136A
  5
1439
331
1432
  5
1387
331
1224
  5
1260
331
1372
  5
1441
331
143A
  5
DCB
331
2C1
  5
C06
331
2C9
  5
D71
331
BFD
  5
DC4
331
C05
  5
DD4
331
1F5
  5
1F5
331
2D9
  5
D74
331
1FD
  5
204
331
D6B
  5
EE9
331
A86
  5
DBE
331
205
  5
22C
331
DD9
  5
F19
331
EF0
  5
F2C
331
DE1
  5
F21
331
EF8
  5
F34
331
F2F
  5
121C
331
122C
  5
1268
331
1263
  5
1383
331
137A
  5
1449
331
1E9A
  5
DE0
331
1442
  5
2A7
331
F37
  5
1226
331
F00
  5
F3C
331
FA6
  5
1230
331
11F5
  5
1237
331
1234
  5
1318
331
1382
  5
1451
331
144A
  5
C26
331
F08
  5
FA9
331
11FD
  5
123F
331
123C
  5
1320
331
1313
  5
13A1
331
139A
  5
1458
331
1452
  5
20F
331
13A2
  5
14B3
331
145A
  5
1FF
331
1205
  5
1241
331
1244
  5
1328
331
131B
  5
141B
331
141B
  5
1430
331
2F1
  5
D77
331
D73
  5
EF6
331
DC2
  5
F02
331
2AC
  5
2C6
331
20D
  5
2AD
331
DCA
  5
F0A
331
2B4
  5
2DB
331
DD2
  5
F12
331
BEE
  5
DC0
331
2BC
  5
BFD
331
22D
  5
2B9
331
F10
  5
11F7
331
F18
  5
11FF
331
120D
  5
1249
331
124C
  5
136C
331
1323
  5
142B
331
1423
  5
1420
331
F20
  5
120D
331
1215
  5
1251
331
1254
  5
1374
331
132B
  5
1436
331
142B
  5
13A6
331
EE9
  5
F25
331
121D
  5
1259
331
125C
  5
137C
331
136B
  5
143A
331
1433
  5
DD9
331
1225
  5
1261
331
1373
  5
1442
331
143B
  5
DC9
331
2C2
  5
C08
331
BFE
  5
DC6
331
C06
  5
DD6
331
1F6
  5
1F6
331
2DA
  5
D75
331
1FE
  5
206
331
D6C
  5
EEA
331
2A5
  5
2C1
331
206
  5
23A
331
DDA
  5
F1A
331
EF1
  5
F2D
331
F28
  5
1215
331
EF9
  5
F35
331
DE2
  5
F22
331
F30
  5
121D
331
122D
  5
1311
331
1264
  5
1384
331
137B
  5
144A
331
1E9B
  5
DE1
331
1443
  5
2A5
331
F38
  5
1227
331
F01
  5
FA2
331
FA7
  5
1231
331
11F6
  5
1238
331
1235
  5
1319
331
1383
  5
1452
331
144B
  5
C18
331
139B
  5
1459
331
1453
  5
20D
331
123D
  5
1321
331
F09
  5
111D
331
1314
  5
13A3
331
140C
  5
1E94
331
13A3
  5
14B5
331
145B
  5
1FD
331
1245
  5
1329
331
1206
  5
1242
331
131C
  5
141D
331
141C
  5
142E
331
D74
  5
EF8
331
DC3
  5
F03
331
20E
  5
2AE
331
2AD
  5
2C7
331
DCB
  5
F0B
331
C26
  5
DE4
331
2B5
  5
2F1
331
DD3
  5
F13
331
21E
  5
2B5
331
2BD
  5
BFE
331
F11
  5
11F8
331
1424
  5
141E
331
120E
  5
124A
331
F19
  5
1200
331
124D
  5
136D
331
1324
  5
142D
331
142C
  5
13A4
331
F21
  5
120E
331
1216
  5
1252
331
1255
  5
1375
331
1434
  5
DD7
331
14B3
  5
EF7
331
EEA
  5
F26
331
121E
  5
125A
331
125D
  5
137D
331
136C
  5
143B
331
143C
  5
DC7
331
1E94
  5
1E9B
331
1226
  5
1262
331
1374
  5
1443
331
2C3
  5
C19
331
BFF
  5
DC8
331
C07
  5
DD8
331
1F7
  5
1F8
331
2DB
  5
D76
331
1FF
  5
208
331
D6D
  5
EEB
331
2A6
  5
2C2
331
207
  5
248
331
DDB
  5
F1B
331
EF2
  5
F2E
331
F29
  5
1216
331
1444
  5
24B
331
122E
  5
1312
331
DE3
  5
F23
331
EFA
  5
F36
331
F31
  5
121E
331
1265
  5
1385
331
137C
  5
144B
331
144C
  5
C07
331
F39
  5
1228
331
F02
  5
FA3
331
FA8
  5
1232
331
11F7
  5
1239
331
1236
  5
131A
331
1384
  5
1453
331
1454
  5
20B
331
F0A
  5
1135
331
123E
  5
1322
331
1315
  5
13A5
331
139C
  5
145A
331
145C
  5
1FB
331
141D
  5
142C
331
1207
  5
1243
331
1246
  5
132A
331
131D
  5
141F
331
13A4
  5
14B6
331
D75
  5
EF9
331
DC4
  5
F04
331
2AE
  5
2C8
331
20F
  5
2AF
331
DCC
  5
F0C
331
2B6
  5
9B5
331
DD4
  5
F14
331
2BE
  5
C00
331
21F
  5
2B6
331
F12
  5
11F9
331
1425
  5
141C
331
13AC
  5
2B1
331
F1A
  5
1207
331
120F
  5
124B
331
124E
  5
136E
331
1325
  5
142F
331
142D
  5
13A2
331
F22
  5
120F
331
1217
  5
1253
331
1256
  5
1376
331
1435
  5
DD5
331
14B4
  5
EF4
331
1E8D
  5
1E9A
331
EEB
  5
F27
331
121F
  5
125B
331
125E
  5
137E
331
136D
  5
143C
331
143D
  5
DC5
331
1E95
  5
DDB
331
1227
  5
1263
331
1375
  5
1444
331
2C4
  5
D6B
331
C00
  5
DCA
331
1F0
  5
1F0
331
1F8
  5
1FA
331
200
  5
20A
331
D6E
  5
EED
331
2A7
  5
2C3
331
DDC
  5
F1C
331
EF3
  5
F2F
331
F2A
  5
1217
331
1445
  5
249
331
DE4
  5
F24
331
EFB
  5
F37
331
F32
  5
121F
331
122F
  5
1313
331
137D
  5
144C
331
144D
  5
C05
331
F3A
  5
1229
331
F03
  5
FA4
331
FA9
  5
1233
331
11F8
  5
123A
331
1237
  5
131B
331
130E
  5
1386
331
1385
  5
1454
331
1455
  5
209
331
F0B
  5
11F2
331
123F
  5
1323
331
1316
  5
13A7
331
139D
  5
145B
331
145D
  5
1F9
331
141E
  5
142A
331
1247
  5
132B
331
131E
  5
1421
331
13A5
  5
14B7
  0
SORTENTSTABLE
  5
1A6E
102
{ACAD_REACTORS
330
1A6D
102
}
330
1A6D
100
AcDbSortentsTable
330
A70
331
1A60
  5
1A61
331
1A0E
  5
1A0F
331
1A2C
  5
1A2D
331
1A4A
  5
1A4B
331
1A41
  5
1A42
331
1A23
  5
1A24
331
1A5F
  5
1A60
331
17B9
  5
17BA
331
1A6B
  5
1A6C
331
1A37
  5
1A3F
331
1A55
  5
1A56
331
1A61
  5
1A62
331
1A0F
  5
1A10
331
1A2D
  5
1A35
331
1A4B
  5
1A4C
331
1A24
  5
1A25
331
1A42
  5
1A43
331
17BA
  5
17BB
331
1A6C
  5
17B0
331
1A56
  5
1A57
331
17B0
  5
17B1
331
1A62
  5
1A63
331
1A10
  5
1A11
331
1A4C
  5
1A4D
331
1A43
  5
1A44
331
1A25
  5
1A29
331
17BB
  5
1A09
331
1A1B
  5
1A1C
331
1A57
  5
1A58
331
17B1
  5
17B2
331
1A63
  5
1A64
331
1A11
  5
1A12
331
1A44
  5
1A45
331
1A4D
  5
1A4E
331
1A1C
  5
1A1D
331
1A58
  5
1A59
331
17B2
  5
17B9
331
1A64
  5
1A65
331
1A45
  5
1A46
331
1A12
  5
1A13
331
1A4E
  5
1A4F
331
1A1D
  5
1A1E
331
1A59
  5
1A5A
331
1A65
  5
1A66
331
1A13
  5
1A14
331
1A46
  5
1A47
331
1A4F
  5
1A50
331
1A1E
  5
1A1F
331
1A5A
  5
1A5B
331
1A09
  5
1A0A
331
1A50
  5
1A51
331
1A47
  5
1A48
331
1A14
  5
1A15
331
1A66
  5
1A67
331
1A0A
  5
1A0B
331
1A1F
  5
1A20
331
1A5B
  5
1A5C
331
1A67
  5
1A68
331
1A15
  5
1A1B
331
1A51
  5
1A52
331
1A29
  5
1A2A
331
1A0B
  5
1A0C
331
1A20
  5
1A21
331
1A5C
  5
1A5D
331
1A68
  5
1A69
331
1A52
  5
1A53
331
1A0C
  5
1A0D
331
1A21
  5
1A22
331
1A3F
  5
1A40
331
1A5D
  5
1A5E
331
1A2A
  5
1A2B
331
1A48
  5
1A49
331
1A69
  5
1A6A
331
1A35
  5
1A36
331
1A53
  5
1A54
331
1A0D
  5
1A0E
331
1A22
  5
1A23
331
1A40
  5
1A41
331
1A5E
  5
1A5F
331
1A2B
  5
1A2C
331
1A49
  5
1A4A
331
1A6A
  5
1A6B
331
1A54
  5
1A55
331
1A36
  5
1A37
  0
LAYOUT
  5
A6A
102
{ACAD_XDICTIONARY
360
1EBE
102
}
102
{ACAD_REACTORS
330
A67
102
}
330
A67
100
AcDbPlotSettings
  1

  2
HP LaserJet 2100 Series PCL 6
  4

  6

 40
0.0
 41
0.0
 42
0.0
 43
0.0
 44
0.0
 45
0.0
 46
0.0
 47
0.0
 48
0.0
 49
0.0
140
0.0
141
0.0
142
1.0
143
1.0
 70
   688
 72
     0
 73
     0
 74
     5
  7
Erik.ctb
 75
    16
147
1.0
148
0.0
149
0.0
100
AcDbLayout
  1
Layout1
 70
     1
 71
     1
 10
0.0
 20
0.0
 11
12.0
 21
9.0
 12
0.0
 22
0.0
 32
0.0
 14
1.000000000000000E+20
 24
1.000000000000000E+20
 34
1.000000000000000E+20
 15
-1.000000000000000E+20
 25
-1.000000000000000E+20
 35
-1.000000000000000E+20
146
0.0
 13
0.0
 23
0.0
 33
0.0
 16
1.0
 26
0.0
 36
0.0
 17
0.0
 27
1.0
 37
0.0
 76
     0
330
34B
  0
LAYOUT
  5
A69
102
{ACAD_XDICTIONARY
360
1EBC
102
}
102
{ACAD_REACTORS
330
A67
102
}
330
A67
100
AcDbPlotSettings
  1

  2
HP LaserJet 2100 Series PCL 6
  4

  6

 40
0.0
 41
0.0
 42
0.0
 43
0.0
 44
0.0
 45
0.0
 46
0.0
 47
0.0
 48
0.0
 49
0.0
140
0.0
141
0.0
142
1.0
143
1.0
 70
  1712
 72
     0
 73
     0
 74
     0
  7
Erik.ctb
 75
     0
147
1.0
148
0.0
149
0.0
100
AcDbLayout
  1
Model
 70
     1
 71
     0
 10
0.0
 20
0.0
 11
12.0
 21
9.0
 12
0.0
 22
0.0
 32
0.0
 14
0.0
 24
0.0
 34
0.0
 15
0.0
 25
0.0
 35
0.0
146
0.0
 13
0.0
 23
0.0
 33
0.0
 16
1.0
 26
0.0
 36
0.0
 17
0.0
 27
1.0
 37
0.0
 76
     0
330
34E
331
F6F
  0
MATERIAL
  5
F73
102
{ACAD_XDICTIONARY
360
1EC2
102
}
102
{ACAD_REACTORS
330
F71
102
}
330
F71
100
AcDbMaterial
  1
ByBlock
  0
MATERIAL
  5
F72
102
{ACAD_XDICTIONARY
360
1EC0
102
}
102
{ACAD_REACTORS
330
F71
102
}
330
F71
100
AcDbMaterial
  1
ByLayer
  0
MATERIAL
  5
F74
102
{ACAD_XDICTIONARY
360
1EC4
102
}
102
{ACAD_REACTORS
330
F71
102
}
330
F71
100
AcDbMaterial
  1
Global
  0
MLINESTYLE
  5
351
102
{ACAD_REACTORS
330
344
102
}
330
344
100
AcDbMlineStyle
  2
STANDARD
 70
     0
  3

 62
     0
 51
90.0
 52
90.0
 71
     2
 49
0.5
 62
   256
  6
BYLAYER
 49
-0.5
 62
   256
  6
BYLAYER
  0
ACDBPLACEHOLDER
  5
A66
102
{ACAD_REACTORS
330
A65
102
}
330
A65
  0
TABLESTYLE
  5
F88
102
{ACAD_XDICTIONARY
360
1EC6
102
}
102
{ACAD_REACTORS
330
F87
102
}
330
F87
100
AcDbTableStyle
  3
Standard
 70
     0
 71
     0
 40
0.06
 41
0.06
280
     0
281
     0
  7
STANDARD
140
0.18
170
     2
 62
     0
 63
     7
283
     0
274
    -2
284
     1
 64
     0
275
    -2
285
     1
 65
     0
276
    -2
286
     1
 66
     0
277
    -2
287
     1
 67
     0
278
    -2
288
     1
 68
     0
279
    -2
289
     1
 69
     0
  7
STANDARD
140
0.25
170
     5
 62
     0
 63
     7
283
     0
274
    -2
284
     1
 64
     0
275
    -2
285
     1
 65
     0
276
    -2
286
     1
 66
     0
277
    -2
287
     1
 67
     0
278
    -2
288
     1
 68
     0
279
    -2
289
     1
 69
     0
  7
STANDARD
140
0.18
170
     5
 62
     0
 63
     7
283
     0
274
    -2
284
     1
 64
     0
275
    -2
285
     1
 65
     0
276
    -2
286
     1
 66
     0
277
    -2
287
     1
 67
     0
278
    -2
288
     1
 68
     0
279
    -2
289
     1
 69
     0
  0
VISUALSTYLE
  5
F7B
102
{ACAD_REACTORS
330
F75
102
}
330
F75
100
AcDbVisualStyle
  2
2dWireframe
 70
     4
 71
     0
 72
     2
 73
     0
 90
        0
 40
-0.6
 41
-30.0
 62
     5
 63
     7
 74
     1
 91
        4
 64
     7
 65
   257
 75
     1
175
     1
 42
1.0
 92
        0
 66
   257
 43
1.0
 76
     1
 77
     6
 78
     2
 67
     7
 79
     5
170
     0
171
     0
290
     0
174
     0
 93
        1
 44
0.0
173
     0
291
     0
 45
0.0
1001
ACAD
1000
AcDbSavedByObjectVersion
1070
     0
  0
VISUALSTYLE
  5
F7D
102
{ACAD_REACTORS
330
F75
102
}
330
F75
100
AcDbVisualStyle
  2
3D Hidden
 70
     6
 71
     1
 72
     2
 73
     2
 90
        0
 40
-0.6
 41
-30.0
 62
     5
 63
     7
 74
     2
 91
        2
 64
     7
 65
   257
 75
     2
175
     1
 42
40.0
 92
        0
 66
   257
 43
1.0
 76
     1
 77
     6
 78
     2
 67
     7
 79
     3
170
     0
171
     0
290
     0
174
     0
 93
        1
 44
0.0
173
     0
291
     0
 45
0.0
1001
ACAD
1000
AcDbSavedByObjectVersion
1070
     0
  0
VISUALSTYLE
  5
F7C
102
{ACAD_REACTORS
330
F75
102
}
330
F75
100
AcDbVisualStyle
  2
3dWireframe
 70
     5
 71
     0
 72
     2
 73
     0
 90
        0
 40
-0.6
 41
-30.0
 62
     5
 63
     7
 74
     1
 91
        4
 64
     7
 65
   257
 75
     1
175
     1
 42
1.0
 92
        0
 66
   257
 43
1.0
 76
     1
 77
     6
 78
     2
 67
     7
 79
     5
170
     0
171
     0
290
     0
174
     0
 93
        1
 44
0.0
173
     0
291
     0
 45
0.0
1001
ACAD
1000
AcDbSavedByObjectVersion
1070
     0
  0
VISUALSTYLE
  5
F7A
102
{ACAD_REACTORS
330
F75
102
}
330
F75
100
AcDbVisualStyle
  2
Basic
 70
     7
 71
     1
 72
     0
 73
     1
 90
        0
 40
-0.6
 41
-30.0
 62
     5
 63
     7
 74
     0
 91
        4
 64
     7
 65
   257
 75
     1
175
     1
 42
1.0
 92
        8
 66
     7
 43
1.0
 76
     1
 77
     6
 78
     2
 67
     7
 79
     5
170
     0
171
     0
290
     0
174
     0
 93
        1
 44
0.0
173
     0
291
     1
 45
0.0
1001
ACAD
1000
AcDbSavedByObjectVersion
1070
     0
  0
VISUALSTYLE
  5
F81
102
{ACAD_REACTORS
330
F75
102
}
330
F75
100
AcDbVisualStyle
  2
Brighten
 70
    12
 71
     2
 72
     2
 73
     0
 90
        0
 40
-0.6
 41
-30.0
 62
     5
 63
     7
 74
     1
 91
        4
 64
     7
 65
   257
 75
     1
175
     1
 42
1.0
 92
        8
 66
     7
 43
1.0
 76
     1
 77
     6
 78
     2
 67
     7
 79
     5
170
     0
171
     0
290
     0
174
     0
 93
        1
 44
50.0
173
     0
291
     1
 45
0.0
1001
ACAD
1000
AcDbSavedByObjectVersion
1070
     0
  0
VISUALSTYLE
  5
F85
102
{ACAD_REACTORS
330
F75
102
}
330
F75
100
AcDbVisualStyle
  2
ColorChange
 70
    16
 71
     2
 72
     2
 73
     3
 90
        0
 40
-0.6
 41
-30.0
 62
     5
 63
     8
 74
     1
 91
        4
 64
     7
 65
   257
 75
     1
175
     1
 42
1.0
 92
        8
 66
     8
 43
1.0
 76
     1
 77
     6
 78
     2
 67
     7
 79
     5
170
     0
171
     0
290
     0
174
     0
 93
        1
 44
0.0
173
     0
291
     1
 45
0.0
1001
ACAD
1000
AcDbSavedByObjectVersion
1070
     0
  0
VISUALSTYLE
  5
F7E
102
{ACAD_REACTORS
330
F75
102
}
330
F75
100
AcDbVisualStyle
  2
Conceptual
 70
     9
 71
     3
 72
     2
 73
     0
 90
        0
 40
-0.6
 41
-30.0
 62
     5
 63
     7
 74
     2
 91
        2
 64
     7
 65
   257
 75
     1
175
     1
 42
40.0
 92
        8
 66
     7
 43
1.0
 76
     1
 77
     6
 78
     2
 67
     7
 79
     3
170
     0
171
     0
290
     0
174
     0
 93
        1
 44
0.0
173
     0
291
     0
 45
0.0
1001
ACAD
1000
AcDbSavedByObjectVersion
1070
     0
  0
VISUALSTYLE
  5
F80
102
{ACAD_REACTORS
330
F75
102
}
330
F75
100
AcDbVisualStyle
  2
Dim
 70
    11
 71
     2
 72
     2
 73
     0
 90
        0
 40
-0.6
 41
-30.0
 62
     5
 63
     7
 74
     1
 91
        4
 64
     7
 65
   257
 75
     1
175
     1
 42
1.0
 92
        8
 66
     7
 43
1.0
 76
     1
 77
     6
 78
     2
 67
     7
 79
     5
170
     0
171
     0
290
     0
174
     0
 93
        1
 44
-50.0
173
     0
291
     1
 45
0.0
1001
ACAD
1000
AcDbSavedByObjectVersion
1070
     0
  0
VISUALSTYLE
  5
F84
102
{ACAD_REACTORS
330
F75
102
}
330
F75
100
AcDbVisualStyle
  2
Facepattern
 70
    15
 71
     2
 72
     2
 73
     0
 90
        0
 40
-0.6
 41
-30.0
 62
     5
 63
     7
 74
     1
 91
        4
 64
     7
 65
   257
 75
     1
175
     1
 42
1.0
 92
        8
 66
     7
 43
1.0
 76
     1
 77
     6
 78
     2
 67
     7
 79
     5
170
     0
171
     0
290
     0
174
     0
 93
        1
 44
0.0
173
     0
291
     1
 45
0.0
1001
ACAD
1000
AcDbSavedByObjectVersion
1070
     0
  0
VISUALSTYLE
  5
F76
102
{ACAD_REACTORS
330
F75
102
}
330
F75
100
AcDbVisualStyle
  2
Flat
 70
     0
 71
     2
 72
     1
 73
     1
 90
        2
 40
-0.6
 41
30.0
 62
     5
 63
     7
 74
     0
 91
        4
 64
     7
 65
   257
 75
     1
175
     1
 42
1.0
 92
        8
 66
     7
 43
1.0
 76
     1
 77
     6
 78
     2
 67
     7
 79
     5
170
     0
171
     0
290
     0
174
     0
 93
       13
 44
0.0
173
     0
291
     1
 45
0.0
1001
ACAD
1000
AcDbSavedByObjectVersion
1070
     0
  0
VISUALSTYLE
  5
F77
102
{ACAD_REACTORS
330
F75
102
}
330
F75
100
AcDbVisualStyle
  2
FlatWithEdges
 70
     1
 71
     2
 72
     1
 73
     1
 90
        2
 40
-0.6
 41
30.0
 62
     5
 63
     7
 74
     1
 91
        4
 64
     7
 65
   257
 75
     1
175
     1
 42
1.0
 92
        0
 66
   257
 43
1.0
 76
     1
 77
     6
 78
     2
 67
     7
 79
     5
170
     0
171
     0
290
     0
174
     0
 93
       13
 44
0.0
173
     0
291
     1
 45
0.0
1001
ACAD
1000
AcDbSavedByObjectVersion
1070
     0
  0
VISUALSTYLE
  5
F78
102
{ACAD_REACTORS
330
F75
102
}
330
F75
100
AcDbVisualStyle
  2
Gouraud
 70
     2
 71
     2
 72
     2
 73
     1
 90
        2
 40
-0.6
 41
30.0
 62
     5
 63
     7
 74
     0
 91
        4
 64
     7
 65
   257
 75
     1
175
     1
 42
1.0
 92
        0
 66
     7
 43
1.0
 76
     1
 77
     6
 78
     2
 67
     7
 79
     5
170
     0
171
     0
290
     0
174
     0
 93
       13
 44
0.0
173
     0
291
     1
 45
0.0
1001
ACAD
1000
AcDbSavedByObjectVersion
1070
     0
  0
VISUALSTYLE
  5
F79
102
{ACAD_REACTORS
330
F75
102
}
330
F75
100
AcDbVisualStyle
  2
GouraudWithEdges
 70
     3
 71
     2
 72
     2
 73
     1
 90
        2
 40
-0.6
 41
30.0
 62
     5
 63
     7
 74
     1
 91
        4
 64
     7
 65
   257
 75
     1
175
     1
 42
1.0
 92
        0
 66
   257
 43
1.0
 76
     1
 77
     6
 78
     2
 67
     7
 79
     5
170
     0
171
     0
290
     0
174
     0
 93
       13
 44
0.0
173
     0
291
     1
 45
0.0
1001
ACAD
1000
AcDbSavedByObjectVersion
1070
     0
  0
VISUALSTYLE
  5
F83
102
{ACAD_REACTORS
330
F75
102
}
330
F75
100
AcDbVisualStyle
  2
Linepattern
 70
    14
 71
     2
 72
     2
 73
     0
 90
        0
 40
-0.6
 41
-30.0
 62
     5
 63
     7
 74
     1
 91
        4
 64
     7
 65
   257
 75
     7
175
     7
 42
1.0
 92
        8
 66
     7
 43
1.0
 76
     1
 77
     6
 78
     2
 67
     7
 79
     5
170
     0
171
     0
290
     0
174
     0
 93
        1
 44
0.0
173
     0
291
     1
 45
0.0
1001
ACAD
1000
AcDbSavedByObjectVersion
1070
     0
  0
VISUALSTYLE
  5
F7F
102
{ACAD_REACTORS
330
F75
102
}
330
F75
100
AcDbVisualStyle
  2
Realistic
 70
     8
 71
     2
 72
     2
 73
     0
 90
        0
 40
-0.6
 41
-30.0
 62
     5
 63
     7
 74
     1
 91
        0
 64
     7
 65
   257
 75
     1
175
     1
 42
1.0
 92
        8
 66
     8
 43
1.0
 76
     1
 77
     6
 78
     2
 67
     7
 79
     5
170
     0
171
     0
290
     0
174
     0
 93
       13
 44
0.0
173
     0
291
     0
 45
0.0
1001
ACAD
1000
AcDbSavedByObjectVersion
1070
     0
  0
VISUALSTYLE
  5
F82
102
{ACAD_REACTORS
330
F75
102
}
330
F75
100
AcDbVisualStyle
  2
Thicken
 70
    13
 71
     2
 72
     2
 73
     0
 90
        0
 40
-0.6
 41
-30.0
 62
     5
 63
     7
 74
     1
 91
        4
 64
     7
 65
   257
 75
     1
175
     1
 42
1.0
 92
       12
 66
     7
 43
1.0
 76
     1
 77
     6
 78
     2
 67
     7
 79
     5
170
     0
171
     0
290
     0
174
     0
 93
        1
 44
0.0
173
     0
291
     1
 45
0.0
1001
ACAD
1000
AcDbSavedByObjectVersion
1070
     0
  0
DICTIONARYVAR
  5
F8A
102
{ACAD_REACTORS
330
F89
102
}
330
F89
100
DictionaryVariables
280
     0
  1
STANDARD
  0
DICTIONARYVAR
  5
1E9E
102
{ACAD_REACTORS
330
F89
102
}
330
F89
100
DictionaryVariables
280
     0
  1
1
  0
DICTIONARYVAR
  5
1E9D
102
{ACAD_REACTORS
330
F89
102
}
330
F89
100
DictionaryVariables
280
     0
  1
0
  0
DICTIONARYVAR
  5
1E9C
102
{ACAD_REACTORS
330
F89
102
}
330
F89
100
DictionaryVariables
280
     0
  1
127
  0
DICTIONARY
  5
1EBE
330
A6A
100
AcDbDictionary
280
     1
281
     1
  3
ACAD_XREC_ROUNDTRIP
360
1EBF
  0
DICTIONARY
  5
1EBC
330
A69
100
AcDbDictionary
280
     1
281
     1
  3
ACAD_XREC_ROUNDTRIP
360
1EBD
  0
DICTIONARY
  5
1EC2
330
F73
100
AcDbDictionary
280
     1
281
     1
  3
ACAD_XREC_ROUNDTRIP
360
1EC3
  0
DICTIONARY
  5
1EC0
330
F72
100
AcDbDictionary
280
     1
281
     1
  3
ACAD_XREC_ROUNDTRIP
360
1EC1
  0
DICTIONARY
  5
1EC4
330
F74
100
AcDbDictionary
280
     1
281
     1
  3
ACAD_XREC_ROUNDTRIP
360
1EC5
  0
DICTIONARY
  5
1EC6
330
F88
100
AcDbDictionary
280
     1
281
     1
  3
ACAD_XREC_ROUNDTRIP
360
1EC7
  0
XRECORD
  5
1EBF
102
{ACAD_REACTORS
330
1EBE
102
}
330
1EBE
100
AcDbXrecord
280
     1
102
SHADEPLOT
 70
     0
102
SHADEPLOTRESLEVEL
 70
     2
102
SHADEPLOTCUSTOMDPI
 70
   300
  0
XRECORD
  5
1EBD
102
{ACAD_REACTORS
330
1EBC
102
}
330
1EBC
100
AcDbXrecord
280
     1
102
SHADEPLOT
 70
     0
102
SHADEPLOTRESLEVEL
 70
     2
102
SHADEPLOTCUSTOMDPI
 70
   300
  0
XRECORD
  5
1EC3
102
{ACAD_REACTORS
330
1EC2
102
}
330
1EC2
100
AcDbXrecord
280
     1
102
MATERIAL
148
0.0
149
0.0
149
0.0
 93
        0
 94
       63
282
     0
 72
     1
 77
     1
171
     1
175
     1
179
     1
273
     0
  0
XRECORD
  5
1EC1
102
{ACAD_REACTORS
330
1EC0
102
}
330
1EC0
100
AcDbXrecord
280
     1
102
MATERIAL
148
0.0
149
0.0
149
0.0
 93
        0
 94
       63
282
     0
 72
     1
 77
     1
171
     1
175
     1
179
     1
273
     0
  0
XRECORD
  5
1EC5
102
{ACAD_REACTORS
330
1EC4
102
}
330
1EC4
100
AcDbXrecord
280
     1
102
MATERIAL
148
0.0
149
0.0
149
0.0
 93
        0
 94
       63
282
     0
 72
     1
 77
     1
171
     1
175
     1
179
     1
273
     0
  0
XRECORD
  5
1EC7
102
{ACAD_REACTORS
330
1EC6
102
}
330
1EC6
100
AcDbXrecord
280
     1
102
ACAD_ROUNDTRIP_PRE2007_TABLESTYLE
 90
      512
 91
        0
  1

 92
      512
 93
        0
  2

 94
      512
 95
        0
  3

  0
ENDSEC
  0
EOF
