  0
SECTION
  2
HEADER
  9
$ACADVER
  1
AC1015
  9
$ACADMAINTVER
 70
    20
  9
$DWGCODEPAGE
  3
ANSI_1252
  9
$INSBASE
 10
0.0
 20
0.0
 30
0.0
  9
$EXTMIN
 10
-75.31571637831376
 20
-154.5561403080057
 30
0.0
  9
$EXTMAX
 10
219.613001070013
 20
227.1163175663025
 30
0.0
  9
$LIMMIN
 10
0.0
 20
0.0
  9
$LIMMAX
 10
12.0
 20
9.0
  9
$ORTHOMODE
 70
     1
  9
$REGENMODE
 70
     1
  9
$FILLMODE
 70
     1
  9
$QTEXTMODE
 70
     0
  9
$MIRRTEXT
 70
     0
  9
$LTSCALE
 40
4.0
  9
$ATTMODE
 70
     1
  9
$TEXTSIZE
 40
2.210999999999999
  9
$TRACEWID
 40
0.05
  9
$TEXTSTYLE
  7
ROMANS
  9
$CLAYER
  8
0
  9
$CELTYPE
  6
BYLAYER
  9
$CECOLOR
 62
   256
  9
$CELTSCALE
 40
1.0
  9
$DISPSILH
 70
     0
  9
$DIMSCALE
 40
30.0
  9
$DIMASZ
 40
0.0625
  9
$DIMEXO
 40
0.0625
  9
$DIMDLI
 40
0.375
  9
$DIMRND
 40
0.0
  9
$DIMDLE
 40
0.0
  9
$DIMEXE
 40
0.0625
  9
$DIMTP
 40
0.0
  9
$DIMTM
 40
0.0
  9
$DIMTXT
 40
0.08203125
  9
$DIMCEN
 40
0.0625
  9
$DIMTSZ
 40
0.0
  9
$DIMTOL
 70
     0
  9
$DIMLIM
 70
     0
  9
$DIMTIH
 70
     1
  9
$DIMTOH
 70
     1
  9
$DIMSE1
 70
     0
  9
$DIMSE2
 70
     0
  9
$DIMTAD
 70
     0
  9
$DIMZIN
 70
     3
  9
$DIMBLK
  1

  9
$DIMASO
 70
     1
  9
$DIMSHO
 70
     1
  9
$DIMPOST
  1

  9
$DIMAPOST
  1

  9
$DIMALT
 70
     0
  9
$DIMALTD
 70
     2
  9
$DIMALTF
 40
25.4
  9
$DIMLFAC
 40
1.0
  9
$DIMTOFL
 70
     0
  9
$DIMTVP
 40
0.0
  9
$DIMTIX
 70
     0
  9
$DIMSOXD
 70
     0
  9
$DIMSAH
 70
     0
  9
$DIMBLK1
  1

  9
$DIMBLK2
  1

  9
$DIMSTYLE
  2
STANDARD
  9
$DIMCLRD
 70
     0
  9
$DIMCLRE
 70
     0
  9
$DIMCLRT
 70
     0
  9
$DIMTFAC
 40
1.0
  9
$DIMGAP
 40
0.0625
  9
$DIMJUST
 70
     0
  9
$DIMSD1
 70
     0
  9
$DIMSD2
 70
     0
  9
$DIMTOLJ
 70
     1
  9
$DIMTZIN
 70
     0
  9
$DIMALTZ
 70
     0
  9
$DIMALTTZ
 70
     0
  9
$DIMUPT
 70
     0
  9
$DIMDEC
 70
     4
  9
$DIMTDEC
 70
     4
  9
$DIMALTU
 70
     2
  9
$DIMALTTD
 70
     2
  9
$DIMTXSTY
  7
ROMANS
  9
$DIMAUNIT
 70
     0
  9
$DIMADEC
 70
     0
  9
$DIMALTRND
 40
0.0
  9
$DIMAZIN
 70
     0
  9
$DIMDSEP
 70
    46
  9
$DIMATFIT
 70
     3
  9
$DIMFRAC
 70
     2
  9
$DIMLDRBLK
  1

  9
$DIMLUNIT
 70
     4
  9
$DIMLWD
 70
    -2
  9
$DIMLWE
 70
    -2
  9
$DIMTMOVE
 70
     2
  9
$LUNITS
 70
     4
  9
$LUPREC
 70
     4
  9
$SKETCHINC
 40
0.1
  9
$FILLETRAD
 40
0.0
  9
$AUNITS
 70
     0
  9
$AUPREC
 70
     0
  9
$MENU
  1
acad
  9
$ELEVATION
 40
0.0
  9
$PELEVATION
 40
0.0
  9
$THICKNESS
 40
0.0
  9
$LIMCHECK
 70
     0
  9
$CHAMFERA
 40
0.0
  9
$CHAMFERB
 40
0.0
  9
$CHAMFERC
 40
0.0
  9
$CHAMFERD
 40
0.0
  9
$SKPOLY
 70
     0
  9
$TDCREATE
 40
2450687.337153472
  9
$TDUCREATE
 40
2450687.503820139
  9
$TDUPDATE
 40
2459472.701455718
  9
$TDUUPDATE
 40
2459472.868122384
  9
$TDINDWG
 40
0.6521115162
  9
$TDUSRTIMER
 40
0.6521115162
  9
$USRTIMER
 70
     1
  9
$ANGBASE
 50
0.0
  9
$ANGDIR
 70
     0
  9
$PDMODE
 70
    33
  9
$PDSIZE
 40
0.0
  9
$PLINEWID
 40
0.0
  9
$SPLFRAME
 70
     0
  9
$SPLINETYPE
 70
     6
  9
$SPLINESEGS
 70
     8
  9
$HANDSEED
  5
498D
  9
$SURFTAB1
 70
     6
  9
$SURFTAB2
 70
     6
  9
$SURFTYPE
 70
     6
  9
$SURFU
 70
     6
  9
$SURFV
 70
     6
  9
$UCSBASE
  2

  9
$UCSNAME
  2

  9
$UCSORG
 10
0.0
 20
0.0
 30
0.0
  9
$UCSXDIR
 10
1.0
 20
0.0
 30
0.0
  9
$UCSYDIR
 10
0.0
 20
1.0
 30
0.0
  9
$UCSORTHOREF
  2

  9
$UCSORTHOVIEW
 70
     0
  9
$UCSORGTOP
 10
0.0
 20
0.0
 30
0.0
  9
$UCSORGBOTTOM
 10
0.0
 20
0.0
 30
0.0
  9
$UCSORGLEFT
 10
0.0
 20
0.0
 30
0.0
  9
$UCSORGRIGHT
 10
0.0
 20
0.0
 30
0.0
  9
$UCSORGFRONT
 10
0.0
 20
0.0
 30
0.0
  9
$UCSORGBACK
 10
0.0
 20
0.0
 30
0.0
  9
$PUCSBASE
  2

  9
$PUCSNAME
  2

  9
$PUCSORG
 10
0.0
 20
0.0
 30
0.0
  9
$PUCSXDIR
 10
1.0
 20
0.0
 30
0.0
  9
$PUCSYDIR
 10
0.0
 20
1.0
 30
0.0
  9
$PUCSORTHOREF
  2

  9
$PUCSORTHOVIEW
 70
     0
  9
$PUCSORGTOP
 10
0.0
 20
0.0
 30
0.0
  9
$PUCSORGBOTTOM
 10
0.0
 20
0.0
 30
0.0
  9
$PUCSORGLEFT
 10
0.0
 20
0.0
 30
0.0
  9
$PUCSORGRIGHT
 10
0.0
 20
0.0
 30
0.0
  9
$PUCSORGFRONT
 10
0.0
 20
0.0
 30
0.0
  9
$PUCSORGBACK
 10
0.0
 20
0.0
 30
0.0
  9
$USERI1
 70
     0
  9
$USERI2
 70
     0
  9
$USERI3
 70
     0
  9
$USERI4
 70
     0
  9
$USERI5
 70
     0
  9
$USERR1
 40
0.0
  9
$USERR2
 40
0.0
  9
$USERR3
 40
0.0
  9
$USERR4
 40
0.0
  9
$USERR5
 40
0.0
  9
$WORLDVIEW
 70
     1
  9
$SHADEDGE
 70
     3
  9
$SHADEDIF
 70
    70
  9
$TILEMODE
 70
     1
  9
$MAXACTVP
 70
    16
  9
$PINSBASE
 10
0.0
 20
0.0
 30
0.0
  9
$PLIMCHECK
 70
     0
  9
$PEXTMIN
 10
1.000000000000000E+20
 20
1.000000000000000E+20
 30
1.000000000000000E+20
  9
$PEXTMAX
 10
-1.000000000000000E+20
 20
-1.000000000000000E+20
 30
-1.000000000000000E+20
  9
$PLIMMIN
 10
0.0
 20
0.0
  9
$PLIMMAX
 10
12.0
 20
9.0
  9
$UNITMODE
 70
     0
  9
$VISRETAIN
 70
     0
  9
$PLINEGEN
 70
     0
  9
$PSLTSCALE
 70
     1
  9
$TREEDEPTH
 70
  3020
  9
$CMLSTYLE
  2
STANDARD
  9
$CMLJUST
 70
     0
  9
$CMLSCALE
 40
1.0
  9
$PROXYGRAPHICS
 70
     1
  9
$MEASUREMENT
 70
     0
  9
$CELWEIGHT
370
    -1
  9
$ENDCAPS
280
     0
  9
$JOINSTYLE
280
     0
  9
$LWDISPLAY
290
     0
  9
$INSUNITS
 70
     0
  9
$HYPERLINKBASE
  1

  9
$STYLESHEET
  1
acad.ctb
  9
$XEDIT
290
     1
  9
$CEPSNTYPE
380
     0
  9
$PSTYLEMODE
290
     1
  9
$FINGERPRINTGUID
  2
{1B3C157D-504B-11D6-8735-0010B50CF566}
  9
$VERSIONGUID
  2
{8BA1FAD3-765C-474E-83EF-542B3BAD2FD5}
  9
$EXTNAMES
290
     1
  9
$PSVPSCALE
 40
0.0
  9
$OLESTARTUP
290
     0
  0
ENDSEC
  0
SECTION
  2
CLASSES
  0
CLASS
  1
ACDBDICTIONARYWDFLT
  2
AcDbDictionaryWithDefault
  3
ObjectDBX Classes
 90
        0
280
     0
281
     0
  0
CLASS
  1
ACDBPLACEHOLDER
  2
AcDbPlaceHolder
  3
ObjectDBX Classes
 90
        0
280
     0
281
     0
  0
CLASS
  1
LAYOUT
  2
AcDbLayout
  3
ObjectDBX Classes
 90
        0
280
     0
281
     0
  0
CLASS
  1
MATERIAL
  2
AcDbMaterial
  3
ObjectDBX Classes
 90
     1024
280
     0
281
     0
  0
CLASS
  1
VISUALSTYLE
  2
AcDbVisualStyle
  3
ObjectDBX Classes
 90
     4095
280
     0
281
     0
  0
CLASS
  1
TABLESTYLE
  2
AcDbTableStyle
  3
ObjectDBX Classes
 90
     4095
280
     0
281
     0
  0
CLASS
  1
DICTIONARYVAR
  2
AcDbDictionaryVar
  3
ObjectDBX Classes
 90
        0
280
     0
281
     0
  0
CLASS
  1
SORTENTSTABLE
  2
AcDbSortentsTable
  3
ObjectDBX Classes
 90
        0
280
     0
281
     0
  0
CLASS
  1
EXACXREFPANELOBJECT
  2
ExAcXREFPanelObject
  3
EXAC_ESW
 90
     1025
280
     0
281
     0
  0
CLASS
  1
NPOCOLLECTION
  2
AcDbImpNonPersistentObjectsCollection
  3
ObjectDBX Classes
 90
     1153
280
     0
281
     0
  0
CLASS
  1
EXACTERMXREFMAP
  2
ExAcTermXrefMap
  3
EXAC_SERVICE
 90
    33793
280
     0
281
     0
  0
ENDSEC
  0
SECTION
  2
TABLES
  0
TABLE
  2
VPORT
  5
46E
102
{ACAD_XDICTIONARY
360
2C35
102
}
330
0
100
AcDbSymbolTable
 70
     1
  0
VPORT
  5
16DE
330
46E
100
AcDbSymbolTableRecord
100
AcDbViewportTableRecord
  2
*Active
 70
     0
 10
0.0
 20
0.0
 11
1.0
 21
1.0
 12
93.12458988860294
 22
33.97514621655734
 13
0.0
 23
0.0
 14
1.0
 24
1.0
 15
0.0
 25
0.0
 16
0.0
 26
0.0
 36
1.0
 17
0.0
 27
0.0
 37
0.0
 40
391.2960057303941
 41
2.153388822829964
 42
50.0
 43
0.0
 44
0.0
 50
0.0
 51
0.0
 71
     0
 72
   100
 73
     1
 74
     0
 75
     0
 76
     0
 77
     0
 78
     2
281
     0
 65
     1
110
0.0
120
0.0
130
0.0
111
1.0
121
0.0
131
0.0
112
0.0
122
1.0
132
0.0
 79
     0
146
0.0
  0
ENDTAB
  0
TABLE
  2
LTYPE
  5
46B
330
0
100
AcDbSymbolTable
 70
     2
  0
LTYPE
  5
478
330
46B
100
AcDbSymbolTableRecord
100
AcDbLinetypeTableRecord
  2
BYBLOCK
 70
     0
  3

 72
    65
 73
     0
 40
0.0
  0
LTYPE
  5
479
330
46B
100
AcDbSymbolTableRecord
100
AcDbLinetypeTableRecord
  2
BYLAYER
 70
     0
  3

 72
    65
 73
     0
 40
0.0
  0
LTYPE
  5
47A
330
46B
100
AcDbSymbolTableRecord
100
AcDbLinetypeTableRecord
  2
CONTINUOUS
 70
     0
  3
Solid line
 72
    65
 73
     0
 40
0.0
  0
LTYPE
  5
11F3
330
46B
100
AcDbSymbolTableRecord
100
AcDbLinetypeTableRecord
  2
HIDDEN
 70
     0
  3
Hidden __ __ __ __ __ __ __ __ __ __ __ __ __ _
 72
    65
 73
     2
 40
0.375
 49
0.25
 74
     0
 49
-0.125
 74
     0
  0
ENDTAB
  0
TABLE
  2
LAYER
  5
468
102
{ACAD_XDICTIONARY
360
2999
102
}
330
0
100
AcDbSymbolTable
 70
     2
  0
LAYER
  5
475
330
468
100
AcDbSymbolTableRecord
100
AcDbLayerTableRecord
  2
0
 70
     0
 62
     7
  6
CONTINUOUS
370
    -3
390
DD2
  0
LAYER
  5
4A5
330
468
100
AcDbSymbolTableRecord
100
AcDbLayerTableRecord
  2
DEFPOINTS
 70
     0
 62
     7
  6
CONTINUOUS
290
     0
370
    -3
390
DD2
  0
ENDTAB
  0
TABLE
  2
STYLE
  5
469
330
0
100
AcDbSymbolTable
 70
     4
  0
STYLE
  5
476
330
469
100
AcDbSymbolTableRecord
100
AcDbTextStyleTableRecord
  2
STANDARD
 70
     0
 40
0.0
 41
1.0
 50
0.0
 71
     0
 42
0.2
  3
txt
  4

  0
STYLE
  5
499
330
469
100
AcDbSymbolTableRecord
100
AcDbTextStyleTableRecord
  2
ROMANS
 70
     0
 40
0.0
 41
1.0
 50
0.0
 71
     0
 42
2.210999999999999
  3
romans
  4

  0
STYLE
  5
49A
330
469
100
AcDbSymbolTableRecord
100
AcDbTextStyleTableRecord
  2
ROMANC
 70
     0
 40
1.914299999999999
 41
1.0
 50
0.0
 71
     0
 42
2.210999999999999
  3
romanc
  4

  0
STYLE
  5
CFE
330
469
100
AcDbSymbolTableRecord
100
AcDbTextStyleTableRecord
  2
STYLE1
 70
     0
 40
0.0
 41
1.0
 50
0.0
 71
     0
 42
3.0954
  3
C:\Program Files\AutoCAD LT\romanc.shx
  4

  0
ENDTAB
  0
TABLE
  2
VIEW
  5
46C
330
0
100
AcDbSymbolTable
 70
     0
  0
ENDTAB
  0
TABLE
  2
UCS
  5
46D
330
0
100
AcDbSymbolTable
 70
     0
  0
ENDTAB
  0
TABLE
  2
APPID
  5
46F
330
0
100
AcDbSymbolTable
 70
     3
  0
APPID
  5
477
330
46F
100
AcDbSymbolTableRecord
100
AcDbRegAppTableRecord
  2
ACAD
 70
     0
  0
APPID
  5
1AC7
330
46F
100
AcDbSymbolTableRecord
100
AcDbRegAppTableRecord
  2
ACAD_EXEMPT_FROM_CAD_STANDARDS
 70
     0
  0
APPID
  5
2998
330
46F
100
AcDbSymbolTableRecord
100
AcDbRegAppTableRecord
  2
ACAD_PSEXT
 70
     0
  0
ENDTAB
  0
TABLE
  2
DIMSTYLE
  5
470
330
0
100
AcDbSymbolTable
 70
     2
100
AcDbDimStyleTable
 71
     2
340
4A3
340
104F
  0
DIMSTYLE
105
4A3
102
{ACAD_REACTORS
330
11C7
102
}
330
470
100
AcDbSymbolTableRecord
100
AcDbDimStyleTableRecord
  2
STANDARD
 70
     0
 40
28.0
 41
0.0625
 43
0.375
 44
0.0625
 78
     3
140
0.08203125
141
0.0625
147
0.0625
276
     2
277
     4
279
     2
340
499
  0
DIMSTYLE
105
104F
102
{ACAD_REACTORS
330
1065
330
38A
330
1076
330
1071
330
1081
330
1085
330
1066
330
362
330
305
330
1060
330
20F9
330
2DE0
330
2FBA
330
306B
330
340D
330
35F4
330
3636
330
3DCE
330
3E0E
330
3E34
330
4682
102
}
330
470
100
AcDbSymbolTableRecord
100
AcDbDimStyleTableRecord
  2
STANDARD$0
 70
     0
 40
24.0
 41
0.0625
 43
0.375
 44
0.0625
 78
     3
140
0.0804
141
0.0625
147
0.0625
276
     2
277
     4
279
     2
284
     3
340
499
  0
ENDTAB
  0
TABLE
  2
BLOCK_RECORD
  5
467
330
0
100
AcDbSymbolTable
 70
    26
  0
BLOCK_RECORD
  5
47E
102
{ACAD_XDICTIONARY
360
1705
102
}
330
467
100
AcDbSymbolTableRecord
100
AcDbBlockTableRecord
  2
*MODEL_SPACE
340
DD5
  0
BLOCK_RECORD
  5
47B
330
467
100
AcDbSymbolTableRecord
100
AcDbBlockTableRecord
  2
*PAPER_SPACE
340
DD6
  0
BLOCK_RECORD
  5
495
330
467
100
AcDbSymbolTableRecord
100
AcDbBlockTableRecord
  2
LINETYPE
340
0
102
{BLKREFS
331
386
102
}
  0
BLOCK_RECORD
  5
DE4
102
{ACAD_XDICTIONARY
360
43F5
102
}
330
467
100
AcDbSymbolTableRecord
100
AcDbBlockTableRecord
  2
Border
340
0
102
{BLKREFS
331
DE8
102
}
  0
BLOCK_RECORD
  5
DE9
330
467
100
AcDbSymbolTableRecord
100
AcDbBlockTableRecord
  2
Border-t
340
0
102
{BLKREFS
331
DFA
102
}
  0
BLOCK_RECORD
  5
1086
330
467
100
AcDbSymbolTableRecord
100
AcDbBlockTableRecord
  2
*D3
340
0
  0
BLOCK_RECORD
  5
1093
330
467
100
AcDbSymbolTableRecord
100
AcDbBlockTableRecord
  2
*D4
340
0
  0
BLOCK_RECORD
  5
10A0
330
467
100
AcDbSymbolTableRecord
100
AcDbBlockTableRecord
  2
*D5
340
0
  0
BLOCK_RECORD
  5
10AD
330
467
100
AcDbSymbolTableRecord
100
AcDbBlockTableRecord
  2
*D6
340
0
  0
BLOCK_RECORD
  5
10BA
330
467
100
AcDbSymbolTableRecord
100
AcDbBlockTableRecord
  2
*D7
340
0
  0
BLOCK_RECORD
  5
10C7
330
467
100
AcDbSymbolTableRecord
100
AcDbBlockTableRecord
  2
*D8
340
0
  0
BLOCK_RECORD
  5
10D4
330
467
100
AcDbSymbolTableRecord
100
AcDbBlockTableRecord
  2
*D9
340
0
  0
BLOCK_RECORD
  5
11F4
330
467
100
AcDbSymbolTableRecord
100
AcDbBlockTableRecord
  2
Ldr-trd
340
0
102
{BLKREFS
331
11F8
331
11F9
331
11FA
331
2D56
331
2D57
331
2F94
331
2F95
331
2F9A
331
2F9B
331
3548
331
354B
331
354E
331
3551
331
3554
331
3557
331
355A
331
355D
331
3560
331
3563
331
3566
331
3569
331
356C
331
356F
331
3572
331
3575
331
3578
102
}
  0
BLOCK_RECORD
  5
13B9
330
467
100
AcDbSymbolTableRecord
100
AcDbBlockTableRecord
  2
*D11
340
0
  0
BLOCK_RECORD
  5
14A7
330
467
100
AcDbSymbolTableRecord
100
AcDbBlockTableRecord
  2
*D12
340
0
  0
BLOCK_RECORD
  5
14B4
330
467
100
AcDbSymbolTableRecord
100
AcDbBlockTableRecord
  2
*D13
340
0
  0
BLOCK_RECORD
  5
20FA
330
467
100
AcDbSymbolTableRecord
100
AcDbBlockTableRecord
  2
*D14
340
0
  0
BLOCK_RECORD
  5
2DE6
330
467
100
AcDbSymbolTableRecord
100
AcDbBlockTableRecord
  2
*D15
340
0
  0
BLOCK_RECORD
  5
2FBB
330
467
100
AcDbSymbolTableRecord
100
AcDbBlockTableRecord
  2
*D16
340
0
  0
BLOCK_RECORD
  5
306C
330
467
100
AcDbSymbolTableRecord
100
AcDbBlockTableRecord
  2
*D17
340
0
  0
BLOCK_RECORD
  5
340E
330
467
100
AcDbSymbolTableRecord
100
AcDbBlockTableRecord
  2
*D18
340
0
  0
BLOCK_RECORD
  5
35F5
330
467
100
AcDbSymbolTableRecord
100
AcDbBlockTableRecord
  2
*D19
340
0
  0
BLOCK_RECORD
  5
363A
330
467
100
AcDbSymbolTableRecord
100
AcDbBlockTableRecord
  2
*D20
340
0
  0
BLOCK_RECORD
  5
3DD1
330
467
100
AcDbSymbolTableRecord
100
AcDbBlockTableRecord
  2
*D21
340
0
  0
BLOCK_RECORD
  5
3E0F
330
467
100
AcDbSymbolTableRecord
100
AcDbBlockTableRecord
  2
*D22
340
0
  0
BLOCK_RECORD
  5
3E35
330
467
100
AcDbSymbolTableRecord
100
AcDbBlockTableRecord
  2
*D23
340
0
  0
BLOCK_RECORD
  5
4144
330
467
100
AcDbSymbolTableRecord
100
AcDbBlockTableRecord
  2
*X24
340
0
102
{BLKREFS
331
4143
102
}
  0
BLOCK_RECORD
  5
4683
330
467
100
AcDbSymbolTableRecord
100
AcDbBlockTableRecord
  2
*D25
340
0
  0
ENDTAB
  0
ENDSEC
  0
SECTION
  2
BLOCKS
  0
BLOCK
  5
4A8
330
47E
100
AcDbEntity
  8
0
100
AcDbBlockBegin
  2
*MODEL_SPACE
 70
     0
 10
0.0
 20
0.0
 30
0.0
  3
*MODEL_SPACE
  1

  0
ENDBLK
  5
4A9
330
47E
100
AcDbEntity
  8
0
100
AcDbBlockEnd
  0
BLOCK
  5
4A6
330
47B
100
AcDbEntity
 67
     1
  8
0
100
AcDbBlockBegin
  2
*PAPER_SPACE
 70
     0
 10
0.0
 20
0.0
 30
0.0
  3
*PAPER_SPACE
  1

  0
ENDBLK
  5
4A7
330
47B
100
AcDbEntity
 67
     1
  8
0
100
AcDbBlockEnd
  0
BLOCK
  5
1C9
330
495
100
AcDbEntity
  8
0
100
AcDbBlockBegin
  2
LINETYPE
 70
     0
 10
0.0
 20
0.0
 30
0.0
  3
LINETYPE
  1

  0
ENDBLK
  5
1CA
330
495
100
AcDbEntity
  8
0
100
AcDbBlockEnd
  0
BLOCK
  5
DE5
330
DE4
100
AcDbEntity
  8
0
100
AcDbBlockBegin
  2
Border
 70
     0
 10
-0.7091800116219247
 20
15.8157349101412
 30
0.0
  3
Border
  1
\\precisionserver\c$\Cad Files\Ladders\STANDARD\X-REF\BORDER.DWG
  0
TEXT
  5
4138
330
DE4
100
AcDbEntity
  8
0
 62
     7
100
AcDbText
 10
14.88063647735446
 20
3.555192752089312
 30
0.0
 40
1.424754602022192
  1
Ph: (423) 586-2265 Fax: (423) 586-2091
  7
ROMANS
100
AcDbText
  0
TEXT
  5
4139
330
DE4
100
AcDbEntity
  8
0
 62
     7
100
AcDbText
 10
14.08259024903725
 20
5.861938298220419
 30
0.0
 40
1.424754602022192
  1
P.O. BOX 2279 Morristown, TN 37816-2279
  7
ROMANS
100
AcDbText
  0
POLYLINE
  5
413A
330
DE4
100
AcDbEntity
  8
0
 62
     7
100
AcDb2dPolyline
 66
     1
 10
0.0
 20
0.0
 30
0.0
1001
ACAD
1000
ASC_BOUNDS
1002
{
1070
    19
1002
}
  0
VERTEX
  5
413B
330
413A
100
AcDbEntity
  8
0
 62
     7
100
AcDbVertex
100
AcDb2dVertex
 10
8.76668081738618
 20
6.443475067235917
 30
0.0
  0
VERTEX
  5
413C
330
413A
100
AcDbEntity
  8
0
 62
     7
100
AcDbVertex
100
AcDb2dVertex
 10
8.994566881815796
 20
6.559590470402543
 30
0.0
1001
ACAD
1000
ASC_BOUNDS
1002
{
1070
    19
1002
}
  0
VERTEX
  5
413D
330
413A
100
AcDbEntity
  8
0
 62
     7
100
AcDbVertex
100
AcDb2dVertex
 10
10.52763436609126
 20
3.491790326072929
 30
0.0
1001
ACAD
1000
ASC_BOUNDS
1002
{
1070
    19
1002
}
  0
VERTEX
  5
413E
330
413A
100
AcDbEntity
  8
0
 62
     7
100
AcDbVertex
100
AcDb2dVertex
 10
10.03502769416031
 20
3.494898529831858
 30
0.0
  0
VERTEX
  5
413F
330
413A
100
AcDbEntity
  8
0
 62
     7
100
AcDbVertex
100
AcDb2dVertex
 10
8.603173268005281
 20
6.360162623077897
 30
0.0
  0
SEQEND
  5
4140
330
413A
100
AcDbEntity
  8
0
 62
     7
  0
TEXT
  5
4141
330
DE4
100
AcDbEntity
  8
0
 62
     7
100
AcDbText
 10
9.015369284921124
 20
8.285226862434923
 30
0.0
 40
2.328886132939683
  1
Precision Ladders, LLC
  7
STYLE1
100
AcDbText
  0
CIRCLE
  5
4142
330
DE4
100
AcDbEntity
  8
0
100
AcDbCircle
 10
7.214644270335542
 20
7.94378092785312
 30
0.0
 40
6.38678347424664
1001
ACAD
1000
ASC_BOUNDS
1002
{
1070
    19
1002
}
  0
INSERT
  5
4143
330
DE4
100
AcDbEntity
  8
0
100
AcDbBlockReference
  2
*X24
 10
26.35103919121864
 20
151.2550454807789
 30
0.0
 41
0.5167726248169388
 42
0.5167726248169388
 43
0.5167726248169388
1001
ACAD
1000
HATCH
1002
{
1070
    19
1000
ANSI31
1040
0.8843871093750001
1040
0.0
1002
}
  0
LWPOLYLINE
  5
4391
330
DE4
100
AcDbEntity
  8
0
 62
     7
100
AcDbPolyline
 90
        4
 70
     1
 43
0.0
 10
2.975488579343778
 20
11.20574487544478
 10
2.975488579343778
 20
11.66813709808385
 10
7.899965750449311
 20
11.66813709808385
 10
7.899965750449311
 20
11.20574487544478
1001
ACAD
1000
ASC_BOUNDS
1002
{
1070
    19
1005
0
1005
0
1002
}
  0
LINE
  5
4392
330
DE4
100
AcDbEntity
  8
0
 62
     7
100
AcDbLine
 10
3.147317460242414
 20
11.15583866480144
 30
0.0
 11
5.194053803500196
 21
7.138892415524503
 31
0.0
1001
ACAD
1000
ASC_BOUNDS
1002
{
1070
    19
1002
}
  0
LWPOLYLINE
  5
4393
330
DE4
100
AcDbEntity
  8
0
 62
     7
100
AcDbPolyline
 90
        4
 70
     0
 43
0.0
 10
3.043241497727863
 20
11.20371728648949
 10
5.210472883142562
 20
6.950286201614064
 10
5.200585015452041
 20
6.945248081384525
 10
3.033353630037339
 20
11.19867916625991
1001
ACAD
1000
ASC_BOUNDS
1002
{
1070
    19
1002
}
  0
LINE
  5
4394
330
DE4
100
AcDbEntity
  8
0
 62
     7
100
AcDbLine
 10
3.085518287176609
 20
11.12435041336667
 30
0.0
 11
3.147317460242414
 21
11.15583866480144
 31
0.0
1001
ACAD
1000
ASC_BOUNDS
1002
{
1070
    19
1002
}
  0
LINE
  5
4395
330
DE4
100
AcDbEntity
  8
0
 62
     7
100
AcDbLine
 10
3.147317460242414
 20
11.15583866480144
 30
0.0
 11
3.24526391354098
 21
11.20574487544478
 31
0.0
1001
ACAD
1000
ASC_BOUNDS
1002
{
1070
    19
1002
}
  0
LINE
  5
4396
330
DE4
100
AcDbEntity
  8
0
 62
     7
100
AcDbLine
 10
3.147317460242414
 20
11.15583866480144
 30
0.0
 11
3.273270465981353
 21
10.90864197253827
 31
0.0
1001
ACAD
1000
ASC_BOUNDS
1002
{
1070
    19
1002
}
  0
LINE
  5
4397
330
DE4
100
AcDbEntity
  8
0
 62
     7
100
AcDbLine
 10
5.072300872670789
 20
9.537448078706589
 30
0.0
 11
4.595747463433541
 21
8.569300236298884
 31
0.0
1001
ACAD
1000
ASC_BOUNDS
1002
{
1070
    19
1005
0
1002
}
  0
LWPOLYLINE
  5
4398
330
DE4
100
AcDbEntity
  8
0
 62
     7
100
AcDbPolyline
 90
        2
 70
     0
 43
0.0
 10
4.96050641954463
 20
9.543645531164395
 10
4.503413916137343
 20
8.615033727373596
1001
ACAD
1000
ASC_BOUNDS
1002
{
1070
    19
1005
0
1002
}
  0
LINE
  5
4399
330
DE4
100
AcDbEntity
  8
0
 62
     7
100
AcDbLine
 10
4.056007838214296
 20
11.20574487544478
 30
0.0
 11
4.932195406234606
 21
9.486129949655133
 31
0.0
1001
ACAD
1000
ASC_BOUNDS
1002
{
1070
    19
1002
}
  0
LINE
  5
439A
330
DE4
100
AcDbEntity
  8
0
 62
     7
100
AcDbLine
 10
3.978164599682428
 20
11.20574487544478
 30
0.0
 11
4.89394569271214
 21
9.408423281521599
 31
0.0
1001
ACAD
1000
ASC_BOUNDS
1002
{
1070
    19
1002
}
  0
LINE
  5
439B
330
DE4
100
AcDbEntity
  8
0
 62
     7
100
AcDbLine
 10
3.898137361914258
 20
10.64985270363091
 30
0.0
 11
4.715447029607362
 21
9.045792163565488
 31
0.0
1001
ACAD
1000
ASC_BOUNDS
1002
{
1070
    19
1002
}
  0
LINE
  5
439C
330
DE4
100
AcDbEntity
  8
0
 62
     7
100
AcDbLine
 10
5.484078733523913
 20
6.9101431448873
 30
0.0
 11
8.603173268005281
 21
6.360162623077897
 31
0.0
1001
ACAD
1000
ASC_BOUNDS
1002
{
1070
    19
1002
}
  0
POLYLINE
  5
439D
330
DE4
100
AcDbEntity
  8
0
 62
     7
100
AcDb2dPolyline
 66
     1
 10
0.0
 20
0.0
 30
0.0
1001
ACAD
1000
ASC_BOUNDS
1002
{
1070
    19
1002
}
  0
VERTEX
  5
439E
330
439D
100
AcDbEntity
  8
0
 62
     7
100
AcDbVertex
100
AcDb2dVertex
 10
5.558944561790159
 20
7.225843565768943
 30
0.0
  0
VERTEX
  5
439F
330
439D
100
AcDbEntity
  8
0
 62
     7
100
AcDbVertex
100
AcDb2dVertex
 10
5.585448566250242
 20
7.338318007944602
 30
0.0
1001
ACAD
1000
ASC_BOUNDS
1002
{
1070
    19
1002
}
  0
VERTEX
  5
43A0
330
439D
100
AcDbEntity
  8
0
 62
     7
100
AcDbVertex
100
AcDb2dVertex
 10
8.691008811799829
 20
6.790723946438552
 30
0.0
1001
ACAD
1000
ASC_BOUNDS
1002
{
1070
    19
1002
}
  0
VERTEX
  5
43A1
330
439D
100
AcDbEntity
  8
0
 62
     7
100
AcDbVertex
100
AcDb2dVertex
 10
8.636574317061809
 20
6.523891328589773
 30
0.0
  0
SEQEND
  5
43A2
330
439D
100
AcDbEntity
  8
0
 62
     7
  0
LINE
  5
43A3
330
DE4
100
AcDbEntity
  8
0
 62
     7
100
AcDbLine
 10
4.952359499322801
 20
9.293779731001045
 30
0.0
 11
5.847982934755888
 21
7.536019767643503
 31
0.0
1001
ACAD
1000
ASC_BOUNDS
1002
{
1070
    19
1005
0
1002
}
  0
LWPOLYLINE
  5
43A4
330
DE4
100
AcDbEntity
  8
0
 62
     7
100
AcDbPolyline
 90
        2
 70
     0
 43
0.0
 10
4.990609212845239
 20
9.371486399134528
 10
5.907719454906818
 20
7.571556203358111
1001
ACAD
1000
ASC_BOUNDS
1002
{
1070
    19
1002
}
  0
LWPOLYLINE
  5
43A5
330
DE4
100
AcDbEntity
  8
0
 62
     7
100
AcDbPolyline
 90
        3
 70
     0
 43
0.0
 10
4.504244055464262
 20
8.499766960532991
 10
4.670482206169474
 20
8.58084672409489
 10
4.635360593571968
 20
8.64977676994899
1001
ACAD
1000
ASC_BOUNDS
1002
{
1070
    19
1002
}
  0
CIRCLE
  5
43A6
330
DE4
100
AcDbEntity
  8
0
 62
     7
100
AcDbCircle
 10
4.570160018674123
 20
8.632639705777032
 30
0.0
 40
0.0173397083489631
1001
ACAD
1000
ASC_BOUNDS
1002
{
1070
    19
1002
}
  0
LINE
  5
43A7
330
DE4
100
AcDbEntity
  8
0
 62
     7
100
AcDbLine
 10
4.561762586535445
 20
8.733572674442774
 30
0.0
 11
4.420275384971654
 21
8.664564755375153
 31
0.0
1001
ACAD
1000
ASC_BOUNDS
1002
{
1070
    19
1002
}
  0
LINE
  5
43A8
330
DE4
100
AcDbEntity
  8
0
 62
     7
100
AcDbLine
 10
4.39770569294264
 20
8.699031828263089
 30
0.0
 11
4.523658698681582
 21
8.451835135999917
 31
0.0
1001
ACAD
1000
ASC_BOUNDS
1002
{
1070
    19
1002
}
  0
LINE
  5
43A9
330
DE4
100
AcDbEntity
  8
0
 62
     7
100
AcDbLine
 10
4.595674768008855
 20
8.569197878952621
 30
0.0
 11
4.503235545724734
 21
8.614717395049259
 31
0.0
1001
ACAD
1000
ASC_BOUNDS
1002
{
1070
    19
1002
}
  0
LWPOLYLINE
  5
43AA
330
DE4
100
AcDbEntity
  8
0
 62
     1
100
AcDbPolyline
 90
        2
 70
     1
 43
0.0
 10
4.587499727023093
 20
8.632639705777032
 42
-1.0
 10
4.55282031032517
 20
8.632639705777032
 42
-1.0
1001
ACAD
1000
ASC_BOUNDS
1002
{
1070
    19
1002
}
  0
LINE
  5
43AB
330
DE4
100
AcDbEntity
  8
0
 62
     7
100
AcDbLine
 10
5.908215410248866
 20
7.571854203391936
 30
0.0
 11
5.848763286247107
 21
7.536131763361781
 31
0.0
1001
ACAD
1000
ASC_BOUNDS
1002
{
1070
    19
1002
}
  0
LINE
  5
43AC
330
DE4
100
AcDbEntity
  8
0
 62
     7
100
AcDbLine
 10
5.430122954348517
 20
7.259175655722275
 30
0.0
 11
5.130795973607249
 21
7.106660941314313
 31
0.0
1001
ACAD
1000
ASC_BOUNDS
1002
{
1070
    19
1002
}
  0
POLYLINE
  5
43AD
330
DE4
100
AcDbEntity
  8
0
 62
     7
100
AcDb2dPolyline
 66
     1
 10
0.0
 20
0.0
 30
0.0
1001
ACAD
1000
ASC_BOUNDS
1002
{
1070
    19
1002
}
  0
VERTEX
  5
43AE
330
43AD
100
AcDbEntity
  8
0
 62
     7
100
AcDbVertex
100
AcDb2dVertex
 10
5.484532578181232
 20
6.910063119829056
 30
0.0
  0
VERTEX
  5
43AF
330
43AD
100
AcDbEntity
  8
0
 62
     7
100
AcDbVertex
100
AcDb2dVertex
 10
5.546463850673873
 20
7.172879455274847
 30
0.0
1001
ACAD
1000
ASC_BOUNDS
1002
{
1070
    19
1002
}
  0
SEQEND
  5
43B0
330
43AD
100
AcDbEntity
  8
0
 62
     7
  0
LINE
  5
43B1
330
DE4
100
AcDbEntity
  8
0
 62
     7
100
AcDbLine
 10
4.77386083621802
 20
8.931148613044875
 30
0.0
 11
5.339284363245942
 21
7.821442458840071
 31
0.0
1001
ACAD
1000
ASC_BOUNDS
1002
{
1070
    19
1002
}
  0
LINE
  5
43B2
330
DE4
100
AcDbEntity
  8
0
 62
     7
100
AcDbLine
 10
5.372431002767807
 20
7.756388515892282
 30
0.0
 11
5.585448566250242
 21
7.338318007944602
 31
0.0
1001
ACAD
1000
ASC_BOUNDS
1002
{
1070
    19
1002
}
  0
LWPOLYLINE
  5
43B3
330
DE4
100
AcDbEntity
  8
0
 62
     7
100
AcDbPolyline
 90
        4
 70
     0
 43
0.0
 10
5.663392081283449
 20
7.89829971588861
 10
5.184306973023732
 20
7.664634295893696
 10
5.152818721589007
 20
7.726433468959536
 10
5.627680504219661
 20
7.968387632202146
1001
ACAD
1000
ASC_BOUNDS
1002
{
1070
    19
1005
0
1002
}
  0
LWPOLYLINE
  5
43B4
330
DE4
100
AcDbEntity
  8
0
 62
     7
100
AcDbPolyline
 90
        5
 70
     0
 43
0.0
 10
5.58544856627228
 20
7.338318008040809
 10
5.59793485041721
 20
7.310058788560711
 10
5.75177677310665
 20
6.999255221859691
 10
5.648175584206336
 20
6.947974580963293
 10
5.517682900888962
 20
7.236519860065415
1001
ACAD
1000
ASC_BOUNDS
1002
{
1070
    19
1002
}
  0
POLYLINE
  5
43B5
330
DE4
100
AcDbEntity
  8
0
 62
     7
100
AcDb2dPolyline
 66
     1
 10
0.0
 20
0.0
 30
0.0
 70
     1
1001
ACAD
1000
ASC_BOUNDS
1002
{
1070
    19
1002
}
  0
VERTEX
  5
43B6
330
43B5
100
AcDbEntity
  8
0
 62
     7
100
AcDbVertex
100
AcDb2dVertex
 10
5.195606360788612
 20
7.318468839405728
 30
0.0
1001
ACAD
1000
ASC_BOUNDS
1002
{
1070
    19
1002
}
  0
VERTEX
  5
43B7
330
43B5
100
AcDbEntity
  8
0
 62
     7
100
AcDbVertex
100
AcDb2dVertex
 10
5.217042192292936
 20
7.421416678144876
 30
0.0
  0
VERTEX
  5
43B8
330
43B5
100
AcDbEntity
  8
0
 62
     7
100
AcDbVertex
100
AcDb2dVertex
 10
5.246883850365481
 20
7.413418789619864
 30
0.0
  0
VERTEX
  5
43B9
330
43B5
100
AcDbEntity
  8
0
 62
     7
100
AcDbVertex
100
AcDb2dVertex
 10
5.58544856627228
 20
7.338318008040809
 30
0.0
  0
VERTEX
  5
43BA
330
43B5
100
AcDbEntity
  8
0
 62
     7
100
AcDbVertex
100
AcDb2dVertex
 10
5.560414972412596
 20
7.225463102738613
 30
0.0
  0
VERTEX
  5
43BB
330
43B5
100
AcDbEntity
  8
0
 62
     7
100
AcDbVertex
100
AcDb2dVertex
 10
5.224677480462091
 20
7.312333873137037
 30
0.0
  0
SEQEND
  5
43BC
330
43B5
100
AcDbEntity
  8
0
 62
     7
  0
LWPOLYLINE
  5
43BD
330
DE4
100
AcDbEntity
  8
0
 62
     7
100
AcDbPolyline
 90
        5
 70
     0
 43
0.0
 10
8.603173268005274
 20
6.360162623077897
 10
8.589470773575794
 20
6.387852556696197
 10
8.422268196328207
 20
6.69167732924224
 10
8.523543120510186
 20
6.747411521657982
 10
8.666451280049759
 20
6.464809369457251
1001
ACAD
1000
ASC_BOUNDS
1002
{
1070
    19
1002
}
  0
LINE
  5
43BE
330
DE4
100
AcDbEntity
  8
0
 62
     7
100
AcDbLine
 10
8.626266396393791
 20
6.473362900436553
 30
0.0
 11
8.603173268005281
 21
6.360162623077897
 31
0.0
1001
ACAD
1000
ASC_BOUNDS
1002
{
1070
    19
1002
}
  0
POLYLINE
  5
43BF
330
DE4
100
AcDbEntity
  8
0
 62
     7
100
AcDb2dPolyline
 66
     1
 10
0.0
 20
0.0
 30
0.0
 70
     1
1001
ACAD
1000
ASC_BOUNDS
1002
{
1070
    19
1002
}
  0
VERTEX
  5
43C0
330
43BF
100
AcDbEntity
  8
0
 62
     7
100
AcDbVertex
100
AcDb2dVertex
 10
8.991784676367736
 20
6.396933643765679
 30
0.0
1001
ACAD
1000
ASC_BOUNDS
1002
{
1070
    19
1002
}
  0
VERTEX
  5
43C1
330
43BF
100
AcDbEntity
  8
0
 62
     7
100
AcDbVertex
100
AcDb2dVertex
 10
8.974842694154414
 20
6.293151556621433
 30
0.0
  0
VERTEX
  5
43C2
330
43BF
100
AcDbEntity
  8
0
 62
     7
100
AcDbVertex
100
AcDb2dVertex
 10
8.94468167655167
 20
6.299845120286859
 30
0.0
  0
VERTEX
  5
43C3
330
43BF
100
AcDbEntity
  8
0
 62
     7
100
AcDbVertex
100
AcDb2dVertex
 10
8.603173268005274
 20
6.360162623077897
 30
0.0
  0
VERTEX
  5
43C4
330
43BF
100
AcDbEntity
  8
0
 62
     7
100
AcDbVertex
100
AcDb2dVertex
 10
8.623279102268952
 20
6.473998759260011
 30
0.0
  0
VERTEX
  5
43C5
330
43BF
100
AcDbEntity
  8
0
 62
     7
100
AcDbVertex
100
AcDb2dVertex
 10
8.96247442263037
 20
6.401799528684037
 30
0.0
  0
SEQEND
  5
43C6
330
43BF
100
AcDbEntity
  8
0
 62
     7
  0
LINE
  5
43C7
330
DE4
100
AcDbEntity
  8
0
 62
     1
100
AcDbLine
 10
8.691008811799829
 20
6.790723946438552
 30
0.0
 11
8.636574317061809
 21
6.523891328589773
 31
0.0
1001
ACAD
1000
ASC_BOUNDS
1002
{
1070
    19
1002
}
  0
LINE
  5
43C8
330
DE4
100
AcDbEntity
  8
0
 62
     1
100
AcDbLine
 10
8.636574317061809
 20
6.523891328589773
 30
0.0
 11
8.666451280049759
 21
6.464809369457251
 31
0.0
1001
ACAD
1000
ASC_BOUNDS
1002
{
1070
    19
1002
}
  0
LINE
  5
43C9
330
DE4
100
AcDbEntity
  8
0
 62
     1
100
AcDbLine
 10
8.666451280049759
 20
6.464809369457251
 30
0.0
 11
8.766680817386196
 21
6.443475067235917
 31
0.0
  0
LINE
  5
43CA
330
DE4
100
AcDbEntity
  8
0
 62
     1
100
AcDbLine
 10
8.766680817386196
 20
6.443475067235917
 30
0.0
 11
8.994566881815796
 21
6.559590470402543
 31
0.0
1001
ACAD
1000
ASC_BOUNDS
1002
{
1070
    19
1002
}
  0
LINE
  5
43CB
330
DE4
100
AcDbEntity
  8
0
 62
     7
100
AcDbLine
 10
3.614896153200331
 20
11.20574487544478
 30
0.0
 11
3.868295867876062
 21
10.70841993333026
 31
0.0
1001
ACAD
1000
ASC_BOUNDS
1002
{
1070
    19
1002
}
  0
LWPOLYLINE
  5
43CC
330
DE4
100
AcDbEntity
  8
0
 62
     7
100
AcDbPolyline
 90
        4
 70
     0
 43
0.0
 10
4.159256946391717
 20
10.85033113332661
 10
3.682035225907973
 20
10.61757454827515
 10
3.712440137243662
 20
10.55523524176073
 10
4.186533502887983
 20
10.79679787699294
1001
ACAD
1000
ASC_BOUNDS
1002
{
1070
    19
1002
}
  0
LINE
  5
43CD
330
DE4
100
AcDbEntity
  8
0
 62
     7
100
AcDbLine
 10
5.709486798505537
 20
11.20574487544478
 30
0.0
 11
5.117289910609759
 21
10.13539932711145
 31
0.0
1001
ACAD
1000
ASC_BOUNDS
1002
{
1070
    19
1002
}
  0
LINE
  5
43CE
330
DE4
100
AcDbEntity
  8
0
 62
     7
100
AcDbLine
 10
5.577375125302518
 20
11.20574487544478
 30
0.0
 11
5.136154627876381
 21
10.40827632249178
 31
0.0
1001
ACAD
1000
ASC_BOUNDS
1002
{
1070
    19
1002
}
  0
CIRCLE
  5
43CF
330
DE4
100
AcDbEntity
  8
0
 62
     7
100
AcDbCircle
 10
5.02104187821431
 20
9.565686892025858
 30
0.0
 40
0.0173397083489631
1001
ACAD
1000
ASC_BOUNDS
1002
{
1070
    19
1002
}
  0
LWPOLYLINE
  5
43D0
330
DE4
100
AcDbEntity
  8
0
 62
     1
100
AcDbPolyline
 90
        2
 70
     1
 43
0.0
 10
5.038381586563277
 20
9.565686892025858
 42
-1.0
 10
5.00370216986535
 20
9.565686892025858
 42
-1.0
1001
ACAD
1000
ASC_BOUNDS
1002
{
1070
    19
1002
}
  0
LINE
  5
43D1
330
DE4
100
AcDbEntity
  8
0
 62
     1
100
AcDbLine
 10
5.075828546832793
 20
9.53566320533798
 30
0.0
 11
5.071422300771322
 21
9.53566320533798
 31
0.0
  0
LINE
  5
43D2
330
DE4
100
AcDbEntity
  8
0
 62
     7
100
AcDbLine
 10
5.191285764011574
 20
11.20574487544478
 30
0.0
 11
5.07527738144579
 21
9.527690631318536
 31
0.0
1001
ACAD
1000
ASC_BOUNDS
1002
{
1070
    19
1005
0
1002
}
  0
LWPOLYLINE
  5
43D3
330
DE4
100
AcDbEntity
  8
0
 62
     7
100
AcDbPolyline
 90
        3
 70
     0
 43
0.0
 10
5.075411797167864
 20
11.20574487544478
 10
4.9599545799891
 20
9.53566320533798
 10
5.075552635648852
 20
9.53566320533798
1001
ACAD
1000
ASC_BOUNDS
1002
{
1070
    19
1005
0
1002
}
  0
TEXT
  5
43D4
330
DE4
100
AcDbEntity
  8
0
 62
     7
100
AcDbText
 10
21.37027972100178
 20
0.9805520374701973
 30
0.0
 40
1.638467792325521
  1
www.PrecisionLadders.com
  7
ROMANS
100
AcDbText
  0
LWPOLYLINE
  5
43D5
330
DE4
100
AcDbEntity
  8
0
 62
     7
100
AcDbPolyline
 90
        9
 70
     0
 43
0.0
 10
10.36633405241564
 20
3.428726298408128
 10
10.36655286501773
 20
3.463405024791236
 10
10.26251668586845
 20
3.464061462597577
 10
10.19315923310224
 20
3.464499087801734
 10
10.19294042050013
 20
3.429820361418696
 42
0.4142135623730939
 10
10.20442705842713
 20
3.418187848423537
 10
10.35470153942057
 20
3.417239660481111
 42
0.4142135623730989
 10
10.36633405241563
 20
3.428726298408128
 42
-0.4142135623730944
 10
10.35470153942057
 20
3.417239660481111
1001
ACAD
1000
ASC_BOUNDS
1002
{
1070
    19
1002
}
  0
LINE
  5
43D6
330
DE4
100
AcDbEntity
  8
0
 62
     7
100
AcDbLine
 10
10.31311986264364
 20
3.493143849733801
 30
0.0
 11
10.31270923207142
 21
3.463744762338133
 31
0.0
1001
ACAD
1000
ASC_BOUNDS
1002
{
1070
    19
1002
}
  0
LINE
  5
43D7
330
DE4
100
AcDbEntity
  8
0
 62
     7
100
AcDbLine
 10
10.24954219760797
 20
3.493545006170978
 30
0.0
 11
10.31311986264364
 21
3.493143849733801
 31
0.0
1001
ACAD
1000
ASC_BOUNDS
1002
{
1070
    19
1002
}
  0
LINE
  5
43D8
330
DE4
100
AcDbEntity
  8
0
 62
     7
100
AcDbLine
 10
10.24938007573795
 20
3.467850965163849
 30
0.0
 11
10.24954219760797
 21
3.493545006170978
 31
0.0
1001
ACAD
1000
ASC_BOUNDS
1002
{
1070
    19
1002
}
  0
TEXT
  5
43D9
330
DE4
100
AcDbEntity
  8
0
100
AcDbText
 10
66.24482379919353
 20
0.7698485708019996
 30
0.0
 40
1.1055
  1
WORK ORDER: ( )
 50
90.0
 41
0.9
  7
ROMANS
100
AcDbText
  0
TEXT
  5
43DA
330
DE4
100
AcDbEntity
  8
0
100
AcDbText
 10
67.90690698866296
 20
3.50275324912874
 30
0.0
 40
1.1055
  1
CHECKED BY:
  7
ROMANS
100
AcDbText
  0
TEXT
  5
43DB
330
DE4
100
AcDbEntity
  8
0
100
AcDbText
 10
67.90690698866296
 20
13.80825974738629
 30
0.0
 40
1.1055
  1
DWG. CHECK
  7
ROMANS
100
AcDbText
  0
TEXT
  5
43DC
330
DE4
100
AcDbEntity
  8
0
100
AcDbText
 10
67.90690698866296
 20
8.655506498257526
 30
0.0
 40
1.1055
  1
BUILT BY:
  7
ROMANS
100
AcDbText
  0
TEXT
  5
43DD
330
DE4
100
AcDbEntity
  8
0
100
AcDbText
 10
99.41250000000003
 20
3.50275324912874
 30
0.0
 40
1.1055
  1
DRAWN BY:
  7
ROMANS
100
AcDbText
  0
TEXT
  5
43DE
330
DE4
100
AcDbEntity
  8
0
100
AcDbText
 10
99.41250000000003
 20
8.655506498257526
 30
0.0
 40
1.1055
  1
PURCHASE ORDER
  7
ROMANS
100
AcDbText
  0
TEXT
  5
43DF
330
DE4
100
AcDbEntity
  8
0
100
AcDbText
 10
99.41250000000003
 20
13.80825974738629
 30
0.0
 40
1.1055
  1
ARCH'T OR ENG'R.
  7
ROMANS
100
AcDbText
  0
TEXT
  5
43E0
330
DE4
100
AcDbEntity
  8
0
100
AcDbText
 10
220.5524394415514
 20
8.236073841958665
 30
0.0
 40
1.1055
  1
SERIAL#
  7
ROMANS
100
AcDbText
  0
TEXT
  5
43E1
330
DE4
100
AcDbEntity
  8
0
100
AcDbText
 10
220.4125000000001
 20
13.80825974738629
 30
0.0
 40
1.1055
  1
PRECISION REP
  7
ROMANS
100
AcDbText
  0
TEXT
  5
43E2
330
DE4
100
AcDbEntity
  8
0
100
AcDbText
 10
143.4125
 20
3.50275324912874
 30
0.0
 40
1.1055
  1
DATE
  7
ROMANS
100
AcDbText
  0
TEXT
  5
43E3
330
DE4
100
AcDbEntity
  8
0
100
AcDbText
 10
159.9125
 20
3.50275324912874
 30
0.0
 40
1.1055
  1
MODEL#
  7
ROMANS
100
AcDbText
  0
TEXT
  5
43E4
330
DE4
100
AcDbEntity
  8
0
100
AcDbText
 10
143.4125
 20
13.80825974738629
 30
0.0
 40
1.1055
  1
PROJECT
  7
ROMANS
100
AcDbText
  0
TEXT
  5
43E5
330
DE4
100
AcDbEntity
  8
0
100
AcDbText
 10
143.4125
 20
8.655506498257526
 30
0.0
 40
1.1055
  1
WORK ORDER
  7
ROMANS
100
AcDbText
  0
TEXT
  5
43E6
330
DE4
100
AcDbEntity
  8
0
100
AcDbText
 10
159.9125
 20
8.655506498257526
 30
0.0
 40
1.1055
  1
PURCHASER
  7
ROMANS
100
AcDbText
  0
TEXT
  5
43E7
330
DE4
100
AcDbEntity
  8
0
100
AcDbText
 10
209.4125000000002
 20
3.50275324912874
 30
0.0
 40
1.1055
  1
QTY.
  7
ROMANS
100
AcDbText
  0
LINE
  5
43E8
330
DE4
100
AcDbEntity
  8
0
 62
     1
100
AcDbLine
 10
67.49440698866294
 20
5.152753249128782
 30
0.0
 11
220.0000000000001
 21
5.152753249128782
 31
0.0
  0
LINE
  5
43E9
330
DE4
100
AcDbEntity
  8
0
 62
     1
100
AcDbLine
 10
275.0000000000007
 20
212.5
 30
0.0
 11
0.0
 21
212.5
 31
0.0
  0
LINE
  5
43EA
330
DE4
100
AcDbEntity
  8
0
 62
     1
100
AcDbLine
 10
0.0
 20
212.5
 30
0.0
 11
0.0
 21
0.0000000000000067
 31
0.0
  0
LINE
  5
43EB
330
DE4
100
AcDbEntity
  8
0
 62
     1
100
AcDbLine
 10
0.0
 20
0.0000000000000067
 30
0.0
 11
275.0000000000007
 21
0.0000000000000067
 31
0.0
  0
LINE
  5
43EC
330
DE4
100
AcDbEntity
  8
0
 62
     1
100
AcDbLine
 10
67.49440698866294
 20
0.0000000000000067
 30
0.0
 11
67.49440698866294
 21
15.45825974738628
 31
0.0
  0
LINE
  5
43ED
330
DE4
100
AcDbEntity
  8
0
 62
     1
100
AcDbLine
 10
99.0
 20
0.0000000000000067
 30
0.0
 11
99.0
 21
15.45825974738628
 31
0.0
  0
LINE
  5
43EE
330
DE4
100
AcDbEntity
  8
0
 62
     1
100
AcDbLine
 10
143.0
 20
0.0000000000000067
 30
0.0
 11
143.0
 21
15.45825974738628
 31
0.0
  0
LINE
  5
43EF
330
DE4
100
AcDbEntity
  8
0
 62
     1
100
AcDbLine
 10
159.5
 20
0.0000000000000067
 30
0.0
 11
159.5
 21
10.30550649825751
 31
0.0
  0
LINE
  5
43F0
330
DE4
100
AcDbEntity
  8
0
 62
     1
100
AcDbLine
 10
220.0000000000001
 20
0.0000000000000067
 30
0.0
 11
220.0000000000001
 21
15.45825974738628
 31
0.0
  0
LINE
  5
43F1
330
DE4
100
AcDbEntity
  8
0
 62
     1
100
AcDbLine
 10
209.0
 20
0.0000000000000067
 30
0.0
 11
209.0
 21
5.152753249128782
 31
0.0
  0
LINE
  5
43F2
330
DE4
100
AcDbEntity
  8
0
 62
     1
100
AcDbLine
 10
0.0
 20
15.45825974738628
 30
0.0
 11
275.0000000000007
 21
15.45825974738628
 31
0.0
  0
LINE
  5
43F3
330
DE4
100
AcDbEntity
  8
0
 62
     1
100
AcDbLine
 10
67.49440698866294
 20
10.30550649825751
 30
0.0
 11
275.0000000000007
 21
10.30550649825751
 31
0.0
  0
LINE
  5
43F4
330
DE4
100
AcDbEntity
  8
0
 62
     1
100
AcDbLine
 10
275.0000000000008
 20
0.000000000000008
 30
0.0
 11
275.0000000000008
 21
212.5
 31
0.0
  0
ENDBLK
  5
DE6
330
DE4
100
AcDbEntity
  8
0
100
AcDbBlockEnd
  0
BLOCK
  5
DF8
330
DE9
100
AcDbEntity
  8
0
100
AcDbBlockBegin
  2
Border-t
 70
     2
 10
0.0
 20
0.0
 30
0.0
  3
Border-t
  1

  0
ATTDEF
  5
DEA
330
DE9
100
AcDbEntity
  8
0
 62
     5
100
AcDbText
 10
1.270598029493498
 20
16.95296065185261
 30
0.0
 40
2.25
  1

  7
ROMANS
100
AcDbAttributeDefinition
  3
SCALE
  2
SCALE
 70
     0
  0
ATTDEF
  5
DEB
330
DE9
100
AcDbEntity
  8
0
100
AcDbText
 10
267.5431072019895
 20
17.84606723821125
 30
0.0
 40
1.7518359375
  1

  7
ROMANS
 72
     4
 11
267.5431072019895
 21
17.84606723821125
 31
0.0
100
AcDbAttributeDefinition
  3
SAVED AS
  2
SAVEDAS
 70
     0
  0
ATTDEF
  5
DEC
330
DE9
100
AcDbEntity
  8
0
 62
     5
100
AcDbText
 10
65.77232295450201
 20
13.4910955979239
 30
0.0
 40
1.248161764705882
  1

 50
90.0
  7
ROMANS
 72
     4
 11
65.77232295450201
 21
13.4910955979239
 31
0.0
100
AcDbAttributeDefinition
  3
WORK ORDER (X)
  2
X
 70
     0
  0
ATTDEF
  5
DED
330
DE9
100
AcDbEntity
  8
0
100
AcDbText
 10
120.7768196578975
 20
11.16830391662092
 30
0.0
 40
1.769029714285714
  1

  7
ROMANS
 72
     1
 11
120.7768196578975
 21
11.16830391662092
 31
0.0
100
AcDbAttributeDefinition
  3
ARCHITECT OR ENGINEER
  2
ARCHORENG
 70
     0
  0
ATTDEF
  5
DEE
330
DE9
100
AcDbEntity
  8
0
100
AcDbText
 10
120.7768196578975
 20
6.014881478758579
 30
0.0
 40
1.769029714285714
  1

  7
ROMANS
 72
     1
 11
120.7768196578975
 21
6.014881478758579
 31
0.0
100
AcDbAttributeDefinition
  3
PURCHASE ORDER
  2
PURCHASEORDER
 70
     0
  0
ATTDEF
  5
DEF
330
DE9
100
AcDbEntity
  8
0
100
AcDbText
 10
118.4602331272852
 20
0.8614590408961362
 30
0.0
 40
1.769029714285714
  1
JEB
  7
ROMANS
 72
     1
 11
120.7768196578975
 21
0.8614590408961362
 31
0.0
100
AcDbAttributeDefinition
  3
WHO ARE YOU?
  2
DRAWNBY
 70
     0
  0
ATTDEF
  5
DF0
330
DE9
100
AcDbEntity
  8
0
100
AcDbText
 10
151.0307482293261
 20
6.014881478758579
 30
0.0
 40
1.769029714285714
  1

  7
ROMANS
 72
     1
 11
151.0307482293261
 21
6.014881478758579
 31
0.0
100
AcDbAttributeDefinition
  3
REVISION DATE or NO.
  2
REV
 70
     0
  0
ATTDEF
  5
DF1
330
DE9
100
AcDbEntity
  8
0
100
AcDbText
 10
151.0307482293261
 20
0.8614590408961362
 30
0.0
 40
1.769029714285714
  1

  7
ROMANS
 72
     1
 11
151.0307482293261
 21
0.8614590408961362
 31
0.0
100
AcDbAttributeDefinition
  3
TODAY'S DATE
  2
DATE
 70
     0
  0
ATTDEF
  5
DF2
330
DE9
100
AcDbEntity
  8
0
100
AcDbText
 10
181.2846768007546
 20
11.16830391662092
 30
0.0
 40
1.769029714285714
  1

  7
ROMANS
 72
     1
 11
181.2846768007546
 21
11.16830391662092
 31
0.0
100
AcDbAttributeDefinition
  3
PROJECT
  2
PROJECT
 70
     0
  0
ATTDEF
  5
DF3
330
DE9
100
AcDbEntity
  8
0
100
AcDbText
 10
189.535748229326
 20
6.014881478758579
 30
0.0
 40
1.769029714285714
  1

  7
ROMANS
 72
     1
 11
189.535748229326
 21
6.014881478758579
 31
0.0
100
AcDbAttributeDefinition
  3
PURCHASER
  2
PURCHASER
 70
     0
  0
ATTDEF
  5
DF4
330
DE9
100
AcDbEntity
  8
0
100
AcDbText
 10
184.0350339436118
 20
0.8614590408962374
 30
0.0
 40
1.769029714285714
  1

  7
ROMANS
 72
     1
 11
184.0350339436118
 21
0.8614590408962374
 31
0.0
100
AcDbAttributeDefinition
  3
MODEL #
  2
MODEL
 70
     0
  0
ATTDEF
  5
DF5
330
DE9
100
AcDbEntity
  8
0
100
AcDbText
 10
213.5729266783056
 20
0.8614590408961362
 30
0.0
 40
1.769029714285714
  1
1
  7
ROMANS
 72
     1
 11
214.2889625150403
 21
0.8614590408961362
 31
0.0
100
AcDbAttributeDefinition
  3
QUANTITY
  2
QTY
 70
     0
  0
ATTDEF
  5
DF6
330
DE9
100
AcDbEntity
  8
0
100
AcDbText
 10
247.2932482293261
 20
11.16763472788734
 30
0.0
 40
1.769029714285714
  1

  7
ROMANS
 72
     1
 11
247.2932482293261
 21
11.16763472788734
 31
0.0
100
AcDbAttributeDefinition
  3
PRECISION REP
  2
REP
 70
     0
  0
ATTDEF
  5
DF7
330
DE9
100
AcDbEntity
  8
0
100
AcDbText
 10
247.3274175489777
 20
3.153238685427304
 30
0.0
 40
3.455136160714285
  1

  7
ROMANS
 72
     1
 11
247.3274175489777
 21
3.153238685427304
 31
0.0
100
AcDbAttributeDefinition
  3
SERIAL #
  2
L010000
 70
     0
  0
ENDBLK
  5
DF9
330
DE9
100
AcDbEntity
  8
0
100
AcDbBlockEnd
  0
BLOCK
  5
1091
330
1086
100
AcDbEntity
  8
0
100
AcDbBlockBegin
  2
*D3
 70
     1
 10
0.0
 20
0.0
 30
0.0
  3
*D3
  1

  0
LINE
  5
47FC
330
1086
100
AcDbEntity
  8
0
 62
     0
370
    -2
100
AcDbLine
 10
-9.07592368851162
 20
123.8797814271018
 30
0.0
 11
-0.1958942486729702
 21
123.8797814271018
 31
0.0
  0
LINE
  5
47FD
330
1086
100
AcDbEntity
  8
0
 62
     0
370
    -2
100
AcDbLine
 10
-9.07592368851162
 20
143.6885955739651
 30
0.0
 11
-0.1958942486729658
 21
143.6885955739651
 31
0.0
  0
LINE
  5
47FE
330
1086
100
AcDbEntity
  8
0
 62
     0
370
    -2
100
AcDbLine
 10
-2.070894248672969
 20
125.7547814271018
 30
0.0
 11
-2.070894248672968
 21
130.4734742148192
 31
0.0
  0
LINE
  5
47FF
330
1086
100
AcDbEntity
  8
0
 62
     0
370
    -2
100
AcDbLine
 10
-2.070894248672966
 20
141.8135955739651
 30
0.0
 11
-2.070894248672967
 21
137.0949027862477
 31
0.0
  0
SOLID
  5
4800
330
1086
100
AcDbEntity
  8
0
 62
     0
100
AcDbTrace
 10
-2.383394248672969
 20
125.7547814271018
 30
0.0
 11
-1.758394248672969
 21
125.7547814271018
 31
0.0
 12
-2.07089424867297
 22
123.8797814271018
 32
0.0
 13
-2.07089424867297
 23
123.8797814271018
 33
0.0
  0
SOLID
  5
4801
330
1086
100
AcDbEntity
  8
0
 62
     0
100
AcDbTrace
 10
-2.383394248672966
 20
141.8135955739651
 30
0.0
 11
-1.758394248672966
 21
141.8135955739651
 31
0.0
 12
-2.070894248672965
 22
143.6885955739651
 32
0.0
 13
-2.070894248672965
 23
143.6885955739651
 33
0.0
  0
MTEXT
  5
4802
330
1086
100
AcDbEntity
  8
0
 62
     0
100
AcDbMText
 10
-2.070894248672989
 20
133.7841885005335
 30
0.0
 40
2.411999999999999
 41
0.0
 71
     5
 72
     1
  1
\A1;7"
  7
ROMANS
 73
     1
 44
1.0
1001
ACAD
1000
MTEXTBEGIN
1070
    73
1070
     1
1070
    44
1040
1.0
1070
    74
1070
     0
1000
MTEXTEND
  0
POINT
  5
4803
330
1086
100
AcDbEntity
  8
DEFPOINTS
 62
     0
100
AcDbPoint
 10
-10.95092368851162
 20
123.8797814271018
 30
0.0
  0
POINT
  5
4804
330
1086
100
AcDbEntity
  8
DEFPOINTS
 62
     0
100
AcDbPoint
 10
-10.95092368851162
 20
143.6885955739651
 30
0.0
  0
POINT
  5
4805
330
1086
100
AcDbEntity
  8
DEFPOINTS
 62
     0
100
AcDbPoint
 10
-2.070894248672965
 20
143.6885955739651
 30
0.0
  0
ENDBLK
  5
1092
330
1086
100
AcDbEntity
  8
0
100
AcDbBlockEnd
  0
BLOCK
  5
109E
330
1093
100
AcDbEntity
  8
0
100
AcDbBlockBegin
  2
*D4
 70
     1
 10
0.0
 20
0.0
 30
0.0
  3
*D4
  1

  0
LINE
  5
4806
330
1093
100
AcDbEntity
  8
0
 62
     0
370
    -2
100
AcDbLine
 10
-39.3470426780907
 20
55.8454089471207
 30
0.0
 11
-33.28364476399806
 21
59.34611336502609
 31
0.0
  0
LINE
  5
4807
330
1093
100
AcDbEntity
  8
0
 62
     0
370
    -2
100
AcDbLine
 10
-9.22854994220868
 20
38.45648905847351
 30
0.0
 11
-3.165152028116043
 21
41.9571934763789
 31
0.0
  0
LINE
  5
4808
330
1093
100
AcDbEntity
  8
0
 62
     0
370
    -2
100
AcDbLine
 10
-33.53484713190218
 20
57.32608161029552
 30
0.0
 11
-26.53000817290098
 21
53.28183595168621
 31
0.0
  0
LINE
  5
4809
330
1093
100
AcDbEntity
  8
0
 62
     0
370
    -2
100
AcDbLine
 10
-6.663949660211812
 20
41.81216172164832
 30
0.0
 11
-13.66878861921303
 21
45.85640738025763
 31
0.0
  0
SOLID
  5
480A
330
1093
100
AcDbEntity
  8
0
 62
     0
100
AcDbTrace
 10
-33.37859713190218
 20
57.59671454897816
 30
0.0
 11
-33.69109713190218
 21
57.05544867161288
 31
0.0
 12
-35.15864476399801
 22
58.2635816102955
 32
0.0
 13
-35.15864476399801
 23
58.2635816102955
 33
0.0
  0
SOLID
  5
480B
330
1093
100
AcDbEntity
  8
0
 62
     0
100
AcDbTrace
 10
-6.507699660211816
 20
42.08279466033096
 30
0.0
 11
-6.820199660211812
 21
41.54152878296568
 31
0.0
 12
-5.04015202811599
 22
40.87466172164833
 32
0.0
 13
-5.04015202811599
 23
40.87466172164833
 33
0.0
  0
MTEXT
  5
480C
330
1093
100
AcDbEntity
  8
0
 62
     0
100
AcDbMText
 10
-20.099398396057
 20
49.56912166597192
 30
0.0
 40
2.411999999999999
 41
0.0
 71
     5
 72
     1
  1
\A1; 8-1/2"
  7
ROMANS
 73
     1
 44
1.0
1001
ACAD
1000
MTEXTBEGIN
1070
    73
1070
     1
1070
    44
1040
1.0
1070
    74
1070
     0
1000
MTEXTEND
  0
POINT
  5
480D
330
1093
100
AcDbEntity
  8
DEFPOINTS
 62
     0
100
AcDbPoint
 10
-41.22204267809065
 20
54.76287719239012
 30
0.0
  0
POINT
  5
480E
330
1093
100
AcDbEntity
  8
DEFPOINTS
 62
     0
100
AcDbPoint
 10
-11.10354994220863
 20
37.37395730374294
 30
0.0
  0
POINT
  5
480F
330
1093
100
AcDbEntity
  8
DEFPOINTS
 62
     0
100
AcDbPoint
 10
-5.04015202811599
 20
40.87466172164833
 30
0.0
  0
ENDBLK
  5
109F
330
1093
100
AcDbEntity
  8
0
100
AcDbBlockEnd
  0
BLOCK
  5
10AB
330
10A0
100
AcDbEntity
  8
0
100
AcDbBlockBegin
  2
*D5
 70
     1
 10
0.0
 20
0.0
 30
0.0
  3
*D5
  1

  0
LINE
  5
4810
330
10A0
100
AcDbEntity
  8
0
 62
     0
370
    -2
100
AcDbLine
 10
-14.48821192902306
 20
117.7600355384882
 30
0.0
 11
-14.48821192902306
 21
104.3696139244527
 31
0.0
  0
LINE
  5
4811
330
10A0
100
AcDbEntity
  8
0
 62
     0
370
    -2
100
AcDbLine
 10
-65.4251625923861
 20
117.7600355384882
 30
0.0
 11
-65.4251625923861
 21
104.3696139244527
 31
0.0
  0
LINE
  5
4812
330
10A0
100
AcDbEntity
  8
0
 62
     0
370
    -2
100
AcDbLine
 10
-16.36321192902306
 20
106.2446139244527
 30
0.0
 11
-35.26768726070458
 21
106.2446139244527
 31
0.0
  0
LINE
  5
4813
330
10A0
100
AcDbEntity
  8
0
 62
     0
370
    -2
100
AcDbLine
 10
-63.5501625923861
 20
106.2446139244527
 30
0.0
 11
-44.64568726070458
 21
106.2446139244527
 31
0.0
  0
SOLID
  5
4814
330
10A0
100
AcDbEntity
  8
0
 62
     0
100
AcDbTrace
 10
-16.36321192902306
 20
106.5571139244527
 30
0.0
 11
-16.36321192902306
 21
105.9321139244527
 31
0.0
 12
-14.48821192902306
 22
106.2446139244527
 32
0.0
 13
-14.48821192902306
 23
106.2446139244527
 33
0.0
  0
SOLID
  5
4815
330
10A0
100
AcDbEntity
  8
0
 62
     0
100
AcDbTrace
 10
-63.5501625923861
 20
106.5571139244527
 30
0.0
 11
-63.5501625923861
 21
105.9321139244527
 31
0.0
 12
-65.4251625923861
 22
106.2446139244527
 32
0.0
 13
-65.4251625923861
 23
106.2446139244527
 33
0.0
  0
MTEXT
  5
4816
330
10A0
100
AcDbEntity
  8
0
 62
     0
100
AcDbMText
 10
-39.95668726070459
 20
106.2446139244527
 30
0.0
 40
2.411999999999999
 41
0.0
 71
     5
 72
     1
  1
\A1;24"
  7
ROMANS
 73
     1
 44
1.0
1001
ACAD
1000
MTEXTBEGIN
1070
    73
1070
     1
1070
    44
1040
1.0
1070
    74
1070
     0
1000
MTEXTEND
  0
POINT
  5
4817
330
10A0
100
AcDbEntity
  8
DEFPOINTS
 62
     0
100
AcDbPoint
 10
-14.48821192902306
 20
119.6350355384882
 30
0.0
  0
POINT
  5
4818
330
10A0
100
AcDbEntity
  8
DEFPOINTS
 62
     0
100
AcDbPoint
 10
-65.4251625923861
 20
119.6350355384882
 30
0.0
  0
POINT
  5
4819
330
10A0
100
AcDbEntity
  8
DEFPOINTS
 62
     0
100
AcDbPoint
 10
-65.4251625923861
 20
106.2446139244527
 30
0.0
  0
ENDBLK
  5
10AC
330
10A0
100
AcDbEntity
  8
0
100
AcDbBlockEnd
  0
BLOCK
  5
10B8
330
10AD
100
AcDbEntity
  8
0
100
AcDbBlockBegin
  2
*D6
 70
     1
 10
0.0
 20
0.0
 30
0.0
  3
*D6
  1

  0
LINE
  5
481A
330
10AD
100
AcDbEntity
  8
0
 62
     0
370
    -2
100
AcDbLine
 10
-43.09704267809071
 20
55.84540894712063
 30
0.0
 11
-46.84438246254962
 21
58.0089365804228
 31
0.0
  0
LINE
  5
481B
330
10AD
100
AcDbEntity
  8
0
 62
     0
370
    -2
100
AcDbLine
 10
-57.27045102438793
 20
47.66238782305136
 30
0.0
 11
-61.01779080884684
 21
49.82591545635354
 31
0.0
  0
LINE
  5
481C
330
10AD
100
AcDbEntity
  8
0
 62
     0
370
    -2
100
AcDbLine
 10
-43.34558483045373
 20
57.86390482569231
 30
0.0
 11
-41.72178719835791
 21
58.80140482569231
 31
0.0
  0
LINE
  5
481D
330
10AD
100
AcDbEntity
  8
0
 62
     0
370
    -2
100
AcDbLine
 10
-60.76658844094259
 20
47.80588370162303
 30
0.0
 11
-62.39038607303841
 21
46.86838370162303
 31
0.0
  0
MTEXT
  5
481E
330
10AD
100
AcDbEntity
  8
0
 62
     0
100
AcDbMText
 10
-54.57791623699421
 20
53.3978966941451
 30
0.0
 40
2.411999999999999
 41
0.0
 71
     5
 72
     1
  1
\A1;4-1/2"
  7
ROMANS
 73
     1
 44
1.0
1001
ACAD
1000
MTEXTBEGIN
1070
    73
1070
     1
1070
    44
1040
1.0
1070
    74
1070
     0
1000
MTEXTEND
  0
SOLID
  5
481F
330
10AD
100
AcDbEntity
  8
0
 62
     0
100
AcDbTrace
 10
-43.50183483045373
 20
58.13453776437494
 30
0.0
 11
-43.18933483045373
 21
57.59327188700967
 31
0.0
 12
-44.96938246254956
 22
56.9264048256923
 32
0.0
 13
-44.96938246254956
 23
56.9264048256923
 33
0.0
  0
SOLID
  5
4820
330
10AD
100
AcDbEntity
  8
0
 62
     0
100
AcDbTrace
 10
-60.92283844094259
 20
48.07651664030567
 30
0.0
 11
-60.61033844094259
 21
47.53525076294039
 31
0.0
 12
-59.14279080884677
 22
48.74338370162305
 32
0.0
 13
-59.14279080884677
 23
48.74338370162305
 33
0.0
  0
POINT
  5
4821
330
10AD
100
AcDbEntity
  8
DEFPOINTS
 62
     0
100
AcDbPoint
 10
-41.22204267809065
 20
54.76287719239012
 30
0.0
  0
POINT
  5
4822
330
10AD
100
AcDbEntity
  8
DEFPOINTS
 62
     0
100
AcDbPoint
 10
-55.39545102438786
 20
46.57985606832085
 30
0.0
  0
POINT
  5
4823
330
10AD
100
AcDbEntity
  8
DEFPOINTS
 62
     0
100
AcDbPoint
 10
-59.14279080884677
 20
48.74338370162305
 30
0.0
  0
ENDBLK
  5
10B9
330
10AD
100
AcDbEntity
  8
0
100
AcDbBlockEnd
  0
BLOCK
  5
10C5
330
10BA
100
AcDbEntity
  8
0
100
AcDbBlockBegin
  2
*D7
 70
     1
 10
0.0
 20
0.0
 30
0.0
  3
*D7
  1

  0
LINE
  5
4824
330
10BA
100
AcDbEntity
  8
0
 62
     0
370
    -2
100
AcDbLine
 10
-54.50961300274412
 20
31.62882205250147
 30
0.0
 11
-54.50961300274391
 21
27.96883787710745
 31
0.0
  0
LINE
  5
4825
330
10BA
100
AcDbEntity
  8
0
 62
     0
370
    -2
100
AcDbLine
 10
-55.39545102438776
 20
32.14026087275583
 30
0.0
 11
-55.39545102438753
 21
28.48027669736181
 31
0.0
  0
LINE
  5
4826
330
10BA
100
AcDbEntity
  8
0
 62
     0
370
    -2
100
AcDbLine
 10
-52.88581537064821
 20
29.19640138656862
 30
0.0
 11
-51.26201773855239
 21
28.25890138656861
 31
0.0
  0
LINE
  5
4827
330
10BA
100
AcDbEntity
  8
0
 62
     0
370
    -2
100
AcDbLine
 10
-57.01924865648348
 20
31.58284020682299
 30
0.0
 11
-58.6430462885793
 21
32.52034020682299
 31
0.0
  0
MTEXT
  5
4828
330
10BA
100
AcDbEntity
  8
0
 62
     0
100
AcDbMText
 10
-63.89746222338057
 20
33.06614050020832
 30
0.0
 40
2.411999999999999
 41
0.0
 71
     5
 72
     1
  1
\A1;1/4"
  7
ROMANS
 73
     1
 44
1.0
1001
ACAD
1000
MTEXTBEGIN
1070
    73
1070
     1
1070
    44
1040
1.0
1070
    74
1070
     0
1000
MTEXTEND
  0
SOLID
  5
4829
330
10BA
100
AcDbEntity
  8
0
 62
     0
100
AcDbTrace
 10
-52.72956537064821
 20
29.46703432525126
 30
0.0
 11
-53.04206537064821
 21
28.92576844788598
 31
0.0
 12
-54.50961300274403
 22
30.13390138656863
 32
0.0
 13
-54.50961300274403
 23
30.13390138656863
 33
0.0
  0
SOLID
  5
482A
330
10BA
100
AcDbEntity
  8
0
 62
     0
100
AcDbTrace
 10
-56.86299865648348
 20
31.85347314550563
 30
0.0
 11
-57.17549865648348
 21
31.31220726814035
 31
0.0
 12
-55.39545102438767
 22
30.64534020682299
 32
0.0
 13
-55.39545102438767
 23
30.64534020682299
 33
0.0
  0
POINT
  5
482B
330
10BA
100
AcDbEntity
  8
DEFPOINTS
 62
     0
100
AcDbPoint
 10
-54.50961300274425
 20
33.79388556196265
 30
0.0
  0
POINT
  5
482C
330
10BA
100
AcDbEntity
  8
DEFPOINTS
 62
     0
100
AcDbPoint
 10
-55.39545102438789
 20
34.305324382217
 30
0.0
  0
POINT
  5
482D
330
10BA
100
AcDbEntity
  8
DEFPOINTS
 62
     0
100
AcDbPoint
 10
-55.39545102438767
 20
30.64534020682299
 30
0.0
  0
ENDBLK
  5
10C6
330
10BA
100
AcDbEntity
  8
0
100
AcDbBlockEnd
  0
BLOCK
  5
10D2
330
10C7
100
AcDbEntity
  8
0
100
AcDbBlockBegin
  2
*D8
 70
     1
 10
0.0
 20
0.0
 30
0.0
  3
*D8
  1

  0
LINE
  5
482E
330
10C7
100
AcDbEntity
  8
0
 62
     0
370
    -2
100
AcDbLine
 10
-9.228549942208633
 20
38.45648905847347
 30
0.0
 11
-3.165152028115712
 21
41.95719347637878
 31
0.0
  0
LINE
  5
482F
330
10C7
100
AcDbEntity
  8
0
 62
     0
370
    -2
100
AcDbLine
 10
-9.228549942208633
 20
26.18195737236956
 30
0.0
 11
-3.165152028115715
 21
29.68266179027488
 31
0.0
  0
LINE
  5
4830
330
10C7
100
AcDbEntity
  8
0
 62
     0
370
    -2
100
AcDbLine
 10
-5.040152028115713
 20
38.99966172164825
 30
0.0
 11
-5.040152028115714
 21
37.2342609181177
 31
0.0
  0
LINE
  5
4831
330
10C7
100
AcDbEntity
  8
0
 62
     0
370
    -2
100
AcDbLine
 10
-5.040152028115715
 20
30.47513003554434
 30
0.0
 11
-5.040152028115715
 21
30.61283234668914
 31
0.0
  0
MTEXT
  5
4832
330
10C7
100
AcDbEntity
  8
0
 62
     0
100
AcDbMText
 10
-4.335018591131567
 20
33.92354663240342
 30
0.0
 40
2.411999999999999
 41
0.0
 71
     5
 72
     1
  1
\A1;3"
  7
ROMANS
 73
     1
 44
1.0
1001
ACAD
1000
MTEXTBEGIN
1070
    73
1070
     1
1070
    44
1040
1.0
1070
    74
1070
     0
1000
MTEXTEND
  0
SOLID
  5
4833
330
10C7
100
AcDbEntity
  8
0
 62
     0
100
AcDbTrace
 10
-5.352652028115713
 20
38.99966172164825
 30
0.0
 11
-4.727652028115713
 21
38.99966172164825
 31
0.0
 12
-5.040152028115713
 22
40.87466172164825
 32
0.0
 13
-5.040152028115713
 23
40.87466172164825
 33
0.0
  0
SOLID
  5
4834
330
10C7
100
AcDbEntity
  8
0
 62
     0
100
AcDbTrace
 10
-5.352652028115715
 20
30.47513003554434
 30
0.0
 11
-4.727652028115715
 21
30.47513003554434
 31
0.0
 12
-5.040152028115715
 22
28.60013003554434
 32
0.0
 13
-5.040152028115715
 23
28.60013003554434
 33
0.0
  0
POINT
  5
4835
330
10C7
100
AcDbEntity
  8
DEFPOINTS
 62
     0
100
AcDbPoint
 10
-11.10354994220863
 20
37.37395730374294
 30
0.0
  0
POINT
  5
4836
330
10C7
100
AcDbEntity
  8
DEFPOINTS
 62
     0
100
AcDbPoint
 10
-11.10354994220863
 20
25.09942561763903
 30
0.0
  0
POINT
  5
4837
330
10C7
100
AcDbEntity
  8
DEFPOINTS
 62
     0
100
AcDbPoint
 10
-5.040152028115715
 20
28.60013003554434
 30
0.0
  0
ENDBLK
  5
10D3
330
10C7
100
AcDbEntity
  8
0
100
AcDbBlockEnd
  0
BLOCK
  5
10DF
330
10D4
100
AcDbEntity
  8
0
100
AcDbBlockBegin
  2
*D9
 70
     1
 10
0.0
 20
0.0
 30
0.0
  3
*D9
  1

  0
LINE
  5
4838
330
10D4
100
AcDbEntity
  8
0
 62
     0
370
    -2
100
AcDbLine
 10
-16.96431369738092
 20
144.8561379258629
 30
0.0
 11
-16.96431369738092
 21
153.5236379785905
 31
0.0
  0
LINE
  5
4839
330
10D4
100
AcDbEntity
  8
0
 62
     0
370
    -2
100
AcDbLine
 10
-62.9490608240281
 20
144.8561379258629
 30
0.0
 11
-62.9490608240281
 21
153.5236379785905
 31
0.0
  0
LINE
  5
483A
330
10D4
100
AcDbEntity
  8
0
 62
     0
370
    -2
100
AcDbLine
 10
-18.83931369738092
 20
151.6486379785904
 30
0.0
 11
-30.21397297499023
 21
151.6486379785904
 31
0.0
  0
LINE
  5
483B
330
10D4
100
AcDbEntity
  8
0
 62
     0
370
    -2
100
AcDbLine
 10
-61.0740608240281
 20
151.6486379785904
 30
0.0
 11
-49.69940154641879
 21
151.6486379785904
 31
0.0
  0
SOLID
  5
483C
330
10D4
100
AcDbEntity
  8
0
 62
     0
100
AcDbTrace
 10
-18.83931369738092
 20
151.9611379785905
 30
0.0
 11
-18.83931369738092
 21
151.3361379785904
 31
0.0
 12
-16.96431369738092
 22
151.6486379785904
 32
0.0
 13
-16.96431369738092
 23
151.6486379785904
 33
0.0
  0
SOLID
  5
483D
330
10D4
100
AcDbEntity
  8
0
 62
     0
100
AcDbTrace
 10
-61.0740608240281
 20
151.9611379785905
 30
0.0
 11
-61.0740608240281
 21
151.3361379785904
 31
0.0
 12
-62.9490608240281
 22
151.6486379785904
 32
0.0
 13
-62.9490608240281
 23
151.6486379785904
 33
0.0
  0
MTEXT
  5
483E
330
10D4
100
AcDbEntity
  8
0
 62
     0
100
AcDbMText
 10
-39.95668726070451
 20
151.6486379785904
 30
0.0
 40
2.411999999999999
 41
0.0
 71
     5
 72
     1
  1
\A1;22-1/8"
  7
ROMANS
 73
     1
 44
1.0
1001
ACAD
1000
MTEXTBEGIN
1070
    73
1070
     1
1070
    44
1040
1.0
1070
    74
1070
     0
1000
MTEXTEND
  0
POINT
  5
483F
330
10D4
100
AcDbEntity
  8
DEFPOINTS
 62
     0
100
AcDbPoint
 10
-16.96431369738092
 20
142.9811379258629
 30
0.0
  0
POINT
  5
4840
330
10D4
100
AcDbEntity
  8
DEFPOINTS
 62
     0
100
AcDbPoint
 10
-62.9490608240281
 20
142.9811379258629
 30
0.0
  0
POINT
  5
4841
330
10D4
100
AcDbEntity
  8
DEFPOINTS
 62
     0
100
AcDbPoint
 10
-62.9490608240281
 20
151.6486379785904
 30
0.0
  0
ENDBLK
  5
10E0
330
10D4
100
AcDbEntity
  8
0
100
AcDbBlockEnd
  0
BLOCK
  5
11F6
330
11F4
100
AcDbEntity
  8
0
100
AcDbBlockBegin
  2
Ldr-trd
 70
     0
 10
0.0
 20
0.0
 30
0.0
  3
Ldr-trd
  1

  0
LWPOLYLINE
  5
11F5
330
11F4
100
AcDbEntity
  8
0
  6
HIDDEN
100
AcDbPolyline
 90
        8
 70
     1
 43
0.0
 10
-0.75
 20
-0.75
 10
-1.125
 20
-0.75
 10
-1.125
 20
0.0
 10
1.125
 20
0.0000000000000284
 10
1.125
 20
-0.7499999999999716
 10
0.75
 20
-0.75
 10
0.75
 20
-0.21132790639885
 10
-0.75
 20
-0.21132790639885
  0
ENDBLK
  5
11F7
330
11F4
100
AcDbEntity
  8
0
100
AcDbBlockEnd
  0
BLOCK
  5
13C4
330
13B9
100
AcDbEntity
  8
0
100
AcDbBlockBegin
  2
*D11
 70
     1
 10
0.0
 20
0.0
 30
0.0
  3
*D11
  1

  0
LINE
  5
48E0
330
13B9
100
AcDbEntity
  8
0
 62
     0
370
    -2
100
AcDbLine
 10
120.8139326188639
 20
-146.9392851749431
 30
0.0
 11
120.8139326188639
 21
-152.0159133009973
 31
0.0
  0
LINE
  5
48E1
330
13B9
100
AcDbEntity
  8
0
 62
     0
370
    -2
100
AcDbLine
 10
146.8139326188639
 20
-146.9392851749431
 30
0.0
 11
146.8139326188639
 21
-152.0159133009973
 31
0.0
  0
LINE
  5
48E2
330
13B9
100
AcDbEntity
  8
0
 62
     0
370
    -2
100
AcDbLine
 10
122.6889326188638
 20
-150.1409133009973
 30
0.0
 11
129.1249326188639
 21
-150.1409133009973
 31
0.0
  0
LINE
  5
48E3
330
13B9
100
AcDbEntity
  8
0
 62
     0
370
    -2
100
AcDbLine
 10
144.9389326188638
 20
-150.1409133009973
 30
0.0
 11
138.5029326188638
 21
-150.1409133009973
 31
0.0
  0
SOLID
  5
48E4
330
13B9
100
AcDbEntity
  8
0
 62
     0
100
AcDbTrace
 10
122.6889326188638
 20
-149.8284133009973
 30
0.0
 11
122.6889326188638
 21
-150.4534133009973
 31
0.0
 12
120.8139326188639
 22
-150.1409133009973
 32
0.0
 13
120.8139326188639
 23
-150.1409133009973
 33
0.0
  0
SOLID
  5
48E5
330
13B9
100
AcDbEntity
  8
0
 62
     0
100
AcDbTrace
 10
144.9389326188638
 20
-149.8284133009973
 30
0.0
 11
144.9389326188638
 21
-150.4534133009973
 31
0.0
 12
146.8139326188639
 22
-150.1409133009973
 32
0.0
 13
146.8139326188639
 23
-150.1409133009973
 33
0.0
  0
MTEXT
  5
48E6
330
13B9
100
AcDbEntity
  8
0
 62
     0
100
AcDbMText
 10
133.8139326188638
 20
-150.1409133009973
 30
0.0
 40
2.411999999999999
 41
0.0
 71
     5
 72
     1
  1
\A1;26"
  7
ROMANS
 73
     1
 44
1.0
1001
ACAD
1000
MTEXTBEGIN
1070
    73
1070
     1
1070
    44
1040
1.0
1070
    74
1070
     0
1000
MTEXTEND
  0
POINT
  5
48E7
330
13B9
100
AcDbEntity
  8
DEFPOINTS
 62
     0
100
AcDbPoint
 10
120.8139326188639
 20
-145.0642851749431
 30
0.0
  0
POINT
  5
48E8
330
13B9
100
AcDbEntity
  8
DEFPOINTS
 62
     0
100
AcDbPoint
 10
146.8139326188639
 20
-145.0642851749431
 30
0.0
  0
POINT
  5
48E9
330
13B9
100
AcDbEntity
  8
DEFPOINTS
 62
     0
100
AcDbPoint
 10
146.8139326188639
 20
-150.1409133009973
 30
0.0
  0
ENDBLK
  5
13C5
330
13B9
100
AcDbEntity
  8
0
100
AcDbBlockEnd
  0
BLOCK
  5
14B2
330
14A7
100
AcDbEntity
  8
0
100
AcDbBlockBegin
  2
*D12
 70
     1
 10
0.0
 20
0.0
 30
0.0
  3
*D12
  1

  0
LINE
  5
48D6
330
14A7
100
AcDbEntity
  8
0
 62
     0
370
    -2
100
AcDbLine
 10
147.6889326188638
 20
156.9357148250568
 30
0.0
 11
167.6973556624522
 21
156.9357148250568
 31
0.0
  0
LINE
  5
48D7
330
14A7
100
AcDbEntity
  8
0
 62
     0
370
    -2
100
AcDbLine
 10
153.8139326188639
 20
201.9357148250569
 30
0.0
 11
167.6973556624522
 21
201.9357148250569
 31
0.0
  0
LINE
  5
48D8
330
14A7
100
AcDbEntity
  8
0
 62
     0
370
    -2
100
AcDbLine
 10
165.8223556624522
 20
158.8107148250568
 30
0.0
 11
165.8223556624522
 21
176.1250005393425
 31
0.0
  0
LINE
  5
48D9
330
14A7
100
AcDbEntity
  8
0
 62
     0
370
    -2
100
AcDbLine
 10
165.8223556624522
 20
200.0607148250568
 30
0.0
 11
165.8223556624522
 21
182.7464291107711
 31
0.0
  0
SOLID
  5
48DA
330
14A7
100
AcDbEntity
  8
0
 62
     0
100
AcDbTrace
 10
165.5098556624522
 20
158.8107148250568
 30
0.0
 11
166.1348556624522
 21
158.8107148250568
 31
0.0
 12
165.8223556624522
 22
156.9357148250568
 32
0.0
 13
165.8223556624522
 23
156.9357148250568
 33
0.0
  0
SOLID
  5
48DB
330
14A7
100
AcDbEntity
  8
0
 62
     0
100
AcDbTrace
 10
165.5098556624522
 20
200.0607148250568
 30
0.0
 11
166.1348556624522
 21
200.0607148250568
 31
0.0
 12
165.8223556624522
 22
201.9357148250569
 32
0.0
 13
165.8223556624522
 23
201.9357148250569
 33
0.0
  0
MTEXT
  5
48DC
330
14A7
100
AcDbEntity
  8
0
 62
     0
100
AcDbMText
 10
165.8223556624522
 20
179.4357148250568
 30
0.0
 40
2.411999999999999
 41
0.0
 71
     5
 72
     1
  1
\A1;45"
  7
ROMANS
 73
     1
 44
1.0
1001
ACAD
1000
MTEXTBEGIN
1070
    73
1070
     1
1070
    44
1040
1.0
1070
    74
1070
     0
1000
MTEXTEND
  0
POINT
  5
48DD
330
14A7
100
AcDbEntity
  8
DEFPOINTS
 62
     0
100
AcDbPoint
 10
145.8139326188639
 20
156.9357148250568
 30
0.0
  0
POINT
  5
48DE
330
14A7
100
AcDbEntity
  8
DEFPOINTS
 62
     0
100
AcDbPoint
 10
151.9389326188639
 20
201.9357148250569
 30
0.0
  0
POINT
  5
48DF
330
14A7
100
AcDbEntity
  8
DEFPOINTS
 62
     0
100
AcDbPoint
 10
165.8223556624522
 20
201.9357148250569
 30
0.0
  0
ENDBLK
  5
14B3
330
14A7
100
AcDbEntity
  8
0
100
AcDbBlockEnd
  0
BLOCK
  5
14BE
330
14B4
100
AcDbEntity
  8
0
100
AcDbBlockBegin
  2
*D13
 70
     1
 10
0.0
 20
0.0
 30
0.0
  3
*D13
  1

  0
LINE
  5
48CC
330
14B4
100
AcDbEntity
  8
0
 62
     0
370
    -2
100
AcDbLine
 10
147.6889326188638
 20
144.9357148250568
 30
0.0
 11
156.8035754063952
 21
144.9357148250568
 31
0.0
  0
LINE
  5
48CD
330
14B4
100
AcDbEntity
  8
0
 62
     0
370
    -2
100
AcDbLine
 10
147.6889326188638
 20
156.9357148250568
 30
0.0
 11
156.8035754063952
 21
156.9357148250568
 31
0.0
  0
LINE
  5
48CE
330
14B4
100
AcDbEntity
  8
0
 62
     0
370
    -2
100
AcDbLine
 10
154.9285754063952
 20
146.8107148250568
 30
0.0
 11
154.9285754063952
 21
147.2769015714033
 31
0.0
  0
LINE
  5
48CF
330
14B4
100
AcDbEntity
  8
0
 62
     0
370
    -2
100
AcDbLine
 10
154.9285754063952
 20
155.0607148250568
 30
0.0
 11
154.9285754063952
 21
153.8983301428318
 31
0.0
  0
MTEXT
  5
48D0
330
14B4
100
AcDbEntity
  8
0
 62
     0
100
AcDbMText
 10
155.0123454894596
 20
150.5876158571176
 30
0.0
 40
2.411999999999999
 41
0.0
 71
     5
 72
     1
  1
\A1;12" TYP
  7
ROMANS
 73
     1
 44
1.0
1001
ACAD
1000
MTEXTBEGIN
1070
    73
1070
     1
1070
    44
1040
1.0
1070
    74
1070
     0
1000
MTEXTEND
  0
SOLID
  5
48D1
330
14B4
100
AcDbEntity
  8
0
 62
     0
100
AcDbTrace
 10
154.6160754063952
 20
146.8107148250568
 30
0.0
 11
155.2410754063952
 21
146.8107148250568
 31
0.0
 12
154.9285754063952
 22
144.9357148250568
 32
0.0
 13
154.9285754063952
 23
144.9357148250568
 33
0.0
  0
SOLID
  5
48D2
330
14B4
100
AcDbEntity
  8
0
 62
     0
100
AcDbTrace
 10
154.6160754063952
 20
155.0607148250568
 30
0.0
 11
155.2410754063952
 21
155.0607148250568
 31
0.0
 12
154.9285754063952
 22
156.9357148250568
 32
0.0
 13
154.9285754063952
 23
156.9357148250568
 33
0.0
  0
POINT
  5
48D3
330
14B4
100
AcDbEntity
  8
DEFPOINTS
 62
     0
100
AcDbPoint
 10
145.8139326188639
 20
144.9357148250568
 30
0.0
  0
POINT
  5
48D4
330
14B4
100
AcDbEntity
  8
DEFPOINTS
 62
     0
100
AcDbPoint
 10
145.8139326188639
 20
156.9357148250568
 30
0.0
  0
POINT
  5
48D5
330
14B4
100
AcDbEntity
  8
DEFPOINTS
 62
     0
100
AcDbPoint
 10
154.9285754063952
 20
156.9357148250568
 30
0.0
  0
ENDBLK
  5
14BF
330
14B4
100
AcDbEntity
  8
0
100
AcDbBlockEnd
  0
BLOCK
  5
2105
330
20FA
100
AcDbEntity
  8
0
100
AcDbBlockBegin
  2
*D14
 70
     1
 10
0.0
 20
0.0
 30
0.0
  3
*D14
  1

  0
LINE
  5
48EA
330
20FA
100
AcDbEntity
  8
0
 62
     0
370
    -2
100
AcDbLine
 10
34.75883216287452
 20
156.9357148250569
 30
0.0
 11
23.07614345115968
 21
156.9357148250569
 31
0.0
  0
LINE
  5
48EB
330
20FA
100
AcDbEntity
  8
0
 62
     0
370
    -2
100
AcDbLine
 10
34.75883216287452
 20
150.9357148250569
 30
0.0
 11
23.07614345115968
 21
150.9357148250569
 31
0.0
  0
LINE
  5
48EC
330
20FA
100
AcDbEntity
  8
0
 62
     0
370
    -2
100
AcDbLine
 10
24.95114345115969
 20
158.8107148250569
 30
0.0
 11
24.95114345115969
 21
160.6857148250569
 31
0.0
  0
LINE
  5
48ED
330
20FA
100
AcDbEntity
  8
0
 62
     0
370
    -2
100
AcDbLine
 10
24.95114345115968
 20
149.0607148250569
 30
0.0
 11
24.95114345115968
 21
147.1857148250569
 31
0.0
  0
MTEXT
  5
48EE
330
20FA
100
AcDbEntity
  8
0
 62
     0
100
AcDbMText
 10
19.26721487973109
 20
153.9357148250569
 30
0.0
 40
2.411999999999999
 41
0.0
 71
     5
 72
     1
  1
\A1;6"
  7
ROMANS
 73
     1
 44
1.0
1001
ACAD
1000
MTEXTBEGIN
1070
    73
1070
     1
1070
    44
1040
1.0
1070
    74
1070
     0
1000
MTEXTEND
  0
SOLID
  5
48EF
330
20FA
100
AcDbEntity
  8
0
 62
     0
100
AcDbTrace
 10
24.63864345115969
 20
158.8107148250569
 30
0.0
 11
25.26364345115969
 21
158.8107148250569
 31
0.0
 12
24.95114345115969
 22
156.9357148250569
 32
0.0
 13
24.95114345115969
 23
156.9357148250569
 33
0.0
  0
SOLID
  5
48F0
330
20FA
100
AcDbEntity
  8
0
 62
     0
100
AcDbTrace
 10
24.63864345115968
 20
149.0607148250569
 30
0.0
 11
25.26364345115968
 21
149.0607148250569
 31
0.0
 12
24.95114345115968
 22
150.9357148250569
 32
0.0
 13
24.95114345115968
 23
150.9357148250569
 33
0.0
  0
POINT
  5
48F1
330
20FA
100
AcDbEntity
  8
DEFPOINTS
 62
     0
100
AcDbPoint
 10
36.63383216287452
 20
156.9357148250569
 30
0.0
  0
POINT
  5
48F2
330
20FA
100
AcDbEntity
  8
DEFPOINTS
 62
     0
100
AcDbPoint
 10
36.63383216287452
 20
150.9357148250569
 30
0.0
  0
POINT
  5
48F3
330
20FA
100
AcDbEntity
  8
DEFPOINTS
 62
     0
100
AcDbPoint
 10
24.95114345115968
 20
150.9357148250569
 30
0.0
  0
ENDBLK
  5
2106
330
20FA
100
AcDbEntity
  8
0
100
AcDbBlockEnd
  0
BLOCK
  5
2DF1
330
2DE6
100
AcDbEntity
  8
0
100
AcDbBlockBegin
  2
*D15
 70
     1
 10
0.0
 20
0.0
 30
0.0
  3
*D15
  1

  0
LINE
  5
48F4
330
2DE6
100
AcDbEntity
  8
0
 62
     0
370
    -2
100
AcDbLine
 10
146.8139326188638
 20
-146.9392851749431
 30
0.0
 11
146.8139326188638
 21
-152.0159133009973
 31
0.0
  0
LINE
  5
48F5
330
2DE6
100
AcDbEntity
  8
0
 62
     0
370
    -2
100
AcDbLine
 10
120.8139326188638
 20
-146.9392851749431
 30
0.0
 11
120.8139326188638
 21
-152.0159133009973
 31
0.0
  0
LINE
  5
48F6
330
2DE6
100
AcDbEntity
  8
0
 62
     0
370
    -2
100
AcDbLine
 10
144.9389326188638
 20
-150.1409133009973
 30
0.0
 11
138.5029326188638
 21
-150.1409133009973
 31
0.0
  0
LINE
  5
48F7
330
2DE6
100
AcDbEntity
  8
0
 62
     0
370
    -2
100
AcDbLine
 10
122.6889326188638
 20
-150.1409133009973
 30
0.0
 11
129.1249326188638
 21
-150.1409133009973
 31
0.0
  0
SOLID
  5
48F8
330
2DE6
100
AcDbEntity
  8
0
 62
     0
100
AcDbTrace
 10
144.9389326188638
 20
-149.8284133009973
 30
0.0
 11
144.9389326188638
 21
-150.4534133009973
 31
0.0
 12
146.8139326188638
 22
-150.1409133009973
 32
0.0
 13
146.8139326188638
 23
-150.1409133009973
 33
0.0
  0
SOLID
  5
48F9
330
2DE6
100
AcDbEntity
  8
0
 62
     0
100
AcDbTrace
 10
122.6889326188638
 20
-149.8284133009973
 30
0.0
 11
122.6889326188638
 21
-150.4534133009973
 31
0.0
 12
120.8139326188638
 22
-150.1409133009973
 32
0.0
 13
120.8139326188638
 23
-150.1409133009973
 33
0.0
  0
MTEXT
  5
48FA
330
2DE6
100
AcDbEntity
  8
0
 62
     0
100
AcDbMText
 10
133.8139326188638
 20
-150.1409133009973
 30
0.0
 40
2.411999999999999
 41
0.0
 71
     5
 72
     1
  1
\A1;26"
  7
ROMANS
 73
     1
 44
1.0
1001
ACAD
1000
MTEXTBEGIN
1070
    73
1070
     1
1070
    44
1040
1.0
1070
    74
1070
     0
1000
MTEXTEND
  0
POINT
  5
48FB
330
2DE6
100
AcDbEntity
  8
DEFPOINTS
 62
     0
100
AcDbPoint
 10
146.8139326188638
 20
-145.0642851749431
 30
0.0
  0
POINT
  5
48FC
330
2DE6
100
AcDbEntity
  8
DEFPOINTS
 62
     0
100
AcDbPoint
 10
120.8139326188638
 20
-145.0642851749431
 30
0.0
  0
POINT
  5
48FD
330
2DE6
100
AcDbEntity
  8
DEFPOINTS
 62
     0
100
AcDbPoint
 10
120.8139326188638
 20
-150.1409133009973
 30
0.0
  0
ENDBLK
  5
2DF2
330
2DE6
100
AcDbEntity
  8
0
100
AcDbBlockEnd
  0
BLOCK
  5
2FC6
330
2FBB
100
AcDbEntity
  8
0
100
AcDbBlockBegin
  2
*D16
 70
     1
 10
0.0
 20
0.0
 30
0.0
  3
*D16
  1

  0
LINE
  5
48FE
330
2FBB
100
AcDbEntity
  8
0
 62
     0
370
    -2
100
AcDbLine
 10
34.75883216287452
 20
102.9357148250569
 30
0.0
 11
23.07614345115967
 21
102.9357148250569
 31
0.0
  0
LINE
  5
48FF
330
2FBB
100
AcDbEntity
  8
0
 62
     0
370
    -2
100
AcDbLine
 10
34.75883216287452
 20
150.9357148250569
 30
0.0
 11
23.07614345115968
 21
150.9357148250569
 31
0.0
  0
LINE
  5
4900
330
2FBB
100
AcDbEntity
  8
0
 62
     0
370
    -2
100
AcDbLine
 10
24.95114345115967
 20
104.8107148250569
 30
0.0
 11
24.95114345115968
 21
121.6150005393426
 31
0.0
  0
LINE
  5
4901
330
2FBB
100
AcDbEntity
  8
0
 62
     0
370
    -2
100
AcDbLine
 10
24.95114345115968
 20
149.0607148250569
 30
0.0
 11
24.95114345115968
 21
132.2564291107712
 31
0.0
  0
SOLID
  5
4902
330
2FBB
100
AcDbEntity
  8
0
 62
     0
100
AcDbTrace
 10
24.63864345115967
 20
104.8107148250569
 30
0.0
 11
25.26364345115967
 21
104.8107148250569
 31
0.0
 12
24.95114345115967
 22
102.9357148250569
 32
0.0
 13
24.95114345115967
 23
102.9357148250569
 33
0.0
  0
SOLID
  5
4903
330
2FBB
100
AcDbEntity
  8
0
 62
     0
100
AcDbTrace
 10
24.63864345115968
 20
149.0607148250569
 30
0.0
 11
25.26364345115968
 21
149.0607148250569
 31
0.0
 12
24.95114345115968
 22
150.9357148250569
 32
0.0
 13
24.95114345115968
 23
150.9357148250569
 33
0.0
  0
MTEXT
  5
4904
330
2FBB
100
AcDbEntity
  8
0
 62
     0
100
AcDbMText
 10
24.95114345115966
 20
126.9357148250569
 30
0.0
 40
2.411999999999999
 41
0.0
 71
     5
 72
     1
  1
\A1;4'-0"\PTYP
  7
ROMANS
 73
     1
 44
1.0
1001
ACAD
1000
MTEXTBEGIN
1070
    73
1070
     1
1070
    44
1040
1.0
1070
    74
1070
     0
1000
MTEXTEND
  0
POINT
  5
4905
330
2FBB
100
AcDbEntity
  8
DEFPOINTS
 62
     0
100
AcDbPoint
 10
36.63383216287452
 20
102.9357148250569
 30
0.0
  0
POINT
  5
4906
330
2FBB
100
AcDbEntity
  8
DEFPOINTS
 62
     0
100
AcDbPoint
 10
36.63383216287452
 20
150.9357148250569
 30
0.0
  0
POINT
  5
4907
330
2FBB
100
AcDbEntity
  8
DEFPOINTS
 62
     0
100
AcDbPoint
 10
24.95114345115968
 20
150.9357148250569
 30
0.0
  0
ENDBLK
  5
2FC7
330
2FBB
100
AcDbEntity
  8
0
100
AcDbBlockEnd
  0
BLOCK
  5
3077
330
306C
100
AcDbEntity
  8
0
100
AcDbBlockBegin
  2
*D17
 70
     1
 10
0.0
 20
0.0
 30
0.0
  3
*D17
  1

  0
LINE
  5
4908
330
306C
100
AcDbEntity
  8
0
 62
     0
370
    -2
100
AcDbLine
 10
118.813932618864
 20
200.9356892844122
 30
0.0
 11
118.813932618864
 21
208.1191286277469
 31
0.0
  0
LINE
  5
4909
330
306C
100
AcDbEntity
  8
0
 62
     0
370
    -2
100
AcDbLine
 10
148.8139326188639
 20
201.3107148250568
 30
0.0
 11
148.8139326188639
 21
208.1191286277469
 31
0.0
  0
LINE
  5
490A
330
306C
100
AcDbEntity
  8
0
 62
     0
370
    -2
100
AcDbLine
 10
120.688932618864
 20
206.2441286277469
 30
0.0
 11
127.0575040474354
 21
206.2441286277469
 31
0.0
  0
LINE
  5
490B
330
306C
100
AcDbEntity
  8
0
 62
     0
370
    -2
100
AcDbLine
 10
146.9389326188639
 20
206.2441286277469
 30
0.0
 11
140.5703611902925
 21
206.2441286277469
 31
0.0
  0
SOLID
  5
490C
330
306C
100
AcDbEntity
  8
0
 62
     0
100
AcDbTrace
 10
120.688932618864
 20
206.5566286277469
 30
0.0
 11
120.688932618864
 21
205.9316286277469
 31
0.0
 12
118.813932618864
 22
206.2441286277469
 32
0.0
 13
118.813932618864
 23
206.2441286277469
 33
0.0
  0
SOLID
  5
490D
330
306C
100
AcDbEntity
  8
0
 62
     0
100
AcDbTrace
 10
146.9389326188639
 20
206.5566286277469
 30
0.0
 11
146.9389326188639
 21
205.9316286277469
 31
0.0
 12
148.8139326188639
 22
206.2441286277469
 32
0.0
 13
148.8139326188639
 23
206.2441286277469
 33
0.0
  0
MTEXT
  5
490E
330
306C
100
AcDbEntity
  8
0
 62
     0
100
AcDbMText
 10
133.8139326188639
 20
206.2441286277469
 30
0.0
 40
2.411999999999999
 41
0.0
 71
     5
 72
     1
  1
\A1;2'-6"
  7
ROMANS
 73
     1
 44
1.0
1001
ACAD
1000
MTEXTBEGIN
1070
    73
1070
     1
1070
    44
1040
1.0
1070
    74
1070
     0
1000
MTEXTEND
  0
POINT
  5
490F
330
306C
100
AcDbEntity
  8
DEFPOINTS
 62
     0
100
AcDbPoint
 10
118.813932618864
 20
199.0606892844122
 30
0.0
  0
POINT
  5
4910
330
306C
100
AcDbEntity
  8
DEFPOINTS
 62
     0
100
AcDbPoint
 10
148.8139326188639
 20
199.4357148250568
 30
0.0
  0
POINT
  5
4911
330
306C
100
AcDbEntity
  8
DEFPOINTS
 62
     0
100
AcDbPoint
 10
148.8139326188639
 20
206.2441286277469
 30
0.0
  0
ENDBLK
  5
3078
330
306C
100
AcDbEntity
  8
0
100
AcDbBlockEnd
  0
BLOCK
  5
3419
330
340E
100
AcDbEntity
  8
0
100
AcDbBlockBegin
  2
*D18
 70
     1
 10
0.0
 20
0.0
 30
0.0
  3
*D18
  1

  0
LINE
  5
4912
330
340E
100
AcDbEntity
  8
0
 62
     0
370
    -2
100
AcDbLine
 10
119.9389326188639
 20
156.9357148250568
 30
0.0
 11
111.5836386866743
 21
156.9357148250568
 31
0.0
  0
LINE
  5
4913
330
340E
100
AcDbEntity
  8
0
 62
     0
370
    -2
100
AcDbLine
 10
119.9389326188639
 20
160.9357148250568
 30
0.0
 11
111.5836386866743
 21
160.9357148250568
 31
0.0
  0
LINE
  5
4914
330
340E
100
AcDbEntity
  8
0
 62
     0
370
    -2
100
AcDbLine
 10
113.4586386866743
 20
155.0607148250568
 30
0.0
 11
113.4586386866743
 21
153.1857148250568
 31
0.0
  0
LINE
  5
4915
330
340E
100
AcDbEntity
  8
0
 62
     0
370
    -2
100
AcDbLine
 10
113.4586386866743
 20
162.8107148250568
 30
0.0
 11
113.4586386866743
 21
164.6857148250568
 31
0.0
  0
MTEXT
  5
4916
330
340E
100
AcDbEntity
  8
0
 62
     0
100
AcDbMText
 10
113.0774198312347
 20
158.9357148250568
 30
0.0
 40
2.411999999999999
 41
0.0
 71
     5
 72
     1
  1
\A1;4"
  7
ROMANS
 73
     1
 44
1.0
1001
ACAD
1000
MTEXTBEGIN
1070
    73
1070
     1
1070
    44
1040
1.0
1070
    74
1070
     0
1000
MTEXTEND
  0
SOLID
  5
4917
330
340E
100
AcDbEntity
  8
0
 62
     0
100
AcDbTrace
 10
113.1461386866743
 20
155.0607148250568
 30
0.0
 11
113.7711386866743
 21
155.0607148250568
 31
0.0
 12
113.4586386866743
 22
156.9357148250568
 32
0.0
 13
113.4586386866743
 23
156.9357148250568
 33
0.0
  0
SOLID
  5
4918
330
340E
100
AcDbEntity
  8
0
 62
     0
100
AcDbTrace
 10
113.1461386866743
 20
162.8107148250568
 30
0.0
 11
113.7711386866743
 21
162.8107148250568
 31
0.0
 12
113.4586386866743
 22
160.9357148250568
 32
0.0
 13
113.4586386866743
 23
160.9357148250568
 33
0.0
  0
POINT
  5
4919
330
340E
100
AcDbEntity
  8
DEFPOINTS
 62
     0
100
AcDbPoint
 10
121.8139326188639
 20
156.9357148250568
 30
0.0
  0
POINT
  5
491A
330
340E
100
AcDbEntity
  8
DEFPOINTS
 62
     0
100
AcDbPoint
 10
121.8139326188639
 20
160.9357148250568
 30
0.0
  0
POINT
  5
491B
330
340E
100
AcDbEntity
  8
DEFPOINTS
 62
     0
100
AcDbPoint
 10
113.4586386866743
 20
160.9357148250568
 30
0.0
  0
ENDBLK
  5
341A
330
340E
100
AcDbEntity
  8
0
100
AcDbBlockEnd
  0
BLOCK
  5
35FF
330
35F5
100
AcDbEntity
  8
0
100
AcDbBlockBegin
  2
*D19
 70
     1
 10
0.0
 20
0.0
 30
0.0
  3
*D19
  1

  0
LINE
  5
491C
330
35F5
100
AcDbEntity
  8
0
 62
     0
370
    -2
100
AcDbLine
 10
40.25883216287446
 20
-145.0642851749431
 30
0.0
 11
25.04425173874802
 21
-145.0642851749431
 31
0.0
  0
LINE
  5
491D
330
35F5
100
AcDbEntity
  8
0
 62
     0
370
    -2
100
AcDbLine
 10
34.75883216287446
 20
-137.0642851749431
 30
0.0
 11
25.04425173874802
 21
-137.0642851749431
 31
0.0
  0
LINE
  5
491E
330
35F5
100
AcDbEntity
  8
0
 62
     0
370
    -2
100
AcDbLine
 10
26.91925173874802
 20
-143.1892851749431
 30
0.0
 11
26.91925173874802
 21
-138.9392851749431
 31
0.0
  0
MTEXT
  5
491F
330
35F5
100
AcDbEntity
  8
0
 62
     0
100
AcDbMText
 10
16.56225517857706
 20
-141.0642851749431
 30
0.0
 40
2.411999999999999
 41
0.0
 71
     5
 72
     1
  1
\A1;AS REQ'D
  7
ROMANS
 73
     1
 44
1.0
1001
ACAD
1000
MTEXTBEGIN
1070
    73
1070
     1
1070
    44
1040
1.0
1070
    74
1070
     0
1000
MTEXTEND
  0
SOLID
  5
4920
330
35F5
100
AcDbEntity
  8
0
 62
     0
100
AcDbTrace
 10
26.60675173874802
 20
-143.1892851749431
 30
0.0
 11
27.23175173874802
 21
-143.1892851749431
 31
0.0
 12
26.91925173874802
 22
-145.0642851749431
 32
0.0
 13
26.91925173874802
 23
-145.0642851749431
 33
0.0
  0
SOLID
  5
4921
330
35F5
100
AcDbEntity
  8
0
 62
     0
100
AcDbTrace
 10
26.60675173874802
 20
-138.9392851749431
 30
0.0
 11
27.23175173874802
 21
-138.9392851749431
 31
0.0
 12
26.91925173874802
 22
-137.0642851749431
 32
0.0
 13
26.91925173874802
 23
-137.0642851749431
 33
0.0
  0
POINT
  5
4922
330
35F5
100
AcDbEntity
  8
DEFPOINTS
 62
     0
100
AcDbPoint
 10
42.13383216287446
 20
-145.0642851749431
 30
0.0
  0
POINT
  5
4923
330
35F5
100
AcDbEntity
  8
DEFPOINTS
 62
     0
100
AcDbPoint
 10
36.63383216287446
 20
-137.0642851749431
 30
0.0
  0
POINT
  5
4924
330
35F5
100
AcDbEntity
  8
DEFPOINTS
 62
     0
100
AcDbPoint
 10
26.91925173874802
 20
-137.0642851749431
 30
0.0
  0
ENDBLK
  5
3600
330
35F5
100
AcDbEntity
  8
0
100
AcDbBlockEnd
  0
BLOCK
  5
3645
330
363A
100
AcDbEntity
  8
0
100
AcDbBlockBegin
  2
*D20
 70
     1
 10
0.0
 20
0.0
 30
0.0
  3
*D20
  1

  0
LINE
  5
4960
330
363A
100
AcDbEntity
  8
0
 62
     0
370
    -2
100
AcDbLine
 10
47.88383216287451
 20
-109.0642851749431
 30
0.0
 11
61.05885481089926
 21
-109.0642851749431
 31
0.0
  0
LINE
  5
4961
330
363A
100
AcDbEntity
  8
0
 62
     0
370
    -2
100
AcDbLine
 10
53.00047855727621
 20
-145.0642851749431
 30
0.0
 11
61.05885481089925
 21
-145.0642851749431
 31
0.0
  0
LINE
  5
4962
330
363A
100
AcDbEntity
  8
0
 62
     0
370
    -2
100
AcDbLine
 10
59.55885481089926
 20
-110.5642851749431
 30
0.0
 11
59.55885481089925
 21
-124.4157137463717
 31
0.0
  0
LINE
  5
4963
330
363A
100
AcDbEntity
  8
0
 62
     0
370
    -2
100
AcDbLine
 10
59.55885481089925
 20
-143.5642851749431
 30
0.0
 11
59.55885481089925
 21
-129.7128566035145
 31
0.0
  0
SOLID
  5
4964
330
363A
100
AcDbEntity
  8
0
 62
     0
100
AcDbTrace
 10
59.30885481089926
 20
-110.5642851749431
 30
0.0
 11
59.80885481089926
 21
-110.5642851749431
 31
0.0
 12
59.55885481089926
 22
-109.0642851749431
 32
0.0
 13
59.55885481089926
 23
-109.0642851749431
 33
0.0
  0
SOLID
  5
4965
330
363A
100
AcDbEntity
  8
0
 62
     0
100
AcDbTrace
 10
59.30885481089926
 20
-143.5642851749431
 30
0.0
 11
59.80885481089925
 21
-143.5642851749431
 31
0.0
 12
59.55885481089925
 22
-145.0642851749431
 32
0.0
 13
59.55885481089925
 23
-145.0642851749431
 33
0.0
  0
MTEXT
  5
4966
330
363A
100
AcDbEntity
  8
0
 62
     0
100
AcDbMText
 10
59.55885481089928
 20
-127.0642851749431
 30
0.0
 40
1.929599999999999
 41
0.0
 71
     5
 72
     1
  1
\A1;3'-0"
  7
ROMANS
 73
     1
 44
1.0
1001
ACAD
1000
MTEXTBEGIN
1070
    73
1070
     1
1070
    44
1040
1.0
1070
    74
1070
     0
1000
MTEXTEND
  0
POINT
  5
4967
330
363A
100
AcDbEntity
  8
DEFPOINTS
 62
     0
100
AcDbPoint
 10
46.38383216287451
 20
-109.0642851749431
 30
0.0
  0
POINT
  5
4968
330
363A
100
AcDbEntity
  8
DEFPOINTS
 62
     0
100
AcDbPoint
 10
51.50047855727621
 20
-145.0642851749431
 30
0.0
  0
POINT
  5
4969
330
363A
100
AcDbEntity
  8
DEFPOINTS
 62
     0
100
AcDbPoint
 10
59.55885481089925
 20
-145.0642851749431
 30
0.0
  0
ENDBLK
  5
3646
330
363A
100
AcDbEntity
  8
0
100
AcDbBlockEnd
  0
BLOCK
  5
3DDC
330
3DD1
100
AcDbEntity
  8
0
100
AcDbBlockBegin
  2
*D21
 70
     1
 10
0.0
 20
0.0
 30
0.0
  3
*D21
  1

  0
LINE
  5
492F
330
3DD1
100
AcDbEntity
  8
0
 62
     0
370
    -2
100
AcDbLine
 10
45.38383216287473
 20
203.0337910364102
 30
0.0
 11
45.38383216287473
 21
207.9392317945568
 31
0.0
  0
LINE
  5
4930
330
3DD1
100
AcDbEntity
  8
0
 62
     0
370
    -2
100
AcDbLine
 10
18.13383216287474
 20
200.4357148250568
 30
0.0
 11
18.13383216287474
 21
207.9392317945568
 31
0.0
  0
LINE
  5
4931
330
3DD1
100
AcDbEntity
  8
0
 62
     0
370
    -2
100
AcDbLine
 10
43.88383216287474
 20
206.4392317945568
 30
0.0
 11
35.51003216287474
 21
206.4392317945568
 31
0.0
  0
LINE
  5
4932
330
3DD1
100
AcDbEntity
  8
0
 62
     0
370
    -2
100
AcDbLine
 10
19.63383216287474
 20
206.4392317945568
 30
0.0
 11
28.00763216287474
 21
206.4392317945568
 31
0.0
  0
SOLID
  5
4933
330
3DD1
100
AcDbEntity
  8
0
 62
     0
100
AcDbTrace
 10
43.88383216287474
 20
206.6892317945568
 30
0.0
 11
43.88383216287474
 21
206.1892317945568
 31
0.0
 12
45.38383216287473
 22
206.4392317945568
 32
0.0
 13
45.38383216287473
 23
206.4392317945568
 33
0.0
  0
SOLID
  5
4934
330
3DD1
100
AcDbEntity
  8
0
 62
     0
100
AcDbTrace
 10
19.63383216287474
 20
206.6892317945568
 30
0.0
 11
19.63383216287474
 21
206.1892317945568
 31
0.0
 12
18.13383216287474
 22
206.4392317945568
 32
0.0
 13
18.13383216287474
 23
206.4392317945568
 33
0.0
  0
MTEXT
  5
4935
330
3DD1
100
AcDbEntity
  8
0
 62
     0
100
AcDbMText
 10
31.75883216287474
 20
206.4392317945568
 30
0.0
 40
1.929599999999999
 41
0.0
 71
     5
 72
     1
  1
\A1;27"
  7
ROMANS
 73
     1
 44
1.0
1001
ACAD
1000
MTEXTBEGIN
1070
    73
1070
     1
1070
    44
1040
1.0
1070
    74
1070
     0
1000
MTEXTEND
  0
POINT
  5
4936
330
3DD1
100
AcDbEntity
  8
DEFPOINTS
 62
     0
100
AcDbPoint
 10
45.38383216287473
 20
201.5337910364102
 30
0.0
  0
POINT
  5
4937
330
3DD1
100
AcDbEntity
  8
DEFPOINTS
 62
     0
100
AcDbPoint
 10
18.13383216287474
 20
198.9357148250568
 30
0.0
  0
POINT
  5
4938
330
3DD1
100
AcDbEntity
  8
DEFPOINTS
 62
     0
100
AcDbPoint
 10
18.13383216287474
 20
206.4392317945568
 30
0.0
  0
ENDBLK
  5
3DDD
330
3DD1
100
AcDbEntity
  8
0
100
AcDbBlockEnd
  0
BLOCK
  5
3E1A
330
3E0F
100
AcDbEntity
  8
0
100
AcDbBlockBegin
  2
*D22
 70
     1
 10
0.0
 20
0.0
 30
0.0
  3
*D22
  1

  0
LINE
  5
4939
330
3E0F
100
AcDbEntity
  8
0
 62
     0
370
    -2
100
AcDbLine
 10
16.25883216287474
 20
168.9357148250568
 30
0.0
 11
8.19996918630823
 21
168.9357148250568
 31
0.0
  0
LINE
  5
493A
330
3E0F
100
AcDbEntity
  8
0
 62
     0
370
    -2
100
AcDbLine
 10
16.25883216287474
 20
198.9357148250568
 30
0.0
 11
8.199969186308237
 21
198.9357148250568
 31
0.0
  0
LINE
  5
493B
330
3E0F
100
AcDbEntity
  8
0
 62
     0
370
    -2
100
AcDbLine
 10
10.07496918630823
 20
170.8107148250568
 30
0.0
 11
10.07496918630823
 21
180.6250005393425
 31
0.0
  0
LINE
  5
493C
330
3E0F
100
AcDbEntity
  8
0
 62
     0
370
    -2
100
AcDbLine
 10
10.07496918630824
 20
197.0607148250568
 30
0.0
 11
10.07496918630823
 21
187.2464291107711
 31
0.0
  0
SOLID
  5
493D
330
3E0F
100
AcDbEntity
  8
0
 62
     0
100
AcDbTrace
 10
9.76246918630823
 20
170.8107148250568
 30
0.0
 11
10.38746918630823
 21
170.8107148250568
 31
0.0
 12
10.07496918630823
 22
168.9357148250568
 32
0.0
 13
10.07496918630823
 23
168.9357148250568
 33
0.0
  0
SOLID
  5
493E
330
3E0F
100
AcDbEntity
  8
0
 62
     0
100
AcDbTrace
 10
9.762469186308237
 20
197.0607148250568
 30
0.0
 11
10.38746918630824
 21
197.0607148250568
 31
0.0
 12
10.07496918630824
 22
198.9357148250568
 32
0.0
 13
10.07496918630824
 23
198.9357148250568
 33
0.0
  0
MTEXT
  5
493F
330
3E0F
100
AcDbEntity
  8
0
 62
     0
100
AcDbMText
 10
10.0749691863082
 20
183.9357148250568
 30
0.0
 40
2.411999999999999
 41
0.0
 71
     5
 72
     1
  1
\A1;2'-6"
  7
ROMANS
 73
     1
 44
1.0
1001
ACAD
1000
MTEXTBEGIN
1070
    73
1070
     1
1070
    44
1040
1.0
1070
    74
1070
     0
1000
MTEXTEND
  0
POINT
  5
4940
330
3E0F
100
AcDbEntity
  8
DEFPOINTS
 62
     0
100
AcDbPoint
 10
18.13383216287474
 20
168.9357148250568
 30
0.0
  0
POINT
  5
4941
330
3E0F
100
AcDbEntity
  8
DEFPOINTS
 62
     0
100
AcDbPoint
 10
18.13383216287474
 20
198.9357148250568
 30
0.0
  0
POINT
  5
4942
330
3E0F
100
AcDbEntity
  8
DEFPOINTS
 62
     0
100
AcDbPoint
 10
10.07496918630824
 20
198.9357148250568
 30
0.0
  0
ENDBLK
  5
3E1B
330
3E0F
100
AcDbEntity
  8
0
100
AcDbBlockEnd
  0
BLOCK
  5
3E40
330
3E35
100
AcDbEntity
  8
0
100
AcDbBlockBegin
  2
*D23
 70
     1
 10
0.0
 20
0.0
 30
0.0
  3
*D23
  1

  0
LINE
  5
4943
330
3E35
100
AcDbEntity
  8
0
 62
     0
370
    -2
100
AcDbLine
 10
119.9389326188639
 20
156.9357148250568
 30
0.0
 11
101.7840944655339
 21
156.9357148250568
 31
0.0
  0
LINE
  5
4944
330
3E35
100
AcDbEntity
  8
0
 62
     0
370
    -2
100
AcDbLine
 10
130.9389326188641
 20
198.9357148250568
 30
0.0
 11
101.7840944655339
 21
198.9357148250568
 31
0.0
  0
LINE
  5
4945
330
3E35
100
AcDbEntity
  8
0
 62
     0
370
    -2
100
AcDbLine
 10
103.6590944655339
 20
158.8107148250568
 30
0.0
 11
103.6590944655339
 21
174.6250005393425
 31
0.0
  0
LINE
  5
4946
330
3E35
100
AcDbEntity
  8
0
 62
     0
370
    -2
100
AcDbLine
 10
103.6590944655339
 20
197.0607148250568
 30
0.0
 11
103.6590944655339
 21
181.2464291107711
 31
0.0
  0
SOLID
  5
4947
330
3E35
100
AcDbEntity
  8
0
 62
     0
100
AcDbTrace
 10
103.3465944655339
 20
158.8107148250568
 30
0.0
 11
103.9715944655339
 21
158.8107148250568
 31
0.0
 12
103.6590944655339
 22
156.9357148250568
 32
0.0
 13
103.6590944655339
 23
156.9357148250568
 33
0.0
  0
SOLID
  5
4948
330
3E35
100
AcDbEntity
  8
0
 62
     0
100
AcDbTrace
 10
103.3465944655339
 20
197.0607148250568
 30
0.0
 11
103.9715944655339
 21
197.0607148250568
 31
0.0
 12
103.6590944655339
 22
198.9357148250568
 32
0.0
 13
103.6590944655339
 23
198.9357148250568
 33
0.0
  0
MTEXT
  5
4949
330
3E35
100
AcDbEntity
  8
0
 62
     0
100
AcDbMText
 10
103.6590944655339
 20
177.9357148250568
 30
0.0
 40
2.411999999999999
 41
0.0
 71
     5
 72
     1
  1
\A1;3'-6"
  7
ROMANS
 73
     1
 44
1.0
1001
ACAD
1000
MTEXTBEGIN
1070
    73
1070
     1
1070
    44
1040
1.0
1070
    74
1070
     0
1000
MTEXTEND
  0
POINT
  5
494A
330
3E35
100
AcDbEntity
  8
DEFPOINTS
 62
     0
100
AcDbPoint
 10
121.8139326188639
 20
156.9357148250568
 30
0.0
  0
POINT
  5
494B
330
3E35
100
AcDbEntity
  8
DEFPOINTS
 62
     0
100
AcDbPoint
 10
132.8139326188641
 20
198.9357148250568
 30
0.0
  0
POINT
  5
494C
330
3E35
100
AcDbEntity
  8
DEFPOINTS
 62
     0
100
AcDbPoint
 10
103.6590944655339
 20
198.9357148250568
 30
0.0
  0
ENDBLK
  5
3E41
330
3E35
100
AcDbEntity
  8
0
100
AcDbBlockEnd
  0
BLOCK
  5
4145
330
4144
100
AcDbEntity
  8
0
100
AcDbBlockBegin
  2
*X24
 70
     1
 10
0.0
 20
0.0
 30
0.0
  3
*X24
  1

  0
LINE
  5
4146
330
4144
100
AcDbEntity
  8
0
 62
     0
100
AcDbLine
 10
-39.38783740946116
 20
-279.4947837961181
 30
0.0
 11
-38.65407559127778
 21
-278.7610219779348
 31
0.0
  0
LINE
  5
4147
330
4144
100
AcDbEntity
  8
0
 62
     0
100
AcDbLine
 10
-39.50054631068232
 20
-279.4749101758668
 30
0.0
 11
-38.76678449249896
 21
-278.7411483576835
 31
0.0
  0
LINE
  5
4148
330
4144
100
AcDbEntity
  8
0
 62
     0
100
AcDbLine
 10
-39.61325521190351
 20
-279.4550365556156
 30
0.0
 11
-38.87949339372014
 21
-278.7212747374322
 31
0.0
  0
LINE
  5
4149
330
4144
100
AcDbEntity
  8
0
 62
     0
100
AcDbLine
 10
-39.7259641131247
 20
-279.4351629353642
 30
0.0
 11
-38.99220229494132
 21
-278.7014011171809
 31
0.0
  0
LINE
  5
414A
330
4144
100
AcDbEntity
  8
0
 62
     0
100
AcDbLine
 10
-39.83867301434587
 20
-279.415289315113
 30
0.0
 11
-39.1049111961625
 21
-278.6815274969296
 31
0.0
  0
LINE
  5
414B
330
4144
100
AcDbEntity
  8
0
 62
     0
100
AcDbLine
 10
-39.95138191556705
 20
-279.3954156948617
 30
0.0
 11
-39.21762009738368
 21
-278.6616538766783
 31
0.0
  0
LINE
  5
414C
330
4144
100
AcDbEntity
  8
0
 62
     0
100
AcDbLine
 10
-40.06409081678821
 20
-279.3755420746104
 30
0.0
 11
-39.33032899860484
 21
-278.641780256427
 31
0.0
  0
LINE
  5
414D
330
4144
100
AcDbEntity
  8
0
 62
     0
100
AcDbLine
 10
-40.1767997180094
 20
-279.3556684543591
 30
0.0
 11
-40.06372011526283
 21
-279.2425888516125
 31
0.0
  0
LINE
  5
414E
330
4144
100
AcDbEntity
  8
0
 62
     0
100
AcDbLine
 10
-39.89688315430998
 20
-279.0757518906596
 30
0.0
 11
-39.44303789982602
 21
-278.6219066361756
 31
0.0
  0
LINE
  5
414F
330
4144
100
AcDbEntity
  8
0
 62
     0
100
AcDbLine
 10
-40.06372011526283
 20
-279.2425888516125
 30
0.0
 11
-39.89688315430998
 21
-279.0757518906597
 31
0.0
  0
LINE
  5
4150
330
4144
100
AcDbEntity
  8
0
 62
     0
100
AcDbLine
 10
-40.28950861923056
 20
-279.3357948341077
 30
0.0
 11
-40.10500766087813
 21
-279.1512938757553
 31
0.0
  0
LINE
  5
4151
330
4144
100
AcDbEntity
  8
0
 62
     0
100
AcDbLine
 10
-39.94078059974761
 20
-278.9870668146248
 30
0.0
 11
-39.5557468010472
 21
-278.6020330159244
 31
0.0
  0
LINE
  5
4152
330
4144
100
AcDbEntity
  8
0
 62
     0
100
AcDbLine
 10
-40.10500766087811
 20
-279.1512938757553
 30
0.0
 11
-39.9407805997476
 21
-278.9870668146248
 31
0.0
  0
LINE
  5
4153
330
4144
100
AcDbEntity
  8
0
 62
     0
100
AcDbLine
 10
-40.36990717715883
 20
-279.2836108705636
 30
0.0
 11
-40.1462952064934
 21
-279.0599988998982
 31
0.0
  0
LINE
  5
4154
330
4144
100
AcDbEntity
  8
0
 62
     0
100
AcDbLine
 10
-39.98467804518519
 20
-278.8983817385899
 30
0.0
 11
-39.66845570226838
 21
-278.5821593956731
 31
0.0
  0
LINE
  5
4155
330
4144
100
AcDbEntity
  8
0
 62
     0
100
AcDbLine
 10
-40.14629520649338
 20
-279.0599988998981
 30
0.0
 11
-39.98467804518524
 21
-278.89838173859
 31
0.0
  0
LINE
  5
4156
330
4144
100
AcDbEntity
  8
0
 62
     0
100
AcDbLine
 10
-40.32903303677044
 20
-279.1101542087027
 30
0.0
 11
-40.18758275210868
 21
-278.968703924041
 31
0.0
  0
LINE
  5
4157
330
4144
100
AcDbEntity
  8
0
 62
     0
100
AcDbLine
 10
-40.02857549062279
 20
-278.8096966625551
 30
0.0
 11
-39.78116460348956
 21
-278.5622857754218
 31
0.0
  0
LINE
  5
4158
330
4144
100
AcDbEntity
  8
0
 62
     0
100
AcDbLine
 10
-40.18758275210866
 20
-278.9687039240409
 30
0.0
 11
-40.02857549062286
 21
-278.8096966625551
 31
0.0
  0
LINE
  5
4159
330
4144
100
AcDbEntity
  8
0
 62
     0
100
AcDbLine
 10
-40.28815889638206
 20
-278.9366975468419
 30
0.0
 11
-40.22887029772395
 21
-278.8774089481838
 31
0.0
  0
LINE
  5
415A
330
4144
100
AcDbEntity
  8
0
 62
     0
100
AcDbLine
 10
-40.07247293606041
 20
-278.7210115865202
 30
0.0
 11
-39.89387350471074
 21
-278.5424121551705
 31
0.0
  0
LINE
  5
415B
330
4144
100
AcDbEntity
  8
0
 62
     0
100
AcDbLine
 10
-40.22887029772394
 20
-278.8774089481837
 30
0.0
 11
-40.07247293606049
 21
-278.7210115865203
 31
0.0
  0
LINE
  5
415C
330
4144
100
AcDbEntity
  8
0
 62
     0
100
AcDbLine
 10
-40.27015784333923
 20
-278.7861139723266
 30
0.0
 11
-40.11637038149812
 21
-278.6323265104854
 31
0.0
  0
LINE
  5
415D
330
4144
100
AcDbEntity
  8
0
 62
     0
100
AcDbLine
 10
-40.116370381498
 20
-278.6323265104853
 30
0.0
 11
-40.00658240593192
 21
-278.5225385349192
 31
0.0
  0
LINE
  5
415E
330
4144
100
AcDbEntity
  8
0
 62
     0
100
AcDbLine
 10
-40.31144538895452
 20
-278.6948189964694
 30
0.0
 11
-40.30692854477254
 21
-278.6903021522874
 31
0.0
  0
LINE
  5
415F
330
4144
100
AcDbEntity
  8
0
 62
     0
100
AcDbLine
 10
-39.69215944246978
 20
-278.0755330499846
 30
0.0
 11
-39.59237083622737
 21
-277.9757444437422
 31
0.0
  0
LINE
  5
4160
330
4144
100
AcDbEntity
  8
0
 62
     0
100
AcDbLine
 10
-40.30692854477248
 20
-278.6903021522873
 30
0.0
 11
-40.20641061560525
 21
-278.5897842231201
 31
0.0
  0
LINE
  5
4161
330
4144
100
AcDbEntity
  8
0
 62
     0
100
AcDbLine
 10
-40.16017812122486
 20
-278.5435517287397
 30
0.0
 11
-40.11929130715309
 21
-278.5026649146679
 31
0.0
  0
LINE
  5
4162
330
4144
100
AcDbEntity
  8
0
 62
     0
100
AcDbLine
 10
-40.20466276288202
 20
-278.5880363703969
 30
0.0
 11
-40.16017812122502
 21
-278.5435517287398
 31
0.0
  0
LINE
  5
4163
330
4144
100
AcDbEntity
  8
0
 62
     0
100
AcDbLine
 10
-40.41225758634928
 20
-278.6630486723916
 30
0.0
 11
-40.23018407840633
 21
-278.4809751644487
 31
0.0
  0
LINE
  5
4164
330
4144
100
AcDbEntity
  8
0
 62
     0
100
AcDbLine
 10
-39.73691136690469
 20
-277.987702452947
 30
0.0
 11
-39.6371227606623
 21
-277.8879138467047
 31
0.0
  0
LINE
  5
4165
330
4144
100
AcDbEntity
  8
0
 62
     0
100
AcDbLine
 10
-40.23018407840633
 20
-278.4809751644486
 30
0.0
 11
-40.20259152936932
 21
-278.4533826154117
 31
0.0
  0
LINE
  5
4166
330
4144
100
AcDbEntity
  8
0
 62
     0
100
AcDbLine
 10
-40.57051962558798
 20
-278.6887281901577
 30
0.0
 11
-40.51758662792604
 21
-278.6357951924959
 31
0.0
  0
LINE
  5
4167
330
4144
100
AcDbEntity
  8
0
 62
     0
100
AcDbLine
 10
-39.78166329133961
 20
-277.8998718559094
 30
0.0
 11
-39.68187468509722
 21
-277.8000832496671
 31
0.0
  0
LINE
  5
4168
330
4144
100
AcDbEntity
  8
0
 62
     0
100
AcDbLine
 10
-40.51758662792603
 20
-278.6357951924959
 30
0.0
 11
-40.33869630383812
 21
-278.456904868408
 31
0.0
  0
LINE
  5
4169
330
4144
100
AcDbEntity
  8
0
 62
     0
100
AcDbLine
 10
-40.33869630383812
 20
-278.456904868408
 30
0.0
 11
-40.24734345380425
 21
-278.3655520183742
 31
0.0
  0
LINE
  5
416A
330
4144
100
AcDbEntity
  8
0
 62
     0
100
AcDbLine
 10
-40.84083440815077
 20
-278.8264604512481
 30
0.0
 11
-40.62291566950281
 21
-278.6085417126002
 31
0.0
  0
LINE
  5
416B
330
4144
100
AcDbEntity
  8
0
 62
     0
100
AcDbLine
 10
-39.82641521577454
 20
-277.812041258872
 30
0.0
 11
-39.72662660953214
 21
-277.7122526526295
 31
0.0
  0
LINE
  5
416C
330
4144
100
AcDbEntity
  8
0
 62
     0
100
AcDbLine
 10
-40.62291566950278
 20
-278.6085417126002
 30
0.0
 11
-40.44720852926992
 21
-278.4328345723673
 31
0.0
  0
LINE
  5
416D
330
4144
100
AcDbEntity
  8
0
 62
     0
100
AcDbLine
 10
-40.44720852926991
 20
-278.4328345723673
 30
0.0
 11
-40.29209537823916
 21
-278.2777214213366
 31
0.0
  0
LINE
  5
416E
330
4144
100
AcDbEntity
  8
0
 62
     0
100
AcDbLine
 10
-41.07098574326527
 20
-278.9240292648902
 30
0.0
 11
-40.96884180887604
 21
-278.821885330501
 31
0.0
  0
LINE
  5
416F
330
4144
100
AcDbEntity
  8
0
 62
     0
100
AcDbLine
 10
-39.87116714020946
 20
-277.7242106618344
 30
0.0
 11
-39.77137853396706
 21
-277.624422055592
 31
0.0
  0
LINE
  5
4170
330
4144
100
AcDbEntity
  8
0
 62
     0
100
AcDbLine
 10
-40.96884180887601
 20
-278.8218853305009
 30
0.0
 11
-40.72824471107957
 21
-278.5812882327045
 31
0.0
  0
LINE
  5
4171
330
4144
100
AcDbEntity
  8
0
 62
     0
100
AcDbLine
 10
-40.55572075470169
 20
-278.4087642763266
 30
0.0
 11
-40.33684730267409
 21
-278.189890824299
 31
0.0
  0
LINE
  5
4172
330
4144
100
AcDbEntity
  8
0
 62
     0
100
AcDbLine
 10
-40.72824471107958
 20
-278.5812882327045
 30
0.0
 11
-40.55572075470172
 21
-278.4087642763266
 31
0.0
  0
LINE
  5
4173
330
4144
100
AcDbEntity
  8
0
 62
     0
100
AcDbLine
 10
-41.11573766770019
 20
-278.8361986678526
 30
0.0
 11
-41.01359373331094
 21
-278.7340547334634
 31
0.0
  0
LINE
  5
4174
330
4144
100
AcDbEntity
  8
0
 62
     0
100
AcDbLine
 10
-39.91591906464438
 20
-277.6363800647968
 30
0.0
 11
-39.81613045840198
 21
-277.5365914585544
 31
0.0
  0
LINE
  5
4175
330
4144
100
AcDbEntity
  8
0
 62
     0
100
AcDbLine
 10
-41.01359373331097
 20
-278.7340547334634
 30
0.0
 11
-40.83357375265634
 21
-278.5540347528088
 31
0.0
  0
LINE
  5
4176
330
4144
100
AcDbEntity
  8
0
 62
     0
100
AcDbLine
 10
-40.66423298013347
 20
-278.3846939802859
 30
0.0
 11
-40.38159922710902
 21
-278.1020602272615
 31
0.0
  0
LINE
  5
4177
330
4144
100
AcDbEntity
  8
0
 62
     0
100
AcDbLine
 10
-40.83357375265634
 20
-278.5540347528088
 30
0.0
 11
-40.66423298013349
 21
-278.384693980286
 31
0.0
  0
LINE
  5
4178
330
4144
100
AcDbEntity
  8
0
 62
     0
100
AcDbLine
 10
-41.16048959213512
 20
-278.7483680708151
 30
0.0
 11
-41.05834565774588
 21
-278.6462241364259
 31
0.0
  0
LINE
  5
4179
330
4144
100
AcDbEntity
  8
0
 62
     0
100
AcDbLine
 10
-39.96067098907931
 20
-277.5485494677593
 30
0.0
 11
-39.86088238283691
 21
-277.4487608615169
 31
0.0
  0
LINE
  5
417A
330
4144
100
AcDbEntity
  8
0
 62
     0
100
AcDbLine
 10
-41.05834565774586
 20
-278.6462241364258
 30
0.0
 11
-40.93646758632097
 21
-278.524346065001
 31
0.0
  0
LINE
  5
417B
330
4144
100
AcDbEntity
  8
0
 62
     0
100
AcDbLine
 10
-40.77274520556526
 20
-278.3606236842452
 30
0.0
 11
-40.42635115154395
 21
-278.0142296302239
 31
0.0
  0
LINE
  5
417C
330
4144
100
AcDbEntity
  8
0
 62
     0
100
AcDbLine
 10
-40.93646758632099
 20
-278.524346065001
 30
0.0
 11
-40.77274520556528
 21
-278.3606236842453
 31
0.0
  0
LINE
  5
417D
330
4144
100
AcDbEntity
  8
0
 62
     0
100
AcDbLine
 10
-41.20524151657004
 20
-278.6605374737775
 30
0.0
 11
-41.10309758218079
 21
-278.5583935393883
 31
0.0
  0
LINE
  5
417E
330
4144
100
AcDbEntity
  8
0
 62
     0
100
AcDbLine
 10
-40.00542291351423
 20
-277.4607188707217
 30
0.0
 11
-39.90563430727183
 21
-277.3609302644794
 31
0.0
  0
LINE
  5
417F
330
4144
100
AcDbEntity
  8
0
 62
     0
100
AcDbLine
 10
-41.10309758218081
 20
-278.5583935393883
 30
0.0
 11
-40.90160135388338
 21
-278.3568973110909
 31
0.0
  0
LINE
  5
4180
330
4144
100
AcDbEntity
  8
0
 62
     0
100
AcDbLine
 10
-40.87969543086212
 20
-278.3349913880696
 30
0.0
 11
-40.47110307597886
 21
-277.9263990331864
 31
0.0
  0
LINE
  5
4181
330
4144
100
AcDbEntity
  8
0
 62
     0
100
AcDbLine
 10
-40.9016013538834
 20
-278.3568973110909
 30
0.0
 11
-40.87969543086214
 21
-278.3349913880696
 31
0.0
  0
LINE
  5
4182
330
4144
100
AcDbEntity
  8
0
 62
     0
100
AcDbLine
 10
-41.24999344100497
 20
-278.57270687674
 30
0.0
 11
-41.14784950661573
 21
-278.4705629423507
 31
0.0
  0
LINE
  5
4183
330
4144
100
AcDbEntity
  8
0
 62
     0
100
AcDbLine
 10
-40.05017483794916
 20
-277.3728882736842
 30
0.0
 11
-39.95038623170675
 21
-277.2730996674417
 31
0.0
  0
LINE
  5
4184
330
4144
100
AcDbEntity
  8
0
 62
     0
100
AcDbLine
 10
-41.14784950661571
 20
-278.4705629423507
 30
0.0
 11
-40.51585500041379
 21
-277.8385684361488
 31
0.0
  0
LINE
  5
4185
330
4144
100
AcDbEntity
  8
0
 62
     0
100
AcDbLine
 10
-40.13520989857035
 20
-277.4579233343053
 30
0.0
 11
-40.05017483794913
 21
-277.3728882736842
 31
0.0
  0
LINE
  5
4186
330
4144
100
AcDbEntity
  8
0
 62
     0
100
AcDbLine
 10
-41.29474536543989
 20
-278.4848762797024
 30
0.0
 11
-41.19260143105066
 21
-278.3827323453132
 31
0.0
  0
LINE
  5
4187
330
4144
100
AcDbEntity
  8
0
 62
     0
100
AcDbLine
 10
-40.09492676238408
 20
-277.2850576766466
 30
0.0
 11
-39.99513815614167
 21
-277.1852690704042
 31
0.0
  0
LINE
  5
4188
330
4144
100
AcDbEntity
  8
0
 62
     0
100
AcDbLine
 10
-41.19260143105065
 20
-278.3827323453131
 30
0.0
 11
-40.56060692484869
 21
-277.7507378391113
 31
0.0
  0
LINE
  5
4189
330
4144
100
AcDbEntity
  8
0
 62
     0
100
AcDbLine
 10
-40.39402495983168
 20
-277.5841558740942
 30
0.0
 11
-40.09492676238404
 21
-277.2850576766466
 31
0.0
  0
LINE
  5
418A
330
4144
100
AcDbEntity
  8
0
 62
     0
100
AcDbLine
 10
-41.3394972898748
 20
-278.3970456826649
 30
0.0
 11
-41.23735335548558
 21
-278.2949017482756
 31
0.0
  0
LINE
  5
418B
330
4144
100
AcDbEntity
  8
0
 62
     0
100
AcDbLine
 10
-40.13967868681899
 20
-277.197227079609
 30
0.0
 11
-40.0398900805766
 21
-277.0974384733666
 31
0.0
  0
LINE
  5
418C
330
4144
100
AcDbEntity
  8
0
 62
     0
100
AcDbLine
 10
-41.23735335548557
 20
-278.2949017482756
 30
0.0
 11
-40.65284002109301
 21
-277.7103884138831
 31
0.0
  0
LINE
  5
418D
330
4144
100
AcDbEntity
  8
0
 62
     0
100
AcDbLine
 10
-40.65284002109302
 20
-277.710388413883
 30
0.0
 11
-40.33209807941335
 21
-277.3896464722034
 31
0.0
  0
LINE
  5
418E
330
4144
100
AcDbEntity
  8
0
 62
     0
100
AcDbLine
 10
-41.38424921430973
 20
-278.3092150856273
 30
0.0
 11
-41.28210527992051
 21
-278.2070711512381
 31
0.0
  0
LINE
  5
418F
330
4144
100
AcDbEntity
  8
0
 62
     0
100
AcDbLine
 10
-40.18443061125393
 20
-277.1093964825715
 30
0.0
 11
-40.08464200501151
 21
-277.0096078763291
 31
0.0
  0
LINE
  5
4190
330
4144
100
AcDbEntity
  8
0
 62
     0
100
AcDbLine
 10
-41.2821052799205
 20
-278.2070711512381
 30
0.0
 11
-40.91165508235433
 21
-277.8366209536719
 31
0.0
  0
LINE
  5
4191
330
4144
100
AcDbEntity
  8
0
 62
     0
100
AcDbLine
 10
-40.91165508235427
 20
-277.8366209536719
 30
0.0
 11
-40.60241286197611
 21
-277.5273787332937
 31
0.0
  0
LINE
  5
4192
330
4144
100
AcDbEntity
  8
0
 62
     0
100
AcDbLine
 10
-41.42900113874467
 20
-278.2213844885897
 30
0.0
 11
-41.32685720435543
 21
-278.1192405542005
 31
0.0
  0
LINE
  5
4193
330
4144
100
AcDbEntity
  8
0
 62
     0
100
AcDbLine
 10
-40.22918253568884
 20
-277.0215658855339
 30
0.0
 11
-40.12939392944644
 21
-276.9217772792915
 31
0.0
  0
LINE
  5
4194
330
4144
100
AcDbEntity
  8
0
 62
     0
100
AcDbLine
 10
-41.32685720435541
 20
-278.1192405542005
 30
0.0
 11
-40.99595323982196
 21
-277.788336589667
 31
0.0
  0
LINE
  5
4195
330
4144
100
AcDbEntity
  8
0
 62
     0
100
AcDbLine
 10
-40.87272764453877
 20
-277.6651109943838
 30
0.0
 11
-40.69486269815346
 21
-277.4872460479985
 31
0.0
  0
LINE
  5
4196
330
4144
100
AcDbEntity
  8
0
 62
     0
100
AcDbLine
 10
-40.99595323982194
 20
-277.788336589667
 30
0.0
 11
-40.87272764453897
 21
-277.665110994384
 31
0.0
  0
LINE
  5
4197
330
4144
100
AcDbEntity
  8
0
 62
     0
100
AcDbLine
 10
-41.47375306317957
 20
-278.1335538915521
 30
0.0
 11
-41.37160912879036
 21
-278.031409957163
 31
0.0
  0
LINE
  5
4198
330
4144
100
AcDbEntity
  8
0
 62
     0
100
AcDbLine
 10
-40.27393446012377
 20
-276.9337352884964
 30
0.0
 11
-40.17414585388136
 21
-276.833946682254
 31
0.0
  0
LINE
  5
4199
330
4144
100
AcDbEntity
  8
0
 62
     0
100
AcDbLine
 10
-41.37160912879035
 20
-278.0314099571629
 30
0.0
 11
-40.73961462258838
 21
-277.399415450961
 31
0.0
  0
LINE
  5
419A
330
4144
100
AcDbEntity
  8
0
 62
     0
100
AcDbLine
 10
-41.51850498761451
 20
-278.0457232945146
 30
0.0
 11
-41.41636105322528
 21
-277.9435793601255
 31
0.0
  0
LINE
  5
419B
330
4144
100
AcDbEntity
  8
0
 62
     0
100
AcDbLine
 10
-40.3186863845587
 20
-276.8459046914588
 30
0.0
 11
-40.21889777831629
 21
-276.7461160852164
 31
0.0
  0
LINE
  5
419C
330
4144
100
AcDbEntity
  8
0
 62
     0
100
AcDbLine
 10
-41.41636105322527
 20
-277.9435793601254
 30
0.0
 11
-40.78436654702331
 21
-277.3115848539234
 31
0.0
  0
LINE
  5
419D
330
4144
100
AcDbEntity
  8
0
 62
     0
100
AcDbLine
 10
-41.56325691204942
 20
-277.9578926974771
 30
0.0
 11
-41.46111297766021
 21
-277.8557487630879
 31
0.0
  0
LINE
  5
419E
330
4144
100
AcDbEntity
  8
0
 62
     0
100
AcDbLine
 10
-40.36343830899361
 20
-276.7580740944213
 30
0.0
 11
-40.2636497027512
 21
-276.6582854881789
 31
0.0
  0
LINE
  5
419F
330
4144
100
AcDbEntity
  8
0
 62
     0
100
AcDbLine
 10
-41.4611129776602
 20
-277.8557487630878
 30
0.0
 11
-40.82911847145823
 21
-277.2237542568859
 31
0.0
  0
LINE
  5
41A0
330
4144
100
AcDbEntity
  8
0
 62
     0
100
AcDbLine
 10
-41.60800883648435
 20
-277.8700621004395
 30
0.0
 11
-41.50586490209513
 21
-277.7679181660503
 31
0.0
  0
LINE
  5
41A1
330
4144
100
AcDbEntity
  8
0
 62
     0
100
AcDbLine
 10
-40.40819023342854
 20
-276.6702434973837
 30
0.0
 11
-40.30840162718615
 21
-276.5704548911414
 31
0.0
  0
LINE
  5
41A2
330
4144
100
AcDbEntity
  8
0
 62
     0
100
AcDbLine
 10
-41.50586490209512
 20
-277.7679181660503
 30
0.0
 11
-40.87387039589315
 21
-277.1359236598483
 31
0.0
  0
LINE
  5
41A3
330
4144
100
AcDbEntity
  8
0
 62
     0
100
AcDbLine
 10
-41.65276076091928
 20
-277.782231503402
 30
0.0
 11
-41.55061682653006
 21
-277.6800875690128
 31
0.0
  0
LINE
  5
41A4
330
4144
100
AcDbEntity
  8
0
 62
     0
100
AcDbLine
 10
-40.45294215786347
 20
-276.5824129003462
 30
0.0
 11
-40.35315355162107
 21
-276.4826242941037
 31
0.0
  0
LINE
  5
41A5
330
4144
100
AcDbEntity
  8
0
 62
     0
100
AcDbLine
 10
-41.55061682653004
 20
-277.6800875690128
 30
0.0
 11
-40.91862232032808
 21
-277.0480930628108
 31
0.0
  0
LINE
  5
41A6
330
4144
100
AcDbEntity
  8
0
 62
     0
100
AcDbLine
 10
-41.6975126853542
 20
-277.6944009063644
 30
0.0
 11
-41.59536875096497
 21
-277.5922569719752
 31
0.0
  0
LINE
  5
41A7
330
4144
100
AcDbEntity
  8
0
 62
     0
100
AcDbLine
 10
-40.49769408229838
 20
-276.4945823033086
 30
0.0
 11
-40.39790547605599
 21
-276.3947936970662
 31
0.0
  0
LINE
  5
41A8
330
4144
100
AcDbEntity
  8
0
 62
     0
100
AcDbLine
 10
-41.59536875096496
 20
-277.5922569719751
 30
0.0
 11
-40.963374244763
 21
-276.9602624657732
 31
0.0
  0
LINE
  5
41A9
330
4144
100
AcDbEntity
  8
0
 62
     0
100
AcDbLine
 10
-41.74226460978912
 20
-277.6065703093268
 30
0.0
 11
-41.6401206753999
 21
-277.5044263749377
 31
0.0
  0
LINE
  5
41AA
330
4144
100
AcDbEntity
  8
0
 62
     0
100
AcDbLine
 10
-40.54244600673332
 20
-276.4067517062711
 30
0.0
 11
-40.44265740049091
 21
-276.3069631000287
 31
0.0
  0
LINE
  5
41AB
330
4144
100
AcDbEntity
  8
0
 62
     0
100
AcDbLine
 10
-41.64012067539989
 20
-277.5044263749376
 30
0.0
 11
-41.00812616919793
 21
-276.8724318687357
 31
0.0
  0
LINE
  5
41AC
330
4144
100
AcDbEntity
  8
0
 62
     0
100
AcDbLine
 10
-41.78701653422404
 20
-277.5187397122893
 30
0.0
 11
-41.68487259983481
 21
-277.4165957779001
 31
0.0
  0
LINE
  5
41AD
330
4144
100
AcDbEntity
  8
0
 62
     0
100
AcDbLine
 10
-40.58719793116824
 20
-276.3189211092335
 30
0.0
 11
-40.48740932492584
 21
-276.2191325029911
 31
0.0
  0
LINE
  5
41AE
330
4144
100
AcDbEntity
  8
0
 62
     0
100
AcDbLine
 10
-41.68487259983482
 20
-277.4165957779001
 30
0.0
 11
-41.05287809363285
 21
-276.7846012716981
 31
0.0
  0
LINE
  5
41AF
330
4144
100
AcDbEntity
  8
0
 62
     0
100
AcDbLine
 10
-41.83176845865896
 20
-277.4309091152518
 30
0.0
 11
-41.72962452426975
 21
-277.3287651808626
 31
0.0
  0
LINE
  5
41B0
330
4144
100
AcDbEntity
  8
0
 62
     0
100
AcDbLine
 10
-40.63194985560315
 20
-276.2310905121959
 30
0.0
 11
-40.53216124936076
 21
-276.1313019059535
 31
0.0
  0
LINE
  5
41B1
330
4144
100
AcDbEntity
  8
0
 62
     0
100
AcDbLine
 10
-41.72962452426975
 20
-277.3287651808625
 30
0.0
 11
-41.09763001806778
 21
-276.6967706746606
 31
0.0
  0
LINE
  5
41B2
330
4144
100
AcDbEntity
  8
0
 62
     0
100
AcDbLine
 10
-41.8765203830939
 20
-277.3430785182142
 30
0.0
 11
-41.77437644870467
 21
-277.240934583825
 31
0.0
  0
LINE
  5
41B3
330
4144
100
AcDbEntity
  8
0
 62
     0
100
AcDbLine
 10
-40.67670178003808
 20
-276.1432599151584
 30
0.0
 11
-40.57691317379568
 21
-276.043471308916
 31
0.0
  0
LINE
  5
41B4
330
4144
100
AcDbEntity
  8
0
 62
     0
100
AcDbLine
 10
-41.77437644870467
 20
-277.240934583825
 30
0.0
 11
-41.1423819425027
 21
-276.608940077623
 31
0.0
  0
LINE
  5
41B5
330
4144
100
AcDbEntity
  8
0
 62
     0
100
AcDbLine
 10
-41.92127230752881
 20
-277.2552479211766
 30
0.0
 11
-41.8191283731396
 21
-277.1531039867875
 31
0.0
  0
LINE
  5
41B6
330
4144
100
AcDbEntity
  8
0
 62
     0
100
AcDbLine
 10
-40.72145370447301
 20
-276.0554293181209
 30
0.0
 11
-40.6216650982306
 21
-275.9556407118785
 31
0.0
  0
LINE
  5
41B7
330
4144
100
AcDbEntity
  8
0
 62
     0
100
AcDbLine
 10
-41.81912837313959
 20
-277.1531039867874
 30
0.0
 11
-41.18713386693762
 21
-276.5211094805855
 31
0.0
  0
LINE
  5
41B8
330
4144
100
AcDbEntity
  8
0
 62
     0
100
AcDbLine
 10
-41.96602423196374
 20
-277.1674173241391
 30
0.0
 11
-41.86388029757452
 21
-277.0652733897499
 31
0.0
  0
LINE
  5
41B9
330
4144
100
AcDbEntity
  8
0
 62
     0
100
AcDbLine
 10
-35.8061910555824
 20
-271.0075841477578
 30
0.0
 11
-35.70443277119299
 21
-270.9058258633683
 31
0.0
  0
LINE
  5
41BA
330
4144
100
AcDbEntity
  8
0
 62
     0
100
AcDbLine
 10
-41.86388029757451
 20
-277.0652733897498
 30
0.0
 11
-41.23188579137255
 21
-276.4332788835479
 31
0.0
  0
LINE
  5
41BB
330
4144
100
AcDbEntity
  8
0
 62
     0
100
AcDbLine
 10
-40.76620562890794
 20
-275.9675987210833
 30
0.0
 11
-40.66641702266553
 21
-275.8678101148409
 31
0.0
  0
LINE
  5
41BC
330
4144
100
AcDbEntity
  8
0
 62
     0
100
AcDbLine
 10
-42.01077615639866
 20
-277.0795867271015
 30
0.0
 11
-41.90863222200944
 21
-276.9774427927123
 31
0.0
  0
LINE
  5
41BD
330
4144
100
AcDbEntity
  8
0
 62
     0
100
AcDbLine
 10
-35.93877357705487
 20
-271.0075841477578
 30
0.0
 11
-35.70443277119299
 21
-270.7732433418959
 31
0.0
  0
LINE
  5
41BE
330
4144
100
AcDbEntity
  8
0
 62
     0
100
AcDbLine
 10
-41.90863222200944
 20
-276.9774427927123
 30
0.0
 11
-41.27663771580747
 21
-276.3454482865104
 31
0.0
  0
LINE
  5
41BF
330
4144
100
AcDbEntity
  8
0
 62
     0
100
AcDbLine
 10
-40.81095755334286
 20
-275.8797681240458
 30
0.0
 11
-40.71116894710044
 21
-275.7799795178034
 31
0.0
  0
LINE
  5
41C0
330
4144
100
AcDbEntity
  8
0
 62
     0
100
AcDbLine
 10
-42.05552808083359
 20
-276.991756130064
 30
0.0
 11
-41.95338414644437
 21
-276.8896121956748
 31
0.0
  0
LINE
  5
41C1
330
4144
100
AcDbEntity
  8
0
 62
     0
100
AcDbLine
 10
-36.07135609852736
 20
-271.0075841477578
 30
0.0
 11
-35.70443277119299
 21
-270.6406608204234
 31
0.0
  0
LINE
  5
41C2
330
4144
100
AcDbEntity
  8
0
 62
     0
100
AcDbLine
 10
-41.95338414644437
 20
-276.8896121956748
 30
0.0
 11
-41.32138964024239
 21
-276.2576176894728
 31
0.0
  0
LINE
  5
41C3
330
4144
100
AcDbEntity
  8
0
 62
     0
100
AcDbLine
 10
-40.85570947777777
 20
-275.7919375270082
 30
0.0
 11
-40.75592087153537
 21
-275.6921489207658
 31
0.0
  0
LINE
  5
41C4
330
4144
100
AcDbEntity
  8
0
 62
     0
100
AcDbLine
 10
-42.10028000526851
 20
-276.9039255330264
 30
0.0
 11
-41.99813607087929
 21
-276.8017815986373
 31
0.0
  0
LINE
  5
41C5
330
4144
100
AcDbEntity
  8
0
 62
     0
100
AcDbLine
 10
-36.20393861999985
 20
-271.0075841477578
 30
0.0
 11
-35.70443277119299
 21
-270.5080782989509
 31
0.0
  0
LINE
  5
41C6
330
4144
100
AcDbEntity
  8
0
 62
     0
100
AcDbLine
 10
-41.99813607087929
 20
-276.8017815986372
 30
0.0
 11
-41.36614156467731
 21
-276.1697870924352
 31
0.0
  0
LINE
  5
41C7
330
4144
100
AcDbEntity
  8
0
 62
     0
100
AcDbLine
 10
-40.90046140221271
 20
-275.7041069299706
 30
0.0
 11
-40.80067279597029
 21
-275.6043183237283
 31
0.0
  0
LINE
  5
41C8
330
4144
100
AcDbEntity
  8
0
 62
     0
100
AcDbLine
 10
-42.14503192970343
 20
-276.8160949359889
 30
0.0
 11
-42.04288799531422
 21
-276.7139510015997
 31
0.0
  0
LINE
  5
41C9
330
4144
100
AcDbEntity
  8
0
 62
     0
100
AcDbLine
 10
-36.33652114147233
 20
-271.0075841477578
 30
0.0
 11
-35.70443277119299
 21
-270.3754957774785
 31
0.0
  0
LINE
  5
41CA
330
4144
100
AcDbEntity
  8
0
 62
     0
100
AcDbLine
 10
-42.04288799531422
 20
-276.7139510015996
 30
0.0
 11
-41.41089348911224
 21
-276.0819564953977
 31
0.0
  0
LINE
  5
41CB
330
4144
100
AcDbEntity
  8
0
 62
     0
100
AcDbLine
 10
-40.94521332664762
 20
-275.6162763329331
 30
0.0
 11
-40.84542472040522
 21
-275.5164877266907
 31
0.0
  0
LINE
  5
41CC
330
4144
100
AcDbEntity
  8
0
 62
     0
100
AcDbLine
 10
-42.18978385413836
 20
-276.7282643389513
 30
0.0
 11
-42.08763991974914
 21
-276.6261204045621
 31
0.0
  0
LINE
  5
41CD
330
4144
100
AcDbEntity
  8
0
 62
     0
100
AcDbLine
 10
-36.46910366294478
 20
-271.0075841477578
 30
0.0
 11
-35.70443277119299
 21
-270.242913256006
 31
0.0
  0
LINE
  5
41CE
330
4144
100
AcDbEntity
  8
0
 62
     0
100
AcDbLine
 10
-42.08763991974914
 20
-276.6261204045621
 30
0.0
 11
-41.45564541354717
 21
-275.9941258983601
 31
0.0
  0
LINE
  5
41CF
330
4144
100
AcDbEntity
  8
0
 62
     0
100
AcDbLine
 10
-40.98996525108254
 20
-275.5284457358955
 30
0.0
 11
-40.89017664484013
 21
-275.4286571296531
 31
0.0
  0
LINE
  5
41D0
330
4144
100
AcDbEntity
  8
0
 62
     0
100
AcDbLine
 10
-42.23453577857329
 20
-276.6404337419138
 30
0.0
 11
-42.13239184418406
 21
-276.5382898075245
 31
0.0
  0
LINE
  5
41D1
330
4144
100
AcDbEntity
  8
0
 62
     0
100
AcDbLine
 10
-36.60168618441726
 20
-271.0075841477578
 30
0.0
 11
-35.7069169949642
 21
-270.1128149583047
 31
0.0
  0
LINE
  5
41D2
330
4144
100
AcDbEntity
  8
0
 62
     0
100
AcDbLine
 10
-42.13239184418408
 20
-276.5382898075245
 30
0.0
 11
-41.50039733798208
 21
-275.9062953013226
 31
0.0
  0
LINE
  5
41D3
330
4144
100
AcDbEntity
  8
0
 62
     0
100
AcDbLine
 10
-41.03471717551747
 20
-275.4406151388579
 30
0.0
 11
-40.93492856927506
 21
-275.3408265326156
 31
0.0
  0
LINE
  5
41D4
330
4144
100
AcDbEntity
  8
0
 62
     0
100
AcDbLine
 10
-42.2792877030082
 20
-276.5526031448762
 30
0.0
 11
-42.17714376861898
 21
-276.450459210487
 31
0.0
  0
LINE
  5
41D5
330
4144
100
AcDbEntity
  8
0
 62
     0
100
AcDbLine
 10
-36.73426870588975
 20
-271.0075841477578
 30
0.0
 11
-35.83949951643669
 21
-270.1128149583047
 31
0.0
  0
LINE
  5
41D6
330
4144
100
AcDbEntity
  8
0
 62
     0
100
AcDbLine
 10
-42.17714376861898
 20
-276.450459210487
 30
0.0
 11
-41.54514926241701
 21
-275.818464704285
 31
0.0
  0
LINE
  5
41D7
330
4144
100
AcDbEntity
  8
0
 62
     0
100
AcDbLine
 10
-41.0794690999524
 20
-275.3527845418204
 30
0.0
 11
-40.97968049370998
 21
-275.2529959355781
 31
0.0
  0
LINE
  5
41D8
330
4144
100
AcDbEntity
  8
0
 62
     0
100
AcDbLine
 10
-42.32403962744313
 20
-276.4647725478386
 30
0.0
 11
-42.22189569305391
 21
-276.3626286134495
 31
0.0
  0
LINE
  5
41D9
330
4144
100
AcDbEntity
  8
0
 62
     0
100
AcDbLine
 10
-36.86685122736224
 20
-271.0075841477578
 30
0.0
 11
-35.97208203790917
 21
-270.1128149583047
 31
0.0
  0
LINE
  5
41DA
330
4144
100
AcDbEntity
  8
0
 62
     0
100
AcDbLine
 10
-42.22189569305391
 20
-276.3626286134494
 30
0.0
 11
-41.58990118685194
 21
-275.7306341072474
 31
0.0
  0
LINE
  5
41DB
330
4144
100
AcDbEntity
  8
0
 62
     0
100
AcDbLine
 10
-41.12422102438733
 20
-275.2649539447828
 30
0.0
 11
-41.02443241814492
 21
-275.1651653385405
 31
0.0
  0
LINE
  5
41DC
330
4144
100
AcDbEntity
  8
0
 62
     0
100
AcDbLine
 10
-42.36879155187804
 20
-276.3769419508011
 30
0.0
 11
-42.2684645752521
 21
-276.2766149741751
 31
0.0
  0
LINE
  5
41DD
330
4144
100
AcDbEntity
  8
0
 62
     0
100
AcDbLine
 10
-36.99943374883472
 20
-271.0075841477578
 30
0.0
 11
-36.10466455938166
 21
-270.1128149583047
 31
0.0
  0
LINE
  5
41DE
330
4144
100
AcDbEntity
  8
0
 62
     0
100
AcDbLine
 10
-42.26664761748884
 20
-276.2747980164119
 30
0.0
 11
-42.19792528481469
 21
-276.2060756837377
 31
0.0
  0
LINE
  5
41DF
330
4144
100
AcDbEntity
  8
0
 62
     0
100
AcDbLine
 10
-41.16897294882225
 20
-275.1771233477454
 30
0.0
 11
-41.06918434257984
 21
-275.0773347415029
 31
0.0
  0
LINE
  5
41E0
330
4144
100
AcDbEntity
  8
0
 62
     0
100
AcDbLine
 10
-42.1979252848146
 20
-276.2060756837377
 30
0.0
 11
-42.10043854447298
 21
-276.108588943396
 31
0.0
  0
LINE
  5
41E1
330
4144
100
AcDbEntity
  8
0
 62
     0
100
AcDbLine
 10
-41.99598251496389
 20
-276.004132913887
 30
0.0
 11
-41.63465311128686
 21
-275.6428035102099
 31
0.0
  0
LINE
  5
41E2
330
4144
100
AcDbEntity
  8
0
 62
     0
100
AcDbLine
 10
-42.10043854447292
 20
-276.1085889433959
 30
0.0
 11
-42.09566753742882
 21
-276.1038179363519
 31
0.0
  0
LINE
  5
41E3
330
4144
100
AcDbEntity
  8
0
 62
     0
100
AcDbLine
 10
-42.09566753742871
 20
-276.1038179363518
 30
0.0
 11
-41.99598251496389
 21
-276.004132913887
 31
0.0
  0
LINE
  5
41E4
330
4144
100
AcDbEntity
  8
0
 62
     0
100
AcDbLine
 10
-42.41354347631298
 20
-276.2891113537635
 30
0.0
 11
-42.31321649968703
 21
-276.1887843771376
 31
0.0
  0
LINE
  5
41E5
330
4144
100
AcDbEntity
  8
0
 62
     0
100
AcDbLine
 10
-37.13201627030717
 20
-271.0075841477578
 30
0.0
 11
-36.23724708085414
 21
-270.1128149583047
 31
0.0
  0
LINE
  5
41E6
330
4144
100
AcDbEntity
  8
0
 62
     0
100
AcDbLine
 10
-42.31139954192374
 20
-276.1869674193743
 30
0.0
 11
-42.1892754338011
 21
-276.0648433112517
 31
0.0
  0
LINE
  5
41E7
330
4144
100
AcDbEntity
  8
0
 62
     0
100
AcDbLine
 10
-41.21372487325716
 20
-275.0892927507078
 30
0.0
 11
-41.11393626701477
 21
-274.9895041444653
 31
0.0
  0
LINE
  5
41E8
330
4144
100
AcDbEntity
  8
0
 62
     0
100
AcDbLine
 10
-42.18927543380108
 20
-276.0648433112517
 30
0.0
 11
-42.14458912338753
 21
-276.0201570008381
 31
0.0
  0
LINE
  5
41E9
330
4144
100
AcDbEntity
  8
0
 62
     0
100
AcDbLine
 10
-41.96714156490001
 20
-275.8427094423506
 30
0.0
 11
-41.67940503572178
 21
-275.5549729131724
 31
0.0
  0
LINE
  5
41EA
330
4144
100
AcDbEntity
  8
0
 62
     0
100
AcDbLine
 10
-42.11450619999326
 20
-275.9900740774438
 30
0.0
 11
-41.96714156489998
 21
-275.8427094423506
 31
0.0
  0
LINE
  5
41EB
330
4144
100
AcDbEntity
  8
0
 62
     0
100
AcDbLine
 10
-42.4582954007479
 20
-276.201280756726
 30
0.0
 11
-42.35796842412195
 21
-276.1009537801001
 31
0.0
  0
LINE
  5
41EC
330
4144
100
AcDbEntity
  8
0
 62
     0
100
AcDbLine
 10
-37.26459879177965
 20
-271.0075841477578
 30
0.0
 11
-36.36982960232659
 21
-270.1128149583047
 31
0.0
  0
LINE
  5
41ED
330
4144
100
AcDbEntity
  8
0
 62
     0
100
AcDbLine
 10
-42.35615146635868
 20
-276.0991368223368
 30
0.0
 11
-42.27628628029851
 21
-276.0192716362766
 31
0.0
  0
LINE
  5
41EE
330
4144
100
AcDbEntity
  8
0
 62
     0
100
AcDbLine
 10
-41.2584767976921
 20
-275.0014621536702
 30
0.0
 11
-41.15868819144969
 21
-274.9016735474278
 31
0.0
  0
LINE
  5
41EF
330
4144
100
AcDbEntity
  8
0
 62
     0
100
AcDbLine
 10
-42.27628628029848
 20
-276.0192716362765
 30
0.0
 11
-41.83861559237119
 21
-275.5816009483493
 31
0.0
  0
LINE
  5
41F0
330
4144
100
AcDbEntity
  8
0
 62
     0
100
AcDbLine
 10
-41.83861559237118
 20
-275.5816009483492
 30
0.0
 11
-41.72415696015671
 21
-275.4671423161348
 31
0.0
  0
LINE
  5
41F1
330
4144
100
AcDbEntity
  8
0
 62
     0
100
AcDbLine
 10
-42.50304732518282
 20
-276.1134501596885
 30
0.0
 11
-42.40272034855689
 21
-276.0131231830625
 31
0.0
  0
LINE
  5
41F2
330
4144
100
AcDbEntity
  8
0
 62
     0
100
AcDbLine
 10
-37.39718131325214
 20
-271.0075841477578
 30
0.0
 11
-36.50241212379908
 21
-270.1128149583047
 31
0.0
  0
LINE
  5
41F3
330
4144
100
AcDbEntity
  8
0
 62
     0
100
AcDbLine
 10
-42.4009033907936
 20
-276.0113062252992
 30
0.0
 11
-42.19714334742477
 21
-275.8075461819304
 31
0.0
  0
LINE
  5
41F4
330
4144
100
AcDbEntity
  8
0
 62
     0
100
AcDbLine
 10
-41.30322872212701
 20
-274.9136315566326
 30
0.0
 11
-41.20344011588461
 21
-274.8138429503903
 31
0.0
  0
LINE
  5
41F5
330
4144
100
AcDbEntity
  8
0
 62
     0
100
AcDbLine
 10
-42.19714334742469
 20
-275.8075461819303
 30
0.0
 11
-42.14776030776967
 21
-275.7581631422754
 31
0.0
  0
LINE
  5
41F6
330
4144
100
AcDbEntity
  8
0
 62
     0
100
AcDbLine
 10
-42.14776030776969
 20
-275.7581631422754
 30
0.0
 11
-41.71008961984234
 21
-275.320492454348
 31
0.0
  0
LINE
  5
41F7
330
4144
100
AcDbEntity
  8
0
 62
     0
100
AcDbLine
 10
-42.54779924961775
 20
-276.0256195626509
 30
0.0
 11
-42.44747227299181
 21
-275.925292586025
 31
0.0
  0
LINE
  5
41F8
330
4144
100
AcDbEntity
  8
0
 62
     0
100
AcDbLine
 10
-37.52976383472462
 20
-271.0075841477578
 30
0.0
 11
-36.63499464527156
 21
-270.1128149583047
 31
0.0
  0
LINE
  5
41F9
330
4144
100
AcDbEntity
  8
0
 62
     0
100
AcDbLine
 10
-42.44565531522854
 20
-275.9234756282617
 30
0.0
 11
-42.01923433524084
 21
-275.497054648274
 31
0.0
  0
LINE
  5
41FA
330
4144
100
AcDbEntity
  8
0
 62
     0
100
AcDbLine
 10
-41.34798064656194
 20
-274.8258009595951
 30
0.0
 11
-41.24819204031953
 21
-274.7260123533527
 31
0.0
  0
LINE
  5
41FB
330
4144
100
AcDbEntity
  8
0
 62
     0
100
AcDbLine
 10
-42.01923433524087
 20
-275.497054648274
 30
0.0
 11
-41.58156364731355
 21
-275.0593839603467
 31
0.0
  0
LINE
  5
41FC
330
4144
100
AcDbEntity
  8
0
 62
     0
100
AcDbLine
 10
-42.59255117405266
 20
-275.9377889656133
 30
0.0
 11
-42.49040723966347
 21
-275.8356450312241
 31
0.0
  0
LINE
  5
41FD
330
4144
100
AcDbEntity
  8
0
 62
     0
100
AcDbLine
 10
-37.6623463561971
 20
-271.0075841477578
 30
0.0
 11
-36.76757716674404
 21
-270.1128149583047
 31
0.0
  0
LINE
  5
41FE
330
4144
100
AcDbEntity
  8
0
 62
     0
100
AcDbLine
 10
-42.49040723966347
 20
-275.8356450312241
 30
0.0
 11
-41.89070836271205
 21
-275.2359461542728
 31
0.0
  0
LINE
  5
41FF
330
4144
100
AcDbEntity
  8
0
 62
     0
100
AcDbLine
 10
-41.39273257099687
 20
-274.7379703625575
 30
0.0
 11
-41.29294396475446
 21
-274.6381817563151
 31
0.0
  0
LINE
  5
4200
330
4144
100
AcDbEntity
  8
0
 62
     0
100
AcDbLine
 10
-41.89070836271203
 20
-275.2359461542727
 30
0.0
 11
-41.45303767478471
 21
-274.7982754663454
 31
0.0
  0
LINE
  5
4201
330
4144
100
AcDbEntity
  8
0
 62
     0
100
AcDbLine
 10
-42.63730309848759
 20
-275.8499583685758
 30
0.0
 11
-42.53515916409838
 21
-275.7478144341866
 31
0.0
  0
LINE
  5
4202
330
4144
100
AcDbEntity
  8
0
 62
     0
100
AcDbLine
 10
-37.79492887766956
 20
-271.0075841477578
 30
0.0
 11
-36.90015968821653
 21
-270.1128149583047
 31
0.0
  0
LINE
  5
4203
330
4144
100
AcDbEntity
  8
0
 62
     0
100
AcDbLine
 10
-42.53515916409839
 20
-275.7478144341866
 30
0.0
 11
-41.90316465789641
 21
-275.1158199279846
 31
0.0
  0
LINE
  5
4204
330
4144
100
AcDbEntity
  8
0
 62
     0
100
AcDbLine
 10
-41.76218239018321
 20
-274.9748376602715
 30
0.0
 11
-41.32451170225591
 21
-274.5371669723441
 31
0.0
  0
LINE
  5
4205
330
4144
100
AcDbEntity
  8
0
 62
     0
100
AcDbLine
 10
-42.68205502292253
 20
-275.7621277715383
 30
0.0
 11
-42.57991108853331
 21
-275.6599838371491
 31
0.0
  0
LINE
  5
4206
330
4144
100
AcDbEntity
  8
0
 62
     0
100
AcDbLine
 10
-37.92751139914204
 20
-271.0075841477578
 30
0.0
 11
-37.03274220968898
 21
-270.1128149583047
 31
0.0
  0
LINE
  5
4207
330
4144
100
AcDbEntity
  8
0
 62
     0
100
AcDbLine
 10
-42.57991108853332
 20
-275.659983837149
 30
0.0
 11
-41.94791658233133
 21
-275.027989330947
 31
0.0
  0
LINE
  5
4208
330
4144
100
AcDbEntity
  8
0
 62
     0
100
AcDbLine
 10
-41.63365641765442
 20
-274.7137291662701
 30
0.0
 11
-41.19598572972707
 21
-274.2760584783428
 31
0.0
  0
LINE
  5
4209
330
4144
100
AcDbEntity
  8
0
 62
     0
100
AcDbLine
 10
-42.72680694735743
 20
-275.6742971745007
 30
0.0
 11
-42.62466301296824
 21
-275.5721532401115
 31
0.0
  0
LINE
  5
420A
330
4144
100
AcDbEntity
  8
0
 62
     0
100
AcDbLine
 10
-38.06009392061452
 20
-271.0075841477578
 30
0.0
 11
-37.16532473116146
 21
-270.1128149583047
 31
0.0
  0
LINE
  5
420B
330
4144
100
AcDbEntity
  8
0
 62
     0
100
AcDbLine
 10
-42.62466301296824
 20
-275.5721532401115
 30
0.0
 11
-41.99266850676624
 21
-274.9401587339095
 31
0.0
  0
LINE
  5
420C
330
4144
100
AcDbEntity
  8
0
 62
     0
100
AcDbLine
 10
-41.24320808781802
 20
-274.1906983149613
 30
0.0
 11
-41.16028905131896
 21
-274.1077792784622
 31
0.0
  0
LINE
  5
420D
330
4144
100
AcDbEntity
  8
0
 62
     0
100
AcDbLine
 10
-41.52698834430164
 20
-274.4744785714449
 30
0.0
 11
-41.50513044512558
 21
-274.4526206722688
 31
0.0
  0
LINE
  5
420E
330
4144
100
AcDbEntity
  8
0
 62
     0
100
AcDbLine
 10
-41.2918472873847
 20
-274.2393375145279
 30
0.0
 11
-41.26594175883485
 21
-274.2134319859781
 31
0.0
  0
LINE
  5
420F
330
4144
100
AcDbEntity
  8
0
 62
     0
100
AcDbLine
 10
-41.50513044512556
 20
-274.4526206722688
 30
0.0
 11
-41.29184728738475
 21
-274.239337514528
 31
0.0
  0
LINE
  5
4210
330
4144
100
AcDbEntity
  8
0
 62
     0
100
AcDbLine
 10
-42.77155887179236
 20
-275.5864665774631
 30
0.0
 11
-42.66941493740316
 21
-275.484322643074
 31
0.0
  0
LINE
  5
4211
330
4144
100
AcDbEntity
  8
0
 62
     0
100
AcDbLine
 10
-38.192676442087
 20
-271.0075841477578
 30
0.0
 11
-37.29790725263395
 21
-270.1128149583047
 31
0.0
  0
LINE
  5
4212
330
4144
100
AcDbEntity
  8
0
 62
     0
100
AcDbLine
 10
-42.66941493740316
 20
-275.484322643074
 30
0.0
 11
-42.03742043120118
 21
-274.8523281368719
 31
0.0
  0
LINE
  5
4213
330
4144
100
AcDbEntity
  8
0
 62
     0
100
AcDbLine
 10
-41.39132135807054
 20
-274.2062290637413
 30
0.0
 11
-41.15044255176923
 21
-273.96535025744
 31
0.0
  0
LINE
  5
4214
330
4144
100
AcDbEntity
  8
0
 62
     0
100
AcDbLine
 10
-41.57174026873658
 20
-274.3866479744074
 30
0.0
 11
-41.47195166249413
 21
-274.2868593681649
 31
0.0
  0
LINE
  5
4215
330
4144
100
AcDbEntity
  8
0
 62
     0
100
AcDbLine
 10
-42.81631079622728
 20
-275.4986359804255
 30
0.0
 11
-42.71416686183809
 21
-275.3964920460364
 31
0.0
  0
LINE
  5
4216
330
4144
100
AcDbEntity
  8
0
 62
     0
100
AcDbLine
 10
-38.32525896355949
 20
-271.0075841477578
 30
0.0
 11
-37.43048977410643
 21
-270.1128149583047
 31
0.0
  0
LINE
  5
4217
330
4144
100
AcDbEntity
  8
0
 62
     0
100
AcDbLine
 10
-42.71416686183809
 20
-275.3964920460364
 30
0.0
 11
-42.0821723556361
 21
-274.7644975398344
 31
0.0
  0
LINE
  5
4218
330
4144
100
AcDbEntity
  8
0
 62
     0
100
AcDbLine
 10
-41.3814748585208
 20
-274.0638000427191
 30
0.0
 11
-41.1405960522195
 21
-273.8229212364178
 31
0.0
  0
LINE
  5
4219
330
4144
100
AcDbEntity
  8
0
 62
     0
100
AcDbLine
 10
-41.6164921931715
 20
-274.2988173773698
 30
0.0
 11
-41.51670358692905
 21
-274.1990287711273
 31
0.0
  0
LINE
  5
421A
330
4144
100
AcDbEntity
  8
0
 62
     0
100
AcDbLine
 10
-42.86106272066221
 20
-275.410805383388
 30
0.0
 11
-42.75891878627302
 21
-275.3086614489988
 31
0.0
  0
LINE
  5
421B
330
4144
100
AcDbEntity
  8
0
 62
     0
100
AcDbLine
 10
-38.45784148503194
 20
-271.0075841477578
 30
0.0
 11
-37.56307229557891
 21
-270.1128149583047
 31
0.0
  0
LINE
  5
421C
330
4144
100
AcDbEntity
  8
0
 62
     0
100
AcDbLine
 10
-42.75891878627301
 20
-275.3086614489988
 30
0.0
 11
-42.12692428007102
 21
-274.6766669427968
 31
0.0
  0
LINE
  5
421D
330
4144
100
AcDbEntity
  8
0
 62
     0
100
AcDbLine
 10
-41.37162835897107
 20
-273.9213710216969
 30
0.0
 11
-41.13074955266977
 21
-273.6804922153956
 31
0.0
  0
LINE
  5
421E
330
4144
100
AcDbEntity
  8
0
 62
     0
100
AcDbLine
 10
-41.66124411760642
 20
-274.2109867803322
 30
0.0
 11
-41.56145551136398
 21
-274.1111981740898
 31
0.0
  0
LINE
  5
421F
330
4144
100
AcDbEntity
  8
0
 62
     0
100
AcDbLine
 10
-42.90581464509713
 20
-275.3229747863504
 30
0.0
 11
-42.80367071070794
 21
-275.2208308519613
 31
0.0
  0
LINE
  5
4220
330
4144
100
AcDbEntity
  8
0
 62
     0
100
AcDbLine
 10
-38.59042400650442
 20
-271.0075841477578
 30
0.0
 11
-37.69565481705136
 21
-270.1128149583047
 31
0.0
  0
LINE
  5
4221
330
4144
100
AcDbEntity
  8
0
 62
     0
100
AcDbLine
 10
-42.80367071070794
 20
-275.2208308519613
 30
0.0
 11
-42.17167620450595
 21
-274.5888363457593
 31
0.0
  0
LINE
  5
4222
330
4144
100
AcDbEntity
  8
0
 62
     0
100
AcDbLine
 10
-41.36178185942134
 20
-273.7789420006746
 30
0.0
 11
-41.12090305312004
 21
-273.5380631943733
 31
0.0
  0
LINE
  5
4223
330
4144
100
AcDbEntity
  8
0
 62
     0
100
AcDbLine
 10
-41.70599604204134
 20
-274.1231561832947
 30
0.0
 11
-41.60620743579889
 21
-274.0233675770522
 31
0.0
  0
LINE
  5
4224
330
4144
100
AcDbEntity
  8
0
 62
     0
100
AcDbLine
 10
-42.95056656953206
 20
-275.2351441893129
 30
0.0
 11
-42.84842263514287
 21
-275.1330002549237
 31
0.0
  0
LINE
  5
4225
330
4144
100
AcDbEntity
  8
0
 62
     0
100
AcDbLine
 10
-38.72300652797691
 20
-271.0075841477578
 30
0.0
 11
-37.82823733852385
 21
-270.1128149583047
 31
0.0
  0
LINE
  5
4226
330
4144
100
AcDbEntity
  8
0
 62
     0
100
AcDbLine
 10
-42.84842263514287
 20
-275.1330002549237
 30
0.0
 11
-42.21642812894087
 21
-274.5010057487217
 31
0.0
  0
LINE
  5
4227
330
4144
100
AcDbEntity
  8
0
 62
     0
100
AcDbLine
 10
-41.35193535987162
 20
-273.6365129796524
 30
0.0
 11
-41.11105655357031
 21
-273.3956341733511
 31
0.0
  0
LINE
  5
4228
330
4144
100
AcDbEntity
  8
0
 62
     0
100
AcDbLine
 10
-41.75074796647627
 20
-274.0353255862571
 30
0.0
 11
-41.65095936023383
 21
-273.9355369800147
 31
0.0
  0
LINE
  5
4229
330
4144
100
AcDbEntity
  8
0
 62
     0
100
AcDbLine
 10
-42.99531849396698
 20
-275.1473135922753
 30
0.0
 11
-42.89317455957778
 21
-275.0451696578862
 31
0.0
  0
LINE
  5
422A
330
4144
100
AcDbEntity
  8
0
 62
     0
100
AcDbLine
 10
-38.85558904944939
 20
-271.0075841477578
 30
0.0
 11
-37.96081985999633
 21
-270.1128149583047
 31
0.0
  0
LINE
  5
422B
330
4144
100
AcDbEntity
  8
0
 62
     0
100
AcDbLine
 10
-42.89317455957778
 20
-275.0451696578862
 30
0.0
 11
-42.2611800533758
 21
-274.4131751516842
 31
0.0
  0
LINE
  5
422C
330
4144
100
AcDbEntity
  8
0
 62
     0
100
AcDbLine
 10
-41.34208886032189
 20
-273.4940839586302
 30
0.0
 11
-41.10121005402058
 21
-273.2532051523289
 31
0.0
  0
LINE
  5
422D
330
4144
100
AcDbEntity
  8
0
 62
     0
100
AcDbLine
 10
-41.79549989091119
 20
-273.9474949892195
 30
0.0
 11
-41.69571128466874
 21
-273.8477063829771
 31
0.0
  0
LINE
  5
422E
330
4144
100
AcDbEntity
  8
0
 62
     0
100
AcDbLine
 10
-43.0400704184019
 20
-275.0594829952378
 30
0.0
 11
-42.93792648401271
 21
-274.9573390608487
 31
0.0
  0
LINE
  5
422F
330
4144
100
AcDbEntity
  8
0
 62
     0
100
AcDbLine
 10
-38.98817157092188
 20
-271.0075841477578
 30
0.0
 11
-38.09340238146882
 21
-270.1128149583047
 31
0.0
  0
LINE
  5
4230
330
4144
100
AcDbEntity
  8
0
 62
     0
100
AcDbLine
 10
-42.93792648401271
 20
-274.9573390608486
 30
0.0
 11
-42.30593197781072
 21
-274.3253445546466
 31
0.0
  0
LINE
  5
4231
330
4144
100
AcDbEntity
  8
0
 62
     0
100
AcDbLine
 10
-41.33224236077215
 20
-273.351654937608
 30
0.0
 11
-41.09136355447085
 21
-273.1107761313067
 31
0.0
  0
LINE
  5
4232
330
4144
100
AcDbEntity
  8
0
 62
     0
100
AcDbLine
 10
-41.84025181534611
 20
-273.859664392182
 30
0.0
 11
-41.74046320910367
 21
-273.7598757859395
 31
0.0
  0
LINE
  5
4233
330
4144
100
AcDbEntity
  8
0
 62
     0
100
AcDbLine
 10
-43.08482234283682
 20
-274.9716523982002
 30
0.0
 11
-42.98267840844763
 21
-274.8695084638111
 31
0.0
  0
LINE
  5
4234
330
4144
100
AcDbEntity
  8
0
 62
     0
100
AcDbLine
 10
-39.12075409239436
 20
-271.0075841477578
 30
0.0
 11
-38.2259849029413
 21
-270.1128149583047
 31
0.0
  0
LINE
  5
4235
330
4144
100
AcDbEntity
  8
0
 62
     0
100
AcDbLine
 10
-42.98267840844764
 20
-274.8695084638111
 30
0.0
 11
-42.35068390224564
 21
-274.2375139576091
 31
0.0
  0
LINE
  5
4236
330
4144
100
AcDbEntity
  8
0
 62
     0
100
AcDbLine
 10
-41.08151705492112
 20
-272.9683471102845
 30
0.0
 11
-40.96181643366968
 21
-272.848646489033
 31
0.0
  0
LINE
  5
4237
330
4144
100
AcDbEntity
  8
0
 62
     0
100
AcDbLine
 10
-41.88500373978103
 20
-273.7718337951445
 30
0.0
 11
-41.78521513353859
 21
-273.672045188902
 31
0.0
  0
LINE
  5
4238
330
4144
100
AcDbEntity
  8
0
 62
     0
100
AcDbLine
 10
-41.32239586122242
 20
-273.2092259165858
 30
0.0
 11
-41.08151705492112
 21
-272.9683471102845
 31
0.0
  0
LINE
  5
4239
330
4144
100
AcDbEntity
  8
0
 62
     0
100
AcDbLine
 10
-43.12957426727176
 20
-274.8838218011627
 30
0.0
 11
-43.02743033288257
 21
-274.7816778667736
 31
0.0
  0
LINE
  5
423A
330
4144
100
AcDbEntity
  8
0
 62
     0
100
AcDbLine
 10
-39.25333661386681
 20
-271.0075841477578
 30
0.0
 11
-38.35856742441375
 21
-270.1128149583047
 31
0.0
  0
LINE
  5
423B
330
4144
100
AcDbEntity
  8
0
 62
     0
100
AcDbLine
 10
-43.02743033288256
 20
-274.7816778667735
 30
0.0
 11
-42.39543582668058
 21
-274.1496833605715
 31
0.0
  0
LINE
  5
423C
330
4144
100
AcDbEntity
  8
0
 62
     0
100
AcDbLine
 10
-41.07167055537138
 20
-272.8259180892623
 30
0.0
 11
-40.79761027123158
 21
-272.5518578051226
 31
0.0
  0
LINE
  5
423D
330
4144
100
AcDbEntity
  8
0
 62
     0
100
AcDbLine
 10
-41.92975566421597
 20
-273.6840031981069
 30
0.0
 11
-41.82996705797352
 21
-273.5842145918645
 31
0.0
  0
LINE
  5
423E
330
4144
100
AcDbEntity
  8
0
 62
     0
100
AcDbLine
 10
-41.3125493616727
 20
-273.0667968955636
 30
0.0
 11
-41.07167055537138
 21
-272.8259180892623
 31
0.0
  0
LINE
  5
423F
330
4144
100
AcDbEntity
  8
0
 62
     0
100
AcDbLine
 10
-43.17432619170667
 20
-274.7959912041251
 30
0.0
 11
-43.07218225731747
 21
-274.693847269736
 31
0.0
  0
LINE
  5
4240
330
4144
100
AcDbEntity
  8
0
 62
     0
100
AcDbLine
 10
-39.3859191353393
 20
-271.0075841477578
 30
0.0
 11
-38.49114994588624
 21
-270.1128149583047
 31
0.0
  0
LINE
  5
4241
330
4144
100
AcDbEntity
  8
0
 62
     0
100
AcDbLine
 10
-43.07218225731748
 20
-274.693847269736
 30
0.0
 11
-42.44018775111549
 21
-274.0618527635339
 31
0.0
  0
LINE
  5
4242
330
4144
100
AcDbEntity
  8
0
 62
     0
100
AcDbLine
 10
-41.06182405582166
 20
-272.6834890682401
 30
0.0
 11
-40.63340410879347
 21
-272.2550691212119
 31
0.0
  0
LINE
  5
4243
330
4144
100
AcDbEntity
  8
0
 62
     0
100
AcDbLine
 10
-41.97450758865088
 20
-273.5961726010693
 30
0.0
 11
-41.87471898240843
 21
-273.4963839948269
 31
0.0
  0
LINE
  5
4244
330
4144
100
AcDbEntity
  8
0
 62
     0
100
AcDbLine
 10
-41.30270286212296
 20
-272.9243678745414
 30
0.0
 11
-41.06182405582166
 21
-272.6834890682401
 31
0.0
  0
LINE
  5
4245
330
4144
100
AcDbEntity
  8
0
 62
     0
100
AcDbLine
 10
-43.2190781161416
 20
-274.7081606070876
 30
0.0
 11
-43.11693418175241
 21
-274.6060166726984
 31
0.0
  0
LINE
  5
4246
330
4144
100
AcDbEntity
  8
0
 62
     0
100
AcDbLine
 10
-39.51850165681178
 20
-271.0075841477578
 30
0.0
 11
-38.62373246735872
 21
-270.1128149583047
 31
0.0
  0
LINE
  5
4247
330
4144
100
AcDbEntity
  8
0
 62
     0
100
AcDbLine
 10
-43.11693418175241
 20
-274.6060166726984
 30
0.0
 11
-42.48493967555043
 21
-273.9740221664964
 31
0.0
  0
LINE
  5
4248
330
4144
100
AcDbEntity
  8
0
 62
     0
100
AcDbLine
 10
-41.04147028864789
 20
-272.5305527795939
 30
0.0
 11
-40.46919794635537
 21
-271.9582804373014
 31
0.0
  0
LINE
  5
4249
330
4144
100
AcDbEntity
  8
0
 62
     0
100
AcDbLine
 10
-42.0192595130858
 20
-273.5083420040318
 30
0.0
 11
-41.91947090684336
 21
-273.4085533977893
 31
0.0
  0
LINE
  5
424A
330
4144
100
AcDbEntity
  8
0
 62
     0
100
AcDbLine
 10
-41.29285636257323
 20
-272.7819388535192
 30
0.0
 11
-41.05197755627193
 21
-272.5410600472179
 31
0.0
  0
LINE
  5
424B
330
4144
100
AcDbEntity
  8
0
 62
     0
100
AcDbLine
 10
-43.26383004057651
 20
-274.62033001005
 30
0.0
 11
-43.16168610618734
 21
-274.5181860756609
 31
0.0
  0
LINE
  5
424C
330
4144
100
AcDbEntity
  8
0
 62
     0
100
AcDbLine
 10
-39.65108417828427
 20
-271.0075841477578
 30
0.0
 11
-38.7563149888312
 21
-270.1128149583047
 31
0.0
  0
LINE
  5
424D
330
4144
100
AcDbEntity
  8
0
 62
     0
100
AcDbLine
 10
-43.16168610618732
 20
-274.5181860756608
 30
0.0
 11
-42.52969159998534
 21
-273.8861915694589
 31
0.0
  0
LINE
  5
424E
330
4144
100
AcDbEntity
  8
0
 62
     0
100
AcDbLine
 10
-40.87726412620977
 20
-272.2337640956832
 30
0.0
 11
-40.30499178391731
 21
-271.6614917533908
 31
0.0
  0
LINE
  5
424F
330
4144
100
AcDbEntity
  8
0
 62
     0
100
AcDbLine
 10
-42.06401143752072
 20
-273.4205114069942
 30
0.0
 11
-41.96422283127828
 21
-273.3207228007517
 31
0.0
  0
LINE
  5
4250
330
4144
100
AcDbEntity
  8
0
 62
     0
100
AcDbLine
 10
-41.2830098630235
 20
-272.639509832497
 30
0.0
 11
-41.04213105672219
 21
-272.3986310261957
 31
0.0
  0
LINE
  5
4251
330
4144
100
AcDbEntity
  8
0
 62
     0
100
AcDbLine
 10
-43.30858196501145
 20
-274.5324994130124
 30
0.0
 11
-43.20643803062226
 21
-274.4303554786233
 31
0.0
  0
LINE
  5
4252
330
4144
100
AcDbEntity
  8
0
 62
     0
100
AcDbLine
 10
-39.78366669975674
 20
-271.0075841477578
 30
0.0
 11
-38.88889751030369
 21
-270.1128149583047
 31
0.0
  0
LINE
  5
4253
330
4144
100
AcDbEntity
  8
0
 62
     0
100
AcDbLine
 10
-43.20643803062226
 20
-274.4303554786232
 30
0.0
 11
-42.57444352442026
 21
-273.7983609724213
 31
0.0
  0
LINE
  5
4254
330
4144
100
AcDbEntity
  8
0
 62
     0
100
AcDbLine
 10
-40.71305796377171
 20
-271.9369754117727
 30
0.0
 11
-40.14078562147921
 21
-271.3647030694802
 31
0.0
  0
LINE
  5
4255
330
4144
100
AcDbEntity
  8
0
 62
     0
100
AcDbLine
 10
-42.10876336195565
 20
-273.3326808099567
 30
0.0
 11
-42.00897475571321
 21
-273.2328922037142
 31
0.0
  0
LINE
  5
4256
330
4144
100
AcDbEntity
  8
0
 62
     0
100
AcDbLine
 10
-41.27316336347377
 20
-272.4970808114748
 30
0.0
 11
-41.03228455717245
 21
-272.2562020051735
 31
0.0
  0
LINE
  5
4257
330
4144
100
AcDbEntity
  8
0
 62
     0
100
AcDbLine
 10
-43.35333388944637
 20
-274.4446688159749
 30
0.0
 11
-43.25118995505717
 21
-274.3425248815857
 31
0.0
  0
LINE
  5
4258
330
4144
100
AcDbEntity
  8
0
 62
     0
100
AcDbLine
 10
-39.9162492212292
 20
-271.0075841477578
 30
0.0
 11
-39.02148003177617
 21
-270.1128149583047
 31
0.0
  0
LINE
  5
4259
330
4144
100
AcDbEntity
  8
0
 62
     0
100
AcDbLine
 10
-43.25118995505718
 20
-274.3425248815857
 30
0.0
 11
-42.61919544885519
 21
-273.7105303753837
 31
0.0
  0
LINE
  5
425A
330
4144
100
AcDbEntity
  8
0
 62
     0
100
AcDbLine
 10
-40.5488518013336
 20
-271.6401867278622
 30
0.0
 11
-39.97657945904111
 21
-271.0679143855696
 31
0.0
  0
LINE
  5
425B
330
4144
100
AcDbEntity
  8
0
 62
     0
100
AcDbLine
 10
-42.15351528639057
 20
-273.2448502129191
 30
0.0
 11
-42.05372668014815
 21
-273.1450616066767
 31
0.0
  0
LINE
  5
425C
330
4144
100
AcDbEntity
  8
0
 62
     0
100
AcDbLine
 10
-41.26331686392403
 20
-272.3546517904526
 30
0.0
 11
-41.02243805762273
 21
-272.1137729841512
 31
0.0
  0
LINE
  5
425D
330
4144
100
AcDbEntity
  8
0
 62
     0
100
AcDbLine
 10
-43.39808581388129
 20
-274.3568382189374
 30
0.0
 11
-43.29594187949211
 21
-274.2546942845482
 31
0.0
  0
LINE
  5
425E
330
4144
100
AcDbEntity
  8
0
 62
     0
100
AcDbLine
 10
-40.04883174270166
 20
-271.0075841477577
 30
0.0
 11
-39.15406255324862
 21
-270.1128149583047
 31
0.0
  0
LINE
  5
425F
330
4144
100
AcDbEntity
  8
0
 62
     0
100
AcDbLine
 10
-43.29594187949211
 20
-274.2546942845482
 30
0.0
 11
-42.66394737329011
 21
-273.6226997783461
 31
0.0
  0
LINE
  5
4260
330
4144
100
AcDbEntity
  8
0
 62
     0
100
AcDbLine
 10
-40.38464563889553
 20
-271.3433980439516
 30
0.0
 11
-40.04883174270168
 21
-271.0075841477578
 31
0.0
  0
LINE
  5
4261
330
4144
100
AcDbEntity
  8
0
 62
     0
100
AcDbLine
 10
-42.19826721082549
 20
-273.1570196158815
 30
0.0
 11
-42.09847860458307
 21
-273.0572310096391
 31
0.0
  0
LINE
  5
4262
330
4144
100
AcDbEntity
  8
0
 62
     0
100
AcDbLine
 10
-41.25347036437431
 20
-272.2122227694304
 30
0.0
 11
-41.01259155807299
 21
-271.971343963129
 31
0.0
  0
LINE
  5
4263
330
4144
100
AcDbEntity
  8
0
 62
     0
100
AcDbLine
 10
-43.44283773831622
 20
-274.2690076218998
 30
0.0
 11
-43.34069380392703
 21
-274.1668636875106
 31
0.0
  0
LINE
  5
4264
330
4144
100
AcDbEntity
  8
0
 62
     0
100
AcDbLine
 10
-40.18141426417416
 20
-271.0075841477577
 30
0.0
 11
-39.28664507472111
 21
-270.1128149583047
 31
0.0
  0
LINE
  5
4265
330
4144
100
AcDbEntity
  8
0
 62
     0
100
AcDbLine
 10
-43.34069380392703
 20
-274.1668636875106
 30
0.0
 11
-42.70869929772504
 21
-273.5348691813086
 31
0.0
  0
LINE
  5
4266
330
4144
100
AcDbEntity
  8
0
 62
     0
100
AcDbLine
 10
-40.22043947645742
 20
-271.046609360041
 30
0.0
 11
-40.18141426417416
 21
-271.0075841477578
 31
0.0
  0
LINE
  5
4267
330
4144
100
AcDbEntity
  8
0
 62
     0
100
AcDbLine
 10
-42.24301913526041
 20
-273.069189018844
 30
0.0
 11
-42.14323052901799
 21
-272.9694004126015
 31
0.0
  0
LINE
  5
4268
330
4144
100
AcDbEntity
  8
0
 62
     0
100
AcDbLine
 10
-41.24362386482458
 20
-272.0697937484081
 30
0.0
 11
-41.00274505852326
 21
-271.8289149421068
 31
0.0
  0
LINE
  5
4269
330
4144
100
AcDbEntity
  8
0
 62
     0
100
AcDbLine
 10
-43.48758966275113
 20
-274.1811770248623
 30
0.0
 11
-43.38544572836195
 21
-274.0790330904731
 31
0.0
  0
LINE
  5
426A
330
4144
100
AcDbEntity
  8
0
 62
     0
100
AcDbLine
 10
-40.31399678564665
 20
-271.0075841477578
 30
0.0
 11
-39.41922759619359
 21
-270.1128149583047
 31
0.0
  0
LINE
  5
426B
330
4144
100
AcDbEntity
  8
0
 62
     0
100
AcDbLine
 10
-43.38544572836195
 20
-274.0790330904731
 30
0.0
 11
-42.75345122215997
 21
-273.447038584271
 31
0.0
  0
LINE
  5
426C
330
4144
100
AcDbEntity
  8
0
 62
     0
100
AcDbLine
 10
-41.23377736527484
 20
-271.9273647273859
 30
0.0
 11
-40.99289855897352
 21
-271.6864859210846
 31
0.0
  0
LINE
  5
426D
330
4144
100
AcDbEntity
  8
0
 62
     0
100
AcDbLine
 10
-42.28777105969533
 20
-272.9813584218064
 30
0.0
 11
-42.18798245345292
 21
-272.881569815564
 31
0.0
  0
LINE
  5
426E
330
4144
100
AcDbEntity
  8
0
 62
     0
100
AcDbLine
 10
-43.53234158718605
 20
-274.0933464278247
 30
0.0
 11
-43.43019765279687
 21
-273.9912024934355
 31
0.0
  0
LINE
  5
426F
330
4144
100
AcDbEntity
  8
0
 62
     0
100
AcDbLine
 10
-40.44657930711912
 20
-271.0075841477578
 30
0.0
 11
-39.55181011766607
 21
-270.1128149583047
 31
0.0
  0
LINE
  5
4270
330
4144
100
AcDbEntity
  8
0
 62
     0
100
AcDbLine
 10
-43.43019765279688
 20
-273.9912024934355
 30
0.0
 11
-42.79820314659487
 21
-273.3592079872335
 31
0.0
  0
LINE
  5
4271
330
4144
100
AcDbEntity
  8
0
 62
     0
100
AcDbLine
 10
-41.22393086572511
 20
-271.7849357063637
 30
0.0
 11
-40.9830520594238
 21
-271.5440569000624
 31
0.0
  0
LINE
  5
4272
330
4144
100
AcDbEntity
  8
0
 62
     0
100
AcDbLine
 10
-42.33252298413026
 20
-272.8935278247689
 30
0.0
 11
-42.23273437788784
 21
-272.7937392185264
 31
0.0
  0
LINE
  5
4273
330
4144
100
AcDbEntity
  8
0
 62
     0
100
AcDbLine
 10
-43.57709351162099
 20
-274.0055158307872
 30
0.0
 11
-43.4749495772318
 21
-273.903371896398
 31
0.0
  0
LINE
  5
4274
330
4144
100
AcDbEntity
  8
0
 62
     0
100
AcDbLine
 10
-40.57916182859158
 20
-271.0075841477578
 30
0.0
 11
-39.68439263913856
 21
-270.1128149583047
 31
0.0
  0
LINE
  5
4275
330
4144
100
AcDbEntity
  8
0
 62
     0
100
AcDbLine
 10
-43.4749495772318
 20
-273.903371896398
 30
0.0
 11
-42.84295507102982
 21
-273.2713773901959
 31
0.0
  0
LINE
  5
4276
330
4144
100
AcDbEntity
  8
0
 62
     0
100
AcDbLine
 10
-41.21408436617539
 20
-271.6425066853415
 30
0.0
 11
-40.97320555987406
 21
-271.4016278790402
 31
0.0
  0
LINE
  5
4277
330
4144
100
AcDbEntity
  8
0
 62
     0
100
AcDbLine
 10
-42.37727490856518
 20
-272.8056972277314
 30
0.0
 11
-42.27748630232276
 21
-272.705908621489
 31
0.0
  0
LINE
  5
4278
330
4144
100
AcDbEntity
  8
0
 62
     0
100
AcDbLine
 10
-43.6218454360559
 20
-273.9176852337496
 30
0.0
 11
-43.51970150166672
 21
-273.8155412993604
 31
0.0
  0
LINE
  5
4279
330
4144
100
AcDbEntity
  8
0
 62
     0
100
AcDbLine
 10
-40.71174435006406
 20
-271.0075841477578
 30
0.0
 11
-39.81697516061101
 21
-270.1128149583047
 31
0.0
  0
LINE
  5
427A
330
4144
100
AcDbEntity
  8
0
 62
     0
100
AcDbLine
 10
-43.51970150166672
 20
-273.8155412993604
 30
0.0
 11
-42.88770699546473
 21
-273.1835467931584
 31
0.0
  0
LINE
  5
427B
330
4144
100
AcDbEntity
  8
0
 62
     0
100
AcDbLine
 10
-41.20423786662565
 20
-271.5000776643193
 30
0.0
 11
-40.96335906032432
 21
-271.259198858018
 31
0.0
  0
LINE
  5
427C
330
4144
100
AcDbEntity
  8
0
 62
     0
100
AcDbLine
 10
-42.4220268330001
 20
-272.7178666306938
 30
0.0
 11
-42.32223822675769
 21
-272.6180780244514
 31
0.0
  0
LINE
  5
427D
330
4144
100
AcDbEntity
  8
0
 62
     0
100
AcDbLine
 10
-43.66659736049083
 20
-273.829854636712
 30
0.0
 11
-43.56445342610165
 21
-273.7277107023229
 31
0.0
  0
LINE
  5
427E
330
4144
100
AcDbEntity
  8
0
 62
     0
100
AcDbLine
 10
-40.84432687153655
 20
-271.0075841477578
 30
0.0
 11
-39.94955768208349
 21
-270.1128149583047
 31
0.0
  0
LINE
  5
427F
330
4144
100
AcDbEntity
  8
0
 62
     0
100
AcDbLine
 10
-43.56445342610164
 20
-273.7277107023228
 30
0.0
 11
-42.93245891989965
 21
-273.0957161961208
 31
0.0
  0
LINE
  5
4280
330
4144
100
AcDbEntity
  8
0
 62
     0
100
AcDbLine
 10
-41.19439136707593
 20
-271.3576486432971
 30
0.0
 11
-40.95351256077459
 21
-271.1167698369958
 31
0.0
  0
LINE
  5
4281
330
4144
100
AcDbEntity
  8
0
 62
     0
100
AcDbLine
 10
-42.46677875743502
 20
-272.6300360336562
 30
0.0
 11
-42.36699015119261
 21
-272.5302474274138
 31
0.0
  0
LINE
  5
4282
330
4144
100
AcDbEntity
  8
0
 62
     0
100
AcDbLine
 10
-43.71134928492576
 20
-273.7420240396744
 30
0.0
 11
-43.60920535053657
 21
-273.6398801052853
 31
0.0
  0
LINE
  5
4283
330
4144
100
AcDbEntity
  8
0
 62
     0
100
AcDbLine
 10
-40.97690939300903
 20
-271.0075841477578
 30
0.0
 11
-40.08214020355597
 21
-270.1128149583047
 31
0.0
  0
LINE
  5
4284
330
4144
100
AcDbEntity
  8
0
 62
     0
100
AcDbLine
 10
-43.60920535053657
 20
-273.6398801052853
 30
0.0
 11
-42.97721084433458
 21
-273.0078855990833
 31
0.0
  0
LINE
  5
4285
330
4144
100
AcDbEntity
  8
0
 62
     0
100
AcDbLine
 10
-41.1845448675262
 20
-271.2152196222749
 30
0.0
 11
-40.97690939300904
 21
-271.0075841477578
 31
0.0
  0
LINE
  5
4286
330
4144
100
AcDbEntity
  8
0
 62
     0
100
AcDbLine
 10
-42.51153068186996
 20
-272.5422054366187
 30
0.0
 11
-42.41174207562753
 21
-272.4424168303762
 31
0.0
  0
LINE
  5
4287
330
4144
100
AcDbEntity
  8
0
 62
     0
100
AcDbLine
 10
-43.75610120936068
 20
-273.6541934426369
 30
0.0
 11
-43.65395727497149
 21
-273.5520495082478
 31
0.0
  0
LINE
  5
4288
330
4144
100
AcDbEntity
  8
0
 62
     0
100
AcDbLine
 10
-41.10949191448152
 20
-271.0075841477578
 30
0.0
 11
-40.21472272502846
 21
-270.1128149583047
 31
0.0
  0
LINE
  5
4289
330
4144
100
AcDbEntity
  8
0
 62
     0
100
AcDbLine
 10
-43.65395727497149
 20
-273.5520495082478
 30
0.0
 11
-43.02196276876951
 21
-272.9200550020458
 31
0.0
  0
LINE
  5
428A
330
4144
100
AcDbEntity
  8
0
 62
     0
100
AcDbLine
 10
-41.17469836797646
 20
-271.0727906012527
 30
0.0
 11
-41.10949191448153
 21
-271.0075841477578
 31
0.0
  0
LINE
  5
428B
330
4144
100
AcDbEntity
  8
0
 62
     0
100
AcDbLine
 10
-42.55628260630487
 20
-272.4543748395811
 30
0.0
 11
-42.45649400006246
 21
-272.3545862333387
 31
0.0
  0
LINE
  5
428C
330
4144
100
AcDbEntity
  8
0
 62
     0
100
AcDbLine
 10
-43.8008531337956
 20
-273.5663628455994
 30
0.0
 11
-43.69870919940642
 21
-273.4642189112102
 31
0.0
  0
LINE
  5
428D
330
4144
100
AcDbEntity
  8
0
 62
     0
100
AcDbLine
 10
-41.242074435954
 20
-271.0075841477578
 30
0.0
 11
-40.34730524650094
 21
-270.1128149583047
 31
0.0
  0
LINE
  5
428E
330
4144
100
AcDbEntity
  8
0
 62
     0
100
AcDbLine
 10
-43.69870919940643
 20
-273.4642189112102
 30
0.0
 11
-43.06671469320444
 21
-272.8322244050082
 31
0.0
  0
LINE
  5
428F
330
4144
100
AcDbEntity
  8
0
 62
     0
100
AcDbLine
 10
-42.6010345307398
 20
-272.3665442425436
 30
0.0
 11
-42.50124592449738
 21
-272.2667556363012
 31
0.0
  0
LINE
  5
4290
330
4144
100
AcDbEntity
  8
0
 62
     0
100
AcDbLine
 10
-43.84560505823052
 20
-273.4785322485618
 30
0.0
 11
-43.74346112384134
 21
-273.3763883141727
 31
0.0
  0
LINE
  5
4291
330
4144
100
AcDbEntity
  8
0
 62
     0
100
AcDbLine
 10
-41.37465695742645
 20
-271.0075841477578
 30
0.0
 11
-40.47988776797339
 21
-270.1128149583047
 31
0.0
  0
LINE
  5
4292
330
4144
100
AcDbEntity
  8
0
 62
     0
100
AcDbLine
 10
-43.74346112384134
 20
-273.3763883141726
 30
0.0
 11
-43.11146661763936
 21
-272.7443938079706
 31
0.0
  0
LINE
  5
4293
330
4144
100
AcDbEntity
  8
0
 62
     0
100
AcDbLine
 10
-42.64578645517471
 20
-272.278713645506
 30
0.0
 11
-42.5459978489323
 21
-272.1789250392636
 31
0.0
  0
LINE
  5
4294
330
4144
100
AcDbEntity
  8
0
 62
     0
100
AcDbLine
 10
-43.89035698266545
 20
-273.3907016515242
 30
0.0
 11
-43.78821304827627
 21
-273.2885577171351
 31
0.0
  0
LINE
  5
4295
330
4144
100
AcDbEntity
  8
0
 62
     0
100
AcDbLine
 10
-41.50723947889893
 20
-271.0075841477578
 30
0.0
 11
-40.61247028944587
 21
-270.1128149583047
 31
0.0
  0
LINE
  5
4296
330
4144
100
AcDbEntity
  8
0
 62
     0
100
AcDbLine
 10
-43.78821304827627
 20
-273.2885577171351
 30
0.0
 11
-43.15621854207427
 21
-272.6565632109331
 31
0.0
  0
LINE
  5
4297
330
4144
100
AcDbEntity
  8
0
 62
     0
100
AcDbLine
 10
-42.69053837960965
 20
-272.1908830484685
 30
0.0
 11
-42.59074977336722
 21
-272.0910944422261
 31
0.0
  0
LINE
  5
4298
330
4144
100
AcDbEntity
  8
0
 62
     0
100
AcDbLine
 10
-43.93510890710039
 20
-273.3028710544867
 30
0.0
 11
-43.83296497271119
 21
-273.2007271200976
 31
0.0
  0
LINE
  5
4299
330
4144
100
AcDbEntity
  8
0
 62
     0
100
AcDbLine
 10
-41.63982200037142
 20
-271.0075841477578
 30
0.0
 11
-40.74505281091837
 21
-270.1128149583047
 31
0.0
  0
LINE
  5
429A
330
4144
100
AcDbEntity
  8
0
 62
     0
100
AcDbLine
 10
-43.83296497271119
 20
-273.2007271200975
 30
0.0
 11
-43.2009704665092
 21
-272.5687326138955
 31
0.0
  0
LINE
  5
429B
330
4144
100
AcDbEntity
  8
0
 62
     0
100
AcDbLine
 10
-42.73529030404456
 20
-272.1030524514309
 30
0.0
 11
-42.63550169780215
 21
-272.0032638451885
 31
0.0
  0
LINE
  5
429C
330
4144
100
AcDbEntity
  8
0
 62
     0
100
AcDbLine
 10
-43.97986083153529
 20
-273.2150404574491
 30
0.0
 11
-43.87771689714611
 21
-273.11289652306
 31
0.0
  0
LINE
  5
429D
330
4144
100
AcDbEntity
  8
0
 62
     0
100
AcDbLine
 10
-41.7724045218439
 20
-271.0075841477578
 30
0.0
 11
-40.87763533239084
 21
-270.1128149583047
 31
0.0
  0
LINE
  5
429E
330
4144
100
AcDbEntity
  8
0
 62
     0
100
AcDbLine
 10
-43.87771689714612
 20
-273.11289652306
 30
0.0
 11
-43.24572239094412
 21
-272.480902016858
 31
0.0
  0
LINE
  5
429F
330
4144
100
AcDbEntity
  8
0
 62
     0
100
AcDbLine
 10
-42.78004222847949
 20
-272.0152218543934
 30
0.0
 11
-42.68025362223707
 21
-271.9154332481509
 31
0.0
  0
LINE
  5
42A0
330
4144
100
AcDbEntity
  8
0
 62
     0
100
AcDbLine
 10
-44.02461275597022
 20
-273.1272098604116
 30
0.0
 11
-43.92246882158103
 21
-273.0250659260224
 31
0.0
  0
LINE
  5
42A1
330
4144
100
AcDbEntity
  8
0
 62
     0
100
AcDbLine
 10
-41.90498704331639
 20
-271.0075841477578
 30
0.0
 11
-41.01021785386333
 21
-270.1128149583047
 31
0.0
  0
LINE
  5
42A2
330
4144
100
AcDbEntity
  8
0
 62
     0
100
AcDbLine
 10
-43.92246882158103
 20
-273.0250659260224
 30
0.0
 11
-43.29047431537905
 21
-272.3930714198204
 31
0.0
  0
LINE
  5
42A3
330
4144
100
AcDbEntity
  8
0
 62
     0
100
AcDbLine
 10
-42.8247941529144
 20
-271.9273912573558
 30
0.0
 11
-42.72500554667199
 21
-271.8276026511134
 31
0.0
  0
LINE
  5
42A4
330
4144
100
AcDbEntity
  8
0
 62
     0
100
AcDbLine
 10
-44.06936468040514
 20
-273.0393792633741
 30
0.0
 11
-43.96722074601596
 21
-272.9372353289849
 31
0.0
  0
LINE
  5
42A5
330
4144
100
AcDbEntity
  8
0
 62
     0
100
AcDbLine
 10
-42.03756956478883
 20
-271.0075841477578
 30
0.0
 11
-41.14280037533577
 21
-270.1128149583047
 31
0.0
  0
LINE
  5
42A6
330
4144
100
AcDbEntity
  8
0
 62
     0
100
AcDbLine
 10
-43.96722074601596
 20
-272.9372353289849
 30
0.0
 11
-43.33522623981397
 21
-272.3052408227829
 31
0.0
  0
LINE
  5
42A7
330
4144
100
AcDbEntity
  8
0
 62
     0
100
AcDbLine
 10
-42.86954607734934
 20
-271.8395606603182
 30
0.0
 11
-42.76975747110692
 21
-271.7397720540759
 31
0.0
  0
LINE
  5
42A8
330
4144
100
AcDbEntity
  8
0
 62
     0
100
AcDbLine
 10
-44.11411660484007
 20
-272.9515486663365
 30
0.0
 11
-44.01197267045088
 21
-272.8494047319474
 31
0.0
  0
LINE
  5
42A9
330
4144
100
AcDbEntity
  8
0
 62
     0
100
AcDbLine
 10
-42.17015208626132
 20
-271.0075841477578
 30
0.0
 11
-41.27538289680827
 21
-270.1128149583047
 31
0.0
  0
LINE
  5
42AA
330
4144
100
AcDbEntity
  8
0
 62
     0
100
AcDbLine
 10
-44.01197267045089
 20
-272.8494047319474
 30
0.0
 11
-43.3799781642489
 21
-272.2174102257453
 31
0.0
  0
LINE
  5
42AB
330
4144
100
AcDbEntity
  8
0
 62
     0
100
AcDbLine
 10
-42.91429800178426
 20
-271.7517300632807
 30
0.0
 11
-42.81450939554184
 21
-271.6519414570383
 31
0.0
  0
LINE
  5
42AC
330
4144
100
AcDbEntity
  8
0
 62
     0
100
AcDbLine
 10
-43.03552049306387
 20
-271.8729525545603
 30
0.0
 11
-42.91429800178426
 21
-271.7517300632807
 31
0.0
  0
LINE
  5
42AD
330
4144
100
AcDbEntity
  8
0
 62
     0
100
AcDbLine
 10
-44.15886852927499
 20
-272.8637180692989
 30
0.0
 11
-44.0567245948858
 21
-272.7615741349098
 31
0.0
  0
LINE
  5
42AE
330
4144
100
AcDbEntity
  8
0
 62
     0
100
AcDbLine
 10
-42.30273460773381
 20
-271.0075841477578
 30
0.0
 11
-41.40796541828075
 21
-270.1128149583047
 31
0.0
  0
LINE
  5
42AF
330
4144
100
AcDbEntity
  8
0
 62
     0
100
AcDbLine
 10
-44.05672459488581
 20
-272.7615741349098
 30
0.0
 11
-43.42473008868381
 21
-272.1295796287078
 31
0.0
  0
LINE
  5
42B0
330
4144
100
AcDbEntity
  8
0
 62
     0
100
AcDbLine
 10
-42.95904992621917
 20
-271.6638994662432
 30
0.0
 11
-42.85926131997678
 21
-271.5641108600007
 31
0.0
  0
LINE
  5
42B1
330
4144
100
AcDbEntity
  8
0
 62
     0
100
AcDbLine
 10
-43.30583527562661
 20
-272.0106848156506
 30
0.0
 11
-43.03567928394395
 21
-271.7405288239679
 31
0.0
  0
LINE
  5
42B2
330
4144
100
AcDbEntity
  8
0
 62
     0
100
AcDbLine
 10
-44.20362045370992
 20
-272.7758874722614
 30
0.0
 11
-44.10147651932073
 21
-272.6737435378722
 31
0.0
  0
LINE
  5
42B3
330
4144
100
AcDbEntity
  8
0
 62
     0
100
AcDbLine
 10
-42.43531712920629
 20
-271.0075841477578
 30
0.0
 11
-41.54054793975324
 21
-270.1128149583047
 31
0.0
  0
LINE
  5
42B4
330
4144
100
AcDbEntity
  8
0
 62
     0
100
AcDbLine
 10
-44.10147651932073
 20
-272.6737435378722
 30
0.0
 11
-43.57615005818931
 21
-272.1484170767408
 31
0.0
  0
LINE
  5
42B5
330
4144
100
AcDbEntity
  8
0
 62
     0
100
AcDbLine
 10
-43.00380185065409
 20
-271.5760688692056
 30
0.0
 11
-42.9040132444117
 21
-271.4762802629631
 31
0.0
  0
LINE
  5
42B6
330
4144
100
AcDbEntity
  8
0
 62
     0
100
AcDbLine
 10
-43.57615005818945
 20
-272.1484170767408
 30
0.0
 11
-43.29449434520518
 21
-271.8667613637567
 31
0.0
  0
LINE
  5
42B7
330
4144
100
AcDbEntity
  8
0
 62
     0
100
AcDbLine
 10
-44.24837237814484
 20
-272.6880568752238
 30
0.0
 11
-44.14622844375565
 21
-272.5859129408347
 31
0.0
  0
LINE
  5
42B8
330
4144
100
AcDbEntity
  8
0
 62
     0
100
AcDbLine
 10
-42.56789965067877
 20
-271.0075841477578
 30
0.0
 11
-41.67313046122571
 21
-270.1128149583047
 31
0.0
  0
LINE
  5
42B9
330
4144
100
AcDbEntity
  8
0
 62
     0
100
AcDbLine
 10
-44.14622844375567
 20
-272.5859129408347
 30
0.0
 11
-43.81389900091518
 21
-272.2535834979942
 31
0.0
  0
LINE
  5
42BA
330
4144
100
AcDbEntity
  8
0
 62
     0
100
AcDbLine
 10
-43.04855377508903
 20
-271.488238272168
 30
0.0
 11
-42.94876516884662
 21
-271.3884496659257
 31
0.0
  0
LINE
  5
42BB
330
4144
100
AcDbEntity
  8
0
 62
     0
100
AcDbLine
 10
-43.81389900091516
 20
-272.2535834979942
 30
0.0
 11
-43.5533094064665
 21
-271.9929939035455
 31
0.0
  0
LINE
  5
42BC
330
4144
100
AcDbEntity
  8
0
 62
     0
100
AcDbLine
 10
-43.55330940646641
 20
-271.9929939035454
 30
0.0
 11
-43.51423393755367
 21
-271.9539184346327
 31
0.0
  0
LINE
  5
42BD
330
4144
100
AcDbEntity
  8
0
 62
     0
100
AcDbLine
 10
-44.29312430257975
 20
-272.6002262781863
 30
0.0
 11
-44.19098036819057
 21
-272.4980823437971
 31
0.0
  0
LINE
  5
42BE
330
4144
100
AcDbEntity
  8
0
 62
     0
100
AcDbLine
 10
-42.70048217215122
 20
-271.0075841477578
 30
0.0
 11
-41.80571298269817
 21
-270.1128149583047
 31
0.0
  0
LINE
  5
42BF
330
4144
100
AcDbEntity
  8
0
 62
     0
100
AcDbLine
 10
-44.19098036819058
 20
-272.4980823437971
 30
0.0
 11
-43.85736435006013
 21
-272.1644663256667
 31
0.0
  0
LINE
  5
42C0
330
4144
100
AcDbEntity
  8
0
 62
     0
100
AcDbLine
 10
-43.09330569952394
 20
-271.4004076751304
 30
0.0
 11
-42.99351709328155
 21
-271.3006190688881
 31
0.0
  0
LINE
  5
42C1
330
4144
100
AcDbEntity
  8
0
 62
     0
100
AcDbLine
 10
-43.85736435006017
 20
-272.1644663256666
 30
0.0
 11
-43.81212446772781
 21
-272.1192264433343
 31
0.0
  0
LINE
  5
42C2
330
4144
100
AcDbEntity
  8
0
 62
     0
100
AcDbLine
 10
-43.81212446772774
 20
-272.1192264433343
 30
0.0
 11
-43.5589858619886
 21
-271.8660878375951
 31
0.0
  0
LINE
  5
42C3
330
4144
100
AcDbEntity
  8
0
 62
     0
100
AcDbLine
 10
-44.33787622701468
 20
-272.5123956811487
 30
0.0
 11
-44.23573229262551
 21
-272.4102517467596
 31
0.0
  0
LINE
  5
42C4
330
4144
100
AcDbEntity
  8
0
 62
     0
100
AcDbLine
 10
-42.83306469362371
 20
-271.0075841477578
 30
0.0
 11
-41.93829550417065
 21
-270.1128149583047
 31
0.0
  0
LINE
  5
42C5
330
4144
100
AcDbEntity
  8
0
 62
     0
100
AcDbLine
 10
-44.23573229262551
 20
-272.4102517467596
 30
0.0
 11
-43.60373778642352
 21
-271.7782572405575
 31
0.0
  0
LINE
  5
42C6
330
4144
100
AcDbEntity
  8
0
 62
     0
100
AcDbLine
 10
-43.13805762395886
 20
-271.3125770780929
 30
0.0
 11
-43.03826901771647
 21
-271.2127884718505
 31
0.0
  0
LINE
  5
42C7
330
4144
100
AcDbEntity
  8
0
 62
     0
100
AcDbLine
 10
-44.38262815144962
 20
-272.4245650841112
 30
0.0
 11
-44.28048421706043
 21
-272.3224211497221
 31
0.0
  0
LINE
  5
42C8
330
4144
100
AcDbEntity
  8
0
 62
     0
100
AcDbLine
 10
-42.9656472150962
 20
-271.0075841477578
 30
0.0
 11
-42.07087802564314
 21
-270.1128149583047
 31
0.0
  0
LINE
  5
42C9
330
4144
100
AcDbEntity
  8
0
 62
     0
100
AcDbLine
 10
-44.28048421706043
 20
-272.322421149722
 30
0.0
 11
-43.64848971085844
 21
-271.69042664352
 31
0.0
  0
LINE
  5
42CA
330
4144
100
AcDbEntity
  8
0
 62
     0
100
AcDbLine
 10
-43.18280954839378
 20
-271.2247464810554
 30
0.0
 11
-43.08302094215139
 21
-271.1249578748129
 31
0.0
  0
LINE
  5
42CB
330
4144
100
AcDbEntity
  8
0
 62
     0
100
AcDbLine
 10
-44.42738007588452
 20
-272.3367344870736
 30
0.0
 11
-44.32523614149536
 21
-272.2345905526844
 31
0.0
  0
LINE
  5
42CC
330
4144
100
AcDbEntity
  8
0
 62
     0
100
AcDbLine
 10
-43.09822973656867
 20
-271.0075841477578
 30
0.0
 11
-42.20346054711562
 21
-270.1128149583047
 31
0.0
  0
LINE
  5
42CD
330
4144
100
AcDbEntity
  8
0
 62
     0
100
AcDbLine
 10
-44.32523614149537
 20
-272.2345905526844
 30
0.0
 11
-43.69324163529338
 21
-271.6025960464825
 31
0.0
  0
LINE
  5
42CE
330
4144
100
AcDbEntity
  8
0
 62
     0
100
AcDbLine
 10
-43.22756147282872
 20
-271.1369158840178
 30
0.0
 11
-43.12777286658632
 21
-271.0371272777754
 31
0.0
  0
LINE
  5
42CF
330
4144
100
AcDbEntity
  8
0
 62
     0
100
AcDbLine
 10
-44.47213200031946
 20
-272.2489038900361
 30
0.0
 11
-44.36998806593027
 21
-272.1467599556469
 31
0.0
  0
LINE
  5
42D0
330
4144
100
AcDbEntity
  8
0
 62
     0
100
AcDbLine
 10
-43.23081225804116
 20
-271.0075841477578
 30
0.0
 11
-42.3360430685881
 21
-270.1128149583047
 31
0.0
  0
LINE
  5
42D1
330
4144
100
AcDbEntity
  8
0
 62
     0
100
AcDbLine
 10
-44.36998806593028
 20
-272.1467599556469
 30
0.0
 11
-43.7379935597283
 21
-271.5147654494449
 31
0.0
  0
LINE
  5
42D2
330
4144
100
AcDbEntity
  8
0
 62
     0
100
AcDbLine
 10
-43.27231339726363
 20
-271.0490852869802
 30
0.0
 11
-43.23081225804115
 21
-271.0075841477578
 31
0.0
  0
LINE
  5
42D3
330
4144
100
AcDbEntity
  8
0
 62
     0
100
AcDbLine
 10
-44.51688392475437
 20
-272.1610732929985
 30
0.0
 11
-44.41473999036521
 21
-272.0589293586094
 31
0.0
  0
LINE
  5
42D4
330
4144
100
AcDbEntity
  8
0
 62
     0
100
AcDbLine
 10
-43.36339477951361
 20
-271.0075841477578
 30
0.0
 11
-42.46862559006059
 21
-270.1128149583047
 31
0.0
  0
LINE
  5
42D5
330
4144
100
AcDbEntity
  8
0
 62
     0
100
AcDbLine
 10
-44.4147399903652
 20
-272.0589293586093
 30
0.0
 11
-43.78274548416323
 21
-271.4269348524073
 31
0.0
  0
LINE
  5
42D6
330
4144
100
AcDbEntity
  8
0
 62
     0
100
AcDbLine
 10
-44.5616358491893
 20
-272.0732426959609
 30
0.0
 11
-44.45949191480012
 21
-271.9710987615718
 31
0.0
  0
LINE
  5
42D7
330
4144
100
AcDbEntity
  8
0
 62
     0
100
AcDbLine
 10
-43.4959773009861
 20
-271.0075841477578
 30
0.0
 11
-42.60120811153304
 21
-270.1128149583047
 31
0.0
  0
LINE
  5
42D8
330
4144
100
AcDbEntity
  8
0
 62
     0
100
AcDbLine
 10
-44.45949191480013
 20
-271.9710987615718
 30
0.0
 11
-43.82749740859814
 21
-271.3391042553698
 31
0.0
  0
LINE
  5
42D9
330
4144
100
AcDbEntity
  8
0
 62
     0
100
AcDbLine
 10
-44.60638777362423
 20
-271.9854120989233
 30
0.0
 11
-44.50424383923505
 21
-271.8832681645342
 31
0.0
  0
LINE
  5
42DA
330
4144
100
AcDbEntity
  8
0
 62
     0
100
AcDbLine
 10
-43.62855982245858
 20
-271.0075841477578
 30
0.0
 11
-42.73379063300552
 21
-270.1128149583047
 31
0.0
  0
LINE
  5
42DB
330
4144
100
AcDbEntity
  8
0
 62
     0
100
AcDbLine
 10
-44.50424383923506
 20
-271.8832681645342
 30
0.0
 11
-43.87224933303307
 21
-271.2512736583323
 31
0.0
  0
LINE
  5
42DC
330
4144
100
AcDbEntity
  8
0
 62
     0
100
AcDbLine
 10
-44.65113969805915
 20
-271.8975815018858
 30
0.0
 11
-44.54899576366996
 21
-271.7954375674967
 31
0.0
  0
LINE
  5
42DD
330
4144
100
AcDbEntity
  8
0
 62
     0
100
AcDbLine
 10
-43.76114234393106
 20
-271.0075841477578
 30
0.0
 11
-42.86637315447801
 21
-270.1128149583047
 31
0.0
  0
LINE
  5
42DE
330
4144
100
AcDbEntity
  8
0
 62
     0
100
AcDbLine
 10
-44.54899576366997
 20
-271.7954375674967
 30
0.0
 11
-43.91700125746799
 21
-271.1634430612947
 31
0.0
  0
LINE
  5
42DF
330
4144
100
AcDbEntity
  8
0
 62
     0
100
AcDbLine
 10
-44.69589162249408
 20
-271.8097509048483
 30
0.0
 11
-44.5937476881049
 21
-271.7076069704591
 31
0.0
  0
LINE
  5
42E0
330
4144
100
AcDbEntity
  8
0
 62
     0
100
AcDbLine
 10
-43.89372486540355
 20
-271.0075841477578
 30
0.0
 11
-42.99895567595049
 21
-270.1128149583047
 31
0.0
  0
LINE
  5
42E1
330
4144
100
AcDbEntity
  8
0
 62
     0
100
AcDbLine
 10
-44.59374768810491
 20
-271.7076069704591
 30
0.0
 11
-43.96175318190293
 21
-271.0756124642572
 31
0.0
  0
LINE
  5
42E2
330
4144
100
AcDbEntity
  8
0
 62
     0
100
AcDbLine
 10
-44.74064354692899
 20
-271.7219203078107
 30
0.0
 11
-44.63849961253981
 21
-271.6197763734216
 31
0.0
  0
LINE
  5
42E3
330
4144
100
AcDbEntity
  8
0
 62
     0
100
AcDbLine
 10
-44.02630738687596
 20
-271.0075841477577
 30
0.0
 11
-43.13153819742297
 21
-270.1128149583047
 31
0.0
  0
LINE
  5
42E4
330
4144
100
AcDbEntity
  8
0
 62
     0
100
AcDbLine
 10
-44.63849961253983
 20
-271.6197763734216
 30
0.0
 11
-44.02630738687603
 21
-271.0075841477578
 31
0.0
  0
LINE
  5
42E5
330
4144
100
AcDbEntity
  8
0
 62
     0
100
AcDbLine
 10
-44.78539547136391
 20
-271.6340897107732
 30
0.0
 11
-44.68325153697474
 21
-271.5319457763841
 31
0.0
  0
LINE
  5
42E6
330
4144
100
AcDbEntity
  8
0
 62
     0
100
AcDbLine
 10
-44.15888990834845
 20
-271.0075841477577
 30
0.0
 11
-43.26412071889542
 21
-270.1128149583047
 31
0.0
  0
LINE
  5
42E7
330
4144
100
AcDbEntity
  8
0
 62
     0
100
AcDbLine
 10
-44.68325153697477
 20
-271.531945776384
 30
0.0
 11
-44.15888990834848
 21
-271.0075841477578
 31
0.0
  0
LINE
  5
42E8
330
4144
100
AcDbEntity
  8
0
 62
     0
100
AcDbLine
 10
-44.83014739579885
 20
-271.5462591137356
 30
0.0
 11
-44.72800346140967
 21
-271.4441151793465
 31
0.0
  0
LINE
  5
42E9
330
4144
100
AcDbEntity
  8
0
 62
     0
100
AcDbLine
 10
-44.29147242982091
 20
-271.0075841477577
 30
0.0
 11
-43.39670324036791
 21
-270.1128149583047
 31
0.0
  0
LINE
  5
42EA
330
4144
100
AcDbEntity
  8
0
 62
     0
100
AcDbLine
 10
-44.72800346140968
 20
-271.4441151793465
 30
0.0
 11
-44.29147242982097
 21
-271.0075841477578
 31
0.0
  0
LINE
  5
42EB
330
4144
100
AcDbEntity
  8
0
 62
     0
100
AcDbLine
 10
-44.87489932023376
 20
-271.4584285166981
 30
0.0
 11
-44.7727553858446
 21
-271.3562845823089
 31
0.0
  0
LINE
  5
42EC
330
4144
100
AcDbEntity
  8
0
 62
     0
100
AcDbLine
 10
-44.42405495129341
 20
-271.0075841477577
 30
0.0
 11
-43.5292857618404
 21
-270.1128149583047
 31
0.0
  0
LINE
  5
42ED
330
4144
100
AcDbEntity
  8
0
 62
     0
100
AcDbLine
 10
-44.77275538584461
 20
-271.3562845823089
 30
0.0
 11
-44.42405495129345
 21
-271.0075841477578
 31
0.0
  0
LINE
  5
42EE
330
4144
100
AcDbEntity
  8
0
 62
     0
100
AcDbLine
 10
-44.91965124466869
 20
-271.3705979196606
 30
0.0
 11
-44.81750731027952
 21
-271.2684539852714
 31
0.0
  0
LINE
  5
42EF
330
4144
100
AcDbEntity
  8
0
 62
     0
100
AcDbLine
 10
-44.55663747276587
 20
-271.0075841477577
 30
0.0
 11
-43.66186828331287
 21
-270.1128149583047
 31
0.0
  0
LINE
  5
42F0
330
4144
100
AcDbEntity
  8
0
 62
     0
100
AcDbLine
 10
-44.81750731027953
 20
-271.2684539852714
 30
0.0
 11
-44.55663747276593
 21
-271.0075841477578
 31
0.0
  0
LINE
  5
42F1
330
4144
100
AcDbEntity
  8
0
 62
     0
100
AcDbLine
 10
-44.96440316910361
 20
-271.282767322623
 30
0.0
 11
-44.86225923471444
 21
-271.1806233882338
 31
0.0
  0
LINE
  5
42F2
330
4144
100
AcDbEntity
  8
0
 62
     0
100
AcDbLine
 10
-44.68921999423836
 20
-271.0075841477577
 30
0.0
 11
-43.79445080478536
 21
-270.1128149583047
 31
0.0
  0
LINE
  5
42F3
330
4144
100
AcDbEntity
  8
0
 62
     0
100
AcDbLine
 10
-44.86225923471446
 20
-271.1806233882338
 30
0.0
 11
-44.68921999423842
 21
-271.0075841477578
 31
0.0
  0
LINE
  5
42F4
330
4144
100
AcDbEntity
  8
0
 62
     0
100
AcDbLine
 10
-45.00915509353854
 20
-271.1949367255854
 30
0.0
 11
-44.93619626528839
 21
-271.1219778973352
 31
0.0
  0
LINE
  5
42F5
330
4144
100
AcDbEntity
  8
0
 62
     0
100
AcDbLine
 10
-44.82180251571087
 20
-271.0075841477578
 30
0.0
 11
-43.92703332625781
 21
-270.1128149583047
 31
0.0
  0
LINE
  5
42F6
330
4144
100
AcDbEntity
  8
0
 62
     0
100
AcDbLine
 10
-44.95438503718335
 20
-271.0075841477578
 30
0.0
 11
-44.0596158477303
 21
-270.1128149583047
 31
0.0
  0
LINE
  5
42F7
330
4144
100
AcDbEntity
  8
0
 62
     0
100
AcDbLine
 10
-45.08696755865584
 20
-271.0075841477578
 30
0.0
 11
-44.19219836920278
 21
-270.1128149583047
 31
0.0
  0
LINE
  5
42F8
330
4144
100
AcDbEntity
  8
0
 62
     0
100
AcDbLine
 10
-45.21955008012832
 20
-271.0075841477578
 30
0.0
 11
-44.32478089067527
 21
-270.1128149583047
 31
0.0
  0
LINE
  5
42F9
330
4144
100
AcDbEntity
  8
0
 62
     0
100
AcDbLine
 10
-45.23372463886881
 20
-270.8891761850257
 30
0.0
 11
-44.45736341214774
 21
-270.1128149583047
 31
0.0
  0
LINE
  5
42FA
330
4144
100
AcDbEntity
  8
0
 62
     0
100
AcDbLine
 10
-45.23372463886881
 20
-270.7565936635533
 30
0.0
 11
-44.5899459336202
 21
-270.1128149583047
 31
0.0
  0
LINE
  5
42FB
330
4144
100
AcDbEntity
  8
0
 62
     0
100
AcDbLine
 10
-45.23372463886881
 20
-270.6240111420808
 30
0.0
 11
-44.72252845509268
 21
-270.1128149583047
 31
0.0
  0
LINE
  5
42FC
330
4144
100
AcDbEntity
  8
0
 62
     0
100
AcDbLine
 10
-45.23372463886881
 20
-270.4914286206083
 30
0.0
 11
-44.85511097656517
 21
-270.1128149583047
 31
0.0
  0
LINE
  5
42FD
330
4144
100
AcDbEntity
  8
0
 62
     0
100
AcDbLine
 10
-45.2337246388688
 20
-270.3588460991359
 30
0.0
 11
-44.98769349803765
 21
-270.1128149583047
 31
0.0
  0
LINE
  5
42FE
330
4144
100
AcDbEntity
  8
0
 62
     0
100
AcDbLine
 10
-45.2337246388688
 20
-270.2262635776634
 30
0.0
 11
-45.12027601951014
 21
-270.1128149583047
 31
0.0
  0
LINE
  5
42FF
330
4144
100
AcDbEntity
  8
0
 62
     0
100
AcDbLine
 10
-39.27512850824
 20
-279.5146574163695
 30
0.0
 11
-38.5413666900566
 21
-278.7808955981861
 31
0.0
  0
LINE
  5
4300
330
4144
100
AcDbEntity
  8
0
 62
     0
100
AcDbLine
 10
-39.16241960701883
 20
-279.5345310366208
 30
0.0
 11
-38.42865778883542
 21
-278.8007692184374
 31
0.0
  0
LINE
  5
4301
330
4144
100
AcDbEntity
  8
0
 62
     0
100
AcDbLine
 10
-39.04971070579762
 20
-279.5544046568721
 30
0.0
 11
-38.31594888761424
 21
-278.8206428386887
 31
0.0
  0
LINE
  5
4302
330
4144
100
AcDbEntity
  8
0
 62
     0
100
AcDbLine
 10
-38.93700180457646
 20
-279.5742782771234
 30
0.0
 11
-38.20323998639308
 21
-278.84051645894
 31
0.0
  0
LINE
  5
4303
330
4144
100
AcDbEntity
  8
0
 62
     0
100
AcDbLine
 10
-38.82429290335529
 20
-279.5941518973747
 30
0.0
 11
-38.0905310851719
 21
-278.8603900791913
 31
0.0
  0
LINE
  5
4304
330
4144
100
AcDbEntity
  8
0
 62
     0
100
AcDbLine
 10
-38.71158400213412
 20
-279.614025517626
 30
0.0
 11
-37.97782218395072
 21
-278.8802636994426
 31
0.0
  0
LINE
  5
4305
330
4144
100
AcDbEntity
  8
0
 62
     0
100
AcDbLine
 10
-38.59887510091292
 20
-279.6338991378773
 30
0.0
 11
-37.86511328272954
 21
-278.9001373196939
 31
0.0
  0
LINE
  5
4306
330
4144
100
AcDbEntity
  8
0
 62
     0
100
AcDbLine
 10
-38.48616619969174
 20
-279.6537727581286
 30
0.0
 11
-37.75240438150836
 21
-278.9200109399452
 31
0.0
  0
LINE
  5
4307
330
4144
100
AcDbEntity
  8
0
 62
     0
100
AcDbLine
 10
-38.37345729847058
 20
-279.6736463783799
 30
0.0
 11
-37.63969548028717
 21
-278.9398845601965
 31
0.0
  0
LINE
  5
4308
330
4144
100
AcDbEntity
  8
0
 62
     0
100
AcDbLine
 10
-38.26074839724942
 20
-279.6935199986312
 30
0.0
 11
-37.526986579066
 21
-278.9597581804478
 31
0.0
  0
LINE
  5
4309
330
4144
100
AcDbEntity
  8
0
 62
     0
100
AcDbLine
 10
-38.14803949602821
 20
-279.7133936188825
 30
0.0
 11
-37.41427767784482
 21
-278.9796318006991
 31
0.0
  0
LINE
  5
430A
330
4144
100
AcDbEntity
  8
0
 62
     0
100
AcDbLine
 10
-38.03533059480704
 20
-279.7332672391338
 30
0.0
 11
-37.30156877662363
 21
-278.9995054209504
 31
0.0
  0
LINE
  5
430B
330
4144
100
AcDbEntity
  8
0
 62
     0
100
AcDbLine
 10
-37.92262169358588
 20
-279.7531408593851
 30
0.0
 11
-37.18885987540245
 21
-279.0193790412017
 31
0.0
  0
LINE
  5
430C
330
4144
100
AcDbEntity
  8
0
 62
     0
100
AcDbLine
 10
-37.80991279236471
 20
-279.7730144796364
 30
0.0
 11
-37.07615097418127
 21
-279.039252661453
 31
0.0
  0
LINE
  5
430D
330
4144
100
AcDbEntity
  8
0
 62
     0
100
AcDbLine
 10
-37.6972038911435
 20
-279.7928880998877
 30
0.0
 11
-36.96344207296009
 21
-279.0591262817043
 31
0.0
  0
LINE
  5
430E
330
4144
100
AcDbEntity
  8
0
 62
     0
100
AcDbLine
 10
-37.58449498992233
 20
-279.812761720139
 30
0.0
 11
-36.85073317173891
 21
-279.0789999019556
 31
0.0
  0
LINE
  5
430F
330
4144
100
AcDbEntity
  8
0
 62
     0
100
AcDbLine
 10
-37.47178608870117
 20
-279.8326353403903
 30
0.0
 11
-36.73802427051778
 21
-279.0988735222069
 31
0.0
  0
LINE
  5
4310
330
4144
100
AcDbEntity
  8
0
 62
     0
100
AcDbLine
 10
-37.35907718748001
 20
-279.8525089606416
 30
0.0
 11
-36.62531536929659
 21
-279.1187471424582
 31
0.0
  0
LINE
  5
4311
330
4144
100
AcDbEntity
  8
0
 62
     0
100
AcDbLine
 10
-37.24636828625879
 20
-279.8723825808929
 30
0.0
 11
-36.51260646807542
 21
-279.1386207627095
 31
0.0
  0
LINE
  5
4312
330
4144
100
AcDbEntity
  8
0
 62
     0
100
AcDbLine
 10
-37.13365938503763
 20
-279.8922562011442
 30
0.0
 11
-36.39989756685424
 21
-279.1584943829608
 31
0.0
  0
LINE
  5
4313
330
4144
100
AcDbEntity
  8
0
 62
     0
100
AcDbLine
 10
-37.02095048381647
 20
-279.9121298213955
 30
0.0
 11
-36.28718866563306
 21
-279.1783680032121
 31
0.0
  0
LINE
  5
4314
330
4144
100
AcDbEntity
  8
0
 62
     0
100
AcDbLine
 10
-36.9082415825953
 20
-279.9320034416468
 30
0.0
 11
-36.17447976441188
 21
-279.1982416234634
 31
0.0
  0
LINE
  5
4315
330
4144
100
AcDbEntity
  8
0
 62
     0
100
AcDbLine
 10
-36.79553268137409
 20
-279.9518770618981
 30
0.0
 11
-36.0617708631907
 21
-279.2181152437147
 31
0.0
  0
LINE
  5
4316
330
4144
100
AcDbEntity
  8
0
 62
     0
100
AcDbLine
 10
-36.68282378015292
 20
-279.9717506821494
 30
0.0
 11
-35.94906196196951
 21
-279.237988863966
 31
0.0
  0
LINE
  5
4317
330
4144
100
AcDbEntity
  8
0
 62
     0
100
AcDbLine
 10
-36.57011487893175
 20
-279.9916243024007
 30
0.0
 11
-35.83635306074833
 21
-279.2578624842173
 31
0.0
  0
LINE
  5
4318
330
4144
100
AcDbEntity
  8
0
 62
     0
100
AcDbLine
 10
-36.45740597771059
 20
-280.011497922652
 30
0.0
 11
-35.72364415952716
 21
-279.2777361044686
 31
0.0
  0
LINE
  5
4319
330
4144
100
AcDbEntity
  8
0
 62
     0
100
AcDbLine
 10
-36.34469707648938
 20
-280.0313715429033
 30
0.0
 11
-35.61093525830597
 21
-279.2976097247199
 31
0.0
  0
LINE
  5
431A
330
4144
100
AcDbEntity
  8
0
 62
     0
100
AcDbLine
 10
-36.23198817526822
 20
-280.0512451631546
 30
0.0
 11
-35.49822635708479
 21
-279.3174833449712
 31
0.0
  0
LINE
  5
431B
330
4144
100
AcDbEntity
  8
0
 62
     0
100
AcDbLine
 10
-36.11927927404706
 20
-280.0711187834059
 30
0.0
 11
-35.38551745586361
 21
-279.3373569652225
 31
0.0
  0
LINE
  5
431C
330
4144
100
AcDbEntity
  8
0
 62
     0
100
AcDbLine
 10
-36.00657037282589
 20
-280.0909924036572
 30
0.0
 11
-35.27280855464243
 21
-279.3572305854738
 31
0.0
  0
LINE
  5
431D
330
4144
100
AcDbEntity
  8
0
 62
     0
100
AcDbLine
 10
-35.89386147160467
 20
-280.1108660239085
 30
0.0
 11
-35.16009965342125
 21
-279.3771042057251
 31
0.0
  0
LINE
  5
431E
330
4144
100
AcDbEntity
  8
0
 62
     0
100
AcDbLine
 10
-35.78115257038351
 20
-280.1307396441598
 30
0.0
 11
-35.04739075220007
 21
-279.3969778259764
 31
0.0
  0
LINE
  5
431F
330
4144
100
AcDbEntity
  8
0
 62
     0
100
AcDbLine
 10
-35.66844366916234
 20
-280.1506132644111
 30
0.0
 11
-34.93468185097889
 21
-279.4168514462277
 31
0.0
  0
LINE
  5
4320
330
4144
100
AcDbEntity
  8
0
 62
     0
100
AcDbLine
 10
-35.55573476794118
 20
-280.1704868846624
 30
0.0
 11
-34.82197294975771
 21
-279.436725066479
 31
0.0
  0
LINE
  5
4321
330
4144
100
AcDbEntity
  8
0
 62
     0
100
AcDbLine
 10
-35.44302586671997
 20
-280.1903605049137
 30
0.0
 11
-34.70926404853658
 21
-279.4565986867303
 31
0.0
  0
LINE
  5
4322
330
4144
100
AcDbEntity
  8
0
 62
     0
100
AcDbLine
 10
-35.3303169654988
 20
-280.210234125165
 30
0.0
 11
-34.59655514731539
 21
-279.4764723069816
 31
0.0
  0
LINE
  5
4323
330
4144
100
AcDbEntity
  8
0
 62
     0
100
AcDbLine
 10
-35.21760806427764
 20
-280.2301077454163
 30
0.0
 11
-34.48384624609421
 21
-279.496345927233
 31
0.0
  0
LINE
  5
4324
330
4144
100
AcDbEntity
  8
0
 62
     0
100
AcDbLine
 10
-35.10489916305647
 20
-280.2499813656676
 30
0.0
 11
-34.65961316436878
 21
-279.80469536698
 31
0.0
  0
LINE
  5
4325
330
4144
100
AcDbEntity
  8
0
 62
     0
100
AcDbLine
 10
-34.49507239555112
 20
-279.6401545981623
 30
0.0
 11
-34.37113734487303
 21
-279.5162195474842
 31
0.0
  0
LINE
  5
4326
330
4144
100
AcDbEntity
  8
0
 62
     0
100
AcDbLine
 10
-34.65961316436874
 20
-279.8046953669799
 30
0.0
 11
-34.49507239555113
 21
-279.6401545981623
 31
0.0
  0
LINE
  5
4327
330
4144
100
AcDbEntity
  8
0
 62
     0
100
AcDbLine
 10
-34.99219026183526
 20
-280.2698549859189
 30
0.0
 11
-34.61254978408334
 21
-279.890214508167
 31
0.0
  0
LINE
  5
4328
330
4144
100
AcDbEntity
  8
0
 62
     0
100
AcDbLine
 10
-34.4505443932725
 20
-279.7282091173562
 30
0.0
 11
-34.25842844365185
 21
-279.5360931677355
 31
0.0
  0
LINE
  5
4329
330
4144
100
AcDbEntity
  8
0
 62
     0
100
AcDbLine
 10
-34.61254978408327
 20
-279.8902145081669
 30
0.0
 11
-34.45054439327251
 21
-279.7282091173562
 31
0.0
  0
LINE
  5
432A
330
4144
100
AcDbEntity
  8
0
 62
     0
100
AcDbLine
 10
-34.8794813606141
 20
-280.2897286061702
 30
0.0
 11
-34.56548640379791
 21
-279.975733649354
 31
0.0
  0
LINE
  5
432B
330
4144
100
AcDbEntity
  8
0
 62
     0
100
AcDbLine
 10
-34.40601639099387
 20
-279.81626363655
 30
0.0
 11
-34.18212969867614
 21
-279.5923769442322
 31
0.0
  0
LINE
  5
432C
330
4144
100
AcDbEntity
  8
0
 62
     0
100
AcDbLine
 10
-34.5654864037978
 20
-279.975733649354
 30
0.0
 11
-34.4060163909939
 21
-279.81626363655
 31
0.0
  0
LINE
  5
432D
330
4144
100
AcDbEntity
  8
0
 62
     0
100
AcDbLine
 10
-34.76677245939293
 20
-280.3096022264215
 30
0.0
 11
-34.51842302351247
 21
-280.0612527905411
 31
0.0
  0
LINE
  5
432E
330
4144
100
AcDbEntity
  8
0
 62
     0
100
AcDbLine
 10
-34.36148838871525
 20
-279.9043181557439
 30
0.0
 11
-34.21610863625688
 21
-279.7589384032855
 31
0.0
  0
LINE
  5
432F
330
4144
100
AcDbEntity
  8
0
 62
     0
100
AcDbLine
 10
-34.51842302351233
 20
-280.0612527905409
 30
0.0
 11
-34.36148838871528
 21
-279.9043181557439
 31
0.0
  0
LINE
  5
4330
330
4144
100
AcDbEntity
  8
0
 62
     0
100
AcDbLine
 10
-34.65406355817177
 20
-280.3294758466728
 30
0.0
 11
-34.47135964322703
 21
-280.1467719317281
 31
0.0
  0
LINE
  5
4331
330
4144
100
AcDbEntity
  8
0
 62
     0
100
AcDbLine
 10
-34.31696038643663
 20
-279.9923726749377
 30
0.0
 11
-34.25008757383762
 21
-279.9254998623387
 31
0.0
  0
LINE
  5
4332
330
4144
100
AcDbEntity
  8
0
 62
     0
100
AcDbLine
 10
-34.47135964322686
 20
-280.1467719317279
 30
0.0
 11
-34.31696038643667
 21
-279.9923726749378
 31
0.0
  0
LINE
  5
4333
330
4144
100
AcDbEntity
  8
0
 62
     0
100
AcDbLine
 10
-34.54135465695056
 20
-280.3493494669242
 30
0.0
 11
-34.4242962629416
 21
-280.2322910729151
 31
0.0
  0
LINE
  5
4334
330
4144
100
AcDbEntity
  8
0
 62
     0
100
AcDbLine
 10
-34.42429626294139
 20
-280.232291072915
 30
0.0
 11
-34.27243238415805
 21
-280.0804271941316
 31
0.0
  0
LINE
  5
4335
330
4144
100
AcDbEntity
  8
0
 62
     0
100
AcDbLine
 10
-34.42864575572939
 20
-280.3692230871754
 30
0.0
 11
-34.37723288265617
 21
-280.3178102141022
 31
0.0
  0
LINE
  5
4336
330
4144
100
AcDbEntity
  8
0
 62
     0
100
AcDbLine
 10
-34.23763487951733
 20
-280.1782122109634
 30
0.0
 11
-34.22790438187941
 21
-280.1684817133254
 31
0.0
  0
LINE
  5
4337
330
4144
100
AcDbEntity
  8
0
 62
     0
100
AcDbLine
 10
-34.37723288265592
 20
-280.317810214102
 30
0.0
 11
-34.32222178119469
 21
-280.2627991126407
 31
0.0
  0
LINE
  5
4338
330
4144
100
AcDbEntity
  8
0
 62
     0
100
AcDbLine
 10
-34.3180454489991
 20
-280.2586227804452
 30
0.0
 11
-34.23763487951734
 21
-280.1782122109634
 31
0.0
  0
LINE
  5
4339
330
4144
100
AcDbEntity
  8
0
 62
     0
100
AcDbLine
 10
-34.33279649784393
 20
-280.4059563507625
 30
0.0
 11
-34.31594377963411
 21
-280.3891036325526
 31
0.0
  0
LINE
  5
433A
330
4144
100
AcDbEntity
  8
0
 62
     0
100
AcDbLine
 10
-34.31594377963405
 20
-280.3891036325526
 30
0.0
 11
-34.12832042519916
 21
-280.2014802781177
 31
0.0
  0
LINE
  5
433B
330
4144
100
AcDbEntity
  8
0
 62
     0
100
AcDbLine
 10
-34.2886183190611
 20
-280.4943606934521
 30
0.0
 11
-34.20326302751831
 21
-280.4090054019093
 31
0.0
  0
LINE
  5
433C
330
4144
100
AcDbEntity
  8
0
 62
     0
100
AcDbLine
 10
-34.01900597088106
 20
-280.224748345272
 30
0.0
 11
-34.00684354492805
 21
-280.2125859193191
 31
0.0
  0
LINE
  5
433D
330
4144
100
AcDbEntity
  8
0
 62
     0
100
AcDbLine
 10
-34.20326302751827
 20
-280.4090054019093
 30
0.0
 11
-34.01900597088101
 21
-280.224748345272
 31
0.0
  0
LINE
  5
433E
330
4144
100
AcDbEntity
  8
0
 62
     0
100
AcDbLine
 10
-34.24444014027825
 20
-280.5827650361417
 30
0.0
 11
-34.09058227540249
 21
-280.4289071712659
 31
0.0
  0
LINE
  5
433F
330
4144
100
AcDbEntity
  8
0
 62
     0
100
AcDbLine
 10
-33.90969151656292
 20
-280.2480164124263
 30
0.0
 11
-33.73652476279732
 21
-280.0748496586608
 31
0.0
  0
LINE
  5
4340
330
4144
100
AcDbEntity
  8
0
 62
     0
100
AcDbLine
 10
-34.09058227540246
 20
-280.4289071712659
 30
0.0
 11
-33.90969151656286
 21
-280.2480164124263
 31
0.0
  0
LINE
  5
4341
330
4144
100
AcDbEntity
  8
0
 62
     0
100
AcDbLine
 10
-34.20026196149541
 20
-280.6711693788314
 30
0.0
 11
-33.9779015232867
 21
-280.4488089406227
 31
0.0
  0
LINE
  5
4342
330
4144
100
AcDbEntity
  8
0
 62
     0
100
AcDbLine
 10
-33.80037706224471
 20
-280.2712844795807
 30
0.0
 11
-33.56665993146914
 21
-280.0375673488051
 31
0.0
  0
LINE
  5
4343
330
4144
100
AcDbEntity
  8
0
 62
     0
100
AcDbLine
 10
-33.97790152328667
 20
-280.4488089406226
 30
0.0
 11
-33.80037706224476
 21
-280.2712844795808
 31
0.0
  0
LINE
  5
4344
330
4144
100
AcDbEntity
  8
0
 62
     0
100
AcDbLine
 10
-34.15608378271257
 20
-280.759573721521
 30
0.0
 11
-33.86522077117088
 21
-280.4687107099793
 31
0.0
  0
LINE
  5
4345
330
4144
100
AcDbEntity
  8
0
 62
     0
100
AcDbLine
 10
-33.69106260792654
 20
-280.294552546735
 30
0.0
 11
-33.52248175268631
 21
-280.1259716914947
 31
0.0
  0
LINE
  5
4346
330
4144
100
AcDbEntity
  8
0
 62
     0
100
AcDbLine
 10
-33.86522077117085
 20
-280.4687107099793
 30
0.0
 11
-33.69106260792662
 21
-280.2945525467351
 31
0.0
  0
LINE
  5
4347
330
4144
100
AcDbEntity
  8
0
 62
     0
100
AcDbLine
 10
-34.11190560392971
 20
-280.8479780642106
 30
0.0
 11
-33.75254001905505
 21
-280.488612479336
 31
0.0
  0
LINE
  5
4348
330
4144
100
AcDbEntity
  8
0
 62
     0
100
AcDbLine
 10
-33.59453372366715
 20
-280.330606183948
 30
0.0
 11
-33.47830357390347
 21
-280.2143760341844
 31
0.0
  0
LINE
  5
4349
330
4144
100
AcDbEntity
  8
0
 62
     0
100
AcDbLine
 10
-33.75254001905507
 20
-280.4886124793359
 30
0.0
 11
-33.59453372366719
 21
-280.3306061839481
 31
0.0
  0
LINE
  5
434A
330
4144
100
AcDbEntity
  8
0
 62
     0
100
AcDbLine
 10
-34.06772742514688
 20
-280.9363824069003
 30
0.0
 11
-33.64145204273529
 21
-280.5101070244887
 31
0.0
  0
LINE
  5
434B
330
4144
100
AcDbEntity
  8
0
 62
     0
100
AcDbLine
 10
-33.62039977625162
 20
-280.489054758005
 30
0.0
 11
-33.43412539512061
 21
-280.302780376874
 31
0.0
  0
LINE
  5
434C
330
4144
100
AcDbEntity
  8
0
 62
     0
100
AcDbLine
 10
-33.64145204273528
 20
-280.5101070244887
 30
0.0
 11
-33.62039977625164
 21
-280.489054758005
 31
0.0
  0
LINE
  5
434D
330
4144
100
AcDbEntity
  8
0
 62
     0
100
AcDbLine
 10
-34.02354924636404
 20
-281.0247867495899
 30
0.0
 11
-33.38994721633778
 21
-280.3911847195636
 31
0.0
  0
LINE
  5
434E
330
4144
100
AcDbEntity
  8
0
 62
     0
100
AcDbLine
 10
-33.97937106758119
 20
-281.1131910922795
 30
0.0
 11
-33.34576903755494
 21
-280.4795890622533
 31
0.0
  0
LINE
  5
434F
330
4144
100
AcDbEntity
  8
0
 62
     0
100
AcDbLine
 10
-33.93519288879836
 20
-281.2015954349691
 30
0.0
 11
-33.30159085877209
 21
-280.567993404943
 31
0.0
  0
LINE
  5
4350
330
4144
100
AcDbEntity
  8
0
 62
     0
100
AcDbLine
 10
-33.89101471001551
 20
-281.2899997776588
 30
0.0
 11
-33.25741267998925
 21
-280.6563977476325
 31
0.0
  0
LINE
  5
4351
330
4144
100
AcDbEntity
  8
0
 62
     0
100
AcDbLine
 10
-33.84683653123266
 20
-281.3784041203485
 30
0.0
 11
-33.21323450120642
 21
-280.7448020903222
 31
0.0
  0
LINE
  5
4352
330
4144
100
AcDbEntity
  8
0
 62
     0
100
AcDbLine
 10
-33.80265835244982
 20
-281.4668084630381
 30
0.0
 11
-33.16905632242356
 21
-280.8332064330118
 31
0.0
  0
LINE
  5
4353
330
4144
100
AcDbEntity
  8
0
 62
     0
100
AcDbLine
 10
-33.75848017366698
 20
-281.5552128057277
 30
0.0
 11
-33.12487814364072
 21
-280.9216107757015
 31
0.0
  0
LINE
  5
4354
330
4144
100
AcDbEntity
  8
0
 62
     0
100
AcDbLine
 10
-33.71430199488414
 20
-281.6436171484174
 30
0.0
 11
-33.08069996485789
 21
-281.010015118391
 31
0.0
  0
LINE
  5
4355
330
4144
100
AcDbEntity
  8
0
 62
     0
100
AcDbLine
 10
-33.6701238161013
 20
-281.732021491107
 30
0.0
 11
-33.03652178607503
 21
-281.0984194610807
 31
0.0
  0
LINE
  5
4356
330
4144
100
AcDbEntity
  8
0
 62
     0
100
AcDbLine
 10
-33.62594563731845
 20
-281.8204258337966
 30
0.0
 11
-32.9923436072922
 21
-281.1868238037704
 31
0.0
  0
LINE
  5
4357
330
4144
100
AcDbEntity
  8
0
 62
     0
100
AcDbLine
 10
-33.58176745853561
 20
-281.9088301764862
 30
0.0
 11
-32.94816542850937
 21
-281.2752281464601
 31
0.0
  0
LINE
  5
4358
330
4144
100
AcDbEntity
  8
0
 62
     0
100
AcDbLine
 10
-33.53758927975277
 20
-281.9972345191759
 30
0.0
 11
-32.90398724972653
 21
-281.3636324891497
 31
0.0
  0
LINE
  5
4359
330
4144
100
AcDbEntity
  8
0
 62
     0
100
AcDbLine
 10
-33.49341110096992
 20
-282.0856388618656
 30
0.0
 11
-32.85980907094367
 21
-281.4520368318393
 31
0.0
  0
LINE
  5
435A
330
4144
100
AcDbEntity
  8
0
 62
     0
100
AcDbLine
 10
-33.44923292218708
 20
-282.1740432045552
 30
0.0
 11
-32.81563089216084
 21
-281.5404411745289
 31
0.0
  0
LINE
  5
435B
330
4144
100
AcDbEntity
  8
0
 62
     0
100
AcDbLine
 10
-33.40505474340423
 20
-282.2624475472448
 30
0.0
 11
-32.771452713378
 21
-281.6288455172186
 31
0.0
  0
LINE
  5
435C
330
4144
100
AcDbEntity
  8
0
 62
     0
100
AcDbLine
 10
-33.36087656462139
 20
-282.3508518899345
 30
0.0
 11
-32.72727453459515
 21
-281.7172498599082
 31
0.0
  0
LINE
  5
435D
330
4144
100
AcDbEntity
  8
0
 62
     0
100
AcDbLine
 10
-33.31669838583855
 20
-282.4392562326241
 30
0.0
 11
-32.68309635581231
 21
-281.8056542025978
 31
0.0
  0
LINE
  5
435E
330
4144
100
AcDbEntity
  8
0
 62
     0
100
AcDbLine
 10
-33.27252020705571
 20
-282.5276605753137
 30
0.0
 11
-32.63891817702948
 21
-281.8940585452875
 31
0.0
  0
LINE
  5
435F
330
4144
100
AcDbEntity
  8
0
 62
     0
100
AcDbLine
 10
-33.22834202827287
 20
-282.6160649180033
 30
0.0
 11
-32.59473999824662
 21
-281.9824628879771
 31
0.0
  0
LINE
  5
4360
330
4144
100
AcDbEntity
  8
0
 62
     0
100
AcDbLine
 10
-33.18416384949003
 20
-282.704469260693
 30
0.0
 11
-32.55056181946378
 21
-282.0708672306667
 31
0.0
  0
LINE
  5
4361
330
4144
100
AcDbEntity
  8
0
 62
     0
100
AcDbLine
 10
-33.13998567070718
 20
-282.7928736033826
 30
0.0
 11
-32.50638364068095
 21
-282.1592715733564
 31
0.0
  0
LINE
  5
4362
330
4144
100
AcDbEntity
  8
0
 62
     0
100
AcDbLine
 10
-33.09580749192433
 20
-282.8812779460723
 30
0.0
 11
-32.46220546189811
 21
-282.247675916046
 31
0.0
  0
LINE
  5
4363
330
4144
100
AcDbEntity
  8
0
 62
     0
100
AcDbLine
 10
-33.0516293131415
 20
-282.9696822887619
 30
0.0
 11
-32.41802728311526
 21
-282.3360802587357
 31
0.0
  0
LINE
  5
4364
330
4144
100
AcDbEntity
  8
0
 62
     0
100
AcDbLine
 10
-33.00745113435866
 20
-283.0580866314516
 30
0.0
 11
-32.37384910433242
 21
-282.4244846014253
 31
0.0
  0
LINE
  5
4365
330
4144
100
AcDbEntity
  8
0
 62
     0
100
AcDbLine
 10
-32.96327295557581
 20
-283.1464909741411
 30
0.0
 11
-32.32967092554959
 21
-282.5128889441149
 31
0.0
  0
LINE
  5
4366
330
4144
100
AcDbEntity
  8
0
 62
     0
100
AcDbLine
 10
-32.91909477679296
 20
-283.2348953168308
 30
0.0
 11
-32.28549274676673
 21
-282.6012932868045
 31
0.0
  0
LINE
  5
4367
330
4144
100
AcDbEntity
  8
0
 62
     0
100
AcDbLine
 10
-32.87491659801013
 20
-283.3232996595204
 30
0.0
 11
-32.24131456798389
 21
-282.6896976294942
 31
0.0
  0
LINE
  5
4368
330
4144
100
AcDbEntity
  8
0
 62
     0
100
AcDbLine
 10
-32.83073841922728
 20
-283.4117040022101
 30
0.0
 11
-32.19713638920106
 21
-282.7781019721838
 31
0.0
  0
LINE
  5
4369
330
4144
100
AcDbEntity
  8
0
 62
     0
100
AcDbLine
 10
-32.78656024044444
 20
-283.5001083448997
 30
0.0
 11
-32.1529582104182
 21
-282.8665063148735
 31
0.0
  0
LINE
  5
436A
330
4144
100
AcDbEntity
  8
0
 62
     0
100
AcDbLine
 10
-32.7423820616616
 20
-283.5885126875893
 30
0.0
 11
-32.10878003163537
 21
-282.9549106575631
 31
0.0
  0
LINE
  5
436B
330
4144
100
AcDbEntity
  8
0
 62
     0
100
AcDbLine
 10
-32.69820388287876
 20
-283.6769170302789
 30
0.0
 11
-32.06460185285254
 21
-283.0433150002527
 31
0.0
  0
LINE
  5
436C
330
4144
100
AcDbEntity
  8
0
 62
     0
100
AcDbLine
 10
-32.65402570409591
 20
-283.7653213729686
 30
0.0
 11
-32.0204236740697
 21
-283.1317193429424
 31
0.0
  0
LINE
  5
436D
330
4144
100
AcDbEntity
  8
0
 62
     0
100
AcDbLine
 10
-32.60984752531307
 20
-283.8537257156582
 30
0.0
 11
-31.97624549528684
 21
-283.220123685632
 31
0.0
  0
LINE
  5
436E
330
4144
100
AcDbEntity
  8
0
 62
     0
100
AcDbLine
 10
-32.56566934653022
 20
-283.9421300583479
 30
0.0
 11
-31.93206731650401
 21
-283.3085280283216
 31
0.0
  0
LINE
  5
436F
330
4144
100
AcDbEntity
  8
0
 62
     0
100
AcDbLine
 10
-32.52149116774738
 20
-284.0305344010375
 30
0.0
 11
-31.88788913772117
 21
-283.3969323710113
 31
0.0
  0
LINE
  5
4370
330
4144
100
AcDbEntity
  8
0
 62
     0
100
AcDbLine
 10
-32.47731298896454
 20
-284.1189387437271
 30
0.0
 11
-31.84371095893832
 21
-283.4853367137009
 31
0.0
  0
LINE
  5
4371
330
4144
100
AcDbEntity
  8
0
 62
     0
100
AcDbLine
 10
-32.43313481018169
 20
-284.2073430864168
 30
0.0
 11
-31.79953278015548
 21
-283.5737410563906
 31
0.0
  0
LINE
  5
4372
330
4144
100
AcDbEntity
  8
0
 62
     0
100
AcDbLine
 10
-32.38895663139885
 20
-284.2957474291064
 30
0.0
 11
-31.75535460137264
 21
-283.6621453990801
 31
0.0
  0
LINE
  5
4373
330
4144
100
AcDbEntity
  8
0
 62
     0
100
AcDbLine
 10
-32.34477845261601
 20
-284.384151771796
 30
0.0
 11
-31.71117642258979
 21
-283.7505497417698
 31
0.0
  0
LINE
  5
4374
330
4144
100
AcDbEntity
  8
0
 62
     0
100
AcDbLine
 10
-32.30060027383317
 20
-284.4725561144857
 30
0.0
 11
-31.66699824380695
 21
-283.8389540844595
 31
0.0
  0
LINE
  5
4375
330
4144
100
AcDbEntity
  8
0
 62
     0
100
AcDbLine
 10
-32.25642209505032
 20
-284.5609604571753
 30
0.0
 11
-31.62282006502412
 21
-283.9273584271491
 31
0.0
  0
LINE
  5
4376
330
4144
100
AcDbEntity
  8
0
 62
     0
100
AcDbLine
 10
-32.21224391626749
 20
-284.649364799865
 30
0.0
 11
-31.57864188624126
 21
-284.0157627698387
 31
0.0
  0
LINE
  5
4377
330
4144
100
AcDbEntity
  8
0
 62
     0
100
AcDbLine
 10
-32.16806573748464
 20
-284.7377691425545
 30
0.0
 11
-31.53446370745843
 21
-284.1041671125284
 31
0.0
  0
LINE
  5
4378
330
4144
100
AcDbEntity
  8
0
 62
     0
100
AcDbLine
 10
-32.1238875587018
 20
-284.8261734852442
 30
0.0
 11
-31.49028552867559
 21
-284.192571455218
 31
0.0
  0
LINE
  5
4379
330
4144
100
AcDbEntity
  8
0
 62
     0
100
AcDbLine
 10
-32.07970937991895
 20
-284.9145778279338
 30
0.0
 11
-31.44610734989275
 21
-284.2809757979077
 31
0.0
  0
LINE
  5
437A
330
4144
100
AcDbEntity
  8
0
 62
     0
100
AcDbLine
 10
-32.03553120113612
 20
-285.0029821706235
 30
0.0
 11
-31.4019291711099
 21
-284.3693801405972
 31
0.0
  0
LINE
  5
437B
330
4144
100
AcDbEntity
  8
0
 62
     0
100
AcDbLine
 10
-31.99135302235327
 20
-285.0913865133131
 30
0.0
 11
-31.35775099232706
 21
-284.4577844832869
 31
0.0
  0
LINE
  5
437C
330
4144
100
AcDbEntity
  8
0
 62
     0
100
AcDbLine
 10
-31.94717484357042
 20
-285.1797908560028
 30
0.0
 11
-31.31357281354423
 21
-284.5461888259766
 31
0.0
  0
LINE
  5
437D
330
4144
100
AcDbEntity
  8
0
 62
     0
100
AcDbLine
 10
-31.90299666478758
 20
-285.2681951986924
 30
0.0
 11
-31.26939463476138
 21
-284.6345931686662
 31
0.0
  0
LINE
  5
437E
330
4144
100
AcDbEntity
  8
0
 62
     0
100
AcDbLine
 10
-31.85881848600474
 20
-285.356599541382
 30
0.0
 11
-31.22521645597854
 21
-284.7229975113558
 31
0.0
  0
LINE
  5
437F
330
4144
100
AcDbEntity
  8
0
 62
     0
100
AcDbLine
 10
-31.8146403072219
 20
-285.4450038840717
 30
0.0
 11
-31.1810382771957
 21
-284.8114018540455
 31
0.0
  0
LINE
  5
4380
330
4144
100
AcDbEntity
  8
0
 62
     0
100
AcDbLine
 10
-31.77046212843906
 20
-285.5334082267613
 30
0.0
 11
-31.13686009841285
 21
-284.8998061967351
 31
0.0
  0
LINE
  5
4381
330
4144
100
AcDbEntity
  8
0
 62
     0
100
AcDbLine
 10
-31.72628394965622
 20
-285.6218125694509
 30
0.0
 11
-31.09268191963001
 21
-284.9882105394248
 31
0.0
  0
LINE
  5
4382
330
4144
100
AcDbEntity
  8
0
 62
     0
100
AcDbLine
 10
-31.68210577087337
 20
-285.7102169121406
 30
0.0
 11
-31.04850374084718
 21
-285.0766148821143
 31
0.0
  0
LINE
  5
4383
330
4144
100
AcDbEntity
  8
0
 62
     0
100
AcDbLine
 10
-31.63792759209052
 20
-285.7986212548302
 30
0.0
 11
-31.00432556206434
 21
-285.165019224804
 31
0.0
  0
LINE
  5
4384
330
4144
100
AcDbEntity
  8
0
 62
     0
100
AcDbLine
 10
-31.59374941330769
 20
-285.8870255975199
 30
0.0
 11
-30.96014738328149
 21
-285.2534235674937
 31
0.0
  0
LINE
  5
4385
330
4144
100
AcDbEntity
  8
0
 62
     0
100
AcDbLine
 10
-31.50332316272872
 20
-285.9291818684134
 30
0.0
 11
-30.91596920449865
 21
-285.3418279101833
 31
0.0
  0
LINE
  5
4386
330
4144
100
AcDbEntity
  8
0
 62
     0
100
AcDbLine
 10
-31.37157195278595
 20
-285.9300131799431
 30
0.0
 11
-30.87179102571581
 21
-285.4302322528729
 31
0.0
  0
LINE
  5
4387
330
4144
100
AcDbEntity
  8
0
 62
     0
100
AcDbLine
 10
-31.23982074284319
 20
-285.9308444914728
 30
0.0
 11
-30.82761284693296
 21
-285.5186365955626
 31
0.0
  0
LINE
  5
4388
330
4144
100
AcDbEntity
  8
0
 62
     0
100
AcDbLine
 10
-31.25232952633624
 20
-286.0759357964383
 30
0.0
 11
-31.16460760049095
 21
-285.988213870593
 31
0.0
  0
LINE
  5
4389
330
4144
100
AcDbEntity
  8
0
 62
     0
100
AcDbLine
 10
-31.10806953290039
 20
-285.9316758030024
 30
0.0
 11
-30.78343466815012
 21
-285.6070409382521
 31
0.0
  0
LINE
  5
438A
330
4144
100
AcDbEntity
  8
0
 62
     0
100
AcDbLine
 10
-31.15811563536502
 20
-285.981721905467
 30
0.0
 11
-31.10806953290039
 21
-285.9316758030025
 31
0.0
  0
LINE
  5
438B
330
4144
100
AcDbEntity
  8
0
 62
     0
100
AcDbLine
 10
-31.12177404626793
 20
-286.0779628378424
 30
0.0
 11
-31.0328563905482
 21
-285.9890451821227
 31
0.0
  0
LINE
  5
438C
330
4144
100
AcDbEntity
  8
0
 62
     0
100
AcDbLine
 10
-30.97631832295762
 20
-285.9325071145322
 30
0.0
 11
-30.73925648936729
 21
-285.6954452809418
 31
0.0
  0
LINE
  5
438D
330
4144
100
AcDbEntity
  8
0
 62
     0
100
AcDbLine
 10
-30.99002283632514
 20
-286.0787941493721
 30
0.0
 11
-30.93156545569635
 21
-286.0203367687433
 31
0.0
  0
LINE
  5
438E
330
4144
100
AcDbEntity
  8
0
 62
     0
100
AcDbLine
 10
-30.84456711301486
 20
-285.9333384260619
 30
0.0
 11
-30.69507831058443
 21
-285.7838496236314
 31
0.0
  0
LINE
  5
438F
330
4144
100
AcDbEntity
  8
0
 62
     0
100
AcDbLine
 10
-30.7128159030721
 20
-285.9341697375916
 30
0.0
 11
-30.6509001318016
 21
-285.8722539663211
 31
0.0
  0
ENDBLK
  5
4390
330
4144
100
AcDbEntity
  8
0
100
AcDbBlockEnd
  0
BLOCK
  5
468D
330
4683
100
AcDbEntity
  8
0
100
AcDbBlockBegin
  2
*D25
 70
     1
 10
0.0
 20
0.0
 30
0.0
  3
*D25
  1

  0
LINE
  5
494D
330
4683
100
AcDbEntity
  8
0
 62
     0
370
    -2
100
AcDbLine
 10
16.25883216287474
 20
168.9357148250568
 30
0.0
 11
8.199969186308239
 21
168.9357148250568
 31
0.0
  0
LINE
  5
494E
330
4683
100
AcDbEntity
  8
0
 62
     0
370
    -2
100
AcDbLine
 10
16.25883216287474
 20
156.9357148250569
 30
0.0
 11
8.199969186308237
 21
156.9357148250569
 31
0.0
  0
LINE
  5
494F
330
4683
100
AcDbEntity
  8
0
 62
     0
370
    -2
100
AcDbLine
 10
10.07496918630824
 20
167.0607148250568
 30
0.0
 11
10.07496918630824
 21
158.8107148250569
 31
0.0
  0
MTEXT
  5
4950
330
4683
100
AcDbEntity
  8
0
 62
     0
100
AcDbMText
 10
4.391040614879639
 20
162.9357148250569
 30
0.0
 40
2.411999999999999
 41
0.0
 71
     5
 72
     1
  1
\A1;1'-0"
  7
ROMANS
 73
     1
 44
1.0
1001
ACAD
1000
MTEXTBEGIN
1070
    73
1070
     1
1070
    44
1040
1.0
1070
    74
1070
     0
1000
MTEXTEND
  0
SOLID
  5
4951
330
4683
100
AcDbEntity
  8
0
 62
     0
100
AcDbTrace
 10
9.762469186308239
 20
167.0607148250568
 30
0.0
 11
10.38746918630824
 21
167.0607148250568
 31
0.0
 12
10.07496918630824
 22
168.9357148250568
 32
0.0
 13
10.07496918630824
 23
168.9357148250568
 33
0.0
  0
SOLID
  5
4952
330
4683
100
AcDbEntity
  8
0
 62
     0
100
AcDbTrace
 10
9.762469186308237
 20
158.8107148250569
 30
0.0
 11
10.38746918630824
 21
158.8107148250569
 31
0.0
 12
10.07496918630824
 22
156.9357148250569
 32
0.0
 13
10.07496918630824
 23
156.9357148250569
 33
0.0
  0
POINT
  5
4953
330
4683
100
AcDbEntity
  8
DEFPOINTS
 62
     0
100
AcDbPoint
 10
18.13383216287474
 20
168.9357148250568
 30
0.0
  0
POINT
  5
4954
330
4683
100
AcDbEntity
  8
DEFPOINTS
 62
     0
100
AcDbPoint
 10
18.13383216287474
 20
156.9357148250569
 30
0.0
  0
POINT
  5
4955
330
4683
100
AcDbEntity
  8
DEFPOINTS
 62
     0
100
AcDbPoint
 10
10.07496918630824
 20
156.9357148250569
 30
0.0
  0
ENDBLK
  5
468E
330
4683
100
AcDbEntity
  8
0
100
AcDbBlockEnd
  0
ENDSEC
  0
SECTION
  2
ENTITIES
  0
LINE
  5
26F
330
47E
100
AcDbEntity
  8
0
 62
     7
100
AcDbLine
 10
121.8139326188639
 20
-145.0642851749431
 30
0.0
 11
121.8139326188639
 21
160.9357148250568
 31
0.0
  0
LINE
  5
270
330
47E
100
AcDbEntity
  8
0
 62
     7
100
AcDbLine
 10
145.8139326188639
 20
-145.0642851749431
 30
0.0
 11
145.8139326188639
 21
160.9357148250568
 31
0.0
  0
LINE
  5
271
330
47E
100
AcDbEntity
  8
0
 62
     7
100
AcDbLine
 10
146.8139326188639
 20
-145.0642851749431
 30
0.0
 11
146.8139326188639
 21
160.5215012626836
 31
0.0
  0
LINE
  5
272
330
47E
100
AcDbEntity
  8
0
 62
     7
100
AcDbLine
 10
120.8139326188639
 20
-145.0642851749431
 30
0.0
 11
120.8139326188639
 21
160.5215012626837
 31
0.0
  0
LINE
  5
28B
330
47E
100
AcDbEntity
  8
0
 62
     6
100
AcDbLine
 10
36.63383216287446
 20
-145.0642851749431
 30
0.0
 11
36.63383216287446
 21
-145.0642851749431
 31
0.0
  0
LINE
  5
28D
330
47E
100
AcDbEntity
  8
0
 62
     6
100
AcDbLine
 10
8.458324861851792
 20
156.9357148250569
 30
0.0
 11
36.63383216287452
 21
156.9357148250569
 31
0.0
  0
LINE
  5
28E
330
47E
100
AcDbEntity
  8
0
 62
     7
100
AcDbLine
 10
45.13383216287451
 20
-145.0642851749431
 30
0.0
 11
45.13383216287451
 21
199.4357148250569
 31
0.0
  0
LINE
  5
294
330
47E
100
AcDbEntity
  8
0
 62
     7
100
AcDbLine
 10
36.63383216287452
 20
150.9357148250569
 30
0.0
 11
45.13383216287451
 21
150.9357148250569
 31
0.0
  0
LINE
  5
295
330
47E
100
AcDbEntity
  8
0
 62
     7
100
AcDbLine
 10
36.63383216287452
 20
147.9357148250569
 30
0.0
 11
45.13383216287451
 21
147.9357148250569
 31
0.0
  0
LINE
  5
2CC
330
47E
100
AcDbEntity
  8
0
 62
     7
100
AcDbLine
 10
42.13383216287451
 20
150.9357148250569
 30
0.0
 11
42.13383216287446
 21
168.9357148250569
 31
0.0
  0
TEXT
  5
2FA
330
47E
100
AcDbEntity
  8
0
 62
     5
100
AcDbText
 10
-67.65478046194826
 20
220.6238406931828
 30
0.0
 40
4.650816915788118
  1
TUBULAR FIXED LADDER w/WALK-THRU & FALL ARREST SYSTEM
  7
ROMANC
100
AcDbText
  0
DIMENSION
  5
305
330
47E
100
AcDbEntity
  8
0
 62
     7
100
AcDbDimension
  2
*D13
 10
154.9285754063952
 20
156.9357148250568
 30
0.0
 11
155.0123454894596
 21
150.5876158571176
 31
0.0
 70
   160
  1
12" TYP
 71
     5
 42
12.0
  3
STANDARD$0
100
AcDbAlignedDimension
 13
145.8139326188639
 23
144.9357148250568
 33
0.0
 14
145.8139326188639
 24
156.9357148250568
 34
0.0
 50
90.0
100
AcDbRotatedDimension
1001
ACAD
1000
DSTYLE
1002
{
1070
    40
1040
30.0
1002
}
  0
TEXT
  5
306
330
47E
100
AcDbEntity
  8
0
 62
     5
100
AcDbText
 10
-60.76956251250397
 20
-143.6935102512699
 30
0.0
 40
3.617275051023047
  1
FACTORY FINISH
  7
ROMANS
 72
     1
 11
-38.97978660991275
 21
-143.6935102512699
 31
0.0
100
AcDbText
  0
TEXT
  5
307
330
47E
100
AcDbEntity
  8
0
 62
     5
100
AcDbText
 10
-70.13141484693743
 20
-149.5500508100691
 30
0.0
 40
3.617275051023047
  1
%%OALUMINUM-MILL FINISH
  7
ROMANS
 72
     1
 11
-38.97978660991275
 21
-149.5500508100691
 31
0.0
100
AcDbText
  0
TEXT
  5
308
330
47E
100
AcDbEntity
  8
0
 62
     5
100
AcDbText
 10
-56.55245920204846
 20
12.39253604555038
 30
0.0
 40
3.707706927298623
  1
BRACKET DETAIL
  7
ROMANS
 72
     1
 11
-33.5999877473427
 21
12.39253604555038
 31
0.0
100
AcDbText
  0
TEXT
  5
309
330
47E
100
AcDbEntity
  8
0
 62
     5
100
AcDbText
 10
-48.06178249929665
 20
98.06998918646925
 30
0.0
 40
3.707706927298623
  1
PLAN
  7
ROMANS
 72
     1
 11
-41.17604106288491
 21
98.06998918646925
 31
0.0
100
AcDbText
  0
TEXT
  5
30D
330
47E
100
AcDbEntity
  8
0
 62
     7
100
AcDbText
 10
47.79531109772621
 20
169.6889405596998
 30
0.0
 40
2.210999999999999
  1
ALUMINUM TUBULAR
  7
ROMANS
 72
     1
 11
64.27252538344049
 21
169.6889405596998
 31
0.0
100
AcDbText
  0
TEXT
  5
30E
330
47E
100
AcDbEntity
  8
0
 62
     7
100
AcDbText
 10
57.21838252629764
 20
166.1092262739855
 30
0.0
 40
2.210999999999999
  1
SIDERAIL
  7
ROMANS
 72
     1
 11
64.27252538344049
 21
166.1092262739855
 31
0.0
100
AcDbText
  0
TEXT
  5
30F
330
47E
100
AcDbEntity
  8
0
 62
     7
100
AcDbText
 10
55.32323966915478
 20
162.5295119882712
 30
0.0
 40
2.210999999999999
  1
(6005-T5)
  7
ROMANS
 72
     1
 11
64.27252538344049
 21
162.5295119882712
 31
0.0
100
AcDbText
  0
TEXT
  5
310
330
47E
100
AcDbEntity
  8
0
 62
     7
100
AcDbText
 10
86.88902478616578
 20
71.89621828177184
 30
0.0
 40
2.210999999999999
  1
2-1/4" SERRATED
  7
ROMANS
 72
     1
 11
102.5765962147372
 21
71.89621828177184
 31
0.0
100
AcDbText
  0
TEXT
  5
311
330
47E
100
AcDbEntity
  8
0
 62
     7
100
AcDbText
 10
88.78416764330863
 20
68.31650399605758
 30
0.0
 40
2.210999999999999
  1
ALUMINUM RUNG
  7
ROMANS
 72
     1
 11
102.5765962147372
 21
68.31650399605758
 31
0.0
100
AcDbText
  0
TEXT
  5
312
330
47E
100
AcDbEntity
  8
0
 62
     7
100
AcDbText
 10
93.6273105004515
 20
64.73678971034326
 30
0.0
 40
2.210999999999999
  1
(6005-T5)
  7
ROMANS
 72
     1
 11
102.5765962147372
 21
64.73678971034326
 31
0.0
100
AcDbText
  0
LINE
  5
316
330
47E
100
AcDbEntity
  8
0
 62
     7
100
AcDbLine
 10
124.7953357826253
 20
65.73438219886469
 30
0.0
 11
112.277442196351
 21
65.73438219886469
 31
0.0
  0
LINE
  5
317
330
47E
100
AcDbEntity
  8
0
 62
     7
100
AcDbLine
 10
127.5824195859867
 20
62.54091849692128
 30
0.0
 11
124.7953357826253
 21
65.73438219886469
 31
0.0
  0
SOLID
  5
318
330
47E
100
AcDbEntity
  8
0
 62
     7
100
AcDbTrace
 10
127.3752297637514
 20
62.36009433492381
 30
0.0
 11
127.7896094082221
 21
62.72174265891885
 31
0.0
 12
128.6673645579718
 22
61.29777956350944
 32
0.0
 13
128.6673645579718
 23
61.29777956350944
 33
0.0
  0
LINE
  5
319
330
47E
100
AcDbEntity
  8
0
 62
     7
100
AcDbLine
 10
49.00586093822102
 20
163.4836525512166
 30
0.0
 11
54.16446889667572
 21
163.4836525512166
 31
0.0
  0
LINE
  5
31A
330
47E
100
AcDbEntity
  8
0
 62
     7
100
AcDbLine
 10
46.21877713485957
 20
160.2901888492733
 30
0.0
 11
49.00586093822102
 21
163.4836525512166
 31
0.0
  0
SOLID
  5
31B
330
47E
100
AcDbEntity
  8
0
 62
     7
100
AcDbTrace
 10
46.42596695709488
 20
160.1093646872758
 30
0.0
 11
46.01158731262427
 21
160.4710130112709
 31
0.0
 12
45.13383216287451
 22
159.0470499158614
 32
0.0
 13
45.13383216287451
 23
159.0470499158614
 33
0.0
  0
DIMENSION
  5
362
330
47E
100
AcDbEntity
  8
0
 62
     7
100
AcDbDimension
  2
*D12
 10
165.8223556624522
 20
201.9357148250569
 30
0.0
 11
165.8223556624522
 21
179.4357148250568
 31
0.0
 70
    32
  1
45"
 71
     5
 42
45.0
  3
STANDARD$0
100
AcDbAlignedDimension
 13
145.8139326188639
 23
156.9357148250568
 33
0.0
 14
151.9389326188639
 24
201.9357148250569
 34
0.0
 50
90.0
100
AcDbRotatedDimension
1001
ACAD
1000
DSTYLE
1002
{
1070
    40
1040
30.0
1002
}
  0
TEXT
  5
363
330
47E
100
AcDbEntity
  8
0
 62
     7
100
AcDbText
 10
50.42745395486907
 20
173.2422752537821
 30
0.0
 40
2.210999999999999
  1
3" x 1" x 1/8"
  7
ROMANS
 72
     1
 11
64.27252538344049
 21
173.2422752537821
 31
0.0
100
AcDbText
  0
TEXT
  5
364
330
47E
100
AcDbEntity
  8
0
 62
     7
100
AcDbText
 10
-58.19501210832166
 20
92.07670525806367
 30
0.0
 40
2.224624156379173
  1
(HANDRAILS OMITTED
  7
ROMANS
 72
     1
 11
-40.76878955001813
 21
92.07670525806367
 31
0.0
100
AcDbText
  0
TEXT
  5
365
330
47E
100
AcDbEntity
  8
0
 62
     7
100
AcDbText
 10
-52.15674654100676
 20
88.47493281440216
 30
0.0
 40
2.224624156379173
  1
FOR CLARITY)
  7
ROMANS
 72
     1
 11
-40.76878955001813
 21
88.47493281440216
 31
0.0
100
AcDbText
  0
TEXT
  5
366
330
47E
100
AcDbEntity
  8
0
 62
     7
100
AcDbText
 10
-66.54073579203513
 20
190.3463151165311
 30
0.0
 40
2.170365030613827
  1
NOTE:
  7
ROMANS
100
AcDbText
  0
TEXT
  5
367
330
47E
100
AcDbEntity
  8
0
 62
     7
100
AcDbText
 10
-66.54073579203513
 20
186.8323907812516
 30
0.0
 40
2.170365030613827
  1
ALL BOLTS/FASTENERS
  7
ROMANS
100
AcDbText
  0
TEXT
  5
368
330
47E
100
AcDbEntity
  8
0
 62
     7
100
AcDbText
 10
-66.54073579203513
 20
183.3184664459722
 30
0.0
 40
2.170365030613827
  1
NECESSARY TO ANCHOR
  7
ROMANS
100
AcDbText
  0
TEXT
  5
369
330
47E
100
AcDbEntity
  8
0
 62
     7
100
AcDbText
 10
-66.54073579203513
 20
179.8045421106925
 30
0.0
 40
2.170365030613827
  1
LADDER ARE BY OTHERS.
  7
ROMANS
100
AcDbText
  0
INSERT
  5
386
330
47E
100
AcDbEntity
  8
0
100
AcDbBlockReference
  2
LINETYPE
 10
0.0
 20
0.0
 30
0.0
  0
LINE
  5
387
330
47E
100
AcDbEntity
  8
0
 62
     7
100
AcDbLine
 10
120.8139326188639
 20
-145.0642851749431
 30
0.0
 11
121.8139326188639
 21
-145.0642851749431
 31
0.0
  0
LINE
  5
388
330
47E
100
AcDbEntity
  8
0
 62
     7
100
AcDbLine
 10
145.8139326188639
 20
-145.0642851749431
 30
0.0
 11
146.8139326188639
 21
-145.0642851749431
 31
0.0
  0
DIMENSION
  5
38A
330
47E
100
AcDbEntity
  8
0
 62
     7
100
AcDbDimension
  2
*D11
 10
146.8139326188639
 20
-150.1409133009973
 30
0.0
 11
133.8139326188638
 21
-150.1409133009973
 31
0.0
 70
    32
  1
26"
 71
     5
 42
26.0
  3
STANDARD$0
100
AcDbAlignedDimension
 13
120.8139326188639
 23
-145.0642851749431
 33
0.0
 14
146.8139326188639
 24
-145.0642851749431
 34
0.0
100
AcDbRotatedDimension
1001
ACAD
1000
DSTYLE
1002
{
1070
    40
1040
30.0
1002
}
  0
LWPOLYLINE
  5
4AE
330
47E
100
AcDbEntity
  8
0
 62
     7
100
AcDbPolyline
 90
        4
 70
     1
 43
0.0
 10
45.38383216287451
 20
199.4357148250569
 10
45.38383216287451
 20
201.5337910364102
 42
0.2296707363695335
 10
41.88383216287451
 20
201.5337910364102
 10
41.88383216287451
 20
199.4357148250569
  0
LWPOLYLINE
  5
4B4
330
47E
100
AcDbEntity
  8
0
 62
     7
100
AcDbPolyline
 90
        4
 70
     1
 43
0.0
 10
117.688932618864
 20
199.4357148250568
 10
117.688932618864
 20
201.9357148250569
 10
118.938932618864
 20
201.9357148250569
 10
118.938932618864
 20
199.4357148250568
  0
INSERT
  5
DE8
330
47E
100
AcDbEntity
  8
0
100
AcDbBlockReference
  2
Border
 10
197.6623450109509
 20
-155.5404111375005
 30
0.0
 41
1.387899846815655
 42
1.387899846815655
 43
1.387899846815664
 50
90.0
  0
INSERT
  5
DFA
330
47E
100
AcDbEntity
  8
0
100
AcDbBlockReference
 66
     1
  2
Border-t
 10
219.6130010700131
 20
-154.5561403080057
 30
0.0
 41
1.387899846815655
 42
1.387899846815655
 43
1.387899846815664
 50
90.0
  0
ATTRIB
  5
DFB
330
DFA
100
AcDbEntity
  8
0
 62
     5
100
AcDbText
 10
196.0839895782348
 20
-152.7926774975074
 30
0.0
 40
3.122774655335243
  1

 50
90.0
  7
ROMANS
100
AcDbAttribute
  2
SCALE
 70
     0
  0
ATTRIB
  5
DFC
330
DFA
100
AcDbEntity
  8
0
100
AcDbText
 10
186.8817585079139
 20
196.3363091452702
 30
0.0
 40
2.431372829302425
  1
FLH-06-FAS
 50
90.0
  7
ROMANS
 72
     4
 11
185.6660720932627
 21
208.2616139747059
 31
0.0
100
AcDbAttribute
  2
SAVEDAS
 70
     0
  0
ATTRIB
  5
DFD
330
DFA
100
AcDbEntity
  8
0
 62
     5
100
AcDbText
 10
200.8887115562791
 20
-63.27074335474197
 30
0.0
 40
1.732323522036462
  1

 50
180.0
  7
ROMANS
 72
     4
 11
200.8887115562791
 21
-63.27074335474197
 31
0.0
100
AcDbAttribute
  2
X
 70
     0
  0
ATTRIB
  5
DFE
330
DFA
100
AcDbEntity
  8
0
100
AcDbText
 10
204.1125137749442
 20
13.0699891940732
 30
0.0
 40
2.4552360694695
  1

 50
90.0
  7
ROMANS
 72
     1
 11
204.1125137749442
 21
13.0699891940732
 31
0.0
100
AcDbAttribute
  2
ARCHORENG
 70
     0
  0
ATTRIB
  5
DFF
330
DFA
100
AcDbEntity
  8
0
100
AcDbText
 10
211.2649479870297
 20
13.0699891940732
 30
0.0
 40
2.4552360694695
  1

 50
90.0
  7
ROMANS
 72
     1
 11
211.2649479870297
 21
13.0699891940732
 31
0.0
100
AcDbAttribute
  2
PURCHASEORDER
 70
     0
  0
ATTRIB
  5
E00
330
DFA
100
AcDbEntity
  8
0
100
AcDbText
 10
218.4173821991155
 20
9.270219086560883
 30
0.0
 40
2.4552360694695
  1
DNH
 50
90.0
  7
ROMANS
 72
     1
 11
218.4173821991155
 21
13.0699891940732
 31
0.0
100
AcDbAttribute
  2
DRAWNBY
 70
     0
  0
ATTRIB
  5
E01
330
DFA
100
AcDbEntity
  8
0
100
AcDbText
 10
211.2649479870297
 20
55.0594120239312
 30
0.0
 40
2.4552360694695
  1

 50
90.0
  7
ROMANS
 72
     1
 11
211.2649479870297
 21
55.0594120239312
 31
0.0
100
AcDbAttribute
  2
REV
 70
     0
  0
ATTRIB
  5
E02
330
DFA
100
AcDbEntity
  8
0
100
AcDbText
 10
218.4173821991155
 20
48.16136782875499
 30
0.0
 40
2.4552360694695
  1
9/1/21
 50
90.0
  7
ROMANS
 72
     1
 11
218.4173821991155
 21
55.0594120239312
 31
0.0
100
AcDbAttribute
  2
DATE
 70
     0
  0
ATTRIB
  5
E03
330
DFA
100
AcDbEntity
  8
0
100
AcDbText
 10
204.1125137749442
 20
97.04883485378886
 30
0.0
 40
2.4552360694695
  1

 50
90.0
  7
ROMANS
 72
     1
 11
204.1125137749442
 21
97.04883485378886
 31
0.0
100
AcDbAttribute
  2
PROJECT
 70
     0
  0
ATTRIB
  5
E04
330
DFA
100
AcDbEntity
  8
0
100
AcDbText
 10
211.2649479870298
 20
108.5004956255681
 30
0.0
 40
2.4552360694695
  1

 50
90.0
  7
ROMANS
 72
     1
 11
211.2649479870298
 21
108.5004956255681
 31
0.0
100
AcDbAttribute
  2
PURCHASER
 70
     0
  0
ATTRIB
  5
E05
330
DFA
100
AcDbEntity
  8
0
100
AcDbText
 10
218.4173821991154
 20
96.01404097376361
 30
0.0
 40
2.4552360694695
  1
FLH-
 50
90.0
  7
ROMANS
 72
     1
 11
218.4173821991154
 21
100.8660551110486
 31
0.0
100
AcDbAttribute
  2
MODEL
 70
     0
  0
ATTRIB
  5
E06
330
DFA
100
AcDbEntity
  8
0
100
AcDbText
 10
218.4173821991155
 20
142.8554779409062
 30
0.0
 40
2.4552360694695
  1

 50
90.0
  7
ROMANS
 72
     1
 11
218.4173821991155
 21
142.8554779409062
 31
0.0
100
AcDbAttribute
  2
QTY
 70
     0
  0
ATTRIB
  5
E07
330
DFA
100
AcDbEntity
  8
0
100
AcDbText
 10
204.113442541885
 20
188.662121028024
 30
0.0
 40
2.4552360694695
  1

 50
90.0
  7
ROMANS
 72
     1
 11
204.113442541885
 21
188.662121028024
 31
0.0
100
AcDbAttribute
  2
REP
 70
     0
  0
ATTRIB
  5
E08
330
DFA
100
AcDbEntity
  8
0
100
AcDbText
 10
215.2366215815354
 20
188.7095446215341
 30
0.0
 40
4.795382948182617
  1

 50
90.0
  7
ROMANS
 72
     1
 11
215.2366215815354
 21
188.7095446215341
 31
0.0
100
AcDbAttribute
  2
L010000
 70
     0
  0
SEQEND
  5
E09
330
DFA
100
AcDbEntity
  8
0
  0
LINE
  5
1050
330
47E
100
AcDbEntity
  8
0
 62
     7
100
AcDbLine
 10
121.8139326188639
 20
150.9357148250568
 30
0.0
 11
125.0014326188638
 21
150.9357148250569
 31
0.0
  0
LINE
  5
1051
330
47E
100
AcDbEntity
  8
0
 62
     7
100
AcDbLine
 10
121.8139326188639
 20
147.9357148250568
 30
0.0
 11
125.0014326188638
 21
147.9357148250569
 31
0.0
  0
LINE
  5
1052
330
47E
100
AcDbEntity
  8
0
 62
     7
100
AcDbLine
 10
120.5014326188639
 20
150.9357148250568
 30
0.0
 11
120.7514326188638
 21
150.9357148250568
 31
0.0
  0
CIRCLE
  5
1053
330
47E
100
AcDbEntity
  8
0
 62
     7
100
AcDbCircle
 10
122.7514326188638
 20
149.4357148250569
 30
0.0
 40
0.28125
  0
LINE
  5
1054
330
47E
100
AcDbEntity
  8
0
 62
     7
100
AcDbLine
 10
120.5014326188639
 20
147.9357148250568
 30
0.0
 11
120.7514326188638
 21
147.9357148250568
 31
0.0
  0
LINE
  5
1055
330
47E
100
AcDbEntity
  8
0
 62
     7
100
AcDbLine
 10
120.5014326188639
 20
147.9357148250568
 30
0.0
 11
120.5014326188639
 21
150.9357148250568
 31
0.0
  0
LINE
  5
1056
330
47E
100
AcDbEntity
  8
0
 62
     7
100
AcDbLine
 10
125.0014326188638
 20
147.9357148250569
 30
0.0
 11
125.0014326188638
 21
150.9357148250569
 31
0.0
  0
CIRCLE
  5
1057
330
47E
100
AcDbEntity
  8
0
 62
     7
100
AcDbCircle
 10
144.8764326188638
 20
149.4357148250569
 30
0.0
 40
0.28125
  0
LINE
  5
1058
330
47E
100
AcDbEntity
  8
0
 62
     7
100
AcDbLine
 10
145.8139326188639
 20
150.9357148250568
 30
0.0
 11
142.6264326188638
 21
150.9357148250569
 31
0.0
  0
LINE
  5
1059
330
47E
100
AcDbEntity
  8
0
 62
     7
100
AcDbLine
 10
145.8139326188639
 20
147.9357148250568
 30
0.0
 11
142.6264326188638
 21
147.9357148250569
 31
0.0
  0
LINE
  5
105A
330
47E
100
AcDbEntity
  8
0
 62
     7
100
AcDbLine
 10
142.6264326188638
 20
147.9357148250569
 30
0.0
 11
142.6264326188638
 21
150.9357148250569
 31
0.0
  0
LINE
  5
105B
330
47E
100
AcDbEntity
  8
0
 62
     7
100
AcDbLine
 10
147.1264326188638
 20
150.9357148250568
 30
0.0
 11
146.8764326188638
 21
150.9357148250568
 31
0.0
  0
LINE
  5
105C
330
47E
100
AcDbEntity
  8
0
 62
     7
100
AcDbLine
 10
147.1264326188638
 20
147.9357148250568
 30
0.0
 11
146.8764326188638
 21
147.9357148250568
 31
0.0
  0
LINE
  5
105D
330
47E
100
AcDbEntity
  8
0
 62
     7
100
AcDbLine
 10
147.1264326188638
 20
147.9357148250568
 30
0.0
 11
147.1264326188638
 21
150.9357148250568
 31
0.0
  0
LWPOLYLINE
  5
105E
330
47E
100
AcDbEntity
  8
0
 62
     7
100
AcDbPolyline
 90
        6
 70
     1
 43
0.0
 10
-68.96245083289731
 20
119.6350355384882
 10
-68.25499318479505
 20
119.6350355384882
 10
-68.25499318479505
 20
142.9811379258629
 10
-57.64312846326118
 20
142.9811379258629
 10
-57.64312846326118
 20
143.6885955739651
 10
-68.96245083289731
 20
143.6885955739651
  0
LWPOLYLINE
  5
105F
330
47E
100
AcDbEntity
  8
0
 62
     7
100
AcDbPolyline
 90
        6
 70
     1
 43
0.0
 10
-11.658381336614
 20
119.6350355384882
 10
-10.95092368851162
 20
119.6350355384882
 10
-10.95092368851162
 20
143.6885955739651
 10
-22.27024605814795
 20
143.6885955739651
 10
-22.27024605814795
 20
142.9811379258629
 10
-11.658381336614
 20
142.9811379258629
  0
DIMENSION
  5
1060
330
47E
100
AcDbEntity
  8
0
 62
     7
100
AcDbDimension
  2
*D3
 10
-2.070894248672965
 20
143.6885955739651
 30
0.0
 11
-2.070894248672989
 21
133.7841885005335
 31
0.0
 70
    32
  1
7"
 71
     5
 42
19.80881414686337
  3
STANDARD$0
100
AcDbAlignedDimension
 13
-10.95092368851162
 23
123.8797814271018
 33
0.0
 14
-10.95092368851162
 24
143.6885955739651
 34
0.0
 50
90.0
100
AcDbRotatedDimension
1001
ACAD
1000
DSTYLE
1002
{
1070
    40
1040
30.0
1002
}
  0
LINE
  5
1061
330
47E
100
AcDbEntity
  8
0
 62
     7
100
AcDbLine
 10
-11.10354994220863
 20
37.37395730374294
 30
0.0
 11
-41.22204267809065
 21
54.76287719239006
 31
0.0
  0
LINE
  5
1062
330
47E
100
AcDbEntity
  8
0
 62
     7
100
AcDbLine
 10
-11.98938796385217
 20
36.86251848348852
 30
0.0
 11
-41.22204267809065
 21
53.73999955188139
 31
0.0
  0
LINE
  5
1064
330
47E
100
AcDbEntity
  8
0
 62
     7
100
AcDbLine
 10
-11.98938796385217
 20
24.58798679738467
 30
0.0
 11
-41.22204267809065
 21
41.46546786577753
 31
0.0
  0
DIMENSION
  5
1065
330
47E
100
AcDbEntity
  8
0
 62
     7
100
AcDbDimension
  2
*D4
 10
-5.04015202811599
 20
40.87466172164833
 30
0.0
 11
-20.099398396057
 21
49.56912166597192
 31
0.0
 70
    33
  1
 8-1/2"
 71
     5
 42
34.7778397772945
  3
STANDARD$0
100
AcDbAlignedDimension
 13
-41.22204267809065
 23
54.76287719239011
 33
0.0
 14
-11.10354994220863
 24
37.37395730374294
 34
0.0
1001
ACAD
1000
DSTYLE
1002
{
1070
    40
1040
30.0
1002
}
  0
DIMENSION
  5
1066
330
47E
100
AcDbEntity
  8
0
 62
     7
100
AcDbDimension
  2
*D5
 10
-65.4251625923861
 20
106.2446139244527
 30
0.0
 11
-39.95668726070459
 21
106.2446139244527
 31
0.0
 70
    32
  1
24"
 71
     5
 42
50.93695066336304
  3
STANDARD$0
100
AcDbAlignedDimension
 13
-14.48821192902306
 23
119.6350355384882
 33
0.0
 14
-65.4251625923861
 24
119.6350355384882
 34
0.0
100
AcDbRotatedDimension
1001
ACAD
1000
DSTYLE
1002
{
1070
    40
1040
30.0
1002
}
  0
LINE
  5
1067
330
47E
100
AcDbEntity
  8
0
 62
     7
100
AcDbLine
 10
-65.4251625923861
 20
127.0633408435619
 30
0.0
 11
-42.09356851070455
 21
127.0633408435619
 31
0.0
  0
LINE
  5
1068
330
47E
100
AcDbEntity
  8
0
 62
     7
100
AcDbLine
 10
-14.48821192902306
 20
120.6962220106416
 30
0.0
 11
-65.4251625923861
 21
120.6962220106416
 31
0.0
  0
LINE
  5
1069
330
47E
100
AcDbEntity
  8
0
 62
     7
100
AcDbLine
 10
-14.48821192902306
 20
123.8797814271018
 30
0.0
 11
-37.81980601070458
 21
123.8797814271018
 31
0.0
  0
LINE
  5
106A
330
47E
100
AcDbEntity
  8
0
 62
     7
100
AcDbLine
 10
-14.48821192902306
 20
124.9409678992552
 30
0.0
 11
-37.81980601070457
 21
124.9409678992552
 31
0.0
  0
LINE
  5
106B
330
47E
100
AcDbEntity
  8
0
 62
     7
100
AcDbLine
 10
-14.48821192902306
 20
126.0021543714086
 30
0.0
 11
-37.81980601070455
 21
126.0021543714086
 31
0.0
  0
LINE
  5
106C
330
47E
100
AcDbEntity
  8
0
 62
     7
100
AcDbLine
 10
-14.48821192902306
 20
122.8185949549484
 30
0.0
 11
-37.81980601070458
 21
122.8185949549484
 31
0.0
  0
LINE
  5
106D
330
47E
100
AcDbEntity
  8
0
 62
     7
100
AcDbLine
 10
-14.48821192902306
 20
121.7574084827949
 30
0.0
 11
-37.81980601070458
 21
121.757408482795
 31
0.0
  0
LINE
  5
106E
330
47E
100
AcDbEntity
  8
0
 62
     7
100
AcDbLine
 10
-55.39545102438776
 20
46.57985606832091
 30
0.0
 11
-41.22204267809065
 21
54.76287719239006
 31
0.0
  0
LINE
  5
106F
330
47E
100
AcDbEntity
  8
0
 62
     7
100
AcDbLine
 10
-54.50961300274424
 20
46.06841724806655
 30
0.0
 11
-41.22204267809065
 21
53.73999955188139
 31
0.0
  0
LINE
  5
1070
330
47E
100
AcDbEntity
  8
0
 62
     7
100
AcDbLine
 10
-41.22204267809065
 20
53.73999955188139
 30
0.0
 11
-41.22204267809065
 21
41.46546786577753
 31
0.0
  0
DIMENSION
  5
1071
330
47E
100
AcDbEntity
  8
0
 62
     7
100
AcDbDimension
  2
*D6
 10
-59.14279080884677
 20
48.74338370162305
 30
0.0
 11
-54.57791623699421
 21
53.3978966941451
 31
0.0
 70
   161
  1
4-1/2"
 71
     5
 42
16.36604224813841
  3
STANDARD$0
100
AcDbAlignedDimension
 13
-41.22204267809065
 23
54.76287719239011
 33
0.0
 14
-55.39545102438787
 24
46.57985606832085
 34
0.0
1001
ACAD
1000
DSTYLE
1002
{
1070
    40
1040
30.0
1002
}
  0
LWPOLYLINE
  5
1072
330
47E
100
AcDbEntity
  8
0
 62
     7
100
AcDbPolyline
 90
       16
 70
     1
 43
0.0
 10
-48.89617255592596
 20
43.98576693848377
 42
0.0587518675353646
 10
-49.12133517952351
 20
43.46232319525263
 42
0.0723410840576763
 10
-49.18806049912118
 20
43.00355117548826
 42
0.106617054391126
 10
-49.09663810925161
 20
42.57968290162363
 42
0.1568512196706424
 10
-48.89617255592596
 20
42.3583785776463
 42
0.1568512196706761
 10
-48.60428461273132
 20
42.29542247787125
 42
0.1066170543910004
 10
-48.19149272477192
 20
42.42818250270219
 42
0.0723410840577375
 10
-47.82754716090911
 20
42.71535433443147
 42
0.0587518675353654
 10
-47.48681289361774
 20
43.172072758065
 42
0.0587518675353444
 10
-47.26165027002031
 20
43.69551650129614
 42
0.0723410840576672
 10
-47.19492495042276
 20
44.15428852106051
 42
0.1066170543911832
 10
-47.28634734029197
 20
44.5781567949249
 42
0.1568512196709102
 10
-47.48681289361774
 20
44.79946111890253
 42
0.1568512196706761
 10
-47.77870083681263
 20
44.86241721867752
 42
0.1066170543910004
 10
-48.19149272477192
 20
44.72965719384658
 42
0.0723410840577166
 10
-48.55543828863459
 20
44.44248536211747
 42
0.0587518675353862
  0
LWPOLYLINE
  5
1073
330
47E
100
AcDbEntity
  8
0
 62
     7
100
AcDbPolyline
 90
        7
 70
     0
 43
0.0
 10
-49.18145016019868
 20
42.8871409132932
 42
0.0283695723264663
 10
-49.07733074641544
 20
42.93962132295643
 42
0.0723410840577375
 10
-48.71338518255277
 20
43.22679315468577
 42
0.0587518675353654
 10
-48.37265091526128
 20
43.68351157831931
 42
0.0587518675353444
 10
-48.14748829166386
 20
44.20695532155044
 42
0.0723410840576672
 10
-48.08076297206642
 20
44.66572734131488
 42
0.0283695723264929
 10
-48.08737331098868
 20
44.78213760350981
 42
0.1568512196709102
  0
LINE
  5
1074
330
47E
100
AcDbEntity
  8
0
 62
     7
100
AcDbLine
 10
-54.50961300274425
 20
33.79388556196264
 30
0.0
 11
-41.22204267809065
 21
41.46546786577753
 31
0.0
  0
TEXT
  5
1075
330
47E
100
AcDbEntity
  8
0
 62
     7
100
AcDbText
 10
-53.05598507290888
 20
22.39631617636025
 30
0.0
 40
2.067732537750532
  1
%%C9/16"
  7
ROMANS
 72
     2
 11
-41.92961475072745
 21
23.43018244523551
 31
0.0
100
AcDbText
 73
     2
  0
DIMENSION
  5
1076
330
47E
100
AcDbEntity
  8
0
 62
     7
100
AcDbDimension
  2
*D7
 10
-55.39545102438767
 20
30.64534020682299
 30
0.0
 11
-63.89746222338057
 21
33.06614050020832
 31
0.0
 70
   161
  1
1/4"
 71
     5
 42
1.02287764050871
  3
STANDARD$0
100
AcDbAlignedDimension
 13
-54.50961300274425
 23
33.79388556196264
 33
0.0
 14
-55.39545102438789
 24
34.305324382217
 34
0.0
1001
ACAD
1000
DSTYLE
1002
{
1070
    40
1040
30.0
1002
}
  0
LINE
  5
1077
330
47E
100
AcDbEntity
  8
0
 62
     7
100
AcDbLine
 10
-55.39545102438777
 20
34.305324382217
 30
0.0
 11
-55.39545102438776
 21
46.57985606832091
 31
0.0
  0
LINE
  5
1078
330
47E
100
AcDbEntity
  8
0
 62
     7
100
AcDbLine
 10
-54.50961300274425
 20
33.79388556196264
 30
0.0
 11
-54.50961300274424
 21
46.06841724806655
 31
0.0
  0
LINE
  5
1079
330
47E
100
AcDbEntity
  8
0
 62
     7
100
AcDbLine
 10
-54.50961300274425
 20
33.79388556196264
 30
0.0
 11
-55.39545102438777
 21
34.305324382217
 31
0.0
  0
LINE
  5
107A
330
47E
100
AcDbEntity
  8
0
 62
     7
100
AcDbLine
 10
-54.50961300274424
 20
46.06841724806655
 30
0.0
 11
-55.39545102438776
 21
46.57985606832091
 31
0.0
  0
MTEXT
  5
107C
330
47E
100
AcDbEntity
  8
0
 62
     7
100
AcDbMText
 10
604.1914518264324
 20
121.6480541996631
 30
0.0
 40
1.4472
 41
0.0
 71
     9
 72
     1
  1
 
  7
ROMANS
 73
     1
 44
1.0
1001
ACAD
1000
MTEXTBEGIN
1070
    73
1070
     1
1070
    44
1040
1.0
1070
    74
1070
     0
1000
MTEXTEND
  0
LWPOLYLINE
  5
107D
330
47E
100
AcDbEntity
  8
0
 62
     7
100
AcDbPolyline
 90
        4
 70
     0
 43
0.0
 10
-68.25499318479505
 20
119.6350355384882
 10
-65.4251625923861
 20
119.6350355384882
 10
-65.4251625923861
 20
128.1245273157154
 10
-68.25499318479505
 20
128.1245273157154
  0
LINE
  5
107F
330
47E
100
AcDbEntity
  8
0
 62
     7
100
AcDbLine
 10
-11.98938796385217
 20
24.58798679738467
 30
0.0
 11
-11.98938796385217
 21
36.86251848348852
 31
0.0
  0
LINE
  5
1080
330
47E
100
AcDbEntity
  8
0
 62
     7
100
AcDbLine
 10
-11.10354994220863
 20
25.09942561763903
 30
0.0
 11
-11.10354994220863
 21
37.37395730374294
 31
0.0
  0
DIMENSION
  5
1081
330
47E
100
AcDbEntity
  8
0
 62
     7
100
AcDbDimension
  2
*D8
 10
-5.040152028115715
 20
28.60013003554434
 30
0.0
 11
-4.335018591131567
 21
33.92354663240342
 31
0.0
 70
   161
  1
3"
 71
     5
 42
12.27453168610391
  3
STANDARD$0
100
AcDbAlignedDimension
 13
-11.10354994220863
 23
37.37395730374294
 33
0.0
 14
-11.10354994220863
 24
25.09942561763903
 34
0.0
1001
ACAD
1000
DSTYLE
1002
{
1070
    40
1040
30.0
1002
}
  0
LINE
  5
1082
330
47E
100
AcDbEntity
  8
0
 62
     7
100
AcDbLine
 10
-11.98938796385217
 20
24.58798679738467
 30
0.0
 11
-11.10354994220863
 21
25.09942561763903
 31
0.0
  0
LINE
  5
1083
330
47E
100
AcDbEntity
  8
0
 62
     7
100
AcDbLine
 10
-11.98938796385217
 20
36.86251848348852
 30
0.0
 11
-11.10354994220863
 21
37.37395730374294
 31
0.0
  0
LWPOLYLINE
  5
1084
330
47E
100
AcDbEntity
  8
0
 62
     7
100
AcDbPolyline
 90
        4
 70
     0
 43
0.0
 10
-11.658381336614
 20
119.6350355384882
 10
-14.48821192902306
 20
119.6350355384882
 10
-14.48821192902306
 20
128.1245273157153
 10
-11.658381336614
 20
128.1245273157153
  0
DIMENSION
  5
1085
330
47E
100
AcDbEntity
  8
0
 62
     7
100
AcDbDimension
  2
*D9
 10
-62.9490608240281
 20
151.6486379785904
 30
0.0
 11
-39.95668726070451
 21
151.6486379785904
 31
0.0
 70
    32
  1
22-1/8"
 71
     5
 42
45.98474712664717
  3
STANDARD$0
100
AcDbAlignedDimension
 13
-16.96431369738092
 23
142.9811379258629
 33
0.0
 14
-62.9490608240281
 24
142.9811379258629
 34
0.0
100
AcDbRotatedDimension
1001
ACAD
1000
DSTYLE
1002
{
1070
    40
1040
30.0
1002
}
  0
LEADER
  5
11C7
330
47E
100
AcDbEntity
  8
0
100
AcDbLeader
  3
STANDARD
 73
     0
 40
2.296875
 41
2.296875
 76
     3
 10
-47.82754716090982
 20
42.71535433443072
 30
0.0
 10
-37.77955064091811
 20
23.55497312002721
 30
0.0
 10
-40.30633589626828
 20
23.55905256099485
 30
0.0
340
11C8
211
1.0
221
-0.0000000000000002
231
0.0
213
-17.65068909582982
223
11.26486084298014
233
0.0
1001
ACAD
1000
DSTYLE
1002
{
1070
    40
1040
30.0
1002
}
  0
MTEXT
  5
11C8
102
{ACAD_REACTORS
330
11C7
102
}
330
47E
100
AcDbEntity
  8
0
100
AcDbMText
 10
274.8472511538362
 20
78.5663680024126
 30
0.0
 40
2.296875
 41
0.0
 71
     9
 72
     1
  1
\A1; 
  7
ROMANS
 73
     1
 44
1.0
1001
ACAD
1000
MTEXTBEGIN
1070
    73
1070
     1
1070
    44
1040
1.0
1070
    74
1070
     0
1000
MTEXTEND
  0
INSERT
  5
11F8
330
47E
100
AcDbEntity
  8
0
100
AcDbBlockReference
  2
Ldr-trd
 10
43.58451909418005
 20
156.9357148250569
 30
0.0
  0
INSERT
  5
11F9
330
47E
100
AcDbEntity
  8
0
100
AcDbBlockReference
  2
Ldr-trd
 10
43.58451909418005
 20
144.9357148250569
 30
0.0
  0
INSERT
  5
11FA
330
47E
100
AcDbEntity
  8
0
100
AcDbBlockReference
  2
Ldr-trd
 10
43.58451909418005
 20
132.9357148250569
 30
0.0
  0
LINE
  5
1799
330
47E
100
AcDbEntity
  8
0
 62
     7
100
AcDbLine
 10
36.63383216287452
 20
102.9357148250569
 30
0.0
 11
45.13383216287451
 21
102.9357148250569
 31
0.0
  0
LINE
  5
179A
330
47E
100
AcDbEntity
  8
0
 62
     7
100
AcDbLine
 10
36.63383216287452
 20
99.93571482505689
 30
0.0
 11
45.13383216287451
 21
99.93571482505689
 31
0.0
  0
LINE
  5
179C
330
47E
100
AcDbEntity
  8
0
 62
     7
100
AcDbLine
 10
42.13383216287446
 20
-145.0642851749431
 30
0.0
 11
42.13383216287446
 21
-140.0642851749431
 31
0.0
  0
LINE
  5
179E
330
47E
100
AcDbEntity
  8
0
 62
     7
100
AcDbLine
 10
121.8139326188639
 20
102.9357148250569
 30
0.0
 11
125.0014326188638
 21
102.9357148250569
 31
0.0
  0
LINE
  5
179F
330
47E
100
AcDbEntity
  8
0
 62
     7
100
AcDbLine
 10
121.8139326188639
 20
99.93571482505689
 30
0.0
 11
125.0014326188638
 21
99.93571482505689
 31
0.0
  0
LINE
  5
17A0
330
47E
100
AcDbEntity
  8
0
 62
     7
100
AcDbLine
 10
120.5014326188639
 20
102.9357148250569
 30
0.0
 11
120.7514326188638
 21
102.9357148250569
 31
0.0
  0
CIRCLE
  5
17A1
330
47E
100
AcDbEntity
  8
0
 62
     7
100
AcDbCircle
 10
122.7514326188638
 20
101.4357148250569
 30
0.0
 40
0.28125
  0
LINE
  5
17A2
330
47E
100
AcDbEntity
  8
0
 62
     7
100
AcDbLine
 10
120.5014326188639
 20
99.93571482505689
 30
0.0
 11
120.7514326188638
 21
99.93571482505689
 31
0.0
  0
LINE
  5
17A3
330
47E
100
AcDbEntity
  8
0
 62
     7
100
AcDbLine
 10
120.5014326188639
 20
99.93571482505689
 30
0.0
 11
120.5014326188639
 21
102.9357148250569
 31
0.0
  0
LINE
  5
17A4
330
47E
100
AcDbEntity
  8
0
 62
     7
100
AcDbLine
 10
125.0014326188638
 20
99.93571482505689
 30
0.0
 11
125.0014326188638
 21
102.9357148250569
 31
0.0
  0
CIRCLE
  5
17A5
330
47E
100
AcDbEntity
  8
0
 62
     7
100
AcDbCircle
 10
144.8764326188638
 20
101.4357148250569
 30
0.0
 40
0.28125
  0
LINE
  5
17A6
330
47E
100
AcDbEntity
  8
0
 62
     7
100
AcDbLine
 10
145.8139326188639
 20
102.9357148250568
 30
0.0
 11
142.6264326188638
 21
102.9357148250569
 31
0.0
  0
LINE
  5
17A7
330
47E
100
AcDbEntity
  8
0
 62
     7
100
AcDbLine
 10
145.8139326188639
 20
99.93571482505684
 30
0.0
 11
142.6264326188638
 21
99.93571482505689
 31
0.0
  0
LINE
  5
17A8
330
47E
100
AcDbEntity
  8
0
 62
     7
100
AcDbLine
 10
142.6264326188638
 20
99.93571482505689
 30
0.0
 11
142.6264326188638
 21
102.9357148250569
 31
0.0
  0
LINE
  5
17A9
330
47E
100
AcDbEntity
  8
0
 62
     7
100
AcDbLine
 10
147.1264326188638
 20
102.9357148250568
 30
0.0
 11
146.8764326188638
 21
102.9357148250568
 31
0.0
  0
LINE
  5
17AA
330
47E
100
AcDbEntity
  8
0
 62
     7
100
AcDbLine
 10
147.1264326188638
 20
99.93571482505684
 30
0.0
 11
146.8764326188638
 21
99.93571482505684
 31
0.0
  0
LINE
  5
17AB
330
47E
100
AcDbEntity
  8
0
 62
     7
100
AcDbLine
 10
147.1264326188638
 20
99.93571482505684
 30
0.0
 11
147.1264326188638
 21
102.9357148250568
 31
0.0
  0
DIMENSION
  5
20F9
330
47E
100
AcDbEntity
  8
0
100
AcDbDimension
  2
*D14
 10
24.95114345115968
 20
150.9357148250569
 30
0.0
 11
19.26721487973109
 21
153.9357148250569
 31
0.0
 70
    32
 71
     5
 42
6.000000000000056
  3
STANDARD$0
100
AcDbAlignedDimension
 13
36.63383216287452
 23
156.9357148250569
 33
0.0
 14
36.63383216287452
 24
150.9357148250569
 34
0.0
 50
90.0
100
AcDbRotatedDimension
1001
ACAD
1000
DSTYLE
1002
{
1070
    40
1040
30.0
1002
}
  0
LINE
  5
24EC
330
47E
100
AcDbEntity
  8
0
 62
     6
100
AcDbLine
 10
36.63383216287446
 20
-145.0642851749431
 30
0.0
 11
60.63383216287445
 21
-145.0642851749431
 31
0.0
  0
TEXT
  5
2576
330
47E
100
AcDbEntity
  8
0
 62
     7
100
AcDbText
 10
81.44767204333836
 20
209.8294981612391
 30
0.0
 40
2.210999999999999
  1
1/8" MOLDED
  7
ROMANS
 72
     1
 11
93.23967204333838
 21
209.8294981612391
 31
0.0
100
AcDbText
  0
TEXT
  5
2577
330
47E
100
AcDbEntity
  8
0
 62
     7
100
AcDbText
 10
80.65802918619551
 20
206.2497838755248
 30
0.0
 40
2.210999999999999
  1
POLYURETHANE
  7
ROMANS
 72
     1
 11
93.23967204333838
 21
206.2497838755248
 31
0.0
100
AcDbText
  0
TEXT
  5
2578
330
47E
100
AcDbEntity
  8
0
 62
     7
100
AcDbText
 10
82.18467204333837
 20
202.6700695898105
 30
0.0
 40
2.210999999999999
  1
SAFETY CAPS
  7
ROMANS
 72
     1
 11
93.23967204333838
 21
202.6700695898105
 31
0.0
100
AcDbText
  0
LWPOLYLINE
  5
258F
330
47E
100
AcDbEntity
  8
0
 62
     7
100
AcDbPolyline
 90
        4
 70
     1
 43
0.0
 10
45.38383216287463
 20
199.4357148250568
 10
45.38383216287463
 20
201.5337910364102
 42
0.2296707363695335
 10
41.88383216287462
 20
201.5337910364102
 10
41.88383216287462
 20
199.4357148250568
  0
LINE
  5
261F
330
47E
100
AcDbEntity
  8
0
 62
     7
100
AcDbLine
 10
42.13383216287428
 20
198.9357148250568
 30
0.0
 11
42.13383216287428
 21
199.4357148250569
 31
0.0
  0
LINE
  5
2665
330
47E
100
AcDbEntity
  8
0
 62
     7
100
AcDbLine
 10
42.13383216287451
 20
102.9357148250569
 30
0.0
 11
42.13383216287451
 21
147.9357148250569
 31
0.0
  0
TEXT
  5
26E6
330
47E
100
AcDbEntity
  8
0
100
AcDbText
 10
195.1321436921419
 20
108.9398645708095
 30
0.0
 40
2.451832031249999
  1
LADDER RATED AT 1,500 LBS
 50
90.0
  7
ROMANS
100
AcDbText
  0
TEXT
  5
26E9
330
47E
100
AcDbEntity
  8
0
100
AcDbText
 10
193.5422227721766
 20
-111.6661142623079
 30
0.0
 40
2.451832031249999
  1
LADDERS MANUFACTURED BY PRECISION LADDERS, LLC
 50
90.0
  7
ROMANS
100
AcDbText
  0
TEXT
  5
26EA
330
47E
100
AcDbEntity
  8
0
100
AcDbText
 10
197.436200781751
 20
-111.6661142623079
 30
0.0
 40
2.451832031249999
  1
COMPLY WITH OSHA 1910 SUBPART D AND ANSI 14.3
 50
90.0
  7
ROMANS
100
AcDbText
  0
LINE
  5
26EB
330
47E
100
AcDbEntity
  8
0
 62
     1
100
AcDbLine
 10
189.7869462211511
 20
227.1163175663025
 30
0.0
 11
189.786946221151
 21
-154.5561403080057
 31
0.0
  0
LINE
  5
26ED
330
47E
100
AcDbEntity
  8
0
 62
     1
100
AcDbLine
 10
189.7869462211511
 20
36.28008862914835
 30
0.0
 11
198.158484734579
 21
36.28008862914835
 31
0.0
  0
INSERT
  5
2D56
330
47E
100
AcDbEntity
  8
0
100
AcDbBlockReference
  2
Ldr-trd
 10
43.58451909418005
 20
120.9357148250569
 30
0.0
  0
INSERT
  5
2D57
330
47E
100
AcDbEntity
  8
0
100
AcDbBlockReference
  2
Ldr-trd
 10
43.58451909418005
 20
108.9357148250569
 30
0.0
  0
DIMENSION
  5
2DE0
330
47E
100
AcDbEntity
  8
0
 62
     7
100
AcDbDimension
  2
*D15
 10
120.8139326188638
 20
-150.1409133009973
 30
0.0
 11
133.8139326188638
 21
-150.1409133009973
 31
0.0
 70
    32
  1
26"
 71
     5
 42
26.0
  3
STANDARD$0
100
AcDbAlignedDimension
 13
146.8139326188638
 23
-145.0642851749431
 33
0.0
 14
120.8139326188638
 24
-145.0642851749431
 34
0.0
 50
180.0
100
AcDbRotatedDimension
1001
ACAD
1000
DSTYLE
1002
{
1070
    40
1040
30.0
1002
}
  0
LINE
  5
2E24
330
47E
100
AcDbEntity
  8
0
 62
     6
100
AcDbLine
 10
36.63383216287446
 20
-145.0642851749431
 30
0.0
 11
36.63383216287452
 21
156.9357148250569
 31
0.0
  0
INSERT
  5
2F94
330
47E
100
AcDbEntity
  8
0
100
AcDbBlockReference
  2
Ldr-trd
 10
43.58451909418005
 20
96.93571482505689
 30
0.0
  0
INSERT
  5
2F95
330
47E
100
AcDbEntity
  8
0
100
AcDbBlockReference
  2
Ldr-trd
 10
43.58451909418005
 20
84.93571482505689
 30
0.0
  0
INSERT
  5
2F9A
330
47E
100
AcDbEntity
  8
0
100
AcDbBlockReference
  2
Ldr-trd
 10
43.58451909418005
 20
72.93571482505689
 30
0.0
  0
INSERT
  5
2F9B
330
47E
100
AcDbEntity
  8
0
100
AcDbBlockReference
  2
Ldr-trd
 10
43.58451909418005
 20
60.93571482505689
 30
0.0
  0
DIMENSION
  5
2FBA
330
47E
100
AcDbEntity
  8
0
100
AcDbDimension
  2
*D16
 10
24.95114345115968
 20
150.9357148250569
 30
0.0
 11
24.95114345115966
 21
126.9357148250569
 31
0.0
 70
    32
  1
<>\PTYP
 71
     5
 42
47.99999999999998
  3
STANDARD$0
100
AcDbAlignedDimension
 13
36.63383216287452
 23
102.9357148250569
 33
0.0
 14
36.63383216287452
 24
150.9357148250569
 34
0.0
 50
90.0
100
AcDbRotatedDimension
1001
ACAD
1000
DSTYLE
1002
{
1070
    40
1040
30.0
1002
}
  0
LINE
  5
2FDD
330
47E
100
AcDbEntity
  8
0
 62
     7
100
AcDbLine
 10
36.63383216287452
 20
54.93571482505689
 30
0.0
 11
45.13383216287451
 21
54.93571482505689
 31
0.0
  0
LINE
  5
2FDE
330
47E
100
AcDbEntity
  8
0
 62
     7
100
AcDbLine
 10
36.63383216287452
 20
51.93571482505689
 30
0.0
 11
45.13383216287451
 21
51.93571482505689
 31
0.0
  0
LINE
  5
2FDF
330
47E
100
AcDbEntity
  8
0
 62
     7
100
AcDbLine
 10
121.8139326188639
 20
54.93571482505689
 30
0.0
 11
125.0014326188638
 21
54.93571482505689
 31
0.0
  0
LINE
  5
2FE0
330
47E
100
AcDbEntity
  8
0
 62
     7
100
AcDbLine
 10
121.8139326188639
 20
51.93571482505689
 30
0.0
 11
125.0014326188638
 21
51.93571482505689
 31
0.0
  0
LINE
  5
2FE1
330
47E
100
AcDbEntity
  8
0
 62
     7
100
AcDbLine
 10
120.5014326188639
 20
54.93571482505689
 30
0.0
 11
120.7514326188638
 21
54.93571482505689
 31
0.0
  0
CIRCLE
  5
2FE2
330
47E
100
AcDbEntity
  8
0
 62
     7
100
AcDbCircle
 10
122.7514326188638
 20
53.43571482505689
 30
0.0
 40
0.28125
  0
LINE
  5
2FE3
330
47E
100
AcDbEntity
  8
0
 62
     7
100
AcDbLine
 10
120.5014326188639
 20
51.93571482505689
 30
0.0
 11
120.7514326188638
 21
51.93571482505689
 31
0.0
  0
LINE
  5
2FE4
330
47E
100
AcDbEntity
  8
0
 62
     7
100
AcDbLine
 10
120.5014326188639
 20
51.93571482505689
 30
0.0
 11
120.5014326188639
 21
54.93571482505689
 31
0.0
  0
LINE
  5
2FE5
330
47E
100
AcDbEntity
  8
0
 62
     7
100
AcDbLine
 10
125.0014326188638
 20
51.93571482505689
 30
0.0
 11
125.0014326188638
 21
54.93571482505689
 31
0.0
  0
CIRCLE
  5
2FE6
330
47E
100
AcDbEntity
  8
0
 62
     7
100
AcDbCircle
 10
144.8764326188638
 20
53.43571482505689
 30
0.0
 40
0.28125
  0
LINE
  5
2FE7
330
47E
100
AcDbEntity
  8
0
 62
     7
100
AcDbLine
 10
145.8139326188639
 20
54.93571482505689
 30
0.0
 11
142.6264326188638
 21
54.93571482505689
 31
0.0
  0
LINE
  5
2FE8
330
47E
100
AcDbEntity
  8
0
 62
     7
100
AcDbLine
 10
145.8139326188639
 20
51.93571482505689
 30
0.0
 11
142.6264326188638
 21
51.93571482505689
 31
0.0
  0
LINE
  5
2FE9
330
47E
100
AcDbEntity
  8
0
 62
     7
100
AcDbLine
 10
142.6264326188638
 20
51.93571482505689
 30
0.0
 11
142.6264326188638
 21
54.93571482505689
 31
0.0
  0
LINE
  5
2FEA
330
47E
100
AcDbEntity
  8
0
 62
     7
100
AcDbLine
 10
147.1264326188638
 20
54.93571482505689
 30
0.0
 11
146.8764326188638
 21
54.93571482505689
 31
0.0
  0
LINE
  5
2FEB
330
47E
100
AcDbEntity
  8
0
 62
     7
100
AcDbLine
 10
147.1264326188638
 20
51.93571482505689
 30
0.0
 11
146.8764326188638
 21
51.93571482505689
 31
0.0
  0
LINE
  5
2FEC
330
47E
100
AcDbEntity
  8
0
 62
     7
100
AcDbLine
 10
147.1264326188638
 20
51.93571482505689
 30
0.0
 11
147.1264326188638
 21
54.93571482505689
 31
0.0
  0
LINE
  5
2FED
330
47E
100
AcDbEntity
  8
0
 62
     7
100
AcDbLine
 10
42.13383216287451
 20
54.93571482505689
 30
0.0
 11
42.13383216287451
 21
99.93571482505689
 31
0.0
  0
LINE
  5
303B
330
47E
100
AcDbEntity
  8
0
100
AcDbLine
 10
120.8139326188639
 20
160.5215012626837
 30
0.0
 11
117.8139326188639
 21
163.5215012626836
 31
0.0
  0
LINE
  5
303C
330
47E
100
AcDbEntity
  8
0
100
AcDbLine
 10
121.8139326188639
 20
160.9357148250568
 30
0.0
 11
118.8139326188639
 21
163.9357148250568
 31
0.0
  0
LINE
  5
303E
330
47E
100
AcDbEntity
  8
0
100
AcDbLine
 10
118.8139326188639
 20
163.9357148250568
 30
0.0
 11
118.813932618864
 21
199.4357148250568
 31
0.0
  0
LINE
  5
303F
330
47E
100
AcDbEntity
  8
0
100
AcDbLine
 10
117.8139326188639
 20
163.5215012626836
 30
0.0
 11
117.813932618864
 21
199.4357148250568
 31
0.0
  0
LWPOLYLINE
  5
3049
330
47E
100
AcDbEntity
  8
0
 62
     7
100
AcDbPolyline
 90
        4
 70
     1
 43
0.0
 10
149.9389326188639
 20
199.4357148250568
 10
149.9389326188639
 20
201.9357148250569
 10
148.6889326188639
 20
201.9357148250569
 10
148.6889326188639
 20
199.4357148250568
  0
LINE
  5
304A
330
47E
100
AcDbEntity
  8
0
100
AcDbLine
 10
149.8139326188639
 20
163.5215012626836
 30
0.0
 11
149.8139326188639
 21
199.4357148250568
 31
0.0
  0
LINE
  5
304B
330
47E
100
AcDbEntity
  8
0
100
AcDbLine
 10
148.813932618864
 20
163.9357148250568
 30
0.0
 11
148.8139326188639
 21
199.4357148250568
 31
0.0
  0
LINE
  5
304C
330
47E
100
AcDbEntity
  8
0
100
AcDbLine
 10
146.8139326188639
 20
160.5215012626837
 30
0.0
 11
149.8139326188639
 21
163.5215012626836
 31
0.0
  0
LINE
  5
304D
330
47E
100
AcDbEntity
  8
0
100
AcDbLine
 10
145.8139326188639
 20
160.9357148250568
 30
0.0
 11
148.813932618864
 21
163.9357148250568
 31
0.0
  0
LINE
  5
3058
330
47E
100
AcDbEntity
  8
0
100
AcDbLine
 10
146.8139326188639
 20
160.5215012626836
 30
0.0
 11
145.8139326188639
 21
160.9357148250568
 31
0.0
  0
LINE
  5
305A
330
47E
100
AcDbEntity
  8
0
100
AcDbLine
 10
120.8139326188639
 20
160.5215012626837
 30
0.0
 11
121.8139326188639
 21
160.9357148250568
 31
0.0
  0
DIMENSION
  5
306B
330
47E
100
AcDbEntity
  8
0
100
AcDbDimension
  2
*D17
 10
148.8139326188639
 20
206.2441286277469
 30
0.0
 11
133.8139326188639
 21
206.2441286277469
 31
0.0
 70
    32
 71
     5
 42
29.99999999999995
  3
STANDARD$0
100
AcDbAlignedDimension
 13
118.813932618864
 23
199.0606892844122
 33
0.0
 14
148.8139326188639
 24
199.4357148250568
 34
0.0
100
AcDbRotatedDimension
1001
ACAD
1000
DSTYLE
1002
{
1070
    40
1040
30.0
1002
}
  0
LINE
  5
3090
330
47E
100
AcDbEntity
  8
0
100
AcDbLine
 10
45.13383216287451
 20
163.5215012626835
 30
0.0
 11
42.13383216287446
 21
163.5215012626835
 31
0.0
  0
LINE
  5
3092
330
47E
100
AcDbEntity
  8
0
100
AcDbLine
 10
45.13383216287451
 20
156.9357148250569
 30
0.0
 11
42.13383216287446
 21
156.9357148250569
 31
0.0
  0
DIMENSION
  5
340D
330
47E
100
AcDbEntity
  8
0
100
AcDbDimension
  2
*D18
 10
113.4586386866743
 20
160.9357148250568
 30
0.0
 11
113.0774198312347
 21
158.9357148250568
 31
0.0
 70
   160
 71
     5
 42
4.0
  3
STANDARD$0
100
AcDbAlignedDimension
 13
121.8139326188639
 23
156.9357148250568
 33
0.0
 14
121.8139326188639
 24
160.9357148250568
 34
0.0
 50
90.0
100
AcDbRotatedDimension
1001
ACAD
1000
DSTYLE
1002
{
1070
    40
1040
30.0
1002
}
  0
INSERT
  5
3548
330
47E
100
AcDbEntity
  8
0
100
AcDbBlockReference
  2
Ldr-trd
 10
43.58451909418005
 20
48.93571482505689
 30
0.0
  0
INSERT
  5
354B
330
47E
100
AcDbEntity
  8
0
100
AcDbBlockReference
  2
Ldr-trd
 10
43.58451909418
 20
36.93571482505689
 30
0.0
  0
INSERT
  5
354E
330
47E
100
AcDbEntity
  8
0
100
AcDbBlockReference
  2
Ldr-trd
 10
43.58451909418
 20
24.93571482505689
 30
0.0
  0
INSERT
  5
3551
330
47E
100
AcDbEntity
  8
0
100
AcDbBlockReference
  2
Ldr-trd
 10
43.58451909418
 20
12.93571482505689
 30
0.0
  0
INSERT
  5
3554
330
47E
100
AcDbEntity
  8
0
100
AcDbBlockReference
  2
Ldr-trd
 10
43.58451909418
 20
0.9357148250568911
 30
0.0
  0
INSERT
  5
3557
330
47E
100
AcDbEntity
  8
0
100
AcDbBlockReference
  2
Ldr-trd
 10
43.58451909418
 20
-11.06428517494311
 30
0.0
  0
INSERT
  5
355A
330
47E
100
AcDbEntity
  8
0
100
AcDbBlockReference
  2
Ldr-trd
 10
43.58451909418
 20
-23.06428517494311
 30
0.0
  0
INSERT
  5
355D
330
47E
100
AcDbEntity
  8
0
100
AcDbBlockReference
  2
Ldr-trd
 10
43.58451909418
 20
-35.06428517494311
 30
0.0
  0
INSERT
  5
3560
330
47E
100
AcDbEntity
  8
0
100
AcDbBlockReference
  2
Ldr-trd
 10
43.58451909418
 20
-47.06428517494311
 30
0.0
  0
INSERT
  5
3563
330
47E
100
AcDbEntity
  8
0
100
AcDbBlockReference
  2
Ldr-trd
 10
43.58451909418
 20
-59.06428517494311
 30
0.0
  0
INSERT
  5
3566
330
47E
100
AcDbEntity
  8
0
100
AcDbBlockReference
  2
Ldr-trd
 10
43.58451909418
 20
-71.06428517494311
 30
0.0
  0
INSERT
  5
3569
330
47E
100
AcDbEntity
  8
0
100
AcDbBlockReference
  2
Ldr-trd
 10
43.58451909418
 20
-83.0642851749431
 30
0.0
  0
INSERT
  5
356C
330
47E
100
AcDbEntity
  8
0
100
AcDbBlockReference
  2
Ldr-trd
 10
43.58451909418
 20
-95.06428517494311
 30
0.0
  0
INSERT
  5
356F
330
47E
100
AcDbEntity
  8
0
100
AcDbBlockReference
  2
Ldr-trd
 10
43.58451909418
 20
-107.0642851749431
 30
0.0
  0
LINE
  5
3570
330
47E
100
AcDbEntity
  8
0
 62
     7
100
AcDbLine
 10
145.8139326188639
 20
-119.0642851749431
 30
0.0
 11
121.8139326188639
 21
-119.0642851749431
 31
0.0
  0
LINE
  5
3571
330
47E
100
AcDbEntity
  8
0
 62
     7
100
AcDbLine
 10
145.8139326188639
 20
-119.8142851749431
 30
0.0
 11
121.8139326188639
 21
-119.8142851749431
 31
0.0
  0
INSERT
  5
3572
330
47E
100
AcDbEntity
  8
0
100
AcDbBlockReference
  2
Ldr-trd
 10
43.58451909418
 20
-119.0642851749431
 30
0.0
  0
LINE
  5
3573
330
47E
100
AcDbEntity
  8
0
 62
     7
100
AcDbLine
 10
145.8139326188638
 20
-131.0642851749431
 30
0.0
 11
121.8139326188638
 21
-131.0642851749431
 31
0.0
  0
LINE
  5
3574
330
47E
100
AcDbEntity
  8
0
 62
     7
100
AcDbLine
 10
145.8139326188638
 20
-131.8142851749431
 30
0.0
 11
121.8139326188638
 21
-131.8142851749431
 31
0.0
  0
INSERT
  5
3575
330
47E
100
AcDbEntity
  8
0
100
AcDbBlockReference
  2
Ldr-trd
 10
43.58451909418
 20
-131.0642851749431
 30
0.0
  0
LINE
  5
3576
330
47E
100
AcDbEntity
  8
0
 62
     7
100
AcDbLine
 10
145.8139326188638
 20
-143.0642851749431
 30
0.0
 11
121.8139326188638
 21
-143.0642851749431
 31
0.0
  0
LINE
  5
3577
330
47E
100
AcDbEntity
  8
0
 62
     7
100
AcDbLine
 10
145.8139326188638
 20
-143.8142851749431
 30
0.0
 11
121.8139326188638
 21
-143.8142851749431
 31
0.0
  0
INSERT
  5
3578
330
47E
100
AcDbEntity
  8
0
100
AcDbBlockReference
  2
Ldr-trd
 10
43.58451909418
 20
-143.0642851749431
 30
0.0
  0
LINE
  5
3583
330
47E
100
AcDbEntity
  8
0
100
AcDbLine
 10
42.13383216287446
 20
-145.0642851749431
 30
0.0
 11
45.13383216287451
 21
-145.0642851749431
 31
0.0
  0
LINE
  5
35A6
330
47E
100
AcDbEntity
  8
0
 62
     7
100
AcDbLine
 10
36.63383216287446
 20
6.935714825056891
 30
0.0
 11
45.13383216287445
 21
6.935714825056891
 31
0.0
  0
LINE
  5
35A7
330
47E
100
AcDbEntity
  8
0
 62
     7
100
AcDbLine
 10
36.63383216287446
 20
3.935714825056891
 30
0.0
 11
45.13383216287445
 21
3.935714825056891
 31
0.0
  0
LINE
  5
35A8
330
47E
100
AcDbEntity
  8
0
 62
     7
100
AcDbLine
 10
121.8139326188639
 20
6.935714825056891
 30
0.0
 11
125.0014326188638
 21
6.935714825056891
 31
0.0
  0
LINE
  5
35A9
330
47E
100
AcDbEntity
  8
0
 62
     7
100
AcDbLine
 10
121.8139326188639
 20
3.935714825056891
 30
0.0
 11
125.0014326188638
 21
3.935714825056891
 31
0.0
  0
LINE
  5
35AA
330
47E
100
AcDbEntity
  8
0
 62
     7
100
AcDbLine
 10
120.5014326188639
 20
6.935714825056891
 30
0.0
 11
120.7514326188638
 21
6.935714825056891
 31
0.0
  0
CIRCLE
  5
35AB
330
47E
100
AcDbEntity
  8
0
 62
     7
100
AcDbCircle
 10
122.7514326188638
 20
5.435714825056891
 30
0.0
 40
0.28125
  0
LINE
  5
35AC
330
47E
100
AcDbEntity
  8
0
 62
     7
100
AcDbLine
 10
120.5014326188639
 20
3.935714825056891
 30
0.0
 11
120.7514326188638
 21
3.935714825056891
 31
0.0
  0
LINE
  5
35AD
330
47E
100
AcDbEntity
  8
0
 62
     7
100
AcDbLine
 10
120.5014326188639
 20
3.935714825056891
 30
0.0
 11
120.5014326188639
 21
6.935714825056891
 31
0.0
  0
LINE
  5
35AE
330
47E
100
AcDbEntity
  8
0
 62
     7
100
AcDbLine
 10
125.0014326188638
 20
3.935714825056891
 30
0.0
 11
125.0014326188638
 21
6.935714825056891
 31
0.0
  0
CIRCLE
  5
35AF
330
47E
100
AcDbEntity
  8
0
 62
     7
100
AcDbCircle
 10
144.8764326188638
 20
5.435714825056891
 30
0.0
 40
0.28125
  0
LINE
  5
35B0
330
47E
100
AcDbEntity
  8
0
 62
     7
100
AcDbLine
 10
145.8139326188639
 20
6.935714825056891
 30
0.0
 11
142.6264326188638
 21
6.935714825056891
 31
0.0
  0
LINE
  5
35B1
330
47E
100
AcDbEntity
  8
0
 62
     7
100
AcDbLine
 10
145.8139326188639
 20
3.935714825056891
 30
0.0
 11
142.6264326188638
 21
3.935714825056891
 31
0.0
  0
LINE
  5
35B2
330
47E
100
AcDbEntity
  8
0
 62
     7
100
AcDbLine
 10
142.6264326188638
 20
3.935714825056891
 30
0.0
 11
142.6264326188638
 21
6.935714825056891
 31
0.0
  0
LINE
  5
35B3
330
47E
100
AcDbEntity
  8
0
 62
     7
100
AcDbLine
 10
147.1264326188638
 20
6.935714825056891
 30
0.0
 11
146.8764326188638
 21
6.935714825056891
 31
0.0
  0
LINE
  5
35B4
330
47E
100
AcDbEntity
  8
0
 62
     7
100
AcDbLine
 10
147.1264326188638
 20
3.935714825056891
 30
0.0
 11
146.8764326188638
 21
3.935714825056891
 31
0.0
  0
LINE
  5
35B5
330
47E
100
AcDbEntity
  8
0
 62
     7
100
AcDbLine
 10
147.1264326188638
 20
3.935714825056891
 30
0.0
 11
147.1264326188638
 21
6.935714825056891
 31
0.0
  0
LINE
  5
35B6
330
47E
100
AcDbEntity
  8
0
 62
     7
100
AcDbLine
 10
36.63383216287446
 20
-41.0642851749431
 30
0.0
 11
45.13383216287445
 21
-41.0642851749431
 31
0.0
  0
LINE
  5
35B7
330
47E
100
AcDbEntity
  8
0
 62
     7
100
AcDbLine
 10
36.63383216287446
 20
-44.06428517494311
 30
0.0
 11
45.13383216287445
 21
-44.06428517494311
 31
0.0
  0
LINE
  5
35B8
330
47E
100
AcDbEntity
  8
0
 62
     7
100
AcDbLine
 10
121.8139326188639
 20
-41.0642851749431
 30
0.0
 11
125.0014326188638
 21
-41.0642851749431
 31
0.0
  0
LINE
  5
35B9
330
47E
100
AcDbEntity
  8
0
 62
     7
100
AcDbLine
 10
121.8139326188639
 20
-44.06428517494311
 30
0.0
 11
125.0014326188638
 21
-44.06428517494311
 31
0.0
  0
LINE
  5
35BA
330
47E
100
AcDbEntity
  8
0
 62
     7
100
AcDbLine
 10
120.5014326188639
 20
-41.0642851749431
 30
0.0
 11
120.7514326188638
 21
-41.0642851749431
 31
0.0
  0
CIRCLE
  5
35BB
330
47E
100
AcDbEntity
  8
0
 62
     7
100
AcDbCircle
 10
122.7514326188638
 20
-42.56428517494311
 30
0.0
 40
0.28125
  0
LINE
  5
35BC
330
47E
100
AcDbEntity
  8
0
 62
     7
100
AcDbLine
 10
120.5014326188639
 20
-44.06428517494311
 30
0.0
 11
120.7514326188638
 21
-44.06428517494311
 31
0.0
  0
LINE
  5
35BD
330
47E
100
AcDbEntity
  8
0
 62
     7
100
AcDbLine
 10
120.5014326188639
 20
-44.06428517494311
 30
0.0
 11
120.5014326188639
 21
-41.0642851749431
 31
0.0
  0
LINE
  5
35BE
330
47E
100
AcDbEntity
  8
0
 62
     7
100
AcDbLine
 10
125.0014326188638
 20
-44.06428517494311
 30
0.0
 11
125.0014326188638
 21
-41.0642851749431
 31
0.0
  0
CIRCLE
  5
35BF
330
47E
100
AcDbEntity
  8
0
 62
     7
100
AcDbCircle
 10
144.8764326188638
 20
-42.56428517494311
 30
0.0
 40
0.28125
  0
LINE
  5
35C0
330
47E
100
AcDbEntity
  8
0
 62
     7
100
AcDbLine
 10
145.8139326188638
 20
-41.0642851749431
 30
0.0
 11
142.6264326188638
 21
-41.0642851749431
 31
0.0
  0
LINE
  5
35C1
330
47E
100
AcDbEntity
  8
0
 62
     7
100
AcDbLine
 10
145.8139326188638
 20
-44.06428517494311
 30
0.0
 11
142.6264326188638
 21
-44.06428517494311
 31
0.0
  0
LINE
  5
35C2
330
47E
100
AcDbEntity
  8
0
 62
     7
100
AcDbLine
 10
142.6264326188638
 20
-44.06428517494311
 30
0.0
 11
142.6264326188638
 21
-41.0642851749431
 31
0.0
  0
LINE
  5
35C3
330
47E
100
AcDbEntity
  8
0
 62
     7
100
AcDbLine
 10
147.1264326188638
 20
-41.0642851749431
 30
0.0
 11
146.8764326188638
 21
-41.0642851749431
 31
0.0
  0
LINE
  5
35C4
330
47E
100
AcDbEntity
  8
0
 62
     7
100
AcDbLine
 10
147.1264326188638
 20
-44.06428517494311
 30
0.0
 11
146.8764326188638
 21
-44.06428517494311
 31
0.0
  0
LINE
  5
35C5
330
47E
100
AcDbEntity
  8
0
 62
     7
100
AcDbLine
 10
147.1264326188638
 20
-44.06428517494311
 30
0.0
 11
147.1264326188638
 21
-41.0642851749431
 31
0.0
  0
LINE
  5
35C6
330
47E
100
AcDbEntity
  8
0
 62
     7
100
AcDbLine
 10
36.63383216287446
 20
-89.0642851749431
 30
0.0
 11
45.13383216287445
 21
-89.0642851749431
 31
0.0
  0
LINE
  5
35C7
330
47E
100
AcDbEntity
  8
0
 62
     7
100
AcDbLine
 10
36.63383216287446
 20
-92.06428517494311
 30
0.0
 11
45.13383216287445
 21
-92.06428517494311
 31
0.0
  0
LINE
  5
35C8
330
47E
100
AcDbEntity
  8
0
 62
     7
100
AcDbLine
 10
121.8139326188638
 20
-89.0642851749431
 30
0.0
 11
125.0014326188638
 21
-89.0642851749431
 31
0.0
  0
LINE
  5
35C9
330
47E
100
AcDbEntity
  8
0
 62
     7
100
AcDbLine
 10
121.8139326188638
 20
-92.06428517494311
 30
0.0
 11
125.0014326188638
 21
-92.06428517494311
 31
0.0
  0
LINE
  5
35CA
330
47E
100
AcDbEntity
  8
0
 62
     7
100
AcDbLine
 10
120.5014326188638
 20
-89.0642851749431
 30
0.0
 11
120.7514326188638
 21
-89.0642851749431
 31
0.0
  0
CIRCLE
  5
35CB
330
47E
100
AcDbEntity
  8
0
 62
     7
100
AcDbCircle
 10
122.7514326188638
 20
-90.5642851749431
 30
0.0
 40
0.28125
  0
LINE
  5
35CC
330
47E
100
AcDbEntity
  8
0
 62
     7
100
AcDbLine
 10
120.5014326188638
 20
-92.06428517494311
 30
0.0
 11
120.7514326188638
 21
-92.06428517494311
 31
0.0
  0
LINE
  5
35CD
330
47E
100
AcDbEntity
  8
0
 62
     7
100
AcDbLine
 10
120.5014326188638
 20
-92.06428517494311
 30
0.0
 11
120.5014326188638
 21
-89.0642851749431
 31
0.0
  0
LINE
  5
35CE
330
47E
100
AcDbEntity
  8
0
 62
     7
100
AcDbLine
 10
125.0014326188638
 20
-92.06428517494311
 30
0.0
 11
125.0014326188638
 21
-89.0642851749431
 31
0.0
  0
CIRCLE
  5
35CF
330
47E
100
AcDbEntity
  8
0
 62
     7
100
AcDbCircle
 10
144.8764326188638
 20
-90.5642851749431
 30
0.0
 40
0.28125
  0
LINE
  5
35D0
330
47E
100
AcDbEntity
  8
0
 62
     7
100
AcDbLine
 10
145.8139326188638
 20
-89.06428517494317
 30
0.0
 11
142.6264326188638
 21
-89.0642851749431
 31
0.0
  0
LINE
  5
35D1
330
47E
100
AcDbEntity
  8
0
 62
     7
100
AcDbLine
 10
145.8139326188638
 20
-92.06428517494316
 30
0.0
 11
142.6264326188638
 21
-92.06428517494311
 31
0.0
  0
LINE
  5
35D2
330
47E
100
AcDbEntity
  8
0
 62
     7
100
AcDbLine
 10
142.6264326188638
 20
-92.06428517494311
 30
0.0
 11
142.6264326188638
 21
-89.0642851749431
 31
0.0
  0
LINE
  5
35D3
330
47E
100
AcDbEntity
  8
0
 62
     7
100
AcDbLine
 10
147.1264326188638
 20
-89.06428517494317
 30
0.0
 11
146.8764326188638
 21
-89.06428517494317
 31
0.0
  0
LINE
  5
35D4
330
47E
100
AcDbEntity
  8
0
 62
     7
100
AcDbLine
 10
147.1264326188638
 20
-92.06428517494316
 30
0.0
 11
146.8764326188638
 21
-92.06428517494316
 31
0.0
  0
LINE
  5
35D5
330
47E
100
AcDbEntity
  8
0
 62
     7
100
AcDbLine
 10
147.1264326188638
 20
-92.06428517494316
 30
0.0
 11
147.1264326188638
 21
-89.06428517494317
 31
0.0
  0
LINE
  5
35D6
330
47E
100
AcDbEntity
  8
0
 62
     7
100
AcDbLine
 10
36.63383216287446
 20
-137.0642851749431
 30
0.0
 11
45.13383216287445
 21
-137.0642851749431
 31
0.0
  0
LINE
  5
35D7
330
47E
100
AcDbEntity
  8
0
 62
     7
100
AcDbLine
 10
36.63383216287446
 20
-140.0642851749431
 30
0.0
 11
45.13383216287445
 21
-140.0642851749431
 31
0.0
  0
LINE
  5
35D8
330
47E
100
AcDbEntity
  8
0
 62
     7
100
AcDbLine
 10
121.8139326188638
 20
-137.0642851749431
 30
0.0
 11
125.0014326188638
 21
-137.0642851749431
 31
0.0
  0
LINE
  5
35D9
330
47E
100
AcDbEntity
  8
0
 62
     7
100
AcDbLine
 10
121.8139326188638
 20
-140.0642851749431
 30
0.0
 11
125.0014326188638
 21
-140.0642851749431
 31
0.0
  0
LINE
  5
35DA
330
47E
100
AcDbEntity
  8
0
 62
     7
100
AcDbLine
 10
120.5014326188638
 20
-137.0642851749431
 30
0.0
 11
120.7514326188638
 21
-137.0642851749431
 31
0.0
  0
CIRCLE
  5
35DB
330
47E
100
AcDbEntity
  8
0
 62
     7
100
AcDbCircle
 10
122.7514326188638
 20
-138.5642851749431
 30
0.0
 40
0.28125
  0
LINE
  5
35DC
330
47E
100
AcDbEntity
  8
0
 62
     7
100
AcDbLine
 10
120.5014326188638
 20
-140.0642851749431
 30
0.0
 11
120.7514326188638
 21
-140.0642851749431
 31
0.0
  0
LINE
  5
35DD
330
47E
100
AcDbEntity
  8
0
 62
     7
100
AcDbLine
 10
120.5014326188638
 20
-140.0642851749431
 30
0.0
 11
120.5014326188638
 21
-137.0642851749431
 31
0.0
  0
LINE
  5
35DE
330
47E
100
AcDbEntity
  8
0
 62
     7
100
AcDbLine
 10
125.0014326188638
 20
-140.0642851749431
 30
0.0
 11
125.0014326188638
 21
-137.0642851749431
 31
0.0
  0
CIRCLE
  5
35DF
330
47E
100
AcDbEntity
  8
0
 62
     7
100
AcDbCircle
 10
144.8764326188638
 20
-138.5642851749431
 30
0.0
 40
0.28125
  0
LINE
  5
35E0
330
47E
100
AcDbEntity
  8
0
 62
     7
100
AcDbLine
 10
145.8139326188638
 20
-137.0642851749431
 30
0.0
 11
142.6264326188638
 21
-137.0642851749431
 31
0.0
  0
LINE
  5
35E1
330
47E
100
AcDbEntity
  8
0
 62
     7
100
AcDbLine
 10
145.8139326188638
 20
-140.0642851749431
 30
0.0
 11
142.6264326188638
 21
-140.0642851749431
 31
0.0
  0
LINE
  5
35E2
330
47E
100
AcDbEntity
  8
0
 62
     7
100
AcDbLine
 10
142.6264326188638
 20
-140.0642851749431
 30
0.0
 11
142.6264326188638
 21
-137.0642851749431
 31
0.0
  0
LINE
  5
35E3
330
47E
100
AcDbEntity
  8
0
 62
     7
100
AcDbLine
 10
147.1264326188638
 20
-137.0642851749431
 30
0.0
 11
146.8764326188638
 21
-137.0642851749431
 31
0.0
  0
LINE
  5
35E4
330
47E
100
AcDbEntity
  8
0
 62
     7
100
AcDbLine
 10
147.1264326188638
 20
-140.0642851749431
 30
0.0
 11
146.8764326188638
 21
-140.0642851749431
 31
0.0
  0
LINE
  5
35E5
330
47E
100
AcDbEntity
  8
0
 62
     7
100
AcDbLine
 10
147.1264326188638
 20
-140.0642851749431
 30
0.0
 11
147.1264326188638
 21
-137.0642851749431
 31
0.0
  0
LINE
  5
35E6
330
47E
100
AcDbEntity
  8
0
 62
     7
100
AcDbLine
 10
42.13383216287446
 20
-137.0642851749431
 30
0.0
 11
42.13383216287446
 21
-92.06428517494311
 31
0.0
  0
LINE
  5
35E7
330
47E
100
AcDbEntity
  8
0
 62
     7
100
AcDbLine
 10
42.13383216287446
 20
-89.0642851749431
 30
0.0
 11
42.13383216287446
 21
-44.06428517494311
 31
0.0
  0
LINE
  5
35E8
330
47E
100
AcDbEntity
  8
0
 62
     7
100
AcDbLine
 10
42.13383216287446
 20
-41.0642851749431
 30
0.0
 11
42.13383216287446
 21
3.935714825056891
 31
0.0
  0
LINE
  5
35E9
330
47E
100
AcDbEntity
  8
0
 62
     7
100
AcDbLine
 10
42.13383216287446
 20
6.935714825056891
 30
0.0
 11
42.13383216287451
 21
51.93571482505689
 31
0.0
  0
DIMENSION
  5
35F4
330
47E
100
AcDbEntity
  8
0
100
AcDbDimension
  2
*D19
 10
26.91925173874802
 20
-137.0642851749431
 30
0.0
 11
16.56225517857706
 21
-141.0642851749431
 31
0.0
 70
   160
  1
AS REQ'D
 71
     5
 42
8.000000000000028
  3
STANDARD$0
100
AcDbAlignedDimension
 13
42.13383216287446
 23
-145.0642851749431
 33
0.0
 14
36.63383216287446
 24
-137.0642851749431
 34
0.0
 50
90.0
100
AcDbRotatedDimension
1001
ACAD
1000
DSTYLE
1002
{
1070
    40
1040
30.0
1002
}
  0
LINE
  5
362E
330
47E
100
AcDbEntity
  8
0
100
AcDbLine
 10
132.8139326188641
 20
198.9357148250568
 30
0.0
 11
132.8139326188638
 21
-109.0642851749431
 31
0.0
  0
LINE
  5
362F
330
47E
100
AcDbEntity
  8
0
100
AcDbLine
 10
133.0639326188637
 20
198.9357148250568
 30
0.0
 11
133.0639326188638
 21
-109.0642851749431
 31
0.0
  0
LINE
  5
3630
330
47E
100
AcDbEntity
  8
0
100
AcDbLine
 10
133.5014326188639
 20
198.9357148250568
 30
0.0
 11
133.5014326188638
 21
-109.0642851749431
 31
0.0
  0
LINE
  5
3631
330
47E
100
AcDbEntity
  8
0
100
AcDbLine
 10
134.1264326188639
 20
198.9357148250568
 30
0.0
 11
134.1264326188639
 21
-109.0642851749431
 31
0.0
  0
LINE
  5
3632
330
47E
100
AcDbEntity
  8
0
100
AcDbLine
 10
134.5639326188639
 20
198.9357148250568
 30
0.0
 11
134.5639326188639
 21
-109.0642851749431
 31
0.0
  0
LINE
  5
3633
330
47E
100
AcDbEntity
  8
0
100
AcDbLine
 10
134.8139326188639
 20
198.9357148250568
 30
0.0
 11
134.8139326188638
 21
-109.0642851749431
 31
0.0
  0
LINE
  5
3634
330
47E
100
AcDbEntity
  8
0
100
AcDbLine
 10
45.13383216287451
 20
-109.0642851749431
 30
0.0
 11
46.38383216287451
 21
-109.0642851749431
 31
0.0
  0
LINE
  5
3635
330
47E
100
AcDbEntity
  8
0
100
AcDbLine
 10
46.38383216287451
 20
-109.0642851749431
 30
0.0
 11
46.38383216287457
 21
198.9357148250569
 31
0.0
  0
DIMENSION
  5
3636
330
47E
100
AcDbEntity
  8
0
100
AcDbDimension
  2
*D20
 10
59.55885481089925
 20
-145.0642851749431
 30
0.0
 11
59.55885481089928
 21
-127.0642851749431
 31
0.0
 70
    32
 71
     5
 42
35.99999999999999
  3
STANDARD$0
100
AcDbAlignedDimension
 13
46.38383216287451
 23
-109.0642851749431
 33
0.0
 14
51.50047855727621
 24
-145.0642851749431
 34
0.0
 50
90.0
100
AcDbRotatedDimension
  0
LINE
  5
3637
330
47E
100
AcDbEntity
  8
0
100
AcDbLine
 10
134.8139326188638
 20
-109.0642851749431
 30
0.0
 11
132.8139326188638
 21
-109.0642851749431
 31
0.0
  0
LINE
  5
3662
330
47E
100
AcDbEntity
  8
0
100
AcDbLine
 10
132.8139326188641
 20
198.9357148250568
 30
0.0
 11
134.8139326188639
 21
198.9357148250568
 31
0.0
  0
LINE
  5
3663
330
47E
100
AcDbEntity
  8
0
 62
     7
100
AcDbLine
 10
132.8139326188641
 20
156.9357148250568
 30
0.0
 11
121.8139326188639
 21
156.9357148250568
 31
0.0
  0
LINE
  5
3664
330
47E
100
AcDbEntity
  8
0
 62
     7
100
AcDbLine
 10
132.8139326188641
 20
156.1857148250569
 30
0.0
 11
121.8139326188639
 21
156.1857148250568
 31
0.0
  0
LINE
  5
3665
330
47E
100
AcDbEntity
  8
0
 62
     7
100
AcDbLine
 10
132.8139326188641
 20
144.1857148250568
 30
0.0
 11
121.8139326188639
 21
144.1857148250568
 31
0.0
  0
LINE
  5
3666
330
47E
100
AcDbEntity
  8
0
 62
     7
100
AcDbLine
 10
132.8139326188641
 20
144.9357148250568
 30
0.0
 11
121.8139326188639
 21
144.9357148250568
 31
0.0
  0
LINE
  5
3667
330
47E
100
AcDbEntity
  8
0
 62
     7
100
AcDbLine
 10
132.8139326188641
 20
132.9357148250568
 30
0.0
 11
121.8139326188639
 21
132.9357148250568
 31
0.0
  0
LINE
  5
3668
330
47E
100
AcDbEntity
  8
0
 62
     7
100
AcDbLine
 10
132.8139326188641
 20
132.1857148250568
 30
0.0
 11
121.8139326188639
 21
132.1857148250568
 31
0.0
  0
LINE
  5
3669
330
47E
100
AcDbEntity
  8
0
 62
     7
100
AcDbLine
 10
132.813932618864
 20
120.9357148250568
 30
0.0
 11
121.8139326188639
 21
120.9357148250568
 31
0.0
  0
LINE
  5
366A
330
47E
100
AcDbEntity
  8
0
 62
     7
100
AcDbLine
 10
132.813932618864
 20
120.1857148250568
 30
0.0
 11
121.8139326188639
 21
120.1857148250568
 31
0.0
  0
LINE
  5
366B
330
47E
100
AcDbEntity
  8
0
 62
     7
100
AcDbLine
 10
132.813932618864
 20
108.1857148250569
 30
0.0
 11
121.8139326188639
 21
108.1857148250569
 31
0.0
  0
LINE
  5
366C
330
47E
100
AcDbEntity
  8
0
 62
     7
100
AcDbLine
 10
132.813932618864
 20
108.9357148250569
 30
0.0
 11
121.8139326188639
 21
108.9357148250569
 31
0.0
  0
LINE
  5
366D
330
47E
100
AcDbEntity
  8
0
 62
     7
100
AcDbLine
 10
132.813932618864
 20
96.18571482505689
 30
0.0
 11
121.8139326188639
 21
96.18571482505689
 31
0.0
  0
LINE
  5
366E
330
47E
100
AcDbEntity
  8
0
 62
     7
100
AcDbLine
 10
132.813932618864
 20
96.93571482505689
 30
0.0
 11
121.8139326188639
 21
96.93571482505689
 31
0.0
  0
LINE
  5
366F
330
47E
100
AcDbEntity
  8
0
 62
     7
100
AcDbLine
 10
132.813932618864
 20
84.93571482505689
 30
0.0
 11
121.8139326188639
 21
84.93571482505689
 31
0.0
  0
LINE
  5
3670
330
47E
100
AcDbEntity
  8
0
 62
     7
100
AcDbLine
 10
132.813932618864
 20
84.18571482505688
 30
0.0
 11
121.8139326188639
 21
84.18571482505688
 31
0.0
  0
LINE
  5
3671
330
47E
100
AcDbEntity
  8
0
 62
     7
100
AcDbLine
 10
132.813932618864
 20
72.93571482505689
 30
0.0
 11
121.8139326188639
 21
72.93571482505689
 31
0.0
  0
LINE
  5
3672
330
47E
100
AcDbEntity
  8
0
 62
     7
100
AcDbLine
 10
132.813932618864
 20
72.18571482505689
 30
0.0
 11
121.8139326188639
 21
72.18571482505689
 31
0.0
  0
LINE
  5
3673
330
47E
100
AcDbEntity
  8
0
 62
     7
100
AcDbLine
 10
132.813932618864
 20
60.18571482505689
 30
0.0
 11
121.8139326188639
 21
60.18571482505689
 31
0.0
  0
LINE
  5
3674
330
47E
100
AcDbEntity
  8
0
 62
     7
100
AcDbLine
 10
132.813932618864
 20
60.93571482505689
 30
0.0
 11
121.8139326188639
 21
60.93571482505689
 31
0.0
  0
LINE
  5
3675
330
47E
100
AcDbEntity
  8
0
 62
     7
100
AcDbLine
 10
132.813932618864
 20
48.18571482505689
 30
0.0
 11
121.8139326188639
 21
48.18571482505689
 31
0.0
  0
LINE
  5
3676
330
47E
100
AcDbEntity
  8
0
 62
     7
100
AcDbLine
 10
132.813932618864
 20
48.93571482505689
 30
0.0
 11
121.8139326188639
 21
48.93571482505689
 31
0.0
  0
LINE
  5
3677
330
47E
100
AcDbEntity
  8
0
 62
     7
100
AcDbLine
 10
132.813932618864
 20
36.18571482505689
 30
0.0
 11
121.8139326188639
 21
36.18571482505689
 31
0.0
  0
LINE
  5
3678
330
47E
100
AcDbEntity
  8
0
 62
     7
100
AcDbLine
 10
132.813932618864
 20
36.93571482505689
 30
0.0
 11
121.8139326188639
 21
36.93571482505689
 31
0.0
  0
LINE
  5
3679
330
47E
100
AcDbEntity
  8
0
 62
     7
100
AcDbLine
 10
132.813932618864
 20
24.18571482505689
 30
0.0
 11
121.8139326188639
 21
24.18571482505689
 31
0.0
  0
LINE
  5
367A
330
47E
100
AcDbEntity
  8
0
 62
     7
100
AcDbLine
 10
132.813932618864
 20
24.93571482505689
 30
0.0
 11
121.8139326188639
 21
24.93571482505689
 31
0.0
  0
LINE
  5
367B
330
47E
100
AcDbEntity
  8
0
 62
     7
100
AcDbLine
 10
132.813932618864
 20
12.18571482505689
 30
0.0
 11
121.8139326188639
 21
12.18571482505689
 31
0.0
  0
LINE
  5
367C
330
47E
100
AcDbEntity
  8
0
 62
     7
100
AcDbLine
 10
132.813932618864
 20
12.93571482505689
 30
0.0
 11
121.8139326188639
 21
12.93571482505689
 31
0.0
  0
LINE
  5
367D
330
47E
100
AcDbEntity
  8
0
 62
     7
100
AcDbLine
 10
132.813932618864
 20
0.1857148250568912
 30
0.0
 11
121.8139326188639
 21
0.1857148250568912
 31
0.0
  0
LINE
  5
367E
330
47E
100
AcDbEntity
  8
0
 62
     7
100
AcDbLine
 10
132.813932618864
 20
0.9357148250568911
 30
0.0
 11
121.8139326188639
 21
0.9357148250568911
 31
0.0
  0
LINE
  5
367F
330
47E
100
AcDbEntity
  8
0
 62
     7
100
AcDbLine
 10
132.813932618864
 20
-11.81428517494311
 30
0.0
 11
121.8139326188639
 21
-11.81428517494311
 31
0.0
  0
LINE
  5
3680
330
47E
100
AcDbEntity
  8
0
 62
     7
100
AcDbLine
 10
132.813932618864
 20
-11.06428517494311
 30
0.0
 11
121.8139326188639
 21
-11.06428517494311
 31
0.0
  0
LINE
  5
3681
330
47E
100
AcDbEntity
  8
0
 62
     7
100
AcDbLine
 10
132.8139326188639
 20
-23.81428517494311
 30
0.0
 11
121.8139326188639
 21
-23.81428517494311
 31
0.0
  0
LINE
  5
3682
330
47E
100
AcDbEntity
  8
0
 62
     7
100
AcDbLine
 10
132.813932618864
 20
-23.06428517494311
 30
0.0
 11
121.8139326188639
 21
-23.06428517494311
 31
0.0
  0
LINE
  5
3683
330
47E
100
AcDbEntity
  8
0
 62
     7
100
AcDbLine
 10
132.8139326188639
 20
-35.81428517494311
 30
0.0
 11
121.8139326188639
 21
-35.81428517494311
 31
0.0
  0
LINE
  5
3684
330
47E
100
AcDbEntity
  8
0
 62
     7
100
AcDbLine
 10
132.8139326188639
 20
-35.06428517494311
 30
0.0
 11
121.8139326188639
 21
-35.06428517494311
 31
0.0
  0
LINE
  5
3685
330
47E
100
AcDbEntity
  8
0
 62
     7
100
AcDbLine
 10
132.8139326188638
 20
-47.81428517494311
 30
0.0
 11
121.8139326188639
 21
-47.81428517494311
 31
0.0
  0
LINE
  5
3686
330
47E
100
AcDbEntity
  8
0
 62
     7
100
AcDbLine
 10
132.8139326188639
 20
-47.06428517494311
 30
0.0
 11
121.8139326188639
 21
-47.06428517494311
 31
0.0
  0
LINE
  5
3687
330
47E
100
AcDbEntity
  8
0
 62
     7
100
AcDbLine
 10
132.8139326188638
 20
-59.81428517494311
 30
0.0
 11
121.8139326188639
 21
-59.81428517494311
 31
0.0
  0
LINE
  5
3688
330
47E
100
AcDbEntity
  8
0
 62
     7
100
AcDbLine
 10
132.8139326188638
 20
-59.06428517494311
 30
0.0
 11
121.8139326188639
 21
-59.06428517494311
 31
0.0
  0
LINE
  5
3689
330
47E
100
AcDbEntity
  8
0
 62
     7
100
AcDbLine
 10
132.8139326188638
 20
-71.8142851749431
 30
0.0
 11
121.8139326188639
 21
-71.8142851749431
 31
0.0
  0
LINE
  5
368A
330
47E
100
AcDbEntity
  8
0
 62
     7
100
AcDbLine
 10
132.8139326188638
 20
-71.06428517494311
 30
0.0
 11
121.8139326188639
 21
-71.06428517494311
 31
0.0
  0
LINE
  5
368B
330
47E
100
AcDbEntity
  8
0
 62
     7
100
AcDbLine
 10
132.8139326188638
 20
-83.81428517494311
 30
0.0
 11
121.8139326188639
 21
-83.81428517494311
 31
0.0
  0
LINE
  5
368C
330
47E
100
AcDbEntity
  8
0
 62
     7
100
AcDbLine
 10
132.8139326188638
 20
-83.0642851749431
 30
0.0
 11
121.8139326188639
 21
-83.0642851749431
 31
0.0
  0
LINE
  5
368D
330
47E
100
AcDbEntity
  8
0
 62
     7
100
AcDbLine
 10
132.8139326188638
 20
-95.81428517494311
 30
0.0
 11
121.8139326188639
 21
-95.81428517494311
 31
0.0
  0
LINE
  5
368E
330
47E
100
AcDbEntity
  8
0
 62
     7
100
AcDbLine
 10
132.8139326188638
 20
-95.06428517494311
 30
0.0
 11
121.8139326188639
 21
-95.06428517494311
 31
0.0
  0
LINE
  5
368F
330
47E
100
AcDbEntity
  8
0
 62
     7
100
AcDbLine
 10
132.8139326188638
 20
-107.8142851749431
 30
0.0
 11
121.8139326188639
 21
-107.8142851749431
 31
0.0
  0
LINE
  5
3690
330
47E
100
AcDbEntity
  8
0
 62
     7
100
AcDbLine
 10
132.8139326188638
 20
-107.0642851749431
 30
0.0
 11
121.8139326188639
 21
-107.0642851749431
 31
0.0
  0
LINE
  5
3691
330
47E
100
AcDbEntity
  8
0
 62
     7
100
AcDbLine
 10
134.8139326188638
 20
144.9357148250568
 30
0.0
 11
145.8139326188641
 21
144.9357148250568
 31
0.0
  0
LINE
  5
3692
330
47E
100
AcDbEntity
  8
0
 62
     7
100
AcDbLine
 10
134.8139326188638
 20
144.1857148250568
 30
0.0
 11
145.8139326188641
 21
144.1857148250568
 31
0.0
  0
LINE
  5
3693
330
47E
100
AcDbEntity
  8
0
 62
     7
100
AcDbLine
 10
134.8139326188638
 20
132.1857148250568
 30
0.0
 11
145.8139326188641
 21
132.1857148250568
 31
0.0
  0
LINE
  5
3694
330
47E
100
AcDbEntity
  8
0
 62
     7
100
AcDbLine
 10
134.8139326188638
 20
132.9357148250568
 30
0.0
 11
145.8139326188641
 21
132.9357148250568
 31
0.0
  0
LINE
  5
3695
330
47E
100
AcDbEntity
  8
0
 62
     7
100
AcDbLine
 10
134.8139326188638
 20
156.1857148250569
 30
0.0
 11
145.8139326188641
 21
156.1857148250568
 31
0.0
  0
LINE
  5
3696
330
47E
100
AcDbEntity
  8
0
 62
     7
100
AcDbLine
 10
134.8139326188638
 20
156.9357148250568
 30
0.0
 11
145.8139326188641
 21
156.9357148250568
 31
0.0
  0
LINE
  5
3697
330
47E
100
AcDbEntity
  8
0
 62
     7
100
AcDbLine
 10
134.8139326188639
 20
108.9357148250569
 30
0.0
 11
145.8139326188641
 21
108.9357148250568
 31
0.0
  0
LINE
  5
3698
330
47E
100
AcDbEntity
  8
0
 62
     7
100
AcDbLine
 10
134.8139326188639
 20
108.1857148250569
 30
0.0
 11
145.8139326188641
 21
108.1857148250568
 31
0.0
  0
LINE
  5
3699
330
47E
100
AcDbEntity
  8
0
 62
     7
100
AcDbLine
 10
134.8139326188639
 20
120.1857148250568
 30
0.0
 11
145.8139326188641
 21
120.1857148250568
 31
0.0
  0
LINE
  5
369A
330
47E
100
AcDbEntity
  8
0
 62
     7
100
AcDbLine
 10
134.8139326188639
 20
120.9357148250568
 30
0.0
 11
145.8139326188641
 21
120.9357148250568
 31
0.0
  0
LINE
  5
369B
330
47E
100
AcDbEntity
  8
0
 62
     7
100
AcDbLine
 10
134.8139326188639
 20
96.93571482505689
 30
0.0
 11
145.813932618864
 21
96.93571482505683
 31
0.0
  0
LINE
  5
369C
330
47E
100
AcDbEntity
  8
0
 62
     7
100
AcDbLine
 10
134.8139326188639
 20
96.18571482505689
 30
0.0
 11
145.813932618864
 21
96.18571482505684
 31
0.0
  0
LINE
  5
369D
330
47E
100
AcDbEntity
  8
0
 62
     7
100
AcDbLine
 10
134.8139326188639
 20
84.18571482505688
 30
0.0
 11
145.813932618864
 21
84.18571482505683
 31
0.0
  0
LINE
  5
369E
330
47E
100
AcDbEntity
  8
0
 62
     7
100
AcDbLine
 10
134.8139326188639
 20
84.93571482505689
 30
0.0
 11
145.813932618864
 21
84.93571482505684
 31
0.0
  0
LINE
  5
369F
330
47E
100
AcDbEntity
  8
0
 62
     7
100
AcDbLine
 10
134.8139326188639
 20
60.93571482505689
 30
0.0
 11
145.813932618864
 21
60.93571482505684
 31
0.0
  0
LINE
  5
36A0
330
47E
100
AcDbEntity
  8
0
 62
     7
100
AcDbLine
 10
134.8139326188639
 20
60.18571482505689
 30
0.0
 11
145.813932618864
 21
60.18571482505683
 31
0.0
  0
LINE
  5
36A1
330
47E
100
AcDbEntity
  8
0
 62
     7
100
AcDbLine
 10
134.8139326188639
 20
72.18571482505689
 30
0.0
 11
145.813932618864
 21
72.18571482505684
 31
0.0
  0
LINE
  5
36A2
330
47E
100
AcDbEntity
  8
0
 62
     7
100
AcDbLine
 10
134.8139326188639
 20
72.93571482505689
 30
0.0
 11
145.813932618864
 21
72.93571482505683
 31
0.0
  0
LINE
  5
36A3
330
47E
100
AcDbEntity
  8
0
 62
     7
100
AcDbLine
 10
134.8139326188639
 20
48.93571482505689
 30
0.0
 11
145.813932618864
 21
48.93571482505689
 31
0.0
  0
LINE
  5
36A4
330
47E
100
AcDbEntity
  8
0
 62
     7
100
AcDbLine
 10
134.8139326188639
 20
48.18571482505689
 30
0.0
 11
145.813932618864
 21
48.18571482505689
 31
0.0
  0
LINE
  5
36A5
330
47E
100
AcDbEntity
  8
0
 62
     7
100
AcDbLine
 10
134.8139326188639
 20
36.93571482505689
 30
0.0
 11
145.813932618864
 21
36.93571482505689
 31
0.0
  0
LINE
  5
36A6
330
47E
100
AcDbEntity
  8
0
 62
     7
100
AcDbLine
 10
134.8139326188639
 20
36.18571482505689
 30
0.0
 11
145.813932618864
 21
36.18571482505689
 31
0.0
  0
LINE
  5
36A7
330
47E
100
AcDbEntity
  8
0
 62
     7
100
AcDbLine
 10
134.813932618864
 20
24.93571482505689
 30
0.0
 11
145.813932618864
 21
24.93571482505689
 31
0.0
  0
LINE
  5
36A8
330
47E
100
AcDbEntity
  8
0
 62
     7
100
AcDbLine
 10
134.813932618864
 20
24.18571482505689
 30
0.0
 11
145.813932618864
 21
24.18571482505689
 31
0.0
  0
LINE
  5
36A9
330
47E
100
AcDbEntity
  8
0
 62
     7
100
AcDbLine
 10
134.813932618864
 20
12.93571482505689
 30
0.0
 11
145.813932618864
 21
12.93571482505689
 31
0.0
  0
LINE
  5
36AA
330
47E
100
AcDbEntity
  8
0
 62
     7
100
AcDbLine
 10
134.813932618864
 20
12.18571482505689
 30
0.0
 11
145.813932618864
 21
12.18571482505689
 31
0.0
  0
LINE
  5
36AB
330
47E
100
AcDbEntity
  8
0
 62
     7
100
AcDbLine
 10
134.813932618864
 20
0.9357148250568911
 30
0.0
 11
145.813932618864
 21
0.9357148250568911
 31
0.0
  0
LINE
  5
36AC
330
47E
100
AcDbEntity
  8
0
 62
     7
100
AcDbLine
 10
134.813932618864
 20
0.1857148250568912
 30
0.0
 11
145.813932618864
 21
0.1857148250568912
 31
0.0
  0
LINE
  5
36AD
330
47E
100
AcDbEntity
  8
0
 62
     7
100
AcDbLine
 10
134.813932618864
 20
-11.06428517494311
 30
0.0
 11
145.813932618864
 21
-11.06428517494311
 31
0.0
  0
LINE
  5
36AE
330
47E
100
AcDbEntity
  8
0
 62
     7
100
AcDbLine
 10
134.813932618864
 20
-11.81428517494311
 30
0.0
 11
145.813932618864
 21
-11.81428517494311
 31
0.0
  0
LINE
  5
36AF
330
47E
100
AcDbEntity
  8
0
 62
     7
100
AcDbLine
 10
134.813932618864
 20
-23.06428517494311
 30
0.0
 11
145.813932618864
 21
-23.06428517494311
 31
0.0
  0
LINE
  5
36B0
330
47E
100
AcDbEntity
  8
0
 62
     7
100
AcDbLine
 10
134.813932618864
 20
-23.81428517494311
 30
0.0
 11
145.813932618864
 21
-23.81428517494311
 31
0.0
  0
LINE
  5
36B1
330
47E
100
AcDbEntity
  8
0
 62
     7
100
AcDbLine
 10
134.813932618864
 20
-35.06428517494311
 30
0.0
 11
145.813932618864
 21
-35.06428517494311
 31
0.0
  0
LINE
  5
36B2
330
47E
100
AcDbEntity
  8
0
 62
     7
100
AcDbLine
 10
134.813932618864
 20
-35.81428517494311
 30
0.0
 11
145.813932618864
 21
-35.81428517494311
 31
0.0
  0
LINE
  5
36B3
330
47E
100
AcDbEntity
  8
0
 62
     7
100
AcDbLine
 10
134.813932618864
 20
-47.06428517494311
 30
0.0
 11
145.813932618864
 21
-47.06428517494311
 31
0.0
  0
LINE
  5
36B4
330
47E
100
AcDbEntity
  8
0
 62
     7
100
AcDbLine
 10
134.813932618864
 20
-47.81428517494311
 30
0.0
 11
145.813932618864
 21
-47.81428517494311
 31
0.0
  0
LINE
  5
36B5
330
47E
100
AcDbEntity
  8
0
 62
     7
100
AcDbLine
 10
134.813932618864
 20
-59.06428517494311
 30
0.0
 11
145.813932618864
 21
-59.06428517494311
 31
0.0
  0
LINE
  5
36B6
330
47E
100
AcDbEntity
  8
0
 62
     7
100
AcDbLine
 10
134.813932618864
 20
-59.81428517494311
 30
0.0
 11
145.813932618864
 21
-59.81428517494311
 31
0.0
  0
LINE
  5
36B7
330
47E
100
AcDbEntity
  8
0
 62
     7
100
AcDbLine
 10
134.813932618864
 20
-71.06428517494311
 30
0.0
 11
145.813932618864
 21
-71.06428517494311
 31
0.0
  0
LINE
  5
36B8
330
47E
100
AcDbEntity
  8
0
 62
     7
100
AcDbLine
 10
134.813932618864
 20
-71.8142851749431
 30
0.0
 11
145.813932618864
 21
-71.8142851749431
 31
0.0
  0
LINE
  5
36B9
330
47E
100
AcDbEntity
  8
0
 62
     7
100
AcDbLine
 10
134.813932618864
 20
-83.0642851749431
 30
0.0
 11
145.813932618864
 21
-83.06428517494316
 31
0.0
  0
LINE
  5
36BA
330
47E
100
AcDbEntity
  8
0
 62
     7
100
AcDbLine
 10
134.813932618864
 20
-83.81428517494311
 30
0.0
 11
145.813932618864
 21
-83.81428517494317
 31
0.0
  0
LINE
  5
36BB
330
47E
100
AcDbEntity
  8
0
 62
     7
100
AcDbLine
 10
134.813932618864
 20
-95.06428517494311
 30
0.0
 11
145.813932618864
 21
-95.06428517494317
 31
0.0
  0
LINE
  5
36BC
330
47E
100
AcDbEntity
  8
0
 62
     7
100
AcDbLine
 10
134.813932618864
 20
-95.81428517494311
 30
0.0
 11
145.813932618864
 21
-95.81428517494316
 31
0.0
  0
LINE
  5
36BD
330
47E
100
AcDbEntity
  8
0
 62
     7
100
AcDbLine
 10
134.813932618864
 20
-107.0642851749431
 30
0.0
 11
145.813932618864
 21
-107.0642851749431
 31
0.0
  0
LINE
  5
36BE
330
47E
100
AcDbEntity
  8
0
 62
     7
100
AcDbLine
 10
134.813932618864
 20
-107.8142851749431
 30
0.0
 11
145.813932618864
 21
-107.8142851749431
 31
0.0
  0
LINE
  5
36C0
330
47E
100
AcDbEntity
  8
0
100
AcDbLine
 10
45.13383216287451
 20
198.9357148250569
 30
0.0
 11
46.38383216287457
 21
198.9357148250569
 31
0.0
  0
MTEXT
  5
393E
330
47E
100
AcDbEntity
  8
0
100
AcDbMText
 10
53.81390456732811
 20
205.4124767623413
 30
0.0
 40
2.4609375
 41
0.0
 71
     1
 72
     1
  1
\A1;
  7
ROMANS
 73
     1
 44
1.0
1001
ACAD
1000
MTEXTBEGIN
1070
    73
1070
     1
1070
    44
1040
1.0
1070
    74
1070
     0
1000
MTEXTEND
  0
LINE
  5
39C5
330
47E
100
AcDbEntity
  8
0
100
AcDbLine
 10
149.8139326188639
 20
163.5215012626836
 30
0.0
 11
148.813932618864
 21
163.9357148250568
 31
0.0
  0
LINE
  5
39C6
330
47E
100
AcDbEntity
  8
0
100
AcDbLine
 10
117.8139326188639
 20
163.5215012626836
 30
0.0
 11
118.8139326188639
 21
163.9357148250569
 31
0.0
  0
LINE
  5
3CA9
330
47E
100
AcDbEntity
  8
0
100
AcDbLine
 10
-37.78775279195459
 20
118.5593407606416
 30
0.0
 11
-37.95015576695452
 21
118.2943674856416
 31
0.0
  0
LINE
  5
3CAA
330
47E
100
AcDbEntity
  8
0
100
AcDbLine
 10
-35.28546484820462
 20
114.9138213481416
 30
0.0
 11
-35.28546484820462
 21
115.1616995731416
 31
0.0
  0
ARC
  5
3CAB
330
47E
100
AcDbEntity
  8
0
100
AcDbCircle
 10
-35.48633168570461
 20
115.1616995731416
 30
0.0
 40
0.2008668375
100
AcDbArc
 50
0.0
 51
90.0
  0
ARC
  5
3CAC
330
47E
100
AcDbEntity
  8
0
100
AcDbCircle
 10
-35.48633168570461
 20
114.9138213481416
 30
0.0
 40
0.2008668375
100
AcDbArc
 50
270.0
 51
0.0
  0
LINE
  5
3CAD
330
47E
100
AcDbEntity
  8
0
100
AcDbLine
 10
-35.48633168570461
 20
115.3625664106417
 30
0.0
 11
-35.75130496070459
 21
115.3625664106417
 31
0.0
  0
LINE
  5
3CAE
330
47E
100
AcDbEntity
  8
0
100
AcDbLine
 10
-35.95217179820454
 20
115.5634332481417
 30
0.0
 11
-35.95217179820454
 21
115.8284065231416
 31
0.0
  0
ARC
  5
3CAF
330
47E
100
AcDbEntity
  8
0
100
AcDbCircle
 10
-35.75130496070459
 20
115.5634332481417
 30
0.0
 40
0.2008668375
100
AcDbArc
 50
180.0
 51
270.0
  0
ARC
  5
3CB0
330
47E
100
AcDbEntity
  8
0
100
AcDbCircle
 10
-36.15303863570453
 20
115.8284065231416
 30
0.0
 40
0.2008668375
100
AcDbArc
 50
0.0
 51
90.0
  0
LINE
  5
3CB1
330
47E
100
AcDbEntity
  8
0
100
AcDbLine
 10
-36.15303863570453
 20
116.0292733606416
 30
0.0
 11
-37.88604932945456
 21
116.0292733606416
 31
0.0
  0
ARC
  5
3CB2
330
47E
100
AcDbEntity
  8
0
100
AcDbCircle
 10
-37.88604932945456
 20
116.0933797981416
 30
0.0
 40
0.0641064375
100
AcDbArc
 50
180.0
 51
270.0
  0
LINE
  5
3CB3
330
47E
100
AcDbEntity
  8
0
100
AcDbLine
 10
-35.48633168570461
 20
114.7129545106416
 30
0.0
 11
-36.41801191070452
 21
114.7129545106416
 31
0.0
  0
LINE
  5
3CB4
330
47E
100
AcDbEntity
  8
0
100
AcDbLine
 10
-36.61887874820454
 20
114.9138213481416
 30
0.0
 11
-36.61887874820454
 21
115.1616995731416
 31
0.0
  0
ARC
  5
3CB5
330
47E
100
AcDbEntity
  8
0
100
AcDbCircle
 10
-36.81974558570454
 20
115.1616995731416
 30
0.0
 40
0.2008668375
100
AcDbArc
 50
0.0
 51
90.0
  0
ARC
  5
3CB6
330
47E
100
AcDbEntity
  8
0
100
AcDbCircle
 10
-36.41801191070452
 20
114.9138213481416
 30
0.0
 40
0.2008668375
100
AcDbArc
 50
180.0
 51
270.0
  0
LINE
  5
3CB7
330
47E
100
AcDbEntity
  8
0
100
AcDbLine
 10
-36.81974558570454
 20
115.3625664106417
 30
0.0
 11
-38.41813276070457
 21
115.3625664106417
 31
0.0
  0
ARC
  5
3CB8
330
47E
100
AcDbEntity
  8
0
100
AcDbCircle
 10
-38.41813276070457
 20
115.5634332481417
 30
0.0
 40
0.2008668375
100
AcDbArc
 50
180.0
 51
270.0
  0
LINE
  5
3CB9
330
47E
100
AcDbEntity
  8
0
100
AcDbLine
 10
-38.61899959820457
 20
115.5634332481417
 30
0.0
 11
-38.61899959820457
 21
117.0207862606416
 31
0.0
  0
ARC
  5
3CBA
330
47E
100
AcDbEntity
  8
0
100
AcDbCircle
 10
-38.81986643570451
 20
117.0207862606416
 30
0.0
 40
0.2008668375
100
AcDbArc
 50
0.0
 51
90.00000000000079
  0
LINE
  5
3CBB
330
47E
100
AcDbEntity
  8
0
100
AcDbLine
 10
-37.9501557669546
 20
116.0933797981416
 30
0.0
 11
-37.95015576695452
 21
118.2943674856416
 31
0.0
  0
LINE
  5
3CBC
330
47E
100
AcDbEntity
  8
0
100
AcDbLine
 10
-37.78775279195459
 20
118.5593407606416
 30
0.0
 11
-37.78775279195459
 21
120.4953551731416
 31
0.0
  0
ARC
  5
3CBD
330
47E
100
AcDbEntity
  8
0
100
AcDbCircle
 10
-37.98861962945458
 20
120.4953551731416
 30
0.0
 40
0.2008668375
100
AcDbArc
 50
0.0
 51
90.0
  0
LINE
  5
3CBE
330
47E
100
AcDbEntity
  8
0
100
AcDbLine
 10
-42.12562172945455
 20
118.5593407606416
 30
0.0
 11
-41.96321875445462
 21
118.2943674856416
 31
0.0
  0
LINE
  5
3CBF
330
47E
100
AcDbEntity
  8
0
100
AcDbLine
 10
-44.62790967320452
 20
114.9138213481416
 30
0.0
 11
-44.62790967320452
 21
115.1616995731416
 31
0.0
  0
ARC
  5
3CC0
330
47E
100
AcDbEntity
  8
0
100
AcDbCircle
 10
-44.42704283570452
 20
115.1616995731416
 30
0.0
 40
0.2008668375
100
AcDbArc
 50
90.0
 51
180.0
  0
LINE
  5
3CC1
330
47E
100
AcDbEntity
  8
0
100
AcDbLine
 10
-44.42704283570452
 20
115.3625664106417
 30
0.0
 11
-44.16206956070459
 21
115.3625664106416
 31
0.0
  0
LINE
  5
3CC2
330
47E
100
AcDbEntity
  8
0
100
AcDbLine
 10
-43.9612027232046
 20
115.5634332481417
 30
0.0
 11
-43.9612027232046
 21
115.8284065231416
 31
0.0
  0
ARC
  5
3CC3
330
47E
100
AcDbEntity
  8
0
100
AcDbCircle
 10
-44.16206956070459
 20
115.5634332481417
 30
0.0
 40
0.2008668375
100
AcDbArc
 50
270.0
 51
0.0
  0
ARC
  5
3CC4
330
47E
100
AcDbEntity
  8
0
100
AcDbCircle
 10
-43.7603358857046
 20
115.8284065231416
 30
0.0
 40
0.2008668375
100
AcDbArc
 50
90.0
 51
180.0
  0
LINE
  5
3CC5
330
47E
100
AcDbEntity
  8
0
100
AcDbLine
 10
-43.7603358857046
 20
116.0292733606416
 30
0.0
 11
-42.02732519195452
 21
116.0292733606416
 31
0.0
  0
ARC
  5
3CC6
330
47E
100
AcDbEntity
  8
0
100
AcDbCircle
 10
-42.02732519195452
 20
116.0933797981416
 30
0.0
 40
0.0641064375
100
AcDbArc
 50
270.0
 51
0.0
  0
LINE
  5
3CC7
330
47E
100
AcDbEntity
  8
0
100
AcDbLine
 10
-44.42704283570452
 20
114.7129545106416
 30
0.0
 11
-43.49536261070456
 21
114.7129545106416
 31
0.0
  0
ARC
  5
3CC8
330
47E
100
AcDbEntity
  8
0
100
AcDbCircle
 10
-44.42704283570452
 20
114.9138213481416
 30
0.0
 40
0.2008668375
100
AcDbArc
 50
180.0
 51
270.0
  0
LINE
  5
3CC9
330
47E
100
AcDbEntity
  8
0
100
AcDbLine
 10
-43.29449577320453
 20
114.9138213481416
 30
0.0
 11
-43.29449577320453
 21
115.1616995731416
 31
0.0
  0
ARC
  5
3CCA
330
47E
100
AcDbEntity
  8
0
100
AcDbCircle
 10
-43.09362893570459
 20
115.1616995731416
 30
0.0
 40
0.2008668375
100
AcDbArc
 50
90.0
 51
180.0
  0
ARC
  5
3CCB
330
47E
100
AcDbEntity
  8
0
100
AcDbCircle
 10
-43.49536261070456
 20
114.9138213481416
 30
0.0
 40
0.2008668375
100
AcDbArc
 50
270.0
 51
0.0
  0
LINE
  5
3CCC
330
47E
100
AcDbEntity
  8
0
100
AcDbLine
 10
-43.09362893570459
 20
115.3625664106417
 30
0.0
 11
-41.49524176070456
 21
115.3625664106417
 31
0.0
  0
LINE
  5
3CCD
330
47E
100
AcDbEntity
  8
0
100
AcDbLine
 10
-41.29437492320457
 20
115.5634332481417
 30
0.0
 11
-41.29437492320457
 21
117.0207862606416
 31
0.0
  0
ARC
  5
3CCE
330
47E
100
AcDbEntity
  8
0
100
AcDbCircle
 10
-41.09350808570456
 20
117.0207862606416
 30
0.0
 40
0.2008668375
100
AcDbArc
 50
89.9999999999992
 51
180.0
  0
ARC
  5
3CCF
330
47E
100
AcDbEntity
  8
0
100
AcDbCircle
 10
-41.49524176070456
 20
115.5634332481417
 30
0.0
 40
0.2008668375
100
AcDbArc
 50
270.0
 51
0.0
  0
LINE
  5
3CD0
330
47E
100
AcDbEntity
  8
0
100
AcDbLine
 10
-41.96321875445462
 20
116.0933797981416
 30
0.0
 11
-41.96321875445462
 21
118.2943674856416
 31
0.0
  0
LINE
  5
3CD1
330
47E
100
AcDbEntity
  8
0
100
AcDbLine
 10
-42.12562172945455
 20
118.5593407606416
 30
0.0
 11
-42.1256217294546
 21
120.4953551731416
 31
0.0
  0
ARC
  5
3CD2
330
47E
100
AcDbEntity
  8
0
100
AcDbCircle
 10
-41.92475489195461
 20
120.4953551731416
 30
0.0
 40
0.2008668375
100
AcDbArc
 50
90.0
 51
180.0
  0
LINE
  5
3CD3
330
47E
100
AcDbEntity
  8
0
100
AcDbLine
 10
-41.09350808570456
 20
117.2216530981417
 30
0.0
 11
-38.81986643570451
 21
117.2216530981417
 31
0.0
  0
LINE
  5
3CD4
330
47E
100
AcDbEntity
  8
0
100
AcDbLine
 10
-41.92475489195461
 20
120.6962220106416
 30
0.0
 11
-40.97811649820457
 21
120.6962220106416
 31
0.0
  0
LINE
  5
3CD5
330
47E
100
AcDbEntity
  8
0
100
AcDbLine
 10
-40.77724966070458
 20
120.4953551731416
 30
0.0
 11
-40.77724966070458
 21
120.0295150606416
 31
0.0
  0
ARC
  5
3CD6
330
47E
100
AcDbEntity
  8
0
100
AcDbCircle
 10
-40.97811649820457
 20
120.4953551731416
 30
0.0
 40
0.2008668375
100
AcDbArc
 50
0.0
 51
90.0
  0
LINE
  5
3CD7
330
47E
100
AcDbEntity
  8
0
100
AcDbLine
 10
-40.77724966070458
 20
120.0295150606416
 30
0.0
 11
-41.09350808570456
 21
120.0295150606416
 31
0.0
  0
LINE
  5
3CD8
330
47E
100
AcDbEntity
  8
0
100
AcDbLine
 10
-41.29437492320457
 20
119.8286482231416
 30
0.0
 11
-41.29437492320457
 21
119.4675152918917
 31
0.0
  0
LINE
  5
3CD9
330
47E
100
AcDbEntity
  8
0
100
AcDbLine
 10
-41.29437492320457
 20
119.3307548918916
 30
0.0
 11
-41.29437492320451
 21
118.9696219606417
 31
0.0
  0
ARC
  5
3CDA
330
47E
100
AcDbEntity
  8
0
100
AcDbCircle
 10
-41.09350808570456
 20
119.8286482231416
 30
0.0
 40
0.2008668375
100
AcDbArc
 50
90.0
 51
180.0
  0
LINE
  5
3CDB
330
47E
100
AcDbEntity
  8
0
100
AcDbLine
 10
-41.09350808570451
 20
118.7687551231416
 30
0.0
 11
-40.97811649820451
 21
118.7687551231416
 31
0.0
  0
ARC
  5
3CDC
330
47E
100
AcDbEntity
  8
0
100
AcDbCircle
 10
-41.09350808570451
 20
118.9696219606417
 30
0.0
 40
0.2008668375
100
AcDbArc
 50
180.0
 51
270.0
  0
LINE
  5
3CDD
330
47E
100
AcDbEntity
  8
0
100
AcDbLine
 10
-40.77724966070451
 20
118.5678882856417
 30
0.0
 11
-40.77724966070458
 21
118.4952343231417
 31
0.0
  0
ARC
  5
3CDE
330
47E
100
AcDbEntity
  8
0
100
AcDbCircle
 10
-40.57638282320463
 20
118.4952343231416
 30
0.0
 40
0.2008668375
100
AcDbArc
 50
179.9999999999935
 51
270.0
  0
ARC
  5
3CDF
330
47E
100
AcDbEntity
  8
0
100
AcDbCircle
 10
-40.97811649820451
 20
118.5678882856417
 30
0.0
 40
0.2008668375
100
AcDbArc
 50
0.0
 51
90.0
  0
LINE
  5
3CE0
330
47E
100
AcDbEntity
  8
0
100
AcDbLine
 10
-40.57638282320463
 20
118.2943674856416
 30
0.0
 11
-39.3369916982045
 21
118.2943674856416
 31
0.0
  0
LINE
  5
3CE1
330
47E
100
AcDbEntity
  8
0
100
AcDbLine
 10
-39.13612486070451
 20
120.4953551731416
 30
0.0
 11
-39.13612486070451
 21
120.0295150606416
 31
0.0
  0
ARC
  5
3CE2
330
47E
100
AcDbEntity
  8
0
100
AcDbCircle
 10
-38.93525802320451
 20
120.4953551731416
 30
0.0
 40
0.2008668375
100
AcDbArc
 50
90.0
 51
180.0
  0
LINE
  5
3CE3
330
47E
100
AcDbEntity
  8
0
100
AcDbLine
 10
-39.13612486070451
 20
120.0295150606416
 30
0.0
 11
-38.81986643570456
 21
120.0295150606416
 31
0.0
  0
LINE
  5
3CE4
330
47E
100
AcDbEntity
  8
0
100
AcDbLine
 10
-38.61899959820462
 20
119.8286482231416
 30
0.0
 11
-38.61899959820462
 21
119.4675152918917
 31
0.0
  0
LINE
  5
3CE5
330
47E
100
AcDbEntity
  8
0
100
AcDbLine
 10
-38.61899959820462
 20
119.3307548918916
 30
0.0
 11
-38.61899959820462
 21
118.9696219606417
 31
0.0
  0
ARC
  5
3CE6
330
47E
100
AcDbEntity
  8
0
100
AcDbCircle
 10
-38.81986643570456
 20
119.8286482231416
 30
0.0
 40
0.2008668375
100
AcDbArc
 50
359.9999999999968
 51
90.0
  0
ARC
  5
3CE7
330
47E
100
AcDbEntity
  8
0
100
AcDbCircle
 10
-38.81986643570456
 20
118.9696219606417
 30
0.0
 40
0.2008668375
100
AcDbArc
 50
270.0
 51
0.0
  0
LINE
  5
3CE8
330
47E
100
AcDbEntity
  8
0
100
AcDbLine
 10
-38.81986643570456
 20
118.7687551231416
 30
0.0
 11
-38.93525802320451
 21
118.7687551231416
 31
0.0
  0
LINE
  5
3CE9
330
47E
100
AcDbEntity
  8
0
100
AcDbLine
 10
-39.13612486070451
 20
118.5678882856417
 30
0.0
 11
-39.13612486070451
 21
118.4952343231416
 31
0.0
  0
ARC
  5
3CEA
330
47E
100
AcDbEntity
  8
0
100
AcDbCircle
 10
-38.93525802320451
 20
118.5678882856417
 30
0.0
 40
0.2008668375
100
AcDbArc
 50
90.0
 51
180.0
  0
ARC
  5
3CEB
330
47E
100
AcDbEntity
  8
0
100
AcDbCircle
 10
-39.3369916982045
 20
118.4952343231416
 30
0.0
 40
0.2008668375
100
AcDbArc
 50
270.0
 51
0.0
  0
ARC
  5
3CEC
330
47E
100
AcDbEntity
  8
0
100
AcDbCircle
 10
-41.29437492320457
 20
119.3991350918916
 30
0.0
 40
0.0683802
100
AcDbArc
 50
270.0
 51
90.0
  0
ARC
  5
3CED
330
47E
100
AcDbEntity
  8
0
100
AcDbCircle
 10
-38.61899959820462
 20
119.3991350918916
 30
0.0
 40
0.0683802
100
AcDbArc
 50
90.0
 51
270.0
  0
LINE
  5
3CEE
330
47E
100
AcDbEntity
  8
0
100
AcDbLine
 10
-38.93525802320451
 20
120.6962220106416
 30
0.0
 11
-37.98861962945458
 21
120.6962220106416
 31
0.0
  0
LINE
  5
3CEF
330
47E
100
AcDbEntity
  8
0
100
AcDbLine
 10
-42.09356851070457
 20
127.8795925603359
 30
0.0
 11
-42.09356851070455
 21
120.6962220106416
 31
0.0
  0
LINE
  5
3CF0
330
47E
100
AcDbEntity
  8
0
100
AcDbLine
 10
-42.09356851070455
 20
120.6962220106416
 30
0.0
 11
-37.81980601070458
 21
120.6962220106416
 31
0.0
  0
LINE
  5
3CF1
330
47E
100
AcDbEntity
  8
0
100
AcDbLine
 10
-42.09356851070455
 20
121.4975524793916
 30
0.0
 11
-37.81980601070458
 21
121.4975524793916
 31
0.0
  0
LINE
  5
3CF2
330
47E
100
AcDbEntity
  8
0
100
AcDbLine
 10
-37.81980601070458
 20
120.6962220106416
 30
0.0
 11
-37.81980601070454
 21
127.8795925603359
 31
0.0
  0
LINE
  5
3CF3
330
47E
100
AcDbEntity
  8
0
100
AcDbLine
 10
-37.81980601070454
 20
127.8795925603359
 30
0.0
 11
-42.09356851070457
 21
127.8795925603359
 31
0.0
  0
LINE
  5
3CF4
330
47E
100
AcDbEntity
  8
0
100
AcDbLine
 10
-41.42579312007954
 20
122.0317727918916
 30
0.0
 11
-38.48758140132959
 21
122.0317727918916
 31
0.0
  0
LINE
  5
3CF5
330
47E
100
AcDbEntity
  8
0
100
AcDbLine
 10
-38.48758140132959
 20
122.0317727918916
 30
0.0
 11
-38.48758140132959
 21
121.4975524793916
 31
0.0
  0
LINE
  5
3CF6
330
47E
100
AcDbEntity
  8
0
100
AcDbLine
 10
-38.48758140132959
 20
121.4975524793916
 30
0.0
 11
-41.42579312007954
 21
121.4975524793916
 31
0.0
  0
LINE
  5
3CF7
330
47E
100
AcDbEntity
  8
0
100
AcDbLine
 10
-41.42579312007954
 20
121.4975524793916
 30
0.0
 11
-41.42579312007954
 21
122.0317727918916
 31
0.0
  0
LINE
  5
3CF8
330
47E
100
AcDbEntity
  8
0
100
AcDbLine
 10
-41.29223804195464
 20
123.3673235731416
 30
0.0
 11
-38.62113647945461
 21
123.3673235731416
 31
0.0
  0
LINE
  5
3CF9
330
47E
100
AcDbEntity
  8
0
100
AcDbLine
 10
-38.62113647945461
 20
123.3673235731416
 30
0.0
 11
-38.62113647945447
 21
122.0317727918916
 31
0.0
  0
LINE
  5
3CFA
330
47E
100
AcDbEntity
  8
0
100
AcDbLine
 10
-38.62113647945447
 20
122.0317727918916
 30
0.0
 11
-41.29223804195469
 21
122.0317727918916
 31
0.0
  0
LINE
  5
3CFB
330
47E
100
AcDbEntity
  8
0
100
AcDbLine
 10
-41.29223804195469
 20
122.0317727918916
 30
0.0
 11
-41.29223804195469
 21
123.3673235731416
 31
0.0
  0
LINE
  5
3CFC
330
47E
100
AcDbEntity
  8
0
100
AcDbLine
 10
-39.95668726070455
 20
122.0317727918916
 30
0.0
 11
-39.95668726070461
 21
123.3673235731416
 31
0.0
  0
LINE
  5
3CFD
330
47E
100
AcDbEntity
  8
0
100
AcDbLine
 10
-40.62446265132963
 20
123.3673235731416
 30
0.0
 11
-40.39313847040833
 21
123.5008786512667
 31
0.0
  0
LINE
  5
3CFE
330
47E
100
AcDbEntity
  8
0
100
AcDbLine
 10
-40.62446265132963
 20
123.6344337293916
 30
0.0
 11
-40.39313847040833
 21
123.5008786512667
 31
0.0
  0
LINE
  5
3CFF
330
47E
100
AcDbEntity
  8
0
100
AcDbLine
 10
-40.62446265132963
 20
123.6344337293916
 30
0.0
 11
-40.39313847040833
 21
123.7679888075166
 31
0.0
  0
LINE
  5
3D00
330
47E
100
AcDbEntity
  8
0
100
AcDbLine
 10
-40.62446265132963
 20
123.9015438856416
 30
0.0
 11
-40.39313847040833
 21
123.7679888075166
 31
0.0
  0
LINE
  5
3D01
330
47E
100
AcDbEntity
  8
0
100
AcDbLine
 10
-40.62446265132963
 20
123.9015438856416
 30
0.0
 11
-40.39313847040833
 21
124.0350989637666
 31
0.0
  0
LINE
  5
3D02
330
47E
100
AcDbEntity
  8
0
100
AcDbLine
 10
-39.28891187007954
 20
123.3673235731416
 30
0.0
 11
-39.52023605100088
 21
123.5008786512667
 31
0.0
  0
LINE
  5
3D03
330
47E
100
AcDbEntity
  8
0
100
AcDbLine
 10
-39.28891187007954
 20
123.6344337293916
 30
0.0
 11
-39.52023605100088
 21
123.5008786512667
 31
0.0
  0
LINE
  5
3D04
330
47E
100
AcDbEntity
  8
0
100
AcDbLine
 10
-39.28891187007954
 20
123.6344337293916
 30
0.0
 11
-39.52023605100088
 21
123.7679888075166
 31
0.0
  0
LINE
  5
3D05
330
47E
100
AcDbEntity
  8
0
100
AcDbLine
 10
-39.28891187007954
 20
123.9015438856416
 30
0.0
 11
-39.52023605100088
 21
123.7679888075166
 31
0.0
  0
LINE
  5
3D06
330
47E
100
AcDbEntity
  8
0
100
AcDbLine
 10
-40.39313847040833
 20
123.5008786512667
 30
0.0
 11
-39.52023605100088
 21
123.5008786512667
 31
0.0
  0
LINE
  5
3D07
330
47E
100
AcDbEntity
  8
0
100
AcDbLine
 10
-39.28891187007963
 20
123.6344337293916
 30
0.0
 11
-40.62446265132963
 21
123.6344337293916
 31
0.0
  0
LINE
  5
3D08
330
47E
100
AcDbEntity
  8
0
100
AcDbLine
 10
-40.39313847040833
 20
123.7679888075166
 30
0.0
 11
-39.52023605100088
 21
123.7679888075166
 31
0.0
  0
LINE
  5
3D09
330
47E
100
AcDbEntity
  8
0
100
AcDbLine
 10
-39.28891187007963
 20
123.9015438856416
 30
0.0
 11
-40.62446265132963
 21
123.9015438856416
 31
0.0
  0
LINE
  5
3D0A
330
47E
100
AcDbEntity
  8
0
100
AcDbLine
 10
-40.39313847040833
 20
124.0350989637666
 30
0.0
 11
-39.28891187007948
 21
123.9015438856416
 31
0.0
  0
LINE
  5
3D15
330
47E
100
AcDbEntity
  8
0
 62
     7
100
AcDbLine
 10
-37.81980601070455
 20
127.0633408435619
 30
0.0
 11
-14.48821192902306
 21
127.0633408435619
 31
0.0
  0
LINE
  5
3D16
330
47E
100
AcDbEntity
  8
0
 62
     7
100
AcDbLine
 10
-42.09356851070455
 20
126.0021543714086
 30
0.0
 11
-65.4251625923861
 21
126.0021543714086
 31
0.0
  0
LINE
  5
3D17
330
47E
100
AcDbEntity
  8
0
 62
     7
100
AcDbLine
 10
-42.09356851070455
 20
124.9409678992552
 30
0.0
 11
-65.4251625923861
 21
124.9409678992552
 31
0.0
  0
LINE
  5
3D18
330
47E
100
AcDbEntity
  8
0
 62
     7
100
AcDbLine
 10
-42.09356851070455
 20
123.8797814271018
 30
0.0
 11
-65.4251625923861
 21
123.8797814271018
 31
0.0
  0
LINE
  5
3D19
330
47E
100
AcDbEntity
  8
0
 62
     7
100
AcDbLine
 10
-42.09356851070457
 20
122.8185949549484
 30
0.0
 11
-65.4251625923861
 21
122.8185949549484
 31
0.0
  0
LINE
  5
3D1A
330
47E
100
AcDbEntity
  8
0
 62
     7
100
AcDbLine
 10
-42.09356851070457
 20
121.757408482795
 30
0.0
 11
-65.4251625923861
 21
121.757408482795
 31
0.0
  0
LINE
  5
3DC2
330
47E
100
AcDbEntity
  8
0
 62
     7
100
AcDbLine
 10
18.13383216287474
 20
198.9357148250568
 30
0.0
 11
45.13383216287474
 21
198.9357148250568
 31
0.0
  0
LINE
  5
3DC3
330
47E
100
AcDbEntity
  8
0
 62
     7
100
AcDbLine
 10
18.13383216287474
 20
168.9357148250568
 30
0.0
 11
18.13383216287474
 21
198.9357148250568
 31
0.0
  0
LINE
  5
3DC4
330
47E
100
AcDbEntity
  8
0
 62
     7
100
AcDbLine
 10
19.38383216287474
 20
168.9357148250568
 30
0.0
 11
19.38383216287474
 21
197.6857148250568
 31
0.0
  0
LINE
  5
3DC5
330
47E
100
AcDbEntity
  8
0
 62
     7
100
AcDbLine
 10
18.13383216287474
 20
197.6857148250568
 30
0.0
 11
45.13383216287474
 21
197.6857148250568
 31
0.0
  0
LINE
  5
3DC6
330
47E
100
AcDbEntity
  8
0
 62
     7
100
AcDbLine
 10
19.38383216287474
 20
184.5607148250568
 30
0.0
 11
45.13383216287474
 21
184.5607148250568
 31
0.0
  0
LINE
  5
3DC7
330
47E
100
AcDbEntity
  8
0
 62
     7
100
AcDbLine
 10
19.38383216287474
 20
183.3107148250568
 30
0.0
 11
45.13383216287474
 21
183.3107148250568
 31
0.0
  0
TEXT
  5
3DC8
330
47E
100
AcDbEntity
  8
0
 62
     7
100
AcDbText
 10
49.10580355047199
 20
194.9485037125746
 30
0.0
 40
2.210999999999999
  1
1-1/4" ALUMINUM
  7
ROMANS
100
AcDbText
  0
TEXT
  5
3DC9
330
47E
100
AcDbEntity
  8
0
 62
     7
100
AcDbText
 10
51.63057135513764
 20
191.2280035903171
 30
0.0
 40
2.210999999999999
  1
SQUARE TUBING
  7
ROMANS
100
AcDbText
  0
TEXT
  5
3DCA
330
47E
100
AcDbEntity
  8
0
 62
     7
100
AcDbText
 10
54.39831340611721
 20
187.6482893046028
 30
0.0
 40
2.210999999999999
  1
SAFETY BARS
  7
ROMANS
100
AcDbText
  0
LINE
  5
3DCB
330
47E
100
AcDbEntity
  8
0
 62
     7
100
AcDbLine
 10
36.53005902872064
 20
185.9300217241493
 30
0.0
 11
39.31714283208208
 21
189.1234854260927
 31
0.0
  0
SOLID
  5
3DCC
330
47E
100
AcDbEntity
  8
0
 62
     7
100
AcDbTrace
 10
36.73724885095595
 20
185.7491975621519
 30
0.0
 11
36.32286920648534
 21
186.110845886147
 31
0.0
 12
35.44511405673564
 22
184.6868827907375
 32
0.0
 13
35.44511405673564
 23
184.6868827907375
 33
0.0
  0
LINE
  5
3DCD
330
47E
100
AcDbEntity
  8
0
 62
     7
100
AcDbLine
 10
39.31714283208208
 20
189.1234854260927
 30
0.0
 11
53.30663577565696
 21
189.1234854260927
 31
0.0
  0
DIMENSION
  5
3DCE
330
47E
100
AcDbEntity
  8
0
 62
     7
100
AcDbDimension
  2
*D21
 10
18.13383216287474
 20
206.4392317945568
 30
0.0
 11
31.75883216287474
 21
206.4392317945568
 31
0.0
 70
    32
  1
27"
 71
     5
 42
27.25
  3
STANDARD$0
100
AcDbAlignedDimension
 13
45.38383216287473
 23
201.5337910364102
 33
0.0
 14
18.13383216287474
 24
198.9357148250568
 34
0.0
100
AcDbRotatedDimension
  0
LINE
  5
3DCF
330
47E
100
AcDbEntity
  8
0
 62
     7
100
AcDbLine
 10
18.13383216287462
 20
168.9357148250568
 30
0.0
 11
45.13383216287462
 21
168.9357148250568
 31
0.0
  0
LINE
  5
3DD0
330
47E
100
AcDbEntity
  8
0
 62
     7
100
AcDbLine
 10
19.38383216287474
 20
170.1857148250568
 30
0.0
 11
45.13383216287462
 21
170.1857148250568
 31
0.0
  0
LINE
  5
3DE8
330
47E
100
AcDbEntity
  8
0
 62
     7
100
AcDbLine
 10
18.13383216287474
 20
168.9357148250568
 30
0.0
 11
45.13383216287474
 21
168.9357148250568
 31
0.0
  0
LINE
  5
3DE9
330
47E
100
AcDbEntity
  8
0
 62
     7
100
AcDbLine
 10
42.13383216287434
 20
198.9357148250569
 30
0.0
 11
42.13383216287434
 21
199.4357148250568
 31
0.0
  0
LINE
  5
3DEA
330
47E
100
AcDbEntity
  8
0
 62
     7
100
AcDbLine
 10
42.13383216287439
 20
184.5607148250568
 30
0.0
 11
42.13383216287434
 21
197.6857148250569
 31
0.0
  0
LINE
  5
3DEB
330
47E
100
AcDbEntity
  8
0
 62
     7
100
AcDbLine
 10
42.13383216287446
 20
170.1857148250568
 30
0.0
 11
42.13383216287439
 21
183.3107148250568
 31
0.0
  0
LINE
  5
3DFA
330
47E
100
AcDbEntity
  8
0
 62
     7
100
AcDbLine
 10
116.563932618864
 20
183.9357148250568
 30
0.0
 11
117.813932618864
 21
183.9357148250568
 31
0.0
  0
LINE
  5
3DFB
330
47E
100
AcDbEntity
  8
0
 62
     7
100
AcDbLine
 10
116.563932618864
 20
182.6857148250569
 30
0.0
 11
117.813932618864
 21
182.6857148250569
 31
0.0
  0
LINE
  5
3DFC
330
47E
100
AcDbEntity
  8
0
 62
     7
100
AcDbLine
 10
116.563932618864
 20
197.6857148250568
 30
0.0
 11
117.813932618864
 21
197.6857148250568
 31
0.0
  0
LINE
  5
3DFD
330
47E
100
AcDbEntity
  8
0
 62
     7
100
AcDbLine
 10
116.563932618864
 20
198.9357148250568
 30
0.0
 11
117.813932618864
 21
198.9357148250568
 31
0.0
  0
LINE
  5
3DFE
330
47E
100
AcDbEntity
  8
0
 62
     7
100
AcDbLine
 10
116.5639326188639
 20
168.9357148250568
 30
0.0
 11
116.563932618864
 21
198.9357148250568
 31
0.0
  0
LINE
  5
3DFF
330
47E
100
AcDbEntity
  8
0
 62
     7
100
AcDbLine
 10
116.5639326188639
 20
170.1857148250567
 30
0.0
 11
117.8139326188639
 21
170.1857148250568
 31
0.0
  0
LINE
  5
3E00
330
47E
100
AcDbEntity
  8
0
 62
     7
100
AcDbLine
 10
116.5639326188639
 20
168.9357148250568
 30
0.0
 11
117.8139326188639
 21
168.9357148250568
 31
0.0
  0
LINE
  5
3E07
330
47E
100
AcDbEntity
  8
0
 62
     7
100
AcDbLine
 10
151.063932618864
 20
183.9357148250568
 30
0.0
 11
149.813932618864
 21
183.9357148250568
 31
0.0
  0
LINE
  5
3E08
330
47E
100
AcDbEntity
  8
0
 62
     7
100
AcDbLine
 10
151.063932618864
 20
182.6857148250569
 30
0.0
 11
149.813932618864
 21
182.6857148250569
 31
0.0
  0
LINE
  5
3E09
330
47E
100
AcDbEntity
  8
0
 62
     7
100
AcDbLine
 10
151.0639326188641
 20
197.6857148250568
 30
0.0
 11
149.8139326188641
 21
197.6857148250568
 31
0.0
  0
LINE
  5
3E0A
330
47E
100
AcDbEntity
  8
0
 62
     7
100
AcDbLine
 10
151.0639326188641
 20
198.9357148250568
 30
0.0
 11
149.8139326188641
 21
198.9357148250568
 31
0.0
  0
LINE
  5
3E0B
330
47E
100
AcDbEntity
  8
0
 62
     7
100
AcDbLine
 10
151.0639326188641
 20
168.9357148250568
 30
0.0
 11
151.0639326188641
 21
198.9357148250568
 31
0.0
  0
LINE
  5
3E0C
330
47E
100
AcDbEntity
  8
0
 62
     7
100
AcDbLine
 10
151.0639326188641
 20
170.1857148250567
 30
0.0
 11
149.8139326188641
 21
170.1857148250568
 31
0.0
  0
LINE
  5
3E0D
330
47E
100
AcDbEntity
  8
0
 62
     7
100
AcDbLine
 10
151.0639326188641
 20
168.9357148250568
 30
0.0
 11
149.8139326188641
 21
168.9357148250568
 31
0.0
  0
DIMENSION
  5
3E0E
330
47E
100
AcDbEntity
  8
0
100
AcDbDimension
  2
*D22
 10
10.07496918630824
 20
198.9357148250568
 30
0.0
 11
10.0749691863082
 21
183.9357148250568
 31
0.0
 70
    32
 71
     5
 42
30.0
  3
STANDARD$0
100
AcDbAlignedDimension
 13
18.13383216287474
 23
168.9357148250568
 33
0.0
 14
18.13383216287474
 24
198.9357148250568
 34
0.0
 50
90.0
100
AcDbRotatedDimension
1001
ACAD
1000
DSTYLE
1002
{
1070
    40
1040
30.0
1002
}
  0
LEADER
  5
3E1C
330
47E
100
AcDbEntity
  8
0
100
AcDbLeader
  3
STANDARD
 73
     0
 40
4.1015625
 76
     3
 10
117.688932618864
 20
201.9357148250569
 30
0.0
 10
110.4361164333244
 20
204.1296863834382
 30
0.0
 10
106.224268488107
 20
204.1296863834382
 30
0.0
340
3E1D
211
1.0
221
-0.0000000000000002
231
0.0
213
0.0000000000000003
223
1.23046875
233
0.0
1001
ACAD
1000
DSTYLE
1002
{
1070
   147
1040
0.0625
1070
    77
1070
     0
1070
    40
1040
30.0
1002
}
  0
MTEXT
  5
3E1D
102
{ACAD_REACTORS
330
3E1C
102
}
330
47E
100
AcDbEntity
  8
0
100
AcDbMText
 10
78.77438254589333
 20
211.7072657346964
 30
0.0
 40
2.4609375
 41
0.0
 71
     9
 72
     1
  1
\A1;
  7
ROMANS
 73
     1
 44
1.0
1001
ACAD
1000
MTEXTBEGIN
1070
    73
1070
     1
1070
    44
1040
1.0
1070
    74
1070
     0
1000
MTEXTEND
  0
DIMENSION
  5
3E34
330
47E
100
AcDbEntity
  8
0
100
AcDbDimension
  2
*D23
 10
103.6590944655339
 20
198.9357148250568
 30
0.0
 11
103.6590944655339
 21
177.9357148250568
 31
0.0
 70
    32
 71
     5
 42
42.0
  3
STANDARD$0
100
AcDbAlignedDimension
 13
121.8139326188639
 23
156.9357148250568
 33
0.0
 14
132.8139326188641
 24
198.9357148250568
 34
0.0
 50
90.0
100
AcDbRotatedDimension
1001
ACAD
1000
DSTYLE
1002
{
1070
    40
1040
30.0
1002
}
  0
MTEXT
  5
3E85
330
47E
100
AcDbEntity
  8
0
100
AcDbMText
 10
-66.32929282007352
 20
-14.1130116087509
 30
0.0
 40
3.488720625
 41
0.0
 71
     1
 72
     5
  1
{\LFAS INCLUDED PARTS\P\P}CARRIER RAIL\PRUNG CLAMPS\P(2) LOCKING TROLLEYS\PSPLICE KIT (AS REQ'D)\P\P{\LITEMS REQ'D BUT NOT INCLUDED\P\P}(1) FULL BODY HARNESS\PWITH D-RING PER CLIMBER
  7
ROMANS
 73
     1
 44
1.0
1001
ACAD
1000
MTEXTBEGIN
1070
    73
1070
     1
1070
    44
1040
1.0
1070
    74
1070
     0
1000
MTEXTEND
  0
LWPOLYLINE
  5
3ED7
330
47E
100
AcDbEntity
  8
0
100
AcDbPolyline
 90
        4
 70
     1
 43
0.0
 10
179.4905075006502
 20
1.874355169611135
 10
152.8132632507365
 20
1.874355169611192
 10
152.8132632507365
 20
20.73468187016266
 10
179.4905075006502
 20
20.7346818701626
  0
LINE
  5
3ED8
330
47E
100
AcDbEntity
  8
0
100
AcDbLine
 10
152.8132632507365
 20
9.779930947719833
 30
0.0
 11
179.4905075006502
 21
9.779930947719776
 31
0.0
  0
LINE
  5
3ED9
330
47E
100
AcDbEntity
  8
0
100
AcDbLine
 10
147.6889326188638
 20
156.9357148250568
 30
0.0
 11
167.6973556624522
 21
156.9357148250568
 31
0.0
  0
LINE
  5
3EDA
330
47E
100
AcDbEntity
  8
0
100
AcDbLine
 10
148.6889326188638
 20
-145.0642851749431
 30
0.0
 11
167.6973556624521
 21
-145.0642851749431
 31
0.0
  0
LINE
  5
3EDB
330
47E
100
AcDbEntity
  8
0
100
AcDbLine
 10
165.8223556624522
 20
155.0607148250568
 30
0.0
 11
165.8223556624522
 21
20.73468187016266
 31
0.0
  0
LINE
  5
3EDC
330
47E
100
AcDbEntity
  8
0
100
AcDbLine
 10
165.8223556624521
 20
-143.1892851749431
 30
0.0
 11
165.8223556624522
 21
1.710638600834556
 31
0.0
  0
SOLID
  5
3EDD
330
47E
100
AcDbEntity
  8
0
100
AcDbTrace
 10
165.5098556624522
 20
155.0607148250568
 30
0.0
 11
166.1348556624522
 21
155.0607148250568
 31
0.0
 12
165.8223556624522
 22
156.9357148250568
 32
0.0
 13
165.8223556624522
 23
156.9357148250568
 33
0.0
  0
SOLID
  5
3EDE
330
47E
100
AcDbEntity
  8
0
100
AcDbTrace
 10
165.5098556624521
 20
-143.1892851749431
 30
0.0
 11
166.1348556624521
 21
-143.1892851749431
 31
0.0
 12
165.8223556624521
 22
-145.0642851749431
 32
0.0
 13
165.8223556624521
 23
-145.0642851749431
 33
0.0
  0
MTEXT
  5
3EDF
330
47E
100
AcDbEntity
  8
0
100
AcDbMText
 10
165.8223556624522
 20
5.935714825056891
 30
0.0
 40
2.411999999999999
 41
0.0
 71
     5
 72
     1
  1
\A1;GROUND TO\PROOF LEVEL
  7
ROMANS
 73
     1
 44
1.0
1001
ACAD
1000
MTEXTBEGIN
1070
    73
1070
     1
1070
    44
1040
1.0
1070
    74
1070
     0
1000
MTEXTEND
  0
LINE
  5
4085
330
47E
100
AcDbEntity
  8
0
100
AcDbLine
 10
120.8139326188639
 20
156.9357148250571
 30
0.0
 11
117.8139326188639
 21
163.5215012626837
 31
0.0
  0
LINE
  5
4086
330
47E
100
AcDbEntity
  8
0
100
AcDbLine
 10
120.8139326188639
 20
159.348011632897
 30
0.0
 11
119.8321483016443
 21
161.5032855799035
 31
0.0
  0
LINE
  5
4087
330
47E
100
AcDbEntity
  8
0
100
AcDbLine
 10
146.8139326188641
 20
156.9357148250571
 30
0.0
 11
149.8139326188641
 21
163.5215012626837
 31
0.0
  0
LINE
  5
4088
330
47E
100
AcDbEntity
  8
0
100
AcDbLine
 10
146.8139326188641
 20
159.348011632897
 30
0.0
 11
147.7957169360838
 21
161.5032855799035
 31
0.0
  0
DIMENSION
  5
4682
330
47E
100
AcDbEntity
  8
0
100
AcDbDimension
  2
*D25
 10
10.07496918630824
 20
156.9357148250569
 30
0.0
 11
4.391040614879639
 21
162.9357148250569
 31
0.0
 70
    32
 71
     5
 42
11.99999999999988
  3
STANDARD$0
100
AcDbAlignedDimension
 13
18.13383216287474
 23
168.9357148250568
 33
0.0
 14
18.13383216287474
 24
156.9357148250569
 34
0.0
 50
90.0
100
AcDbRotatedDimension
1001
ACAD
1000
DSTYLE
1002
{
1070
    40
1040
30.0
1002
}
  0
MTEXT
  5
46E5
330
47E
100
AcDbEntity
  8
0
100
AcDbMText
 10
-28.84436605710693
 20
218.5103425673872
 30
0.0
 40
2.4177285
 41
0.0
 71
     1
 72
     5
  1
(FALL ARREST SYSTEM REQUIRED IF LEVEL TO LEVEL HEIGHT IS GREATER THAN 24'-0")
  7
ROMANS
 73
     1
 44
1.0
1001
ACAD
1000
MTEXTBEGIN
1070
    73
1070
     1
1070
    44
1040
1.0
1070
    74
1070
     0
1000
MTEXTEND
  0
ENDSEC
  0
SECTION
  2
OBJECTS
  0
DICTIONARY
  5
472
330
0
100
AcDbDictionary
281
     1
  3
ACAD_COLOR
350
16F5
  3
ACAD_GROUP
350
473
  3
ACAD_LAYOUT
350
DD3
  3
ACAD_MATERIAL
350
16E0
  3
ACAD_MLINESTYLE
350
474
  3
ACAD_PLOTSETTINGS
350
DD4
  3
ACAD_PLOTSTYLENAME
350
DD1
  3
ACAD_TABLESTYLE
350
16F6
  3
ACAD_VISUALSTYLE
350
16E4
  3
AcDbVariableDictionary
350
16F8
  3
DWGPROPS
350
4980
  0
DICTIONARY
  5
2C35
330
46E
100
AcDbDictionary
280
     1
281
     1
  0
DICTIONARY
  5
2999
330
468
100
AcDbDictionary
280
     1
281
     1
  3
ACAD_LAYERSTATES
360
299A
  0
DICTIONARY
  5
1705
330
47E
100
AcDbDictionary
280
     1
281
     1
  3
ACAD_SORTENTS
360
1706
  0
DICTIONARY
  5
43F5
330
DE4
100
AcDbDictionary
280
     1
281
     1
  3
ACAD_SORTENTS
360
43F6
  0
DICTIONARY
  5
16F5
102
{ACAD_REACTORS
330
472
102
}
330
472
100
AcDbDictionary
281
     1
  0
DICTIONARY
  5
473
102
{ACAD_REACTORS
330
472
102
}
330
472
100
AcDbDictionary
281
     1
  0
DICTIONARY
  5
DD3
102
{ACAD_REACTORS
330
472
102
}
330
472
100
AcDbDictionary
281
     1
  3
Layout1
350
DD6
  3
Model
350
DD5
  0
DICTIONARY
  5
16E0
102
{ACAD_REACTORS
330
472
102
}
330
472
100
AcDbDictionary
281
     1
  3
ByBlock
350
16E2
  3
ByLayer
350
16E1
  3
Global
350
16E3
  0
DICTIONARY
  5
474
102
{ACAD_REACTORS
330
472
102
}
330
472
100
AcDbDictionary
281
     1
  3
STANDARD
350
481
  0
DICTIONARY
  5
DD4
102
{ACAD_REACTORS
330
472
102
}
330
472
100
AcDbDictionary
281
     1
  0
ACDBDICTIONARYWDFLT
  5
DD1
102
{ACAD_REACTORS
330
472
102
}
330
472
100
AcDbDictionary
281
     1
  3
Normal
350
DD2
100
AcDbDictionaryWithDefault
340
DD2
  0
DICTIONARY
  5
16F6
102
{ACAD_REACTORS
330
472
102
}
330
472
100
AcDbDictionary
281
     1
  3
Standard
350
16F7
  0
DICTIONARY
  5
16E4
102
{ACAD_REACTORS
330
472
102
}
330
472
100
AcDbDictionary
281
     1
  3
2dWireframe
350
16EA
  3
3D Hidden
350
16EC
  3
3dWireframe
350
16EB
  3
Basic
350
16E9
  3
Brighten
350
16F0
  3
ColorChange
350
16F4
  3
Conceptual
350
16ED
  3
Dim
350
16EF
  3
Facepattern
350
16F3
  3
Flat
350
16E5
  3
FlatWithEdges
350
16E6
  3
Gouraud
350
16E7
  3
GouraudWithEdges
350
16E8
  3
Linepattern
350
16F2
  3
Realistic
350
16EE
  3
Thicken
350
16F1
  0
DICTIONARY
  5
16F8
102
{ACAD_REACTORS
330
472
102
}
330
472
100
AcDbDictionary
281
     1
  3
CTABLESTYLE
350
16F9
  3
DIMASSOC
350
2C4B
  3
INDEXCTL
350
2C4A
  3
SORTENTS
350
2C49
  0
XRECORD
  5
4980
102
{ACAD_REACTORS
330
472
102
}
330
472
100
AcDbXrecord
280
     1
  1
DWGPROPS COOKIE
  2

  3

  4

  6

  7

  8
XPMUser
  9

300
=
301
=
302
=
303
=
304
=
305
=
306
=
307
=
308
=
309
=
 40
0.6521112847222223
 41
2450687.337153472
 42
2459472.701455718
  1

 90
        0
  0
DICTIONARY
  5
299A
102
{ACAD_REACTORS
330
2999
102
}
330
2999
100
AcDbDictionary
281
     1
  0
SORTENTSTABLE
  5
1706
102
{ACAD_REACTORS
330
1705
102
}
330
1705
100
AcDbSortentsTable
330
47E
331
3689
  5
35CE
331
35DB
  5
367F
331
3632
  5
3691
331
35E3
  5
3689
331
3691
  5
369B
331
355D
  5
35C0
331
35AC
  5
35F4
331
3699
  5
36A3
331
35B4
  5
3631
331
3662
  5
369A
331
36C0
  5
3A44
331
1054
  5
17A5
331
3DFD
  5
3E0A
331
3CD7
  5
3CE0
331
2577
  5
2F96
331
105C
  5
18DB
331
3EDC
  5
3DC8
331
3CDF
  5
3CE8
331
3D16
  5
1E64
331
306
  5
1068
331
1064
  5
19AC
331
17A0
  5
2D50
331
3CE7
  5
3CF0
331
3E0D
  5
3ED8
331
258F
  5
2F99
331
106C
  5
1E65
331
17A8
  5
2F90
331
3DC6
  5
3DE8
331
2DE0
  5
303D
331
366A
  5
2FEA
331
35BC
  5
3639
331
2FDF
  5
3142
331
3672
  5
305B
331
2FE7
  5
3395
331
35C4
  5
3668
331
367A
  5
3583
331
3575
  5
35DE
331
26E9
  5
2FDF
331
35CC
  5
3670
331
3682
  5
35B8
331
35D4
  5
3678
331
303F
  5
33BF
331
30E
  5
1070
331
3CB0
  5
3CB9
331
36A1
  5
36AB
331
316
  5
107A
331
26F
  5
26F
331
1074
  5
1E9D
331
11FA
  5
2589
331
4AE
  5
179A
331
3E1D
  5
3EDB
331
3CEF
  5
3CF8
331
3CB8
  5
3CC1
331
36A9
  5
36B3
331
3DCE
  5
3DFE
331
107C
  5
20E2
331
3CC0
  5
3CC9
331
36B1
  5
36BB
331
3CF7
  5
3D00
331
366
  5
11FB
331
1084
  5
2582
331
3CC8
  5
3CD1
331
36B9
  5
393F
331
3CFF
  5
3D08
331
3D07
  5
3D1A
331
3E85
  5
3EDD
331
368A
  5
35CC
331
354E
  5
35A7
331
35DC
  5
3680
331
3633
  5
3692
331
3692
  5
369C
331
35E4
  5
368A
331
369A
  5
36A4
331
35AD
  5
360B
331
35B5
  5
3632
331
3663
  5
11C7
331
3CD0
  5
3CD9
331
386
  5
173E
331
1055
  5
17A6
331
3CD8
  5
3CE1
331
3DFE
  5
3E0B
331
2578
  5
2F97
331
105D
  5
18E9
331
1799
  5
258A
331
3CE0
  5
3CE9
331
3D17
  5
1BF6
331
3EDD
  5
3DC9
331
307
  5
106C
331
1065
  5
19AD
331
17A1
  5
2D51
331
3E0E
  5
3ED9
331
3CA9
  5
3CB2
331
17A9
  5
2F91
331
106D
  5
1E67
331
3DC7
  5
3DE9
331
366B
  5
2FE9
331
35F4
  5
368C
331
3566
  5
35CF
331
2FE0
  5
3143
331
35BD
  5
3651
331
3673
  5
305A
331
2FE8
  5
3396
331
35C5
  5
3669
331
367B
  5
35AB
331
3576
  5
35DF
331
26EA
  5
2FE0
331
35CD
  5
3671
331
3683
  5
35BF
331
35D5
  5
3679
331
30F
  5
1071
331
3CE8
  5
3CF1
331
3CB1
  5
3CBA
331
36A2
  5
36AC
331
317
  5
107C
331
270
  5
270
331
1075
  5
1E9E
331
3CF0
  5
3CF9
331
3CB9
  5
3CC2
331
36AA
  5
36B4
331
3DCF
  5
3DFF
331
20F9
  5
2F94
331
107D
  5
20F9
331
3CF8
  5
3D01
331
3CC1
  5
3CCA
331
36B2
  5
36BC
331
367
  5
1702
331
1085
  5
2583
331
3D00
  5
3D09
331
3CC9
  5
3CD2
331
36BA
  5
3940
331
368B
  5
35D1
331
35DD
  5
3681
331
3058
  5
3565
331
3634
  5
3693
331
3693
  5
369D
331
35E5
  5
368B
331
35A6
  5
35E4
331
3557
  5
35B6
331
369B
  5
36A5
331
35AE
  5
360C
331
35B6
  5
3633
331
3664
  5
1084
331
3D08
  5
3D87
331
3CD1
  5
3CDA
331
387
  5
1754
331
3CD9
  5
3CE2
331
3DFF
  5
3E0C
331
1056
  5
17A7
331
3E07
  5
3E0E
331
3CE1
  5
3CEA
331
3D18
  5
1BBD
331
3EDE
  5
3DCA
331
105E
  5
1997
331
179A
  5
261B
331
3CAA
  5
3CB3
331
1066
  5
19AE
331
17A2
  5
2D52
331
17AA
  5
2F92
331
106E
  5
1E8A
331
366C
  5
2FE7
331
3090
  5
356A
331
2FE1
  5
3144
331
35BE
  5
3662
331
3674
  5
3059
331
2FE9
  5
3397
331
356F
  5
35D8
331
35C6
  5
366A
331
367C
  5
35A9
331
3577
  5
35E1
331
26EB
  5
2FE1
331
35CE
  5
3672
331
35D6
  5
367A
331
3684
  5
35BD
331
308
  5
106D
331
310
  5
1077
331
3CE9
  5
3CF2
331
3CB2
  5
3CBB
331
36A3
  5
36AD
331
3DC8
  5
3DEA
331
318
  5
107D
331
271
  5
271
331
3CF1
  5
3CFA
331
3CBA
  5
3CC3
331
36AB
  5
36B5
331
3DD0
  5
3E00
331
1076
  5
1E9F
331
3CF9
  5
3D02
331
3CC2
  5
3CCB
331
36B3
  5
36BD
331
3D01
  5
3D0A
331
3CCA
  5
3CD3
331
36BB
  5
3941
331
3DE8
  5
3DCD
331
3548
  5
3572
331
3049
  5
33E9
331
2F9A
  5
3090
331
368C
  5
35D0
331
35DE
  5
3684
331
2FBA
  5
313F
331
3635
  5
3694
331
3694
  5
369E
331
35E6
  5
35C
331
35A7
  5
35E5
331
369C
  5
36A6
331
35AF
  5
360D
331
35B7
  5
3634
331
3665
  5
278
331
368
  5
171F
331
3D09
  5
3DC2
331
3CD2
  5
3CDB
331
388
  5
1756
331
3ED7
  5
3EDE
331
1057
  5
17A8
331
3CDA
  5
3CE3
331
3E00
  5
3E0D
331
DE8
  5
179E
331
3E08
  5
3E1C
331
3CE2
  5
3CEB
331
3D19
  5
1E66
331
3EDF
  5
3DCB
331
105F
  5
1998
331
3CAB
  5
3CB4
331
1067
  5
19AF
331
17A3
  5
2D55
331
17AB
  5
2F93
331
106F
  5
1E97
331
3560
  5
35C5
331
366D
  5
304A
331
2FE2
  5
3152
331
35BF
  5
3663
331
3675
  5
3571
331
2FEA
  5
33A5
331
3570
  5
35D9
331
35C7
  5
366B
331
367D
  5
35B0
331
3578
  5
35E2
331
35CF
  5
3673
331
3685
  5
35C4
331
35D7
  5
367B
331
362E
  5
368D
331
309
  5
106E
331
311
  5
1078
331
3CEA
  5
3CF3
331
3CB3
  5
3CBC
331
36A4
  5
36AE
331
3DC9
  5
3DEB
331
319
  5
1080
331
272
  5
272
331
3CF2
  5
3CFB
331
3CBB
  5
3CC4
331
36AC
  5
36B6
331
1077
  5
1EA0
331
3CFA
  5
3D03
331
3CC3
  5
3CCC
331
36B4
  5
36BE
331
107F
  5
2107
331
3D02
  5
3D15
331
3CCB
  5
3CD4
331
36BC
  5
3942
331
3DE9
  5
358
331
304A
  5
355E
331
2F9B
  5
3092
331
368D
  5
35D4
331
35DF
  5
3685
331
3551
  5
35AC
331
305A
  5
3567
331
3636
  5
3695
331
3695
  5
369F
331
35E7
  5
35D
331
35A8
  5
35E6
331
369D
  5
36A7
331
35B0
  5
360E
331
3666
  5
276
331
369
  5
173D
331
1050
  5
17A0
331
3D0A
  5
3DC3
331
2FA
  5
1066
331
3CD3
  5
3CDC
331
1058
  5
17A9
331
3CDB
  5
3CE4
331
3ED8
  5
3EDF
331
1060
  5
1999
331
179C
  5
35B
331
3E09
  5
3E1D
331
3CE3
  5
3CEC
331
3D1A
  5
1E7C
331
1068
  5
1B10
331
17A4
  5
2D56
331
3CAC
  5
3CB5
331
3DC2
  5
3DCC
331
35B8
  5
3635
331
366E
  5
3042
331
2FE3
  5
3391
331
2665
  5
1065
331
3092
  5
356C
331
3569
  5
35D2
331
35C0
  5
3664
331
2FEB
  5
33BD
331
2E24
  5
330
331
3571
  5
35DA
331
35C8
  5
366C
331
3676
  5
356F
331
35D0
  5
3674
331
303B
  5
33C4
331
2F94
  5
304D
331
26ED
  5
2FE5
331
367E
  5
35AE
331
3686
  5
35C2
331
362F
  5
368E
331
312
  5
1079
331
1070
  5
1E98
331
3CEB
  5
3CF4
331
3CB4
  5
3CBD
331
31A
  5
1082
331
36A5
  5
36AF
331
3DCA
  5
3DFA
331
1078
  5
1EA1
331
3CF3
  5
3CFC
331
3CBC
  5
3CC5
331
362
  5
11C8
331
28B
  5
32F
331
36AD
  5
36B7
331
1080
  5
257D
331
3CFB
  5
3D04
331
3CC4
  5
3CCD
331
36B5
  5
36BF
331
3D03
  5
3D16
331
3CCC
  5
3CD5
331
36BD
  5
39C5
331
3DEA
  5
357
331
24EC
  5
331
331
35D8
  5
367C
331
304B
  5
3560
331
368E
  5
35D3
331
35E0
  5
3686
331
3637
  5
3696
331
3696
  5
36A0
331
35E8
  5
35E
331
355A
  5
35BB
331
306B
  5
3568
331
35A9
  5
35E7
331
369E
  5
36A8
331
35B1
  5
362E
331
3667
  5
32E
331
1051
  5
17A1
331
38A
  5
1796
331
3CD4
  5
3CDD
331
3DFA
  5
3E07
331
1059
  5
17AA
331
3CDC
  5
3CE5
331
3ED9
  5
3DC5
331
11C7
  5
2584
331
1061
  5
19AA
331
3CE4
  5
3CED
331
39C5
  5
3A47
331
3E0A
  5
3E34
331
17A5
  5
2D57
331
1069
  5
1B1E
331
3CAD
  5
3CB6
331
3DC3
  5
3DCE
331
35B9
  5
3636
331
366F
  5
304C
331
2FE4
  5
3392
331
35C1
  5
3665
331
2FEC
  5
33BE
331
26E6
  5
2F9B
331
3572
  5
35DB
331
35C9
  5
366D
331
3677
  5
3576
331
35D1
  5
3675
331
303C
  5
33D1
331
2F95
  5
3058
331
367F
  5
35B5
331
3687
  5
35C9
331
1071
  5
1E99
331
DFA
  5
179F
331
3CEC
  5
3CF5
331
3CB5
  5
3CBE
331
31B
  5
1083
331
36A6
  5
36B0
331
3DCB
  5
3DFB
331
1079
  5
1EA2
331
3CF4
  5
3CFD
331
3CBD
  5
3CC6
331
363
  5
11F8
331
36AE
  5
36B8
331
1081
  5
257E
331
3CFC
  5
3D05
331
3CC5
  5
3CCE
331
36B6
  5
36C0
331
3D04
  5
3D17
331
3CCD
  5
3CD6
331
36BE
  5
39C6
331
3DEB
  5
355
331
354B
  5
3577
331
304C
  5
3562
331
35D9
  5
367D
331
3630
  5
368F
331
35E1
  5
3687
331
368F
  5
35D7
331
3697
  5
36A1
331
35E9
  5
362
331
35AA
  5
35E8
331
369F
  5
36A9
331
35B2
  5
362F
331
2D56
  5
2FED
331
294
  5
336
331
2CC
  5
338
331
1052
  5
17A2
331
3CD5
  5
3CDE
331
3DFB
  5
3E08
331
105A
  5
17AB
331
3CDD
  5
3CE6
331
393E
  5
3A46
331
3EDA
  5
3DC6
331
179E
  5
2C8A
331
11C8
  5
2585
331
1062
  5
19AB
331
3CE5
  5
3CEE
331
39C6
  5
3A48
331
3E0B
  5
3E85
331
17A6
  5
2D58
331
106A
  5
1BCF
331
3CAE
  5
3CB7
331
3DC4
  5
3DCF
331
3563
  5
35CA
331
2FDD
  5
3140
331
261F
  5
35A
331
35BA
  5
3637
331
3668
  5
305
331
3670
  5
304B
331
2FE5
  5
3393
331
35C2
  5
3666
331
3678
  5
3574
331
2FED
  5
1064
331
3573
  5
35DC
331
35CA
  5
366E
331
3680
  5
35B3
331
35D2
  5
3676
331
1072
  5
1E9B
331
11F8
  5
2587
331
3CED
  5
3CF6
331
36A7
  5
36B1
331
3CB6
  5
3CBF
331
3DCC
  5
3DFC
331
107A
  5
1EA3
331
4B4
  5
179C
331
3CF5
  5
3CFE
331
36AF
  5
36B9
331
3CBE
  5
3CC7
331
364
  5
11F9
331
28D
  5
334
331
1082
  5
257F
331
3CFD
  5
3D06
331
36B7
  5
393D
331
3CC6
  5
3CCF
331
3D05
  5
3D18
331
3CCE
  5
3CD7
331
3688
  5
35C7
331
35DA
  5
367E
331
3583
  5
35E3
331
304D
  5
3563
331
3631
  5
3690
331
35E2
  5
3688
331
3554
  5
35B1
331
3690
  5
35D6
331
35AB
  5
35E9
331
3698
  5
36A2
331
35B3
  5
3630
331
2D57
  5
2FFB
331
295
  5
337
331
1053
  5
17A3
331
3CD6
  5
3CDF
331
3DFC
  5
3E09
331
2576
  5
2F95
331
105B
  5
17BA
331
3CDE
  5
3CE7
331
3D15
  5
1AED
331
3EDB
  5
3DC7
331
305
  5
1067
331
179F
  5
2C8B
331
3CE6
  5
3CEF
331
3E0C
  5
3ED7
331
17A7
  5
2DE4
331
106B
  5
1E63
331
3CAF
  5
3CB8
331
3DC5
  5
3DD0
331
3669
  5
2FEB
331
35BB
  5
3638
331
2FDE
  5
3141
331
3671
  5
306B
331
356C
  5
35D5
331
2FE6
  5
3394
331
35C3
  5
3667
331
3679
  5
35A6
331
340D
  5
356D
331
3574
  5
35DD
331
35CB
  5
366F
331
3681
  5
35BA
331
303E
  5
33C2
331
35D3
  5
3677
331
30D
  5
106F
331
36A0
  5
36AA
331
1073
  5
1E9C
331
11F9
  5
2588
331
3CEE
  5
3CF7
331
36A8
  5
36B2
331
3CB7
  5
3CC0
331
3DCD
  5
3DFD
331
3E1C
  5
3EDA
331
3CF6
  5
3CFF
331
36B0
  5
36BA
331
3CBF
  5
3CC8
331
3E34
  5
3EDC
331
365
  5
11FA
331
28E
  5
335
331
1083
  5
2580
331
3CFE
  5
3D07
331
36B8
  5
393E
331
3CC7
  5
3CD0
331
3CCF
  5
3CD8
331
3D06
  5
3D19
  0
SORTENTSTABLE
  5
43F6
102
{ACAD_REACTORS
330
43F5
102
}
330
43F5
100
AcDbSortentsTable
330
DE4
331
4393
  5
4394
331
43B1
  5
43B2
331
43D5
  5
43D6
331
43F3
  5
43F4
331
43A8
  5
43A9
331
4142
  5
4143
331
43CB
  5
43CC
331
43E9
  5
43EA
331
4138
  5
4139
331
43E0
  5
43E1
331
4394
  5
4395
331
43B2
  5
43B3
331
43F4
  5
4138
331
4143
  5
4391
331
43A9
  5
43AA
331
43C7
  5
43C8
331
43D6
  5
43D7
331
43CC
  5
43CD
331
43EA
  5
43EB
331
43BD
  5
43BE
331
4139
  5
413A
331
43E1
  5
43E2
331
4395
  5
4396
331
43B3
  5
43B4
331
43AA
  5
43AB
331
43D7
  5
43D8
331
43EB
  5
43EC
331
413A
  5
4141
331
43BE
  5
43BF
331
43E2
  5
43E3
331
43CD
  5
43CE
331
4396
  5
4397
331
43B4
  5
43B5
331
43AB
  5
43AC
331
43D8
  5
43D9
331
43BF
  5
43C7
331
43E3
  5
43E4
331
43CE
  5
43CF
331
43EC
  5
43ED
331
4397
  5
4398
331
43B5
  5
43BD
331
43AC
  5
43AD
331
43D9
  5
43DA
331
43E4
  5
43E5
331
43CF
  5
43D0
331
43ED
  5
43EE
331
4398
  5
4399
331
43AD
  5
43B1
331
43DA
  5
43DB
331
43A3
  5
43A4
331
43E5
  5
43E6
331
43D0
  5
43D1
331
43EE
  5
43EF
331
4399
  5
439A
331
43DB
  5
43DC
331
43D1
  5
43D2
331
43EF
  5
43F0
331
43E6
  5
43E7
331
43A4
  5
43A5
331
43DC
  5
43DD
331
439A
  5
439B
331
43D2
  5
43D3
331
43F0
  5
43F1
331
43E7
  5
43E8
331
43A5
  5
43A6
331
43C8
  5
43C9
331
43DD
  5
43DE
331
439B
  5
439C
331
43D3
  5
43D4
331
43F1
  5
43F2
331
43A6
  5
43A7
331
4391
  5
4392
331
43C9
  5
43CA
331
43DE
  5
43DF
331
439C
  5
439D
331
4141
  5
4142
331
43D4
  5
43D5
331
43F2
  5
43F3
331
43A7
  5
43A8
331
4392
  5
4393
331
43CA
  5
43CB
331
43E8
  5
43E9
331
43DF
  5
43E0
331
439D
  5
43A3
  0
LAYOUT
  5
DD6
102
{ACAD_XDICTIONARY
360
4983
102
}
102
{ACAD_REACTORS
330
DD3
102
}
330
DD3
100
AcDbPlotSettings
  1

  2
HP LaserJet 2100 Series PCL 6
  4

  6

 40
0.0
 41
0.0
 42
0.0
 43
0.0
 44
0.0
 45
0.0
 46
0.0
 47
0.0
 48
0.0
 49
0.0
140
0.0
141
0.0
142
1.0
143
1.0
 70
   688
 72
     0
 73
     0
 74
     5
  7
acad.ctb
 75
    16
147
1.0
148
0.0
149
0.0
100
AcDbLayout
  1
Layout1
 70
     1
 71
     1
 10
0.0
 20
0.0
 11
12.0
 21
9.0
 12
0.0
 22
0.0
 32
0.0
 14
1.000000000000000E+20
 24
1.000000000000000E+20
 34
1.000000000000000E+20
 15
-1.000000000000000E+20
 25
-1.000000000000000E+20
 35
-1.000000000000000E+20
146
0.0
 13
0.0
 23
0.0
 33
0.0
 16
1.0
 26
0.0
 36
0.0
 17
0.0
 27
1.0
 37
0.0
 76
     0
330
47B
  0
LAYOUT
  5
DD5
102
{ACAD_XDICTIONARY
360
4981
102
}
102
{ACAD_REACTORS
330
DD3
102
}
330
DD3
100
AcDbPlotSettings
  1

  2
ImagePrinter Pro
  4
Note
  6

 40
3.174999952316284
 41
3.174999952316284
 42
3.175003051757812
 43
3.17498779296875
 44
215.9000091552734
 45
279.3999938964844
 46
0.0
 47
0.9367113514137429
 48
63.135803
 49
-43.57173099999999
140
159.740768
141
63.896524
142
1.0
143
35.30974453402019
 70
 28340
 72
     0
 73
     0
 74
     1
  7
acad.ctb
 75
     0
147
0.028320793967697
148
1867.003059339572
149
3806.128779168953
100
AcDbLayout
  1
Model
 70
     1
 71
     0
 10
0.0
 20
0.0
 11
12.0
 21
9.0
 12
0.0
 22
0.0
 32
0.0
 14
0.0
 24
0.0
 34
0.0
 15
0.0
 25
0.0
 35
0.0
146
0.0
 13
0.0
 23
0.0
 33
0.0
 16
1.0
 26
0.0
 36
0.0
 17
0.0
 27
1.0
 37
0.0
 76
     0
330
47E
331
16DE
1001
ACAD_PSEXT
1000
ImagePrinter Pro
1000
ImagePrinter Pro 5.6.0.0
1000
ImagePort:
1000
ImagePrinter Pro
1070
     0
  0
MATERIAL
  5
16E2
102
{ACAD_XDICTIONARY
360
4987
102
}
102
{ACAD_REACTORS
330
16E0
102
}
330
16E0
100
AcDbMaterial
  1
ByBlock
  0
MATERIAL
  5
16E1
102
{ACAD_XDICTIONARY
360
4985
102
}
102
{ACAD_REACTORS
330
16E0
102
}
330
16E0
100
AcDbMaterial
  1
ByLayer
  0
MATERIAL
  5
16E3
102
{ACAD_XDICTIONARY
360
4989
102
}
102
{ACAD_REACTORS
330
16E0
102
}
330
16E0
100
AcDbMaterial
  1
Global
  0
MLINESTYLE
  5
481
102
{ACAD_REACTORS
330
474
102
}
330
474
100
AcDbMlineStyle
  2
STANDARD
 70
     0
  3

 62
     0
 51
90.0
 52
90.0
 71
     2
 49
0.5
 62
   256
  6
BYLAYER
 49
-0.5
 62
   256
  6
BYLAYER
  0
ACDBPLACEHOLDER
  5
DD2
102
{ACAD_REACTORS
330
DD1
102
}
330
DD1
  0
TABLESTYLE
  5
16F7
102
{ACAD_XDICTIONARY
360
498B
102
}
102
{ACAD_REACTORS
330
16F6
102
}
330
16F6
100
AcDbTableStyle
  3
Standard
 70
     0
 71
     0
 40
0.06
 41
0.06
280
     0
281
     0
  7
STANDARD
140
0.18
170
     2
 62
     0
 63
     7
283
     0
274
    -2
284
     1
 64
     0
275
    -2
285
     1
 65
     0
276
    -2
286
     1
 66
     0
277
    -2
287
     1
 67
     0
278
    -2
288
     1
 68
     0
279
    -2
289
     1
 69
     0
  7
STANDARD
140
0.25
170
     5
 62
     0
 63
     7
283
     0
274
    -2
284
     1
 64
     0
275
    -2
285
     1
 65
     0
276
    -2
286
     1
 66
     0
277
    -2
287
     1
 67
     0
278
    -2
288
     1
 68
     0
279
    -2
289
     1
 69
     0
  7
STANDARD
140
0.18
170
     5
 62
     0
 63
     7
283
     0
274
    -2
284
     1
 64
     0
275
    -2
285
     1
 65
     0
276
    -2
286
     1
 66
     0
277
    -2
287
     1
 67
     0
278
    -2
288
     1
 68
     0
279
    -2
289
     1
 69
     0
  0
VISUALSTYLE
  5
16EA
102
{ACAD_REACTORS
330
16E4
102
}
330
16E4
100
AcDbVisualStyle
  2
2dWireframe
 70
     4
 71
     0
 72
     2
 73
     0
 90
        0
 40
-0.6
 41
-30.0
 62
     5
 63
     7
 74
     1
 91
        4
 64
     7
 65
   257
 75
     1
175
     1
 42
1.0
 92
        0
 66
   257
 43
1.0
 76
     1
 77
     6
 78
     2
 67
     7
 79
     5
170
     0
171
     0
290
     0
174
     0
 93
        1
 44
0.0
173
     0
291
     0
 45
0.0
1001
ACAD
1000
AcDbSavedByObjectVersion
1070
     0
  0
VISUALSTYLE
  5
16EC
102
{ACAD_REACTORS
330
16E4
102
}
330
16E4
100
AcDbVisualStyle
  2
3D Hidden
 70
     6
 71
     1
 72
     2
 73
     2
 90
        0
 40
-0.6
 41
-30.0
 62
     5
 63
     7
 74
     2
 91
        2
 64
     7
 65
   257
 75
     2
175
     1
 42
40.0
 92
        0
 66
   257
 43
1.0
 76
     1
 77
     6
 78
     2
 67
     7
 79
     3
170
     0
171
     0
290
     0
174
     0
 93
        1
 44
0.0
173
     0
291
     0
 45
0.0
1001
ACAD
1000
AcDbSavedByObjectVersion
1070
     0
  0
VISUALSTYLE
  5
16EB
102
{ACAD_REACTORS
330
16E4
102
}
330
16E4
100
AcDbVisualStyle
  2
3dWireframe
 70
     5
 71
     0
 72
     2
 73
     0
 90
        0
 40
-0.6
 41
-30.0
 62
     5
 63
     7
 74
     1
 91
        4
 64
     7
 65
   257
 75
     1
175
     1
 42
1.0
 92
        0
 66
   257
 43
1.0
 76
     1
 77
     6
 78
     2
 67
     7
 79
     5
170
     0
171
     0
290
     0
174
     0
 93
        1
 44
0.0
173
     0
291
     0
 45
0.0
1001
ACAD
1000
AcDbSavedByObjectVersion
1070
     0
  0
VISUALSTYLE
  5
16E9
102
{ACAD_REACTORS
330
16E4
102
}
330
16E4
100
AcDbVisualStyle
  2
Basic
 70
     7
 71
     1
 72
     0
 73
     1
 90
        0
 40
-0.6
 41
-30.0
 62
     5
 63
     7
 74
     0
 91
        4
 64
     7
 65
   257
 75
     1
175
     1
 42
1.0
 92
        8
 66
     7
 43
1.0
 76
     1
 77
     6
 78
     2
 67
     7
 79
     5
170
     0
171
     0
290
     0
174
     0
 93
        1
 44
0.0
173
     0
291
     1
 45
0.0
1001
ACAD
1000
AcDbSavedByObjectVersion
1070
     0
  0
VISUALSTYLE
  5
16F0
102
{ACAD_REACTORS
330
16E4
102
}
330
16E4
100
AcDbVisualStyle
  2
Brighten
 70
    12
 71
     2
 72
     2
 73
     0
 90
        0
 40
-0.6
 41
-30.0
 62
     5
 63
     7
 74
     1
 91
        4
 64
     7
 65
   257
 75
     1
175
     1
 42
1.0
 92
        8
 66
     7
 43
1.0
 76
     1
 77
     6
 78
     2
 67
     7
 79
     5
170
     0
171
     0
290
     0
174
     0
 93
        1
 44
50.0
173
     0
291
     1
 45
0.0
1001
ACAD
1000
AcDbSavedByObjectVersion
1070
     0
  0
VISUALSTYLE
  5
16F4
102
{ACAD_REACTORS
330
16E4
102
}
330
16E4
100
AcDbVisualStyle
  2
ColorChange
 70
    16
 71
     2
 72
     2
 73
     3
 90
        0
 40
-0.6
 41
-30.0
 62
     5
 63
     8
 74
     1
 91
        4
 64
     7
 65
   257
 75
     1
175
     1
 42
1.0
 92
        8
 66
     8
 43
1.0
 76
     1
 77
     6
 78
     2
 67
     7
 79
     5
170
     0
171
     0
290
     0
174
     0
 93
        1
 44
0.0
173
     0
291
     1
 45
0.0
1001
ACAD
1000
AcDbSavedByObjectVersion
1070
     0
  0
VISUALSTYLE
  5
16ED
102
{ACAD_REACTORS
330
16E4
102
}
330
16E4
100
AcDbVisualStyle
  2
Conceptual
 70
     9
 71
     3
 72
     2
 73
     0
 90
        0
 40
-0.6
 41
-30.0
 62
     5
 63
     7
 74
     2
 91
        2
 64
     7
 65
   257
 75
     1
175
     1
 42
40.0
 92
        8
 66
     7
 43
1.0
 76
     1
 77
     6
 78
     2
 67
     7
 79
     3
170
     0
171
     0
290
     0
174
     0
 93
        1
 44
0.0
173
     0
291
     0
 45
0.0
1001
ACAD
1000
AcDbSavedByObjectVersion
1070
     0
  0
VISUALSTYLE
  5
16EF
102
{ACAD_REACTORS
330
16E4
102
}
330
16E4
100
AcDbVisualStyle
  2
Dim
 70
    11
 71
     2
 72
     2
 73
     0
 90
        0
 40
-0.6
 41
-30.0
 62
     5
 63
     7
 74
     1
 91
        4
 64
     7
 65
   257
 75
     1
175
     1
 42
1.0
 92
        8
 66
     7
 43
1.0
 76
     1
 77
     6
 78
     2
 67
     7
 79
     5
170
     0
171
     0
290
     0
174
     0
 93
        1
 44
-50.0
173
     0
291
     1
 45
0.0
1001
ACAD
1000
AcDbSavedByObjectVersion
1070
     0
  0
VISUALSTYLE
  5
16F3
102
{ACAD_REACTORS
330
16E4
102
}
330
16E4
100
AcDbVisualStyle
  2
Facepattern
 70
    15
 71
     2
 72
     2
 73
     0
 90
        0
 40
-0.6
 41
-30.0
 62
     5
 63
     7
 74
     1
 91
        4
 64
     7
 65
   257
 75
     1
175
     1
 42
1.0
 92
        8
 66
     7
 43
1.0
 76
     1
 77
     6
 78
     2
 67
     7
 79
     5
170
     0
171
     0
290
     0
174
     0
 93
        1
 44
0.0
173
     0
291
     1
 45
0.0
1001
ACAD
1000
AcDbSavedByObjectVersion
1070
     0
  0
VISUALSTYLE
  5
16E5
102
{ACAD_REACTORS
330
16E4
102
}
330
16E4
100
AcDbVisualStyle
  2
Flat
 70
     0
 71
     2
 72
     1
 73
     1
 90
        2
 40
-0.6
 41
30.0
 62
     5
 63
     7
 74
     0
 91
        4
 64
     7
 65
   257
 75
     1
175
     1
 42
1.0
 92
        8
 66
     7
 43
1.0
 76
     1
 77
     6
 78
     2
 67
     7
 79
     5
170
     0
171
     0
290
     0
174
     0
 93
       13
 44
0.0
173
     0
291
     1
 45
0.0
1001
ACAD
1000
AcDbSavedByObjectVersion
1070
     0
  0
VISUALSTYLE
  5
16E6
102
{ACAD_REACTORS
330
16E4
102
}
330
16E4
100
AcDbVisualStyle
  2
FlatWithEdges
 70
     1
 71
     2
 72
     1
 73
     1
 90
        2
 40
-0.6
 41
30.0
 62
     5
 63
     7
 74
     1
 91
        4
 64
     7
 65
   257
 75
     1
175
     1
 42
1.0
 92
        0
 66
   257
 43
1.0
 76
     1
 77
     6
 78
     2
 67
     7
 79
     5
170
     0
171
     0
290
     0
174
     0
 93
       13
 44
0.0
173
     0
291
     1
 45
0.0
1001
ACAD
1000
AcDbSavedByObjectVersion
1070
     0
  0
VISUALSTYLE
  5
16E7
102
{ACAD_REACTORS
330
16E4
102
}
330
16E4
100
AcDbVisualStyle
  2
Gouraud
 70
     2
 71
     2
 72
     2
 73
     1
 90
        2
 40
-0.6
 41
30.0
 62
     5
 63
     7
 74
     0
 91
        4
 64
     7
 65
   257
 75
     1
175
     1
 42
1.0
 92
        0
 66
     7
 43
1.0
 76
     1
 77
     6
 78
     2
 67
     7
 79
     5
170
     0
171
     0
290
     0
174
     0
 93
       13
 44
0.0
173
     0
291
     1
 45
0.0
1001
ACAD
1000
AcDbSavedByObjectVersion
1070
     0
  0
VISUALSTYLE
  5
16E8
102
{ACAD_REACTORS
330
16E4
102
}
330
16E4
100
AcDbVisualStyle
  2
GouraudWithEdges
 70
     3
 71
     2
 72
     2
 73
     1
 90
        2
 40
-0.6
 41
30.0
 62
     5
 63
     7
 74
     1
 91
        4
 64
     7
 65
   257
 75
     1
175
     1
 42
1.0
 92
        0
 66
   257
 43
1.0
 76
     1
 77
     6
 78
     2
 67
     7
 79
     5
170
     0
171
     0
290
     0
174
     0
 93
       13
 44
0.0
173
     0
291
     1
 45
0.0
1001
ACAD
1000
AcDbSavedByObjectVersion
1070
     0
  0
VISUALSTYLE
  5
16F2
102
{ACAD_REACTORS
330
16E4
102
}
330
16E4
100
AcDbVisualStyle
  2
Linepattern
 70
    14
 71
     2
 72
     2
 73
     0
 90
        0
 40
-0.6
 41
-30.0
 62
     5
 63
     7
 74
     1
 91
        4
 64
     7
 65
   257
 75
     7
175
     7
 42
1.0
 92
        8
 66
     7
 43
1.0
 76
     1
 77
     6
 78
     2
 67
     7
 79
     5
170
     0
171
     0
290
     0
174
     0
 93
        1
 44
0.0
173
     0
291
     1
 45
0.0
1001
ACAD
1000
AcDbSavedByObjectVersion
1070
     0
  0
VISUALSTYLE
  5
16EE
102
{ACAD_REACTORS
330
16E4
102
}
330
16E4
100
AcDbVisualStyle
  2
Realistic
 70
     8
 71
     2
 72
     2
 73
     0
 90
        0
 40
-0.6
 41
-30.0
 62
     5
 63
     7
 74
     1
 91
        0
 64
     7
 65
   257
 75
     1
175
     1
 42
1.0
 92
        8
 66
     8
 43
1.0
 76
     1
 77
     6
 78
     2
 67
     7
 79
     5
170
     0
171
     0
290
     0
174
     0
 93
       13
 44
0.0
173
     0
291
     0
 45
0.0
1001
ACAD
1000
AcDbSavedByObjectVersion
1070
     0
  0
VISUALSTYLE
  5
16F1
102
{ACAD_REACTORS
330
16E4
102
}
330
16E4
100
AcDbVisualStyle
  2
Thicken
 70
    13
 71
     2
 72
     2
 73
     0
 90
        0
 40
-0.6
 41
-30.0
 62
     5
 63
     7
 74
     1
 91
        4
 64
     7
 65
   257
 75
     1
175
     1
 42
1.0
 92
       12
 66
     7
 43
1.0
 76
     1
 77
     6
 78
     2
 67
     7
 79
     5
170
     0
171
     0
290
     0
174
     0
 93
        1
 44
0.0
173
     0
291
     1
 45
0.0
1001
ACAD
1000
AcDbSavedByObjectVersion
1070
     0
  0
DICTIONARYVAR
  5
16F9
102
{ACAD_REACTORS
330
16F8
102
}
330
16F8
100
DictionaryVariables
280
     0
  1
STANDARD
  0
DICTIONARYVAR
  5
2C4B
102
{ACAD_REACTORS
330
16F8
102
}
330
16F8
100
DictionaryVariables
280
     0
  1
1
  0
DICTIONARYVAR
  5
2C4A
102
{ACAD_REACTORS
330
16F8
102
}
330
16F8
100
DictionaryVariables
280
     0
  1
0
  0
DICTIONARYVAR
  5
2C49
102
{ACAD_REACTORS
330
16F8
102
}
330
16F8
100
DictionaryVariables
280
     0
  1
127
  0
DICTIONARY
  5
4983
330
DD6
100
AcDbDictionary
280
     1
281
     1
  3
ACAD_XREC_ROUNDTRIP
360
4984
  0
DICTIONARY
  5
4981
330
DD5
100
AcDbDictionary
280
     1
281
     1
  3
ACAD_XREC_ROUNDTRIP
360
4982
  0
DICTIONARY
  5
4987
330
16E2
100
AcDbDictionary
280
     1
281
     1
  3
ACAD_XREC_ROUNDTRIP
360
4988
  0
DICTIONARY
  5
4985
330
16E1
100
AcDbDictionary
280
     1
281
     1
  3
ACAD_XREC_ROUNDTRIP
360
4986
  0
DICTIONARY
  5
4989
330
16E3
100
AcDbDictionary
280
     1
281
     1
  3
ACAD_XREC_ROUNDTRIP
360
498A
  0
DICTIONARY
  5
498B
330
16F7
100
AcDbDictionary
280
     1
281
     1
  3
ACAD_XREC_ROUNDTRIP
360
498C
  0
XRECORD
  5
4984
102
{ACAD_REACTORS
330
4983
102
}
330
4983
100
AcDbXrecord
280
     1
102
SHADEPLOT
 70
     0
102
SHADEPLOTRESLEVEL
 70
     2
102
SHADEPLOTCUSTOMDPI
 70
   300
  0
XRECORD
  5
4982
102
{ACAD_REACTORS
330
4981
102
}
330
4981
100
AcDbXrecord
280
     1
102
SHADEPLOT
 70
     0
102
SHADEPLOTRESLEVEL
 70
     2
102
SHADEPLOTCUSTOMDPI
 70
   300
  0
XRECORD
  5
4988
102
{ACAD_REACTORS
330
4987
102
}
330
4987
100
AcDbXrecord
280
     1
102
MATERIAL
148
0.0
149
0.0
149
0.0
 93
        0
 94
       63
282
     0
 72
     1
 77
     1
171
     1
175
     1
179
     1
273
     0
  0
XRECORD
  5
4986
102
{ACAD_REACTORS
330
4985
102
}
330
4985
100
AcDbXrecord
280
     1
102
MATERIAL
148
0.0
149
0.0
149
0.0
 93
        0
 94
       63
282
     0
 72
     1
 77
     1
171
     1
175
     1
179
     1
273
     0
  0
XRECORD
  5
498A
102
{ACAD_REACTORS
330
4989
102
}
330
4989
100
AcDbXrecord
280
     1
102
MATERIAL
148
0.0
149
0.0
149
0.0
 93
        0
 94
       63
282
     0
 72
     1
 77
     1
171
     1
175
     1
179
     1
273
     0
  0
XRECORD
  5
498C
102
{ACAD_REACTORS
330
498B
102
}
330
498B
100
AcDbXrecord
280
     1
102
ACAD_ROUNDTRIP_PRE2007_TABLESTYLE
 90
      512
 91
        0
  1

 92
      512
 93
        0
  2

 94
      512
 95
        0
  3

  0
ENDSEC
  0
EOF
