  0
SECTION
  2
HEADER
  9
$ACADVER
  1
AC1015
  9
$ACADMAINTVER
 70
    20
  9
$DWGCODEPAGE
  3
ANSI_1252
  9
$INSBASE
 10
0.0
 20
0.0
 30
0.0
  9
$EXTMIN
 10
180.6808267802582
 20
-16.51240761569892
 30
-0.0000000000000053
  9
$EXTMAX
 10
438.6050808350096
 20
169.1599266766865
 30
0.0000000000000099
  9
$LIMMIN
 10
0.0
 20
0.0
  9
$LIMMAX
 10
12.0
 20
9.0
  9
$ORTHOMODE
 70
     0
  9
$REGENMODE
 70
     1
  9
$FILLMODE
 70
     1
  9
$QTEXTMODE
 70
     0
  9
$MIRRTEXT
 70
     0
  9
$LTSCALE
 40
4.0
  9
$ATTMODE
 70
     1
  9
$TEXTSIZE
 40
1.768799999999999
  9
$TRACEWID
 40
0.05
  9
$TEXTSTYLE
  7
ROMANS
  9
$CLAYER
  8
0
  9
$CELTYPE
  6
BYLAYER
  9
$CECOLOR
 62
   256
  9
$CELTSCALE
 40
1.0
  9
$DISPSILH
 70
     0
  9
$DIMSCALE
 40
30.0
  9
$DIMASZ
 40
0.0625
  9
$DIMEXO
 40
0.0625
  9
$DIMDLI
 40
0.375
  9
$DIMRND
 40
0.0
  9
$DIMDLE
 40
0.0
  9
$DIMEXE
 40
0.0625
  9
$DIMTP
 40
0.0
  9
$DIMTM
 40
0.0
  9
$DIMTXT
 40
0.18
  9
$DIMCEN
 40
0.0625
  9
$DIMTSZ
 40
0.0
  9
$DIMTOL
 70
     0
  9
$DIMLIM
 70
     0
  9
$DIMTIH
 70
     1
  9
$DIMTOH
 70
     1
  9
$DIMSE1
 70
     0
  9
$DIMSE2
 70
     0
  9
$DIMTAD
 70
     0
  9
$DIMZIN
 70
     0
  9
$DIMBLK
  1

  9
$DIMASO
 70
     1
  9
$DIMSHO
 70
     1
  9
$DIMPOST
  1

  9
$DIMAPOST
  1

  9
$DIMALT
 70
     0
  9
$DIMALTD
 70
     2
  9
$DIMALTF
 40
25.4
  9
$DIMLFAC
 40
1.0
  9
$DIMTOFL
 70
     0
  9
$DIMTVP
 40
0.0
  9
$DIMTIX
 70
     0
  9
$DIMSOXD
 70
     0
  9
$DIMSAH
 70
     0
  9
$DIMBLK1
  1

  9
$DIMBLK2
  1

  9
$DIMSTYLE
  2
STANDARD
  9
$DIMCLRD
 70
     0
  9
$DIMCLRE
 70
     0
  9
$DIMCLRT
 70
     0
  9
$DIMTFAC
 40
1.0
  9
$DIMGAP
 40
0.0625
  9
$DIMJUST
 70
     0
  9
$DIMSD1
 70
     0
  9
$DIMSD2
 70
     0
  9
$DIMTOLJ
 70
     1
  9
$DIMTZIN
 70
     0
  9
$DIMALTZ
 70
     0
  9
$DIMALTTZ
 70
     0
  9
$DIMUPT
 70
     0
  9
$DIMDEC
 70
     4
  9
$DIMTDEC
 70
     4
  9
$DIMALTU
 70
     2
  9
$DIMALTTD
 70
     2
  9
$DIMTXSTY
  7
ROMANS
  9
$DIMAUNIT
 70
     0
  9
$DIMADEC
 70
     0
  9
$DIMALTRND
 40
0.0
  9
$DIMAZIN
 70
     0
  9
$DIMDSEP
 70
    46
  9
$DIMATFIT
 70
     3
  9
$DIMFRAC
 70
     2
  9
$DIMLDRBLK
  1

  9
$DIMLUNIT
 70
     4
  9
$DIMLWD
 70
    -2
  9
$DIMLWE
 70
    -2
  9
$DIMTMOVE
 70
     2
  9
$LUNITS
 70
     4
  9
$LUPREC
 70
     4
  9
$SKETCHINC
 40
0.1
  9
$FILLETRAD
 40
0.0
  9
$AUNITS
 70
     0
  9
$AUPREC
 70
     0
  9
$MENU
  1
acad
  9
$ELEVATION
 40
0.0
  9
$PELEVATION
 40
0.0
  9
$THICKNESS
 40
0.0
  9
$LIMCHECK
 70
     0
  9
$CHAMFERA
 40
0.0
  9
$CHAMFERB
 40
0.0
  9
$CHAMFERC
 40
0.0
  9
$CHAMFERD
 40
0.0
  9
$SKPOLY
 70
     0
  9
$TDCREATE
 40
2450857.456918403
  9
$TDUCREATE
 40
2450857.623585070
  9
$TDUPDATE
 40
2457857.378189861
  9
$TDUUPDATE
 40
2457857.544856528
  9
$TDINDWG
 40
0.5323630324
  9
$TDUSRTIMER
 40
0.5323630324
  9
$USRTIMER
 70
     1
  9
$ANGBASE
 50
0.0
  9
$ANGDIR
 70
     0
  9
$PDMODE
 70
    33
  9
$PDSIZE
 40
0.0
  9
$PLINEWID
 40
0.0
  9
$SPLFRAME
 70
     0
  9
$SPLINETYPE
 70
     6
  9
$SPLINESEGS
 70
     8
  9
$HANDSEED
  5
537F
  9
$SURFTAB1
 70
     6
  9
$SURFTAB2
 70
     6
  9
$SURFTYPE
 70
     6
  9
$SURFU
 70
     6
  9
$SURFV
 70
     6
  9
$UCSBASE
  2

  9
$UCSNAME
  2

  9
$UCSORG
 10
123.1686508715073
 20
-13.08718792439947
 30
0.0
  9
$UCSXDIR
 10
1.0
 20
-0.0000000000000018
 30
0.0
  9
$UCSYDIR
 10
0.0000000000000018
 20
1.0
 30
0.0
  9
$UCSORTHOREF
  2

  9
$UCSORTHOVIEW
 70
     0
  9
$UCSORGTOP
 10
0.0
 20
0.0
 30
0.0
  9
$UCSORGBOTTOM
 10
0.0
 20
0.0
 30
0.0
  9
$UCSORGLEFT
 10
0.0
 20
0.0
 30
0.0
  9
$UCSORGRIGHT
 10
0.0
 20
0.0
 30
0.0
  9
$UCSORGFRONT
 10
0.0
 20
0.0
 30
0.0
  9
$UCSORGBACK
 10
0.0
 20
0.0
 30
0.0
  9
$PUCSBASE
  2

  9
$PUCSNAME
  2

  9
$PUCSORG
 10
0.0
 20
0.0
 30
0.0
  9
$PUCSXDIR
 10
1.0
 20
0.0
 30
0.0
  9
$PUCSYDIR
 10
0.0
 20
1.0
 30
0.0
  9
$PUCSORTHOREF
  2

  9
$PUCSORTHOVIEW
 70
     0
  9
$PUCSORGTOP
 10
0.0
 20
0.0
 30
0.0
  9
$PUCSORGBOTTOM
 10
0.0
 20
0.0
 30
0.0
  9
$PUCSORGLEFT
 10
0.0
 20
0.0
 30
0.0
  9
$PUCSORGRIGHT
 10
0.0
 20
0.0
 30
0.0
  9
$PUCSORGFRONT
 10
0.0
 20
0.0
 30
0.0
  9
$PUCSORGBACK
 10
0.0
 20
0.0
 30
0.0
  9
$USERI1
 70
     0
  9
$USERI2
 70
     0
  9
$USERI3
 70
     0
  9
$USERI4
 70
     0
  9
$USERI5
 70
     0
  9
$USERR1
 40
0.0
  9
$USERR2
 40
0.0
  9
$USERR3
 40
0.0
  9
$USERR4
 40
0.0
  9
$USERR5
 40
0.0
  9
$WORLDVIEW
 70
     1
  9
$SHADEDGE
 70
     3
  9
$SHADEDIF
 70
    70
  9
$TILEMODE
 70
     1
  9
$MAXACTVP
 70
    16
  9
$PINSBASE
 10
0.0
 20
0.0
 30
0.0
  9
$PLIMCHECK
 70
     0
  9
$PEXTMIN
 10
1.000000000000000E+20
 20
1.000000000000000E+20
 30
1.000000000000000E+20
  9
$PEXTMAX
 10
-1.000000000000000E+20
 20
-1.000000000000000E+20
 30
-1.000000000000000E+20
  9
$PLIMMIN
 10
0.0
 20
0.0
  9
$PLIMMAX
 10
12.0
 20
9.0
  9
$UNITMODE
 70
     0
  9
$VISRETAIN
 70
     0
  9
$PLINEGEN
 70
     0
  9
$PSLTSCALE
 70
     1
  9
$TREEDEPTH
 70
  3020
  9
$CMLSTYLE
  2
STANDARD
  9
$CMLJUST
 70
     0
  9
$CMLSCALE
 40
1.0
  9
$PROXYGRAPHICS
 70
     1
  9
$MEASUREMENT
 70
     0
  9
$CELWEIGHT
370
    -1
  9
$ENDCAPS
280
     0
  9
$JOINSTYLE
280
     0
  9
$LWDISPLAY
290
     0
  9
$INSUNITS
 70
     0
  9
$HYPERLINKBASE
  1

  9
$STYLESHEET
  1
acad.ctb
  9
$XEDIT
290
     1
  9
$CEPSNTYPE
380
     0
  9
$PSTYLEMODE
290
     1
  9
$FINGERPRINTGUID
  2
{138B2CBA-C271-11D7-8738-0010B50CF566}
  9
$VERSIONGUID
  2
{5F54CA2E-0EC3-4EBF-8A73-033A066B22D2}
  9
$EXTNAMES
290
     1
  9
$PSVPSCALE
 40
0.0
  9
$OLESTARTUP
290
     0
  0
ENDSEC
  0
SECTION
  2
CLASSES
  0
CLASS
  1
ACDBDICTIONARYWDFLT
  2
AcDbDictionaryWithDefault
  3
ObjectDBX Classes
 90
        0
280
     0
281
     0
  0
CLASS
  1
ACDBPLACEHOLDER
  2
AcDbPlaceHolder
  3
ObjectDBX Classes
 90
        0
280
     0
281
     0
  0
CLASS
  1
LAYOUT
  2
AcDbLayout
  3
ObjectDBX Classes
 90
        0
280
     0
281
     0
  0
CLASS
  1
MATERIAL
  2
AcDbMaterial
  3
ObjectDBX Classes
 90
     1153
280
     0
281
     0
  0
CLASS
  1
VISUALSTYLE
  2
AcDbVisualStyle
  3
ObjectDBX Classes
 90
     4095
280
     0
281
     0
  0
CLASS
  1
TABLESTYLE
  2
AcDbTableStyle
  3
ObjectDBX Classes
 90
     4095
280
     0
281
     0
  0
CLASS
  1
SORTENTSTABLE
  2
AcDbSortentsTable
  3
ObjectDBX Classes
 90
        0
280
     0
281
     0
  0
CLASS
  1
DICTIONARYVAR
  2
AcDbDictionaryVar
  3
ObjectDBX Classes
 90
        0
280
     0
281
     0
  0
ENDSEC
  0
SECTION
  2
TABLES
  0
TABLE
  2
VPORT
  5
1DD8
102
{ACAD_XDICTIONARY
360
519F
102
}
330
0
100
AcDbSymbolTable
 70
     1
  0
VPORT
  5
35D6
330
1DD8
100
AcDbSymbolTableRecord
100
AcDbViewportTableRecord
  2
*Active
 70
     0
 10
0.0
 20
0.0
 11
1.0
 21
1.0
 12
309.642953807634
 22
76.32375953049382
 13
0.0
 23
0.0
 14
1.0
 24
1.0
 15
0.0
 25
0.0
 16
0.0
 26
0.0
 36
1.0
 17
0.0
 27
0.0
 37
0.0
 40
187.0276068054685
 41
1.489646772228988
 42
50.0
 43
0.0
 44
0.0
 50
0.0
 51
0.0
 71
     0
 72
   100
 73
     1
 74
     0
 75
     0
 76
     0
 77
     0
 78
     1
281
     0
 65
     1
110
123.1686508715073
120
-13.08718792439947
130
0.0
111
1.0
121
-0.0000000000000018
131
0.0
112
0.0000000000000018
122
1.0
132
0.0
 79
     0
146
0.0
  0
ENDTAB
  0
TABLE
  2
LTYPE
  5
1DD5
330
0
100
AcDbSymbolTable
 70
     4
  0
LTYPE
  5
1DE2
330
1DD5
100
AcDbSymbolTableRecord
100
AcDbLinetypeTableRecord
  2
BYBLOCK
 70
     0
  3

 72
    65
 73
     0
 40
0.0
  0
LTYPE
  5
1DE3
330
1DD5
100
AcDbSymbolTableRecord
100
AcDbLinetypeTableRecord
  2
BYLAYER
 70
     0
  3

 72
    65
 73
     0
 40
0.0
  0
LTYPE
  5
1DE4
330
1DD5
100
AcDbSymbolTableRecord
100
AcDbLinetypeTableRecord
  2
CONTINUOUS
 70
     0
  3
Solid line
 72
    65
 73
     0
 40
0.0
  0
LTYPE
  5
1E6A
330
1DD5
100
AcDbSymbolTableRecord
100
AcDbLinetypeTableRecord
  2
HIDDEN
 70
     0
  3
__ __ __ __ __ __ __ __ __ __ __ __ __ __ __ __
 72
    65
 73
     2
 40
0.375
 49
0.25
 74
     0
 49
-0.125
 74
     0
  0
LTYPE
  5
1E6B
330
1DD5
100
AcDbSymbolTableRecord
100
AcDbLinetypeTableRecord
  2
CENTER
 70
     0
  3
____ _ ____ _ ____ _ ____ _ ____ _ ____ _ ____ 
 72
    65
 73
     4
 40
2.0
 49
1.25
 74
     0
 49
-0.25
 74
     0
 49
0.25
 74
     0
 49
-0.25
 74
     0
  0
LTYPE
  5
1E6E
330
1DD5
100
AcDbSymbolTableRecord
100
AcDbLinetypeTableRecord
  2
PHANTOM
 70
     0
  3
______  __  __  ______  __  __  ______  __  __ 
 72
    65
 73
     6
 40
2.5
 49
1.25
 74
     0
 49
-0.25
 74
     0
 49
0.25
 74
     0
 49
-0.25
 74
     0
 49
0.25
 74
     0
 49
-0.25
 74
     0
  0
ENDTAB
  0
TABLE
  2
LAYER
  5
1DD2
330
0
100
AcDbSymbolTable
 70
     2
  0
LAYER
  5
1DDF
330
1DD2
100
AcDbSymbolTableRecord
100
AcDbLayerTableRecord
  2
0
 70
     0
 62
     7
  6
CONTINUOUS
370
    -3
390
3290
  0
LAYER
  5
1E74
330
1DD2
100
AcDbSymbolTableRecord
100
AcDbLayerTableRecord
  2
DEFPOINTS
 70
     0
 62
     7
  6
CONTINUOUS
290
     0
370
    -3
390
3290
  0
ENDTAB
  0
TABLE
  2
STYLE
  5
1DD3
330
0
100
AcDbSymbolTable
 70
     5
  0
STYLE
  5
1DE0
330
1DD3
100
AcDbSymbolTableRecord
100
AcDbTextStyleTableRecord
  2
STANDARD
 70
     0
 40
0.0
 41
1.0
 50
0.0
 71
     0
 42
0.2
  3
txt
  4

  0
STYLE
  5
1E68
330
1DD3
100
AcDbSymbolTableRecord
100
AcDbTextStyleTableRecord
  2
ROMANS
 70
     0
 40
0.0
 41
1.0
 50
0.0
 71
     0
 42
1.768799999999999
  3
romans
  4

  0
STYLE
  5
1E69
330
1DD3
100
AcDbSymbolTableRecord
100
AcDbTextStyleTableRecord
  2
ROMANC
 70
     0
 40
1.5314
 41
1.0
 50
0.0
 71
     0
 42
1.768799999999999
  3
romanc
  4

  0
STYLE
  5
28BA
330
1DD3
100
AcDbSymbolTableRecord
100
AcDbTextStyleTableRecord
  2
STYLE1
 70
     0
 40
0.0
 41
1.0
 50
0.0
 71
     0
 42
3.0954
  3
C:\Program Files\AutoCAD LT\romanc.shx
  4

  0
ENDTAB
  0
TABLE
  2
VIEW
  5
1DD6
330
0
100
AcDbSymbolTable
 70
     0
  0
ENDTAB
  0
TABLE
  2
UCS
  5
1DD7
330
0
100
AcDbSymbolTable
 70
     0
  0
ENDTAB
  0
TABLE
  2
APPID
  5
1DD9
330
0
100
AcDbSymbolTable
 70
     4
  0
APPID
  5
1DE1
330
1DD9
100
AcDbSymbolTableRecord
100
AcDbRegAppTableRecord
  2
ACAD
 70
     0
  0
APPID
  5
35FC
330
1DD9
100
AcDbSymbolTableRecord
100
AcDbRegAppTableRecord
  2
DCO15
 70
     0
  0
APPID
  5
39AB
330
1DD9
100
AcDbSymbolTableRecord
100
AcDbRegAppTableRecord
  2
ACAD_EXEMPT_FROM_CAD_STANDARDS
 70
     0
  0
APPID
  5
5371
330
1DD9
100
AcDbSymbolTableRecord
100
AcDbRegAppTableRecord
  2
ACAD_PSEXT
 70
     0
  0
ENDTAB
  0
TABLE
  2
DIMSTYLE
  5
1DDA
330
0
100
AcDbSymbolTable
 70
     4
100
AcDbDimStyleTable
 71
     2
340
1E71
340
1E72
  0
DIMSTYLE
105
1E71
330
1DDA
100
AcDbSymbolTableRecord
100
AcDbDimStyleTableRecord
  2
STANDARD
 70
     0
 40
30.0
 41
0.0625
 43
0.375
 44
0.0625
141
0.0625
147
0.0625
276
     2
277
     4
279
     2
340
1E68
  0
DIMSTYLE
105
1E72
102
{ACAD_REACTORS
330
3615
330
368A
330
3ECC
330
3ECD
330
3FAC
330
4B63
330
5043
330
506F
330
525A
330
5270
330
5272
330
5325
102
}
330
1DDA
100
AcDbSymbolTableRecord
100
AcDbDimStyleTableRecord
  2
STANDARD$0
 70
     0
 40
30.0
 41
0.0625
 43
0.375
 44
0.0625
 78
     3
140
0.0625
141
0.0625
147
0.0625
273
     4
276
     2
277
     4
279
     2
284
     3
285
     3
286
     3
340
1E68
  0
DIMSTYLE
105
1E73
102
{ACAD_REACTORS
330
4AE4
102
}
330
1DDA
100
AcDbSymbolTableRecord
100
AcDbDimStyleTableRecord
  2
STANDARD$2
 70
     0
 40
12.0
 41
0.125
 42
0.125
 43
0.375
 44
0.125
141
0.0625
147
0.0625
271
     0
272
     0
273
     4
277
     4
279
     2
340
1E68
  0
ENDTAB
  0
TABLE
  2
BLOCK_RECORD
  5
1DD1
330
0
100
AcDbSymbolTable
 70
    22
  0
BLOCK_RECORD
  5
1DE8
102
{ACAD_XDICTIONARY
360
35F7
102
}
330
1DD1
100
AcDbSymbolTableRecord
100
AcDbBlockTableRecord
  2
*MODEL_SPACE
340
3293
  0
BLOCK_RECORD
  5
1DE5
330
1DD1
100
AcDbSymbolTableRecord
100
AcDbBlockTableRecord
  2
*PAPER_SPACE
340
3294
  0
BLOCK_RECORD
  5
1E0F
330
1DD1
100
AcDbSymbolTableRecord
100
AcDbBlockTableRecord
  2
LINETYPE
340
0
102
{BLKREFS
331
E5D
331
E5E
331
E5F
331
14C8
331
14C9
331
14CA
331
1A41
331
1A42
331
1AB1
331
1AB6
331
28D8
102
}
  0
BLOCK_RECORD
  5
2BD8
330
1DD1
100
AcDbSymbolTableRecord
100
AcDbBlockTableRecord
  2
*X1
340
0
102
{BLKREFS
331
2E38
331
50F8
102
}
  0
BLOCK_RECORD
  5
2E25
330
1DD1
100
AcDbSymbolTableRecord
100
AcDbBlockTableRecord
  2
BORDER
340
0
  0
BLOCK_RECORD
  5
3616
330
1DD1
100
AcDbSymbolTableRecord
100
AcDbBlockTableRecord
  2
*D3
340
0
  0
BLOCK_RECORD
  5
368B
330
1DD1
100
AcDbSymbolTableRecord
100
AcDbBlockTableRecord
  2
*D4
340
0
  0
BLOCK_RECORD
  5
3801
330
1DD1
100
AcDbSymbolTableRecord
100
AcDbBlockTableRecord
  2
Ldr-trd
340
0
  0
BLOCK_RECORD
  5
3EDD
330
1DD1
100
AcDbSymbolTableRecord
100
AcDbBlockTableRecord
  2
*D6
340
0
  0
BLOCK_RECORD
  5
3EEA
330
1DD1
100
AcDbSymbolTableRecord
100
AcDbBlockTableRecord
  2
*D7
340
0
  0
BLOCK_RECORD
  5
3FAD
330
1DD1
100
AcDbSymbolTableRecord
100
AcDbBlockTableRecord
  2
*D8
340
0
  0
BLOCK_RECORD
  5
49B3
102
{ACAD_XDICTIONARY
360
49B4
102
}
330
1DD1
100
AcDbSymbolTableRecord
100
AcDbBlockTableRecord
  2
A$C451C0C06
340
0
102
{BLKREFS
331
4ADD
331
4ADE
331
4ADF
331
4AE0
331
4AE1
331
4AE2
102
}
  0
BLOCK_RECORD
  5
4AF2
330
1DD1
100
AcDbSymbolTableRecord
100
AcDbBlockTableRecord
  2
*D10
340
0
  0
BLOCK_RECORD
  5
4B64
330
1DD1
100
AcDbSymbolTableRecord
100
AcDbBlockTableRecord
  2
*D11
340
0
  0
BLOCK_RECORD
  5
5044
330
1DD1
100
AcDbSymbolTableRecord
100
AcDbBlockTableRecord
  2
*D12
340
0
  0
BLOCK_RECORD
  5
5070
330
1DD1
100
AcDbSymbolTableRecord
100
AcDbBlockTableRecord
  2
*D13
340
0
  0
BLOCK_RECORD
  5
527A
330
1DD1
100
AcDbSymbolTableRecord
100
AcDbBlockTableRecord
  2
*D17
340
0
  0
BLOCK_RECORD
  5
5287
330
1DD1
100
AcDbSymbolTableRecord
100
AcDbBlockTableRecord
  2
*D18
340
0
  0
BLOCK_RECORD
  5
5294
330
1DD1
100
AcDbSymbolTableRecord
100
AcDbBlockTableRecord
  2
*D19
340
0
  0
BLOCK_RECORD
  5
5326
330
1DD1
100
AcDbSymbolTableRecord
100
AcDbBlockTableRecord
  2
*D20
340
0
  0
ENDTAB
  0
ENDSEC
  0
SECTION
  2
BLOCKS
  0
BLOCK
  5
1E77
330
1DE8
100
AcDbEntity
  8
0
100
AcDbBlockBegin
  2
*MODEL_SPACE
 70
     0
 10
0.0
 20
0.0
 30
0.0
  3
*MODEL_SPACE
  1

  0
ENDBLK
  5
1E78
330
1DE8
100
AcDbEntity
  8
0
100
AcDbBlockEnd
  0
BLOCK
  5
1E75
330
1DE5
100
AcDbEntity
 67
     1
  8
0
100
AcDbBlockBegin
  2
*PAPER_SPACE
 70
     0
 10
0.0
 20
0.0
 30
0.0
  3
*PAPER_SPACE
  1

  0
ENDBLK
  5
1E76
330
1DE5
100
AcDbEntity
 67
     1
  8
0
100
AcDbBlockEnd
  0
BLOCK
  5
380
330
1E0F
100
AcDbEntity
  8
0
100
AcDbBlockBegin
  2
LINETYPE
 70
     0
 10
0.0
 20
0.0
 30
0.0
  3
LINETYPE
  1

  0
ENDBLK
  5
381
330
1E0F
100
AcDbEntity
  8
0
100
AcDbBlockEnd
  0
BLOCK
  5
2E23
330
2BD8
100
AcDbEntity
  8
0
100
AcDbBlockBegin
  2
*X1
 70
     1
 10
0.0
 20
0.0
 30
0.0
  3
*X1
  1

  0
LINE
  5
2BD9
330
2BD8
100
AcDbEntity
  8
0
 62
     0
100
AcDbLine
 10
-39.38783740946116
 20
-279.4947837961181
 30
0.0
 11
-38.65407559127778
 21
-278.7610219779348
 31
0.0
  0
LINE
  5
2BDA
330
2BD8
100
AcDbEntity
  8
0
 62
     0
100
AcDbLine
 10
-39.50054631068232
 20
-279.4749101758668
 30
0.0
 11
-38.76678449249896
 21
-278.7411483576835
 31
0.0
  0
LINE
  5
2BDB
330
2BD8
100
AcDbEntity
  8
0
 62
     0
100
AcDbLine
 10
-39.61325521190351
 20
-279.4550365556156
 30
0.0
 11
-38.87949339372014
 21
-278.7212747374322
 31
0.0
  0
LINE
  5
2BDC
330
2BD8
100
AcDbEntity
  8
0
 62
     0
100
AcDbLine
 10
-39.7259641131247
 20
-279.4351629353642
 30
0.0
 11
-38.99220229494132
 21
-278.7014011171809
 31
0.0
  0
LINE
  5
2BDD
330
2BD8
100
AcDbEntity
  8
0
 62
     0
100
AcDbLine
 10
-39.83867301434587
 20
-279.415289315113
 30
0.0
 11
-39.1049111961625
 21
-278.6815274969296
 31
0.0
  0
LINE
  5
2BDE
330
2BD8
100
AcDbEntity
  8
0
 62
     0
100
AcDbLine
 10
-39.95138191556705
 20
-279.3954156948617
 30
0.0
 11
-39.21762009738368
 21
-278.6616538766783
 31
0.0
  0
LINE
  5
2BDF
330
2BD8
100
AcDbEntity
  8
0
 62
     0
100
AcDbLine
 10
-40.06409081678821
 20
-279.3755420746104
 30
0.0
 11
-39.33032899860484
 21
-278.641780256427
 31
0.0
  0
LINE
  5
2BE0
330
2BD8
100
AcDbEntity
  8
0
 62
     0
100
AcDbLine
 10
-40.1767997180094
 20
-279.3556684543591
 30
0.0
 11
-40.06372011526283
 21
-279.2425888516125
 31
0.0
  0
LINE
  5
2BE1
330
2BD8
100
AcDbEntity
  8
0
 62
     0
100
AcDbLine
 10
-39.89688315430998
 20
-279.0757518906596
 30
0.0
 11
-39.44303789982602
 21
-278.6219066361756
 31
0.0
  0
LINE
  5
2BE2
330
2BD8
100
AcDbEntity
  8
0
 62
     0
100
AcDbLine
 10
-40.06372011526283
 20
-279.2425888516125
 30
0.0
 11
-39.89688315430998
 21
-279.0757518906597
 31
0.0
  0
LINE
  5
2BE3
330
2BD8
100
AcDbEntity
  8
0
 62
     0
100
AcDbLine
 10
-40.28950861923056
 20
-279.3357948341077
 30
0.0
 11
-40.10500766087813
 21
-279.1512938757553
 31
0.0
  0
LINE
  5
2BE4
330
2BD8
100
AcDbEntity
  8
0
 62
     0
100
AcDbLine
 10
-39.94078059974761
 20
-278.9870668146248
 30
0.0
 11
-39.5557468010472
 21
-278.6020330159244
 31
0.0
  0
LINE
  5
2BE5
330
2BD8
100
AcDbEntity
  8
0
 62
     0
100
AcDbLine
 10
-40.10500766087811
 20
-279.1512938757553
 30
0.0
 11
-39.9407805997476
 21
-278.9870668146248
 31
0.0
  0
LINE
  5
2BE6
330
2BD8
100
AcDbEntity
  8
0
 62
     0
100
AcDbLine
 10
-40.36990717715883
 20
-279.2836108705636
 30
0.0
 11
-40.1462952064934
 21
-279.0599988998982
 31
0.0
  0
LINE
  5
2BE7
330
2BD8
100
AcDbEntity
  8
0
 62
     0
100
AcDbLine
 10
-39.98467804518519
 20
-278.8983817385899
 30
0.0
 11
-39.66845570226838
 21
-278.5821593956731
 31
0.0
  0
LINE
  5
2BE8
330
2BD8
100
AcDbEntity
  8
0
 62
     0
100
AcDbLine
 10
-40.14629520649338
 20
-279.0599988998981
 30
0.0
 11
-39.98467804518524
 21
-278.89838173859
 31
0.0
  0
LINE
  5
2BE9
330
2BD8
100
AcDbEntity
  8
0
 62
     0
100
AcDbLine
 10
-40.32903303677044
 20
-279.1101542087027
 30
0.0
 11
-40.18758275210868
 21
-278.968703924041
 31
0.0
  0
LINE
  5
2BEA
330
2BD8
100
AcDbEntity
  8
0
 62
     0
100
AcDbLine
 10
-40.02857549062279
 20
-278.8096966625551
 30
0.0
 11
-39.78116460348956
 21
-278.5622857754218
 31
0.0
  0
LINE
  5
2BEB
330
2BD8
100
AcDbEntity
  8
0
 62
     0
100
AcDbLine
 10
-40.18758275210866
 20
-278.9687039240409
 30
0.0
 11
-40.02857549062286
 21
-278.8096966625551
 31
0.0
  0
LINE
  5
2BEC
330
2BD8
100
AcDbEntity
  8
0
 62
     0
100
AcDbLine
 10
-40.28815889638206
 20
-278.9366975468419
 30
0.0
 11
-40.22887029772395
 21
-278.8774089481838
 31
0.0
  0
LINE
  5
2BED
330
2BD8
100
AcDbEntity
  8
0
 62
     0
100
AcDbLine
 10
-40.07247293606041
 20
-278.7210115865202
 30
0.0
 11
-39.89387350471074
 21
-278.5424121551705
 31
0.0
  0
LINE
  5
2BEE
330
2BD8
100
AcDbEntity
  8
0
 62
     0
100
AcDbLine
 10
-40.22887029772394
 20
-278.8774089481837
 30
0.0
 11
-40.07247293606049
 21
-278.7210115865203
 31
0.0
  0
LINE
  5
2BEF
330
2BD8
100
AcDbEntity
  8
0
 62
     0
100
AcDbLine
 10
-40.27015784333923
 20
-278.7861139723266
 30
0.0
 11
-40.11637038149812
 21
-278.6323265104854
 31
0.0
  0
LINE
  5
2BF0
330
2BD8
100
AcDbEntity
  8
0
 62
     0
100
AcDbLine
 10
-40.116370381498
 20
-278.6323265104853
 30
0.0
 11
-40.00658240593192
 21
-278.5225385349192
 31
0.0
  0
LINE
  5
2BF1
330
2BD8
100
AcDbEntity
  8
0
 62
     0
100
AcDbLine
 10
-40.31144538895452
 20
-278.6948189964694
 30
0.0
 11
-40.30692854477254
 21
-278.6903021522874
 31
0.0
  0
LINE
  5
2BF2
330
2BD8
100
AcDbEntity
  8
0
 62
     0
100
AcDbLine
 10
-39.69215944246978
 20
-278.0755330499846
 30
0.0
 11
-39.59237083622737
 21
-277.9757444437422
 31
0.0
  0
LINE
  5
2BF3
330
2BD8
100
AcDbEntity
  8
0
 62
     0
100
AcDbLine
 10
-40.30692854477248
 20
-278.6903021522873
 30
0.0
 11
-40.20641061560525
 21
-278.5897842231201
 31
0.0
  0
LINE
  5
2BF4
330
2BD8
100
AcDbEntity
  8
0
 62
     0
100
AcDbLine
 10
-40.16017812122486
 20
-278.5435517287397
 30
0.0
 11
-40.11929130715309
 21
-278.5026649146679
 31
0.0
  0
LINE
  5
2BF5
330
2BD8
100
AcDbEntity
  8
0
 62
     0
100
AcDbLine
 10
-40.20466276288202
 20
-278.5880363703969
 30
0.0
 11
-40.16017812122502
 21
-278.5435517287398
 31
0.0
  0
LINE
  5
2BF6
330
2BD8
100
AcDbEntity
  8
0
 62
     0
100
AcDbLine
 10
-40.41225758634928
 20
-278.6630486723916
 30
0.0
 11
-40.23018407840633
 21
-278.4809751644487
 31
0.0
  0
LINE
  5
2BF7
330
2BD8
100
AcDbEntity
  8
0
 62
     0
100
AcDbLine
 10
-39.73691136690469
 20
-277.987702452947
 30
0.0
 11
-39.6371227606623
 21
-277.8879138467047
 31
0.0
  0
LINE
  5
2BF8
330
2BD8
100
AcDbEntity
  8
0
 62
     0
100
AcDbLine
 10
-40.23018407840633
 20
-278.4809751644486
 30
0.0
 11
-40.20259152936932
 21
-278.4533826154117
 31
0.0
  0
LINE
  5
2BF9
330
2BD8
100
AcDbEntity
  8
0
 62
     0
100
AcDbLine
 10
-40.57051962558798
 20
-278.6887281901577
 30
0.0
 11
-40.51758662792604
 21
-278.6357951924959
 31
0.0
  0
LINE
  5
2BFA
330
2BD8
100
AcDbEntity
  8
0
 62
     0
100
AcDbLine
 10
-39.78166329133961
 20
-277.8998718559094
 30
0.0
 11
-39.68187468509722
 21
-277.8000832496671
 31
0.0
  0
LINE
  5
2BFB
330
2BD8
100
AcDbEntity
  8
0
 62
     0
100
AcDbLine
 10
-40.51758662792603
 20
-278.6357951924959
 30
0.0
 11
-40.33869630383812
 21
-278.456904868408
 31
0.0
  0
LINE
  5
2BFC
330
2BD8
100
AcDbEntity
  8
0
 62
     0
100
AcDbLine
 10
-40.33869630383812
 20
-278.456904868408
 30
0.0
 11
-40.24734345380425
 21
-278.3655520183742
 31
0.0
  0
LINE
  5
2BFD
330
2BD8
100
AcDbEntity
  8
0
 62
     0
100
AcDbLine
 10
-40.84083440815077
 20
-278.8264604512481
 30
0.0
 11
-40.62291566950281
 21
-278.6085417126002
 31
0.0
  0
LINE
  5
2BFE
330
2BD8
100
AcDbEntity
  8
0
 62
     0
100
AcDbLine
 10
-39.82641521577454
 20
-277.812041258872
 30
0.0
 11
-39.72662660953214
 21
-277.7122526526295
 31
0.0
  0
LINE
  5
2BFF
330
2BD8
100
AcDbEntity
  8
0
 62
     0
100
AcDbLine
 10
-40.62291566950278
 20
-278.6085417126002
 30
0.0
 11
-40.44720852926992
 21
-278.4328345723673
 31
0.0
  0
LINE
  5
2C00
330
2BD8
100
AcDbEntity
  8
0
 62
     0
100
AcDbLine
 10
-40.44720852926991
 20
-278.4328345723673
 30
0.0
 11
-40.29209537823916
 21
-278.2777214213366
 31
0.0
  0
LINE
  5
2C01
330
2BD8
100
AcDbEntity
  8
0
 62
     0
100
AcDbLine
 10
-41.07098574326527
 20
-278.9240292648902
 30
0.0
 11
-40.96884180887604
 21
-278.821885330501
 31
0.0
  0
LINE
  5
2C02
330
2BD8
100
AcDbEntity
  8
0
 62
     0
100
AcDbLine
 10
-39.87116714020946
 20
-277.7242106618344
 30
0.0
 11
-39.77137853396706
 21
-277.624422055592
 31
0.0
  0
LINE
  5
2C03
330
2BD8
100
AcDbEntity
  8
0
 62
     0
100
AcDbLine
 10
-40.96884180887601
 20
-278.8218853305009
 30
0.0
 11
-40.72824471107957
 21
-278.5812882327045
 31
0.0
  0
LINE
  5
2C04
330
2BD8
100
AcDbEntity
  8
0
 62
     0
100
AcDbLine
 10
-40.55572075470169
 20
-278.4087642763266
 30
0.0
 11
-40.33684730267409
 21
-278.189890824299
 31
0.0
  0
LINE
  5
2C05
330
2BD8
100
AcDbEntity
  8
0
 62
     0
100
AcDbLine
 10
-40.72824471107958
 20
-278.5812882327045
 30
0.0
 11
-40.55572075470172
 21
-278.4087642763266
 31
0.0
  0
LINE
  5
2C06
330
2BD8
100
AcDbEntity
  8
0
 62
     0
100
AcDbLine
 10
-41.11573766770019
 20
-278.8361986678526
 30
0.0
 11
-41.01359373331094
 21
-278.7340547334634
 31
0.0
  0
LINE
  5
2C07
330
2BD8
100
AcDbEntity
  8
0
 62
     0
100
AcDbLine
 10
-39.91591906464438
 20
-277.6363800647968
 30
0.0
 11
-39.81613045840198
 21
-277.5365914585544
 31
0.0
  0
LINE
  5
2C08
330
2BD8
100
AcDbEntity
  8
0
 62
     0
100
AcDbLine
 10
-41.01359373331097
 20
-278.7340547334634
 30
0.0
 11
-40.83357375265634
 21
-278.5540347528088
 31
0.0
  0
LINE
  5
2C09
330
2BD8
100
AcDbEntity
  8
0
 62
     0
100
AcDbLine
 10
-40.66423298013347
 20
-278.3846939802859
 30
0.0
 11
-40.38159922710902
 21
-278.1020602272615
 31
0.0
  0
LINE
  5
2C0A
330
2BD8
100
AcDbEntity
  8
0
 62
     0
100
AcDbLine
 10
-40.83357375265634
 20
-278.5540347528088
 30
0.0
 11
-40.66423298013349
 21
-278.384693980286
 31
0.0
  0
LINE
  5
2C0B
330
2BD8
100
AcDbEntity
  8
0
 62
     0
100
AcDbLine
 10
-41.16048959213512
 20
-278.7483680708151
 30
0.0
 11
-41.05834565774588
 21
-278.6462241364259
 31
0.0
  0
LINE
  5
2C0C
330
2BD8
100
AcDbEntity
  8
0
 62
     0
100
AcDbLine
 10
-39.96067098907931
 20
-277.5485494677593
 30
0.0
 11
-39.86088238283691
 21
-277.4487608615169
 31
0.0
  0
LINE
  5
2C0D
330
2BD8
100
AcDbEntity
  8
0
 62
     0
100
AcDbLine
 10
-41.05834565774586
 20
-278.6462241364258
 30
0.0
 11
-40.93646758632097
 21
-278.524346065001
 31
0.0
  0
LINE
  5
2C0E
330
2BD8
100
AcDbEntity
  8
0
 62
     0
100
AcDbLine
 10
-40.77274520556526
 20
-278.3606236842452
 30
0.0
 11
-40.42635115154395
 21
-278.0142296302239
 31
0.0
  0
LINE
  5
2C0F
330
2BD8
100
AcDbEntity
  8
0
 62
     0
100
AcDbLine
 10
-40.93646758632099
 20
-278.524346065001
 30
0.0
 11
-40.77274520556528
 21
-278.3606236842453
 31
0.0
  0
LINE
  5
2C10
330
2BD8
100
AcDbEntity
  8
0
 62
     0
100
AcDbLine
 10
-41.20524151657004
 20
-278.6605374737775
 30
0.0
 11
-41.10309758218079
 21
-278.5583935393883
 31
0.0
  0
LINE
  5
2C11
330
2BD8
100
AcDbEntity
  8
0
 62
     0
100
AcDbLine
 10
-40.00542291351423
 20
-277.4607188707217
 30
0.0
 11
-39.90563430727183
 21
-277.3609302644794
 31
0.0
  0
LINE
  5
2C12
330
2BD8
100
AcDbEntity
  8
0
 62
     0
100
AcDbLine
 10
-41.10309758218081
 20
-278.5583935393883
 30
0.0
 11
-40.90160135388338
 21
-278.3568973110909
 31
0.0
  0
LINE
  5
2C13
330
2BD8
100
AcDbEntity
  8
0
 62
     0
100
AcDbLine
 10
-40.87969543086212
 20
-278.3349913880696
 30
0.0
 11
-40.47110307597886
 21
-277.9263990331864
 31
0.0
  0
LINE
  5
2C14
330
2BD8
100
AcDbEntity
  8
0
 62
     0
100
AcDbLine
 10
-40.9016013538834
 20
-278.3568973110909
 30
0.0
 11
-40.87969543086214
 21
-278.3349913880696
 31
0.0
  0
LINE
  5
2C15
330
2BD8
100
AcDbEntity
  8
0
 62
     0
100
AcDbLine
 10
-41.24999344100497
 20
-278.57270687674
 30
0.0
 11
-41.14784950661573
 21
-278.4705629423507
 31
0.0
  0
LINE
  5
2C16
330
2BD8
100
AcDbEntity
  8
0
 62
     0
100
AcDbLine
 10
-40.05017483794916
 20
-277.3728882736842
 30
0.0
 11
-39.95038623170675
 21
-277.2730996674417
 31
0.0
  0
LINE
  5
2C17
330
2BD8
100
AcDbEntity
  8
0
 62
     0
100
AcDbLine
 10
-41.14784950661571
 20
-278.4705629423507
 30
0.0
 11
-40.51585500041379
 21
-277.8385684361488
 31
0.0
  0
LINE
  5
2C18
330
2BD8
100
AcDbEntity
  8
0
 62
     0
100
AcDbLine
 10
-40.13520989857035
 20
-277.4579233343053
 30
0.0
 11
-40.05017483794913
 21
-277.3728882736842
 31
0.0
  0
LINE
  5
2C19
330
2BD8
100
AcDbEntity
  8
0
 62
     0
100
AcDbLine
 10
-41.29474536543989
 20
-278.4848762797024
 30
0.0
 11
-41.19260143105066
 21
-278.3827323453132
 31
0.0
  0
LINE
  5
2C1A
330
2BD8
100
AcDbEntity
  8
0
 62
     0
100
AcDbLine
 10
-40.09492676238408
 20
-277.2850576766466
 30
0.0
 11
-39.99513815614167
 21
-277.1852690704042
 31
0.0
  0
LINE
  5
2C1B
330
2BD8
100
AcDbEntity
  8
0
 62
     0
100
AcDbLine
 10
-41.19260143105065
 20
-278.3827323453131
 30
0.0
 11
-40.56060692484869
 21
-277.7507378391113
 31
0.0
  0
LINE
  5
2C1C
330
2BD8
100
AcDbEntity
  8
0
 62
     0
100
AcDbLine
 10
-40.39402495983168
 20
-277.5841558740942
 30
0.0
 11
-40.09492676238404
 21
-277.2850576766466
 31
0.0
  0
LINE
  5
2C1D
330
2BD8
100
AcDbEntity
  8
0
 62
     0
100
AcDbLine
 10
-41.3394972898748
 20
-278.3970456826649
 30
0.0
 11
-41.23735335548558
 21
-278.2949017482756
 31
0.0
  0
LINE
  5
2C1E
330
2BD8
100
AcDbEntity
  8
0
 62
     0
100
AcDbLine
 10
-40.13967868681899
 20
-277.197227079609
 30
0.0
 11
-40.0398900805766
 21
-277.0974384733666
 31
0.0
  0
LINE
  5
2C1F
330
2BD8
100
AcDbEntity
  8
0
 62
     0
100
AcDbLine
 10
-41.23735335548557
 20
-278.2949017482756
 30
0.0
 11
-40.65284002109301
 21
-277.7103884138831
 31
0.0
  0
LINE
  5
2C20
330
2BD8
100
AcDbEntity
  8
0
 62
     0
100
AcDbLine
 10
-40.65284002109302
 20
-277.710388413883
 30
0.0
 11
-40.33209807941335
 21
-277.3896464722034
 31
0.0
  0
LINE
  5
2C21
330
2BD8
100
AcDbEntity
  8
0
 62
     0
100
AcDbLine
 10
-41.38424921430973
 20
-278.3092150856273
 30
0.0
 11
-41.28210527992051
 21
-278.2070711512381
 31
0.0
  0
LINE
  5
2C22
330
2BD8
100
AcDbEntity
  8
0
 62
     0
100
AcDbLine
 10
-40.18443061125393
 20
-277.1093964825715
 30
0.0
 11
-40.08464200501151
 21
-277.0096078763291
 31
0.0
  0
LINE
  5
2C23
330
2BD8
100
AcDbEntity
  8
0
 62
     0
100
AcDbLine
 10
-41.2821052799205
 20
-278.2070711512381
 30
0.0
 11
-40.91165508235433
 21
-277.8366209536719
 31
0.0
  0
LINE
  5
2C24
330
2BD8
100
AcDbEntity
  8
0
 62
     0
100
AcDbLine
 10
-40.91165508235427
 20
-277.8366209536719
 30
0.0
 11
-40.60241286197611
 21
-277.5273787332937
 31
0.0
  0
LINE
  5
2C25
330
2BD8
100
AcDbEntity
  8
0
 62
     0
100
AcDbLine
 10
-41.42900113874467
 20
-278.2213844885897
 30
0.0
 11
-41.32685720435543
 21
-278.1192405542005
 31
0.0
  0
LINE
  5
2C26
330
2BD8
100
AcDbEntity
  8
0
 62
     0
100
AcDbLine
 10
-40.22918253568884
 20
-277.0215658855339
 30
0.0
 11
-40.12939392944644
 21
-276.9217772792915
 31
0.0
  0
LINE
  5
2C27
330
2BD8
100
AcDbEntity
  8
0
 62
     0
100
AcDbLine
 10
-41.32685720435541
 20
-278.1192405542005
 30
0.0
 11
-40.99595323982196
 21
-277.788336589667
 31
0.0
  0
LINE
  5
2C28
330
2BD8
100
AcDbEntity
  8
0
 62
     0
100
AcDbLine
 10
-40.87272764453877
 20
-277.6651109943838
 30
0.0
 11
-40.69486269815346
 21
-277.4872460479985
 31
0.0
  0
LINE
  5
2C29
330
2BD8
100
AcDbEntity
  8
0
 62
     0
100
AcDbLine
 10
-40.99595323982194
 20
-277.788336589667
 30
0.0
 11
-40.87272764453897
 21
-277.665110994384
 31
0.0
  0
LINE
  5
2C2A
330
2BD8
100
AcDbEntity
  8
0
 62
     0
100
AcDbLine
 10
-41.47375306317957
 20
-278.1335538915521
 30
0.0
 11
-41.37160912879036
 21
-278.031409957163
 31
0.0
  0
LINE
  5
2C2B
330
2BD8
100
AcDbEntity
  8
0
 62
     0
100
AcDbLine
 10
-40.27393446012377
 20
-276.9337352884964
 30
0.0
 11
-40.17414585388136
 21
-276.833946682254
 31
0.0
  0
LINE
  5
2C2C
330
2BD8
100
AcDbEntity
  8
0
 62
     0
100
AcDbLine
 10
-41.37160912879035
 20
-278.0314099571629
 30
0.0
 11
-40.73961462258838
 21
-277.399415450961
 31
0.0
  0
LINE
  5
2C2D
330
2BD8
100
AcDbEntity
  8
0
 62
     0
100
AcDbLine
 10
-41.51850498761451
 20
-278.0457232945146
 30
0.0
 11
-41.41636105322528
 21
-277.9435793601255
 31
0.0
  0
LINE
  5
2C2E
330
2BD8
100
AcDbEntity
  8
0
 62
     0
100
AcDbLine
 10
-40.3186863845587
 20
-276.8459046914588
 30
0.0
 11
-40.21889777831629
 21
-276.7461160852164
 31
0.0
  0
LINE
  5
2C2F
330
2BD8
100
AcDbEntity
  8
0
 62
     0
100
AcDbLine
 10
-41.41636105322527
 20
-277.9435793601254
 30
0.0
 11
-40.78436654702331
 21
-277.3115848539234
 31
0.0
  0
LINE
  5
2C30
330
2BD8
100
AcDbEntity
  8
0
 62
     0
100
AcDbLine
 10
-41.56325691204942
 20
-277.9578926974771
 30
0.0
 11
-41.46111297766021
 21
-277.8557487630879
 31
0.0
  0
LINE
  5
2C31
330
2BD8
100
AcDbEntity
  8
0
 62
     0
100
AcDbLine
 10
-40.36343830899361
 20
-276.7580740944213
 30
0.0
 11
-40.2636497027512
 21
-276.6582854881789
 31
0.0
  0
LINE
  5
2C32
330
2BD8
100
AcDbEntity
  8
0
 62
     0
100
AcDbLine
 10
-41.4611129776602
 20
-277.8557487630878
 30
0.0
 11
-40.82911847145823
 21
-277.2237542568859
 31
0.0
  0
LINE
  5
2C33
330
2BD8
100
AcDbEntity
  8
0
 62
     0
100
AcDbLine
 10
-41.60800883648435
 20
-277.8700621004395
 30
0.0
 11
-41.50586490209513
 21
-277.7679181660503
 31
0.0
  0
LINE
  5
2C34
330
2BD8
100
AcDbEntity
  8
0
 62
     0
100
AcDbLine
 10
-40.40819023342854
 20
-276.6702434973837
 30
0.0
 11
-40.30840162718615
 21
-276.5704548911414
 31
0.0
  0
LINE
  5
2C35
330
2BD8
100
AcDbEntity
  8
0
 62
     0
100
AcDbLine
 10
-41.50586490209512
 20
-277.7679181660503
 30
0.0
 11
-40.87387039589315
 21
-277.1359236598483
 31
0.0
  0
LINE
  5
2C36
330
2BD8
100
AcDbEntity
  8
0
 62
     0
100
AcDbLine
 10
-41.65276076091928
 20
-277.782231503402
 30
0.0
 11
-41.55061682653006
 21
-277.6800875690128
 31
0.0
  0
LINE
  5
2C37
330
2BD8
100
AcDbEntity
  8
0
 62
     0
100
AcDbLine
 10
-40.45294215786347
 20
-276.5824129003462
 30
0.0
 11
-40.35315355162107
 21
-276.4826242941037
 31
0.0
  0
LINE
  5
2C38
330
2BD8
100
AcDbEntity
  8
0
 62
     0
100
AcDbLine
 10
-41.55061682653004
 20
-277.6800875690128
 30
0.0
 11
-40.91862232032808
 21
-277.0480930628108
 31
0.0
  0
LINE
  5
2C39
330
2BD8
100
AcDbEntity
  8
0
 62
     0
100
AcDbLine
 10
-41.6975126853542
 20
-277.6944009063644
 30
0.0
 11
-41.59536875096497
 21
-277.5922569719752
 31
0.0
  0
LINE
  5
2C3A
330
2BD8
100
AcDbEntity
  8
0
 62
     0
100
AcDbLine
 10
-40.49769408229838
 20
-276.4945823033086
 30
0.0
 11
-40.39790547605599
 21
-276.3947936970662
 31
0.0
  0
LINE
  5
2C3B
330
2BD8
100
AcDbEntity
  8
0
 62
     0
100
AcDbLine
 10
-41.59536875096496
 20
-277.5922569719751
 30
0.0
 11
-40.963374244763
 21
-276.9602624657732
 31
0.0
  0
LINE
  5
2C3C
330
2BD8
100
AcDbEntity
  8
0
 62
     0
100
AcDbLine
 10
-41.74226460978912
 20
-277.6065703093268
 30
0.0
 11
-41.6401206753999
 21
-277.5044263749377
 31
0.0
  0
LINE
  5
2C3D
330
2BD8
100
AcDbEntity
  8
0
 62
     0
100
AcDbLine
 10
-40.54244600673332
 20
-276.4067517062711
 30
0.0
 11
-40.44265740049091
 21
-276.3069631000287
 31
0.0
  0
LINE
  5
2C3E
330
2BD8
100
AcDbEntity
  8
0
 62
     0
100
AcDbLine
 10
-41.64012067539989
 20
-277.5044263749376
 30
0.0
 11
-41.00812616919793
 21
-276.8724318687357
 31
0.0
  0
LINE
  5
2C3F
330
2BD8
100
AcDbEntity
  8
0
 62
     0
100
AcDbLine
 10
-41.78701653422404
 20
-277.5187397122893
 30
0.0
 11
-41.68487259983481
 21
-277.4165957779001
 31
0.0
  0
LINE
  5
2C40
330
2BD8
100
AcDbEntity
  8
0
 62
     0
100
AcDbLine
 10
-40.58719793116824
 20
-276.3189211092335
 30
0.0
 11
-40.48740932492584
 21
-276.2191325029911
 31
0.0
  0
LINE
  5
2C41
330
2BD8
100
AcDbEntity
  8
0
 62
     0
100
AcDbLine
 10
-41.68487259983482
 20
-277.4165957779001
 30
0.0
 11
-41.05287809363285
 21
-276.7846012716981
 31
0.0
  0
LINE
  5
2C42
330
2BD8
100
AcDbEntity
  8
0
 62
     0
100
AcDbLine
 10
-41.83176845865896
 20
-277.4309091152518
 30
0.0
 11
-41.72962452426975
 21
-277.3287651808626
 31
0.0
  0
LINE
  5
2C43
330
2BD8
100
AcDbEntity
  8
0
 62
     0
100
AcDbLine
 10
-40.63194985560315
 20
-276.2310905121959
 30
0.0
 11
-40.53216124936076
 21
-276.1313019059535
 31
0.0
  0
LINE
  5
2C44
330
2BD8
100
AcDbEntity
  8
0
 62
     0
100
AcDbLine
 10
-41.72962452426975
 20
-277.3287651808625
 30
0.0
 11
-41.09763001806778
 21
-276.6967706746606
 31
0.0
  0
LINE
  5
2C45
330
2BD8
100
AcDbEntity
  8
0
 62
     0
100
AcDbLine
 10
-41.8765203830939
 20
-277.3430785182142
 30
0.0
 11
-41.77437644870467
 21
-277.240934583825
 31
0.0
  0
LINE
  5
2C46
330
2BD8
100
AcDbEntity
  8
0
 62
     0
100
AcDbLine
 10
-40.67670178003808
 20
-276.1432599151584
 30
0.0
 11
-40.57691317379568
 21
-276.043471308916
 31
0.0
  0
LINE
  5
2C47
330
2BD8
100
AcDbEntity
  8
0
 62
     0
100
AcDbLine
 10
-41.77437644870467
 20
-277.240934583825
 30
0.0
 11
-41.1423819425027
 21
-276.608940077623
 31
0.0
  0
LINE
  5
2C48
330
2BD8
100
AcDbEntity
  8
0
 62
     0
100
AcDbLine
 10
-41.92127230752881
 20
-277.2552479211766
 30
0.0
 11
-41.8191283731396
 21
-277.1531039867875
 31
0.0
  0
LINE
  5
2C49
330
2BD8
100
AcDbEntity
  8
0
 62
     0
100
AcDbLine
 10
-40.72145370447301
 20
-276.0554293181209
 30
0.0
 11
-40.6216650982306
 21
-275.9556407118785
 31
0.0
  0
LINE
  5
2C4A
330
2BD8
100
AcDbEntity
  8
0
 62
     0
100
AcDbLine
 10
-41.81912837313959
 20
-277.1531039867874
 30
0.0
 11
-41.18713386693762
 21
-276.5211094805855
 31
0.0
  0
LINE
  5
2C4B
330
2BD8
100
AcDbEntity
  8
0
 62
     0
100
AcDbLine
 10
-41.96602423196374
 20
-277.1674173241391
 30
0.0
 11
-41.86388029757452
 21
-277.0652733897499
 31
0.0
  0
LINE
  5
2C4C
330
2BD8
100
AcDbEntity
  8
0
 62
     0
100
AcDbLine
 10
-35.8061910555824
 20
-271.0075841477578
 30
0.0
 11
-35.70443277119299
 21
-270.9058258633683
 31
0.0
  0
LINE
  5
2C4D
330
2BD8
100
AcDbEntity
  8
0
 62
     0
100
AcDbLine
 10
-41.86388029757451
 20
-277.0652733897498
 30
0.0
 11
-41.23188579137255
 21
-276.4332788835479
 31
0.0
  0
LINE
  5
2C4E
330
2BD8
100
AcDbEntity
  8
0
 62
     0
100
AcDbLine
 10
-40.76620562890794
 20
-275.9675987210833
 30
0.0
 11
-40.66641702266553
 21
-275.8678101148409
 31
0.0
  0
LINE
  5
2C4F
330
2BD8
100
AcDbEntity
  8
0
 62
     0
100
AcDbLine
 10
-42.01077615639866
 20
-277.0795867271015
 30
0.0
 11
-41.90863222200944
 21
-276.9774427927123
 31
0.0
  0
LINE
  5
2C50
330
2BD8
100
AcDbEntity
  8
0
 62
     0
100
AcDbLine
 10
-35.93877357705487
 20
-271.0075841477578
 30
0.0
 11
-35.70443277119299
 21
-270.7732433418959
 31
0.0
  0
LINE
  5
2C51
330
2BD8
100
AcDbEntity
  8
0
 62
     0
100
AcDbLine
 10
-41.90863222200944
 20
-276.9774427927123
 30
0.0
 11
-41.27663771580747
 21
-276.3454482865104
 31
0.0
  0
LINE
  5
2C52
330
2BD8
100
AcDbEntity
  8
0
 62
     0
100
AcDbLine
 10
-40.81095755334286
 20
-275.8797681240458
 30
0.0
 11
-40.71116894710044
 21
-275.7799795178034
 31
0.0
  0
LINE
  5
2C53
330
2BD8
100
AcDbEntity
  8
0
 62
     0
100
AcDbLine
 10
-42.05552808083359
 20
-276.991756130064
 30
0.0
 11
-41.95338414644437
 21
-276.8896121956748
 31
0.0
  0
LINE
  5
2C54
330
2BD8
100
AcDbEntity
  8
0
 62
     0
100
AcDbLine
 10
-36.07135609852736
 20
-271.0075841477578
 30
0.0
 11
-35.70443277119299
 21
-270.6406608204234
 31
0.0
  0
LINE
  5
2C55
330
2BD8
100
AcDbEntity
  8
0
 62
     0
100
AcDbLine
 10
-41.95338414644437
 20
-276.8896121956748
 30
0.0
 11
-41.32138964024239
 21
-276.2576176894728
 31
0.0
  0
LINE
  5
2C56
330
2BD8
100
AcDbEntity
  8
0
 62
     0
100
AcDbLine
 10
-40.85570947777777
 20
-275.7919375270082
 30
0.0
 11
-40.75592087153537
 21
-275.6921489207658
 31
0.0
  0
LINE
  5
2C57
330
2BD8
100
AcDbEntity
  8
0
 62
     0
100
AcDbLine
 10
-42.10028000526851
 20
-276.9039255330264
 30
0.0
 11
-41.99813607087929
 21
-276.8017815986373
 31
0.0
  0
LINE
  5
2C58
330
2BD8
100
AcDbEntity
  8
0
 62
     0
100
AcDbLine
 10
-36.20393861999985
 20
-271.0075841477578
 30
0.0
 11
-35.70443277119299
 21
-270.5080782989509
 31
0.0
  0
LINE
  5
2C59
330
2BD8
100
AcDbEntity
  8
0
 62
     0
100
AcDbLine
 10
-41.99813607087929
 20
-276.8017815986372
 30
0.0
 11
-41.36614156467731
 21
-276.1697870924352
 31
0.0
  0
LINE
  5
2C5A
330
2BD8
100
AcDbEntity
  8
0
 62
     0
100
AcDbLine
 10
-40.90046140221271
 20
-275.7041069299706
 30
0.0
 11
-40.80067279597029
 21
-275.6043183237283
 31
0.0
  0
LINE
  5
2C5B
330
2BD8
100
AcDbEntity
  8
0
 62
     0
100
AcDbLine
 10
-42.14503192970343
 20
-276.8160949359889
 30
0.0
 11
-42.04288799531422
 21
-276.7139510015997
 31
0.0
  0
LINE
  5
2C5C
330
2BD8
100
AcDbEntity
  8
0
 62
     0
100
AcDbLine
 10
-36.33652114147233
 20
-271.0075841477578
 30
0.0
 11
-35.70443277119299
 21
-270.3754957774785
 31
0.0
  0
LINE
  5
2C5D
330
2BD8
100
AcDbEntity
  8
0
 62
     0
100
AcDbLine
 10
-42.04288799531422
 20
-276.7139510015996
 30
0.0
 11
-41.41089348911224
 21
-276.0819564953977
 31
0.0
  0
LINE
  5
2C5E
330
2BD8
100
AcDbEntity
  8
0
 62
     0
100
AcDbLine
 10
-40.94521332664762
 20
-275.6162763329331
 30
0.0
 11
-40.84542472040522
 21
-275.5164877266907
 31
0.0
  0
LINE
  5
2C5F
330
2BD8
100
AcDbEntity
  8
0
 62
     0
100
AcDbLine
 10
-42.18978385413836
 20
-276.7282643389513
 30
0.0
 11
-42.08763991974914
 21
-276.6261204045621
 31
0.0
  0
LINE
  5
2C60
330
2BD8
100
AcDbEntity
  8
0
 62
     0
100
AcDbLine
 10
-36.46910366294478
 20
-271.0075841477578
 30
0.0
 11
-35.70443277119299
 21
-270.242913256006
 31
0.0
  0
LINE
  5
2C61
330
2BD8
100
AcDbEntity
  8
0
 62
     0
100
AcDbLine
 10
-42.08763991974914
 20
-276.6261204045621
 30
0.0
 11
-41.45564541354717
 21
-275.9941258983601
 31
0.0
  0
LINE
  5
2C62
330
2BD8
100
AcDbEntity
  8
0
 62
     0
100
AcDbLine
 10
-40.98996525108254
 20
-275.5284457358955
 30
0.0
 11
-40.89017664484013
 21
-275.4286571296531
 31
0.0
  0
LINE
  5
2C63
330
2BD8
100
AcDbEntity
  8
0
 62
     0
100
AcDbLine
 10
-42.23453577857329
 20
-276.6404337419138
 30
0.0
 11
-42.13239184418406
 21
-276.5382898075245
 31
0.0
  0
LINE
  5
2C64
330
2BD8
100
AcDbEntity
  8
0
 62
     0
100
AcDbLine
 10
-36.60168618441726
 20
-271.0075841477578
 30
0.0
 11
-35.7069169949642
 21
-270.1128149583047
 31
0.0
  0
LINE
  5
2C65
330
2BD8
100
AcDbEntity
  8
0
 62
     0
100
AcDbLine
 10
-42.13239184418408
 20
-276.5382898075245
 30
0.0
 11
-41.50039733798208
 21
-275.9062953013226
 31
0.0
  0
LINE
  5
2C66
330
2BD8
100
AcDbEntity
  8
0
 62
     0
100
AcDbLine
 10
-41.03471717551747
 20
-275.4406151388579
 30
0.0
 11
-40.93492856927506
 21
-275.3408265326156
 31
0.0
  0
LINE
  5
2C67
330
2BD8
100
AcDbEntity
  8
0
 62
     0
100
AcDbLine
 10
-42.2792877030082
 20
-276.5526031448762
 30
0.0
 11
-42.17714376861898
 21
-276.450459210487
 31
0.0
  0
LINE
  5
2C68
330
2BD8
100
AcDbEntity
  8
0
 62
     0
100
AcDbLine
 10
-36.73426870588975
 20
-271.0075841477578
 30
0.0
 11
-35.83949951643669
 21
-270.1128149583047
 31
0.0
  0
LINE
  5
2C69
330
2BD8
100
AcDbEntity
  8
0
 62
     0
100
AcDbLine
 10
-42.17714376861898
 20
-276.450459210487
 30
0.0
 11
-41.54514926241701
 21
-275.818464704285
 31
0.0
  0
LINE
  5
2C6A
330
2BD8
100
AcDbEntity
  8
0
 62
     0
100
AcDbLine
 10
-41.0794690999524
 20
-275.3527845418204
 30
0.0
 11
-40.97968049370998
 21
-275.2529959355781
 31
0.0
  0
LINE
  5
2C6B
330
2BD8
100
AcDbEntity
  8
0
 62
     0
100
AcDbLine
 10
-42.32403962744313
 20
-276.4647725478386
 30
0.0
 11
-42.22189569305391
 21
-276.3626286134495
 31
0.0
  0
LINE
  5
2C6C
330
2BD8
100
AcDbEntity
  8
0
 62
     0
100
AcDbLine
 10
-36.86685122736224
 20
-271.0075841477578
 30
0.0
 11
-35.97208203790917
 21
-270.1128149583047
 31
0.0
  0
LINE
  5
2C6D
330
2BD8
100
AcDbEntity
  8
0
 62
     0
100
AcDbLine
 10
-42.22189569305391
 20
-276.3626286134494
 30
0.0
 11
-41.58990118685194
 21
-275.7306341072474
 31
0.0
  0
LINE
  5
2C6E
330
2BD8
100
AcDbEntity
  8
0
 62
     0
100
AcDbLine
 10
-41.12422102438733
 20
-275.2649539447828
 30
0.0
 11
-41.02443241814492
 21
-275.1651653385405
 31
0.0
  0
LINE
  5
2C6F
330
2BD8
100
AcDbEntity
  8
0
 62
     0
100
AcDbLine
 10
-42.36879155187804
 20
-276.3769419508011
 30
0.0
 11
-42.2684645752521
 21
-276.2766149741751
 31
0.0
  0
LINE
  5
2C70
330
2BD8
100
AcDbEntity
  8
0
 62
     0
100
AcDbLine
 10
-36.99943374883472
 20
-271.0075841477578
 30
0.0
 11
-36.10466455938166
 21
-270.1128149583047
 31
0.0
  0
LINE
  5
2C71
330
2BD8
100
AcDbEntity
  8
0
 62
     0
100
AcDbLine
 10
-42.26664761748884
 20
-276.2747980164119
 30
0.0
 11
-42.19792528481469
 21
-276.2060756837377
 31
0.0
  0
LINE
  5
2C72
330
2BD8
100
AcDbEntity
  8
0
 62
     0
100
AcDbLine
 10
-41.16897294882225
 20
-275.1771233477454
 30
0.0
 11
-41.06918434257984
 21
-275.0773347415029
 31
0.0
  0
LINE
  5
2C73
330
2BD8
100
AcDbEntity
  8
0
 62
     0
100
AcDbLine
 10
-42.1979252848146
 20
-276.2060756837377
 30
0.0
 11
-42.10043854447298
 21
-276.108588943396
 31
0.0
  0
LINE
  5
2C74
330
2BD8
100
AcDbEntity
  8
0
 62
     0
100
AcDbLine
 10
-41.99598251496389
 20
-276.004132913887
 30
0.0
 11
-41.63465311128686
 21
-275.6428035102099
 31
0.0
  0
LINE
  5
2C75
330
2BD8
100
AcDbEntity
  8
0
 62
     0
100
AcDbLine
 10
-42.10043854447292
 20
-276.1085889433959
 30
0.0
 11
-42.09566753742882
 21
-276.1038179363519
 31
0.0
  0
LINE
  5
2C76
330
2BD8
100
AcDbEntity
  8
0
 62
     0
100
AcDbLine
 10
-42.09566753742871
 20
-276.1038179363518
 30
0.0
 11
-41.99598251496389
 21
-276.004132913887
 31
0.0
  0
LINE
  5
2C77
330
2BD8
100
AcDbEntity
  8
0
 62
     0
100
AcDbLine
 10
-42.41354347631298
 20
-276.2891113537635
 30
0.0
 11
-42.31321649968703
 21
-276.1887843771376
 31
0.0
  0
LINE
  5
2C78
330
2BD8
100
AcDbEntity
  8
0
 62
     0
100
AcDbLine
 10
-37.13201627030717
 20
-271.0075841477578
 30
0.0
 11
-36.23724708085414
 21
-270.1128149583047
 31
0.0
  0
LINE
  5
2C79
330
2BD8
100
AcDbEntity
  8
0
 62
     0
100
AcDbLine
 10
-42.31139954192374
 20
-276.1869674193743
 30
0.0
 11
-42.1892754338011
 21
-276.0648433112517
 31
0.0
  0
LINE
  5
2C7A
330
2BD8
100
AcDbEntity
  8
0
 62
     0
100
AcDbLine
 10
-41.21372487325716
 20
-275.0892927507078
 30
0.0
 11
-41.11393626701477
 21
-274.9895041444653
 31
0.0
  0
LINE
  5
2C7B
330
2BD8
100
AcDbEntity
  8
0
 62
     0
100
AcDbLine
 10
-42.18927543380108
 20
-276.0648433112517
 30
0.0
 11
-42.14458912338753
 21
-276.0201570008381
 31
0.0
  0
LINE
  5
2C7C
330
2BD8
100
AcDbEntity
  8
0
 62
     0
100
AcDbLine
 10
-41.96714156490001
 20
-275.8427094423506
 30
0.0
 11
-41.67940503572178
 21
-275.5549729131724
 31
0.0
  0
LINE
  5
2C7D
330
2BD8
100
AcDbEntity
  8
0
 62
     0
100
AcDbLine
 10
-42.11450619999326
 20
-275.9900740774438
 30
0.0
 11
-41.96714156489998
 21
-275.8427094423506
 31
0.0
  0
LINE
  5
2C7E
330
2BD8
100
AcDbEntity
  8
0
 62
     0
100
AcDbLine
 10
-42.4582954007479
 20
-276.201280756726
 30
0.0
 11
-42.35796842412195
 21
-276.1009537801001
 31
0.0
  0
LINE
  5
2C7F
330
2BD8
100
AcDbEntity
  8
0
 62
     0
100
AcDbLine
 10
-37.26459879177965
 20
-271.0075841477578
 30
0.0
 11
-36.36982960232659
 21
-270.1128149583047
 31
0.0
  0
LINE
  5
2C80
330
2BD8
100
AcDbEntity
  8
0
 62
     0
100
AcDbLine
 10
-42.35615146635868
 20
-276.0991368223368
 30
0.0
 11
-42.27628628029851
 21
-276.0192716362766
 31
0.0
  0
LINE
  5
2C81
330
2BD8
100
AcDbEntity
  8
0
 62
     0
100
AcDbLine
 10
-41.2584767976921
 20
-275.0014621536702
 30
0.0
 11
-41.15868819144969
 21
-274.9016735474278
 31
0.0
  0
LINE
  5
2C82
330
2BD8
100
AcDbEntity
  8
0
 62
     0
100
AcDbLine
 10
-42.27628628029848
 20
-276.0192716362765
 30
0.0
 11
-41.83861559237119
 21
-275.5816009483493
 31
0.0
  0
LINE
  5
2C83
330
2BD8
100
AcDbEntity
  8
0
 62
     0
100
AcDbLine
 10
-41.83861559237118
 20
-275.5816009483492
 30
0.0
 11
-41.72415696015671
 21
-275.4671423161348
 31
0.0
  0
LINE
  5
2C84
330
2BD8
100
AcDbEntity
  8
0
 62
     0
100
AcDbLine
 10
-42.50304732518282
 20
-276.1134501596885
 30
0.0
 11
-42.40272034855689
 21
-276.0131231830625
 31
0.0
  0
LINE
  5
2C85
330
2BD8
100
AcDbEntity
  8
0
 62
     0
100
AcDbLine
 10
-37.39718131325214
 20
-271.0075841477578
 30
0.0
 11
-36.50241212379908
 21
-270.1128149583047
 31
0.0
  0
LINE
  5
2C86
330
2BD8
100
AcDbEntity
  8
0
 62
     0
100
AcDbLine
 10
-42.4009033907936
 20
-276.0113062252992
 30
0.0
 11
-42.19714334742477
 21
-275.8075461819304
 31
0.0
  0
LINE
  5
2C87
330
2BD8
100
AcDbEntity
  8
0
 62
     0
100
AcDbLine
 10
-41.30322872212701
 20
-274.9136315566326
 30
0.0
 11
-41.20344011588461
 21
-274.8138429503903
 31
0.0
  0
LINE
  5
2C88
330
2BD8
100
AcDbEntity
  8
0
 62
     0
100
AcDbLine
 10
-42.19714334742469
 20
-275.8075461819303
 30
0.0
 11
-42.14776030776967
 21
-275.7581631422754
 31
0.0
  0
LINE
  5
2C89
330
2BD8
100
AcDbEntity
  8
0
 62
     0
100
AcDbLine
 10
-42.14776030776969
 20
-275.7581631422754
 30
0.0
 11
-41.71008961984234
 21
-275.320492454348
 31
0.0
  0
LINE
  5
2C8A
330
2BD8
100
AcDbEntity
  8
0
 62
     0
100
AcDbLine
 10
-42.54779924961775
 20
-276.0256195626509
 30
0.0
 11
-42.44747227299181
 21
-275.925292586025
 31
0.0
  0
LINE
  5
2C8B
330
2BD8
100
AcDbEntity
  8
0
 62
     0
100
AcDbLine
 10
-37.52976383472462
 20
-271.0075841477578
 30
0.0
 11
-36.63499464527156
 21
-270.1128149583047
 31
0.0
  0
LINE
  5
2C8C
330
2BD8
100
AcDbEntity
  8
0
 62
     0
100
AcDbLine
 10
-42.44565531522854
 20
-275.9234756282617
 30
0.0
 11
-42.01923433524084
 21
-275.497054648274
 31
0.0
  0
LINE
  5
2C8D
330
2BD8
100
AcDbEntity
  8
0
 62
     0
100
AcDbLine
 10
-41.34798064656194
 20
-274.8258009595951
 30
0.0
 11
-41.24819204031953
 21
-274.7260123533527
 31
0.0
  0
LINE
  5
2C8E
330
2BD8
100
AcDbEntity
  8
0
 62
     0
100
AcDbLine
 10
-42.01923433524087
 20
-275.497054648274
 30
0.0
 11
-41.58156364731355
 21
-275.0593839603467
 31
0.0
  0
LINE
  5
2C8F
330
2BD8
100
AcDbEntity
  8
0
 62
     0
100
AcDbLine
 10
-42.59255117405266
 20
-275.9377889656133
 30
0.0
 11
-42.49040723966347
 21
-275.8356450312241
 31
0.0
  0
LINE
  5
2C90
330
2BD8
100
AcDbEntity
  8
0
 62
     0
100
AcDbLine
 10
-37.6623463561971
 20
-271.0075841477578
 30
0.0
 11
-36.76757716674404
 21
-270.1128149583047
 31
0.0
  0
LINE
  5
2C91
330
2BD8
100
AcDbEntity
  8
0
 62
     0
100
AcDbLine
 10
-42.49040723966347
 20
-275.8356450312241
 30
0.0
 11
-41.89070836271205
 21
-275.2359461542728
 31
0.0
  0
LINE
  5
2C92
330
2BD8
100
AcDbEntity
  8
0
 62
     0
100
AcDbLine
 10
-41.39273257099687
 20
-274.7379703625575
 30
0.0
 11
-41.29294396475446
 21
-274.6381817563151
 31
0.0
  0
LINE
  5
2C93
330
2BD8
100
AcDbEntity
  8
0
 62
     0
100
AcDbLine
 10
-41.89070836271203
 20
-275.2359461542727
 30
0.0
 11
-41.45303767478471
 21
-274.7982754663454
 31
0.0
  0
LINE
  5
2C94
330
2BD8
100
AcDbEntity
  8
0
 62
     0
100
AcDbLine
 10
-42.63730309848759
 20
-275.8499583685758
 30
0.0
 11
-42.53515916409838
 21
-275.7478144341866
 31
0.0
  0
LINE
  5
2C95
330
2BD8
100
AcDbEntity
  8
0
 62
     0
100
AcDbLine
 10
-37.79492887766956
 20
-271.0075841477578
 30
0.0
 11
-36.90015968821653
 21
-270.1128149583047
 31
0.0
  0
LINE
  5
2C96
330
2BD8
100
AcDbEntity
  8
0
 62
     0
100
AcDbLine
 10
-42.53515916409839
 20
-275.7478144341866
 30
0.0
 11
-41.90316465789641
 21
-275.1158199279846
 31
0.0
  0
LINE
  5
2C97
330
2BD8
100
AcDbEntity
  8
0
 62
     0
100
AcDbLine
 10
-41.76218239018321
 20
-274.9748376602715
 30
0.0
 11
-41.32451170225591
 21
-274.5371669723441
 31
0.0
  0
LINE
  5
2C98
330
2BD8
100
AcDbEntity
  8
0
 62
     0
100
AcDbLine
 10
-42.68205502292253
 20
-275.7621277715383
 30
0.0
 11
-42.57991108853331
 21
-275.6599838371491
 31
0.0
  0
LINE
  5
2C99
330
2BD8
100
AcDbEntity
  8
0
 62
     0
100
AcDbLine
 10
-37.92751139914204
 20
-271.0075841477578
 30
0.0
 11
-37.03274220968898
 21
-270.1128149583047
 31
0.0
  0
LINE
  5
2C9A
330
2BD8
100
AcDbEntity
  8
0
 62
     0
100
AcDbLine
 10
-42.57991108853332
 20
-275.659983837149
 30
0.0
 11
-41.94791658233133
 21
-275.027989330947
 31
0.0
  0
LINE
  5
2C9B
330
2BD8
100
AcDbEntity
  8
0
 62
     0
100
AcDbLine
 10
-41.63365641765442
 20
-274.7137291662701
 30
0.0
 11
-41.19598572972707
 21
-274.2760584783428
 31
0.0
  0
LINE
  5
2C9C
330
2BD8
100
AcDbEntity
  8
0
 62
     0
100
AcDbLine
 10
-42.72680694735743
 20
-275.6742971745007
 30
0.0
 11
-42.62466301296824
 21
-275.5721532401115
 31
0.0
  0
LINE
  5
2C9D
330
2BD8
100
AcDbEntity
  8
0
 62
     0
100
AcDbLine
 10
-38.06009392061452
 20
-271.0075841477578
 30
0.0
 11
-37.16532473116146
 21
-270.1128149583047
 31
0.0
  0
LINE
  5
2C9E
330
2BD8
100
AcDbEntity
  8
0
 62
     0
100
AcDbLine
 10
-42.62466301296824
 20
-275.5721532401115
 30
0.0
 11
-41.99266850676624
 21
-274.9401587339095
 31
0.0
  0
LINE
  5
2C9F
330
2BD8
100
AcDbEntity
  8
0
 62
     0
100
AcDbLine
 10
-41.24320808781802
 20
-274.1906983149613
 30
0.0
 11
-41.16028905131896
 21
-274.1077792784622
 31
0.0
  0
LINE
  5
2CA0
330
2BD8
100
AcDbEntity
  8
0
 62
     0
100
AcDbLine
 10
-41.52698834430164
 20
-274.4744785714449
 30
0.0
 11
-41.50513044512558
 21
-274.4526206722688
 31
0.0
  0
LINE
  5
2CA1
330
2BD8
100
AcDbEntity
  8
0
 62
     0
100
AcDbLine
 10
-41.2918472873847
 20
-274.2393375145279
 30
0.0
 11
-41.26594175883485
 21
-274.2134319859781
 31
0.0
  0
LINE
  5
2CA2
330
2BD8
100
AcDbEntity
  8
0
 62
     0
100
AcDbLine
 10
-41.50513044512556
 20
-274.4526206722688
 30
0.0
 11
-41.29184728738475
 21
-274.239337514528
 31
0.0
  0
LINE
  5
2CA3
330
2BD8
100
AcDbEntity
  8
0
 62
     0
100
AcDbLine
 10
-42.77155887179236
 20
-275.5864665774631
 30
0.0
 11
-42.66941493740316
 21
-275.484322643074
 31
0.0
  0
LINE
  5
2CA4
330
2BD8
100
AcDbEntity
  8
0
 62
     0
100
AcDbLine
 10
-38.192676442087
 20
-271.0075841477578
 30
0.0
 11
-37.29790725263395
 21
-270.1128149583047
 31
0.0
  0
LINE
  5
2CA5
330
2BD8
100
AcDbEntity
  8
0
 62
     0
100
AcDbLine
 10
-42.66941493740316
 20
-275.484322643074
 30
0.0
 11
-42.03742043120118
 21
-274.8523281368719
 31
0.0
  0
LINE
  5
2CA6
330
2BD8
100
AcDbEntity
  8
0
 62
     0
100
AcDbLine
 10
-41.39132135807054
 20
-274.2062290637413
 30
0.0
 11
-41.15044255176923
 21
-273.96535025744
 31
0.0
  0
LINE
  5
2CA7
330
2BD8
100
AcDbEntity
  8
0
 62
     0
100
AcDbLine
 10
-41.57174026873658
 20
-274.3866479744074
 30
0.0
 11
-41.47195166249413
 21
-274.2868593681649
 31
0.0
  0
LINE
  5
2CA8
330
2BD8
100
AcDbEntity
  8
0
 62
     0
100
AcDbLine
 10
-42.81631079622728
 20
-275.4986359804255
 30
0.0
 11
-42.71416686183809
 21
-275.3964920460364
 31
0.0
  0
LINE
  5
2CA9
330
2BD8
100
AcDbEntity
  8
0
 62
     0
100
AcDbLine
 10
-38.32525896355949
 20
-271.0075841477578
 30
0.0
 11
-37.43048977410643
 21
-270.1128149583047
 31
0.0
  0
LINE
  5
2CAA
330
2BD8
100
AcDbEntity
  8
0
 62
     0
100
AcDbLine
 10
-42.71416686183809
 20
-275.3964920460364
 30
0.0
 11
-42.0821723556361
 21
-274.7644975398344
 31
0.0
  0
LINE
  5
2CAB
330
2BD8
100
AcDbEntity
  8
0
 62
     0
100
AcDbLine
 10
-41.3814748585208
 20
-274.0638000427191
 30
0.0
 11
-41.1405960522195
 21
-273.8229212364178
 31
0.0
  0
LINE
  5
2CAC
330
2BD8
100
AcDbEntity
  8
0
 62
     0
100
AcDbLine
 10
-41.6164921931715
 20
-274.2988173773698
 30
0.0
 11
-41.51670358692905
 21
-274.1990287711273
 31
0.0
  0
LINE
  5
2CAD
330
2BD8
100
AcDbEntity
  8
0
 62
     0
100
AcDbLine
 10
-42.86106272066221
 20
-275.410805383388
 30
0.0
 11
-42.75891878627302
 21
-275.3086614489988
 31
0.0
  0
LINE
  5
2CAE
330
2BD8
100
AcDbEntity
  8
0
 62
     0
100
AcDbLine
 10
-38.45784148503194
 20
-271.0075841477578
 30
0.0
 11
-37.56307229557891
 21
-270.1128149583047
 31
0.0
  0
LINE
  5
2CAF
330
2BD8
100
AcDbEntity
  8
0
 62
     0
100
AcDbLine
 10
-42.75891878627301
 20
-275.3086614489988
 30
0.0
 11
-42.12692428007102
 21
-274.6766669427968
 31
0.0
  0
LINE
  5
2CB0
330
2BD8
100
AcDbEntity
  8
0
 62
     0
100
AcDbLine
 10
-41.37162835897107
 20
-273.9213710216969
 30
0.0
 11
-41.13074955266977
 21
-273.6804922153956
 31
0.0
  0
LINE
  5
2CB1
330
2BD8
100
AcDbEntity
  8
0
 62
     0
100
AcDbLine
 10
-41.66124411760642
 20
-274.2109867803322
 30
0.0
 11
-41.56145551136398
 21
-274.1111981740898
 31
0.0
  0
LINE
  5
2CB2
330
2BD8
100
AcDbEntity
  8
0
 62
     0
100
AcDbLine
 10
-42.90581464509713
 20
-275.3229747863504
 30
0.0
 11
-42.80367071070794
 21
-275.2208308519613
 31
0.0
  0
LINE
  5
2CB3
330
2BD8
100
AcDbEntity
  8
0
 62
     0
100
AcDbLine
 10
-38.59042400650442
 20
-271.0075841477578
 30
0.0
 11
-37.69565481705136
 21
-270.1128149583047
 31
0.0
  0
LINE
  5
2CB4
330
2BD8
100
AcDbEntity
  8
0
 62
     0
100
AcDbLine
 10
-42.80367071070794
 20
-275.2208308519613
 30
0.0
 11
-42.17167620450595
 21
-274.5888363457593
 31
0.0
  0
LINE
  5
2CB5
330
2BD8
100
AcDbEntity
  8
0
 62
     0
100
AcDbLine
 10
-41.36178185942134
 20
-273.7789420006746
 30
0.0
 11
-41.12090305312004
 21
-273.5380631943733
 31
0.0
  0
LINE
  5
2CB6
330
2BD8
100
AcDbEntity
  8
0
 62
     0
100
AcDbLine
 10
-41.70599604204134
 20
-274.1231561832947
 30
0.0
 11
-41.60620743579889
 21
-274.0233675770522
 31
0.0
  0
LINE
  5
2CB7
330
2BD8
100
AcDbEntity
  8
0
 62
     0
100
AcDbLine
 10
-42.95056656953206
 20
-275.2351441893129
 30
0.0
 11
-42.84842263514287
 21
-275.1330002549237
 31
0.0
  0
LINE
  5
2CB8
330
2BD8
100
AcDbEntity
  8
0
 62
     0
100
AcDbLine
 10
-38.72300652797691
 20
-271.0075841477578
 30
0.0
 11
-37.82823733852385
 21
-270.1128149583047
 31
0.0
  0
LINE
  5
2CB9
330
2BD8
100
AcDbEntity
  8
0
 62
     0
100
AcDbLine
 10
-42.84842263514287
 20
-275.1330002549237
 30
0.0
 11
-42.21642812894087
 21
-274.5010057487217
 31
0.0
  0
LINE
  5
2CBA
330
2BD8
100
AcDbEntity
  8
0
 62
     0
100
AcDbLine
 10
-41.35193535987162
 20
-273.6365129796524
 30
0.0
 11
-41.11105655357031
 21
-273.3956341733511
 31
0.0
  0
LINE
  5
2CBB
330
2BD8
100
AcDbEntity
  8
0
 62
     0
100
AcDbLine
 10
-41.75074796647627
 20
-274.0353255862571
 30
0.0
 11
-41.65095936023383
 21
-273.9355369800147
 31
0.0
  0
LINE
  5
2CBC
330
2BD8
100
AcDbEntity
  8
0
 62
     0
100
AcDbLine
 10
-42.99531849396698
 20
-275.1473135922753
 30
0.0
 11
-42.89317455957778
 21
-275.0451696578862
 31
0.0
  0
LINE
  5
2CBD
330
2BD8
100
AcDbEntity
  8
0
 62
     0
100
AcDbLine
 10
-38.85558904944939
 20
-271.0075841477578
 30
0.0
 11
-37.96081985999633
 21
-270.1128149583047
 31
0.0
  0
LINE
  5
2CBE
330
2BD8
100
AcDbEntity
  8
0
 62
     0
100
AcDbLine
 10
-42.89317455957778
 20
-275.0451696578862
 30
0.0
 11
-42.2611800533758
 21
-274.4131751516842
 31
0.0
  0
LINE
  5
2CBF
330
2BD8
100
AcDbEntity
  8
0
 62
     0
100
AcDbLine
 10
-41.34208886032189
 20
-273.4940839586302
 30
0.0
 11
-41.10121005402058
 21
-273.2532051523289
 31
0.0
  0
LINE
  5
2CC0
330
2BD8
100
AcDbEntity
  8
0
 62
     0
100
AcDbLine
 10
-41.79549989091119
 20
-273.9474949892195
 30
0.0
 11
-41.69571128466874
 21
-273.8477063829771
 31
0.0
  0
LINE
  5
2CC1
330
2BD8
100
AcDbEntity
  8
0
 62
     0
100
AcDbLine
 10
-43.0400704184019
 20
-275.0594829952378
 30
0.0
 11
-42.93792648401271
 21
-274.9573390608487
 31
0.0
  0
LINE
  5
2CC2
330
2BD8
100
AcDbEntity
  8
0
 62
     0
100
AcDbLine
 10
-38.98817157092188
 20
-271.0075841477578
 30
0.0
 11
-38.09340238146882
 21
-270.1128149583047
 31
0.0
  0
LINE
  5
2CC3
330
2BD8
100
AcDbEntity
  8
0
 62
     0
100
AcDbLine
 10
-42.93792648401271
 20
-274.9573390608486
 30
0.0
 11
-42.30593197781072
 21
-274.3253445546466
 31
0.0
  0
LINE
  5
2CC4
330
2BD8
100
AcDbEntity
  8
0
 62
     0
100
AcDbLine
 10
-41.33224236077215
 20
-273.351654937608
 30
0.0
 11
-41.09136355447085
 21
-273.1107761313067
 31
0.0
  0
LINE
  5
2CC5
330
2BD8
100
AcDbEntity
  8
0
 62
     0
100
AcDbLine
 10
-41.84025181534611
 20
-273.859664392182
 30
0.0
 11
-41.74046320910367
 21
-273.7598757859395
 31
0.0
  0
LINE
  5
2CC6
330
2BD8
100
AcDbEntity
  8
0
 62
     0
100
AcDbLine
 10
-43.08482234283682
 20
-274.9716523982002
 30
0.0
 11
-42.98267840844763
 21
-274.8695084638111
 31
0.0
  0
LINE
  5
2CC7
330
2BD8
100
AcDbEntity
  8
0
 62
     0
100
AcDbLine
 10
-39.12075409239436
 20
-271.0075841477578
 30
0.0
 11
-38.2259849029413
 21
-270.1128149583047
 31
0.0
  0
LINE
  5
2CC8
330
2BD8
100
AcDbEntity
  8
0
 62
     0
100
AcDbLine
 10
-42.98267840844764
 20
-274.8695084638111
 30
0.0
 11
-42.35068390224564
 21
-274.2375139576091
 31
0.0
  0
LINE
  5
2CC9
330
2BD8
100
AcDbEntity
  8
0
 62
     0
100
AcDbLine
 10
-41.08151705492112
 20
-272.9683471102845
 30
0.0
 11
-40.96181643366968
 21
-272.848646489033
 31
0.0
  0
LINE
  5
2CCA
330
2BD8
100
AcDbEntity
  8
0
 62
     0
100
AcDbLine
 10
-41.88500373978103
 20
-273.7718337951445
 30
0.0
 11
-41.78521513353859
 21
-273.672045188902
 31
0.0
  0
LINE
  5
2CCB
330
2BD8
100
AcDbEntity
  8
0
 62
     0
100
AcDbLine
 10
-41.32239586122242
 20
-273.2092259165858
 30
0.0
 11
-41.08151705492112
 21
-272.9683471102845
 31
0.0
  0
LINE
  5
2CCC
330
2BD8
100
AcDbEntity
  8
0
 62
     0
100
AcDbLine
 10
-43.12957426727176
 20
-274.8838218011627
 30
0.0
 11
-43.02743033288257
 21
-274.7816778667736
 31
0.0
  0
LINE
  5
2CCD
330
2BD8
100
AcDbEntity
  8
0
 62
     0
100
AcDbLine
 10
-39.25333661386681
 20
-271.0075841477578
 30
0.0
 11
-38.35856742441375
 21
-270.1128149583047
 31
0.0
  0
LINE
  5
2CCE
330
2BD8
100
AcDbEntity
  8
0
 62
     0
100
AcDbLine
 10
-43.02743033288256
 20
-274.7816778667735
 30
0.0
 11
-42.39543582668058
 21
-274.1496833605715
 31
0.0
  0
LINE
  5
2CCF
330
2BD8
100
AcDbEntity
  8
0
 62
     0
100
AcDbLine
 10
-41.07167055537138
 20
-272.8259180892623
 30
0.0
 11
-40.79761027123158
 21
-272.5518578051226
 31
0.0
  0
LINE
  5
2CD0
330
2BD8
100
AcDbEntity
  8
0
 62
     0
100
AcDbLine
 10
-41.92975566421597
 20
-273.6840031981069
 30
0.0
 11
-41.82996705797352
 21
-273.5842145918645
 31
0.0
  0
LINE
  5
2CD1
330
2BD8
100
AcDbEntity
  8
0
 62
     0
100
AcDbLine
 10
-41.3125493616727
 20
-273.0667968955636
 30
0.0
 11
-41.07167055537138
 21
-272.8259180892623
 31
0.0
  0
LINE
  5
2CD2
330
2BD8
100
AcDbEntity
  8
0
 62
     0
100
AcDbLine
 10
-43.17432619170667
 20
-274.7959912041251
 30
0.0
 11
-43.07218225731747
 21
-274.693847269736
 31
0.0
  0
LINE
  5
2CD3
330
2BD8
100
AcDbEntity
  8
0
 62
     0
100
AcDbLine
 10
-39.3859191353393
 20
-271.0075841477578
 30
0.0
 11
-38.49114994588624
 21
-270.1128149583047
 31
0.0
  0
LINE
  5
2CD4
330
2BD8
100
AcDbEntity
  8
0
 62
     0
100
AcDbLine
 10
-43.07218225731748
 20
-274.693847269736
 30
0.0
 11
-42.44018775111549
 21
-274.0618527635339
 31
0.0
  0
LINE
  5
2CD5
330
2BD8
100
AcDbEntity
  8
0
 62
     0
100
AcDbLine
 10
-41.06182405582166
 20
-272.6834890682401
 30
0.0
 11
-40.63340410879347
 21
-272.2550691212119
 31
0.0
  0
LINE
  5
2CD6
330
2BD8
100
AcDbEntity
  8
0
 62
     0
100
AcDbLine
 10
-41.97450758865088
 20
-273.5961726010693
 30
0.0
 11
-41.87471898240843
 21
-273.4963839948269
 31
0.0
  0
LINE
  5
2CD7
330
2BD8
100
AcDbEntity
  8
0
 62
     0
100
AcDbLine
 10
-41.30270286212296
 20
-272.9243678745414
 30
0.0
 11
-41.06182405582166
 21
-272.6834890682401
 31
0.0
  0
LINE
  5
2CD8
330
2BD8
100
AcDbEntity
  8
0
 62
     0
100
AcDbLine
 10
-43.2190781161416
 20
-274.7081606070876
 30
0.0
 11
-43.11693418175241
 21
-274.6060166726984
 31
0.0
  0
LINE
  5
2CD9
330
2BD8
100
AcDbEntity
  8
0
 62
     0
100
AcDbLine
 10
-39.51850165681178
 20
-271.0075841477578
 30
0.0
 11
-38.62373246735872
 21
-270.1128149583047
 31
0.0
  0
LINE
  5
2CDA
330
2BD8
100
AcDbEntity
  8
0
 62
     0
100
AcDbLine
 10
-43.11693418175241
 20
-274.6060166726984
 30
0.0
 11
-42.48493967555043
 21
-273.9740221664964
 31
0.0
  0
LINE
  5
2CDB
330
2BD8
100
AcDbEntity
  8
0
 62
     0
100
AcDbLine
 10
-41.04147028864789
 20
-272.5305527795939
 30
0.0
 11
-40.46919794635537
 21
-271.9582804373014
 31
0.0
  0
LINE
  5
2CDC
330
2BD8
100
AcDbEntity
  8
0
 62
     0
100
AcDbLine
 10
-42.0192595130858
 20
-273.5083420040318
 30
0.0
 11
-41.91947090684336
 21
-273.4085533977893
 31
0.0
  0
LINE
  5
2CDD
330
2BD8
100
AcDbEntity
  8
0
 62
     0
100
AcDbLine
 10
-41.29285636257323
 20
-272.7819388535192
 30
0.0
 11
-41.05197755627193
 21
-272.5410600472179
 31
0.0
  0
LINE
  5
2CDE
330
2BD8
100
AcDbEntity
  8
0
 62
     0
100
AcDbLine
 10
-43.26383004057651
 20
-274.62033001005
 30
0.0
 11
-43.16168610618734
 21
-274.5181860756609
 31
0.0
  0
LINE
  5
2CDF
330
2BD8
100
AcDbEntity
  8
0
 62
     0
100
AcDbLine
 10
-39.65108417828427
 20
-271.0075841477578
 30
0.0
 11
-38.7563149888312
 21
-270.1128149583047
 31
0.0
  0
LINE
  5
2CE0
330
2BD8
100
AcDbEntity
  8
0
 62
     0
100
AcDbLine
 10
-43.16168610618732
 20
-274.5181860756608
 30
0.0
 11
-42.52969159998534
 21
-273.8861915694589
 31
0.0
  0
LINE
  5
2CE1
330
2BD8
100
AcDbEntity
  8
0
 62
     0
100
AcDbLine
 10
-40.87726412620977
 20
-272.2337640956832
 30
0.0
 11
-40.30499178391731
 21
-271.6614917533908
 31
0.0
  0
LINE
  5
2CE2
330
2BD8
100
AcDbEntity
  8
0
 62
     0
100
AcDbLine
 10
-42.06401143752072
 20
-273.4205114069942
 30
0.0
 11
-41.96422283127828
 21
-273.3207228007517
 31
0.0
  0
LINE
  5
2CE3
330
2BD8
100
AcDbEntity
  8
0
 62
     0
100
AcDbLine
 10
-41.2830098630235
 20
-272.639509832497
 30
0.0
 11
-41.04213105672219
 21
-272.3986310261957
 31
0.0
  0
LINE
  5
2CE4
330
2BD8
100
AcDbEntity
  8
0
 62
     0
100
AcDbLine
 10
-43.30858196501145
 20
-274.5324994130124
 30
0.0
 11
-43.20643803062226
 21
-274.4303554786233
 31
0.0
  0
LINE
  5
2CE5
330
2BD8
100
AcDbEntity
  8
0
 62
     0
100
AcDbLine
 10
-39.78366669975674
 20
-271.0075841477578
 30
0.0
 11
-38.88889751030369
 21
-270.1128149583047
 31
0.0
  0
LINE
  5
2CE6
330
2BD8
100
AcDbEntity
  8
0
 62
     0
100
AcDbLine
 10
-43.20643803062226
 20
-274.4303554786232
 30
0.0
 11
-42.57444352442026
 21
-273.7983609724213
 31
0.0
  0
LINE
  5
2CE7
330
2BD8
100
AcDbEntity
  8
0
 62
     0
100
AcDbLine
 10
-40.71305796377171
 20
-271.9369754117727
 30
0.0
 11
-40.14078562147921
 21
-271.3647030694802
 31
0.0
  0
LINE
  5
2CE8
330
2BD8
100
AcDbEntity
  8
0
 62
     0
100
AcDbLine
 10
-42.10876336195565
 20
-273.3326808099567
 30
0.0
 11
-42.00897475571321
 21
-273.2328922037142
 31
0.0
  0
LINE
  5
2CE9
330
2BD8
100
AcDbEntity
  8
0
 62
     0
100
AcDbLine
 10
-41.27316336347377
 20
-272.4970808114748
 30
0.0
 11
-41.03228455717245
 21
-272.2562020051735
 31
0.0
  0
LINE
  5
2CEA
330
2BD8
100
AcDbEntity
  8
0
 62
     0
100
AcDbLine
 10
-43.35333388944637
 20
-274.4446688159749
 30
0.0
 11
-43.25118995505717
 21
-274.3425248815857
 31
0.0
  0
LINE
  5
2CEB
330
2BD8
100
AcDbEntity
  8
0
 62
     0
100
AcDbLine
 10
-39.9162492212292
 20
-271.0075841477578
 30
0.0
 11
-39.02148003177617
 21
-270.1128149583047
 31
0.0
  0
LINE
  5
2CEC
330
2BD8
100
AcDbEntity
  8
0
 62
     0
100
AcDbLine
 10
-43.25118995505718
 20
-274.3425248815857
 30
0.0
 11
-42.61919544885519
 21
-273.7105303753837
 31
0.0
  0
LINE
  5
2CED
330
2BD8
100
AcDbEntity
  8
0
 62
     0
100
AcDbLine
 10
-40.5488518013336
 20
-271.6401867278622
 30
0.0
 11
-39.97657945904111
 21
-271.0679143855696
 31
0.0
  0
LINE
  5
2CEE
330
2BD8
100
AcDbEntity
  8
0
 62
     0
100
AcDbLine
 10
-42.15351528639057
 20
-273.2448502129191
 30
0.0
 11
-42.05372668014815
 21
-273.1450616066767
 31
0.0
  0
LINE
  5
2CEF
330
2BD8
100
AcDbEntity
  8
0
 62
     0
100
AcDbLine
 10
-41.26331686392403
 20
-272.3546517904526
 30
0.0
 11
-41.02243805762273
 21
-272.1137729841512
 31
0.0
  0
LINE
  5
2CF0
330
2BD8
100
AcDbEntity
  8
0
 62
     0
100
AcDbLine
 10
-43.39808581388129
 20
-274.3568382189374
 30
0.0
 11
-43.29594187949211
 21
-274.2546942845482
 31
0.0
  0
LINE
  5
2CF1
330
2BD8
100
AcDbEntity
  8
0
 62
     0
100
AcDbLine
 10
-40.04883174270166
 20
-271.0075841477577
 30
0.0
 11
-39.15406255324862
 21
-270.1128149583047
 31
0.0
  0
LINE
  5
2CF2
330
2BD8
100
AcDbEntity
  8
0
 62
     0
100
AcDbLine
 10
-43.29594187949211
 20
-274.2546942845482
 30
0.0
 11
-42.66394737329011
 21
-273.6226997783461
 31
0.0
  0
LINE
  5
2CF3
330
2BD8
100
AcDbEntity
  8
0
 62
     0
100
AcDbLine
 10
-40.38464563889553
 20
-271.3433980439516
 30
0.0
 11
-40.04883174270168
 21
-271.0075841477578
 31
0.0
  0
LINE
  5
2CF4
330
2BD8
100
AcDbEntity
  8
0
 62
     0
100
AcDbLine
 10
-42.19826721082549
 20
-273.1570196158815
 30
0.0
 11
-42.09847860458307
 21
-273.0572310096391
 31
0.0
  0
LINE
  5
2CF5
330
2BD8
100
AcDbEntity
  8
0
 62
     0
100
AcDbLine
 10
-41.25347036437431
 20
-272.2122227694304
 30
0.0
 11
-41.01259155807299
 21
-271.971343963129
 31
0.0
  0
LINE
  5
2CF6
330
2BD8
100
AcDbEntity
  8
0
 62
     0
100
AcDbLine
 10
-43.44283773831622
 20
-274.2690076218998
 30
0.0
 11
-43.34069380392703
 21
-274.1668636875106
 31
0.0
  0
LINE
  5
2CF7
330
2BD8
100
AcDbEntity
  8
0
 62
     0
100
AcDbLine
 10
-40.18141426417416
 20
-271.0075841477577
 30
0.0
 11
-39.28664507472111
 21
-270.1128149583047
 31
0.0
  0
LINE
  5
2CF8
330
2BD8
100
AcDbEntity
  8
0
 62
     0
100
AcDbLine
 10
-43.34069380392703
 20
-274.1668636875106
 30
0.0
 11
-42.70869929772504
 21
-273.5348691813086
 31
0.0
  0
LINE
  5
2CF9
330
2BD8
100
AcDbEntity
  8
0
 62
     0
100
AcDbLine
 10
-40.22043947645742
 20
-271.046609360041
 30
0.0
 11
-40.18141426417416
 21
-271.0075841477578
 31
0.0
  0
LINE
  5
2CFA
330
2BD8
100
AcDbEntity
  8
0
 62
     0
100
AcDbLine
 10
-42.24301913526041
 20
-273.069189018844
 30
0.0
 11
-42.14323052901799
 21
-272.9694004126015
 31
0.0
  0
LINE
  5
2CFB
330
2BD8
100
AcDbEntity
  8
0
 62
     0
100
AcDbLine
 10
-41.24362386482458
 20
-272.0697937484081
 30
0.0
 11
-41.00274505852326
 21
-271.8289149421068
 31
0.0
  0
LINE
  5
2CFC
330
2BD8
100
AcDbEntity
  8
0
 62
     0
100
AcDbLine
 10
-43.48758966275113
 20
-274.1811770248623
 30
0.0
 11
-43.38544572836195
 21
-274.0790330904731
 31
0.0
  0
LINE
  5
2CFD
330
2BD8
100
AcDbEntity
  8
0
 62
     0
100
AcDbLine
 10
-40.31399678564665
 20
-271.0075841477578
 30
0.0
 11
-39.41922759619359
 21
-270.1128149583047
 31
0.0
  0
LINE
  5
2CFE
330
2BD8
100
AcDbEntity
  8
0
 62
     0
100
AcDbLine
 10
-43.38544572836195
 20
-274.0790330904731
 30
0.0
 11
-42.75345122215997
 21
-273.447038584271
 31
0.0
  0
LINE
  5
2CFF
330
2BD8
100
AcDbEntity
  8
0
 62
     0
100
AcDbLine
 10
-41.23377736527484
 20
-271.9273647273859
 30
0.0
 11
-40.99289855897352
 21
-271.6864859210846
 31
0.0
  0
LINE
  5
2D00
330
2BD8
100
AcDbEntity
  8
0
 62
     0
100
AcDbLine
 10
-42.28777105969533
 20
-272.9813584218064
 30
0.0
 11
-42.18798245345292
 21
-272.881569815564
 31
0.0
  0
LINE
  5
2D01
330
2BD8
100
AcDbEntity
  8
0
 62
     0
100
AcDbLine
 10
-43.53234158718605
 20
-274.0933464278247
 30
0.0
 11
-43.43019765279687
 21
-273.9912024934355
 31
0.0
  0
LINE
  5
2D02
330
2BD8
100
AcDbEntity
  8
0
 62
     0
100
AcDbLine
 10
-40.44657930711912
 20
-271.0075841477578
 30
0.0
 11
-39.55181011766607
 21
-270.1128149583047
 31
0.0
  0
LINE
  5
2D03
330
2BD8
100
AcDbEntity
  8
0
 62
     0
100
AcDbLine
 10
-43.43019765279688
 20
-273.9912024934355
 30
0.0
 11
-42.79820314659487
 21
-273.3592079872335
 31
0.0
  0
LINE
  5
2D04
330
2BD8
100
AcDbEntity
  8
0
 62
     0
100
AcDbLine
 10
-41.22393086572511
 20
-271.7849357063637
 30
0.0
 11
-40.9830520594238
 21
-271.5440569000624
 31
0.0
  0
LINE
  5
2D05
330
2BD8
100
AcDbEntity
  8
0
 62
     0
100
AcDbLine
 10
-42.33252298413026
 20
-272.8935278247689
 30
0.0
 11
-42.23273437788784
 21
-272.7937392185264
 31
0.0
  0
LINE
  5
2D06
330
2BD8
100
AcDbEntity
  8
0
 62
     0
100
AcDbLine
 10
-43.57709351162099
 20
-274.0055158307872
 30
0.0
 11
-43.4749495772318
 21
-273.903371896398
 31
0.0
  0
LINE
  5
2D07
330
2BD8
100
AcDbEntity
  8
0
 62
     0
100
AcDbLine
 10
-40.57916182859158
 20
-271.0075841477578
 30
0.0
 11
-39.68439263913856
 21
-270.1128149583047
 31
0.0
  0
LINE
  5
2D08
330
2BD8
100
AcDbEntity
  8
0
 62
     0
100
AcDbLine
 10
-43.4749495772318
 20
-273.903371896398
 30
0.0
 11
-42.84295507102982
 21
-273.2713773901959
 31
0.0
  0
LINE
  5
2D09
330
2BD8
100
AcDbEntity
  8
0
 62
     0
100
AcDbLine
 10
-41.21408436617539
 20
-271.6425066853415
 30
0.0
 11
-40.97320555987406
 21
-271.4016278790402
 31
0.0
  0
LINE
  5
2D0A
330
2BD8
100
AcDbEntity
  8
0
 62
     0
100
AcDbLine
 10
-42.37727490856518
 20
-272.8056972277314
 30
0.0
 11
-42.27748630232276
 21
-272.705908621489
 31
0.0
  0
LINE
  5
2D0B
330
2BD8
100
AcDbEntity
  8
0
 62
     0
100
AcDbLine
 10
-43.6218454360559
 20
-273.9176852337496
 30
0.0
 11
-43.51970150166672
 21
-273.8155412993604
 31
0.0
  0
LINE
  5
2D0C
330
2BD8
100
AcDbEntity
  8
0
 62
     0
100
AcDbLine
 10
-40.71174435006406
 20
-271.0075841477578
 30
0.0
 11
-39.81697516061101
 21
-270.1128149583047
 31
0.0
  0
LINE
  5
2D0D
330
2BD8
100
AcDbEntity
  8
0
 62
     0
100
AcDbLine
 10
-43.51970150166672
 20
-273.8155412993604
 30
0.0
 11
-42.88770699546473
 21
-273.1835467931584
 31
0.0
  0
LINE
  5
2D0E
330
2BD8
100
AcDbEntity
  8
0
 62
     0
100
AcDbLine
 10
-41.20423786662565
 20
-271.5000776643193
 30
0.0
 11
-40.96335906032432
 21
-271.259198858018
 31
0.0
  0
LINE
  5
2D0F
330
2BD8
100
AcDbEntity
  8
0
 62
     0
100
AcDbLine
 10
-42.4220268330001
 20
-272.7178666306938
 30
0.0
 11
-42.32223822675769
 21
-272.6180780244514
 31
0.0
  0
LINE
  5
2D10
330
2BD8
100
AcDbEntity
  8
0
 62
     0
100
AcDbLine
 10
-43.66659736049083
 20
-273.829854636712
 30
0.0
 11
-43.56445342610165
 21
-273.7277107023229
 31
0.0
  0
LINE
  5
2D11
330
2BD8
100
AcDbEntity
  8
0
 62
     0
100
AcDbLine
 10
-40.84432687153655
 20
-271.0075841477578
 30
0.0
 11
-39.94955768208349
 21
-270.1128149583047
 31
0.0
  0
LINE
  5
2D12
330
2BD8
100
AcDbEntity
  8
0
 62
     0
100
AcDbLine
 10
-43.56445342610164
 20
-273.7277107023228
 30
0.0
 11
-42.93245891989965
 21
-273.0957161961208
 31
0.0
  0
LINE
  5
2D13
330
2BD8
100
AcDbEntity
  8
0
 62
     0
100
AcDbLine
 10
-41.19439136707593
 20
-271.3576486432971
 30
0.0
 11
-40.95351256077459
 21
-271.1167698369958
 31
0.0
  0
LINE
  5
2D14
330
2BD8
100
AcDbEntity
  8
0
 62
     0
100
AcDbLine
 10
-42.46677875743502
 20
-272.6300360336562
 30
0.0
 11
-42.36699015119261
 21
-272.5302474274138
 31
0.0
  0
LINE
  5
2D15
330
2BD8
100
AcDbEntity
  8
0
 62
     0
100
AcDbLine
 10
-43.71134928492576
 20
-273.7420240396744
 30
0.0
 11
-43.60920535053657
 21
-273.6398801052853
 31
0.0
  0
LINE
  5
2D16
330
2BD8
100
AcDbEntity
  8
0
 62
     0
100
AcDbLine
 10
-40.97690939300903
 20
-271.0075841477578
 30
0.0
 11
-40.08214020355597
 21
-270.1128149583047
 31
0.0
  0
LINE
  5
2D17
330
2BD8
100
AcDbEntity
  8
0
 62
     0
100
AcDbLine
 10
-43.60920535053657
 20
-273.6398801052853
 30
0.0
 11
-42.97721084433458
 21
-273.0078855990833
 31
0.0
  0
LINE
  5
2D18
330
2BD8
100
AcDbEntity
  8
0
 62
     0
100
AcDbLine
 10
-41.1845448675262
 20
-271.2152196222749
 30
0.0
 11
-40.97690939300904
 21
-271.0075841477578
 31
0.0
  0
LINE
  5
2D19
330
2BD8
100
AcDbEntity
  8
0
 62
     0
100
AcDbLine
 10
-42.51153068186996
 20
-272.5422054366187
 30
0.0
 11
-42.41174207562753
 21
-272.4424168303762
 31
0.0
  0
LINE
  5
2D1A
330
2BD8
100
AcDbEntity
  8
0
 62
     0
100
AcDbLine
 10
-43.75610120936068
 20
-273.6541934426369
 30
0.0
 11
-43.65395727497149
 21
-273.5520495082478
 31
0.0
  0
LINE
  5
2D1B
330
2BD8
100
AcDbEntity
  8
0
 62
     0
100
AcDbLine
 10
-41.10949191448152
 20
-271.0075841477578
 30
0.0
 11
-40.21472272502846
 21
-270.1128149583047
 31
0.0
  0
LINE
  5
2D1C
330
2BD8
100
AcDbEntity
  8
0
 62
     0
100
AcDbLine
 10
-43.65395727497149
 20
-273.5520495082478
 30
0.0
 11
-43.02196276876951
 21
-272.9200550020458
 31
0.0
  0
LINE
  5
2D1D
330
2BD8
100
AcDbEntity
  8
0
 62
     0
100
AcDbLine
 10
-41.17469836797646
 20
-271.0727906012527
 30
0.0
 11
-41.10949191448153
 21
-271.0075841477578
 31
0.0
  0
LINE
  5
2D1E
330
2BD8
100
AcDbEntity
  8
0
 62
     0
100
AcDbLine
 10
-42.55628260630487
 20
-272.4543748395811
 30
0.0
 11
-42.45649400006246
 21
-272.3545862333387
 31
0.0
  0
LINE
  5
2D1F
330
2BD8
100
AcDbEntity
  8
0
 62
     0
100
AcDbLine
 10
-43.8008531337956
 20
-273.5663628455994
 30
0.0
 11
-43.69870919940642
 21
-273.4642189112102
 31
0.0
  0
LINE
  5
2D20
330
2BD8
100
AcDbEntity
  8
0
 62
     0
100
AcDbLine
 10
-41.242074435954
 20
-271.0075841477578
 30
0.0
 11
-40.34730524650094
 21
-270.1128149583047
 31
0.0
  0
LINE
  5
2D21
330
2BD8
100
AcDbEntity
  8
0
 62
     0
100
AcDbLine
 10
-43.69870919940643
 20
-273.4642189112102
 30
0.0
 11
-43.06671469320444
 21
-272.8322244050082
 31
0.0
  0
LINE
  5
2D22
330
2BD8
100
AcDbEntity
  8
0
 62
     0
100
AcDbLine
 10
-42.6010345307398
 20
-272.3665442425436
 30
0.0
 11
-42.50124592449738
 21
-272.2667556363012
 31
0.0
  0
LINE
  5
2D23
330
2BD8
100
AcDbEntity
  8
0
 62
     0
100
AcDbLine
 10
-43.84560505823052
 20
-273.4785322485618
 30
0.0
 11
-43.74346112384134
 21
-273.3763883141727
 31
0.0
  0
LINE
  5
2D24
330
2BD8
100
AcDbEntity
  8
0
 62
     0
100
AcDbLine
 10
-41.37465695742645
 20
-271.0075841477578
 30
0.0
 11
-40.47988776797339
 21
-270.1128149583047
 31
0.0
  0
LINE
  5
2D25
330
2BD8
100
AcDbEntity
  8
0
 62
     0
100
AcDbLine
 10
-43.74346112384134
 20
-273.3763883141726
 30
0.0
 11
-43.11146661763936
 21
-272.7443938079706
 31
0.0
  0
LINE
  5
2D26
330
2BD8
100
AcDbEntity
  8
0
 62
     0
100
AcDbLine
 10
-42.64578645517471
 20
-272.278713645506
 30
0.0
 11
-42.5459978489323
 21
-272.1789250392636
 31
0.0
  0
LINE
  5
2D27
330
2BD8
100
AcDbEntity
  8
0
 62
     0
100
AcDbLine
 10
-43.89035698266545
 20
-273.3907016515242
 30
0.0
 11
-43.78821304827627
 21
-273.2885577171351
 31
0.0
  0
LINE
  5
2D28
330
2BD8
100
AcDbEntity
  8
0
 62
     0
100
AcDbLine
 10
-41.50723947889893
 20
-271.0075841477578
 30
0.0
 11
-40.61247028944587
 21
-270.1128149583047
 31
0.0
  0
LINE
  5
2D29
330
2BD8
100
AcDbEntity
  8
0
 62
     0
100
AcDbLine
 10
-43.78821304827627
 20
-273.2885577171351
 30
0.0
 11
-43.15621854207427
 21
-272.6565632109331
 31
0.0
  0
LINE
  5
2D2A
330
2BD8
100
AcDbEntity
  8
0
 62
     0
100
AcDbLine
 10
-42.69053837960965
 20
-272.1908830484685
 30
0.0
 11
-42.59074977336722
 21
-272.0910944422261
 31
0.0
  0
LINE
  5
2D2B
330
2BD8
100
AcDbEntity
  8
0
 62
     0
100
AcDbLine
 10
-43.93510890710039
 20
-273.3028710544867
 30
0.0
 11
-43.83296497271119
 21
-273.2007271200976
 31
0.0
  0
LINE
  5
2D2C
330
2BD8
100
AcDbEntity
  8
0
 62
     0
100
AcDbLine
 10
-41.63982200037142
 20
-271.0075841477578
 30
0.0
 11
-40.74505281091837
 21
-270.1128149583047
 31
0.0
  0
LINE
  5
2D2D
330
2BD8
100
AcDbEntity
  8
0
 62
     0
100
AcDbLine
 10
-43.83296497271119
 20
-273.2007271200975
 30
0.0
 11
-43.2009704665092
 21
-272.5687326138955
 31
0.0
  0
LINE
  5
2D2E
330
2BD8
100
AcDbEntity
  8
0
 62
     0
100
AcDbLine
 10
-42.73529030404456
 20
-272.1030524514309
 30
0.0
 11
-42.63550169780215
 21
-272.0032638451885
 31
0.0
  0
LINE
  5
2D2F
330
2BD8
100
AcDbEntity
  8
0
 62
     0
100
AcDbLine
 10
-43.97986083153529
 20
-273.2150404574491
 30
0.0
 11
-43.87771689714611
 21
-273.11289652306
 31
0.0
  0
LINE
  5
2D30
330
2BD8
100
AcDbEntity
  8
0
 62
     0
100
AcDbLine
 10
-41.7724045218439
 20
-271.0075841477578
 30
0.0
 11
-40.87763533239084
 21
-270.1128149583047
 31
0.0
  0
LINE
  5
2D31
330
2BD8
100
AcDbEntity
  8
0
 62
     0
100
AcDbLine
 10
-43.87771689714612
 20
-273.11289652306
 30
0.0
 11
-43.24572239094412
 21
-272.480902016858
 31
0.0
  0
LINE
  5
2D32
330
2BD8
100
AcDbEntity
  8
0
 62
     0
100
AcDbLine
 10
-42.78004222847949
 20
-272.0152218543934
 30
0.0
 11
-42.68025362223707
 21
-271.9154332481509
 31
0.0
  0
LINE
  5
2D33
330
2BD8
100
AcDbEntity
  8
0
 62
     0
100
AcDbLine
 10
-44.02461275597022
 20
-273.1272098604116
 30
0.0
 11
-43.92246882158103
 21
-273.0250659260224
 31
0.0
  0
LINE
  5
2D34
330
2BD8
100
AcDbEntity
  8
0
 62
     0
100
AcDbLine
 10
-41.90498704331639
 20
-271.0075841477578
 30
0.0
 11
-41.01021785386333
 21
-270.1128149583047
 31
0.0
  0
LINE
  5
2D35
330
2BD8
100
AcDbEntity
  8
0
 62
     0
100
AcDbLine
 10
-43.92246882158103
 20
-273.0250659260224
 30
0.0
 11
-43.29047431537905
 21
-272.3930714198204
 31
0.0
  0
LINE
  5
2D36
330
2BD8
100
AcDbEntity
  8
0
 62
     0
100
AcDbLine
 10
-42.8247941529144
 20
-271.9273912573558
 30
0.0
 11
-42.72500554667199
 21
-271.8276026511134
 31
0.0
  0
LINE
  5
2D37
330
2BD8
100
AcDbEntity
  8
0
 62
     0
100
AcDbLine
 10
-44.06936468040514
 20
-273.0393792633741
 30
0.0
 11
-43.96722074601596
 21
-272.9372353289849
 31
0.0
  0
LINE
  5
2D38
330
2BD8
100
AcDbEntity
  8
0
 62
     0
100
AcDbLine
 10
-42.03756956478883
 20
-271.0075841477578
 30
0.0
 11
-41.14280037533577
 21
-270.1128149583047
 31
0.0
  0
LINE
  5
2D39
330
2BD8
100
AcDbEntity
  8
0
 62
     0
100
AcDbLine
 10
-43.96722074601596
 20
-272.9372353289849
 30
0.0
 11
-43.33522623981397
 21
-272.3052408227829
 31
0.0
  0
LINE
  5
2D3A
330
2BD8
100
AcDbEntity
  8
0
 62
     0
100
AcDbLine
 10
-42.86954607734934
 20
-271.8395606603182
 30
0.0
 11
-42.76975747110692
 21
-271.7397720540759
 31
0.0
  0
LINE
  5
2D3B
330
2BD8
100
AcDbEntity
  8
0
 62
     0
100
AcDbLine
 10
-44.11411660484007
 20
-272.9515486663365
 30
0.0
 11
-44.01197267045088
 21
-272.8494047319474
 31
0.0
  0
LINE
  5
2D3C
330
2BD8
100
AcDbEntity
  8
0
 62
     0
100
AcDbLine
 10
-42.17015208626132
 20
-271.0075841477578
 30
0.0
 11
-41.27538289680827
 21
-270.1128149583047
 31
0.0
  0
LINE
  5
2D3D
330
2BD8
100
AcDbEntity
  8
0
 62
     0
100
AcDbLine
 10
-44.01197267045089
 20
-272.8494047319474
 30
0.0
 11
-43.3799781642489
 21
-272.2174102257453
 31
0.0
  0
LINE
  5
2D3E
330
2BD8
100
AcDbEntity
  8
0
 62
     0
100
AcDbLine
 10
-42.91429800178426
 20
-271.7517300632807
 30
0.0
 11
-42.81450939554184
 21
-271.6519414570383
 31
0.0
  0
LINE
  5
2D3F
330
2BD8
100
AcDbEntity
  8
0
 62
     0
100
AcDbLine
 10
-43.03552049306387
 20
-271.8729525545603
 30
0.0
 11
-42.91429800178426
 21
-271.7517300632807
 31
0.0
  0
LINE
  5
2D40
330
2BD8
100
AcDbEntity
  8
0
 62
     0
100
AcDbLine
 10
-44.15886852927499
 20
-272.8637180692989
 30
0.0
 11
-44.0567245948858
 21
-272.7615741349098
 31
0.0
  0
LINE
  5
2D41
330
2BD8
100
AcDbEntity
  8
0
 62
     0
100
AcDbLine
 10
-42.30273460773381
 20
-271.0075841477578
 30
0.0
 11
-41.40796541828075
 21
-270.1128149583047
 31
0.0
  0
LINE
  5
2D42
330
2BD8
100
AcDbEntity
  8
0
 62
     0
100
AcDbLine
 10
-44.05672459488581
 20
-272.7615741349098
 30
0.0
 11
-43.42473008868381
 21
-272.1295796287078
 31
0.0
  0
LINE
  5
2D43
330
2BD8
100
AcDbEntity
  8
0
 62
     0
100
AcDbLine
 10
-42.95904992621917
 20
-271.6638994662432
 30
0.0
 11
-42.85926131997678
 21
-271.5641108600007
 31
0.0
  0
LINE
  5
2D44
330
2BD8
100
AcDbEntity
  8
0
 62
     0
100
AcDbLine
 10
-43.30583527562661
 20
-272.0106848156506
 30
0.0
 11
-43.03567928394395
 21
-271.7405288239679
 31
0.0
  0
LINE
  5
2D45
330
2BD8
100
AcDbEntity
  8
0
 62
     0
100
AcDbLine
 10
-44.20362045370992
 20
-272.7758874722614
 30
0.0
 11
-44.10147651932073
 21
-272.6737435378722
 31
0.0
  0
LINE
  5
2D46
330
2BD8
100
AcDbEntity
  8
0
 62
     0
100
AcDbLine
 10
-42.43531712920629
 20
-271.0075841477578
 30
0.0
 11
-41.54054793975324
 21
-270.1128149583047
 31
0.0
  0
LINE
  5
2D47
330
2BD8
100
AcDbEntity
  8
0
 62
     0
100
AcDbLine
 10
-44.10147651932073
 20
-272.6737435378722
 30
0.0
 11
-43.57615005818931
 21
-272.1484170767408
 31
0.0
  0
LINE
  5
2D48
330
2BD8
100
AcDbEntity
  8
0
 62
     0
100
AcDbLine
 10
-43.00380185065409
 20
-271.5760688692056
 30
0.0
 11
-42.9040132444117
 21
-271.4762802629631
 31
0.0
  0
LINE
  5
2D49
330
2BD8
100
AcDbEntity
  8
0
 62
     0
100
AcDbLine
 10
-43.57615005818945
 20
-272.1484170767408
 30
0.0
 11
-43.29449434520518
 21
-271.8667613637567
 31
0.0
  0
LINE
  5
2D4A
330
2BD8
100
AcDbEntity
  8
0
 62
     0
100
AcDbLine
 10
-44.24837237814484
 20
-272.6880568752238
 30
0.0
 11
-44.14622844375565
 21
-272.5859129408347
 31
0.0
  0
LINE
  5
2D4B
330
2BD8
100
AcDbEntity
  8
0
 62
     0
100
AcDbLine
 10
-42.56789965067877
 20
-271.0075841477578
 30
0.0
 11
-41.67313046122571
 21
-270.1128149583047
 31
0.0
  0
LINE
  5
2D4C
330
2BD8
100
AcDbEntity
  8
0
 62
     0
100
AcDbLine
 10
-44.14622844375567
 20
-272.5859129408347
 30
0.0
 11
-43.81389900091518
 21
-272.2535834979942
 31
0.0
  0
LINE
  5
2D4D
330
2BD8
100
AcDbEntity
  8
0
 62
     0
100
AcDbLine
 10
-43.04855377508903
 20
-271.488238272168
 30
0.0
 11
-42.94876516884662
 21
-271.3884496659257
 31
0.0
  0
LINE
  5
2D4E
330
2BD8
100
AcDbEntity
  8
0
 62
     0
100
AcDbLine
 10
-43.81389900091516
 20
-272.2535834979942
 30
0.0
 11
-43.5533094064665
 21
-271.9929939035455
 31
0.0
  0
LINE
  5
2D4F
330
2BD8
100
AcDbEntity
  8
0
 62
     0
100
AcDbLine
 10
-43.55330940646641
 20
-271.9929939035454
 30
0.0
 11
-43.51423393755367
 21
-271.9539184346327
 31
0.0
  0
LINE
  5
2D50
330
2BD8
100
AcDbEntity
  8
0
 62
     0
100
AcDbLine
 10
-44.29312430257975
 20
-272.6002262781863
 30
0.0
 11
-44.19098036819057
 21
-272.4980823437971
 31
0.0
  0
LINE
  5
2D51
330
2BD8
100
AcDbEntity
  8
0
 62
     0
100
AcDbLine
 10
-42.70048217215122
 20
-271.0075841477578
 30
0.0
 11
-41.80571298269817
 21
-270.1128149583047
 31
0.0
  0
LINE
  5
2D52
330
2BD8
100
AcDbEntity
  8
0
 62
     0
100
AcDbLine
 10
-44.19098036819058
 20
-272.4980823437971
 30
0.0
 11
-43.85736435006013
 21
-272.1644663256667
 31
0.0
  0
LINE
  5
2D53
330
2BD8
100
AcDbEntity
  8
0
 62
     0
100
AcDbLine
 10
-43.09330569952394
 20
-271.4004076751304
 30
0.0
 11
-42.99351709328155
 21
-271.3006190688881
 31
0.0
  0
LINE
  5
2D54
330
2BD8
100
AcDbEntity
  8
0
 62
     0
100
AcDbLine
 10
-43.85736435006017
 20
-272.1644663256666
 30
0.0
 11
-43.81212446772781
 21
-272.1192264433343
 31
0.0
  0
LINE
  5
2D55
330
2BD8
100
AcDbEntity
  8
0
 62
     0
100
AcDbLine
 10
-43.81212446772774
 20
-272.1192264433343
 30
0.0
 11
-43.5589858619886
 21
-271.8660878375951
 31
0.0
  0
LINE
  5
2D56
330
2BD8
100
AcDbEntity
  8
0
 62
     0
100
AcDbLine
 10
-44.33787622701468
 20
-272.5123956811487
 30
0.0
 11
-44.23573229262551
 21
-272.4102517467596
 31
0.0
  0
LINE
  5
2D57
330
2BD8
100
AcDbEntity
  8
0
 62
     0
100
AcDbLine
 10
-42.83306469362371
 20
-271.0075841477578
 30
0.0
 11
-41.93829550417065
 21
-270.1128149583047
 31
0.0
  0
LINE
  5
2D58
330
2BD8
100
AcDbEntity
  8
0
 62
     0
100
AcDbLine
 10
-44.23573229262551
 20
-272.4102517467596
 30
0.0
 11
-43.60373778642352
 21
-271.7782572405575
 31
0.0
  0
LINE
  5
2D59
330
2BD8
100
AcDbEntity
  8
0
 62
     0
100
AcDbLine
 10
-43.13805762395886
 20
-271.3125770780929
 30
0.0
 11
-43.03826901771647
 21
-271.2127884718505
 31
0.0
  0
LINE
  5
2D5A
330
2BD8
100
AcDbEntity
  8
0
 62
     0
100
AcDbLine
 10
-44.38262815144962
 20
-272.4245650841112
 30
0.0
 11
-44.28048421706043
 21
-272.3224211497221
 31
0.0
  0
LINE
  5
2D5B
330
2BD8
100
AcDbEntity
  8
0
 62
     0
100
AcDbLine
 10
-42.9656472150962
 20
-271.0075841477578
 30
0.0
 11
-42.07087802564314
 21
-270.1128149583047
 31
0.0
  0
LINE
  5
2D5C
330
2BD8
100
AcDbEntity
  8
0
 62
     0
100
AcDbLine
 10
-44.28048421706043
 20
-272.322421149722
 30
0.0
 11
-43.64848971085844
 21
-271.69042664352
 31
0.0
  0
LINE
  5
2D5D
330
2BD8
100
AcDbEntity
  8
0
 62
     0
100
AcDbLine
 10
-43.18280954839378
 20
-271.2247464810554
 30
0.0
 11
-43.08302094215139
 21
-271.1249578748129
 31
0.0
  0
LINE
  5
2D5E
330
2BD8
100
AcDbEntity
  8
0
 62
     0
100
AcDbLine
 10
-44.42738007588452
 20
-272.3367344870736
 30
0.0
 11
-44.32523614149536
 21
-272.2345905526844
 31
0.0
  0
LINE
  5
2D5F
330
2BD8
100
AcDbEntity
  8
0
 62
     0
100
AcDbLine
 10
-43.09822973656867
 20
-271.0075841477578
 30
0.0
 11
-42.20346054711562
 21
-270.1128149583047
 31
0.0
  0
LINE
  5
2D60
330
2BD8
100
AcDbEntity
  8
0
 62
     0
100
AcDbLine
 10
-44.32523614149537
 20
-272.2345905526844
 30
0.0
 11
-43.69324163529338
 21
-271.6025960464825
 31
0.0
  0
LINE
  5
2D61
330
2BD8
100
AcDbEntity
  8
0
 62
     0
100
AcDbLine
 10
-43.22756147282872
 20
-271.1369158840178
 30
0.0
 11
-43.12777286658632
 21
-271.0371272777754
 31
0.0
  0
LINE
  5
2D62
330
2BD8
100
AcDbEntity
  8
0
 62
     0
100
AcDbLine
 10
-44.47213200031946
 20
-272.2489038900361
 30
0.0
 11
-44.36998806593027
 21
-272.1467599556469
 31
0.0
  0
LINE
  5
2D63
330
2BD8
100
AcDbEntity
  8
0
 62
     0
100
AcDbLine
 10
-43.23081225804116
 20
-271.0075841477578
 30
0.0
 11
-42.3360430685881
 21
-270.1128149583047
 31
0.0
  0
LINE
  5
2D64
330
2BD8
100
AcDbEntity
  8
0
 62
     0
100
AcDbLine
 10
-44.36998806593028
 20
-272.1467599556469
 30
0.0
 11
-43.7379935597283
 21
-271.5147654494449
 31
0.0
  0
LINE
  5
2D65
330
2BD8
100
AcDbEntity
  8
0
 62
     0
100
AcDbLine
 10
-43.27231339726363
 20
-271.0490852869802
 30
0.0
 11
-43.23081225804115
 21
-271.0075841477578
 31
0.0
  0
LINE
  5
2D66
330
2BD8
100
AcDbEntity
  8
0
 62
     0
100
AcDbLine
 10
-44.51688392475437
 20
-272.1610732929985
 30
0.0
 11
-44.41473999036521
 21
-272.0589293586094
 31
0.0
  0
LINE
  5
2D67
330
2BD8
100
AcDbEntity
  8
0
 62
     0
100
AcDbLine
 10
-43.36339477951361
 20
-271.0075841477578
 30
0.0
 11
-42.46862559006059
 21
-270.1128149583047
 31
0.0
  0
LINE
  5
2D68
330
2BD8
100
AcDbEntity
  8
0
 62
     0
100
AcDbLine
 10
-44.4147399903652
 20
-272.0589293586093
 30
0.0
 11
-43.78274548416323
 21
-271.4269348524073
 31
0.0
  0
LINE
  5
2D69
330
2BD8
100
AcDbEntity
  8
0
 62
     0
100
AcDbLine
 10
-44.5616358491893
 20
-272.0732426959609
 30
0.0
 11
-44.45949191480012
 21
-271.9710987615718
 31
0.0
  0
LINE
  5
2D6A
330
2BD8
100
AcDbEntity
  8
0
 62
     0
100
AcDbLine
 10
-43.4959773009861
 20
-271.0075841477578
 30
0.0
 11
-42.60120811153304
 21
-270.1128149583047
 31
0.0
  0
LINE
  5
2D6B
330
2BD8
100
AcDbEntity
  8
0
 62
     0
100
AcDbLine
 10
-44.45949191480013
 20
-271.9710987615718
 30
0.0
 11
-43.82749740859814
 21
-271.3391042553698
 31
0.0
  0
LINE
  5
2D6C
330
2BD8
100
AcDbEntity
  8
0
 62
     0
100
AcDbLine
 10
-44.60638777362423
 20
-271.9854120989233
 30
0.0
 11
-44.50424383923505
 21
-271.8832681645342
 31
0.0
  0
LINE
  5
2D6D
330
2BD8
100
AcDbEntity
  8
0
 62
     0
100
AcDbLine
 10
-43.62855982245858
 20
-271.0075841477578
 30
0.0
 11
-42.73379063300552
 21
-270.1128149583047
 31
0.0
  0
LINE
  5
2D6E
330
2BD8
100
AcDbEntity
  8
0
 62
     0
100
AcDbLine
 10
-44.50424383923506
 20
-271.8832681645342
 30
0.0
 11
-43.87224933303307
 21
-271.2512736583323
 31
0.0
  0
LINE
  5
2D6F
330
2BD8
100
AcDbEntity
  8
0
 62
     0
100
AcDbLine
 10
-44.65113969805915
 20
-271.8975815018858
 30
0.0
 11
-44.54899576366996
 21
-271.7954375674967
 31
0.0
  0
LINE
  5
2D70
330
2BD8
100
AcDbEntity
  8
0
 62
     0
100
AcDbLine
 10
-43.76114234393106
 20
-271.0075841477578
 30
0.0
 11
-42.86637315447801
 21
-270.1128149583047
 31
0.0
  0
LINE
  5
2D71
330
2BD8
100
AcDbEntity
  8
0
 62
     0
100
AcDbLine
 10
-44.54899576366997
 20
-271.7954375674967
 30
0.0
 11
-43.91700125746799
 21
-271.1634430612947
 31
0.0
  0
LINE
  5
2D72
330
2BD8
100
AcDbEntity
  8
0
 62
     0
100
AcDbLine
 10
-44.69589162249408
 20
-271.8097509048483
 30
0.0
 11
-44.5937476881049
 21
-271.7076069704591
 31
0.0
  0
LINE
  5
2D73
330
2BD8
100
AcDbEntity
  8
0
 62
     0
100
AcDbLine
 10
-43.89372486540355
 20
-271.0075841477578
 30
0.0
 11
-42.99895567595049
 21
-270.1128149583047
 31
0.0
  0
LINE
  5
2D74
330
2BD8
100
AcDbEntity
  8
0
 62
     0
100
AcDbLine
 10
-44.59374768810491
 20
-271.7076069704591
 30
0.0
 11
-43.96175318190293
 21
-271.0756124642572
 31
0.0
  0
LINE
  5
2D75
330
2BD8
100
AcDbEntity
  8
0
 62
     0
100
AcDbLine
 10
-44.74064354692899
 20
-271.7219203078107
 30
0.0
 11
-44.63849961253981
 21
-271.6197763734216
 31
0.0
  0
LINE
  5
2D76
330
2BD8
100
AcDbEntity
  8
0
 62
     0
100
AcDbLine
 10
-44.02630738687596
 20
-271.0075841477577
 30
0.0
 11
-43.13153819742297
 21
-270.1128149583047
 31
0.0
  0
LINE
  5
2D77
330
2BD8
100
AcDbEntity
  8
0
 62
     0
100
AcDbLine
 10
-44.63849961253983
 20
-271.6197763734216
 30
0.0
 11
-44.02630738687603
 21
-271.0075841477578
 31
0.0
  0
LINE
  5
2D78
330
2BD8
100
AcDbEntity
  8
0
 62
     0
100
AcDbLine
 10
-44.78539547136391
 20
-271.6340897107732
 30
0.0
 11
-44.68325153697474
 21
-271.5319457763841
 31
0.0
  0
LINE
  5
2D79
330
2BD8
100
AcDbEntity
  8
0
 62
     0
100
AcDbLine
 10
-44.15888990834845
 20
-271.0075841477577
 30
0.0
 11
-43.26412071889542
 21
-270.1128149583047
 31
0.0
  0
LINE
  5
2D7A
330
2BD8
100
AcDbEntity
  8
0
 62
     0
100
AcDbLine
 10
-44.68325153697477
 20
-271.531945776384
 30
0.0
 11
-44.15888990834848
 21
-271.0075841477578
 31
0.0
  0
LINE
  5
2D7B
330
2BD8
100
AcDbEntity
  8
0
 62
     0
100
AcDbLine
 10
-44.83014739579885
 20
-271.5462591137356
 30
0.0
 11
-44.72800346140967
 21
-271.4441151793465
 31
0.0
  0
LINE
  5
2D7C
330
2BD8
100
AcDbEntity
  8
0
 62
     0
100
AcDbLine
 10
-44.29147242982091
 20
-271.0075841477577
 30
0.0
 11
-43.39670324036791
 21
-270.1128149583047
 31
0.0
  0
LINE
  5
2D7D
330
2BD8
100
AcDbEntity
  8
0
 62
     0
100
AcDbLine
 10
-44.72800346140968
 20
-271.4441151793465
 30
0.0
 11
-44.29147242982097
 21
-271.0075841477578
 31
0.0
  0
LINE
  5
2D7E
330
2BD8
100
AcDbEntity
  8
0
 62
     0
100
AcDbLine
 10
-44.87489932023376
 20
-271.4584285166981
 30
0.0
 11
-44.7727553858446
 21
-271.3562845823089
 31
0.0
  0
LINE
  5
2D7F
330
2BD8
100
AcDbEntity
  8
0
 62
     0
100
AcDbLine
 10
-44.42405495129341
 20
-271.0075841477577
 30
0.0
 11
-43.5292857618404
 21
-270.1128149583047
 31
0.0
  0
LINE
  5
2D80
330
2BD8
100
AcDbEntity
  8
0
 62
     0
100
AcDbLine
 10
-44.77275538584461
 20
-271.3562845823089
 30
0.0
 11
-44.42405495129345
 21
-271.0075841477578
 31
0.0
  0
LINE
  5
2D81
330
2BD8
100
AcDbEntity
  8
0
 62
     0
100
AcDbLine
 10
-44.91965124466869
 20
-271.3705979196606
 30
0.0
 11
-44.81750731027952
 21
-271.2684539852714
 31
0.0
  0
LINE
  5
2D82
330
2BD8
100
AcDbEntity
  8
0
 62
     0
100
AcDbLine
 10
-44.55663747276587
 20
-271.0075841477577
 30
0.0
 11
-43.66186828331287
 21
-270.1128149583047
 31
0.0
  0
LINE
  5
2D83
330
2BD8
100
AcDbEntity
  8
0
 62
     0
100
AcDbLine
 10
-44.81750731027953
 20
-271.2684539852714
 30
0.0
 11
-44.55663747276593
 21
-271.0075841477578
 31
0.0
  0
LINE
  5
2D84
330
2BD8
100
AcDbEntity
  8
0
 62
     0
100
AcDbLine
 10
-44.96440316910361
 20
-271.282767322623
 30
0.0
 11
-44.86225923471444
 21
-271.1806233882338
 31
0.0
  0
LINE
  5
2D85
330
2BD8
100
AcDbEntity
  8
0
 62
     0
100
AcDbLine
 10
-44.68921999423836
 20
-271.0075841477577
 30
0.0
 11
-43.79445080478536
 21
-270.1128149583047
 31
0.0
  0
LINE
  5
2D86
330
2BD8
100
AcDbEntity
  8
0
 62
     0
100
AcDbLine
 10
-44.86225923471446
 20
-271.1806233882338
 30
0.0
 11
-44.68921999423842
 21
-271.0075841477578
 31
0.0
  0
LINE
  5
2D87
330
2BD8
100
AcDbEntity
  8
0
 62
     0
100
AcDbLine
 10
-45.00915509353854
 20
-271.1949367255854
 30
0.0
 11
-44.93619626528839
 21
-271.1219778973352
 31
0.0
  0
LINE
  5
2D88
330
2BD8
100
AcDbEntity
  8
0
 62
     0
100
AcDbLine
 10
-44.82180251571087
 20
-271.0075841477578
 30
0.0
 11
-43.92703332625781
 21
-270.1128149583047
 31
0.0
  0
LINE
  5
2D89
330
2BD8
100
AcDbEntity
  8
0
 62
     0
100
AcDbLine
 10
-44.95438503718335
 20
-271.0075841477578
 30
0.0
 11
-44.0596158477303
 21
-270.1128149583047
 31
0.0
  0
LINE
  5
2D8A
330
2BD8
100
AcDbEntity
  8
0
 62
     0
100
AcDbLine
 10
-45.08696755865584
 20
-271.0075841477578
 30
0.0
 11
-44.19219836920278
 21
-270.1128149583047
 31
0.0
  0
LINE
  5
2D8B
330
2BD8
100
AcDbEntity
  8
0
 62
     0
100
AcDbLine
 10
-45.21955008012832
 20
-271.0075841477578
 30
0.0
 11
-44.32478089067527
 21
-270.1128149583047
 31
0.0
  0
LINE
  5
2D8C
330
2BD8
100
AcDbEntity
  8
0
 62
     0
100
AcDbLine
 10
-45.23372463886881
 20
-270.8891761850257
 30
0.0
 11
-44.45736341214774
 21
-270.1128149583047
 31
0.0
  0
LINE
  5
2D8D
330
2BD8
100
AcDbEntity
  8
0
 62
     0
100
AcDbLine
 10
-45.23372463886881
 20
-270.7565936635533
 30
0.0
 11
-44.5899459336202
 21
-270.1128149583047
 31
0.0
  0
LINE
  5
2D8E
330
2BD8
100
AcDbEntity
  8
0
 62
     0
100
AcDbLine
 10
-45.23372463886881
 20
-270.6240111420808
 30
0.0
 11
-44.72252845509268
 21
-270.1128149583047
 31
0.0
  0
LINE
  5
2D8F
330
2BD8
100
AcDbEntity
  8
0
 62
     0
100
AcDbLine
 10
-45.23372463886881
 20
-270.4914286206083
 30
0.0
 11
-44.85511097656517
 21
-270.1128149583047
 31
0.0
  0
LINE
  5
2D90
330
2BD8
100
AcDbEntity
  8
0
 62
     0
100
AcDbLine
 10
-45.2337246388688
 20
-270.3588460991359
 30
0.0
 11
-44.98769349803765
 21
-270.1128149583047
 31
0.0
  0
LINE
  5
2D91
330
2BD8
100
AcDbEntity
  8
0
 62
     0
100
AcDbLine
 10
-45.2337246388688
 20
-270.2262635776634
 30
0.0
 11
-45.12027601951014
 21
-270.1128149583047
 31
0.0
  0
LINE
  5
2D92
330
2BD8
100
AcDbEntity
  8
0
 62
     0
100
AcDbLine
 10
-39.27512850824
 20
-279.5146574163695
 30
0.0
 11
-38.5413666900566
 21
-278.7808955981861
 31
0.0
  0
LINE
  5
2D93
330
2BD8
100
AcDbEntity
  8
0
 62
     0
100
AcDbLine
 10
-39.16241960701883
 20
-279.5345310366208
 30
0.0
 11
-38.42865778883542
 21
-278.8007692184374
 31
0.0
  0
LINE
  5
2D94
330
2BD8
100
AcDbEntity
  8
0
 62
     0
100
AcDbLine
 10
-39.04971070579762
 20
-279.5544046568721
 30
0.0
 11
-38.31594888761424
 21
-278.8206428386887
 31
0.0
  0
LINE
  5
2D95
330
2BD8
100
AcDbEntity
  8
0
 62
     0
100
AcDbLine
 10
-38.93700180457646
 20
-279.5742782771234
 30
0.0
 11
-38.20323998639308
 21
-278.84051645894
 31
0.0
  0
LINE
  5
2D96
330
2BD8
100
AcDbEntity
  8
0
 62
     0
100
AcDbLine
 10
-38.82429290335529
 20
-279.5941518973747
 30
0.0
 11
-38.0905310851719
 21
-278.8603900791913
 31
0.0
  0
LINE
  5
2D97
330
2BD8
100
AcDbEntity
  8
0
 62
     0
100
AcDbLine
 10
-38.71158400213412
 20
-279.614025517626
 30
0.0
 11
-37.97782218395072
 21
-278.8802636994426
 31
0.0
  0
LINE
  5
2D98
330
2BD8
100
AcDbEntity
  8
0
 62
     0
100
AcDbLine
 10
-38.59887510091292
 20
-279.6338991378773
 30
0.0
 11
-37.86511328272954
 21
-278.9001373196939
 31
0.0
  0
LINE
  5
2D99
330
2BD8
100
AcDbEntity
  8
0
 62
     0
100
AcDbLine
 10
-38.48616619969174
 20
-279.6537727581286
 30
0.0
 11
-37.75240438150836
 21
-278.9200109399452
 31
0.0
  0
LINE
  5
2D9A
330
2BD8
100
AcDbEntity
  8
0
 62
     0
100
AcDbLine
 10
-38.37345729847058
 20
-279.6736463783799
 30
0.0
 11
-37.63969548028717
 21
-278.9398845601965
 31
0.0
  0
LINE
  5
2D9B
330
2BD8
100
AcDbEntity
  8
0
 62
     0
100
AcDbLine
 10
-38.26074839724942
 20
-279.6935199986312
 30
0.0
 11
-37.526986579066
 21
-278.9597581804478
 31
0.0
  0
LINE
  5
2D9C
330
2BD8
100
AcDbEntity
  8
0
 62
     0
100
AcDbLine
 10
-38.14803949602821
 20
-279.7133936188825
 30
0.0
 11
-37.41427767784482
 21
-278.9796318006991
 31
0.0
  0
LINE
  5
2D9D
330
2BD8
100
AcDbEntity
  8
0
 62
     0
100
AcDbLine
 10
-38.03533059480704
 20
-279.7332672391338
 30
0.0
 11
-37.30156877662363
 21
-278.9995054209504
 31
0.0
  0
LINE
  5
2D9E
330
2BD8
100
AcDbEntity
  8
0
 62
     0
100
AcDbLine
 10
-37.92262169358588
 20
-279.7531408593851
 30
0.0
 11
-37.18885987540245
 21
-279.0193790412017
 31
0.0
  0
LINE
  5
2D9F
330
2BD8
100
AcDbEntity
  8
0
 62
     0
100
AcDbLine
 10
-37.80991279236471
 20
-279.7730144796364
 30
0.0
 11
-37.07615097418127
 21
-279.039252661453
 31
0.0
  0
LINE
  5
2DA0
330
2BD8
100
AcDbEntity
  8
0
 62
     0
100
AcDbLine
 10
-37.6972038911435
 20
-279.7928880998877
 30
0.0
 11
-36.96344207296009
 21
-279.0591262817043
 31
0.0
  0
LINE
  5
2DA1
330
2BD8
100
AcDbEntity
  8
0
 62
     0
100
AcDbLine
 10
-37.58449498992233
 20
-279.812761720139
 30
0.0
 11
-36.85073317173891
 21
-279.0789999019556
 31
0.0
  0
LINE
  5
2DA2
330
2BD8
100
AcDbEntity
  8
0
 62
     0
100
AcDbLine
 10
-37.47178608870117
 20
-279.8326353403903
 30
0.0
 11
-36.73802427051778
 21
-279.0988735222069
 31
0.0
  0
LINE
  5
2DA3
330
2BD8
100
AcDbEntity
  8
0
 62
     0
100
AcDbLine
 10
-37.35907718748001
 20
-279.8525089606416
 30
0.0
 11
-36.62531536929659
 21
-279.1187471424582
 31
0.0
  0
LINE
  5
2DA4
330
2BD8
100
AcDbEntity
  8
0
 62
     0
100
AcDbLine
 10
-37.24636828625879
 20
-279.8723825808929
 30
0.0
 11
-36.51260646807542
 21
-279.1386207627095
 31
0.0
  0
LINE
  5
2DA5
330
2BD8
100
AcDbEntity
  8
0
 62
     0
100
AcDbLine
 10
-37.13365938503763
 20
-279.8922562011442
 30
0.0
 11
-36.39989756685424
 21
-279.1584943829608
 31
0.0
  0
LINE
  5
2DA6
330
2BD8
100
AcDbEntity
  8
0
 62
     0
100
AcDbLine
 10
-37.02095048381647
 20
-279.9121298213955
 30
0.0
 11
-36.28718866563306
 21
-279.1783680032121
 31
0.0
  0
LINE
  5
2DA7
330
2BD8
100
AcDbEntity
  8
0
 62
     0
100
AcDbLine
 10
-36.9082415825953
 20
-279.9320034416468
 30
0.0
 11
-36.17447976441188
 21
-279.1982416234634
 31
0.0
  0
LINE
  5
2DA8
330
2BD8
100
AcDbEntity
  8
0
 62
     0
100
AcDbLine
 10
-36.79553268137409
 20
-279.9518770618981
 30
0.0
 11
-36.0617708631907
 21
-279.2181152437147
 31
0.0
  0
LINE
  5
2DA9
330
2BD8
100
AcDbEntity
  8
0
 62
     0
100
AcDbLine
 10
-36.68282378015292
 20
-279.9717506821494
 30
0.0
 11
-35.94906196196951
 21
-279.237988863966
 31
0.0
  0
LINE
  5
2DAA
330
2BD8
100
AcDbEntity
  8
0
 62
     0
100
AcDbLine
 10
-36.57011487893175
 20
-279.9916243024007
 30
0.0
 11
-35.83635306074833
 21
-279.2578624842173
 31
0.0
  0
LINE
  5
2DAB
330
2BD8
100
AcDbEntity
  8
0
 62
     0
100
AcDbLine
 10
-36.45740597771059
 20
-280.011497922652
 30
0.0
 11
-35.72364415952716
 21
-279.2777361044686
 31
0.0
  0
LINE
  5
2DAC
330
2BD8
100
AcDbEntity
  8
0
 62
     0
100
AcDbLine
 10
-36.34469707648938
 20
-280.0313715429033
 30
0.0
 11
-35.61093525830597
 21
-279.2976097247199
 31
0.0
  0
LINE
  5
2DAD
330
2BD8
100
AcDbEntity
  8
0
 62
     0
100
AcDbLine
 10
-36.23198817526822
 20
-280.0512451631546
 30
0.0
 11
-35.49822635708479
 21
-279.3174833449712
 31
0.0
  0
LINE
  5
2DAE
330
2BD8
100
AcDbEntity
  8
0
 62
     0
100
AcDbLine
 10
-36.11927927404706
 20
-280.0711187834059
 30
0.0
 11
-35.38551745586361
 21
-279.3373569652225
 31
0.0
  0
LINE
  5
2DAF
330
2BD8
100
AcDbEntity
  8
0
 62
     0
100
AcDbLine
 10
-36.00657037282589
 20
-280.0909924036572
 30
0.0
 11
-35.27280855464243
 21
-279.3572305854738
 31
0.0
  0
LINE
  5
2DB0
330
2BD8
100
AcDbEntity
  8
0
 62
     0
100
AcDbLine
 10
-35.89386147160467
 20
-280.1108660239085
 30
0.0
 11
-35.16009965342125
 21
-279.3771042057251
 31
0.0
  0
LINE
  5
2DB1
330
2BD8
100
AcDbEntity
  8
0
 62
     0
100
AcDbLine
 10
-35.78115257038351
 20
-280.1307396441598
 30
0.0
 11
-35.04739075220007
 21
-279.3969778259764
 31
0.0
  0
LINE
  5
2DB2
330
2BD8
100
AcDbEntity
  8
0
 62
     0
100
AcDbLine
 10
-35.66844366916234
 20
-280.1506132644111
 30
0.0
 11
-34.93468185097889
 21
-279.4168514462277
 31
0.0
  0
LINE
  5
2DB3
330
2BD8
100
AcDbEntity
  8
0
 62
     0
100
AcDbLine
 10
-35.55573476794118
 20
-280.1704868846624
 30
0.0
 11
-34.82197294975771
 21
-279.436725066479
 31
0.0
  0
LINE
  5
2DB4
330
2BD8
100
AcDbEntity
  8
0
 62
     0
100
AcDbLine
 10
-35.44302586671997
 20
-280.1903605049137
 30
0.0
 11
-34.70926404853658
 21
-279.4565986867303
 31
0.0
  0
LINE
  5
2DB5
330
2BD8
100
AcDbEntity
  8
0
 62
     0
100
AcDbLine
 10
-35.3303169654988
 20
-280.210234125165
 30
0.0
 11
-34.59655514731539
 21
-279.4764723069816
 31
0.0
  0
LINE
  5
2DB6
330
2BD8
100
AcDbEntity
  8
0
 62
     0
100
AcDbLine
 10
-35.21760806427764
 20
-280.2301077454163
 30
0.0
 11
-34.48384624609421
 21
-279.496345927233
 31
0.0
  0
LINE
  5
2DB7
330
2BD8
100
AcDbEntity
  8
0
 62
     0
100
AcDbLine
 10
-35.10489916305647
 20
-280.2499813656676
 30
0.0
 11
-34.65961316436878
 21
-279.80469536698
 31
0.0
  0
LINE
  5
2DB8
330
2BD8
100
AcDbEntity
  8
0
 62
     0
100
AcDbLine
 10
-34.49507239555112
 20
-279.6401545981623
 30
0.0
 11
-34.37113734487303
 21
-279.5162195474842
 31
0.0
  0
LINE
  5
2DB9
330
2BD8
100
AcDbEntity
  8
0
 62
     0
100
AcDbLine
 10
-34.65961316436874
 20
-279.8046953669799
 30
0.0
 11
-34.49507239555113
 21
-279.6401545981623
 31
0.0
  0
LINE
  5
2DBA
330
2BD8
100
AcDbEntity
  8
0
 62
     0
100
AcDbLine
 10
-34.99219026183526
 20
-280.2698549859189
 30
0.0
 11
-34.61254978408334
 21
-279.890214508167
 31
0.0
  0
LINE
  5
2DBB
330
2BD8
100
AcDbEntity
  8
0
 62
     0
100
AcDbLine
 10
-34.4505443932725
 20
-279.7282091173562
 30
0.0
 11
-34.25842844365185
 21
-279.5360931677355
 31
0.0
  0
LINE
  5
2DBC
330
2BD8
100
AcDbEntity
  8
0
 62
     0
100
AcDbLine
 10
-34.61254978408327
 20
-279.8902145081669
 30
0.0
 11
-34.45054439327251
 21
-279.7282091173562
 31
0.0
  0
LINE
  5
2DBD
330
2BD8
100
AcDbEntity
  8
0
 62
     0
100
AcDbLine
 10
-34.8794813606141
 20
-280.2897286061702
 30
0.0
 11
-34.56548640379791
 21
-279.975733649354
 31
0.0
  0
LINE
  5
2DBE
330
2BD8
100
AcDbEntity
  8
0
 62
     0
100
AcDbLine
 10
-34.40601639099387
 20
-279.81626363655
 30
0.0
 11
-34.18212969867614
 21
-279.5923769442322
 31
0.0
  0
LINE
  5
2DBF
330
2BD8
100
AcDbEntity
  8
0
 62
     0
100
AcDbLine
 10
-34.5654864037978
 20
-279.975733649354
 30
0.0
 11
-34.4060163909939
 21
-279.81626363655
 31
0.0
  0
LINE
  5
2DC0
330
2BD8
100
AcDbEntity
  8
0
 62
     0
100
AcDbLine
 10
-34.76677245939293
 20
-280.3096022264215
 30
0.0
 11
-34.51842302351247
 21
-280.0612527905411
 31
0.0
  0
LINE
  5
2DC1
330
2BD8
100
AcDbEntity
  8
0
 62
     0
100
AcDbLine
 10
-34.36148838871525
 20
-279.9043181557439
 30
0.0
 11
-34.21610863625688
 21
-279.7589384032855
 31
0.0
  0
LINE
  5
2DC2
330
2BD8
100
AcDbEntity
  8
0
 62
     0
100
AcDbLine
 10
-34.51842302351233
 20
-280.0612527905409
 30
0.0
 11
-34.36148838871528
 21
-279.9043181557439
 31
0.0
  0
LINE
  5
2DC3
330
2BD8
100
AcDbEntity
  8
0
 62
     0
100
AcDbLine
 10
-34.65406355817177
 20
-280.3294758466728
 30
0.0
 11
-34.47135964322703
 21
-280.1467719317281
 31
0.0
  0
LINE
  5
2DC4
330
2BD8
100
AcDbEntity
  8
0
 62
     0
100
AcDbLine
 10
-34.31696038643663
 20
-279.9923726749377
 30
0.0
 11
-34.25008757383762
 21
-279.9254998623387
 31
0.0
  0
LINE
  5
2DC5
330
2BD8
100
AcDbEntity
  8
0
 62
     0
100
AcDbLine
 10
-34.47135964322686
 20
-280.1467719317279
 30
0.0
 11
-34.31696038643667
 21
-279.9923726749378
 31
0.0
  0
LINE
  5
2DC6
330
2BD8
100
AcDbEntity
  8
0
 62
     0
100
AcDbLine
 10
-34.54135465695056
 20
-280.3493494669242
 30
0.0
 11
-34.4242962629416
 21
-280.2322910729151
 31
0.0
  0
LINE
  5
2DC7
330
2BD8
100
AcDbEntity
  8
0
 62
     0
100
AcDbLine
 10
-34.42429626294139
 20
-280.232291072915
 30
0.0
 11
-34.27243238415805
 21
-280.0804271941316
 31
0.0
  0
LINE
  5
2DC8
330
2BD8
100
AcDbEntity
  8
0
 62
     0
100
AcDbLine
 10
-34.42864575572939
 20
-280.3692230871754
 30
0.0
 11
-34.37723288265617
 21
-280.3178102141022
 31
0.0
  0
LINE
  5
2DC9
330
2BD8
100
AcDbEntity
  8
0
 62
     0
100
AcDbLine
 10
-34.23763487951733
 20
-280.1782122109634
 30
0.0
 11
-34.22790438187941
 21
-280.1684817133254
 31
0.0
  0
LINE
  5
2DCA
330
2BD8
100
AcDbEntity
  8
0
 62
     0
100
AcDbLine
 10
-34.37723288265592
 20
-280.317810214102
 30
0.0
 11
-34.32222178119469
 21
-280.2627991126407
 31
0.0
  0
LINE
  5
2DCB
330
2BD8
100
AcDbEntity
  8
0
 62
     0
100
AcDbLine
 10
-34.3180454489991
 20
-280.2586227804452
 30
0.0
 11
-34.23763487951734
 21
-280.1782122109634
 31
0.0
  0
LINE
  5
2DCC
330
2BD8
100
AcDbEntity
  8
0
 62
     0
100
AcDbLine
 10
-34.33279649784393
 20
-280.4059563507625
 30
0.0
 11
-34.31594377963411
 21
-280.3891036325526
 31
0.0
  0
LINE
  5
2DCD
330
2BD8
100
AcDbEntity
  8
0
 62
     0
100
AcDbLine
 10
-34.31594377963405
 20
-280.3891036325526
 30
0.0
 11
-34.12832042519916
 21
-280.2014802781177
 31
0.0
  0
LINE
  5
2DCE
330
2BD8
100
AcDbEntity
  8
0
 62
     0
100
AcDbLine
 10
-34.2886183190611
 20
-280.4943606934521
 30
0.0
 11
-34.20326302751831
 21
-280.4090054019093
 31
0.0
  0
LINE
  5
2DCF
330
2BD8
100
AcDbEntity
  8
0
 62
     0
100
AcDbLine
 10
-34.01900597088106
 20
-280.224748345272
 30
0.0
 11
-34.00684354492805
 21
-280.2125859193191
 31
0.0
  0
LINE
  5
2DD0
330
2BD8
100
AcDbEntity
  8
0
 62
     0
100
AcDbLine
 10
-34.20326302751827
 20
-280.4090054019093
 30
0.0
 11
-34.01900597088101
 21
-280.224748345272
 31
0.0
  0
LINE
  5
2DD1
330
2BD8
100
AcDbEntity
  8
0
 62
     0
100
AcDbLine
 10
-34.24444014027825
 20
-280.5827650361417
 30
0.0
 11
-34.09058227540249
 21
-280.4289071712659
 31
0.0
  0
LINE
  5
2DD2
330
2BD8
100
AcDbEntity
  8
0
 62
     0
100
AcDbLine
 10
-33.90969151656292
 20
-280.2480164124263
 30
0.0
 11
-33.73652476279732
 21
-280.0748496586608
 31
0.0
  0
LINE
  5
2DD3
330
2BD8
100
AcDbEntity
  8
0
 62
     0
100
AcDbLine
 10
-34.09058227540246
 20
-280.4289071712659
 30
0.0
 11
-33.90969151656286
 21
-280.2480164124263
 31
0.0
  0
LINE
  5
2DD4
330
2BD8
100
AcDbEntity
  8
0
 62
     0
100
AcDbLine
 10
-34.20026196149541
 20
-280.6711693788314
 30
0.0
 11
-33.9779015232867
 21
-280.4488089406227
 31
0.0
  0
LINE
  5
2DD5
330
2BD8
100
AcDbEntity
  8
0
 62
     0
100
AcDbLine
 10
-33.80037706224471
 20
-280.2712844795807
 30
0.0
 11
-33.56665993146914
 21
-280.0375673488051
 31
0.0
  0
LINE
  5
2DD6
330
2BD8
100
AcDbEntity
  8
0
 62
     0
100
AcDbLine
 10
-33.97790152328667
 20
-280.4488089406226
 30
0.0
 11
-33.80037706224476
 21
-280.2712844795808
 31
0.0
  0
LINE
  5
2DD7
330
2BD8
100
AcDbEntity
  8
0
 62
     0
100
AcDbLine
 10
-34.15608378271257
 20
-280.759573721521
 30
0.0
 11
-33.86522077117088
 21
-280.4687107099793
 31
0.0
  0
LINE
  5
2DD8
330
2BD8
100
AcDbEntity
  8
0
 62
     0
100
AcDbLine
 10
-33.69106260792654
 20
-280.294552546735
 30
0.0
 11
-33.52248175268631
 21
-280.1259716914947
 31
0.0
  0
LINE
  5
2DD9
330
2BD8
100
AcDbEntity
  8
0
 62
     0
100
AcDbLine
 10
-33.86522077117085
 20
-280.4687107099793
 30
0.0
 11
-33.69106260792662
 21
-280.2945525467351
 31
0.0
  0
LINE
  5
2DDA
330
2BD8
100
AcDbEntity
  8
0
 62
     0
100
AcDbLine
 10
-34.11190560392971
 20
-280.8479780642106
 30
0.0
 11
-33.75254001905505
 21
-280.488612479336
 31
0.0
  0
LINE
  5
2DDB
330
2BD8
100
AcDbEntity
  8
0
 62
     0
100
AcDbLine
 10
-33.59453372366715
 20
-280.330606183948
 30
0.0
 11
-33.47830357390347
 21
-280.2143760341844
 31
0.0
  0
LINE
  5
2DDC
330
2BD8
100
AcDbEntity
  8
0
 62
     0
100
AcDbLine
 10
-33.75254001905507
 20
-280.4886124793359
 30
0.0
 11
-33.59453372366719
 21
-280.3306061839481
 31
0.0
  0
LINE
  5
2DDD
330
2BD8
100
AcDbEntity
  8
0
 62
     0
100
AcDbLine
 10
-34.06772742514688
 20
-280.9363824069003
 30
0.0
 11
-33.64145204273529
 21
-280.5101070244887
 31
0.0
  0
LINE
  5
2DDE
330
2BD8
100
AcDbEntity
  8
0
 62
     0
100
AcDbLine
 10
-33.62039977625162
 20
-280.489054758005
 30
0.0
 11
-33.43412539512061
 21
-280.302780376874
 31
0.0
  0
LINE
  5
2DDF
330
2BD8
100
AcDbEntity
  8
0
 62
     0
100
AcDbLine
 10
-33.64145204273528
 20
-280.5101070244887
 30
0.0
 11
-33.62039977625164
 21
-280.489054758005
 31
0.0
  0
LINE
  5
2DE0
330
2BD8
100
AcDbEntity
  8
0
 62
     0
100
AcDbLine
 10
-34.02354924636404
 20
-281.0247867495899
 30
0.0
 11
-33.38994721633778
 21
-280.3911847195636
 31
0.0
  0
LINE
  5
2DE1
330
2BD8
100
AcDbEntity
  8
0
 62
     0
100
AcDbLine
 10
-33.97937106758119
 20
-281.1131910922795
 30
0.0
 11
-33.34576903755494
 21
-280.4795890622533
 31
0.0
  0
LINE
  5
2DE2
330
2BD8
100
AcDbEntity
  8
0
 62
     0
100
AcDbLine
 10
-33.93519288879836
 20
-281.2015954349691
 30
0.0
 11
-33.30159085877209
 21
-280.567993404943
 31
0.0
  0
LINE
  5
2DE3
330
2BD8
100
AcDbEntity
  8
0
 62
     0
100
AcDbLine
 10
-33.89101471001551
 20
-281.2899997776588
 30
0.0
 11
-33.25741267998925
 21
-280.6563977476325
 31
0.0
  0
LINE
  5
2DE4
330
2BD8
100
AcDbEntity
  8
0
 62
     0
100
AcDbLine
 10
-33.84683653123266
 20
-281.3784041203485
 30
0.0
 11
-33.21323450120642
 21
-280.7448020903222
 31
0.0
  0
LINE
  5
2DE5
330
2BD8
100
AcDbEntity
  8
0
 62
     0
100
AcDbLine
 10
-33.80265835244982
 20
-281.4668084630381
 30
0.0
 11
-33.16905632242356
 21
-280.8332064330118
 31
0.0
  0
LINE
  5
2DE6
330
2BD8
100
AcDbEntity
  8
0
 62
     0
100
AcDbLine
 10
-33.75848017366698
 20
-281.5552128057277
 30
0.0
 11
-33.12487814364072
 21
-280.9216107757015
 31
0.0
  0
LINE
  5
2DE7
330
2BD8
100
AcDbEntity
  8
0
 62
     0
100
AcDbLine
 10
-33.71430199488414
 20
-281.6436171484174
 30
0.0
 11
-33.08069996485789
 21
-281.010015118391
 31
0.0
  0
LINE
  5
2DE8
330
2BD8
100
AcDbEntity
  8
0
 62
     0
100
AcDbLine
 10
-33.6701238161013
 20
-281.732021491107
 30
0.0
 11
-33.03652178607503
 21
-281.0984194610807
 31
0.0
  0
LINE
  5
2DE9
330
2BD8
100
AcDbEntity
  8
0
 62
     0
100
AcDbLine
 10
-33.62594563731845
 20
-281.8204258337966
 30
0.0
 11
-32.9923436072922
 21
-281.1868238037704
 31
0.0
  0
LINE
  5
2DEA
330
2BD8
100
AcDbEntity
  8
0
 62
     0
100
AcDbLine
 10
-33.58176745853561
 20
-281.9088301764862
 30
0.0
 11
-32.94816542850937
 21
-281.2752281464601
 31
0.0
  0
LINE
  5
2DEB
330
2BD8
100
AcDbEntity
  8
0
 62
     0
100
AcDbLine
 10
-33.53758927975277
 20
-281.9972345191759
 30
0.0
 11
-32.90398724972653
 21
-281.3636324891497
 31
0.0
  0
LINE
  5
2DEC
330
2BD8
100
AcDbEntity
  8
0
 62
     0
100
AcDbLine
 10
-33.49341110096992
 20
-282.0856388618656
 30
0.0
 11
-32.85980907094367
 21
-281.4520368318393
 31
0.0
  0
LINE
  5
2DED
330
2BD8
100
AcDbEntity
  8
0
 62
     0
100
AcDbLine
 10
-33.44923292218708
 20
-282.1740432045552
 30
0.0
 11
-32.81563089216084
 21
-281.5404411745289
 31
0.0
  0
LINE
  5
2DEE
330
2BD8
100
AcDbEntity
  8
0
 62
     0
100
AcDbLine
 10
-33.40505474340423
 20
-282.2624475472448
 30
0.0
 11
-32.771452713378
 21
-281.6288455172186
 31
0.0
  0
LINE
  5
2DEF
330
2BD8
100
AcDbEntity
  8
0
 62
     0
100
AcDbLine
 10
-33.36087656462139
 20
-282.3508518899345
 30
0.0
 11
-32.72727453459515
 21
-281.7172498599082
 31
0.0
  0
LINE
  5
2DF0
330
2BD8
100
AcDbEntity
  8
0
 62
     0
100
AcDbLine
 10
-33.31669838583855
 20
-282.4392562326241
 30
0.0
 11
-32.68309635581231
 21
-281.8056542025978
 31
0.0
  0
LINE
  5
2DF1
330
2BD8
100
AcDbEntity
  8
0
 62
     0
100
AcDbLine
 10
-33.27252020705571
 20
-282.5276605753137
 30
0.0
 11
-32.63891817702948
 21
-281.8940585452875
 31
0.0
  0
LINE
  5
2DF2
330
2BD8
100
AcDbEntity
  8
0
 62
     0
100
AcDbLine
 10
-33.22834202827287
 20
-282.6160649180033
 30
0.0
 11
-32.59473999824662
 21
-281.9824628879771
 31
0.0
  0
LINE
  5
2DF3
330
2BD8
100
AcDbEntity
  8
0
 62
     0
100
AcDbLine
 10
-33.18416384949003
 20
-282.704469260693
 30
0.0
 11
-32.55056181946378
 21
-282.0708672306667
 31
0.0
  0
LINE
  5
2DF4
330
2BD8
100
AcDbEntity
  8
0
 62
     0
100
AcDbLine
 10
-33.13998567070718
 20
-282.7928736033826
 30
0.0
 11
-32.50638364068095
 21
-282.1592715733564
 31
0.0
  0
LINE
  5
2DF5
330
2BD8
100
AcDbEntity
  8
0
 62
     0
100
AcDbLine
 10
-33.09580749192433
 20
-282.8812779460723
 30
0.0
 11
-32.46220546189811
 21
-282.247675916046
 31
0.0
  0
LINE
  5
2DF6
330
2BD8
100
AcDbEntity
  8
0
 62
     0
100
AcDbLine
 10
-33.0516293131415
 20
-282.9696822887619
 30
0.0
 11
-32.41802728311526
 21
-282.3360802587357
 31
0.0
  0
LINE
  5
2DF7
330
2BD8
100
AcDbEntity
  8
0
 62
     0
100
AcDbLine
 10
-33.00745113435866
 20
-283.0580866314516
 30
0.0
 11
-32.37384910433242
 21
-282.4244846014253
 31
0.0
  0
LINE
  5
2DF8
330
2BD8
100
AcDbEntity
  8
0
 62
     0
100
AcDbLine
 10
-32.96327295557581
 20
-283.1464909741411
 30
0.0
 11
-32.32967092554959
 21
-282.5128889441149
 31
0.0
  0
LINE
  5
2DF9
330
2BD8
100
AcDbEntity
  8
0
 62
     0
100
AcDbLine
 10
-32.91909477679296
 20
-283.2348953168308
 30
0.0
 11
-32.28549274676673
 21
-282.6012932868045
 31
0.0
  0
LINE
  5
2DFA
330
2BD8
100
AcDbEntity
  8
0
 62
     0
100
AcDbLine
 10
-32.87491659801013
 20
-283.3232996595204
 30
0.0
 11
-32.24131456798389
 21
-282.6896976294942
 31
0.0
  0
LINE
  5
2DFB
330
2BD8
100
AcDbEntity
  8
0
 62
     0
100
AcDbLine
 10
-32.83073841922728
 20
-283.4117040022101
 30
0.0
 11
-32.19713638920106
 21
-282.7781019721838
 31
0.0
  0
LINE
  5
2DFC
330
2BD8
100
AcDbEntity
  8
0
 62
     0
100
AcDbLine
 10
-32.78656024044444
 20
-283.5001083448997
 30
0.0
 11
-32.1529582104182
 21
-282.8665063148735
 31
0.0
  0
LINE
  5
2DFD
330
2BD8
100
AcDbEntity
  8
0
 62
     0
100
AcDbLine
 10
-32.7423820616616
 20
-283.5885126875893
 30
0.0
 11
-32.10878003163537
 21
-282.9549106575631
 31
0.0
  0
LINE
  5
2DFE
330
2BD8
100
AcDbEntity
  8
0
 62
     0
100
AcDbLine
 10
-32.69820388287876
 20
-283.6769170302789
 30
0.0
 11
-32.06460185285254
 21
-283.0433150002527
 31
0.0
  0
LINE
  5
2DFF
330
2BD8
100
AcDbEntity
  8
0
 62
     0
100
AcDbLine
 10
-32.65402570409591
 20
-283.7653213729686
 30
0.0
 11
-32.0204236740697
 21
-283.1317193429424
 31
0.0
  0
LINE
  5
2E00
330
2BD8
100
AcDbEntity
  8
0
 62
     0
100
AcDbLine
 10
-32.60984752531307
 20
-283.8537257156582
 30
0.0
 11
-31.97624549528684
 21
-283.220123685632
 31
0.0
  0
LINE
  5
2E01
330
2BD8
100
AcDbEntity
  8
0
 62
     0
100
AcDbLine
 10
-32.56566934653022
 20
-283.9421300583479
 30
0.0
 11
-31.93206731650401
 21
-283.3085280283216
 31
0.0
  0
LINE
  5
2E02
330
2BD8
100
AcDbEntity
  8
0
 62
     0
100
AcDbLine
 10
-32.52149116774738
 20
-284.0305344010375
 30
0.0
 11
-31.88788913772117
 21
-283.3969323710113
 31
0.0
  0
LINE
  5
2E03
330
2BD8
100
AcDbEntity
  8
0
 62
     0
100
AcDbLine
 10
-32.47731298896454
 20
-284.1189387437271
 30
0.0
 11
-31.84371095893832
 21
-283.4853367137009
 31
0.0
  0
LINE
  5
2E04
330
2BD8
100
AcDbEntity
  8
0
 62
     0
100
AcDbLine
 10
-32.43313481018169
 20
-284.2073430864168
 30
0.0
 11
-31.79953278015548
 21
-283.5737410563906
 31
0.0
  0
LINE
  5
2E05
330
2BD8
100
AcDbEntity
  8
0
 62
     0
100
AcDbLine
 10
-32.38895663139885
 20
-284.2957474291064
 30
0.0
 11
-31.75535460137264
 21
-283.6621453990801
 31
0.0
  0
LINE
  5
2E06
330
2BD8
100
AcDbEntity
  8
0
 62
     0
100
AcDbLine
 10
-32.34477845261601
 20
-284.384151771796
 30
0.0
 11
-31.71117642258979
 21
-283.7505497417698
 31
0.0
  0
LINE
  5
2E07
330
2BD8
100
AcDbEntity
  8
0
 62
     0
100
AcDbLine
 10
-32.30060027383317
 20
-284.4725561144857
 30
0.0
 11
-31.66699824380695
 21
-283.8389540844595
 31
0.0
  0
LINE
  5
2E08
330
2BD8
100
AcDbEntity
  8
0
 62
     0
100
AcDbLine
 10
-32.25642209505032
 20
-284.5609604571753
 30
0.0
 11
-31.62282006502412
 21
-283.9273584271491
 31
0.0
  0
LINE
  5
2E09
330
2BD8
100
AcDbEntity
  8
0
 62
     0
100
AcDbLine
 10
-32.21224391626749
 20
-284.649364799865
 30
0.0
 11
-31.57864188624126
 21
-284.0157627698387
 31
0.0
  0
LINE
  5
2E0A
330
2BD8
100
AcDbEntity
  8
0
 62
     0
100
AcDbLine
 10
-32.16806573748464
 20
-284.7377691425545
 30
0.0
 11
-31.53446370745843
 21
-284.1041671125284
 31
0.0
  0
LINE
  5
2E0B
330
2BD8
100
AcDbEntity
  8
0
 62
     0
100
AcDbLine
 10
-32.1238875587018
 20
-284.8261734852442
 30
0.0
 11
-31.49028552867559
 21
-284.192571455218
 31
0.0
  0
LINE
  5
2E0C
330
2BD8
100
AcDbEntity
  8
0
 62
     0
100
AcDbLine
 10
-32.07970937991895
 20
-284.9145778279338
 30
0.0
 11
-31.44610734989275
 21
-284.2809757979077
 31
0.0
  0
LINE
  5
2E0D
330
2BD8
100
AcDbEntity
  8
0
 62
     0
100
AcDbLine
 10
-32.03553120113612
 20
-285.0029821706235
 30
0.0
 11
-31.4019291711099
 21
-284.3693801405972
 31
0.0
  0
LINE
  5
2E0E
330
2BD8
100
AcDbEntity
  8
0
 62
     0
100
AcDbLine
 10
-31.99135302235327
 20
-285.0913865133131
 30
0.0
 11
-31.35775099232706
 21
-284.4577844832869
 31
0.0
  0
LINE
  5
2E0F
330
2BD8
100
AcDbEntity
  8
0
 62
     0
100
AcDbLine
 10
-31.94717484357042
 20
-285.1797908560028
 30
0.0
 11
-31.31357281354423
 21
-284.5461888259766
 31
0.0
  0
LINE
  5
2E10
330
2BD8
100
AcDbEntity
  8
0
 62
     0
100
AcDbLine
 10
-31.90299666478758
 20
-285.2681951986924
 30
0.0
 11
-31.26939463476138
 21
-284.6345931686662
 31
0.0
  0
LINE
  5
2E11
330
2BD8
100
AcDbEntity
  8
0
 62
     0
100
AcDbLine
 10
-31.85881848600474
 20
-285.356599541382
 30
0.0
 11
-31.22521645597854
 21
-284.7229975113558
 31
0.0
  0
LINE
  5
2E12
330
2BD8
100
AcDbEntity
  8
0
 62
     0
100
AcDbLine
 10
-31.8146403072219
 20
-285.4450038840717
 30
0.0
 11
-31.1810382771957
 21
-284.8114018540455
 31
0.0
  0
LINE
  5
2E13
330
2BD8
100
AcDbEntity
  8
0
 62
     0
100
AcDbLine
 10
-31.77046212843906
 20
-285.5334082267613
 30
0.0
 11
-31.13686009841285
 21
-284.8998061967351
 31
0.0
  0
LINE
  5
2E14
330
2BD8
100
AcDbEntity
  8
0
 62
     0
100
AcDbLine
 10
-31.72628394965622
 20
-285.6218125694509
 30
0.0
 11
-31.09268191963001
 21
-284.9882105394248
 31
0.0
  0
LINE
  5
2E15
330
2BD8
100
AcDbEntity
  8
0
 62
     0
100
AcDbLine
 10
-31.68210577087337
 20
-285.7102169121406
 30
0.0
 11
-31.04850374084718
 21
-285.0766148821143
 31
0.0
  0
LINE
  5
2E16
330
2BD8
100
AcDbEntity
  8
0
 62
     0
100
AcDbLine
 10
-31.63792759209052
 20
-285.7986212548302
 30
0.0
 11
-31.00432556206434
 21
-285.165019224804
 31
0.0
  0
LINE
  5
2E17
330
2BD8
100
AcDbEntity
  8
0
 62
     0
100
AcDbLine
 10
-31.59374941330769
 20
-285.8870255975199
 30
0.0
 11
-30.96014738328149
 21
-285.2534235674937
 31
0.0
  0
LINE
  5
2E18
330
2BD8
100
AcDbEntity
  8
0
 62
     0
100
AcDbLine
 10
-31.50332316272872
 20
-285.9291818684134
 30
0.0
 11
-30.91596920449865
 21
-285.3418279101833
 31
0.0
  0
LINE
  5
2E19
330
2BD8
100
AcDbEntity
  8
0
 62
     0
100
AcDbLine
 10
-31.37157195278595
 20
-285.9300131799431
 30
0.0
 11
-30.87179102571581
 21
-285.4302322528729
 31
0.0
  0
LINE
  5
2E1A
330
2BD8
100
AcDbEntity
  8
0
 62
     0
100
AcDbLine
 10
-31.23982074284319
 20
-285.9308444914728
 30
0.0
 11
-30.82761284693296
 21
-285.5186365955626
 31
0.0
  0
LINE
  5
2E1B
330
2BD8
100
AcDbEntity
  8
0
 62
     0
100
AcDbLine
 10
-31.25232952633624
 20
-286.0759357964383
 30
0.0
 11
-31.16460760049095
 21
-285.988213870593
 31
0.0
  0
LINE
  5
2E1C
330
2BD8
100
AcDbEntity
  8
0
 62
     0
100
AcDbLine
 10
-31.10806953290039
 20
-285.9316758030024
 30
0.0
 11
-30.78343466815012
 21
-285.6070409382521
 31
0.0
  0
LINE
  5
2E1D
330
2BD8
100
AcDbEntity
  8
0
 62
     0
100
AcDbLine
 10
-31.15811563536502
 20
-285.981721905467
 30
0.0
 11
-31.10806953290039
 21
-285.9316758030025
 31
0.0
  0
LINE
  5
2E1E
330
2BD8
100
AcDbEntity
  8
0
 62
     0
100
AcDbLine
 10
-31.12177404626793
 20
-286.0779628378424
 30
0.0
 11
-31.0328563905482
 21
-285.9890451821227
 31
0.0
  0
LINE
  5
2E1F
330
2BD8
100
AcDbEntity
  8
0
 62
     0
100
AcDbLine
 10
-30.97631832295762
 20
-285.9325071145322
 30
0.0
 11
-30.73925648936729
 21
-285.6954452809418
 31
0.0
  0
LINE
  5
2E20
330
2BD8
100
AcDbEntity
  8
0
 62
     0
100
AcDbLine
 10
-30.99002283632514
 20
-286.0787941493721
 30
0.0
 11
-30.93156545569635
 21
-286.0203367687433
 31
0.0
  0
LINE
  5
2E21
330
2BD8
100
AcDbEntity
  8
0
 62
     0
100
AcDbLine
 10
-30.84456711301486
 20
-285.9333384260619
 30
0.0
 11
-30.69507831058443
 21
-285.7838496236314
 31
0.0
  0
LINE
  5
2E22
330
2BD8
100
AcDbEntity
  8
0
 62
     0
100
AcDbLine
 10
-30.7128159030721
 20
-285.9341697375916
 30
0.0
 11
-30.6509001318016
 21
-285.8722539663211
 31
0.0
  0
ENDBLK
  5
2E24
330
2BD8
100
AcDbEntity
  8
0
100
AcDbBlockEnd
  0
BLOCK
  5
2EE2
330
2E25
100
AcDbEntity
  8
0
100
AcDbBlockBegin
  2
BORDER
 70
     2
 10
0.0
 20
0.0
 30
0.0
  3
BORDER
  1

  0
LINE
  5
2E26
330
2E25
100
AcDbEntity
  8
0
 62
     5
100
AcDbLine
 10
0.7091800116219247
 20
-0.3574751627549588
 30
0.0
 11
275.7091800116219
 21
-0.3574751627549588
 31
0.0
  0
LINE
  5
2E27
330
2E25
100
AcDbEntity
  8
0
 62
     5
100
AcDbLine
 10
68.20358700028487
 20
-10.66298166101244
 30
0.0
 11
220.709180011622
 21
-10.66298166101244
 31
0.0
  0
LINE
  5
2E28
330
2E25
100
AcDbEntity
  8
0
 62
     5
100
AcDbLine
 10
0.7091800116219247
 20
-15.8157349101412
 30
0.0
 11
275.7091800116219
 21
-15.8157349101412
 31
0.0
  0
LINE
  5
2E29
330
2E25
100
AcDbEntity
  8
0
 62
     5
100
AcDbLine
 10
68.20358700028487
 20
-5.510228411883719
 30
0.0
 11
275.7091800116219
 21
-5.510228411883719
 31
0.0
  0
LINE
  5
2E2A
330
2E25
100
AcDbEntity
  8
0
 62
     5
100
AcDbLine
 10
275.7091800116219
 20
182.1842650898588
 30
0.0
 11
0.7091800116219247
 21
182.1842650898588
 31
0.0
  0
LINE
  5
2E2B
330
2E25
100
AcDbEntity
  8
0
 62
     5
100
AcDbLine
 10
0.7091800116219247
 20
182.1842650898588
 30
0.0
 11
0.7091800116219247
 21
-15.8157349101412
 31
0.0
  0
TEXT
  5
2E2C
330
2E25
100
AcDbEntity
  8
0
 62
     7
100
AcDbText
 10
15.58981648897638
 20
-12.2605421580519
 30
0.0
 40
1.424754602022191
  1
Ph: (423) 586-2265 Fax: (423) 586-2091
  7
ROMANS
100
AcDbText
  0
TEXT
  5
2E2D
330
2E25
100
AcDbEntity
  8
0
 62
     7
100
AcDbText
 10
14.79177026065917
 20
-9.953796611920804
 30
0.0
 40
1.424754602022191
  1
P.O. BOX 2279 Morristown, TN 37816-2279
  7
ROMANS
100
AcDbText
  0
ATTDEF
  5
2E2E
330
2E25
100
AcDbEntity
  8
0
 62
     5
100
AcDbText
 10
1.979778041115423
 20
1.137225741711414
 30
0.0
 40
2.25
  1

  7
ROMANS
100
AcDbAttributeDefinition
  3
SCALE
  2
SCALE
 70
     0
  0
POLYLINE
  5
2E2F
330
2E25
100
AcDbEntity
  8
0
 62
     7
100
AcDb2dPolyline
 66
     1
 10
0.0
 20
0.0
 30
0.0
1001
ACAD
1000
ASC_BOUNDS
1002
{
1070
    19
1002
}
  0
VERTEX
  5
2E30
330
2E2F
100
AcDbEntity
  8
0
 62
     7
100
AcDbVertex
100
AcDb2dVertex
 10
9.475860829008103
 20
-9.372259842905288
 30
0.0
  0
VERTEX
  5
2E31
330
2E2F
100
AcDbEntity
  8
0
 62
     7
100
AcDbVertex
100
AcDb2dVertex
 10
9.703746893437722
 20
-9.25614443973866
 30
0.0
1001
ACAD
1000
ASC_BOUNDS
1002
{
1070
    19
1002
}
  0
VERTEX
  5
2E32
330
2E2F
100
AcDbEntity
  8
0
 62
     7
100
AcDbVertex
100
AcDb2dVertex
 10
11.23681437771316
 20
-12.32394458406827
 30
0.0
1001
ACAD
1000
ASC_BOUNDS
1002
{
1070
    19
1002
}
  0
VERTEX
  5
2E33
330
2E2F
100
AcDbEntity
  8
0
 62
     7
100
AcDbVertex
100
AcDb2dVertex
 10
10.74420770578223
 20
-12.32083638030936
 30
0.0
  0
VERTEX
  5
2E34
330
2E2F
100
AcDbEntity
  8
0
 62
     7
100
AcDbVertex
100
AcDb2dVertex
 10
9.312353279627204
 20
-9.455572287063311
 30
0.0
  0
SEQEND
  5
2E35
330
2E2F
100
AcDbEntity
  8
0
 62
     7
  0
TEXT
  5
2E36
330
2E25
100
AcDbEntity
  8
0
 62
     7
100
AcDbText
 10
9.724549296543047
 20
-7.530508047706282
 30
0.0
 40
2.328886132939683
  1
Precision Ladders, LLC
  7
STYLE1
100
AcDbText
  0
CIRCLE
  5
2E37
330
2E25
100
AcDbEntity
  8
0
100
AcDbCircle
 10
7.923824281957464
 20
-7.871953982288084
 30
0.0
 40
6.386783474246639
1001
ACAD
1000
ASC_BOUNDS
1002
{
1070
    19
1002
}
  0
INSERT
  5
2E38
330
2E25
100
AcDbEntity
  8
0
100
AcDbBlockReference
  2
*X1
 10
27.06021920284057
 20
135.4393105706377
 30
0.0
 41
0.5167726248169388
 42
0.5167726248169388
 43
0.5167726248169388
1001
ACAD
1000
HATCH
1002
{
1070
    19
1000
ANSI31
1040
0.8843871093750001
1040
0.0
1002
}
  0
LWPOLYLINE
  5
2E39
330
2E25
100
AcDbEntity
  8
0
 62
     7
100
AcDbPolyline
 90
        4
 70
     1
 43
0.0
 10
3.6846685909657
 20
-4.609990034696448
 10
3.6846685909657
 20
-4.14759781205738
 10
8.609145762071234
 20
-4.14759781205738
 10
8.609145762071234
 20
-4.609990034696448
1001
ACAD
1000
ASC_BOUNDS
1002
{
1070
    19
1005
0
1005
0
1002
}
  0
LINE
  5
2E3F
330
2E25
100
AcDbEntity
  8
0
 62
     7
100
AcDbLine
 10
3.856497471864337
 20
-4.65989624533979
 30
0.0
 11
5.903233815122117
 21
-8.6768424946167
 31
0.0
1001
ACAD
1000
ASC_BOUNDS
1002
{
1070
    19
1002
}
  0
LWPOLYLINE
  5
2E40
330
2E25
100
AcDbEntity
  8
0
 62
     7
100
AcDbPolyline
 90
        4
 70
     0
 43
0.0
 10
3.752421509349788
 20
-4.612017623651738
 10
5.919652894764487
 20
-8.865448708527145
 10
5.909765027073967
 20
-8.87048682875668
 10
3.742533641659263
 20
-4.617055743881318
1001
ACAD
1000
ASC_BOUNDS
1002
{
1070
    19
1002
}
  0
LINE
  5
2E46
330
2E25
100
AcDbEntity
  8
0
 62
     7
100
AcDbLine
 10
3.794698298798533
 20
-4.691384496774553
 30
0.0
 11
3.856497471864337
 21
-4.65989624533979
 31
0.0
1001
ACAD
1000
ASC_BOUNDS
1002
{
1070
    19
1002
}
  0
LINE
  5
2E47
330
2E25
100
AcDbEntity
  8
0
 62
     7
100
AcDbLine
 10
3.856497471864337
 20
-4.65989624533979
 30
0.0
 11
3.954443925162904
 21
-4.609990034696448
 31
0.0
1001
ACAD
1000
ASC_BOUNDS
1002
{
1070
    19
1002
}
  0
LINE
  5
2E48
330
2E25
100
AcDbEntity
  8
0
 62
     7
100
AcDbLine
 10
3.856497471864337
 20
-4.65989624533979
 30
0.0
 11
3.982450477603276
 21
-4.907092937602961
 31
0.0
1001
ACAD
1000
ASC_BOUNDS
1002
{
1070
    19
1002
}
  0
LINE
  5
2E49
330
2E25
100
AcDbEntity
  8
0
 62
     7
100
AcDbLine
 10
5.781480884292713
 20
-6.278286831434622
 30
0.0
 11
5.304927475055466
 21
-7.24643467384234
 31
0.0
1001
ACAD
1000
ASC_BOUNDS
1002
{
1070
    19
1005
0
1002
}
  0
LWPOLYLINE
  5
2E4A
330
2E25
100
AcDbEntity
  8
0
 62
     7
100
AcDbPolyline
 90
        2
 70
     0
 43
0.0
 10
5.669686431166553
 20
-6.272089378976819
 10
5.212593927759267
 20
-7.20070118276762
1001
ACAD
1000
ASC_BOUNDS
1002
{
1070
    19
1005
0
1002
}
  0
LINE
  5
2E4E
330
2E25
100
AcDbEntity
  8
0
 62
     7
100
AcDbLine
 10
4.765187849836221
 20
-4.609990034696448
 30
0.0
 11
5.641375417856532
 21
-6.32960496048609
 31
0.0
1001
ACAD
1000
ASC_BOUNDS
1002
{
1070
    19
1002
}
  0
LINE
  5
2E4F
330
2E25
100
AcDbEntity
  8
0
 62
     7
100
AcDbLine
 10
4.687344611304354
 20
-4.609990034696448
 30
0.0
 11
5.603125704334065
 21
-6.407311628619606
 31
0.0
1001
ACAD
1000
ASC_BOUNDS
1002
{
1070
    19
1002
}
  0
LINE
  5
2E50
330
2E25
100
AcDbEntity
  8
0
 62
     7
100
AcDbLine
 10
4.607317373536183
 20
-5.165882206510321
 30
0.0
 11
5.424627041229285
 21
-6.769942746575713
 31
0.0
1001
ACAD
1000
ASC_BOUNDS
1002
{
1070
    19
1002
}
  0
LINE
  5
2E51
330
2E25
100
AcDbEntity
  8
0
 62
     7
100
AcDbLine
 10
6.193258745145838
 20
-8.905591765253909
 30
0.0
 11
9.312353279627204
 21
-9.455572287063311
 31
0.0
1001
ACAD
1000
ASC_BOUNDS
1002
{
1070
    19
1002
}
  0
POLYLINE
  5
2E52
330
2E25
100
AcDbEntity
  8
0
 62
     7
100
AcDb2dPolyline
 66
     1
 10
0.0
 20
0.0
 30
0.0
1001
ACAD
1000
ASC_BOUNDS
1002
{
1070
    19
1002
}
  0
VERTEX
  5
2E53
330
2E52
100
AcDbEntity
  8
0
 62
     7
100
AcDbVertex
100
AcDb2dVertex
 10
6.268124573412084
 20
-8.589891344372263
 30
0.0
  0
VERTEX
  5
2E54
330
2E52
100
AcDbEntity
  8
0
 62
     7
100
AcDbVertex
100
AcDb2dVertex
 10
6.29462857787217
 20
-8.477416902196605
 30
0.0
1001
ACAD
1000
ASC_BOUNDS
1002
{
1070
    19
1002
}
  0
VERTEX
  5
2E55
330
2E52
100
AcDbEntity
  8
0
 62
     7
100
AcDbVertex
100
AcDb2dVertex
 10
9.400188823421752
 20
-9.025010963702662
 30
0.0
1001
ACAD
1000
ASC_BOUNDS
1002
{
1070
    19
1002
}
  0
VERTEX
  5
2E56
330
2E52
100
AcDbEntity
  8
0
 62
     7
100
AcDbVertex
100
AcDb2dVertex
 10
9.345754328683732
 20
-9.291843581551438
 30
0.0
  0
SEQEND
  5
2E57
330
2E52
100
AcDbEntity
  8
0
 62
     7
  0
LINE
  5
2E58
330
2E25
100
AcDbEntity
  8
0
 62
     7
100
AcDbLine
 10
5.661539510944723
 20
-6.52195517914016
 30
0.0
 11
6.557162946377808
 21
-8.2797151424977
 31
0.0
1001
ACAD
1000
ASC_BOUNDS
1002
{
1070
    19
1005
0
1002
}
  0
LWPOLYLINE
  5
2E59
330
2E25
100
AcDbEntity
  8
0
 62
     7
100
AcDbPolyline
 90
        2
 70
     0
 43
0.0
 10
5.699789224467164
 20
-6.444248511006687
 10
6.61689946652874
 20
-8.24417870678311
1001
ACAD
1000
ASC_BOUNDS
1002
{
1070
    19
1002
}
  0
LWPOLYLINE
  5
2E5D
330
2E25
100
AcDbEntity
  8
0
 62
     7
100
AcDbPolyline
 90
        3
 70
     0
 43
0.0
 10
5.213424067086186
 20
-7.315967949608214
 10
5.379662217791395
 20
-7.23488818604634
 10
5.344540605193893
 20
-7.165958140192223
1001
ACAD
1000
ASC_BOUNDS
1002
{
1070
    19
1002
}
  0
CIRCLE
  5
2E62
330
2E25
100
AcDbEntity
  8
0
 62
     7
100
AcDbCircle
 10
5.279340030296048
 20
-7.183095204364175
 30
0.0
 40
0.0173397083489631
1001
ACAD
1000
ASC_BOUNDS
1002
{
1070
    19
1002
}
  0
LINE
  5
2E63
330
2E25
100
AcDbEntity
  8
0
 62
     7
100
AcDbLine
 10
5.270942598157367
 20
-7.082162235698433
 30
0.0
 11
5.129455396593579
 21
-7.151170154766059
 31
0.0
1001
ACAD
1000
ASC_BOUNDS
1002
{
1070
    19
1002
}
  0
LINE
  5
2E64
330
2E25
100
AcDbEntity
  8
0
 62
     7
100
AcDbLine
 10
5.106885704564564
 20
-7.116703081878117
 30
0.0
 11
5.232838710303507
 21
-7.363899774141287
 31
0.0
1001
ACAD
1000
ASC_BOUNDS
1002
{
1070
    19
1002
}
  0
LINE
  5
2E65
330
2E25
100
AcDbEntity
  8
0
 62
     7
100
AcDbLine
 10
5.304854779630774
 20
-7.246537031188584
 30
0.0
 11
5.212415557346659
 21
-7.201017515091955
 31
0.0
1001
ACAD
1000
ASC_BOUNDS
1002
{
1070
    19
1002
}
  0
LWPOLYLINE
  5
2E66
330
2E25
100
AcDbEntity
  8
0
 62
     1
100
AcDbPolyline
 90
        2
 70
     1
 43
0.0
 10
5.296679738645016
 20
-7.183095204364175
 42
-1.0
 10
5.262000321947093
 20
-7.183095204364175
 42
-1.0
1001
ACAD
1000
ASC_BOUNDS
1002
{
1070
    19
1002
}
  0
LINE
  5
2E6A
330
2E25
100
AcDbEntity
  8
0
 62
     7
100
AcDbLine
 10
6.617395421870791
 20
-8.243880706749269
 30
0.0
 11
6.55794329786903
 21
-8.279603146779439
 31
0.0
1001
ACAD
1000
ASC_BOUNDS
1002
{
1070
    19
1002
}
  0
LINE
  5
2E6B
330
2E25
100
AcDbEntity
  8
0
 62
     7
100
AcDbLine
 10
6.139302965970438
 20
-8.556559254418942
 30
0.0
 11
5.83997598522917
 21
-8.709073968826897
 31
0.0
1001
ACAD
1000
ASC_BOUNDS
1002
{
1070
    19
1002
}
  0
POLYLINE
  5
2E6C
330
2E25
100
AcDbEntity
  8
0
 62
     7
100
AcDb2dPolyline
 66
     1
 10
0.0
 20
0.0
 30
0.0
1001
ACAD
1000
ASC_BOUNDS
1002
{
1070
    19
1002
}
  0
VERTEX
  5
2E6D
330
2E6C
100
AcDbEntity
  8
0
 62
     7
100
AcDbVertex
100
AcDb2dVertex
 10
6.193712589803156
 20
-8.905671790312153
 30
0.0
  0
VERTEX
  5
2E6E
330
2E6C
100
AcDbEntity
  8
0
 62
     7
100
AcDbVertex
100
AcDb2dVertex
 10
6.255643862295799
 20
-8.64285545486636
 30
0.0
1001
ACAD
1000
ASC_BOUNDS
1002
{
1070
    19
1002
}
  0
SEQEND
  5
2E6F
330
2E6C
100
AcDbEntity
  8
0
 62
     7
  0
LINE
  5
2E70
330
2E25
100
AcDbEntity
  8
0
 62
     7
100
AcDbLine
 10
5.483040847839943
 20
-6.884586297096355
 30
0.0
 11
6.048464374867866
 21
-7.994292451301141
 31
0.0
1001
ACAD
1000
ASC_BOUNDS
1002
{
1070
    19
1002
}
  0
LINE
  5
2E71
330
2E25
100
AcDbEntity
  8
0
 62
     7
100
AcDbLine
 10
6.081611014389732
 20
-8.059346394248949
 30
0.0
 11
6.29462857787217
 21
-8.477416902196605
 31
0.0
1001
ACAD
1000
ASC_BOUNDS
1002
{
1070
    19
1002
}
  0
LWPOLYLINE
  5
2E72
330
2E25
100
AcDbEntity
  8
0
 62
     7
100
AcDbPolyline
 90
        4
 70
     0
 43
0.0
 10
6.372572092905369
 20
-7.917435194252596
 10
5.893486984645657
 20
-8.151100614247512
 10
5.861998733210931
 20
-8.08930144118168
 10
6.336860515841586
 20
-7.847347277939056
1001
ACAD
1000
ASC_BOUNDS
1002
{
1070
    19
1005
0
1002
}
  0
LWPOLYLINE
  5
2E78
330
2E25
100
AcDbEntity
  8
0
 62
     7
100
AcDbPolyline
 90
        5
 70
     0
 43
0.0
 10
6.294628577894204
 20
-8.477416902100392
 10
6.307114862039131
 20
-8.505676121580494
 10
6.460956784728575
 20
-8.816479688281518
 10
6.357355595828261
 20
-8.867760329177912
 10
6.226862912510886
 20
-8.579215050075786
1001
ACAD
1000
ASC_BOUNDS
1002
{
1070
    19
1002
}
  0
POLYLINE
  5
2E7F
330
2E25
100
AcDbEntity
  8
0
 62
     7
100
AcDb2dPolyline
 66
     1
 10
0.0
 20
0.0
 30
0.0
 70
     1
1001
ACAD
1000
ASC_BOUNDS
1002
{
1070
    19
1002
}
  0
VERTEX
  5
2E80
330
2E7F
100
AcDbEntity
  8
0
 62
     7
100
AcDbVertex
100
AcDb2dVertex
 10
5.904786372410534
 20
-8.497266070735479
 30
0.0
1001
ACAD
1000
ASC_BOUNDS
1002
{
1070
    19
1002
}
  0
VERTEX
  5
2E81
330
2E7F
100
AcDbEntity
  8
0
 62
     7
100
AcDbVertex
100
AcDb2dVertex
 10
5.926222203914861
 20
-8.394318231996329
 30
0.0
  0
VERTEX
  5
2E82
330
2E7F
100
AcDbEntity
  8
0
 62
     7
100
AcDbVertex
100
AcDb2dVertex
 10
5.956063861987406
 20
-8.402316120521344
 30
0.0
  0
VERTEX
  5
2E83
330
2E7F
100
AcDbEntity
  8
0
 62
     7
100
AcDbVertex
100
AcDb2dVertex
 10
6.294628577894204
 20
-8.477416902100392
 30
0.0
  0
VERTEX
  5
2E84
330
2E7F
100
AcDbEntity
  8
0
 62
     7
100
AcDbVertex
100
AcDb2dVertex
 10
6.26959498403452
 20
-8.590271807402608
 30
0.0
  0
VERTEX
  5
2E85
330
2E7F
100
AcDbEntity
  8
0
 62
     7
100
AcDbVertex
100
AcDb2dVertex
 10
5.933857492084015
 20
-8.503401037004177
 30
0.0
  0
SEQEND
  5
2E86
330
2E7F
100
AcDbEntity
  8
0
 62
     7
  0
LWPOLYLINE
  5
2E87
330
2E25
100
AcDbEntity
  8
0
 62
     7
100
AcDbPolyline
 90
        5
 70
     0
 43
0.0
 10
9.312353279627199
 20
-9.455572287063311
 10
9.298650785197718
 20
-9.427882353445005
 10
9.131448207950132
 20
-9.124057580898979
 10
9.232723132132111
 20
-9.068323388483221
 10
9.375631291671682
 20
-9.350925540683965
1001
ACAD
1000
ASC_BOUNDS
1002
{
1070
    19
1002
}
  0
LINE
  5
2E8E
330
2E25
100
AcDbEntity
  8
0
 62
     7
100
AcDbLine
 10
9.335446408015712
 20
-9.342372009704648
 30
0.0
 11
9.312353279627204
 21
-9.455572287063311
 31
0.0
1001
ACAD
1000
ASC_BOUNDS
1002
{
1070
    19
1002
}
  0
POLYLINE
  5
2E8F
330
2E25
100
AcDbEntity
  8
0
 62
     7
100
AcDb2dPolyline
 66
     1
 10
0.0
 20
0.0
 30
0.0
 70
     1
1001
ACAD
1000
ASC_BOUNDS
1002
{
1070
    19
1002
}
  0
VERTEX
  5
2E90
330
2E8F
100
AcDbEntity
  8
0
 62
     7
100
AcDbVertex
100
AcDb2dVertex
 10
9.700964687989658
 20
-9.418801266375522
 30
0.0
1001
ACAD
1000
ASC_BOUNDS
1002
{
1070
    19
1002
}
  0
VERTEX
  5
2E91
330
2E8F
100
AcDbEntity
  8
0
 62
     7
100
AcDbVertex
100
AcDb2dVertex
 10
9.684022705776339
 20
-9.52258335351977
 30
0.0
  0
VERTEX
  5
2E92
330
2E8F
100
AcDbEntity
  8
0
 62
     7
100
AcDbVertex
100
AcDb2dVertex
 10
9.653861688173593
 20
-9.515889789854343
 30
0.0
  0
VERTEX
  5
2E93
330
2E8F
100
AcDbEntity
  8
0
 62
     7
100
AcDbVertex
100
AcDb2dVertex
 10
9.312353279627199
 20
-9.455572287063311
 30
0.0
  0
VERTEX
  5
2E94
330
2E8F
100
AcDbEntity
  8
0
 62
     7
100
AcDbVertex
100
AcDb2dVertex
 10
9.332459113890879
 20
-9.341736150881196
 30
0.0
  0
VERTEX
  5
2E95
330
2E8F
100
AcDbEntity
  8
0
 62
     7
100
AcDbVertex
100
AcDb2dVertex
 10
9.671654434252287
 20
-9.413935381457166
 30
0.0
  0
SEQEND
  5
2E96
330
2E8F
100
AcDbEntity
  8
0
 62
     7
  0
LINE
  5
2E97
330
2E25
100
AcDbEntity
  8
0
 62
     1
100
AcDbLine
 10
9.400188823421752
 20
-9.025010963702662
 30
0.0
 11
9.345754328683732
 21
-9.291843581551438
 31
0.0
1001
ACAD
1000
ASC_BOUNDS
1002
{
1070
    19
1002
}
  0
LINE
  5
2E98
330
2E25
100
AcDbEntity
  8
0
 62
     1
100
AcDbLine
 10
9.345754328683732
 20
-9.291843581551438
 30
0.0
 11
9.375631291671682
 21
-9.350925540683965
 31
0.0
1001
ACAD
1000
ASC_BOUNDS
1002
{
1070
    19
1002
}
  0
LINE
  5
2E99
330
2E25
100
AcDbEntity
  8
0
 62
     1
100
AcDbLine
 10
9.375631291671682
 20
-9.350925540683965
 30
0.0
 11
9.475860829008119
 21
-9.372259842905288
 31
0.0
  0
LINE
  5
2E9A
330
2E25
100
AcDbEntity
  8
0
 62
     1
100
AcDbLine
 10
9.475860829008119
 20
-9.372259842905288
 30
0.0
 11
9.703746893437722
 21
-9.25614443973866
 31
0.0
1001
ACAD
1000
ASC_BOUNDS
1002
{
1070
    19
1002
}
  0
LINE
  5
2E9B
330
2E25
100
AcDbEntity
  8
0
 62
     7
100
AcDbLine
 10
4.324076164822255
 20
-4.609990034696448
 30
0.0
 11
4.577475879497985
 21
-5.107314976810968
 31
0.0
1001
ACAD
1000
ASC_BOUNDS
1002
{
1070
    19
1002
}
  0
LWPOLYLINE
  5
2E9C
330
2E25
100
AcDbEntity
  8
0
 62
     7
100
AcDbPolyline
 90
        4
 70
     0
 43
0.0
 10
4.868436958013641
 20
-4.965403776814618
 10
4.391215237529895
 20
-5.198160361866083
 10
4.421620148865587
 20
-5.260499668380496
 10
4.895713514509908
 20
-5.018937033148281
1001
ACAD
1000
ASC_BOUNDS
1002
{
1070
    19
1002
}
  0
LINE
  5
2EA2
330
2E25
100
AcDbEntity
  8
0
 62
     7
100
AcDbLine
 10
6.418666810127461
 20
-4.609990034696448
 30
0.0
 11
5.826469922231685
 21
-5.680335583029782
 31
0.0
1001
ACAD
1000
ASC_BOUNDS
1002
{
1070
    19
1002
}
  0
LINE
  5
2EA3
330
2E25
100
AcDbEntity
  8
0
 62
     7
100
AcDbLine
 10
6.286555136924443
 20
-4.609990034696448
 30
0.0
 11
5.845334639498304
 21
-5.407458587649442
 31
0.0
1001
ACAD
1000
ASC_BOUNDS
1002
{
1070
    19
1002
}
  0
CIRCLE
  5
2EA4
330
2E25
100
AcDbEntity
  8
0
 62
     7
100
AcDbCircle
 10
5.730221889836235
 20
-6.25004801811535
 30
0.0
 40
0.0173397083489631
1001
ACAD
1000
ASC_BOUNDS
1002
{
1070
    19
1002
}
  0
LWPOLYLINE
  5
2EA5
330
2E25
100
AcDbEntity
  8
0
 62
     1
100
AcDbPolyline
 90
        2
 70
     1
 43
0.0
 10
5.7475615981852
 20
-6.25004801811535
 42
-1.0
 10
5.712882181487275
 20
-6.25004801811535
 42
-1.0
1001
ACAD
1000
ASC_BOUNDS
1002
{
1070
    19
1002
}
  0
LINE
  5
2EA9
330
2E25
100
AcDbEntity
  8
0
 62
     1
100
AcDbLine
 10
5.785008558454715
 20
-6.280071704803255
 30
0.0
 11
5.780602312393248
 21
-6.280071704803255
 31
0.0
  0
LINE
  5
2EAA
330
2E25
100
AcDbEntity
  8
0
 62
     7
100
AcDbLine
 10
5.900465775633495
 20
-4.609990034696448
 30
0.0
 11
5.784457393067715
 21
-6.288044278822681
 31
0.0
1001
ACAD
1000
ASC_BOUNDS
1002
{
1070
    19
1005
0
1002
}
  0
LWPOLYLINE
  5
2EAB
330
2E25
100
AcDbEntity
  8
0
 62
     7
100
AcDbPolyline
 90
        3
 70
     0
 43
0.0
 10
5.784591808789789
 20
-4.609990034696448
 10
5.669134591611024
 20
-6.280071704803255
 10
5.784732647270778
 20
-6.280071704803255
1001
ACAD
1000
ASC_BOUNDS
1002
{
1070
    19
1005
0
1002
}
  0
TEXT
  5
2EB0
330
2E25
100
AcDbEntity
  8
0
 62
     7
100
AcDbText
 10
22.0794597326237
 20
-14.83518287267101
 30
0.0
 40
1.638467792325521
  1
www.PrecisionLadders.com
  7
ROMANS
100
AcDbText
  0
LWPOLYLINE
  5
2EB1
330
2E25
100
AcDbEntity
  8
0
 62
     7
100
AcDbPolyline
 90
        9
 70
     0
 43
0.0
 10
11.07551406403755
 20
-12.38700861173308
 10
11.07573287663963
 20
-12.35232988534997
 10
10.97169669749035
 20
-12.35167344754363
 10
10.90233924472416
 20
-12.35123582233948
 10
10.90212043212205
 20
-12.3859145487225
 42
0.4142135623730939
 10
10.91360707004905
 20
-12.39754706171767
 10
11.06388155104246
 20
-12.39849524966009
 42
0.4142135623730989
 10
11.07551406403753
 20
-12.38700861173308
 42
-0.4142135623730944
 10
11.06388155104246
 20
-12.39849524966009
1001
ACAD
1000
ASC_BOUNDS
1002
{
1070
    19
1002
}
  0
LINE
  5
2EBC
330
2E25
100
AcDbEntity
  8
0
 62
     7
100
AcDbLine
 10
11.02229987426554
 20
-12.3225910604074
 30
0.0
 11
11.02188924369332
 21
-12.35199014780307
 31
0.0
1001
ACAD
1000
ASC_BOUNDS
1002
{
1070
    19
1002
}
  0
LINE
  5
2EBD
330
2E25
100
AcDbEntity
  8
0
 62
     7
100
AcDbLine
 10
10.95872220922986
 20
-12.32218990397022
 30
0.0
 11
11.02229987426554
 21
-12.3225910604074
 31
0.0
1001
ACAD
1000
ASC_BOUNDS
1002
{
1070
    19
1002
}
  0
LINE
  5
2EBE
330
2E25
100
AcDbEntity
  8
0
 62
     7
100
AcDbLine
 10
10.95856008735984
 20
-12.34788394497736
 30
0.0
 11
10.95872220922986
 21
-12.32218990397022
 31
0.0
1001
ACAD
1000
ASC_BOUNDS
1002
{
1070
    19
1002
}
  0
LINE
  5
2EBF
330
2E25
100
AcDbEntity
  8
0
 62
     5
100
AcDbLine
 10
68.20358700028487
 20
-15.8157349101412
 30
0.0
 11
68.20358700028487
 21
-0.3574751627549588
 31
0.0
  0
TEXT
  5
2EC0
330
2E25
100
AcDbEntity
  8
0
100
AcDbText
 10
66.95400381081545
 20
-15.0458863393392
 30
0.0
 40
1.1055
  1
WORK ORDER: ( )
 50
90.0
 41
0.9
  7
ROMANS
100
AcDbText
  0
TEXT
  5
2EC1
330
2E25
100
AcDbEntity
  8
0
100
AcDbText
 10
68.61608700028489
 20
-12.31298166101246
 30
0.0
 40
1.1055
  1
CHECKED BY:
  7
ROMANS
100
AcDbText
  0
TEXT
  5
2EC2
330
2E25
100
AcDbEntity
  8
0
100
AcDbText
 10
68.61608700028489
 20
-2.007475162754943
 30
0.0
 40
1.1055
  1
DWG. CHECK
  7
ROMANS
100
AcDbText
  0
TEXT
  5
2EC3
330
2E25
100
AcDbEntity
  8
0
100
AcDbText
 10
68.61608700028489
 20
-7.160228411883704
 30
0.0
 40
1.1055
  1
BUILT BY:
  7
ROMANS
100
AcDbText
  0
ATTDEF
  5
2EC4
330
2E25
100
AcDbEntity
  8
0
 62
     5
100
AcDbText
 10
67.10558384847688
 20
-2.91900205731534
 30
0.0
 40
1.248161764705882
  1

 50
90.0
  7
ROMANS
 72
     4
 11
66.48150296612394
 21
-2.324639312217302
 31
0.0
100
AcDbAttributeDefinition
  3
WORK ORDER (X)
  2
X
 70
     0
  0
LINE
  5
2EC5
330
2E25
100
AcDbEntity
  8
0
 62
     5
100
AcDbLine
 10
99.70918001162193
 20
-15.8157349101412
 30
0.0
 11
99.70918001162193
 21
-0.3574751627549588
 31
0.0
  0
ATTDEF
  5
2EC6
330
2E25
100
AcDbEntity
  8
0
100
AcDbText
 10
110.1557855470704
 20
-9.800853431382623
 30
0.0
 40
1.769029714285714
  1

  7
ROMANS
 72
     1
 11
121.4859996695194
 21
-9.800853431382623
 31
0.0
100
AcDbAttributeDefinition
  3
PURCHASE ORDER
  2
PURCHASEORDER
 70
     0
  0
ATTDEF
  5
2EC7
330
2E25
100
AcDbEntity
  8
0
100
AcDbText
 10
115.2522759144173
 20
-14.95427586924506
 30
0.0
 40
1.769029714285714
  1
JEB
  7
ROMANS
 72
     1
 11
121.4859996695194
 21
-14.95427586924506
 31
0.0
100
AcDbAttributeDefinition
  3
WHO ARE YOU?
  2
DRAWNBY
 70
     0
  0
TEXT
  5
2EC8
330
2E25
100
AcDbEntity
  8
0
100
AcDbText
 10
100.1216800116219
 20
-12.31298166101246
 30
0.0
 40
1.1055
  1
DRAWN BY:
  7
ROMANS
100
AcDbText
  0
ATTDEF
  5
2EC9
330
2E25
100
AcDbEntity
  8
0
100
AcDbText
 10
113.6938449756418
 20
-4.647430993520281
 30
0.0
 40
1.769029714285714
  1

  7
ROMANS
 72
     1
 11
121.4859996695194
 21
-4.647430993520281
 31
0.0
100
AcDbAttributeDefinition
  3
ARCHITECT OR ENGINEER
  2
ARCHORENG
 70
     0
  0
TEXT
  5
2ECA
330
2E25
100
AcDbEntity
  8
0
100
AcDbText
 10
100.1216800116219
 20
-7.160228411883704
 30
0.0
 40
1.1055
  1
PURCHASE ORDER
  7
ROMANS
100
AcDbText
  0
TEXT
  5
2ECB
330
2E25
100
AcDbEntity
  8
0
100
AcDbText
 10
100.1216800116219
 20
-2.007475162754943
 30
0.0
 40
1.1055
  1
ARCH'T OR ENG'R.
  7
ROMANS
100
AcDbText
  0
LINE
  5
2ECC
330
2E25
100
AcDbEntity
  8
0
 62
     5
100
AcDbLine
 10
275.7091800116219
 20
-15.8157349101412
 30
0.0
 11
275.7091800116219
 21
182.1842650898588
 31
0.0
  0
TEXT
  5
2ECD
330
2E25
100
AcDbEntity
  8
0
100
AcDbText
 10
221.2616194531734
 20
-7.579661068182538
 30
0.0
 40
1.1055
  1
SERIAL#
  7
ROMANS
100
AcDbText
  0
TEXT
  5
2ECE
330
2E25
100
AcDbEntity
  8
0
100
AcDbText
 10
221.121680011622
 20
-2.007475162754943
 30
0.0
 40
1.1055
  1
PRECISION REP
  7
ROMANS
100
AcDbText
  0
ATTDEF
  5
2ECF
330
2E25
100
AcDbEntity
  8
0
100
AcDbText
 10
180.2795199144173
 20
-14.95427586924496
 30
0.0
 40
1.769029714285714
  1

  7
ROMANS
 72
     1
 11
184.7442139552337
 21
-14.95427586924496
 31
0.0
100
AcDbAttributeDefinition
  3
MODEL #
  2
MODEL
 70
     0
  0
ATTDEF
  5
2ED0
330
2E25
100
AcDbEntity
  8
0
100
AcDbText
 10
176.1392108531929
 20
-4.647430993520281
 30
0.0
 40
1.769029714285714
  1

  7
ROMANS
 72
     1
 11
181.9938568123766
 21
-4.647430993520281
 31
0.0
100
AcDbAttributeDefinition
  3
PROJECT
  2
PROJECT
 70
     0
  0
LINE
  5
2ED1
330
2E25
100
AcDbEntity
  8
0
 62
     5
100
AcDbLine
 10
143.7091800116219
 20
-15.8157349101412
 30
0.0
 11
143.7091800116219
 21
-0.3574751627549588
 31
0.0
  0
LINE
  5
2ED2
330
2E25
100
AcDbEntity
  8
0
 62
     5
100
AcDbLine
 10
160.2091800116219
 20
-15.8157349101412
 30
0.0
 11
160.2091800116219
 21
-5.510228411883719
 31
0.0
  0
ATTDEF
  5
2ED3
330
2E25
100
AcDbEntity
  8
0
100
AcDbText
 10
148.5388268531929
 20
-9.800853431382623
 30
0.0
 40
1.769029714285714
  1

  7
ROMANS
 72
     1
 11
151.739928240948
 21
-9.800853431382623
 31
0.0
100
AcDbAttributeDefinition
  3
WORK ORDER DATE?
  2
DATE
 70
     0
  0
ATTDEF
  5
2ED4
330
2E25
100
AcDbEntity
  8
0
100
AcDbText
 10
148.5388268531929
 20
-14.95427586924506
 30
0.0
 40
1.769029714285714
  1

  7
ROMANS
 72
     1
 11
151.739928240948
 21
-14.95427586924506
 31
0.0
100
AcDbAttributeDefinition
  3
WHAT IS TODAY'S DATE?
  2
DATE
 70
     0
  0
TEXT
  5
2ED5
330
2E25
100
AcDbEntity
  8
0
100
AcDbText
 10
144.1216800116219
 20
-12.31298166101246
 30
0.0
 40
1.1055
  1
DATE
  7
ROMANS
100
AcDbText
  0
TEXT
  5
2ED6
330
2E25
100
AcDbEntity
  8
0
100
AcDbText
 10
160.6216800116219
 20
-12.31298166101246
 30
0.0
 40
1.1055
  1
MODEL#
  7
ROMANS
100
AcDbText
  0
TEXT
  5
2ED7
330
2E25
100
AcDbEntity
  8
0
100
AcDbText
 10
144.1216800116219
 20
-2.007475162754943
 30
0.0
 40
1.1055
  1
PROJECT
  7
ROMANS
100
AcDbText
  0
TEXT
  5
2ED8
330
2E25
100
AcDbEntity
  8
0
100
AcDbText
 10
144.1216800116219
 20
-7.160228411883704
 30
0.0
 40
1.1055
  1
DATE
  7
ROMANS
100
AcDbText
  0
TEXT
  5
2ED9
330
2E25
100
AcDbEntity
  8
0
100
AcDbText
 10
160.6216800116219
 20
-7.160228411883704
 30
0.0
 40
1.1055
  1
PURCHASER
  7
ROMANS
100
AcDbText
  0
LINE
  5
2EDA
330
2E25
100
AcDbEntity
  8
0
 62
     5
100
AcDbLine
 10
220.709180011622
 20
-15.8157349101412
 30
0.0
 11
220.709180011622
 21
-0.3574751627549588
 31
0.0
  0
ATTDEF
  5
2EDB
330
2E25
100
AcDbEntity
  8
0
100
AcDbText
 10
182.4106537919683
 20
-9.800853431382623
 30
0.0
 40
1.769029714285714
  1

  7
ROMANS
 72
     1
 11
190.2449282409479
 21
-9.800853431382623
 31
0.0
100
AcDbAttributeDefinition
  3
PURCHASER
  2
PURCHASER
 70
     0
  0
ATTDEF
  5
2EDC
330
2E25
100
AcDbEntity
  8
0
100
AcDbText
 10
212.5551967307439
 20
-14.95427586924506
 30
0.0
 40
1.769029714285714
  1
1
  7
ROMANS
 72
     1
 11
214.9981425266622
 21
-14.95427586924506
 31
0.0
100
AcDbAttributeDefinition
  3
QUANTITY
  2
QTY
 70
     0
  0
LINE
  5
2EDD
330
2E25
100
AcDbEntity
  8
0
 62
     5
100
AcDbLine
 10
209.709180011622
 20
-15.8157349101412
 30
0.0
 11
209.709180011622
 21
-10.66298166101244
 31
0.0
  0
TEXT
  5
2EDE
330
2E25
100
AcDbEntity
  8
0
100
AcDbText
 10
210.121680011622
 20
-12.31298166101246
 30
0.0
 40
1.1055
  1
QTY.
  7
ROMANS
100
AcDbText
  0
ATTDEF
  5
2EDF
330
2E25
100
AcDbEntity
  8
0
100
AcDbText
 10
262.6630963653972
 20
1.154414359320043
 30
0.0
 40
1.7518359375
  1

  7
ROMANS
 72
     4
 11
268.2522872136114
 21
2.030332328070045
 31
0.0
100
AcDbAttributeDefinition
  3
SAVED AS
  2
SAVEDAS
 70
     0
  0
ATTDEF
  5
2EE0
330
2E25
100
AcDbEntity
  8
0
100
AcDbText
 10
236.6840073182527
 20
-12.6624962247139
 30
0.0
 40
3.455136160714285
  1

  7
ROMANS
 72
     1
 11
248.0365975605996
 21
-12.6624962247139
 31
0.0
100
AcDbAttributeDefinition
  3
SERIAL #
  2
L010000
 70
     0
  0
ATTDEF
  5
2EE1
330
2E25
100
AcDbEntity
  8
0
100
AcDbText
 10
245.3910034246215
 20
-4.648100182253863
 30
0.0
 40
1.769029714285714
  1

  7
ROMANS
 72
     1
 11
248.002428240948
 21
-4.648100182253863
 31
0.0
100
AcDbAttributeDefinition
  3
PRECISION REP
  2
REP
 70
     0
  0
ENDBLK
  5
2EE3
330
2E25
100
AcDbEntity
  8
0
100
AcDbBlockEnd
  0
BLOCK
  5
3621
330
3616
100
AcDbEntity
  8
0
100
AcDbBlockBegin
  2
*D3
 70
     1
 10
0.0
 20
0.0
 30
0.0
  3
*D3
  1

  0
LINE
  5
505B
330
3616
100
AcDbEntity
  8
0
 62
     0
370
    -2
100
AcDbLine
 10
314.9559909392693
 20
10.24751183211855
 30
0.0
 11
314.9559909392693
 21
2.964159468675612
 31
0.0
  0
LINE
  5
505C
330
3616
100
AcDbEntity
  8
0
 62
     0
370
    -2
100
AcDbLine
 10
342.9559909392693
 20
10.24751183211852
 30
0.0
 11
342.9559909392693
 21
2.964159468675562
 31
0.0
  0
LINE
  5
505D
330
3616
100
AcDbEntity
  8
0
 62
     0
370
    -2
100
AcDbLine
 10
316.8309909392693
 20
4.839159468675608
 30
0.0
 11
323.2863480821265
 21
4.839159468675597
 31
0.0
  0
LINE
  5
505E
330
3616
100
AcDbEntity
  8
0
 62
     0
370
    -2
100
AcDbLine
 10
341.0809909392693
 20
4.839159468675566
 30
0.0
 11
334.6256337964121
 21
4.839159468675577
 31
0.0
  0
SOLID
  5
505F
330
3616
100
AcDbEntity
  8
0
 62
     0
100
AcDbTrace
 10
316.8309909392693
 20
5.151659468675608
 30
0.0
 11
316.8309909392693
 21
4.526659468675608
 31
0.0
 12
314.9559909392693
 22
4.839159468675612
 32
0.0
 13
314.9559909392693
 23
4.839159468675612
 33
0.0
  0
SOLID
  5
5060
330
3616
100
AcDbEntity
  8
0
 62
     0
100
AcDbTrace
 10
341.0809909392693
 20
5.151659468675566
 30
0.0
 11
341.0809909392693
 21
4.526659468675566
 31
0.0
 12
342.9559909392693
 22
4.839159468675562
 32
0.0
 13
342.9559909392693
 23
4.839159468675562
 33
0.0
  0
MTEXT
  5
5061
330
3616
100
AcDbEntity
  8
0
 62
     0
100
AcDbMText
 10
328.9559909392693
 20
4.839159468675587
 30
0.0
 40
1.875
 41
0.0
 71
     5
 72
     1
  1
\A1;2'-4"
  7
ROMANS
 73
     1
 44
1.0
1001
ACAD
1000
MTEXTBEGIN
1070
    73
1070
     1
1070
    44
1040
1.0
1070
    74
1070
     0
1000
MTEXTEND
  0
POINT
  5
5062
330
3616
100
AcDbEntity
  8
DEFPOINTS
 62
     0
100
AcDbPoint
 10
314.9559909392693
 20
12.12251183211911
 30
0.0
  0
POINT
  5
5063
330
3616
100
AcDbEntity
  8
DEFPOINTS
 62
     0
100
AcDbPoint
 10
342.9559909392693
 20
12.12251183211913
 30
0.0
  0
POINT
  5
5064
330
3616
100
AcDbEntity
  8
DEFPOINTS
 62
     0
100
AcDbPoint
 10
342.9559909392693
 20
4.839159468676172
 30
0.0
  0
ENDBLK
  5
3622
330
3616
100
AcDbEntity
  8
0
100
AcDbBlockEnd
  0
BLOCK
  5
3696
330
368B
100
AcDbEntity
  8
0
100
AcDbBlockBegin
  2
*D4
 70
     1
 10
0.0
 20
0.0
 30
0.0
  3
*D4
  1

  0
LINE
  5
5065
330
368B
100
AcDbEntity
  8
0
 62
     0
370
    -2
100
AcDbLine
 10
389.4025759283926
 20
123.7529930453784
 30
0.0
 11
389.4025759283926
 21
116.2337591332863
 31
0.0
  0
LINE
  5
5066
330
368B
100
AcDbEntity
  8
0
 62
     0
370
    -2
100
AcDbLine
 10
412.2539290184571
 20
123.7529930453784
 30
0.0
 11
412.2539290184571
 21
116.2337591332863
 31
0.0
  0
LINE
  5
5067
330
368B
100
AcDbEntity
  8
0
 62
     0
370
    -2
100
AcDbLine
 10
387.5275759283926
 20
118.1087591332863
 30
0.0
 11
385.6525759283926
 21
118.1087591332863
 31
0.0
  0
LINE
  5
5068
330
368B
100
AcDbEntity
  8
0
 62
     0
370
    -2
100
AcDbLine
 10
414.1289290184571
 20
118.1087591332863
 30
0.0
 11
416.0039290184571
 21
118.1087591332863
 31
0.0
  0
SOLID
  5
5069
330
368B
100
AcDbEntity
  8
0
 62
     0
100
AcDbTrace
 10
387.5275759283926
 20
118.4212591332863
 30
0.0
 11
387.5275759283926
 21
117.7962591332863
 31
0.0
 12
389.4025759283926
 22
118.1087591332863
 32
0.0
 13
389.4025759283926
 23
118.1087591332863
 33
0.0
  0
SOLID
  5
506A
330
368B
100
AcDbEntity
  8
0
 62
     0
100
AcDbTrace
 10
414.1289290184571
 20
118.4212591332863
 30
0.0
 11
414.1289290184571
 21
117.7962591332863
 31
0.0
 12
412.2539290184571
 22
118.1087591332863
 32
0.0
 13
412.2539290184571
 23
118.1087591332863
 33
0.0
  0
MTEXT
  5
506B
330
368B
100
AcDbEntity
  8
0
 62
     0
100
AcDbMText
 10
400.8282524734248
 20
118.1087591332863
 30
0.0
 40
1.875
 41
0.0
 71
     5
 72
     1
  1
\A1;11-7/8"\PWIDE
  7
ROMANS
 73
     1
 44
1.0
1001
ACAD
1000
MTEXTBEGIN
1070
    73
1070
     1
1070
    44
1040
1.0
1070
    74
1070
     0
1000
MTEXTEND
  0
POINT
  5
506C
330
368B
100
AcDbEntity
  8
DEFPOINTS
 62
     0
100
AcDbPoint
 10
389.4025759283924
 20
125.6279930453791
 30
0.0
  0
POINT
  5
506D
330
368B
100
AcDbEntity
  8
DEFPOINTS
 62
     0
100
AcDbPoint
 10
412.2539290184569
 20
125.6279930453792
 30
0.0
  0
POINT
  5
506E
330
368B
100
AcDbEntity
  8
DEFPOINTS
 62
     0
100
AcDbPoint
 10
412.2539290184569
 20
118.108759133287
 30
0.0
  0
ENDBLK
  5
3697
330
368B
100
AcDbEntity
  8
0
100
AcDbBlockEnd
  0
BLOCK
  5
3802
330
3801
100
AcDbEntity
  8
0
100
AcDbBlockBegin
  2
Ldr-trd
 70
     0
 10
0.0
 20
0.0
 30
0.0
  3
Ldr-trd
  1

  0
LWPOLYLINE
  5
3803
330
3801
100
AcDbEntity
  8
0
  6
HIDDEN
100
AcDbPolyline
 90
        8
 70
     1
 43
0.0
 10
-0.75
 20
-0.75
 10
-1.125
 20
-0.75
 10
-1.125
 20
0.0
 10
1.125
 20
0.0000000000000284
 10
1.125
 20
-0.7499999999999716
 10
0.75
 20
-0.75
 10
0.75
 20
-0.21132790639885
 10
-0.75
 20
-0.21132790639885
  0
ENDBLK
  5
3804
330
3801
100
AcDbEntity
  8
0
100
AcDbBlockEnd
  0
BLOCK
  5
3EE8
330
3EDD
100
AcDbEntity
  8
0
100
AcDbBlockBegin
  2
*D6
 70
     1
 10
0.0
 20
0.0
 30
0.0
  3
*D6
  1

  0
LINE
  5
52DD
330
3EDD
100
AcDbEntity
  8
0
 62
     0
370
    -2
100
AcDbLine
 10
190.4891993629725
 20
130.842985299639
 30
0.0
 11
190.4891993629725
 21
134.9185407691611
 31
0.0
  0
LINE
  5
52DE
330
3EDD
100
AcDbEntity
  8
0
 62
     0
370
    -2
100
AcDbLine
 10
227.4927539323529
 20
130.8429852996389
 30
0.0
 11
227.4927539323529
 21
134.9185407691611
 31
0.0
  0
LINE
  5
52DF
330
3EDD
100
AcDbEntity
  8
0
 62
     0
370
    -2
100
AcDbLine
 10
192.3641993629725
 20
133.0435407691611
 30
0.0
 11
200.1070480762341
 21
133.0435407691611
 31
0.0
  0
LINE
  5
52E0
330
3EDD
100
AcDbEntity
  8
0
 62
     0
370
    -2
100
AcDbLine
 10
225.6177539323529
 20
133.0435407691611
 30
0.0
 11
217.8749052190913
 21
133.0435407691611
 31
0.0
  0
SOLID
  5
52E1
330
3EDD
100
AcDbEntity
  8
0
 62
     0
100
AcDbTrace
 10
192.3641993629725
 20
133.3560407691611
 30
0.0
 11
192.3641993629725
 21
132.7310407691611
 31
0.0
 12
190.4891993629725
 22
133.0435407691611
 32
0.0
 13
190.4891993629725
 23
133.0435407691611
 33
0.0
  0
SOLID
  5
52E2
330
3EDD
100
AcDbEntity
  8
0
 62
     0
100
AcDbTrace
 10
225.6177539323529
 20
133.3560407691611
 30
0.0
 11
225.6177539323529
 21
132.7310407691611
 31
0.0
 12
227.4927539323529
 22
133.0435407691611
 32
0.0
 13
227.4927539323529
 23
133.0435407691611
 33
0.0
  0
MTEXT
  5
52E3
330
3EDD
100
AcDbEntity
  8
0
 62
     0
100
AcDbMText
 10
208.9909766476627
 20
133.0435407691611
 30
0.0
 40
1.875
 41
0.0
 71
     5
 72
     1
  1
\A1;9-13/16"
  7
ROMANS
 73
     1
 44
1.0
1001
ACAD
1000
MTEXTBEGIN
1070
    73
1070
     1
1070
    44
1040
1.0
1070
    74
1070
     0
1000
MTEXTEND
  0
POINT
  5
52E4
330
3EDD
100
AcDbEntity
  8
DEFPOINTS
 62
     0
100
AcDbPoint
 10
190.4891993629725
 20
128.967985299639
 30
0.0
  0
POINT
  5
52E5
330
3EDD
100
AcDbEntity
  8
DEFPOINTS
 62
     0
100
AcDbPoint
 10
227.4927539323529
 20
128.9679852996389
 30
0.0
  0
POINT
  5
52E6
330
3EDD
100
AcDbEntity
  8
DEFPOINTS
 62
     0
100
AcDbPoint
 10
227.4927539323529
 20
133.0435407691611
 30
0.0
  0
ENDBLK
  5
3EE9
330
3EDD
100
AcDbEntity
  8
0
100
AcDbBlockEnd
  0
BLOCK
  5
3EF4
330
3EEA
100
AcDbEntity
  8
0
100
AcDbBlockBegin
  2
*D7
 70
     1
 10
0.0
 20
0.0
 30
0.0
  3
*D7
  1

  0
LINE
  5
52E7
330
3EEA
100
AcDbEntity
  8
0
 62
     0
370
    -2
100
AcDbLine
 10
229.3677539323529
 20
128.9679852996389
 30
0.0
 11
235.5713392764438
 21
128.9679852996389
 31
0.0
  0
LINE
  5
52E8
330
3EEA
100
AcDbEntity
  8
0
 62
     0
370
    -2
100
AcDbLine
 10
229.3677539323529
 20
123.4322486916231
 30
0.0
 11
235.5713392764438
 21
123.4322486916231
 31
0.0
  0
LINE
  5
52E9
330
3EEA
100
AcDbEntity
  8
0
 62
     0
370
    -2
100
AcDbLine
 10
233.6963392764438
 20
130.8429852996389
 30
0.0
 11
233.6963392764438
 21
132.7179852996389
 31
0.0
  0
LINE
  5
52EA
330
3EEA
100
AcDbEntity
  8
0
 62
     0
370
    -2
100
AcDbLine
 10
233.6963392764438
 20
121.557248691623
 30
0.0
 11
233.6963392764438
 21
119.682248691623
 31
0.0
  0
MTEXT
  5
52EB
330
3EEA
100
AcDbEntity
  8
0
 62
     0
100
AcDbMText
 10
233.9324057747441
 20
125.8015496384368
 30
0.0
 40
1.875
 41
0.0
 71
     5
 72
     1
  1
\A1;1"
  7
ROMANS
 73
     1
 44
1.0
1001
ACAD
1000
MTEXTBEGIN
1070
    73
1070
     1
1070
    44
1040
1.0
1070
    74
1070
     0
1000
MTEXTEND
  0
SOLID
  5
52EC
330
3EEA
100
AcDbEntity
  8
0
 62
     0
100
AcDbTrace
 10
233.3838392764438
 20
130.8429852996389
 30
0.0
 11
234.0088392764438
 21
130.8429852996389
 31
0.0
 12
233.6963392764438
 22
128.9679852996389
 32
0.0
 13
233.6963392764438
 23
128.9679852996389
 33
0.0
  0
SOLID
  5
52ED
330
3EEA
100
AcDbEntity
  8
0
 62
     0
100
AcDbTrace
 10
233.3838392764438
 20
121.557248691623
 30
0.0
 11
234.0088392764438
 21
121.557248691623
 31
0.0
 12
233.6963392764438
 22
123.4322486916231
 32
0.0
 13
233.6963392764438
 23
123.4322486916231
 33
0.0
  0
POINT
  5
52EE
330
3EEA
100
AcDbEntity
  8
DEFPOINTS
 62
     0
100
AcDbPoint
 10
227.4927539323529
 20
128.9679852996389
 30
0.0
  0
POINT
  5
52EF
330
3EEA
100
AcDbEntity
  8
DEFPOINTS
 62
     0
100
AcDbPoint
 10
227.4927539323529
 20
123.4322486916231
 30
0.0
  0
POINT
  5
52F0
330
3EEA
100
AcDbEntity
  8
DEFPOINTS
 62
     0
100
AcDbPoint
 10
233.6963392764438
 20
123.4322486916231
 30
0.0
  0
ENDBLK
  5
3EF5
330
3EEA
100
AcDbEntity
  8
0
100
AcDbBlockEnd
  0
BLOCK
  5
3FB8
330
3FAD
100
AcDbEntity
  8
0
100
AcDbBlockBegin
  2
*D8
 70
     1
 10
0.0
 20
0.0
 30
0.0
  3
*D8
  1

  0
LINE
  5
4FF0
330
3FAD
100
AcDbEntity
  8
0
 62
     0
370
    -2
100
AcDbLine
 10
414.1289290184571
 20
125.6279930453785
 30
0.0
 11
426.8072584411306
 21
125.6279930453785
 31
0.0
  0
LINE
  5
4FF1
330
3FAD
100
AcDbEntity
  8
0
 62
     0
370
    -2
100
AcDbLine
 10
414.1289290184571
 20
145.947816459427
 30
0.0
 11
426.8072584411306
 21
145.947816459427
 31
0.0
  0
LINE
  5
4FF2
330
3FAD
100
AcDbEntity
  8
0
 62
     0
370
    -2
100
AcDbLine
 10
424.9322584411307
 20
127.5029930453785
 30
0.0
 11
424.9322584411307
 21
131.2343333238313
 31
0.0
  0
LINE
  5
4FF3
330
3FAD
100
AcDbEntity
  8
0
 62
     0
370
    -2
100
AcDbLine
 10
424.9322584411307
 20
144.0728164594269
 30
0.0
 11
424.9322584411307
 21
140.3414761809741
 31
0.0
  0
SOLID
  5
4FF4
330
3FAD
100
AcDbEntity
  8
0
 62
     0
100
AcDbTrace
 10
424.6197584411306
 20
127.5029930453785
 30
0.0
 11
425.2447584411306
 21
127.5029930453785
 31
0.0
 12
424.9322584411307
 22
125.6279930453785
 32
0.0
 13
424.9322584411307
 23
125.6279930453785
 33
0.0
  0
SOLID
  5
4FF5
330
3FAD
100
AcDbEntity
  8
0
 62
     0
100
AcDbTrace
 10
424.6197584411307
 20
144.0728164594269
 30
0.0
 11
425.2447584411306
 21
144.0728164594269
 31
0.0
 12
424.9322584411307
 22
145.947816459427
 32
0.0
 13
424.9322584411307
 23
145.947816459427
 33
0.0
  0
MTEXT
  5
4FF6
330
3FAD
100
AcDbEntity
  8
0
 62
     0
100
AcDbMText
 10
424.9322584411307
 20
135.7879047524027
 30
0.0
 40
1.875
 41
0.0
 71
     5
 72
     1
  1
\A1;9-13/16"\PDEEP
  7
ROMANS
 73
     1
 44
1.0
1001
ACAD
1000
MTEXTBEGIN
1070
    73
1070
     1
1070
    44
1040
1.0
1070
    74
1070
     0
1000
MTEXTEND
  0
POINT
  5
4FF7
330
3FAD
100
AcDbEntity
  8
DEFPOINTS
 62
     0
100
AcDbPoint
 10
412.2539290184569
 20
125.6279930453792
 30
0.0
  0
POINT
  5
4FF8
330
3FAD
100
AcDbEntity
  8
DEFPOINTS
 62
     0
100
AcDbPoint
 10
412.2539290184569
 20
145.9478164594276
 30
0.0
  0
POINT
  5
4FF9
330
3FAD
100
AcDbEntity
  8
DEFPOINTS
 62
     0
100
AcDbPoint
 10
424.9322584411305
 20
145.9478164594276
 30
0.0
  0
ENDBLK
  5
3FB9
330
3FAD
100
AcDbEntity
  8
0
100
AcDbBlockEnd
  0
BLOCK
  5
49B6
330
49B3
100
AcDbEntity
  8
0
100
AcDbBlockBegin
  2
A$C451C0C06
 70
     0
 10
0.0
 20
0.0
 30
0.0
  3
A$C451C0C06
  1

  0
LINE
  5
49B7
330
49B3
100
AcDbEntity
  8
0
 62
     7
100
AcDbLine
 10
-123.168651076871
 20
16.08718810456291
 30
0.0
 11
-113.3561510768709
 21
16.08718810456295
 31
0.0
  0
LINE
  5
49B8
330
49B3
100
AcDbEntity
  8
0
 62
     6
100
AcDbLine
 10
-118.0826483849747
 20
16.08718810456293
 30
0.0
 11
-113.356151076871
 21
16.08718810456298
 31
0.0
  0
LINE
  5
49B9
330
49B3
100
AcDbEntity
  8
0
100
AcDbLine
 10
-123.168651076871
 20
16.08718810456291
 30
0.0
 11
-113.356151076871
 21
16.08718810456295
 31
0.0
  0
LINE
  5
49BA
330
49B3
100
AcDbEntity
  8
0
100
AcDbLine
 10
-121.9186510768709
 20
14.77468810456291
 30
0.0
 11
-121.6686510768709
 21
14.77468810456294
 31
0.0
  0
LINE
  5
49BB
330
49B3
100
AcDbEntity
  8
0
100
AcDbLine
 10
-120.7311510768709
 20
14.77468810456294
 30
0.0
 11
-120.4811510768709
 21
14.77468810456295
 31
0.0
  0
LINE
  5
49BC
330
49B3
100
AcDbEntity
  8
0
100
AcDbLine
 10
-119.5436510768709
 20
14.77468810456295
 30
0.0
 11
-119.2936510768709
 21
14.77468810456295
 31
0.0
  0
LINE
  5
49BD
330
49B3
100
AcDbEntity
  8
0
100
AcDbLine
 10
-118.3561510768709
 20
14.77468810456295
 30
0.0
 11
-118.1061510768709
 21
14.77468810456295
 31
0.0
  0
LINE
  5
49BE
330
49B3
100
AcDbEntity
  8
0
100
AcDbLine
 10
-117.1686510768709
 20
14.77468810456295
 30
0.0
 11
-116.9186510768709
 21
14.77468810456295
 31
0.0
  0
LINE
  5
49BF
330
49B3
100
AcDbEntity
  8
0
100
AcDbLine
 10
-115.9811510768709
 20
14.77468810456295
 30
0.0
 11
-115.7311510768709
 21
14.77468810456295
 31
0.0
  0
LINE
  5
49C0
330
49B3
100
AcDbEntity
  8
0
100
AcDbLine
 10
-114.7936510768709
 20
14.77468810456295
 30
0.0
 11
-114.5436510768709
 21
14.77468810456295
 31
0.0
  0
LINE
  5
49C1
330
49B3
100
AcDbEntity
  8
0
100
AcDbLine
 10
-113.6061510768709
 20
14.77468810456295
 30
0.0
 11
-113.356151076871
 21
14.77468810456295
 31
0.0
  0
LINE
  5
49C2
330
49B3
100
AcDbEntity
  8
0
100
AcDbLine
 10
-123.168651076871
 20
14.83718810456291
 30
0.0
 11
-122.9186510768709
 21
14.83718810456291
 31
0.0
  0
LINE
  5
49C3
330
49B3
100
AcDbEntity
  8
0
100
AcDbLine
 10
-122.9186510768709
 20
15.83718810456294
 30
0.0
 11
-121.9186510768709
 21
15.83718810456294
 31
0.0
  0
LINE
  5
49C4
330
49B3
100
AcDbEntity
  8
0
100
AcDbLine
 10
-123.168651076871
 20
13.08718810456291
 30
0.0
 11
-113.356151076871
 21
13.08718810456295
 31
0.0
  0
LINE
  5
49C5
330
49B3
100
AcDbEntity
  8
0
100
AcDbLine
 10
-123.1686510768709
 20
16.08718810456291
 30
0.0
 11
-123.1686510768709
 21
13.08718810456291
 31
0.0
  0
LINE
  5
49C6
330
49B3
100
AcDbEntity
  8
0
100
AcDbLine
 10
-121.9186510768709
 20
16.08718810456291
 30
0.0
 11
-121.9186510768709
 21
14.77468810456294
 31
0.0
  0
LINE
  5
49C7
330
49B3
100
AcDbEntity
  8
0
100
AcDbLine
 10
-120.7311510768709
 20
16.08718810456291
 30
0.0
 11
-120.7311510768709
 21
14.77468810456294
 31
0.0
  0
LINE
  5
49C8
330
49B3
100
AcDbEntity
  8
0
100
AcDbLine
 10
-121.6686510768709
 20
16.08718810456291
 30
0.0
 11
-121.6686510768709
 21
14.77468810456294
 31
0.0
  0
LINE
  5
49C9
330
49B3
100
AcDbEntity
  8
0
100
AcDbLine
 10
-122.9186510768709
 20
15.83718810456294
 30
0.0
 11
-122.9186510768709
 21
14.83718810456294
 31
0.0
  0
LINE
  5
49CA
330
49B3
100
AcDbEntity
  8
0
100
AcDbLine
 10
-120.4811510768709
 20
16.08718810456293
 30
0.0
 11
-120.4811510768709
 21
14.77468810456295
 31
0.0
  0
LINE
  5
49CB
330
49B3
100
AcDbEntity
  8
0
100
AcDbLine
 10
-119.5436510768709
 20
16.08718810456293
 30
0.0
 11
-119.5436510768709
 21
14.77468810456295
 31
0.0
  0
LINE
  5
49CC
330
49B3
100
AcDbEntity
  8
0
100
AcDbLine
 10
-119.2936510768709
 20
16.08718810456293
 30
0.0
 11
-119.2936510768709
 21
14.77468810456295
 31
0.0
  0
LINE
  5
49CD
330
49B3
100
AcDbEntity
  8
0
100
AcDbLine
 10
-118.3561510768709
 20
16.08718810456293
 30
0.0
 11
-118.3561510768709
 21
14.77468810456295
 31
0.0
  0
LINE
  5
49CE
330
49B3
100
AcDbEntity
  8
0
100
AcDbLine
 10
-118.1061510768709
 20
16.08718810456293
 30
0.0
 11
-118.1061510768709
 21
14.77468810456295
 31
0.0
  0
LINE
  5
49CF
330
49B3
100
AcDbEntity
  8
0
100
AcDbLine
 10
-117.1686510768709
 20
16.08718810456293
 30
0.0
 11
-117.1686510768709
 21
14.77468810456298
 31
0.0
  0
LINE
  5
49D0
330
49B3
100
AcDbEntity
  8
0
100
AcDbLine
 10
-116.9186510768709
 20
16.08718810456293
 30
0.0
 11
-116.9186510768709
 21
14.77468810456298
 31
0.0
  0
LINE
  5
49D1
330
49B3
100
AcDbEntity
  8
0
100
AcDbLine
 10
-115.9811510768709
 20
16.08718810456295
 30
0.0
 11
-115.9811510768709
 21
14.77468810456298
 31
0.0
  0
LINE
  5
49D2
330
49B3
100
AcDbEntity
  8
0
100
AcDbLine
 10
-115.7311510768709
 20
16.08718810456295
 30
0.0
 11
-115.7311510768709
 21
14.77468810456298
 31
0.0
  0
LINE
  5
49D3
330
49B3
100
AcDbEntity
  8
0
100
AcDbLine
 10
-114.7936510768709
 20
16.08718810456295
 30
0.0
 11
-114.7936510768709
 21
14.77468810456298
 31
0.0
  0
LINE
  5
49D4
330
49B3
100
AcDbEntity
  8
0
100
AcDbLine
 10
-114.5436510768709
 20
16.08718810456295
 30
0.0
 11
-114.5436510768709
 21
14.77468810456298
 31
0.0
  0
LINE
  5
49D5
330
49B3
100
AcDbEntity
  8
0
100
AcDbLine
 10
-113.6061510768709
 20
16.08718810456293
 30
0.0
 11
-113.6061510768709
 21
14.77468810456298
 31
0.0
  0
LINE
  5
49D6
330
49B3
100
AcDbEntity
  8
0
100
AcDbLine
 10
-113.3561510768709
 20
16.08718810456293
 30
0.0
 11
-113.3561510768709
 21
13.08718810456293
 31
0.0
  0
ENDBLK
  5
49D7
330
49B3
100
AcDbEntity
  8
0
100
AcDbBlockEnd
  0
BLOCK
  5
4AFD
330
4AF2
100
AcDbEntity
  8
0
100
AcDbBlockBegin
  2
*D10
 70
     1
 10
0.0
 20
0.0
 30
0.0
  3
*D10
  1

  0
ARC
  5
51C6
330
4AF2
100
AcDbEntity
  8
0
 62
     0
370
    -2
100
AcDbCircle
 10
236.0576087329677
 20
12.12251183211933
 30
0.0
 40
12.00688194657612
100
AcDbArc
 50
7.162530355304958
 51
60.83746964469518
  0
SOLID
  5
51C7
330
4AF2
100
AcDbEntity
  8
0
 62
     0
100
AcDbTrace
 10
248.2203062155826
 20
13.63519868627284
 30
0.0
 11
247.7212826122874
 21
13.60396659773658
 31
0.0
 12
248.0644906795438
 22
12.1225118321193
 32
0.0
 13
248.0644906795438
 23
12.1225118321193
 33
0.0
  0
SOLID
  5
51C8
330
4AF2
100
AcDbEntity
  8
0
 62
     0
100
AcDbTrace
 10
241.8004788115652
 20
22.3819192149093
 30
0.0
 11
242.0163742318649
 21
22.83290609664047
 31
0.0
 12
240.5554658765216
 22
23.25509891667416
 32
0.0
 13
240.5554658765216
 23
23.25509891667416
 33
0.0
  0
MTEXT
  5
51C9
330
4AF2
100
AcDbEntity
  8
0
 62
     0
100
AcDbMText
 10
258.0229517363794
 20
24.19888194708841
 30
0.0
 40
2.16
 41
0.0
 71
     5
 72
     1
  1
\A1;68° STANDARD\P56° AVAILABLE
  7
ROMANS
 73
     1
 44
1.0
1001
ACAD
1000
MTEXTBEGIN
1070
    73
1070
     1
1070
    44
1040
1.0
1070
    74
1070
     0
1000
MTEXTEND
  0
POINT
  5
51CA
330
4AF2
100
AcDbEntity
  8
DEFPOINTS
 62
     0
100
AcDbPoint
 10
244.4982193001568
 20
20.66190919563805
 30
0.0
  0
POINT
  5
51CB
330
4AF2
100
AcDbEntity
  8
DEFPOINTS
 62
     0
100
AcDbPoint
 10
251.5283016502951
 20
12.1225118321193
 30
0.0
  0
POINT
  5
51CC
330
4AF2
100
AcDbEntity
  8
DEFPOINTS
 62
     0
100
AcDbPoint
 10
236.1586152894265
 20
12.37251183211929
 30
0.0
  0
POINT
  5
51CD
330
4AF2
100
AcDbEntity
  8
DEFPOINTS
 62
     0
100
AcDbPoint
 10
274.7807622971645
 20
107.9656801416835
 30
0.0
  0
POINT
  5
51CE
330
4AF2
100
AcDbEntity
  8
DEFPOINTS
 62
     0
100
AcDbPoint
 10
233.3966363526347
 20
12.12251183211931
 30
0.0
  0
ENDBLK
  5
4AFE
330
4AF2
100
AcDbEntity
  8
0
100
AcDbBlockEnd
  0
BLOCK
  5
4B6F
330
4B64
100
AcDbEntity
  8
0
100
AcDbBlockBegin
  2
*D11
 70
     1
 10
0.0
 20
0.0
 30
0.0
  3
*D11
  1

  0
LINE
  5
531B
330
4B64
100
AcDbEntity
  8
0
 62
     0
370
    -2
100
AcDbLine
 10
227.3966363526346
 20
10.24751183211891
 30
0.0
 11
227.3966363526345
 21
5.163073436089796
 31
0.0
  0
LINE
  5
531C
330
4B64
100
AcDbEntity
  8
0
 62
     0
370
    -2
100
AcDbLine
 10
275.0307622971643
 20
10.24751183211875
 30
0.0
 11
275.0307622971643
 21
5.163073436089712
 31
0.0
  0
LINE
  5
531D
330
4B64
100
AcDbEntity
  8
0
 62
     0
370
    -2
100
AcDbLine
 10
229.2716363526345
 20
7.038073436089793
 30
0.0
 11
244.8744136106137
 21
7.038073436089765
 31
0.0
  0
LINE
  5
531E
330
4B64
100
AcDbEntity
  8
0
 62
     0
370
    -2
100
AcDbLine
 10
273.1557622971644
 20
7.038073436089716
 30
0.0
 11
257.5529850391852
 21
7.038073436089743
 31
0.0
  0
SOLID
  5
531F
330
4B64
100
AcDbEntity
  8
0
 62
     0
100
AcDbTrace
 10
229.2716363526345
 20
7.350573436089793
 30
0.0
 11
229.2716363526345
 21
6.725573436089793
 31
0.0
 12
227.3966363526345
 22
7.038073436089796
 32
0.0
 13
227.3966363526345
 23
7.038073436089796
 33
0.0
  0
SOLID
  5
5320
330
4B64
100
AcDbEntity
  8
0
 62
     0
100
AcDbTrace
 10
273.1557622971644
 20
7.350573436089716
 30
0.0
 11
273.1557622971644
 21
6.725573436089716
 31
0.0
 12
275.0307622971643
 22
7.038073436089712
 32
0.0
 13
275.0307622971643
 23
7.038073436089712
 33
0.0
  0
MTEXT
  5
5321
330
4B64
100
AcDbEntity
  8
0
 62
     0
100
AcDbMText
 10
251.2136993248994
 20
7.038073436089755
 30
0.0
 40
1.875
 41
0.0
 71
     5
 72
     1
  1
\A1;VARIES
  7
ROMANS
 73
     1
 44
1.0
1001
ACAD
1000
MTEXTBEGIN
1070
    73
1070
     1
1070
    44
1040
1.0
1070
    74
1070
     0
1000
MTEXTEND
  0
POINT
  5
5322
330
4B64
100
AcDbEntity
  8
DEFPOINTS
 62
     0
100
AcDbPoint
 10
227.3966363526345
 20
12.12251183211931
 30
0.0
  0
POINT
  5
5323
330
4B64
100
AcDbEntity
  8
DEFPOINTS
 62
     0
100
AcDbPoint
 10
275.0307622971643
 20
12.12251183211924
 30
0.0
  0
POINT
  5
5324
330
4B64
100
AcDbEntity
  8
DEFPOINTS
 62
     0
100
AcDbPoint
 10
275.0307622971643
 20
7.038073436090201
 30
0.0
  0
ENDBLK
  5
4B70
330
4B64
100
AcDbEntity
  8
0
100
AcDbBlockEnd
  0
BLOCK
  5
504F
330
5044
100
AcDbEntity
  8
0
100
AcDbBlockBegin
  2
*D12
 70
     1
 10
0.0
 20
0.0
 30
0.0
  3
*D12
  1

  0
LINE
  5
5305
330
5044
100
AcDbEntity
  8
0
 62
     0
370
    -2
100
AcDbLine
 10
248.6939290386795
 20
78.10157502605433
 30
0.0
 11
245.4709777640035
 21
79.40376041914659
 31
0.0
  0
LINE
  5
5306
330
5044
100
AcDbEntity
  8
0
 62
     0
370
    -2
100
AcDbLine
 10
261.5843848902125
 20
110.0058732452165
 30
0.0
 11
258.3614336155366
 21
111.3080586383087
 31
0.0
  0
LINE
  5
5307
330
5044
100
AcDbEntity
  8
0
 62
     0
370
    -2
100
AcDbLine
 10
247.9118427448776
 20
80.43982419379668
 30
0.0
 11
250.4771435295522
 21
86.78902721646364
 31
0.0
  0
LINE
  5
5308
330
5044
100
AcDbEntity
  8
0
 62
     0
370
    -2
100
AcDbLine
 10
259.3974973901867
 20
108.8671936574346
 30
0.0
 11
256.8321966055121
 21
102.5179906347676
 31
0.0
  0
SOLID
  5
5309
330
5044
100
AcDbEntity
  8
0
 62
     0
100
AcDbTrace
 10
247.6220986819173
 20
80.55689096098202
 30
0.0
 11
248.201586807838
 21
80.32275742661134
 31
0.0
 12
247.2094421417656
 22
78.70135981603457
 32
0.0
 13
247.2094421417656
 23
78.70135981603457
 33
0.0
  0
SOLID
  5
530A
330
5044
100
AcDbEntity
  8
0
 62
     0
100
AcDbTrace
 10
259.1077533272263
 20
108.9842604246199
 30
0.0
 11
259.6872414531471
 21
108.7501268902492
 31
0.0
 12
260.0998979932987
 22
110.6056580351967
 32
0.0
 13
260.0998979932987
 23
110.6056580351967
 33
0.0
  0
MTEXT
  5
530B
330
5044
100
AcDbEntity
  8
0
 62
     0
100
AcDbMText
 10
253.6546700675322
 20
94.65350892561565
 30
0.0
 40
1.875
 41
0.0
 71
     5
 72
     1
  1
\A1;AS REQ'D
  7
ROMANS
 11
0.3746065934159136
 21
0.9271838545667867
 31
0.0
 73
     1
 44
1.0
1001
ACAD
1000
MTEXTBEGIN
1070
    73
1070
     1
1070
    44
1040
1.0
1070
    74
1070
     0
1000
MTEXTEND
  0
POINT
  5
530C
330
5044
100
AcDbEntity
  8
DEFPOINTS
 62
     0
100
AcDbPoint
 10
250.4323934164414
 20
77.39917442294276
 30
0.0
  0
POINT
  5
530D
330
5044
100
AcDbEntity
  8
DEFPOINTS
 62
     0
100
AcDbPoint
 10
263.3228492679744
 20
109.3034726421049
 30
0.0
  0
POINT
  5
530E
330
5044
100
AcDbEntity
  8
DEFPOINTS
 62
     0
100
AcDbPoint
 10
260.0998979932985
 20
110.6056580351972
 30
0.0
  0
ENDBLK
  5
5050
330
5044
100
AcDbEntity
  8
0
100
AcDbBlockEnd
  0
BLOCK
  5
507B
330
5070
100
AcDbEntity
  8
0
100
AcDbBlockBegin
  2
*D13
 70
     1
 10
0.0
 20
0.0
 30
0.0
  3
*D13
  1

  0
LINE
  5
530F
330
5070
100
AcDbEntity
  8
0
 62
     0
370
    -2
100
AcDbLine
 10
343.8309909392694
 20
151.3998236701648
 30
0.0
 11
360.3448226668292
 21
151.3998236701648
 31
0.0
  0
LINE
  5
5310
330
5070
100
AcDbEntity
  8
0
 62
     0
370
    -2
100
AcDbLine
 10
344.8309909392694
 20
109.3725118321187
 30
0.0
 11
360.3448226668291
 21
109.3725118321187
 31
0.0
  0
LINE
  5
5311
330
5070
100
AcDbEntity
  8
0
 62
     0
370
    -2
100
AcDbLine
 10
358.4698226668292
 20
149.5248236701648
 30
0.0
 11
358.4698226668292
 21
133.3772391797132
 31
0.0
  0
LINE
  5
5312
330
5070
100
AcDbEntity
  8
0
 62
     0
370
    -2
100
AcDbLine
 10
358.4698226668291
 20
111.2475118321187
 30
0.0
 11
358.4698226668292
 21
127.3950963225703
 31
0.0
  0
SOLID
  5
5313
330
5070
100
AcDbEntity
  8
0
 62
     0
100
AcDbTrace
 10
358.1573226668292
 20
149.5248236701648
 30
0.0
 11
358.7823226668292
 21
149.5248236701648
 31
0.0
 12
358.4698226668292
 22
151.3998236701648
 32
0.0
 13
358.4698226668292
 23
151.3998236701648
 33
0.0
  0
SOLID
  5
5314
330
5070
100
AcDbEntity
  8
0
 62
     0
100
AcDbTrace
 10
358.1573226668291
 20
111.2475118321187
 30
0.0
 11
358.7823226668291
 21
111.2475118321187
 31
0.0
 12
358.4698226668291
 22
109.3725118321187
 32
0.0
 13
358.4698226668291
 23
109.3725118321187
 33
0.0
  0
MTEXT
  5
5315
330
5070
100
AcDbEntity
  8
0
 62
     0
100
AcDbMText
 10
358.4698226668292
 20
130.3861677511417
 30
0.0
 40
1.875
 41
0.0
 71
     5
 72
     1
  1
\A1;42"
  7
ROMANS
 73
     1
 44
1.0
1001
ACAD
1000
MTEXTBEGIN
1070
    73
1070
     1
1070
    44
1040
1.0
1070
    74
1070
     0
1000
MTEXTEND
  0
POINT
  5
5316
330
5070
100
AcDbEntity
  8
DEFPOINTS
 62
     0
100
AcDbPoint
 10
341.9559909392692
 20
151.3998236701653
 30
0.0
  0
POINT
  5
5317
330
5070
100
AcDbEntity
  8
DEFPOINTS
 62
     0
100
AcDbPoint
 10
342.9559909392692
 20
109.3725118321192
 30
0.0
  0
POINT
  5
5318
330
5070
100
AcDbEntity
  8
DEFPOINTS
 62
     0
100
AcDbPoint
 10
358.4698226668289
 20
109.3725118321192
 30
0.0
  0
ENDBLK
  5
507C
330
5070
100
AcDbEntity
  8
0
100
AcDbBlockEnd
  0
BLOCK
  5
5285
330
527A
100
AcDbEntity
  8
0
100
AcDbBlockBegin
  2
*D17
 70
     1
 10
0.0
 20
0.0
 30
0.0
  3
*D17
  1

  0
LINE
  5
5347
330
527A
100
AcDbEntity
  8
0
 62
     0
370
    -2
100
AcDbLine
 10
388.3522796390722
 20
85.11594310482569
 30
0.0
 11
388.3522796390722
 21
91.60607664888196
 31
0.0
  0
LINE
  5
5348
330
527A
100
AcDbEntity
  8
0
 62
     0
370
    -2
100
AcDbLine
 10
412.5336056603043
 20
85.11594310482562
 30
0.0
 11
412.5336056603043
 21
91.60607664888196
 31
0.0
  0
LINE
  5
5349
330
527A
100
AcDbEntity
  8
0
 62
     0
370
    -2
100
AcDbLine
 10
390.2272796390722
 20
89.73107664888196
 30
0.0
 11
392.5857997925455
 21
89.73107664888196
 31
0.0
  0
LINE
  5
534A
330
527A
100
AcDbEntity
  8
0
 62
     0
370
    -2
100
AcDbLine
 10
410.6586056603044
 20
89.73107664888196
 30
0.0
 11
408.3000855068311
 21
89.73107664888196
 31
0.0
  0
SOLID
  5
534B
330
527A
100
AcDbEntity
  8
0
 62
     0
100
AcDbTrace
 10
390.2272796390722
 20
90.04357664888196
 30
0.0
 11
390.2272796390722
 21
89.41857664888196
 31
0.0
 12
388.3522796390722
 22
89.73107664888196
 32
0.0
 13
388.3522796390722
 23
89.73107664888196
 33
0.0
  0
SOLID
  5
534C
330
527A
100
AcDbEntity
  8
0
 62
     0
100
AcDbTrace
 10
410.6586056603044
 20
90.04357664888196
 30
0.0
 11
410.6586056603044
 21
89.41857664888196
 31
0.0
 12
412.5336056603043
 22
89.73107664888196
 32
0.0
 13
412.5336056603043
 23
89.73107664888196
 33
0.0
  0
MTEXT
  5
534D
330
527A
100
AcDbEntity
  8
0
 62
     0
100
AcDbMText
 10
400.4429426496883
 20
89.73107664888196
 30
0.0
 40
1.875
 41
0.0
 71
     5
 72
     1
  1
\A1;11-7/8"\PWIDE
  7
ROMANS
 73
     1
 44
1.0
1001
ACAD
1000
MTEXTBEGIN
1070
    73
1070
     1
1070
    44
1040
1.0
1070
    74
1070
     0
1000
MTEXTEND
  0
POINT
  5
534E
330
527A
100
AcDbEntity
  8
DEFPOINTS
 62
     0
100
AcDbPoint
 10
388.3522796390722
 20
83.24094310482569
 30
0.0
  0
POINT
  5
534F
330
527A
100
AcDbEntity
  8
DEFPOINTS
 62
     0
100
AcDbPoint
 10
412.5336056603043
 20
83.24094310482562
 30
0.0
  0
POINT
  5
5350
330
527A
100
AcDbEntity
  8
DEFPOINTS
 62
     0
100
AcDbPoint
 10
412.5336056603043
 20
89.73107664888196
 30
0.0
  0
ENDBLK
  5
5286
330
527A
100
AcDbEntity
  8
0
100
AcDbBlockEnd
  0
BLOCK
  5
5292
330
5287
100
AcDbEntity
  8
0
100
AcDbBlockBegin
  2
*D18
 70
     1
 10
0.0
 20
0.0
 30
0.0
  3
*D18
  1

  0
LINE
  5
52C9
330
5287
100
AcDbEntity
  8
0
 62
     0
370
    -2
100
AcDbLine
 10
414.4086056603044
 20
61.73848446562088
 30
0.0
 11
427.8248272715993
 21
61.73848446562088
 31
0.0
  0
LINE
  5
52CA
330
5287
100
AcDbEntity
  8
0
 62
     0
370
    -2
100
AcDbLine
 10
414.4086056603046
 20
83.24094310482561
 30
0.0
 11
427.8248272715993
 21
83.24094310482559
 31
0.0
  0
LINE
  5
52CB
330
5287
100
AcDbEntity
  8
0
 62
     0
370
    -2
100
AcDbLine
 10
425.9498272715993
 20
63.61348446562088
 30
0.0
 11
425.9498272715993
 21
67.9361423566518
 31
0.0
  0
LINE
  5
52CC
330
5287
100
AcDbEntity
  8
0
 62
     0
370
    -2
100
AcDbLine
 10
425.9498272715993
 20
81.36594310482559
 30
0.0
 11
425.9498272715993
 21
77.04328521379466
 31
0.0
  0
SOLID
  5
52CD
330
5287
100
AcDbEntity
  8
0
 62
     0
100
AcDbTrace
 10
425.6373272715993
 20
63.61348446562088
 30
0.0
 11
426.2623272715993
 21
63.61348446562088
 31
0.0
 12
425.9498272715993
 22
61.73848446562088
 32
0.0
 13
425.9498272715993
 23
61.73848446562088
 33
0.0
  0
SOLID
  5
52CE
330
5287
100
AcDbEntity
  8
0
 62
     0
100
AcDbTrace
 10
425.6373272715993
 20
81.36594310482559
 30
0.0
 11
426.2623272715993
 21
81.36594310482559
 31
0.0
 12
425.9498272715993
 22
83.24094310482559
 32
0.0
 13
425.9498272715993
 23
83.24094310482559
 33
0.0
  0
MTEXT
  5
52CF
330
5287
100
AcDbEntity
  8
0
 62
     0
100
AcDbMText
 10
425.9498272715993
 20
72.4897137852233
 30
0.0
 40
1.875
 41
0.0
 71
     5
 72
     1
  1
\A1;9-13/16"\PFLAT BAR
  7
ROMANS
 73
     1
 44
1.0
1001
ACAD
1000
MTEXTBEGIN
1070
    73
1070
     1
1070
    44
1040
1.0
1070
    74
1070
     0
1000
MTEXTEND
  0
POINT
  5
52D0
330
5287
100
AcDbEntity
  8
DEFPOINTS
 62
     0
100
AcDbPoint
 10
412.5336056603044
 20
61.73848446562088
 30
0.0
  0
POINT
  5
52D1
330
5287
100
AcDbEntity
  8
DEFPOINTS
 62
     0
100
AcDbPoint
 10
412.5336056603045
 20
83.24094310482561
 30
0.0
  0
POINT
  5
52D2
330
5287
100
AcDbEntity
  8
DEFPOINTS
 62
     0
100
AcDbPoint
 10
425.9498272715993
 20
83.24094310482559
 30
0.0
  0
ENDBLK
  5
5293
330
5287
100
AcDbEntity
  8
0
100
AcDbBlockEnd
  0
BLOCK
  5
529F
330
5294
100
AcDbEntity
  8
0
100
AcDbBlockBegin
  2
*D19
 70
     1
 10
0.0
 20
0.0
 30
0.0
  3
*D19
  1

  0
LINE
  5
52D3
330
5294
100
AcDbEntity
  8
0
 62
     0
370
    -2
100
AcDbLine
 10
386.477279639072
 20
72.49184401323913
 30
0.0
 11
377.7434463879089
 21
72.49184401323913
 31
0.0
  0
LINE
  5
52D4
330
5294
100
AcDbEntity
  8
0
 62
     0
370
    -2
100
AcDbLine
 10
386.4772796390721
 20
83.23881287680984
 30
0.0
 11
377.7434463879089
 21
83.23881287680984
 31
0.0
  0
LINE
  5
52D5
330
5294
100
AcDbEntity
  8
0
 62
     0
370
    -2
100
AcDbLine
 10
379.6184463879089
 20
70.61684401323913
 30
0.0
 11
379.6184463879089
 21
68.74184401323913
 31
0.0
  0
LINE
  5
52D6
330
5294
100
AcDbEntity
  8
0
 62
     0
370
    -2
100
AcDbLine
 10
379.6184463879089
 20
85.11381287680984
 30
0.0
 11
379.6184463879089
 21
86.98881287680984
 31
0.0
  0
SOLID
  5
52D7
330
5294
100
AcDbEntity
  8
0
 62
     0
100
AcDbTrace
 10
379.3059463879089
 20
70.61684401323913
 30
0.0
 11
379.9309463879089
 21
70.61684401323913
 31
0.0
 12
379.6184463879089
 22
72.49184401323913
 32
0.0
 13
379.6184463879089
 23
72.49184401323913
 33
0.0
  0
SOLID
  5
52D8
330
5294
100
AcDbEntity
  8
0
 62
     0
100
AcDbTrace
 10
379.3059463879089
 20
85.11381287680984
 30
0.0
 11
379.9309463879089
 21
85.11381287680984
 31
0.0
 12
379.6184463879089
 22
83.23881287680984
 32
0.0
 13
379.6184463879089
 23
83.23881287680984
 33
0.0
  0
MTEXT
  5
52D9
330
5294
100
AcDbEntity
  8
0
 62
     0
100
AcDbMText
 10
379.6184463879089
 20
77.86532844502454
 30
0.0
 40
1.875
 41
0.0
 71
     5
 72
     1
  1
\A1;5-1/16"\PTREAD
  7
ROMANS
 73
     1
 44
1.0
1001
ACAD
1000
MTEXTBEGIN
1070
    73
1070
     1
1070
    44
1040
1.0
1070
    74
1070
     0
1000
MTEXTEND
  0
POINT
  5
52DA
330
5294
100
AcDbEntity
  8
DEFPOINTS
 62
     0
100
AcDbPoint
 10
388.352279639072
 20
72.49184401323913
 30
0.0
  0
POINT
  5
52DB
330
5294
100
AcDbEntity
  8
DEFPOINTS
 62
     0
100
AcDbPoint
 10
388.3522796390721
 20
83.23881287680984
 30
0.0
  0
POINT
  5
52DC
330
5294
100
AcDbEntity
  8
DEFPOINTS
 62
     0
100
AcDbPoint
 10
379.6184463879089
 20
83.23881287680984
 30
0.0
  0
ENDBLK
  5
52A0
330
5294
100
AcDbEntity
  8
0
100
AcDbBlockEnd
  0
BLOCK
  5
5330
330
5326
100
AcDbEntity
  8
0
100
AcDbBlockBegin
  2
*D20
 70
     1
 10
0.0
 20
0.0
 30
0.0
  3
*D20
  1

  0
LINE
  5
533B
330
5326
100
AcDbEntity
  8
0
 62
     0
370
    -2
100
AcDbLine
 10
227.7141789142368
 20
53.20322632609517
 30
0.0
 11
223.1942144838097
 21
42.01592178643521
 31
0.0
  0
LINE
  5
533C
330
5326
100
AcDbEntity
  8
0
 62
     0
370
    -2
100
AcDbLine
 10
239.8834669417469
 20
48.28651481323958
 30
0.0
 11
235.3635025113198
 21
37.09921027357962
 31
0.0
  0
LINE
  5
533D
330
5326
100
AcDbEntity
  8
0
 62
     0
370
    -2
100
AcDbLine
 10
225.6350715737772
 20
43.05200415109314
 30
0.0
 11
227.3735412692507
 21
42.34961680130226
 31
0.0
  0
LINE
  5
533E
330
5326
100
AcDbEntity
  8
0
 62
     0
370
    -2
100
AcDbLine
 10
234.3274201466619
 20
39.54006736354715
 30
0.0
 11
232.5889504511889
 21
40.24245471333784
 31
0.0
  0
MTEXT
  5
533F
330
5326
100
AcDbEntity
  8
0
 62
     0
100
AcDbMText
 10
229.9812458602196
 20
41.29603575731972
 30
0.0
 40
1.875
 41
0.0
 71
     5
 72
     1
  1
\A1;VARIES
  7
ROMANS
 11
0.3746065934159136
 21
0.9271838545667867
 31
0.0
 73
     1
 44
1.0
1001
ACAD
1000
MTEXTBEGIN
1070
    73
1070
     1
1070
    44
1040
1.0
1070
    74
1070
     0
1000
MTEXTEND
  0
SOLID
  5
5340
330
5326
100
AcDbEntity
  8
0
 62
     0
100
AcDbTrace
 10
225.7521361342197
 20
43.34174910564526
 30
0.0
 11
225.5180070133347
 21
42.76225919654102
 31
0.0
 12
223.8966018464645
 22
43.75439151374794
 32
0.0
 13
223.8966018464645
 23
43.75439151374794
 33
0.0
  0
SOLID
  5
5341
330
5326
100
AcDbEntity
  8
0
 62
     0
100
AcDbTrace
 10
234.4444847071043
 20
39.82981231809927
 30
0.0
 11
234.2103555862194
 21
39.25032240899503
 31
0.0
 12
236.0658898739746
 22
38.83768000089235
 32
0.0
 13
236.0658898739746
 23
38.83768000089235
 33
0.0
  0
POINT
  5
5342
330
5326
100
AcDbEntity
  8
DEFPOINTS
 62
     0
100
AcDbPoint
 10
228.4165662768915
 20
54.94169605340832
 30
0.0
  0
POINT
  5
5343
330
5326
100
AcDbEntity
  8
DEFPOINTS
 62
     0
100
AcDbPoint
 10
240.5858543044016
 20
50.02498454055274
 30
0.0
  0
POINT
  5
5344
330
5326
100
AcDbEntity
  8
DEFPOINTS
 62
     0
100
AcDbPoint
 10
236.0658898739745
 20
38.83768000089276
 30
0.0
  0
ENDBLK
  5
5331
330
5326
100
AcDbEntity
  8
0
100
AcDbBlockEnd
  0
ENDSEC
  0
SECTION
  2
ENTITIES
  0
TEXT
  5
CE9
330
1DE8
100
AcDbEntity
  8
0
 62
     5
100
AcDbText
 10
221.5821054689119
 20
163.0876448855699
 30
0.0
 40
3.844775963266875
  1
ALUMINUM ALTERNATING TREAD STAIR w/ WALK-THRU
  7
ROMANC
100
AcDbText
  0
TEXT
  5
CEA
330
1DE8
100
AcDbEntity
  8
0
 62
     5
100
AcDbText
 10
376.8204422992164
 20
4.343962147963098
 30
0.0
 40
3.063732123375
  1
FACTORY FINISH
  7
ROMANS
 72
     1
 11
395.2757810424039
 21
4.343962147963098
 31
0.0
100
AcDbText
  0
TEXT
  5
CEB
330
1DE8
100
AcDbEntity
  8
0
 62
     5
100
AcDbText
 10
368.8912117799102
 20
-0.6163660517869026
 30
0.0
 40
3.063732123375
  1
%%OALUMINUM-MILL FINISH
  7
ROMANS
 72
     1
 11
395.2757810424039
 21
-0.6163660517869026
 31
0.0
100
AcDbText
  0
LINE
  5
CEC
330
1DE8
100
AcDbEntity
  8
0
 62
     7
100
AcDbLine
 10
342.9559909392693
 20
12.12251183211913
 30
0.0
 11
342.9559909392692
 21
109.3725118321192
 31
0.0
  0
LINE
  5
CF3
330
1DE8
100
AcDbEntity
  8
0
 62
     7
100
AcDbLine
 10
340.9559909392693
 20
12.37251183211913
 30
0.0
 11
340.9559909392692
 21
109.3725118321192
 31
0.0
  0
LINE
  5
CF4
330
1DE8
100
AcDbEntity
  8
0
 62
     7
100
AcDbLine
 10
316.9559909392693
 20
12.37251183211911
 30
0.0
 11
316.9559909392692
 21
109.3725118321192
 31
0.0
  0
LINE
  5
CF5
330
1DE8
100
AcDbEntity
  8
0
 62
     7
100
AcDbLine
 10
314.9559909392693
 20
12.12251183211911
 30
0.0
 11
314.9559909392692
 21
109.3725118321192
 31
0.0
  0
LINE
  5
CF6
330
1DE8
100
AcDbEntity
  8
0
 62
     7
100
AcDbLine
 10
342.9559909392693
 20
12.12251183211913
 30
0.0
 11
340.9559909392693
 21
12.12251183211913
 31
0.0
  0
LINE
  5
CF7
330
1DE8
100
AcDbEntity
  8
0
 62
     7
100
AcDbLine
 10
316.9559909392693
 20
12.12251183211911
 30
0.0
 11
314.9559909392693
 21
12.12251183211911
 31
0.0
  0
LINE
  5
CF8
330
1DE8
100
AcDbEntity
  8
0
 62
     7
100
AcDbLine
 10
314.9559909392692
 20
109.3725118321192
 30
0.0
 11
316.9559909392692
 21
109.3725118321192
 31
0.0
  0
LINE
  5
CFA
330
1DE8
100
AcDbEntity
  8
0
 62
     7
100
AcDbLine
 10
340.9559909392692
 20
109.3725118321192
 30
0.0
 11
316.9559909392692
 21
109.3725118321192
 31
0.0
  0
TEXT
  5
DDF
330
1DE8
100
AcDbEntity
  8
0
 62
     7
100
AcDbText
 10
381.5888752835764
 20
38.40368574998032
 30
0.0
 40
1.8386676
  1
NOTE:
  7
ROMANS
100
AcDbText
  0
TEXT
  5
DE0
330
1DE8
100
AcDbEntity
  8
0
 62
     7
100
AcDbText
 10
381.5888752835764
 20
35.4267953499803
 30
0.0
 40
1.8386676
  1
ALL BOLTS/FASTENERS
  7
ROMANS
100
AcDbText
  0
TEXT
  5
DE1
330
1DE8
100
AcDbEntity
  8
0
 62
     7
100
AcDbText
 10
381.5888752835764
 20
32.44990494998028
 30
0.0
 40
1.8386676
  1
NECESSARY TO ANCHOR
  7
ROMANS
100
AcDbText
  0
TEXT
  5
DE2
330
1DE8
100
AcDbEntity
  8
0
 62
     7
100
AcDbText
 10
381.5888752835764
 20
29.47301454998033
 30
0.0
 40
1.8386676
  1
LADDER ARE BY OTHERS.
  7
ROMANS
100
AcDbText
  0
LINE
  5
E34
330
1DE8
100
AcDbEntity
  8
0
 62
     7
100
AcDbLine
 10
389.4025759283924
 20
125.6279930453792
 30
0.0
 11
412.2539290184569
 21
125.6279930453792
 31
0.0
  0
TEXT
  5
E37
330
1DE8
100
AcDbEntity
  8
0
 62
     5
100
AcDbText
 10
383.0141327383861
 20
109.7302270091957
 30
0.0
 40
2.74674278178703
  1
TREAD PLAN VIEW
  7
ROMANS
100
AcDbText
  0
INSERT
  5
E5D
330
1DE8
100
AcDbEntity
  8
0
100
AcDbBlockReference
  2
LINETYPE
 10
0.0
 20
0.0
 30
0.0
  0
INSERT
  5
E5E
330
1DE8
100
AcDbEntity
  8
0
100
AcDbBlockReference
  2
LINETYPE
 10
118.9029004192125
 20
326.6806855151206
 30
0.0
  0
INSERT
  5
E5F
330
1DE8
100
AcDbEntity
  8
0
100
AcDbBlockReference
  2
LINETYPE
 10
485.3944940447622
 20
316.6055934590419
 30
0.0
  0
INSERT
  5
14C8
330
1DE8
100
AcDbEntity
  8
0
100
AcDbBlockReference
  2
LINETYPE
 10
452.8028463842497
 20
64.58322518376338
 30
0.0
  0
INSERT
  5
14C9
330
1DE8
100
AcDbEntity
  8
0
100
AcDbBlockReference
  2
LINETYPE
 10
571.7057468034623
 20
391.263910698884
 30
0.0
  0
INSERT
  5
14CA
330
1DE8
100
AcDbEntity
  8
0
100
AcDbBlockReference
  2
LINETYPE
 10
938.1973404290119
 20
381.1888186428053
 30
0.0
  0
INSERT
  5
1A41
330
1DE8
100
AcDbEntity
  8
0
100
AcDbBlockReference
  2
LINETYPE
 10
527.9862704535243
 20
6.860918471472587
 30
0.0
  0
INSERT
  5
1A42
330
1DE8
100
AcDbEntity
  8
0
100
AcDbBlockReference
  2
LINETYPE
 10
894.477864079074
 20
-3.21417358460609
 30
0.0
  0
INSERT
  5
1AB1
330
1DE8
100
AcDbEntity
  8
0
100
AcDbBlockReference
  2
LINETYPE
 10
1013.77022073317
 20
51.47376608830427
 30
0.0
  0
INSERT
  5
1AB6
330
1DE8
100
AcDbEntity
  8
0
100
AcDbBlockReference
  2
LINETYPE
 10
1380.261814358719
 20
41.39867403222559
 30
0.0
  0
LWPOLYLINE
  5
2040
330
1DE8
100
AcDbEntity
  8
0
 62
     7
100
AcDbPolyline
 90
        4
 70
     1
 43
0.0
 10
342.7059909392693
 20
46.70356790347624
 10
342.7059909392693
 20
150.6498236701654
 42
1.0
 10
341.2059909392693
 20
150.6498236701654
 10
341.2059915049314
 20
46.70448904009925
 42
1.000614279867655
  0
LWPOLYLINE
  5
2046
330
1DE8
100
AcDbEntity
  8
0
 62
     7
100
AcDbPolyline
 90
        4
 70
     1
 43
0.0
 10
315.2059909392693
 20
150.6498236701654
 10
315.2059909392692
 20
46.70356790347624
 42
1.000614279867655
 10
316.7059903736072
 20
46.70448904009925
 10
316.7059909392693
 20
150.6498236701654
 42
1.0
  0
INSERT
  5
28D8
330
1DE8
100
AcDbEntity
  8
0
100
AcDbBlockReference
  2
LINETYPE
 10
-29.2473283652671
 20
-16.89741553740242
 30
0.0
  0
DIMENSION
  5
3615
330
1DE8
100
AcDbEntity
  8
0
100
AcDbDimension
  2
*D3
 10
342.9559909392693
 20
4.839159468676172
 30
0.0
 11
328.9559909392693
 21
4.839159468676172
 31
0.0
 70
    32
 71
     5
 42
28.0
 51
0.0000000000001018
  3
STANDARD$0
100
AcDbAlignedDimension
 13
314.9559909392693
 23
12.12251183211911
 33
0.0
 14
342.9559909392693
 24
12.12251183211913
 34
0.0
 50
359.9999999999998
100
AcDbRotatedDimension
  0
LINE
  5
3624
330
1DE8
100
AcDbEntity
  8
0
100
AcDbLine
 10
328.8309909392688
 20
12.37251183211911
 30
0.0
 11
328.830990939269
 21
109.3725118321192
 31
0.0
  0
LINE
  5
3625
330
1DE8
100
AcDbEntity
  8
0
100
AcDbLine
 10
329.0809909392688
 20
12.37251183211911
 30
0.0
 11
329.0809909392692
 21
109.3725118321192
 31
0.0
  0
LINE
  5
3626
330
1DE8
100
AcDbEntity
  8
0
100
AcDbLine
 10
314.9559909392693
 20
12.12251183211911
 30
0.0
 11
342.9559909392693
 21
12.12251183211913
 31
0.0
  0
LINE
  5
3627
330
1DE8
100
AcDbEntity
  8
0
100
AcDbLine
 10
314.9559909392693
 20
12.37251183211911
 30
0.0
 11
342.9559909392693
 21
12.37251183211913
 31
0.0
  0
LINE
  5
3663
330
1DE8
100
AcDbEntity
  8
0
100
AcDbLine
 10
389.4025759283924
 20
139.3074379510968
 30
0.0
 11
389.4025759283924
 21
125.6279930453792
 31
0.0
  0
LINE
  5
3664
330
1DE8
100
AcDbEntity
  8
0
100
AcDbLine
 10
412.2539290184569
 20
139.3074379510967
 30
0.0
 11
412.2539290184569
 21
125.6279930453791
 31
0.0
  0
LINE
  5
366F
330
1DE8
100
AcDbEntity
  8
0
 62
     6
100
AcDbLine
 10
389.4025759283924
 20
145.9478164594277
 30
0.0
 11
412.2539290184569
 21
145.9478164594276
 31
0.0
  0
LINE
  5
3670
330
1DE8
100
AcDbEntity
  8
0
 62
     6
100
AcDbLine
 10
389.4025759283924
 20
145.9478164594276
 30
0.0
 11
389.4025759283924
 21
139.3074379510968
 31
0.0
  0
LINE
  5
3671
330
1DE8
100
AcDbEntity
  8
0
 62
     6
100
AcDbLine
 10
412.2539290184569
 20
145.9478164594276
 30
0.0
 11
412.2539290184569
 21
139.3074379510968
 31
0.0
  0
DIMENSION
  5
368A
330
1DE8
100
AcDbEntity
  8
0
100
AcDbDimension
  2
*D4
 10
412.2539290184569
 20
118.108759133287
 30
0.0
 11
400.8282524734246
 21
118.108759133287
 31
0.0
 70
    32
  1
11-7/8"\PWIDE
 71
     5
 42
22.85135309006455
 51
0.0000000000001018
  3
STANDARD$0
100
AcDbAlignedDimension
 13
389.4025759283924
 23
125.6279930453791
 33
0.0
 14
412.2539290184569
 24
125.6279930453792
 34
0.0
 50
359.9999999999996
100
AcDbRotatedDimension
  0
LINE
  5
378F
330
1DE8
100
AcDbEntity
  8
0
100
AcDbLine
 10
316.9559909392692
 20
103.3725118321192
 30
0.0
 11
328.830990939269
 21
103.3725118321192
 31
0.0
  0
LINE
  5
3790
330
1DE8
100
AcDbEntity
  8
0
100
AcDbLine
 10
329.080990939269
 20
103.3725118321192
 30
0.0
 11
340.9559909392692
 21
103.3725118321192
 31
0.0
  0
TEXT
  5
3EA6
330
1DE8
100
AcDbEntity
  8
0
 62
     5
100
AcDbText
 10
193.3614010489083
 20
149.5570491041732
 30
0.0
 40
2.925153
  1
19-SGI-4 BAR 
  7
ROMANS
100
AcDbText
  0
CIRCLE
  5
3EA7
330
1DE8
100
AcDbEntity
  8
0
 62
     5
100
AcDbCircle
 10
188.6379232642757
 20
150.8036571348677
 30
0.0
 40
2.667918673374539
  0
TEXT
  5
3EA8
330
1DE8
100
AcDbEntity
  8
0
 62
     5
100
AcDbText
 10
187.5630365585103
 20
149.2651325934384
 30
0.0
 40
2.925153
  1
A
  7
ROMANS
 72
     1
 11
188.8166735585103
 21
149.2651325934384
 31
0.0
100
AcDbText
  0
TEXT
  5
3EA9
330
1DE8
100
AcDbEntity
  8
0
100
AcDbText
 10
192.2170134998729
 20
112.8899631703004
 30
0.0
 40
1.755091799999999
  1
TREAD WELDED AND BOLTED
  7
ROMANS
100
AcDbText
  0
TEXT
  5
3EAA
330
1DE8
100
AcDbEntity
  8
0
100
AcDbText
 10
194.9034606643115
 20
110.0483859703004
 30
0.0
 40
1.755091799999999
  1
TO STRINGER WITH 3/8"
  7
ROMANS
100
AcDbText
  0
TEXT
  5
3EAB
330
1DE8
100
AcDbEntity
  8
0
100
AcDbText
 10
197.345685705795
 20
107.2068087703003
 30
0.0
 40
1.755091799999999
  1
HEX HEAD BOLTS
  7
ROMANS
100
AcDbText
  0
TEXT
  5
3EAC
330
1DE8
100
AcDbEntity
  8
0
 62
     5
100
AcDbText
 10
193.6189267166789
 20
144.7417180469198
 30
0.0
 40
2.925153
  1
GRATING TREAD
  7
ROMANS
100
AcDbText
  0
LINE
  5
3EAD
330
1DE8
100
AcDbEntity
  8
0
100
AcDbLine
 10
227.4927539323529
 20
128.9679852996389
 30
0.0
 11
190.4891993629725
 21
128.967985299639
 31
0.0
  0
LINE
  5
3EAE
330
1DE8
100
AcDbEntity
  8
0
100
AcDbLine
 10
190.4891993629725
 20
128.967985299639
 30
0.0
 11
190.4891993629725
 21
118.6481861916231
 31
0.0
  0
LINE
  5
3EAF
330
1DE8
100
AcDbEntity
  8
0
100
AcDbLine
 10
227.4927539323529
 20
128.9679852996389
 30
0.0
 11
227.4927539323528
 21
118.648186191623
 31
0.0
  0
LINE
  5
3EB0
330
1DE8
100
AcDbEntity
  8
0
100
AcDbLine
 10
227.4927539323528
 20
118.648186191623
 30
0.0
 11
190.4891993629725
 21
118.6481861916231
 31
0.0
  0
LINE
  5
3EB1
330
1DE8
100
AcDbEntity
  8
0
  6
HIDDEN
100
AcDbLine
 10
227.4927539323529
 20
123.432248691623
 30
0.0
 11
226.5359414323528
 21
123.432248691623
 31
0.0
  0
LINE
  5
3EB2
330
1DE8
100
AcDbEntity
  8
0
  6
HIDDEN
100
AcDbLine
 10
191.4460118629726
 20
127.054360299639
 30
0.0
 11
191.4460118629725
 21
121.5186236916231
 31
0.0
  0
LINE
  5
3EB3
330
1DE8
100
AcDbEntity
  8
0
  6
HIDDEN
100
AcDbLine
 10
226.5359414323528
 20
128.0111727996389
 30
0.0
 11
210.5822618629725
 21
128.011172799639
 31
0.0
  0
LINE
  5
3EB4
330
1DE8
100
AcDbEntity
  8
0
  6
HIDDEN
100
AcDbLine
 10
226.5359414323528
 20
128.9679852996389
 30
0.0
 11
226.5359414323528
 21
123.432248691623
 31
0.0
  0
LINE
  5
3EB5
330
1DE8
100
AcDbEntity
  8
0
  6
HIDDEN
100
AcDbLine
 10
195.2732618629725
 20
128.967985299639
 30
0.0
 11
195.2732618629725
 21
123.4322486916231
 31
0.0
  0
LINE
  5
3EB6
330
1DE8
100
AcDbEntity
  8
0
  6
HIDDEN
100
AcDbLine
 10
196.2300743629725
 20
128.967985299639
 30
0.0
 11
196.2300743629725
 21
123.4322486916231
 31
0.0
  0
LINE
  5
3EB7
330
1DE8
100
AcDbEntity
  8
0
  6
HIDDEN
100
AcDbLine
 10
200.0573243629726
 20
128.967985299639
 30
0.0
 11
200.0573243629726
 21
123.4322486916231
 31
0.0
  0
LINE
  5
3EB8
330
1DE8
100
AcDbEntity
  8
0
  6
HIDDEN
100
AcDbLine
 10
201.0141368629725
 20
128.967985299639
 30
0.0
 11
201.0141368629725
 21
123.4322486916231
 31
0.0
  0
LINE
  5
3EB9
330
1DE8
100
AcDbEntity
  8
0
  6
HIDDEN
100
AcDbLine
 10
204.8413868629725
 20
128.967985299639
 30
0.0
 11
204.8413868629725
 21
123.4322486916231
 31
0.0
  0
LINE
  5
3EBA
330
1DE8
100
AcDbEntity
  8
0
  6
HIDDEN
100
AcDbLine
 10
205.7981993629725
 20
128.967985299639
 30
0.0
 11
205.7981993629725
 21
123.4322486916231
 31
0.0
  0
LINE
  5
3EBB
330
1DE8
100
AcDbEntity
  8
0
  6
HIDDEN
100
AcDbLine
 10
209.6254493629726
 20
128.967985299639
 30
0.0
 11
209.6254493629726
 21
123.4322486916231
 31
0.0
  0
LINE
  5
3EBC
330
1DE8
100
AcDbEntity
  8
0
  6
HIDDEN
100
AcDbLine
 10
210.5822618629725
 20
128.967985299639
 30
0.0
 11
210.5822618629725
 21
123.4322486916231
 31
0.0
  0
LINE
  5
3EBD
330
1DE8
100
AcDbEntity
  8
0
  6
HIDDEN
100
AcDbLine
 10
195.2732618629725
 20
128.011172799639
 30
0.0
 11
190.4891993629725
 21
128.011172799639
 31
0.0
  0
LINE
  5
3EBE
330
1DE8
100
AcDbEntity
  8
0
  6
HIDDEN
100
AcDbLine
 10
200.0573243629727
 20
128.011172799639
 30
0.0
 11
196.2300743629725
 21
128.011172799639
 31
0.0
  0
LINE
  5
3EBF
330
1DE8
100
AcDbEntity
  8
0
  6
HIDDEN
100
AcDbLine
 10
204.8413868629725
 20
128.011172799639
 30
0.0
 11
201.0141368629726
 21
128.011172799639
 31
0.0
  0
LINE
  5
3EC0
330
1DE8
100
AcDbEntity
  8
0
  6
HIDDEN
100
AcDbLine
 10
209.6254493629726
 20
128.011172799639
 30
0.0
 11
205.7981993629725
 21
128.011172799639
 31
0.0
  0
LINE
  5
3EC1
330
1DE8
100
AcDbEntity
  8
0
  6
HIDDEN
100
AcDbLine
 10
195.2732618629725
 20
127.054360299639
 30
0.0
 11
191.4460118629726
 21
127.054360299639
 31
0.0
  0
LINE
  5
3EC2
330
1DE8
100
AcDbEntity
  8
0
  6
HIDDEN
100
AcDbLine
 10
196.2300743629725
 20
123.4322486916232
 30
0.0
 11
195.2732618629725
 21
123.4322486916232
 31
0.0
  0
LINE
  5
3EC3
330
1DE8
100
AcDbEntity
  8
0
  6
HIDDEN
100
AcDbLine
 10
201.0141368629726
 20
123.4322486916231
 30
0.0
 11
200.0573243629726
 21
123.4322486916232
 31
0.0
  0
LINE
  5
3EC4
330
1DE8
100
AcDbEntity
  8
0
  6
HIDDEN
100
AcDbLine
 10
205.7981993629725
 20
123.4322486916231
 30
0.0
 11
204.8413868629725
 21
123.4322486916231
 31
0.0
  0
LINE
  5
3EC5
330
1DE8
100
AcDbEntity
  8
0
  6
HIDDEN
100
AcDbLine
 10
210.5822618629725
 20
123.4322486916231
 30
0.0
 11
209.6254493629726
 21
123.4322486916231
 31
0.0
  0
CIRCLE
  5
3EC6
330
1DE8
100
AcDbEntity
  8
0
100
AcDbCircle
 10
194.7948556129725
 20
121.5186236916231
 30
0.0
 40
0.8372109375
  0
ARC
  5
3EC7
330
1DE8
100
AcDbEntity
  8
0
100
AcDbCircle
 10
220.1537494352306
 20
121.518623691623
 30
0.0
 40
0.8372109375
100
AcDbArc
 50
90.0
 51
270.0
  0
ARC
  5
3EC8
330
1DE8
100
AcDbEntity
  8
0
100
AcDbCircle
 10
223.5025931852306
 20
121.518623691623
 30
0.0
 40
0.8372109375
100
AcDbArc
 50
270.0
 51
90.0
  0
LINE
  5
3EC9
330
1DE8
100
AcDbEntity
  8
0
100
AcDbLine
 10
220.1537494352306
 20
120.681412754123
 30
0.0
 11
223.5025931852306
 21
120.681412754123
 31
0.0
  0
LINE
  5
3ECA
330
1DE8
100
AcDbEntity
  8
0
100
AcDbLine
 10
220.1537494352306
 20
122.355834629123
 30
0.0
 11
223.5025931852306
 21
122.355834629123
 31
0.0
  0
LINE
  5
3ECB
330
1DE8
100
AcDbEntity
  8
0
  6
HIDDEN
100
AcDbLine
 10
191.4460118629725
 20
121.5186236916231
 30
0.0
 11
190.4891993629724
 21
121.5186236916232
 31
0.0
  0
DIMENSION
  5
3ECC
330
1DE8
100
AcDbEntity
  8
0
100
AcDbDimension
  2
*D6
 10
227.4927539323529
 20
133.0435407691611
 30
0.0
 11
208.9909766476627
 21
133.0435407691611
 31
0.0
 70
    32
  1
9-13/16"
 71
     5
 42
37.00355456938041
  3
STANDARD$0
100
AcDbAlignedDimension
 13
190.4891993629725
 23
128.967985299639
 33
0.0
 14
227.4927539323529
 24
128.9679852996389
 34
0.0
100
AcDbRotatedDimension
  0
DIMENSION
  5
3ECD
330
1DE8
100
AcDbEntity
  8
0
100
AcDbDimension
  2
*D7
 10
233.6963392764438
 20
123.4322486916231
 30
0.0
 11
233.9324057747441
 21
125.8015496384368
 31
0.0
 70
   160
  1
1"
 71
     5
 42
5.53573660801581
  3
STANDARD$0
100
AcDbAlignedDimension
 13
227.4927539323529
 23
128.9679852996389
 33
0.0
 14
227.4927539323529
 24
123.4322486916231
 34
0.0
 50
90.0
100
AcDbRotatedDimension
  0
TEXT
  5
3ECE
330
1DE8
100
AcDbEntity
  8
0
100
AcDbText
 10
197.1446636442672
 20
139.2612115815194
 30
0.0
 40
1.755091799999999
  1
(GROOVED NOSING)
  7
ROMANS
100
AcDbText
  0
LINE
  5
3F39
330
1DE8
100
AcDbEntity
  8
0
  6
HIDDEN
100
AcDbLine
 10
214.4095118629725
 20
128.9679852996389
 30
0.0
 11
214.4095118629725
 21
123.4322486916231
 31
0.0
  0
LINE
  5
3F3A
330
1DE8
100
AcDbEntity
  8
0
  6
HIDDEN
100
AcDbLine
 10
215.3663243629726
 20
128.9679852996389
 30
0.0
 11
215.3663243629726
 21
123.4322486916231
 31
0.0
  0
LINE
  5
3F3B
330
1DE8
100
AcDbEntity
  8
0
  6
HIDDEN
100
AcDbLine
 10
215.3663243629726
 20
123.432248691623
 30
0.0
 11
214.4095118629725
 21
123.4322486916231
 31
0.0
  0
LINE
  5
3F3C
330
1DE8
100
AcDbEntity
  8
0
  6
HIDDEN
100
AcDbLine
 10
219.1935743629725
 20
128.9679852996389
 30
0.0
 11
219.1935743629725
 21
123.432248691623
 31
0.0
  0
LINE
  5
3F3D
330
1DE8
100
AcDbEntity
  8
0
  6
HIDDEN
100
AcDbLine
 10
220.1503868629725
 20
128.9679852996389
 30
0.0
 11
220.1503868629725
 21
123.432248691623
 31
0.0
  0
LINE
  5
3F3E
330
1DE8
100
AcDbEntity
  8
0
  6
HIDDEN
100
AcDbLine
 10
220.1503868629725
 20
123.4322486916229
 30
0.0
 11
219.1935743629725
 21
123.432248691623
 31
0.0
  0
LINE
  5
3F3F
330
1DE8
100
AcDbEntity
  8
0
  6
HIDDEN
100
AcDbLine
 10
223.9776368629725
 20
128.9679852996389
 30
0.0
 11
223.9776368629725
 21
123.4322486916229
 31
0.0
  0
LINE
  5
3F40
330
1DE8
100
AcDbEntity
  8
0
  6
HIDDEN
100
AcDbLine
 10
224.9344493629725
 20
128.9679852996389
 30
0.0
 11
224.9344493629725
 21
123.4322486916229
 31
0.0
  0
LINE
  5
3F41
330
1DE8
100
AcDbEntity
  8
0
  6
HIDDEN
100
AcDbLine
 10
224.9344493629725
 20
123.4322486916229
 30
0.0
 11
223.9776368629725
 21
123.4322486916229
 31
0.0
  0
LINE
  5
3F82
330
1DE8
100
AcDbEntity
  8
0
 62
     6
100
AcDbLine
 10
389.4025759283924
 20
128.4920986161538
 30
0.0
 11
412.2539290184569
 21
128.4920986161538
 31
0.0
  0
LINE
  5
3F83
330
1DE8
100
AcDbEntity
  8
0
 62
     6
100
AcDbLine
 10
389.4025759283924
 20
129.2303798661538
 30
0.0
 11
412.2539290184569
 21
129.2303798661538
 31
0.0
  0
LINE
  5
3F84
330
1DE8
100
AcDbEntity
  8
0
 62
     6
100
AcDbLine
 10
389.4025759283924
 20
129.9686611161538
 30
0.0
 11
412.2539290184569
 21
129.9686611161538
 31
0.0
  0
LINE
  5
3F85
330
1DE8
100
AcDbEntity
  8
0
 62
     6
100
AcDbLine
 10
389.4025759283924
 20
130.7069423661538
 30
0.0
 11
412.2539290184569
 21
130.7069423661538
 31
0.0
  0
LINE
  5
3F86
330
1DE8
100
AcDbEntity
  8
0
 62
     6
100
AcDbLine
 10
389.4025759283924
 20
131.4452236161538
 30
0.0
 11
412.2539290184569
 21
131.4452236161538
 31
0.0
  0
LINE
  5
3F87
330
1DE8
100
AcDbEntity
  8
0
 62
     6
100
AcDbLine
 10
389.4025759283924
 20
127.7538173661538
 30
0.0
 11
412.2539290184569
 21
127.7538173661538
 31
0.0
  0
LINE
  5
3F88
330
1DE8
100
AcDbEntity
  8
0
 62
     6
100
AcDbLine
 10
389.4025759283924
 20
127.0155361161538
 30
0.0
 11
412.2539290184569
 21
127.0155361161538
 31
0.0
  0
LINE
  5
3F8A
330
1DE8
100
AcDbEntity
  8
0
 62
     6
100
AcDbLine
 10
398.2619509283924
 20
127.0155361161538
 30
0.0
 11
398.2619509283924
 21
145.9478164594276
 31
0.0
  0
LINE
  5
3F8B
330
1DE8
100
AcDbEntity
  8
0
 62
     6
100
AcDbLine
 10
395.3088259283924
 20
127.0155361161538
 30
0.0
 11
395.3088259283924
 21
145.9478164594276
 31
0.0
  0
LINE
  5
3F8C
330
1DE8
100
AcDbEntity
  8
0
 62
     6
100
AcDbLine
 10
392.3557009283923
 20
127.0155361161538
 30
0.0
 11
392.3557009283923
 21
145.9478164594278
 31
0.0
  0
LINE
  5
3F8D
330
1DE8
100
AcDbEntity
  8
0
 62
     0
100
AcDbLine
 10
389.4025759283924
 20
125.6279930453792
 30
0.0
 11
389.4025759283924
 21
131.6661073864073
 31
0.0
  0
LINE
  5
3F8F
330
1DE8
100
AcDbEntity
  8
0
 62
     6
100
AcDbLine
 10
401.2150759283923
 20
127.0155361161538
 30
0.0
 11
401.2150759283923
 21
145.9478164594276
 31
0.0
  0
LINE
  5
3F90
330
1DE8
100
AcDbEntity
  8
0
 62
     6
100
AcDbLine
 10
404.1682009283923
 20
127.0155361161538
 30
0.0
 11
404.1682009283923
 21
145.9478164594276
 31
0.0
  0
LINE
  5
3F91
330
1DE8
100
AcDbEntity
  8
0
 62
     6
100
AcDbLine
 10
407.1213259283923
 20
127.0155361161538
 30
0.0
 11
407.1213259283923
 21
145.9478164594276
 31
0.0
  0
LINE
  5
3F92
330
1DE8
100
AcDbEntity
  8
0
 62
     6
100
AcDbLine
 10
410.0744509283924
 20
127.0155361161538
 30
0.0
 11
410.0744509283924
 21
145.9478164594276
 31
0.0
  0
LINE
  5
3F94
330
1DE8
100
AcDbEntity
  8
0
 62
     6
100
AcDbLine
 10
389.4025759283924
 20
134.3093291869285
 30
0.0
 11
412.2539290184569
 21
134.3093291869285
 31
0.0
  0
LINE
  5
3F95
330
1DE8
100
AcDbEntity
  8
0
 62
     6
100
AcDbLine
 10
389.4025759283924
 20
135.0476104369285
 30
0.0
 11
412.2539290184569
 21
135.0476104369285
 31
0.0
  0
LINE
  5
3F96
330
1DE8
100
AcDbEntity
  8
0
 62
     6
100
AcDbLine
 10
389.4025759283924
 20
135.7858916869285
 30
0.0
 11
412.2539290184569
 21
135.7858916869285
 31
0.0
  0
LINE
  5
3F97
330
1DE8
100
AcDbEntity
  8
0
 62
     6
100
AcDbLine
 10
389.4025759283924
 20
136.5241729369284
 30
0.0
 11
412.2539290184569
 21
136.5241729369285
 31
0.0
  0
LINE
  5
3F98
330
1DE8
100
AcDbEntity
  8
0
 62
     6
100
AcDbLine
 10
389.4025759283924
 20
137.2624541869285
 30
0.0
 11
412.2539290184569
 21
137.2624541869285
 31
0.0
  0
LINE
  5
3F99
330
1DE8
100
AcDbEntity
  8
0
 62
     6
100
AcDbLine
 10
389.4025759283924
 20
133.5710479369285
 30
0.0
 11
412.2539290184569
 21
133.5710479369285
 31
0.0
  0
LINE
  5
3F9A
330
1DE8
100
AcDbEntity
  8
0
 62
     6
100
AcDbLine
 10
389.4025759283924
 20
132.8327666869285
 30
0.0
 11
412.2539290184569
 21
132.8327666869285
 31
0.0
  0
LINE
  5
3F9B
330
1DE8
100
AcDbEntity
  8
0
 62
     6
100
AcDbLine
 10
389.4025759283924
 20
132.0944854369285
 30
0.0
 11
412.2539290184569
 21
132.0944854369285
 31
0.0
  0
LINE
  5
3F9C
330
1DE8
100
AcDbEntity
  8
0
 62
     6
100
AcDbLine
 10
389.4025759283924
 20
140.1265597577032
 30
0.0
 11
412.2539290184569
 21
140.1265597577032
 31
0.0
  0
LINE
  5
3F9D
330
1DE8
100
AcDbEntity
  8
0
 62
     6
100
AcDbLine
 10
389.4025759283924
 20
140.8648410077031
 30
0.0
 11
412.2539290184569
 21
140.8648410077031
 31
0.0
  0
LINE
  5
3F9E
330
1DE8
100
AcDbEntity
  8
0
 62
     6
100
AcDbLine
 10
389.4025759283924
 20
141.6031222577031
 30
0.0
 11
412.2539290184569
 21
141.6031222577031
 31
0.0
  0
LINE
  5
3F9F
330
1DE8
100
AcDbEntity
  8
0
 62
     6
100
AcDbLine
 10
389.4025759283924
 20
142.3414035077031
 30
0.0
 11
412.2539290184569
 21
142.3414035077031
 31
0.0
  0
LINE
  5
3FA0
330
1DE8
100
AcDbEntity
  8
0
 62
     6
100
AcDbLine
 10
389.4025759283924
 20
143.0796847577031
 30
0.0
 11
412.2539290184569
 21
143.0796847577031
 31
0.0
  0
LINE
  5
3FA1
330
1DE8
100
AcDbEntity
  8
0
 62
     6
100
AcDbLine
 10
389.4025759283924
 20
139.3882785077032
 30
0.0
 11
412.2539290184569
 21
139.3882785077032
 31
0.0
  0
LINE
  5
3FA2
330
1DE8
100
AcDbEntity
  8
0
 62
     6
100
AcDbLine
 10
389.4025759283924
 20
138.6499972577031
 30
0.0
 11
412.2539290184569
 21
138.6499972577031
 31
0.0
  0
LINE
  5
3FA3
330
1DE8
100
AcDbEntity
  8
0
 62
     6
100
AcDbLine
 10
389.4025759283924
 20
137.9117160077032
 30
0.0
 11
412.2539290184569
 21
137.9117160077032
 31
0.0
  0
LINE
  5
3FA4
330
1DE8
100
AcDbEntity
  8
0
 62
     6
100
AcDbLine
 10
389.4025759283924
 20
145.9437903284778
 30
0.0
 11
412.2539290184569
 21
145.9437903284778
 31
0.0
  0
LINE
  5
3FA9
330
1DE8
100
AcDbEntity
  8
0
 62
     6
100
AcDbLine
 10
389.4025759283924
 20
145.2055090784778
 30
0.0
 11
412.2539290184569
 21
145.2055090784778
 31
0.0
  0
LINE
  5
3FAA
330
1DE8
100
AcDbEntity
  8
0
 62
     6
100
AcDbLine
 10
389.4025759283924
 20
144.4672278284778
 30
0.0
 11
412.2539290184569
 21
144.4672278284778
 31
0.0
  0
LINE
  5
3FAB
330
1DE8
100
AcDbEntity
  8
0
 62
     6
100
AcDbLine
 10
389.4025759283924
 20
143.7289465784778
 30
0.0
 11
412.2539290184569
 21
143.7289465784778
 31
0.0
  0
DIMENSION
  5
3FAC
330
1DE8
100
AcDbEntity
  8
0
100
AcDbDimension
  2
*D8
 10
424.9322584411305
 20
145.9478164594276
 30
0.0
 11
424.9322584411304
 21
135.7879047524034
 31
0.0
 70
    32
  1
9-13/16"\PDEEP
 71
     5
 42
20.31982341404846
 51
0.0000000000001018
  3
STANDARD$0
100
AcDbAlignedDimension
 13
412.2539290184569
 23
125.6279930453792
 33
0.0
 14
412.2539290184569
 24
145.9478164594276
 34
0.0
 50
90.0
100
AcDbRotatedDimension
  0
HATCH
  5
3FD6
330
1DE8
100
AcDbEntity
  8
0
100
AcDbHatch
 10
0.0
 20
0.0
 30
0.0
210
0.0
220
0.0
230
1.0
  2
ANSI31
 70
     0
 71
     0
 91
        1
 92
        7
 72
     0
 73
     1
 93
        4
 10
412.2539290184569
 20
127.0155361161538
 10
389.4025759283924
 20
127.0155361161538
 10
389.4025759283924
 20
125.6279930453792
 10
412.2539290184569
 20
125.6279930453792
 97
        0
 75
     0
 76
     1
 52
0.0
 41
1.18125
 77
     0
 78
     1
 53
44.99999999999992
 43
523.6032969688929
 44
-85.53946793621239
 45
-0.1044087356595759
 46
0.1044087356595764
 79
     0
 47
0.0187551620358313
 98
        1
 10
400.2947063609372
 20
126.3370664228165
1001
ACAD
1010
0.0
1020
0.0
1030
0.0
  0
LINE
  5
3FED
330
1DE8
100
AcDbEntity
  8
0
100
AcDbLine
 10
340.9559909392692
 20
109.3725118321192
 30
0.0
 11
342.9559909392692
 21
109.3725118321192
 31
0.0
  0
LINE
  5
4371
330
1DE8
100
AcDbEntity
  8
0
100
AcDbLine
 10
314.9559909392693
 20
17.380524581294
 30
0.0
 11
316.9559909392693
 21
17.380524581294
 31
0.0
  0
LINE
  5
4386
330
1DE8
100
AcDbEntity
  8
0
100
AcDbLine
 10
340.9559909392693
 20
17.38052458129395
 30
0.0
 11
342.9559909392693
 21
17.38052458129395
 31
0.0
  0
LINE
  5
4387
330
1DE8
100
AcDbEntity
  8
0
 62
     7
100
AcDbLine
 10
328.830990939269
 20
108.1225118321192
 30
0.0
 11
316.9559909392692
 21
108.1225118321192
 31
0.0
  0
LINE
  5
4388
330
1DE8
100
AcDbEntity
  8
0
 62
     7
100
AcDbLine
 10
340.9559909392692
 20
108.1225118321192
 30
0.0
 11
329.080990939269
 21
108.1225118321192
 31
0.0
  0
LINE
  5
43A9
330
1DE8
100
AcDbEntity
  8
0
100
AcDbLine
 10
329.0809909392691
 20
101.2475118321192
 30
0.0
 11
340.9559909392692
 21
101.2475118321192
 31
0.0
  0
LINE
  5
43AA
330
1DE8
100
AcDbEntity
  8
0
 62
     7
100
AcDbLine
 10
340.9559909392692
 20
99.99751183211934
 30
0.0
 11
329.080990939269
 21
99.99751183211934
 31
0.0
  0
LINE
  5
456C
330
1DE8
100
AcDbEntity
  8
0
100
AcDbLine
 10
316.9559909392689
 20
93.12251183211921
 30
0.0
 11
328.830990939269
 21
93.12251183211921
 31
0.0
  0
LINE
  5
456D
330
1DE8
100
AcDbEntity
  8
0
 62
     7
100
AcDbLine
 10
328.8309909392689
 20
91.87251183211932
 30
0.0
 11
316.9559909392688
 21
91.87251183211932
 31
0.0
  0
MTEXT
  5
4666
330
1DE8
100
AcDbEntity
  8
0
 62
     7
100
AcDbMText
 10
309.5553806370357
 20
112.0229972822627
 30
0.0
 40
1.94568
 41
0.0
 71
     9
 72
     1
  1
\A1;FULL TREAD\PON LEFT SIDE
  7
ROMANS
 73
     1
 44
1.0
1001
ACAD
1000
MTEXTBEGIN
1070
    73
1070
     1
1070
    44
1040
1.0
1070
    74
1070
     0
1000
MTEXTEND
  0
MTEXT
  5
4668
330
1DE8
100
AcDbEntity
  8
0
 62
     7
100
AcDbMText
 10
291.0148364221367
 20
118.9218862804278
 30
0.0
 40
1.94568
 41
0.0
 71
     9
 72
     1
  1
\A1;ONLY RIGHT SIDE\PTREADS SHOWN
  7
ROMANS
 73
     1
 44
1.0
1001
ACAD
1000
MTEXTBEGIN
1070
    73
1070
     1
1070
    44
1040
1.0
1070
    74
1070
     0
1000
MTEXTEND
  0
LINE
  5
4A69
330
1DE8
100
AcDbEntity
  8
0
 62
     4
100
AcDbLine
 10
227.3966363526362
 20
17.38052458129382
 30
0.0
 11
264.5638117686606
 21
109.3725118321192
 31
0.0
  0
LINE
  5
4A6A
330
1DE8
100
AcDbEntity
  8
0
 62
     4
100
AcDbLine
 10
230.3966363526379
 20
16.79738365388521
 30
0.0
 11
266.5873373191878
 21
106.3725118321192
 31
0.0
  0
LINE
  5
4A6B
330
1DE8
100
AcDbEntity
  8
0
 62
     3
100
AcDbLine
 10
236.1586152894265
 20
12.37251183211929
 30
0.0
 11
274.7807622971645
 21
107.9656801416835
 31
0.0
  0
LINE
  5
4A6C
330
1DE8
100
AcDbEntity
  8
0
100
AcDbLine
 10
264.5638117686606
 20
109.3725118321192
 30
0.0
 11
275.0307622971645
 21
109.3725118321193
 31
0.0
  0
LINE
  5
4A6D
330
1DE8
100
AcDbEntity
  8
0
100
AcDbLine
 10
274.7807622971645
 20
103.3725118321193
 30
0.0
 11
275.0307622971645
 21
103.3725118321193
 31
0.0
  0
LINE
  5
4A6E
330
1DE8
100
AcDbEntity
  8
0
 62
     7
100
AcDbLine
 10
245.8784369835186
 20
33.21663524506437
 30
0.0
 11
249.2874757163731
 21
33.21663524506437
 31
0.0
  0
TEXT
  5
4A6F
330
1DE8
100
AcDbEntity
  8
0
 62
     7
100
AcDbText
 10
251.053582601316
 20
31.77285429933416
 30
0.0
 40
3.3165
  1
A
  7
ROMANS
 72
     1
 11
252.4749397441731
 21
31.77285429933416
 31
0.0
100
AcDbText
  0
CIRCLE
  5
4A70
330
1DE8
100
AcDbEntity
  8
0
 62
     7
100
AcDbCircle
 10
252.4553707243689
 20
33.21663524506436
 30
0.0
 40
3.02485110359925
  0
TEXT
  5
4A71
330
1DE8
100
AcDbEntity
  8
0
 62
     7
100
AcDbText
 10
273.54899925696
 20
90.64271213140726
 30
0.0
 40
1.94568
  1
3" X 2" X 1/8"
  7
ROMANS
 72
     1
 11
286.0106163998171
 21
90.64271213140726
 31
0.0
100
AcDbText
  0
TEXT
  5
4A72
330
1DE8
100
AcDbEntity
  8
0
 62
     7
100
AcDbText
 10
272.7614621141029
 20
87.49256355997866
 30
0.0
 40
1.94568
  1
ALUMINUM TUBING
  7
ROMANS
 72
     1
 11
286.0106163998171
 21
87.49256355997866
 31
0.0
100
AcDbText
  0
TEXT
  5
4A73
330
1DE8
100
AcDbEntity
  8
0
 62
     7
100
AcDbText
 10
279.1544106855314
 20
84.3424149885501
 30
0.0
 40
1.94568
  1
STRINGER
  7
ROMANS
 72
     1
 11
286.0106163998171
 21
84.3424149885501
 31
0.0
100
AcDbText
  0
TEXT
  5
4A74
330
1DE8
100
AcDbEntity
  8
0
 62
     7
100
AcDbText
 10
278.1352449712457
 20
81.19226641712154
 30
0.0
 40
1.94568
  1
(6005-T5)
  7
ROMANS
 72
     1
 11
286.0106163998171
 21
81.19226641712154
 31
0.0
100
AcDbText
  0
LINE
  5
4A75
330
1DE8
100
AcDbEntity
  8
0
 62
     7
100
AcDbLine
 10
264.0629508817095
 20
94.98693182875044
 30
0.0
 11
268.6555672568725
 21
91.91322492495521
 31
0.0
  0
LINE
  5
4A76
330
1DE8
100
AcDbEntity
  8
0
 62
     7
100
AcDbLine
 10
268.6555672568725
 20
91.91322492495521
 30
0.0
 11
272.1906625131929
 21
91.91322492495519
 31
0.0
  0
TEXT
  5
4A7A
330
1DE8
100
AcDbEntity
  8
0
 62
     7
100
AcDbText
 10
203.4896695159742
 20
75.02704125151774
 30
0.0
 40
1.94568
  1
ALUMINUM PIPE
  7
ROMANS
 72
     1
 11
214.8857952302599
 21
75.02704125151774
 31
0.0
100
AcDbText
  0
TEXT
  5
4A7B
330
1DE8
100
AcDbEntity
  8
0
 62
     7
100
AcDbText
 10
207.0104238016884
 20
68.72674410866062
 30
0.0
 40
1.94568
  1
(6005-T5)
  7
ROMANS
 72
     1
 11
214.8857952302599
 21
68.72674410866062
 31
0.0
100
AcDbText
  0
TEXT
  5
4A7C
330
1DE8
100
AcDbEntity
  8
0
 62
     7
100
AcDbText
 10
207.9369380874027
 20
71.87689268008916
 30
0.0
 40
1.94568
  1
HANDRAIL
  7
ROMANS
 72
     1
 11
214.8857952302599
 21
71.87689268008916
 31
0.0
100
AcDbText
  0
TEXT
  5
4A7D
330
1DE8
100
AcDbEntity
  8
0
 62
     7
100
AcDbText
 10
202.377852373117
 20
78.17718982294633
 30
0.0
 40
1.94568
  1
1-1/4" SCH 40
  7
ROMANS
 72
     1
 11
214.8857952302599
 21
78.17718982294633
 31
0.0
100
AcDbText
  0
SOLID
  5
4A7E
330
1DE8
100
AcDbEntity
  8
0
 62
     7
100
AcDbTrace
 10
231.2675000625798
 20
65.80262330670734
 30
0.0
 11
230.9902992524069
 21
65.43761761458199
 31
0.0
 12
232.2239167338694
 22
64.78851803012583
 32
0.0
 13
232.2239167338694
 23
64.78851803012583
 33
0.0
  0
LINE
  5
4A7F
330
1DE8
100
AcDbEntity
  8
0
 62
     7
100
AcDbLine
 10
231.1288996574933
 20
65.62012046064467
 30
0.0
 11
226.0535087770759
 21
69.47458764937294
 31
0.0
  0
LINE
  5
4A80
330
1DE8
100
AcDbEntity
  8
0
 62
     7
100
AcDbLine
 10
226.0535087770759
 20
69.47458764937294
 30
0.0
 11
223.3564854443077
 21
69.47458764937301
 31
0.0
  0
LINE
  5
4A8C
330
1DE8
100
AcDbEntity
  8
0
 62
     6
100
AcDbLine
 10
275.0307622971643
 20
12.12251183211924
 30
0.0
 11
233.3966363526347
 21
12.12251183211931
 31
0.0
  0
LINE
  5
4A94
330
1DE8
100
AcDbEntity
  8
0
100
AcDbLine
 10
227.3966363526345
 20
12.12251183211932
 30
0.0
 11
227.3966363526345
 21
12.37251183211932
 31
0.0
  0
CIRCLE
  5
4A95
330
1DE8
100
AcDbEntity
  8
0
  6
CENTER
100
AcDbCircle
 10
240.2363445329709
 20
34.93501183211896
 30
0.0
 40
5.915961458219726
  0
TEXT
  5
4A96
330
1DE8
100
AcDbEntity
  8
0
 62
     7
100
AcDbText
 10
272.1326696721864
 20
72.64565205507125
 30
0.0
 40
1.94568
  1
10" x 1/4"
  7
ROMANS
 72
     1
 11
281.0735325293293
 21
72.64565205507125
 31
0.0
100
AcDbText
  0
TEXT
  5
4A97
330
1DE8
100
AcDbEntity
  8
0
 62
     7
100
AcDbText
 10
265.9713496721864
 20
69.49550348364266
 30
0.0
 40
1.94568
  1
ALUMINUM FLAT BAR
  7
ROMANS
 72
     1
 11
281.0735325293293
 21
69.49550348364266
 31
0.0
100
AcDbText
  0
TEXT
  5
4A98
330
1DE8
100
AcDbEntity
  8
0
 62
     7
100
AcDbText
 10
267.7780525293293
 20
66.3453549122141
 30
0.0
 40
1.94568
  1
CENTER STRINGER
  7
ROMANS
 72
     1
 11
281.0735325293293
 21
66.3453549122141
 31
0.0
100
AcDbText
  0
TEXT
  5
4A99
330
1DE8
100
AcDbEntity
  8
0
 62
     7
100
AcDbText
 10
273.1981611007578
 20
63.19520634078553
 30
0.0
 40
1.94568
  1
(6005-T5)
  7
ROMANS
 72
     1
 11
281.0735325293293
 21
63.19520634078553
 31
0.0
100
AcDbText
  0
SOLID
  5
4A9A
330
1DE8
100
AcDbEntity
  8
0
 62
     7
100
AcDbTrace
 10
263.7022696910226
 20
76.25123007707542
 30
0.0
 11
263.9352698821686
 21
76.64592027884179
 31
0.0
 12
262.6346991812964
 22
77.14757575139668
 32
0.0
 13
262.6346991812964
 23
77.14757575139668
 33
0.0
  0
LINE
  5
4A9B
330
1DE8
100
AcDbEntity
  8
0
 62
     7
100
AcDbLine
 10
263.8187697865956
 20
76.4485751779586
 30
0.0
 11
268.4113861617587
 21
73.37486827416338
 31
0.0
  0
LINE
  5
4A9C
330
1DE8
100
AcDbEntity
  8
0
 62
     7
100
AcDbLine
 10
268.4113861617587
 20
73.37486827416338
 30
0.0
 11
271.946481418079
 21
73.37486827416336
 31
0.0
  0
LINE
  5
4A9D
330
1DE8
100
AcDbEntity
  8
0
 62
     6
100
AcDbLine
 10
227.3966363526346
 20
17.38052458129414
 30
0.0
 11
227.3966363526345
 21
12.37251183211932
 31
0.0
  0
LINE
  5
4A9E
330
1DE8
100
AcDbEntity
  8
0
100
AcDbLine
 10
227.3966363526345
 20
12.37251183211932
 30
0.0
 11
227.3966363526345
 21
12.12251183211932
 31
0.0
  0
LINE
  5
4A9F
330
1DE8
100
AcDbEntity
  8
0
 62
     6
100
AcDbLine
 10
230.3966363526379
 20
16.79738365388496
 30
0.0
 11
230.3966363526378
 21
12.3725118321193
 31
0.0
  0
LINE
  5
4AA0
330
1DE8
100
AcDbEntity
  8
0
100
AcDbLine
 10
274.7807622971646
 20
109.3725118321192
 30
0.0
 11
274.7807622971645
 21
103.3725118321193
 31
0.0
  0
LINE
  5
4AA1
330
1DE8
100
AcDbEntity
  8
0
100
AcDbLine
 10
269.3138117686606
 20
109.3725118321193
 30
0.0
 11
269.3138117686606
 21
106.3725118321192
 31
0.0
  0
LINE
  5
4AA2
330
1DE8
100
AcDbEntity
  8
0
100
AcDbLine
 10
275.0307622971646
 20
109.3725118321193
 30
0.0
 11
275.0307622971645
 21
103.3725118321194
 31
0.0
  0
TEXT
  5
4AA4
330
1DE8
100
AcDbEntity
  8
0
 62
     7
100
AcDbText
 10
192.9553686612594
 20
22.47771802546063
 30
0.0
 40
1.94568
  1
6" x 1/4" ALUM
  7
ROMANS
 72
     1
 11
205.509637232688
 21
22.47771802546063
 31
0.0
100
AcDbText
  0
TEXT
  5
4AA5
330
1DE8
100
AcDbEntity
  8
0
 62
     7
100
AcDbText
 10
192.9553686612594
 20
19.32756945403204
 30
0.0
 40
1.94568
  1
MOUNTING PLATE
  7
ROMANS
 72
     1
 11
205.509637232688
 21
19.32756945403204
 31
0.0
100
AcDbText
  0
LINE
  5
4AA6
330
1DE8
100
AcDbEntity
  8
0
 62
     3
100
AcDbLine
 10
227.3966363526345
 20
12.37251183211932
 30
0.0
 11
236.1586152894269
 21
12.37251183211929
 31
0.0
  0
LINE
  5
4AA7
330
1DE8
100
AcDbEntity
  8
0
 62
     6
100
AcDbLine
 10
269.6498144605568
 20
109.3725118321192
 30
0.0
 11
274.3763117686606
 21
109.3725118321193
 31
0.0
  0
LINE
  5
4AA8
330
1DE8
100
AcDbEntity
  8
0
100
AcDbLine
 10
233.3966363526347
 20
12.37251183211931
 30
0.0
 11
233.3966363526347
 21
12.12251183211931
 31
0.0
  0
LINE
  5
4AA9
330
1DE8
100
AcDbEntity
  8
0
100
AcDbLine
 10
264.5638117686606
 20
109.3725118321192
 30
0.0
 11
274.3763117686606
 21
109.3725118321193
 31
0.0
  0
LINE
  5
4AAA
330
1DE8
100
AcDbEntity
  8
0
100
AcDbLine
 10
266.5873373191878
 20
106.3725118321192
 30
0.0
 11
274.3763117686606
 21
106.3725118321193
 31
0.0
  0
LINE
  5
4AAB
330
1DE8
100
AcDbEntity
  8
0
100
AcDbLine
 10
270.5638117686606
 20
108.0600118321193
 30
0.0
 11
270.8138117686606
 21
108.0600118321193
 31
0.0
  0
LINE
  5
4AAC
330
1DE8
100
AcDbEntity
  8
0
100
AcDbLine
 10
271.7513117686606
 20
108.0600118321193
 30
0.0
 11
272.0013117686606
 21
108.0600118321193
 31
0.0
  0
LINE
  5
4AAD
330
1DE8
100
AcDbEntity
  8
0
100
AcDbLine
 10
272.9388117686606
 20
108.0600118321193
 30
0.0
 11
273.1888117686606
 21
108.0600118321193
 31
0.0
  0
LINE
  5
4AAE
330
1DE8
100
AcDbEntity
  8
0
100
AcDbLine
 10
274.1263117686606
 20
108.0600118321193
 30
0.0
 11
274.3763117686606
 21
108.0600118321193
 31
0.0
  0
LINE
  5
4AAF
330
1DE8
100
AcDbEntity
  8
0
100
AcDbLine
 10
269.3138117686606
 20
106.3725118321192
 30
0.0
 11
274.7807622971646
 21
106.3725118321193
 31
0.0
  0
LINE
  5
4AB0
330
1DE8
100
AcDbEntity
  8
0
 62
     6
100
AcDbLine
 10
227.3966363526345
 20
17.38052458129414
 30
0.0
 11
230.3966363526379
 21
16.79738365388497
 31
0.0
  0
LINE
  5
4AB1
330
1DE8
100
AcDbEntity
  8
0
100
AcDbLine
 10
270.5638117686606
 20
109.3725118321192
 30
0.0
 11
270.5638117686606
 21
108.0600118321193
 31
0.0
  0
LINE
  5
4AB2
330
1DE8
100
AcDbEntity
  8
0
100
AcDbLine
 10
270.8138117686606
 20
109.3725118321192
 30
0.0
 11
270.8138117686606
 21
108.0600118321193
 31
0.0
  0
LINE
  5
4AB3
330
1DE8
100
AcDbEntity
  8
0
100
AcDbLine
 10
271.7513117686606
 20
109.3725118321193
 30
0.0
 11
271.7513117686606
 21
108.0600118321193
 31
0.0
  0
LINE
  5
4AB4
330
1DE8
100
AcDbEntity
  8
0
100
AcDbLine
 10
272.0013117686606
 20
109.3725118321193
 30
0.0
 11
272.0013117686606
 21
108.0600118321193
 31
0.0
  0
LINE
  5
4AB5
330
1DE8
100
AcDbEntity
  8
0
100
AcDbLine
 10
272.9388117686606
 20
109.3725118321193
 30
0.0
 11
272.9388117686606
 21
108.0600118321193
 31
0.0
  0
LINE
  5
4AB6
330
1DE8
100
AcDbEntity
  8
0
100
AcDbLine
 10
273.1888117686606
 20
109.3725118321193
 30
0.0
 11
273.1888117686606
 21
108.0600118321193
 31
0.0
  0
LINE
  5
4AB7
330
1DE8
100
AcDbEntity
  8
0
100
AcDbLine
 10
274.1263117686606
 20
109.3725118321192
 30
0.0
 11
274.1263117686606
 21
108.0600118321193
 31
0.0
  0
LINE
  5
4AB8
330
1DE8
100
AcDbEntity
  8
0
100
AcDbLine
 10
274.7807622971645
 20
109.3725118321192
 30
0.0
 11
274.7807622971645
 21
106.3725118321192
 31
0.0
  0
LINE
  5
4AB9
330
1DE8
100
AcDbEntity
  8
0
100
AcDbLine
 10
270.5638117686606
 20
108.0600118321192
 30
0.0
 11
270.8138117686606
 21
108.0600118321193
 31
0.0
  0
LINE
  5
4ABA
330
1DE8
100
AcDbEntity
  8
0
100
AcDbLine
 10
269.3138117686605
 20
108.1225118321192
 30
0.0
 11
269.5638117686605
 21
108.1225118321192
 31
0.0
  0
LINE
  5
4ABB
330
1DE8
100
AcDbEntity
  8
0
100
AcDbLine
 10
269.5638117686605
 20
109.1225118321193
 30
0.0
 11
270.5638117686606
 21
109.1225118321193
 31
0.0
  0
LINE
  5
4ABC
330
1DE8
100
AcDbEntity
  8
0
100
AcDbLine
 10
269.3138117686606
 20
109.3725118321192
 30
0.0
 11
269.3138117686606
 21
106.3725118321192
 31
0.0
  0
LINE
  5
4ABD
330
1DE8
100
AcDbEntity
  8
0
100
AcDbLine
 10
270.5638117686606
 20
109.3725118321192
 30
0.0
 11
270.5638117686606
 21
108.0600118321193
 31
0.0
  0
LINE
  5
4ABE
330
1DE8
100
AcDbEntity
  8
0
100
AcDbLine
 10
270.8138117686606
 20
109.3725118321192
 30
0.0
 11
270.8138117686606
 21
108.0600118321193
 31
0.0
  0
LINE
  5
4ABF
330
1DE8
100
AcDbEntity
  8
0
100
AcDbLine
 10
269.5638117686605
 20
109.1225118321193
 30
0.0
 11
269.5638117686605
 21
108.1225118321193
 31
0.0
  0
LINE
  5
4AD0
330
1DE8
100
AcDbEntity
  8
0
 62
     7
100
AcDbLine
 10
275.0307622971645
 20
109.3725118321193
 30
0.0
 11
275.0307622971645
 21
103.3725118321193
 31
0.0
  0
LINE
  5
4AD5
330
1DE8
100
AcDbEntity
  8
0
100
AcDbLine
 10
227.3966363526345
 20
12.12251183211932
 30
0.0
 11
233.3966363526345
 21
12.12251183211931
 31
0.0
  0
LINE
  5
4AD6
330
1DE8
100
AcDbEntity
  8
0
100
AcDbLine
 10
275.0307622971645
 20
109.3725118321192
 30
0.0
 11
275.0307622971645
 21
103.3725118321193
 31
0.0
  0
LINE
  5
4AD7
330
1DE8
100
AcDbEntity
  8
0
 62
     4
100
AcDbLine
 10
264.5638117686606
 20
109.3725118321192
 30
0.0
 11
266.587337319188
 21
106.3725118321192
 31
0.0
  0
LINE
  5
4AD8
330
1DE8
100
AcDbEntity
  8
0
100
AcDbLine
 10
274.3763117686606
 20
109.3725118321193
 30
0.0
 11
274.3763117686606
 21
108.0600118321193
 31
0.0
  0
INSERT
  5
4ADD
330
1DE8
100
AcDbEntity
  8
0
100
AcDbBlockReference
  2
A$C451C0C06
 10
384.8542002891251
 20
85.16032372755606
 30
0.0
  0
INSERT
  5
4ADE
330
1DE8
100
AcDbEntity
  8
0
100
AcDbBlockReference
  2
A$C451C0C06
 10
378.2887741193044
 20
68.91032372755607
 30
0.0
  0
INSERT
  5
4ADF
330
1DE8
100
AcDbEntity
  8
0
100
AcDbBlockReference
  2
A$C451C0C06
 10
371.7233479494834
 20
52.66032372755609
 30
0.0
  0
INSERT
  5
4AE0
330
1DE8
100
AcDbEntity
  8
0
100
AcDbBlockReference
  2
A$C451C0C06
 10
365.1579217796627
 20
36.4103237275561
 30
0.0
  0
INSERT
  5
4AE1
330
1DE8
100
AcDbEntity
  8
0
100
AcDbBlockReference
  2
A$C451C0C06
 10
352.027069440021
 20
3.910323727556125
 30
0.0
  0
INSERT
  5
4AE2
330
1DE8
100
AcDbEntity
  8
0
100
AcDbBlockReference
  2
A$C451C0C06
 10
358.5924956098418
 20
20.16032372755597
 30
0.0
  0
SOLID
  5
4AE3
330
1DE8
100
AcDbEntity
  8
0
 62
     7
100
AcDbTrace
 10
263.9464507861365
 20
94.78958672786728
 30
0.0
 11
264.1794509772824
 21
95.18427692963363
 31
0.0
 12
262.8788802764102
 22
95.68593240218852
 32
0.0
 13
262.8788802764102
 23
95.68593240218852
 33
0.0
  0
DIMENSION
  5
4AE4
330
1DE8
100
AcDbEntity
  8
0
100
AcDbDimension
  2
*D10
 10
233.3966363526347
 20
12.12251183211931
 30
0.0
 11
258.0229517363794
 21
24.19888194708841
 31
0.0
 70
   162
  1
<> STANDARD\P56° AVAILABLE
 71
     5
 42
1.186823891356148
  3
STANDARD$2
100
AcDb2LineAngularDimension
 13
236.1586152894265
 23
12.37251183211929
 33
0.0
 14
274.7807622971645
 24
107.9656801416835
 34
0.0
 15
251.5283016502951
 25
12.12251183211928
 35
0.0
 16
244.4982193001568
 26
20.66190919563805
 36
0.0
  0
LINE
  5
4B13
330
1DE8
100
AcDbEntity
  8
0
 62
     7
100
AcDbLine
 10
238.8701561065567
 20
45.77848248663658
 30
0.0
 11
232.1063499511709
 21
48.51123755987757
 31
0.0
  0
LINE
  5
4B14
330
1DE8
100
AcDbEntity
  8
0
 62
     7
100
AcDbLine
 10
239.4920030516271
 20
47.31760768521745
 30
0.0
 11
232.7281968962414
 21
50.05036275845849
 31
0.0
  0
LINE
  5
4B15
330
1DE8
100
AcDbEntity
  8
0
 62
     7
100
AcDbLine
 10
227.9483080351221
 20
53.78271623519973
 30
0.0
 11
266.8420673359933
 21
149.9513846090101
 31
0.0
  0
LINE
  5
4B16
330
1DE8
100
AcDbEntity
  8
0
 62
     7
100
AcDbLine
 10
250.8536282440779
 20
75.43861683249756
 30
0.0
 11
241.230695070654
 21
79.32653420402013
 31
0.0
  0
LINE
  5
4B17
330
1DE8
100
AcDbEntity
  8
0
 62
     7
100
AcDbLine
 10
250.4323934164414
 20
77.39917442294276
 30
0.0
 11
241.8525420157244
 21
80.86565940260095
 31
0.0
  0
LINE
  5
4B18
330
1DE8
100
AcDbEntity
  8
0
 62
     7
100
AcDbLine
 10
229.4874332337018
 20
53.16086929012957
 30
0.0
 11
240.2234654151504
 21
79.73348140028247
 31
0.0
  0
LINE
  5
4B19
330
1DE8
100
AcDbEntity
  8
0
 62
     7
100
AcDbLine
 10
240.8453123602208
 20
81.27260659886337
 30
0.0
 11
253.1136782774396
 21
111.6378777934718
 31
0.0
  0
LINE
  5
4B1C
330
1DE8
100
AcDbEntity
  8
0
 62
     7
100
AcDbLine
 10
239.4920030516271
 20
47.31760768521739
 30
0.0
 11
232.728196896242
 21
50.05036275845831
 31
0.0
  0
LINE
  5
4B1D
330
1DE8
100
AcDbEntity
  8
0
 62
     7
100
AcDbLine
 10
239.4920030516271
 20
47.31760768521739
 30
0.0
 11
232.7281968962414
 21
50.05036275845855
 31
0.0
  0
LWPOLYLINE
  5
4B25
330
1DE8
100
AcDbEntity
  8
0
 62
     7
100
AcDbPolyline
 90
        8
 70
     1
 43
0.0
 10
229.788390314754
 20
49.44775404341735
 42
-0.4142135623730951
 10
227.9483080351214
 20
53.7827162351998
 10
228.8848245186614
 20
56.10067587161684
 10
230.4239497172422
 20
55.47882892654635
 10
229.4874332337025
 20
53.16086929012936
 42
0.4142135623730951
 10
230.4102372598245
 20
50.98687924199824
 10
232.7281968962414
 20
50.05036275845849
 10
232.106349951171
 20
48.51123755987764
  0
LWPOLYLINE
  5
4B26
330
1DE8
100
AcDbEntity
  8
0
 62
     7
100
AcDbPolyline
 90
        4
 70
     1
 43
0.0
 10
240.1458899608108
 20
79.76482391831672
 10
241.230695070654
 20
79.32653420402008
 10
241.8525420157244
 20
80.86565940260095
 10
240.7677369058813
 20
81.3039491168976
 42
1.0
  0
LINE
  5
4B42
330
1DE8
100
AcDbEntity
  8
0
 62
     7
100
AcDbLine
 10
251.4753279281083
 20
76.97737754721109
 30
0.0
 11
245.7546035454311
 21
79.28870022858735
 31
0.0
  0
LINE
  5
4B43
330
1DE8
100
AcDbEntity
  8
0
 62
     7
100
AcDbLine
 10
239.4920030516271
 20
47.31760768521739
 30
0.0
 11
232.7281968962414
 21
50.05036275845855
 31
0.0
  0
LINE
  5
4B58
330
1DE8
100
AcDbEntity
  8
0
100
AcDbLine
 10
275.0307622971645
 20
103.3725118321193
 30
0.0
 11
275.0307622971645
 21
95.97372094562059
 31
0.0
  0
DIMENSION
  5
4B63
330
1DE8
100
AcDbEntity
  8
0
100
AcDbDimension
  2
*D11
 10
275.0307622971643
 20
7.038073436090201
 30
0.0
 11
251.2136993248994
 21
7.038073436090201
 31
0.0
 70
    32
  1
VARIES
 71
     5
 42
47.63412594452984
 51
0.0000000000001018
  3
STANDARD$0
100
AcDbAlignedDimension
 13
227.3966363526345
 23
12.12251183211931
 33
0.0
 14
275.0307622971643
 24
12.12251183211924
 34
0.0
100
AcDbRotatedDimension
  0
LINE
  5
4B71
330
1DE8
100
AcDbEntity
  8
0
 62
     6
100
AcDbLine
 10
275.0307622971643
 20
59.76779553561067
 30
0.0
 11
275.0307622971643
 21
12.12251183211924
 31
0.0
  0
LINE
  5
4BC9
330
1DE8
100
AcDbEntity
  8
0
100
AcDbLine
 10
329.080990939269
 20
84.99751183211918
 30
0.0
 11
340.9559909392691
 21
84.99751183211918
 31
0.0
  0
LINE
  5
4BCA
330
1DE8
100
AcDbEntity
  8
0
 62
     7
100
AcDbLine
 10
340.9559909392691
 20
83.7475118321193
 30
0.0
 11
329.080990939269
 21
83.7475118321193
 31
0.0
  0
LINE
  5
4BCB
330
1DE8
100
AcDbEntity
  8
0
100
AcDbLine
 10
316.9559909392689
 20
76.87251183211919
 30
0.0
 11
328.8309909392689
 21
76.87251183211919
 31
0.0
  0
LINE
  5
4BCC
330
1DE8
100
AcDbEntity
  8
0
 62
     7
100
AcDbLine
 10
328.8309909392689
 20
75.6225118321193
 30
0.0
 11
316.9559909392688
 21
75.6225118321193
 31
0.0
  0
LINE
  5
4BCD
330
1DE8
100
AcDbEntity
  8
0
100
AcDbLine
 10
329.0809909392691
 20
68.7475118321192
 30
0.0
 11
340.9559909392692
 21
68.7475118321192
 31
0.0
  0
LINE
  5
4BCE
330
1DE8
100
AcDbEntity
  8
0
 62
     7
100
AcDbLine
 10
340.9559909392692
 20
67.49751183211931
 30
0.0
 11
329.080990939269
 21
67.49751183211931
 31
0.0
  0
LINE
  5
4BCF
330
1DE8
100
AcDbEntity
  8
0
100
AcDbLine
 10
316.9559909392689
 20
60.6225118321192
 30
0.0
 11
328.830990939269
 21
60.6225118321192
 31
0.0
  0
LINE
  5
4BD0
330
1DE8
100
AcDbEntity
  8
0
 62
     7
100
AcDbLine
 10
328.8309909392689
 20
59.37251183211931
 30
0.0
 11
316.9559909392688
 21
59.37251183211931
 31
0.0
  0
LINE
  5
4BD1
330
1DE8
100
AcDbEntity
  8
0
100
AcDbLine
 10
329.080990939269
 20
52.49751183211917
 30
0.0
 11
340.9559909392691
 21
52.49751183211917
 31
0.0
  0
LINE
  5
4BD2
330
1DE8
100
AcDbEntity
  8
0
 62
     7
100
AcDbLine
 10
340.9559909392691
 20
51.24751183211929
 30
0.0
 11
329.080990939269
 21
51.24751183211929
 31
0.0
  0
LINE
  5
4BD3
330
1DE8
100
AcDbEntity
  8
0
100
AcDbLine
 10
316.9559909392689
 20
44.37251183211917
 30
0.0
 11
328.8309909392689
 21
44.37251183211917
 31
0.0
  0
LINE
  5
4BD4
330
1DE8
100
AcDbEntity
  8
0
 62
     7
100
AcDbLine
 10
328.8309909392689
 20
43.12251183211929
 30
0.0
 11
316.9559909392688
 21
43.12251183211929
 31
0.0
  0
LINE
  5
4BD5
330
1DE8
100
AcDbEntity
  8
0
100
AcDbLine
 10
329.080990939269
 20
36.24751183211915
 30
0.0
 11
340.9559909392691
 21
36.24751183211915
 31
0.0
  0
LINE
  5
4BD6
330
1DE8
100
AcDbEntity
  8
0
 62
     7
100
AcDbLine
 10
340.9559909392691
 20
34.99751183211926
 30
0.0
 11
329.0809909392689
 21
34.99751183211926
 31
0.0
  0
LINE
  5
4BD7
330
1DE8
100
AcDbEntity
  8
0
100
AcDbLine
 10
316.9559909392688
 20
28.12251183211915
 30
0.0
 11
328.8309909392689
 21
28.12251183211914
 31
0.0
  0
LINE
  5
4BD8
330
1DE8
100
AcDbEntity
  8
0
 62
     7
100
AcDbLine
 10
328.8309909392688
 20
26.87251183211925
 30
0.0
 11
316.9559909392687
 21
26.87251183211926
 31
0.0
  0
LINE
  5
4BD9
330
1DE8
100
AcDbEntity
  8
0
100
AcDbLine
 10
329.0809909392689
 20
19.99751183211911
 30
0.0
 11
340.9559909392689
 21
19.99751183211911
 31
0.0
  0
LINE
  5
4BDA
330
1DE8
100
AcDbEntity
  8
0
 62
     7
100
AcDbLine
 10
340.9559909392689
 20
18.74751183211923
 30
0.0
 11
329.0809909392688
 21
18.74751183211922
 31
0.0
  0
LINE
  5
4EA1
330
1DE8
100
AcDbEntity
  8
0
100
AcDbLine
 10
342.9559909392693
 20
12.12251183211913
 30
0.0
 11
361.0948226668292
 21
12.12251183211907
 31
0.0
  0
LINE
  5
4EA2
330
1DE8
100
AcDbEntity
  8
0
100
AcDbLine
 10
358.4698226668287
 20
12.12251183211908
 30
0.0
 11
358.4698226668286
 21
47.33535743376684
 31
0.0
  0
LINE
  5
4EA3
330
1DE8
100
AcDbEntity
  8
0
100
AcDbLine
 10
358.4698226668289
 20
106.7475118321192
 30
0.0
 11
358.4698226668288
 21
59.3604264897667
 31
0.0
  0
SOLID
  5
4EA4
330
1DE8
100
AcDbEntity
  8
0
100
AcDbTrace
 10
358.0323226668292
 20
14.74751183211911
 30
0.0
 11
358.9073226668292
 21
14.74751183211911
 31
0.0
 12
358.4698226668292
 22
12.1225118321191
 32
0.0
 13
358.4698226668292
 23
12.1225118321191
 33
0.0
  0
SOLID
  5
4EA5
330
1DE8
100
AcDbEntity
  8
0
100
AcDbTrace
 10
358.0323226668289
 20
106.7475118321192
 30
0.0
 11
358.9073226668289
 21
106.7475118321192
 31
0.0
 12
358.4698226668289
 22
109.3725118321192
 32
0.0
 13
358.4698226668289
 23
109.3725118321192
 33
0.0
  0
TEXT
  5
4EA6
330
1DE8
100
AcDbEntity
  8
0
  6
ByBlock
 62
     0
100
AcDbText
 10
351.8743820344448
 20
48.55503743376679
 30
0.0
 40
1.568996351999985
  1
20 FT MAX
  7
ROMANS
 72
     1
 11
358.5239380024447
 21
49.33953560976679
 31
0.0
100
AcDbText
 73
     2
  0
LINE
  5
4EA7
330
1DE8
100
AcDbEntity
  8
0
  6
ByBlock
 62
     0
100
AcDbLine
 10
350.8788443704449
 20
47.33535743376686
 30
0.0
 11
366.1690316344448
 21
47.33535743376683
 31
0.0
  0
LINE
  5
4EA8
330
1DE8
100
AcDbEntity
  8
0
  6
ByBlock
 62
     0
100
AcDbLine
 10
366.1690316344448
 20
51.34371378576675
 30
0.0
 11
350.8788443704449
 21
51.34371378576678
 31
0.0
  0
LINE
  5
4EA9
330
1DE8
100
AcDbEntity
  8
0
  6
ByBlock
 62
     0
100
AcDbLine
 10
366.1690316344448
 20
59.3604264897667
 30
0.0
 11
350.8788443704449
 21
59.36042648976671
 31
0.0
  0
LINE
  5
4EAA
330
1DE8
100
AcDbEntity
  8
0
100
AcDbLine
 10
342.9559909392691
 20
109.3725118321192
 30
0.0
 11
361.094822666829
 21
109.3725118321192
 31
0.0
  0
MTEXT
  5
4EDE
330
1DE8
100
AcDbEntity
  8
0
100
AcDbMText
 10
297.6309377611544
 20
31.57690237066171
 30
0.0
 40
1.875
 41
0.0
 71
     5
 72
     1
  1
\A1;RISER HEIGHT\P(8" MIN - \P9-1/2" MAX)
  7
ROMANS
 73
     1
 44
1.0
1001
ACAD
1000
MTEXTBEGIN
1070
    73
1070
     1
1070
    44
1040
1.0
1070
    74
1070
     0
1000
MTEXTEND
  0
LINE
  5
4EEE
330
1DE8
100
AcDbEntity
  8
0
100
AcDbLine
 10
327.205990939269
 20
36.24751183211862
 30
0.0
 11
308.5188122446977
 21
36.24751183211865
 31
0.0
  0
LINE
  5
4EEF
330
1DE8
100
AcDbEntity
  8
0
100
AcDbLine
 10
326.9559909392689
 20
28.12251183211864
 30
0.0
 11
308.5188122446977
 21
28.12251183211867
 31
0.0
  0
LINE
  5
4EF0
330
1DE8
100
AcDbEntity
  8
0
100
AcDbLine
 10
310.3938122446977
 20
34.37251183211865
 30
0.0
 11
310.3938122446977
 21
29.99751183211866
 31
0.0
  0
SOLID
  5
4EF2
330
1DE8
100
AcDbEntity
  8
0
100
AcDbTrace
 10
310.0813122446977
 20
34.37251183211865
 30
0.0
 11
310.7063122446977
 21
34.37251183211865
 31
0.0
 12
310.3938122446977
 22
36.24751183211865
 32
0.0
 13
310.3938122446977
 23
36.24751183211865
 33
0.0
  0
SOLID
  5
4EF3
330
1DE8
100
AcDbEntity
  8
0
100
AcDbTrace
 10
310.0813122446977
 20
29.99751183211866
 30
0.0
 11
310.7063122446977
 21
29.99751183211866
 31
0.0
 12
310.3938122446977
 22
28.12251183211867
 32
0.0
 13
310.3938122446977
 23
28.12251183211867
 33
0.0
  0
LINE
  5
4EFA
330
1DE8
100
AcDbEntity
  8
0
100
AcDbLine
 10
350.8788443704449
 20
59.36042648976672
 30
0.0
 11
350.8788443704449
 21
47.33535743376686
 31
0.0
  0
LINE
  5
4EFB
330
1DE8
100
AcDbEntity
  8
0
100
AcDbLine
 10
366.1690316344448
 20
59.3604264897667
 30
0.0
 11
366.1690316344448
 21
47.33535743376683
 31
0.0
  0
LEADER
  5
4F17
330
1DE8
100
AcDbEntity
  8
0
100
AcDbLeader
  3
STANDARD
 76
     3
 10
320.8030720388035
 20
108.7384454130111
 30
0.0
 10
316.3052979200196
 20
113.2768550499119
 30
0.0
 10
310.4367741115607
 20
113.2768550499119
 30
0.0
1001
ACAD
1000
DSTYLE
1002
{
1070
   147
1040
0.0625
1070
    77
1070
     0
1002
}
  0
ARC
  5
5036
330
1DE8
100
AcDbEntity
  8
0
 62
     7
100
AcDbCircle
 10
253.3472692848791
 20
112.4386847367692
 30
0.0
 40
0.8299999999999982
100
AcDbArc
 50
67.99999999999866
 51
247.9999999999987
  0
LINE
  5
5037
330
1DE8
100
AcDbEntity
  8
0
 62
     7
100
AcDbLine
 10
256.8325622860068
 20
111.9257187960164
 30
0.0
 11
253.6581927574144
 21
113.2082473360597
 31
0.0
  0
LINE
  5
5038
330
1DE8
100
AcDbEntity
  8
0
 62
     7
100
AcDbLine
 10
263.7438411063663
 20
107.3430132256873
 30
0.0
 11
253.036345812344
 21
111.6691221374789
 31
0.0
  0
LINE
  5
5039
330
1DE8
100
AcDbEntity
  8
0
 62
     7
100
AcDbLine
 10
264.3656880514366
 20
108.8821384242681
 30
0.0
 11
258.3716874845876
 21
111.3038718509461
 31
0.0
  0
LINE
  5
503A
330
1DE8
100
AcDbEntity
  8
0
 62
     7
100
AcDbLine
 10
256.8323192967622
 20
111.9258169700438
 30
0.0
 11
270.6610165144685
 21
146.153043653463
 31
0.0
  0
LINE
  5
503B
330
1DE8
100
AcDbEntity
  8
0
 62
     7
100
AcDbLine
 10
258.3636317121694
 20
111.2846327080519
 30
0.0
 11
272.2001417130495
 21
145.5311967083926
 31
0.0
  0
LINE
  5
503C
330
1DE8
100
AcDbEntity
  8
0
 62
     7
100
AcDbLine
 10
253.7355252225092
 20
113.1770029920529
 30
0.0
 11
267.5642224402153
 21
147.4042296754722
 31
0.0
  0
LWPOLYLINE
  5
503D
330
1DE8
100
AcDbEntity
  8
0
 62
     7
100
AcDbPolyline
 90
        6
 70
     0
 43
0.0
 10
265.6686861303054
 20
147.0270811445614
 10
267.1573598767657
 20
146.3951766296366
 10
268.1341876979888
 20
148.6964387632677
 42
-0.4142135623731017
 10
270.3239517878314
 20
149.5811608839562
 10
270.9725654611236
 20
151.1091989406872
 42
0.4142135623730951
 10
266.6061496412577
 20
149.3450524365599
  0
LWPOLYLINE
  5
503E
330
1DE8
100
AcDbEntity
  8
0
 62
     7
100
AcDbPolyline
 90
        6
 70
     0
 43
0.0
 10
270.3239517878314
 20
149.5811608839562
 42
-0.4142135623730951
 10
271.2086739085199
 20
147.3913967941135
 10
270.2318460872967
 20
145.0901346604825
 10
271.7598841440278
 20
144.4415209871903
 10
272.736711965251
 20
146.7427831208214
 42
0.4142135623730951
 10
270.9725654611237
 20
151.1091989406873
 42
0.4142135623730951
  0
LWPOLYLINE
  5
503F
330
1DE8
100
AcDbEntity
  8
0
 62
     7
100
AcDbPolyline
 90
        2
 70
     0
 43
0.0
 10
254.1211509221871
 20
111.2308324231822
 10
254.7429978672576
 20
112.7699576217631
  0
ARC
  5
5040
330
1DE8
100
AcDbEntity
  8
0
 62
     7
100
AcDbCircle
 10
257.6021248852973
 20
111.6147953234812
 30
0.0
 40
0.8299999999999982
100
AcDbArc
 50
157.9999999999993
 51
337.9999999999993
  0
LWPOLYLINE
  5
5041
330
1DE8
100
AcDbEntity
  8
0
 62
     7
100
AcDbPolyline
 90
        2
 70
     0
 43
0.0
 10
258.8099771988843
 20
112.3886769607892
 10
257.2708520003034
 20
113.0105239058596
  0
DIMENSION
  5
5043
330
1DE8
100
AcDbEntity
  8
0
100
AcDbDimension
  2
*D12
 10
260.0998979932985
 20
110.6056580351972
 30
0.0
 11
253.654670067532
 21
94.65350892561611
 31
0.0
 70
    33
  1
AS REQ'D
 71
     5
 42
34.40999995521008
 53
68.0
 51
0.0000000000001018
  3
STANDARD$0
100
AcDbAlignedDimension
 13
250.4323934164414
 23
77.39917442294276
 33
0.0
 14
263.3228492679744
 24
109.3034726421049
 34
0.0
  0
DIMENSION
  5
506F
330
1DE8
100
AcDbEntity
  8
0
100
AcDbDimension
  2
*D13
 10
358.4698226668289
 20
109.3725118321192
 30
0.0
 11
358.4698226668289
 21
130.3861677511423
 31
0.0
 70
    32
  1
42"
 71
     5
 42
42.02731183804608
 51
0.0000000000001018
  3
STANDARD$0
100
AcDbAlignedDimension
 13
341.9559909392692
 23
151.3998236701653
 33
0.0
 14
342.9559909392692
 24
109.3725118321192
 34
0.0
 50
89.99999999999992
100
AcDbRotatedDimension
  0
TEXT
  5
50A4
330
1DE8
100
AcDbEntity
  8
0
100
AcDbText
 10
378.273051375538
 20
106.2155794567157
 30
0.0
 40
1.671516
  1
(TREADS ARE 11" DEEP FOR 56° AT)
  7
ROMANS
100
AcDbText
  0
LINE
  5
50E6
330
1DE8
100
AcDbEntity
  8
0
 62
     5
100
AcDbLine
 10
180.7132662171538
 20
-2.012705029355212
 30
0.0
 11
438.5742349671589
 21
-2.012705029355212
 31
0.0
  0
LINE
  5
50E7
330
1DE8
100
AcDbEntity
  8
0
 62
     5
100
AcDbLine
 10
244.0011686582584
 20
-11.67593371699211
 30
0.0
 11
387.002041217158
 21
-11.67593371699211
 31
0.0
  0
LINE
  5
50E8
330
1DE8
100
AcDbEntity
  8
0
 62
     5
100
AcDbLine
 10
180.7132662171538
 20
-16.50754806081058
 30
0.0
 11
438.5742349671589
 21
-16.50754806081058
 31
0.0
  0
LINE
  5
50E9
330
1DE8
100
AcDbEntity
  8
0
 62
     5
100
AcDbLine
 10
244.0011686582584
 20
-6.844319373173679
 30
0.0
 11
438.5742349671589
 21
-6.844319373173679
 31
0.0
  0
LINE
  5
50EA
330
1DE8
100
AcDbEntity
  8
0
 62
     5
100
AcDbLine
 10
438.5742349671589
 20
169.1523494391931
 30
0.0
 11
180.7132662171538
 21
169.1523494391931
 31
0.0
  0
LINE
  5
50EB
330
1DE8
100
AcDbEntity
  8
0
 62
     5
100
AcDbLine
 10
180.7132662171538
 20
169.1523494391931
 30
0.0
 11
180.7132662171538
 21
-16.50754806081058
 31
0.0
  0
TEXT
  5
50EC
330
1DE8
100
AcDbEntity
  8
0
 62
     7
100
AcDbText
 10
194.666485626853
 20
-13.17392825300424
 30
0.0
 40
1.335958552394437
  1
Ph: (423) 586-2265 Fax: (423) 586-2091
  7
ROMANS
100
AcDbText
  0
TEXT
  5
50ED
330
1DE8
100
AcDbEntity
  8
0
 62
     7
100
AcDbText
 10
193.9181766321579
 20
-11.01094773960378
 30
0.0
 40
1.335958552394437
  1
P.O. BOX 2279 Morristown, TN 37816-2279
  7
ROMANS
100
AcDbText
  0
POLYLINE
  5
50EF
330
1DE8
100
AcDbEntity
  8
0
 62
     7
100
AcDb2dPolyline
 66
     1
 10
0.0
 20
0.0
 30
0.0
1001
ACAD
1000
ASC_BOUNDS
1002
{
1070
    19
1002
}
  0
VERTEX
  5
50F0
330
50EF
100
AcDbEntity
  8
0
 62
     7
100
AcDbVertex
100
AcDb2dVertex
 10
188.9335746109476
 20
-10.46565452279619
 30
0.0
  0
VERTEX
  5
50F1
330
50EF
100
AcDbEntity
  8
0
 62
     7
100
AcDbVertex
100
AcDb2dVertex
 10
189.1472579612692
 20
-10.35677586698766
 30
0.0
1001
ACAD
1000
ASC_BOUNDS
1002
{
1070
    19
1002
}
  0
VERTEX
  5
50F2
330
50EF
100
AcDbEntity
  8
0
 62
     7
100
AcDbVertex
100
AcDb2dVertex
 10
190.5847789309216
 20
-13.23337920207217
 30
0.0
1001
ACAD
1000
ASC_BOUNDS
1002
{
1070
    19
1002
}
  0
VERTEX
  5
50F3
330
50EF
100
AcDbEntity
  8
0
 62
     7
100
AcDbVertex
100
AcDb2dVertex
 10
190.1228733540604
 20
-13.23046471322728
 30
0.0
  0
VERTEX
  5
50F4
330
50EF
100
AcDbEntity
  8
0
 62
     7
100
AcDbVertex
100
AcDb2dVertex
 10
188.7802574651974
 20
-10.54377462301262
 30
0.0
  0
SEQEND
  5
50F5
330
50EF
100
AcDbEntity
  8
0
 62
     7
  0
TEXT
  5
50F6
330
1DE8
100
AcDbEntity
  8
0
 62
     7
100
AcDbText
 10
189.166763880604
 20
-8.738687606043184
 30
0.0
 40
2.183741215811926
  1
Precision Ladders, LLC
  7
STYLE1
100
AcDbText
  0
CIRCLE
  5
50F7
330
1DE8
100
AcDbEntity
  8
0
100
AcDbCircle
 10
187.4782668016462
 20
-9.058853349559598
 30
0.0
 40
5.988735177693678
1001
ACAD
1000
ASC_BOUNDS
1002
{
1070
    19
1002
}
  0
INSERT
  5
50F8
330
1DE8
100
AcDbEntity
  8
0
100
AcDbBlockReference
  2
*X1
 10
205.4220098295793
 20
125.3207157791884
 30
0.0
 41
0.4845654169410239
 42
0.4845654169410137
 43
0.4845654169410136
1001
ACAD
1000
HATCH
1002
{
1070
    19
1000
ANSI31
1040
0.8843871093750001
1040
0.0
1002
}
  0
LWPOLYLINE
  5
50F9
330
1DE8
100
AcDbEntity
  8
0
 62
     7
100
AcDbPolyline
 90
        4
 70
     1
 43
0.0
 10
183.5033111901508
 20
-6.000187227546617
 10
183.5033111901508
 20
-5.566613022193243
 10
188.1208764771637
 20
-5.566613022193243
 10
188.1208764771637
 20
-6.000187227546617
1001
ACAD
1000
ASC_BOUNDS
1002
{
1070
    19
1005
0
1005
0
1002
}
  0
LINE
  5
50FA
330
1DE8
100
AcDbEntity
  8
0
 62
     7
100
AcDbLine
 10
183.6644310508335
 20
-6.046983095994377
 30
0.0
 11
185.5836071099182
 21
-9.813578191467989
 31
0.0
1001
ACAD
1000
ASC_BOUNDS
1002
{
1070
    19
1002
}
  0
LWPOLYLINE
  5
50FB
330
1DE8
100
AcDbEntity
  8
0
 62
     7
100
AcDbPolyline
 90
        4
 70
     0
 43
0.0
 10
183.5668414925877
 20
-6.002088449554754
 10
185.5990028909458
 20
-9.990429758854237
 10
185.5897312722492
 20
-9.995153884538115
 10
183.5575698738912
 20
-6.006812575238677
1001
ACAD
1000
ASC_BOUNDS
1002
{
1070
    19
1002
}
  0
LINE
  5
50FC
330
1DE8
100
AcDbEntity
  8
0
 62
     7
100
AcDbLine
 10
183.6064834339801
 20
-6.076508881518783
 30
0.0
 11
183.6644310508335
 21
-6.046983095994377
 31
0.0
1001
ACAD
1000
ASC_BOUNDS
1002
{
1070
    19
1002
}
  0
LINE
  5
50FD
330
1DE8
100
AcDbEntity
  8
0
 62
     7
100
AcDbLine
 10
183.6644310508335
 20
-6.046983095994377
 30
0.0
 11
183.7562731138633
 21
-6.000187227546617
 31
0.0
1001
ACAD
1000
ASC_BOUNDS
1002
{
1070
    19
1002
}
  0
LINE
  5
50FE
330
1DE8
100
AcDbEntity
  8
0
 62
     7
100
AcDbLine
 10
183.6644310508335
 20
-6.046983095994377
 30
0.0
 11
183.7825341929311
 21
-6.278773563408115
 31
0.0
1001
ACAD
1000
ASC_BOUNDS
1002
{
1070
    19
1002
}
  0
LINE
  5
50FF
330
1DE8
100
AcDbEntity
  8
0
 62
     7
100
AcDbLine
 10
185.4694422783116
 20
-7.56450951179911
 30
0.0
 11
185.0225894646133
 21
-8.47231875011359
 31
0.0
1001
ACAD
1000
ASC_BOUNDS
1002
{
1070
    19
1005
0
1002
}
  0
LWPOLYLINE
  5
5100
330
1DE8
100
AcDbEntity
  8
0
 62
     7
100
AcDbPolyline
 90
        2
 70
     0
 43
0.0
 10
185.3646152747335
 20
-7.558698307818924
 10
184.9360104902354
 20
-8.429435541703236
1001
ACAD
1000
ASC_BOUNDS
1002
{
1070
    19
1005
0
1002
}
  0
LINE
  5
5101
330
1DE8
100
AcDbEntity
  8
0
 62
     7
100
AcDbLine
 10
184.5164884368613
 20
-6.000187227546617
 30
0.0
 11
185.3380687099392
 21
-7.612629302605109
 31
0.0
1001
ACAD
1000
ASC_BOUNDS
1002
{
1070
    19
1002
}
  0
LINE
  5
5102
330
1DE8
100
AcDbEntity
  8
0
 62
     7
100
AcDbLine
 10
184.4434966808669
 20
-6.000187227546617
 30
0.0
 11
185.3022028619999
 21
-7.68549299978054
 31
0.0
1001
ACAD
1000
ASC_BOUNDS
1002
{
1070
    19
1002
}
  0
LINE
  5
5103
330
1DE8
100
AcDbEntity
  8
0
 62
     7
100
AcDbLine
 10
184.3684570406586
 20
-6.521434114617416
 30
0.0
 11
185.1348289049498
 21
-8.025523586598936
 31
0.0
1001
ACAD
1000
ASC_BOUNDS
1002
{
1070
    19
1002
}
  0
LINE
  5
5104
330
1DE8
100
AcDbEntity
  8
0
 62
     7
100
AcDbLine
 10
185.8555565987094
 20
-10.02807094974933
 30
0.0
 11
188.7802574651974
 21
-10.54377462301262
 31
0.0
1001
ACAD
1000
ASC_BOUNDS
1002
{
1070
    19
1002
}
  0
POLYLINE
  5
5105
330
1DE8
100
AcDbEntity
  8
0
 62
     7
100
AcDb2dPolyline
 66
     1
 10
0.0
 20
0.0
 30
0.0
1001
ACAD
1000
ASC_BOUNDS
1002
{
1070
    19
1002
}
  0
VERTEX
  5
5106
330
5105
100
AcDbEntity
  8
0
 62
     7
100
AcDbVertex
100
AcDb2dVertex
 10
185.9257565078112
 20
-9.732046162973599
 30
0.0
  0
VERTEX
  5
5107
330
5105
100
AcDbEntity
  8
0
 62
     7
100
AcDbVertex
100
AcDb2dVertex
 10
185.9506086833233
 20
-9.626581549813483
 30
0.0
1001
ACAD
1000
ASC_BOUNDS
1002
{
1070
    19
1002
}
  0
VERTEX
  5
5108
330
5105
100
AcDbEntity
  8
0
 62
     7
100
AcDbVertex
100
AcDb2dVertex
 10
188.8626187685194
 20
-10.14004749592876
 30
0.0
1001
ACAD
1000
ASC_BOUNDS
1002
{
1070
    19
1002
}
  0
VERTEX
  5
5109
330
5105
100
AcDbEntity
  8
0
 62
     7
100
AcDbVertex
100
AcDb2dVertex
 10
188.8115768356228
 20
-10.39025010441089
 30
0.0
  0
SEQEND
  5
510A
330
5105
100
AcDbEntity
  8
0
 62
     7
  0
LINE
  5
510B
330
1DE8
100
AcDbEntity
  8
0
 62
     7
100
AcDbLine
 10
185.3569761011308
 20
-7.792991534319341
 30
0.0
 11
186.1967809254798
 21
-9.441201305160609
 31
0.0
1001
ACAD
1000
ASC_BOUNDS
1002
{
1070
    19
1005
0
1002
}
  0
LWPOLYLINE
  5
510C
330
1DE8
100
AcDbEntity
  8
0
 62
     7
100
AcDbPolyline
 90
        2
 70
     0
 43
0.0
 10
185.3928419490701
 20
-7.72012783714395
 10
186.252794441683
 20
-9.407879633381384
1001
ACAD
1000
ASC_BOUNDS
1002
{
1070
    19
1002
}
  0
LWPOLYLINE
  5
510D
330
1DE8
100
AcDbEntity
  8
0
 62
     7
100
AcDbPolyline
 90
        3
 70
     0
 43
0.0
 10
184.9367888921664
 20
-8.537518451383952
 10
185.0926664579267
 20
-8.461491882736364
 10
185.0597337559323
 20
-8.396857815827548
1001
ACAD
1000
ASC_BOUNDS
1002
{
1070
    19
1002
}
  0
CIRCLE
  5
510E
330
1DE8
100
AcDbEntity
  8
0
 62
     7
100
AcDbCircle
 10
184.9985967253642
 20
-8.412926833896312
 30
0.0
 40
0.0162590327007498
1001
ACAD
1000
ASC_BOUNDS
1002
{
1070
    19
1002
}
  0
LINE
  5
510F
330
1DE8
100
AcDbEntity
  8
0
 62
     7
100
AcDbLine
 10
184.9907226526868
 20
-8.318284386336451
 30
0.0
 11
184.8580534641014
 21
-8.382991473108088
 31
0.0
1001
ACAD
1000
ASC_BOUNDS
1002
{
1070
    19
1002
}
  0
LINE
  5
5110
330
1DE8
100
AcDbEntity
  8
0
 62
     7
100
AcDbLine
 10
184.836890399916
 20
-8.350672517454043
 30
0.0
 11
184.9549935420135
 21
-8.582462984867781
 31
0.0
1001
ACAD
1000
ASC_BOUNDS
1002
{
1070
    19
1002
}
  0
LINE
  5
5111
330
1DE8
100
AcDbEntity
  8
0
 62
     7
100
AcDbLine
 10
185.0225212998401
 20
-8.472414728166175
 30
0.0
 11
184.9358432365358
 21
-8.429732159010871
 31
0.0
1001
ACAD
1000
ASC_BOUNDS
1002
{
1070
    19
1002
}
  0
LWPOLYLINE
  5
5112
330
1DE8
100
AcDbEntity
  8
0
 62
     1
100
AcDbPolyline
 90
        2
 70
     1
 43
0.0
 10
185.0148557580649
 20
-8.412926833896312
 42
-1.0
 10
184.9823376926635
 20
-8.412926833896312
 42
-1.0
1001
ACAD
1000
ASC_BOUNDS
1002
{
1070
    19
1002
}
  0
LINE
  5
5113
330
1DE8
100
AcDbEntity
  8
0
 62
     7
100
AcDbLine
 10
186.2532594872283
 20
-9.407600205827154
 30
0.0
 11
186.1975126425398
 21
-9.441096289435494
 31
0.0
1001
ACAD
1000
ASC_BOUNDS
1002
{
1070
    19
1002
}
  0
LINE
  5
5114
330
1DE8
100
AcDbEntity
  8
0
 62
     7
100
AcDbLine
 10
185.8049635460264
 20
-9.700791453861505
 30
0.0
 11
185.5242917452011
 21
-9.843800879337379
 31
0.0
1001
ACAD
1000
ASC_BOUNDS
1002
{
1070
    19
1002
}
  0
POLYLINE
  5
5115
330
1DE8
100
AcDbEntity
  8
0
 62
     7
100
AcDb2dPolyline
 66
     1
 10
0.0
 20
0.0
 30
0.0
1001
ACAD
1000
ASC_BOUNDS
1002
{
1070
    19
1002
}
  0
VERTEX
  5
5116
330
5115
100
AcDbEntity
  8
0
 62
     7
100
AcDbVertex
100
AcDb2dVertex
 10
185.8559821580658
 20
-10.02814598734585
 30
0.0
  0
VERTEX
  5
5117
330
5115
100
AcDbEntity
  8
0
 62
     7
100
AcDbVertex
100
AcDb2dVertex
 10
185.9140536414144
 20
-9.781709351486288
 30
0.0
1001
ACAD
1000
ASC_BOUNDS
1002
{
1070
    19
1002
}
  0
SEQEND
  5
5118
330
5115
100
AcDbEntity
  8
0
 62
     7
  0
LINE
  5
5119
330
1DE8
100
AcDbEntity
  8
0
 62
     7
100
AcDbLine
 10
185.1896021440807
 20
-8.13302212113782
 30
0.0
 11
185.719786356566
 21
-9.173567226414505
 31
0.0
1001
ACAD
1000
ASC_BOUNDS
1002
{
1070
    19
1002
}
  0
LINE
  5
511A
330
1DE8
100
AcDbEntity
  8
0
 62
     7
100
AcDbLine
 10
185.750867173213
 20
-9.234566763685521
 30
0.0
 11
185.9506086833233
 21
-9.626581549813483
 31
0.0
1001
ACAD
1000
ASC_BOUNDS
1002
{
1070
    19
1002
}
  0
LWPOLYLINE
  5
511B
330
1DE8
100
AcDbEntity
  8
0
 62
     7
100
AcDbPolyline
 90
        4
 70
     0
 43
0.0
 10
186.0236944662115
 20
-9.101500001839939
 10
185.5744677384677
 20
-9.320602516615451
 10
185.5449419529433
 20
-9.262654899761979
 10
185.9902085685487
 20
-9.035780227300744
1001
ACAD
1000
ASC_BOUNDS
1002
{
1070
    19
1005
0
1002
}
  0
LWPOLYLINE
  5
511C
330
1DE8
100
AcDbEntity
  8
0
 62
     7
100
AcDbPolyline
 90
        5
 70
     0
 43
0.0
 10
185.950608683344
 20
-9.626581549723265
 10
185.9623167754375
 20
-9.653079548673296
 10
186.1065706925977
 20
-9.944512671584142
 10
186.0094263182941
 20
-9.992597310637471
 10
185.8870664283486
 20
-9.722035255373782
1001
ACAD
1000
ASC_BOUNDS
1002
{
1070
    19
1002
}
  0
POLYLINE
  5
511D
330
1DE8
100
AcDbEntity
  8
0
 62
     7
100
AcDb2dPolyline
 66
     1
 10
0.0
 20
0.0
 30
0.0
 70
     1
1001
ACAD
1000
ASC_BOUNDS
1002
{
1070
    19
1002
}
  0
VERTEX
  5
511E
330
511D
100
AcDbEntity
  8
0
 62
     7
100
AcDbVertex
100
AcDb2dVertex
 10
185.5850629060143
 20
-9.645193643734632
 30
0.0
1001
ACAD
1000
ASC_BOUNDS
1002
{
1070
    19
1002
}
  0
VERTEX
  5
511F
330
511D
100
AcDbEntity
  8
0
 62
     7
100
AcDbVertex
100
AcDb2dVertex
 10
185.605162776115
 20
-9.5486619003601
 30
0.0
  0
VERTEX
  5
5120
330
511D
100
AcDbEntity
  8
0
 62
     7
100
AcDbVertex
100
AcDb2dVertex
 10
185.6331445901502
 20
-9.556161330480154
 30
0.0
  0
VERTEX
  5
5121
330
511D
100
AcDbEntity
  8
0
 62
     7
100
AcDbVertex
100
AcDb2dVertex
 10
185.950608683344
 20
-9.626581549723265
 30
0.0
  0
VERTEX
  5
5122
330
511D
100
AcDbEntity
  8
0
 62
     7
100
AcDbVertex
100
AcDb2dVertex
 10
185.9271352769297
 20
-9.732402914121156
 30
0.0
  0
VERTEX
  5
5123
330
511D
100
AcDbEntity
  8
0
 62
     7
100
AcDbVertex
100
AcDb2dVertex
 10
185.6123222044931
 20
-9.650946255899341
 30
0.0
  0
SEQEND
  5
5124
330
511D
100
AcDbEntity
  8
0
 62
     7
  0
LWPOLYLINE
  5
5125
330
1DE8
100
AcDbEntity
  8
0
 62
     7
100
AcDbPolyline
 90
        5
 70
     0
 43
0.0
 10
188.7802574651974
 20
-10.54377462301262
 10
188.7674089616051
 20
-10.51781042989466
 10
188.6106270759813
 20
-10.23292115651659
 10
188.7055901671073
 20
-10.1806605279754
 10
188.8395917542387
 20
-10.44564985429293
1001
ACAD
1000
ASC_BOUNDS
1002
{
1070
    19
1002
}
  0
LINE
  5
5126
330
1DE8
100
AcDbEntity
  8
0
 62
     7
100
AcDbLine
 10
188.8019113432255
 20
-10.43762941143999
 30
0.0
 11
188.7802574651974
 21
-10.54377462301262
 31
0.0
1001
ACAD
1000
ASC_BOUNDS
1002
{
1070
    19
1002
}
  0
POLYLINE
  5
5127
330
1DE8
100
AcDbEntity
  8
0
 62
     7
100
AcDb2dPolyline
 66
     1
 10
0.0
 20
0.0
 30
0.0
 70
     1
1001
ACAD
1000
ASC_BOUNDS
1002
{
1070
    19
1002
}
  0
VERTEX
  5
5128
330
5127
100
AcDbEntity
  8
0
 62
     7
100
AcDbVertex
100
AcDb2dVertex
 10
189.144649153298
 20
-10.50929531022542
 30
0.0
1001
ACAD
1000
ASC_BOUNDS
1002
{
1070
    19
1002
}
  0
VERTEX
  5
5129
330
5127
100
AcDbEntity
  8
0
 62
     7
100
AcDbVertex
100
AcDb2dVertex
 10
189.1287630589486
 20
-10.60660930851601
 30
0.0
  0
VERTEX
  5
512A
330
5127
100
AcDbEntity
  8
0
 62
     7
100
AcDbVertex
100
AcDb2dVertex
 10
189.1004817890667
 20
-10.60033291283908
 30
0.0
  0
VERTEX
  5
512B
330
5127
100
AcDbEntity
  8
0
 62
     7
100
AcDbVertex
100
AcDb2dVertex
 10
188.7802574651974
 20
-10.54377462301262
 30
0.0
  0
VERTEX
  5
512C
330
5127
100
AcDbEntity
  8
0
 62
     7
100
AcDbVertex
100
AcDb2dVertex
 10
188.7991102284729
 20
-10.43703318172288
 30
0.0
  0
VERTEX
  5
512D
330
5127
100
AcDbEntity
  8
0
 62
     7
100
AcDbVertex
100
AcDb2dVertex
 10
189.1171656244869
 20
-10.50473268550224
 30
0.0
  0
SEQEND
  5
512E
330
5127
100
AcDbEntity
  8
0
 62
     7
  0
LINE
  5
512F
330
1DE8
100
AcDbEntity
  8
0
 62
     1
100
AcDbLine
 10
188.8626187685194
 20
-10.14004749592876
 30
0.0
 11
188.8115768356228
 21
-10.39025010441089
 31
0.0
1001
ACAD
1000
ASC_BOUNDS
1002
{
1070
    19
1002
}
  0
LINE
  5
5130
330
1DE8
100
AcDbEntity
  8
0
 62
     1
100
AcDbLine
 10
188.8115768356228
 20
-10.39025010441089
 30
0.0
 11
188.8395917542387
 21
-10.44564985429293
 31
0.0
1001
ACAD
1000
ASC_BOUNDS
1002
{
1070
    19
1002
}
  0
LINE
  5
5131
330
1DE8
100
AcDbEntity
  8
0
 62
     1
100
AcDbLine
 10
188.8395917542387
 20
-10.44564985429293
 30
0.0
 11
188.9335746109476
 21
-10.46565452279619
 31
0.0
  0
LINE
  5
5132
330
1DE8
100
AcDbEntity
  8
0
 62
     1
100
AcDbLine
 10
188.9335746109476
 20
-10.46565452279619
 30
0.0
 11
189.1472579612692
 21
-10.35677586698766
 31
0.0
1001
ACAD
1000
ASC_BOUNDS
1002
{
1070
    19
1002
}
  0
LINE
  5
5133
330
1DE8
100
AcDbEntity
  8
0
 62
     7
100
AcDbLine
 10
184.1028684862262
 20
-6.000187227546617
 30
0.0
 11
184.3404753804344
 21
-6.466517014300037
 31
0.0
1001
ACAD
1000
ASC_BOUNDS
1002
{
1070
    19
1002
}
  0
LWPOLYLINE
  5
5134
330
1DE8
100
AcDbEntity
  8
0
 62
     7
100
AcDbPolyline
 90
        4
 70
     0
 43
0.0
 10
184.6133026734329
 20
-6.333450252454456
 10
184.1658232001512
 20
-6.551700574288324
 10
184.194333163394
 20
-6.610154661448361
 10
184.6388792526413
 20
-6.383647115503696
1001
ACAD
1000
ASC_BOUNDS
1002
{
1070
    19
1002
}
  0
LINE
  5
5135
330
1DE8
100
AcDbEntity
  8
0
 62
     7
100
AcDbLine
 10
186.0669163878011
 20
-6.000187227546617
 30
0.0
 11
185.5116274306973
 21
-7.003824827512031
 31
0.0
1001
ACAD
1000
ASC_BOUNDS
1002
{
1070
    19
1002
}
  0
LINE
  5
5136
330
1DE8
100
AcDbEntity
  8
0
 62
     7
100
AcDbLine
 10
185.9430384094909
 20
-6.000187227546617
 30
0.0
 11
185.5293164280412
 21
-6.747954549772521
 31
0.0
1001
ACAD
1000
ASC_BOUNDS
1002
{
1070
    19
1002
}
  0
CIRCLE
  5
5137
330
1DE8
100
AcDbEntity
  8
0
 62
     7
100
AcDbCircle
 10
185.4213779366109
 20
-7.538030647221446
 30
0.0
 40
0.0162590327007498
1001
ACAD
1000
ASC_BOUNDS
1002
{
1070
    19
1002
}
  0
LWPOLYLINE
  5
5138
330
1DE8
100
AcDbEntity
  8
0
 62
     1
100
AcDbPolyline
 90
        2
 70
     1
 43
0.0
 10
185.4376369693116
 20
-7.538030647221446
 42
-1.0
 10
185.4051189039101
 20
-7.538030647221446
 42
-1.0
1001
ACAD
1000
ASC_BOUNDS
1002
{
1070
    19
1002
}
  0
LINE
  5
5139
330
1DE8
100
AcDbEntity
  8
0
 62
     1
100
AcDbLine
 10
185.472750094591
 20
-7.566183145166136
 30
0.0
 11
185.4686184623075
 21
-7.566183145166136
 31
0.0
  0
LINE
  5
513A
330
1DE8
100
AcDbEntity
  8
0
 62
     7
100
AcDbLine
 10
185.5810115850307
 20
-6.000187227546617
 30
0.0
 11
185.4722332798978
 21
-7.573658838475519
 31
0.0
1001
ACAD
1000
ASC_BOUNDS
1002
{
1070
    19
1005
0
1002
}
  0
LWPOLYLINE
  5
513B
330
1DE8
100
AcDbEntity
  8
0
 62
     7
100
AcDbPolyline
 90
        3
 70
     0
 43
0.0
 10
185.4723593183281
 20
-6.000187227546617
 10
185.3640978278884
 20
-7.566183145166136
 10
185.4724913792268
 20
-7.566183145166136
1001
ACAD
1000
ASC_BOUNDS
1002
{
1070
    19
1005
0
1002
}
  0
TEXT
  5
513C
330
1DE8
100
AcDbEntity
  8
0
 62
     7
100
AcDbText
 10
200.7516699673942
 20
-15.58810770338565
 30
0.0
 40
1.536352335253603
  1
www.PrecisionLadders.com
  7
ROMANS
100
AcDbText
  0
LWPOLYLINE
  5
513D
330
1DE8
100
AcDbEntity
  8
0
 62
     7
100
AcDbPolyline
 90
        9
 70
     0
 43
0.0
 10
190.4335314576704
 20
-13.29251284304281
 10
190.4337366330506
 20
-13.25999542493311
 10
190.3361843787216
 20
-13.2593798987925
 10
190.2711495425022
 20
-13.25896954803217
 10
190.270944367122
 20
-13.29148696614179
 42
0.4142135623730939
 10
190.2817151146985
 20
-13.30239449730516
 10
190.4226239265071
 20
-13.30328359061931
 42
0.4142135623730989
 10
190.4335314576704
 20
-13.29251284304281
 42
-0.4142135623730944
 10
190.4226239265071
 20
-13.30328359061931
1001
ACAD
1000
ASC_BOUNDS
1002
{
1070
    19
1002
}
  0
LINE
  5
513E
330
1DE8
100
AcDbEntity
  8
0
 62
     7
100
AcDbLine
 10
190.3836337757582
 20
-13.23211003508156
 30
0.0
 11
190.3832487372231
 21
-13.25967686110415
 31
0.0
1001
ACAD
1000
ASC_BOUNDS
1002
{
1070
    19
1002
}
  0
LINE
  5
513F
330
1DE8
100
AcDbEntity
  8
0
 62
     7
100
AcDbLine
 10
190.3240185092238
 20
-13.23173388021788
 30
0.0
 11
190.3836337757582
 21
-13.23211003508156
 31
0.0
1001
ACAD
1000
ASC_BOUNDS
1002
{
1070
    19
1002
}
  0
LINE
  5
5140
330
1DE8
100
AcDbEntity
  8
0
 62
     7
100
AcDbLine
 10
190.3238664913967
 20
-13.2558265722368
 30
0.0
 11
190.3240185092238
 21
-13.23173388021788
 31
0.0
1001
ACAD
1000
ASC_BOUNDS
1002
{
1070
    19
1002
}
  0
LINE
  5
5141
330
1DE8
100
AcDbEntity
  8
0
 62
     5
100
AcDbLine
 10
244.0011686582584
 20
-16.50754806081058
 30
0.0
 11
244.0011686582584
 21
-2.012705029355212
 31
0.0
  0
TEXT
  5
5143
330
1DE8
100
AcDbEntity
  8
0
100
AcDbText
 10
244.3879601113834
 20
-13.22309952949216
 30
0.0
 40
1.03660109437502
  1
CHECKED BY:
  7
ROMANS
100
AcDbText
  0
TEXT
  5
5144
330
1DE8
100
AcDbEntity
  8
0
100
AcDbText
 10
244.3879601113834
 20
-3.559870841855228
 30
0.0
 40
1.03660109437502
  1
DWG. CHECK
  7
ROMANS
100
AcDbText
  0
TEXT
  5
5145
330
1DE8
100
AcDbEntity
  8
0
100
AcDbText
 10
244.3879601113834
 20
-8.391485185673696
 30
0.0
 40
1.03660109437502
  1
BUILT BY:
  7
ROMANS
100
AcDbText
  0
LINE
  5
5147
330
1DE8
100
AcDbEntity
  8
0
 62
     5
100
AcDbLine
 10
273.5432149671557
 20
-16.50754806081058
 30
0.0
 11
273.5432149671557
 21
-2.012705029355212
 31
0.0
  0
ATTDEF
  5
5149
330
1DE8
100
AcDbEntity
  8
0
100
AcDbText
 10
291.3956664499247
 20
-15.69977837781447
 30
0.0
 40
1.658777148630032
  1
JEB
  7
ROMANS
 72
     1
 11
293.9628215608997
 21
-15.69977837781447
 31
0.0
100
AcDbAttributeDefinition
  3
WHO ARE YOU?
  2
DNH
 70
     0
  0
TEXT
  5
514A
330
1DE8
100
AcDbEntity
  8
0
100
AcDbText
 10
273.9300064202808
 20
-13.22309952949216
 30
0.0
 40
1.03660109437502
  1
DRAWN BY:
  7
ROMANS
100
AcDbText
  0
TEXT
  5
514C
330
1DE8
100
AcDbEntity
  8
0
100
AcDbText
 10
273.9300064202808
 20
-8.391485185673696
 30
0.0
 40
1.03660109437502
  1
PURCHASE ORDER
  7
ROMANS
100
AcDbText
  0
TEXT
  5
514D
330
1DE8
100
AcDbEntity
  8
0
100
AcDbText
 10
273.9300064202808
 20
-3.559870841855228
 30
0.0
 40
1.03660109437502
  1
ARCH'T OR ENG'R.
  7
ROMANS
100
AcDbText
  0
LINE
  5
514E
330
1DE8
100
AcDbEntity
  8
0
 62
     5
100
AcDbLine
 10
438.5742349671589
 20
-16.50754806081058
 30
0.0
 11
438.5742349671589
 21
169.1523494391931
 31
0.0
  0
TEXT
  5
514F
330
1DE8
100
AcDbEntity
  8
0
100
AcDbText
 10
387.520050561064
 20
-8.784777225959533
 30
0.0
 40
1.03660109437502
  1
SERIAL#
  7
ROMANS
100
AcDbText
  0
TEXT
  5
5150
330
1DE8
100
AcDbEntity
  8
0
100
AcDbText
 10
387.388832670283
 20
-3.559870841855228
 30
0.0
 40
1.03660109437502
  1
PRECISION REP
  7
ROMANS
100
AcDbText
  0
ATTDEF
  5
5151
330
1DE8
100
AcDbEntity
  8
0
100
AcDbText
 10
351.0273491551708
 20
-15.69977837781438
 30
0.0
 40
1.658777148630032
  1

  7
ROMANS
 72
     1
 11
353.2785467140259
 21
-15.69977837781438
 31
0.0
100
AcDbAttributeDefinition
  3
MODEL #
  2
AT-
 70
     0
  0
LINE
  5
5153
330
1DE8
100
AcDbEntity
  8
0
 62
     5
100
AcDbLine
 10
314.8009699671566
 20
-16.50754806081058
 30
0.0
 11
314.8009699671566
 21
-2.012705029355212
 31
0.0
  0
LINE
  5
5154
330
1DE8
100
AcDbEntity
  8
0
 62
     5
100
AcDbLine
 10
330.2726280921568
 20
-16.50754806081058
 30
0.0
 11
330.2726280921568
 21
-6.844319373173679
 31
0.0
  0
ATTDEF
  5
5156
330
1DE8
100
AcDbEntity
  8
0
100
AcDbText
 10
317.4338697936652
 20
-15.69977837781447
 30
0.0
 40
1.658777148630032
  1

  7
ROMANS
 72
     1
 11
322.3312118515253
 21
-15.69977837781447
 31
0.0
100
AcDbAttributeDefinition
  3
WHAT IS TODAY'S DATE?
  2
4/4/17
 70
     0
  0
TEXT
  5
5157
330
1DE8
100
AcDbEntity
  8
0
100
AcDbText
 10
315.1877614202815
 20
-13.22309952949216
 30
0.0
 40
1.03660109437502
  1
DATE
  7
ROMANS
100
AcDbText
  0
TEXT
  5
5158
330
1DE8
100
AcDbEntity
  8
0
100
AcDbText
 10
330.6594195452818
 20
-13.22309952949216
 30
0.0
 40
1.03660109437502
  1
MODEL#
  7
ROMANS
100
AcDbText
  0
TEXT
  5
5159
330
1DE8
100
AcDbEntity
  8
0
100
AcDbText
 10
315.1877614202815
 20
-3.559870841855228
 30
0.0
 40
1.03660109437502
  1
PROJECT
  7
ROMANS
100
AcDbText
  0
TEXT
  5
515A
330
1DE8
100
AcDbEntity
  8
0
100
AcDbText
 10
315.1877614202815
 20
-8.391485185673696
 30
0.0
 40
1.03660109437502
  1
DATE
  7
ROMANS
100
AcDbText
  0
TEXT
  5
515B
330
1DE8
100
AcDbEntity
  8
0
100
AcDbText
 10
330.6594195452818
 20
-8.391485185673696
 30
0.0
 40
1.03660109437502
  1
PURCHASER
  7
ROMANS
100
AcDbText
  0
LINE
  5
515C
330
1DE8
100
AcDbEntity
  8
0
 62
     5
100
AcDbLine
 10
387.002041217158
 20
-16.50754806081058
 30
0.0
 11
387.002041217158
 21
-2.012705029355212
 31
0.0
  0
LINE
  5
515F
330
1DE8
100
AcDbEntity
  8
0
 62
     5
100
AcDbLine
 10
376.6876024671577
 20
-16.50754806081058
 30
0.0
 11
376.6876024671577
 21
-11.67593371699211
 31
0.0
  0
TEXT
  5
5160
330
1DE8
100
AcDbEntity
  8
0
100
AcDbText
 10
377.0743939202828
 20
-13.22309952949216
 30
0.0
 40
1.03660109437502
  1
QTY.
  7
ROMANS
100
AcDbText
  0
ATTDEF
  5
5161
330
1DE8
100
AcDbEntity
  8
0
100
AcDbText
 10
428.5314387799007
 20
-0.595042131881603
 30
0.0
 40
1.642654952490266
  1

  7
ROMANS
 72
     4
 11
431.5820836916683
 21
0.2262853443635302
 31
0.0
100
AcDbAttributeDefinition
  3
SAVED AS
  2
AT-2
 70
     0
  0
LEADER
  5
51BA
330
1DE8
100
AcDbEntity
  8
0
100
AcDbLeader
  3
STANDARD
 73
     0
 40
9.0
 76
     3
 10
228.3008746287543
 20
12.37251183211932
 30
0.0
 10
223.3704471969628
 20
16.7397071745147
 30
0.0
 10
219.2040405643924
 20
16.73970717451471
 30
0.0
340
51BB
211
1.0
221
-0.0000000000000018
231
0.0
213
0.0
223
2.699999999999999
233
0.0
1001
ACAD
1000
DSTYLE
1002
{
1070
   147
1040
0.0625
1070
    77
1070
     0
1002
}
  0
MTEXT
  5
51BB
102
{ACAD_REACTORS
330
51BA
102
}
330
1DE8
100
AcDbEntity
  8
0
100
AcDbMText
 10
217.3290405643923
 20
14.03970717451471
 30
0.0
 40
5.399999999999999
 41
0.0
 71
     9
 72
     1
  1
\A1;
  7
ROMANS
 73
     1
 44
1.0
1001
ACAD
1000
MTEXTBEGIN
1070
    73
1070
     1
1070
    44
1040
1.0
1070
    74
1070
     0
1000
MTEXTEND
  0
TEXT
  5
51BC
330
1DE8
100
AcDbEntity
  8
0
 62
     7
100
AcDbText
 10
192.7700658041166
 20
16.17052531126617
 30
0.0
 40
1.94568
  1
TYP TOP/BOTTOM
  7
ROMANS
 72
     1
 11
205.509637232688
 21
16.17052531126617
 31
0.0
100
AcDbText
  0
HATCH
  5
5255
330
1DE8
100
AcDbEntity
  8
0
100
AcDbHatch
 10
0.0
 20
0.0
 30
0.0
210
0.0
220
0.0
230
1.0
  2
ANSI31
 70
     0
 71
     0
 91
        1
 92
        7
 72
     0
 73
     1
 93
        4
 10
412.5336056603045
 20
73.96014355903234
 10
388.352279639072
 20
73.96014355903239
 10
388.352279639072
 20
72.49184401323913
 10
412.5336056603045
 20
72.49184401323906
 97
        0
 75
     0
 76
     1
 52
-0.0000000000000578
 41
1.25
 77
     0
 78
     1
 53
44.99999999999984
 43
530.3636246554746
 44
-150.9657866551119
 45
-0.1104854345603977
 46
0.1104854345603984
 79
     0
 47
0.0187551620358313
 98
        1
 10
399.8783435888551
 20
73.24218621158546
1001
ACAD
1010
0.0
1020
0.0
1030
0.0
  0
LINE
  5
5256
330
1DE8
100
AcDbEntity
  8
0
 62
     7
100
AcDbLine
 10
388.352279639072
 20
72.49184401323913
 30
0.0
 11
412.5336056603045
 21
72.49184401323906
 31
0.0
  0
TEXT
  5
5257
330
1DE8
100
AcDbEntity
  8
0
 62
     5
100
AcDbText
 10
384.1093248978771
 20
54.79968679967851
 30
0.0
 40
2.74674278178703
  1
HALF TREAD PLAN
  7
ROMANS
100
AcDbText
  0
LINE
  5
5258
330
1DE8
100
AcDbEntity
  8
0
100
AcDbLine
 10
388.3522796390721
 20
83.24094310482569
 30
0.0
 11
388.352279639072
 21
61.73848446562091
 31
0.0
  0
LINE
  5
5259
330
1DE8
100
AcDbEntity
  8
0
100
AcDbLine
 10
388.3522796390721
 20
83.24094310482569
 30
0.0
 11
412.5336056603045
 21
83.24094310482561
 31
0.0
  0
DIMENSION
  5
525A
330
1DE8
100
AcDbEntity
  8
0
100
AcDbDimension
  2
*D17
 10
412.5336056603043
 20
89.73107664888196
 30
0.0
 11
400.4429426496883
 21
89.73107664888196
 31
0.0
 70
    32
  1
11-7/8"\PWIDE
 71
     5
 42
24.18132602123217
  3
STANDARD$0
100
AcDbAlignedDimension
 13
388.3522796390722
 23
83.24094310482569
 33
0.0
 14
412.5336056603043
 24
83.24094310482562
 34
0.0
 50
359.9999999999992
100
AcDbRotatedDimension
  0
LINE
  5
525B
330
1DE8
100
AcDbEntity
  8
0
100
AcDbLine
 10
388.352279639072
 20
75.52264355903239
 30
0.0
 11
412.5336056603045
 21
75.52264355903234
 31
0.0
  0
LINE
  5
525C
330
1DE8
100
AcDbEntity
  8
0
100
AcDbLine
 10
388.3522796390721
 20
76.30389355903239
 30
0.0
 11
412.5336056603047
 21
76.30389355903234
 31
0.0
  0
LINE
  5
525D
330
1DE8
100
AcDbEntity
  8
0
100
AcDbLine
 10
388.3522796390721
 20
77.08514355903239
 30
0.0
 11
412.5336056603047
 21
77.08514355903234
 31
0.0
  0
LINE
  5
525E
330
1DE8
100
AcDbEntity
  8
0
100
AcDbLine
 10
388.3522796390721
 20
77.86639355903236
 30
0.0
 11
412.5336056603045
 21
77.86639355903234
 31
0.0
  0
LINE
  5
525F
330
1DE8
100
AcDbEntity
  8
0
100
AcDbLine
 10
388.3522796390721
 20
78.64764355903239
 30
0.0
 11
412.5336056603045
 21
78.64764355903234
 31
0.0
  0
LINE
  5
5260
330
1DE8
100
AcDbEntity
  8
0
100
AcDbLine
 10
388.352279639072
 20
74.74139355903239
 30
0.0
 11
412.5336056603045
 21
74.74139355903237
 31
0.0
  0
LINE
  5
5261
330
1DE8
100
AcDbEntity
  8
0
 62
     0
100
AcDbLine
 10
388.352279639072
 20
73.96014355903239
 30
0.0
 11
412.5336056603045
 21
73.96014355903234
 31
0.0
  0
LINE
  5
5262
330
1DE8
100
AcDbEntity
  8
0
100
AcDbLine
 10
397.727279639072
 20
73.96014355903234
 30
0.0
 11
397.7272796390721
 21
83.24094310482562
 31
0.0
  0
LINE
  5
5263
330
1DE8
100
AcDbEntity
  8
0
100
AcDbLine
 10
394.602279639072
 20
73.96014355903239
 30
0.0
 11
394.6022796390721
 21
83.24094310482568
 31
0.0
  0
LINE
  5
5264
330
1DE8
100
AcDbEntity
  8
0
100
AcDbLine
 10
391.477279639072
 20
73.9601435590324
 30
0.0
 11
391.4772796390721
 21
83.24094310482569
 31
0.0
  0
LINE
  5
5265
330
1DE8
100
AcDbEntity
  8
0
 62
     0
100
AcDbLine
 10
388.352279639072
 20
72.49184401323913
 30
0.0
 11
388.3522796390721
 21
78.88138299845403
 31
0.0
  0
LINE
  5
5266
330
1DE8
100
AcDbEntity
  8
0
100
AcDbLine
 10
400.8522796390719
 20
73.96014355903239
 30
0.0
 11
400.8522796390722
 21
83.24094310482568
 31
0.0
  0
LINE
  5
5267
330
1DE8
100
AcDbEntity
  8
0
100
AcDbLine
 10
403.9772796390719
 20
73.96014355903234
 30
0.0
 11
403.977279639072
 21
83.24094310482562
 31
0.0
  0
LINE
  5
5268
330
1DE8
100
AcDbEntity
  8
0
100
AcDbLine
 10
407.1022796390719
 20
73.96014355903237
 30
0.0
 11
407.102279639072
 21
83.24094310482566
 31
0.0
  0
LINE
  5
5269
330
1DE8
100
AcDbEntity
  8
0
100
AcDbLine
 10
410.227279639072
 20
73.96014355903239
 30
0.0
 11
410.227279639072
 21
83.24094310482568
 31
0.0
  0
LINE
  5
526A
330
1DE8
100
AcDbEntity
  8
0
100
AcDbLine
 10
388.3522796390721
 20
81.67844310482568
 30
0.0
 11
412.5336056603045
 21
81.67844310482562
 31
0.0
  0
LINE
  5
526B
330
1DE8
100
AcDbEntity
  8
0
100
AcDbLine
 10
388.3522796390721
 20
82.45969310482568
 30
0.0
 11
412.5336056603045
 21
82.45969310482562
 31
0.0
  0
LINE
  5
526C
330
1DE8
100
AcDbEntity
  8
0
100
AcDbLine
 10
388.3522796390721
 20
83.24094310482568
 30
0.0
 11
412.5336056603045
 21
83.24094310482562
 31
0.0
  0
LINE
  5
526D
330
1DE8
100
AcDbEntity
  8
0
100
AcDbLine
 10
388.3522796390721
 20
80.89719310482568
 30
0.0
 11
412.5336056603045
 21
80.89719310482569
 31
0.0
  0
LINE
  5
526E
330
1DE8
100
AcDbEntity
  8
0
100
AcDbLine
 10
388.3522796390721
 20
80.11594310482568
 30
0.0
 11
412.5336056603045
 21
80.11594310482562
 31
0.0
  0
LINE
  5
526F
330
1DE8
100
AcDbEntity
  8
0
100
AcDbLine
 10
388.3522796390721
 20
79.33469310482564
 30
0.0
 11
412.5336056603045
 21
79.33469310482566
 31
0.0
  0
DIMENSION
  5
5270
330
1DE8
100
AcDbEntity
  8
0
100
AcDbDimension
  2
*D18
 10
425.9498272715993
 20
83.24094310482559
 30
0.0
 11
425.9498272715993
 21
72.4897137852233
 31
0.0
 70
    32
  1
9-13/16"\PFLAT BAR
 71
     5
 42
21.50245863920472
  3
STANDARD$0
100
AcDbAlignedDimension
 13
412.5336056603044
 23
61.73848446562088
 33
0.0
 14
412.5336056603045
 24
83.24094310482561
 34
0.0
 50
90.0
100
AcDbRotatedDimension
  0
LINE
  5
5271
330
1DE8
100
AcDbEntity
  8
0
100
AcDbLine
 10
412.5336056603045
 20
83.24094310482566
 30
0.0
 11
412.5336056603044
 21
61.73848446562088
 31
0.0
  0
DIMENSION
  5
5272
330
1DE8
100
AcDbEntity
  8
0
100
AcDbDimension
  2
*D19
 10
379.6184463879089
 20
83.23881287680984
 30
0.0
 11
379.6184463879089
 21
77.86532844502454
 31
0.0
 70
    32
  1
5-1/16"\PTREAD
 71
     5
 42
10.74696886357071
  3
STANDARD$0
100
AcDbAlignedDimension
 13
388.352279639072
 23
72.49184401323913
 33
0.0
 14
388.3522796390721
 24
83.23881287680984
 34
0.0
 50
90.0
100
AcDbRotatedDimension
  0
TEXT
  5
5273
330
1DE8
100
AcDbEntity
  8
0
100
AcDbText
 10
387.7928856950888
 20
50.83414179905606
 30
0.0
 40
1.85724
  1
(TOP RIGHT SIDE)
  7
ROMANS
100
AcDbText
  0
LINE
  5
5274
330
1DE8
100
AcDbEntity
  8
0
100
AcDbLine
 10
388.352279639072
 20
61.73848446562091
 30
0.0
 11
387.727279639072
 21
61.73848446562091
 31
0.0
  0
LINE
  5
5275
330
1DE8
100
AcDbEntity
  8
0
100
AcDbLine
 10
387.727279639072
 20
61.73848446562091
 30
0.0
 11
387.727279639072
 21
83.24094310482569
 31
0.0
  0
LINE
  5
5276
330
1DE8
100
AcDbEntity
  8
0
100
AcDbLine
 10
387.727279639072
 20
83.24094310482569
 30
0.0
 11
388.3522796390721
 21
83.24094310482569
 31
0.0
  0
LINE
  5
5277
330
1DE8
100
AcDbEntity
  8
0
100
AcDbLine
 10
412.5336056603047
 20
61.73848446562088
 30
0.0
 11
413.1586056603047
 21
61.7384844656209
 31
0.0
  0
LINE
  5
5278
330
1DE8
100
AcDbEntity
  8
0
100
AcDbLine
 10
413.1586056603047
 20
61.7384844656209
 30
0.0
 11
413.1586056603048
 21
83.24094310482569
 31
0.0
  0
LINE
  5
5279
330
1DE8
100
AcDbEntity
  8
0
100
AcDbLine
 10
413.1586056603048
 20
83.24094310482569
 30
0.0
 11
412.5336056603048
 21
83.24094310482566
 31
0.0
  0
DIMENSION
  5
5325
330
1DE8
100
AcDbEntity
  8
0
100
AcDbDimension
  2
*D20
 10
236.0658898739745
 20
38.83768000089276
 30
0.0
 11
229.9812458602195
 21
41.29603575732012
 31
0.0
 70
   161
  1
VARIES
 71
     5
 42
13.12499993131993
 53
68.0
 51
0.0000000000001018
  3
STANDARD$0
100
AcDbAlignedDimension
 13
228.4165662768915
 23
54.94169605340832
 33
0.0
 14
240.5858543044016
 24
50.02498454055274
 34
0.0
  0
TEXT
  5
5345
330
1DE8
100
AcDbEntity
  8
0
 62
     7
100
AcDbText
 10
191.8142129059233
 20
-0.4485730348644453
 30
0.0
 40
1.94568
  1
OSHA 1910.25
  7
ROMANS
 72
     1
 11
202.6081043344947
 21
-0.4485730348644453
 31
0.0
100
AcDbText
  0
TEXT
  5
5346
330
1DE8
100
AcDbEntity
  8
0
 62
     7
100
AcDbText
 10
206.0375838016884
 20
65.37448606157905
 30
0.0
 40
1.94568
  1
BOTH SIDES
  7
ROMANS
 72
     1
 11
214.8857952302599
 21
65.37448606157905
 31
0.0
100
AcDbText
  0
ENDSEC
  0
SECTION
  2
OBJECTS
  0
DICTIONARY
  5
1DDC
330
0
100
AcDbDictionary
281
     1
  3
ACAD_COLOR
350
35ED
  3
ACAD_GROUP
350
1DDD
  3
ACAD_LAYOUT
350
3291
  3
ACAD_MATERIAL
350
35D8
  3
ACAD_MLINESTYLE
350
1DDE
  3
ACAD_PLOTSETTINGS
350
3292
  3
ACAD_PLOTSTYLENAME
350
328F
  3
ACAD_TABLESTYLE
350
35EE
  3
ACAD_VISUALSTYLE
350
35DC
  3
AcadDim
350
4667
  3
AcDbVariableDictionary
350
35FE
  3
AEC_CLASSIFICATION_SYSTEM_DEFS
350
4A66
  3
AEC_PROPERTY_SET_DEFS
350
4A67
  3
ASE_INDEX_DICTIONARY
350
35FB
  3
DWGPROPS
350
5372
  0
DICTIONARY
  5
519F
330
1DD8
100
AcDbDictionary
280
     1
281
     1
  0
DICTIONARY
  5
35F7
330
1DE8
100
AcDbDictionary
280
     1
281
     1
  3
ACAD_SORTENTS
360
35F8
  0
DICTIONARY
  5
49B4
330
49B3
100
AcDbDictionary
280
     1
281
     1
  3
ACAD_SORTENTS
360
49B5
  0
DICTIONARY
  5
35ED
102
{ACAD_REACTORS
330
1DDC
102
}
330
1DDC
100
AcDbDictionary
281
     1
  0
DICTIONARY
  5
1DDD
102
{ACAD_REACTORS
330
1DDC
102
}
330
1DDC
100
AcDbDictionary
281
     1
  0
DICTIONARY
  5
3291
102
{ACAD_REACTORS
330
1DDC
102
}
330
1DDC
100
AcDbDictionary
281
     1
  3
Layout1
350
3294
  3
Model
350
3293
  0
DICTIONARY
  5
35D8
102
{ACAD_REACTORS
330
1DDC
102
}
330
1DDC
100
AcDbDictionary
281
     1
  3
ByBlock
350
35DA
  3
ByLayer
350
35D9
  3
Global
350
35DB
  0
DICTIONARY
  5
1DDE
102
{ACAD_REACTORS
330
1DDC
102
}
330
1DDC
100
AcDbDictionary
281
     1
  3
STANDARD
350
1DEB
  0
DICTIONARY
  5
3292
102
{ACAD_REACTORS
330
1DDC
102
}
330
1DDC
100
AcDbDictionary
281
     1
  0
ACDBDICTIONARYWDFLT
  5
328F
102
{ACAD_REACTORS
330
1DDC
102
}
330
1DDC
100
AcDbDictionary
281
     1
  3
Normal
350
3290
100
AcDbDictionaryWithDefault
340
3290
  0
DICTIONARY
  5
35EE
102
{ACAD_REACTORS
330
1DDC
102
}
330
1DDC
100
AcDbDictionary
281
     1
  3
Standard
350
35EF
  0
DICTIONARY
  5
35DC
102
{ACAD_REACTORS
330
1DDC
102
}
330
1DDC
100
AcDbDictionary
281
     1
  3
2dWireframe
350
35E2
  3
3D Hidden
350
35E4
  3
3dWireframe
350
35E3
  3
Basic
350
35E1
  3
Brighten
350
35E8
  3
ColorChange
350
35EC
  3
Conceptual
350
35E5
  3
Dim
350
35E7
  3
Facepattern
350
35EB
  3
Flat
350
35DD
  3
FlatWithEdges
350
35DE
  3
Gouraud
350
35DF
  3
GouraudWithEdges
350
35E0
  3
Linepattern
350
35EA
  3
Realistic
350
35E6
  3
Thicken
350
35E9
  0
XRECORD
  5
4667
102
{ACAD_REACTORS
330
1DDC
102
}
330
1DDC
100
AcDbXrecord
280
     1
 90
   990106
  3

 60
     0
 61
     0
 62
     1
 63
     3
 64
     0
 65
     0
 66
     0
 67
     3
 68
     1
 69
     0
 70
     0
 71
     0
 72
     0
 40
0.0
170
     0
340
51BB
  0
DICTIONARY
  5
35FE
102
{ACAD_REACTORS
330
1DDC
102
}
330
1DDC
100
AcDbDictionary
281
     1
  3
CTABLESTYLE
350
35FF
  3
DIMASSOC
350
51B3
  3
INDEXCTL
350
51B2
  3
SORTENTS
350
51B1
  0
DICTIONARY
  5
4A66
102
{ACAD_REACTORS
330
1DDC
102
}
330
1DDC
100
AcDbDictionary
281
     1
  0
DICTIONARY
  5
4A67
102
{ACAD_REACTORS
330
1DDC
102
}
330
1DDC
100
AcDbDictionary
281
     1
  0
DICTIONARY
  5
35FB
102
{ACAD_REACTORS
330
1DDC
102
}
330
1DDC
100
AcDbDictionary
281
     1
  3
ASEBlockHierarchyIndexRecord
350
35FD
1001
DCO15
1040
1627993976.75
  0
XRECORD
  5
5372
102
{ACAD_REACTORS
330
1DDC
102
}
330
1DDC
100
AcDbXrecord
280
     1
  1
DWGPROPS COOKIE
  2

  3

  4

  6

  7

  8
Don.McKinney
  9

300
=
301
=
302
=
303
=
304
=
305
=
306
=
307
=
308
=
309
=
 40
0.5323630324074075
 41
2450857.456918403
 42
2457857.378189861
  1

 90
        0
  0
SORTENTSTABLE
  5
35F8
102
{ACAD_REACTORS
330
35F7
102
}
330
35F7
100
AcDbSortentsTable
330
1DE8
331
4A6D
  5
4B71
331
3670
  5
471E
331
DE1
  5
E5D
331
4EA5
  5
5141
331
5276
  5
5277
331
50FA
  5
3EBD
331
5131
  5
3F88
331
5102
  5
3EC5
331
503C
  5
515C
331
5139
  5
3F92
331
5141
  5
3F9B
331
3EC1
  5
4A9D
331
3F88
  5
4ABA
331
3EC9
  5
4AA5
331
4A75
  5
4BD0
331
4AAC
  5
4F27
331
4B13
  5
50FE
331
3F90
  5
4AC0
331
4A7D
  5
4BD5
331
4AB4
  5
503D
331
4387
  5
DE1
331
3F98
  5
4ADD
331
4ABC
  5
50A4
331
4B43
  5
510B
331
14C9
  5
1A44
331
1A41
  5
1A46
331
CEA
  5
CEA
331
1AB1
  5
2F0D
331
5149
  5
3FA3
331
CFA
  5
CFA
331
5257
  5
5258
331
5112
  5
3F39
331
5151
  5
3FD7
331
4BCE
  5
512F
331
525F
  5
5260
331
511A
  5
3F3E
331
5159
  5
401B
331
4BD6
  5
5137
331
5267
  5
5268
331
50EB
  5
37D1
331
5161
  5
431C
331
526F
  5
5270
331
3FA0
  5
4B13
331
3F39
  5
4AAB
331
3EAA
  5
4A70
331
4A95
  5
4EA4
331
4B63
  5
511B
331
3F41
  5
4AB3
331
3EB2
  5
4A7B
331
4A9D
  5
4EDE
331
4AE4
  5
50FD
331
4AA5
  5
4EFA
331
3EBA
  5
4A96
331
2040
  5
3539
331
4A6E
  5
4BC9
331
3671
  5
471F
331
28D8
  5
378E
331
DE2
  5
E5E
331
4EA6
  5
5142
331
5277
  5
5278
331
50FB
  5
3EBE
331
5132
  5
3F89
331
5103
  5
3EC6
331
503D
  5
515D
331
513A
  5
3F94
331
4EDE
  5
513C
331
4EEE
  5
5147
331
3EC2
  5
4A9E
331
3ECA
  5
4AA6
331
4A76
  5
4BD1
331
4AAD
  5
4F28
331
4B14
  5
50FF
331
3F91
  5
4AD1
331
4A7E
  5
4BD6
331
4AB5
  5
503E
331
4B1C
  5
510C
331
4388
  5
D2E
331
3F99
  5
4ADE
331
4ABD
  5
50E6
331
4AD5
  5
50EC
331
14CA
  5
1A45
331
1A42
  5
1A54
331
CEB
  5
CEB
331
CF3
  5
CF3
331
510B
  5
3EC9
331
50A4
  5
51BA
331
514A
  5
3FA4
331
5113
  5
3F3A
331
4BCF
  5
5130
331
5258
  5
5259
331
511B
  5
3F40
331
515A
  5
401C
331
4BD7
  5
5138
331
5260
  5
5261
331
50EC
  5
37DF
331
5268
  5
5269
331
3FA1
  5
4B14
331
3F3A
  5
4AAC
331
3EAB
  5
4A71
331
3FA9
  5
4B18
331
4A96
  5
4EA7
331
4ADD
  5
50F6
331
4A9E
  5
4EDF
331
3EB3
  5
4A7C
331
4AA6
  5
4EFB
331
3EBB
  5
4A97
331
4A6F
  5
4BCA
331
368A
  5
4A69
331
4EA7
  5
5143
331
5270
  5
5271
331
5036
  5
5155
331
50FC
  5
3EBF
331
5133
  5
3F8B
331
5278
  5
5279
331
51BA
  5
51BB
331
5104
  5
3EC7
331
503E
  5
515E
331
513B
  5
3F95
331
5143
  5
3F9D
331
4EEF
  5
5148
331
4668
  5
4B28
331
3EC3
  5
4A9F
331
3F82
  5
4AB4
331
3F8A
  5
4ABB
331
3ECB
  5
4AA7
331
4371
  5
4B20
331
4AAE
  5
5036
331
4B15
  5
5100
331
4A7F
  5
4BD7
331
3F92
  5
4AD2
331
4AB6
  5
503F
331
4B1D
  5
510D
331
3F9A
  5
4ADF
331
4ABE
  5
50E7
331
4B25
  5
5114
331
4AD6
  5
50ED
331
3663
  5
43B1
331
CEC
  5
CEC
331
CF4
  5
CF4
331
510C
  5
3ECA
331
5114
  5
3F3B
331
5153
  5
3FDB
331
4BD0
  5
5131
331
5259
  5
525A
331
511C
  5
3F41
331
515B
  5
401D
331
4BD8
  5
5139
331
4F17
  5
514E
331
5261
  5
5262
331
50ED
  5
387B
331
5269
  5
526A
331
3FA2
  5
4B15
331
43A9
  5
4B22
331
3F3B
  5
4AAD
331
3EAC
  5
4A72
331
3FAA
  5
4B19
331
4A97
  5
4EA8
331
4ADE
  5
50F7
331
4A9F
  5
4EE0
331
3EB4
  5
4A7D
331
4AA7
  5
4F17
331
3EBC
  5
4A98
331
E34
  5
1163
331
4EA8
  5
5144
331
5271
  5
5272
331
5279
  5
5319
331
5037
  5
5156
331
50FD
  5
3EC0
331
5134
  5
3F8C
331
51BB
  5
51BC
331
5105
  5
3EC8
331
503F
  5
515F
331
513C
  5
3F96
331
5144
  5
3F9E
331
3EC4
  5
4AA0
331
3F83
  5
4AB5
331
4A70
  5
4BCB
331
3ECC
  5
4AA8
331
3F8B
  5
4ABC
331
4AAF
  5
5037
331
4B16
  5
5101
331
4A80
  5
4BD8
331
4AB7
  5
5040
331
3F9B
  5
4AE0
331
4ABF
  5
50E8
331
4B26
  5
5115
331
4AD7
  5
50EE
331
3624
  5
43AE
331
3664
  5
4572
331
CF5
  5
CF5
331
4B71
  5
511A
331
4EF0
  5
5149
331
510D
  5
3ECB
331
514C
  5
3FAA
331
4BC9
  5
511C
331
525A
  5
525B
331
5115
  5
3F3C
331
5154
  5
3FDC
331
4BD1
  5
5132
331
5262
  5
5263
331
511D
  5
3F82
331
50E6
  5
37B2
331
515C
  5
401E
331
4BD9
  5
513A
331
526A
  5
526B
331
5125
  5
3F83
331
3FA3
  5
4B16
331
43AA
  5
4B23
331
4A98
  5
4EA9
331
3F3C
  5
4AAE
331
3EAD
  5
4A73
331
3FAB
  5
4B1A
331
4ADF
  5
50F8
331
4AA0
  5
4EEE
331
3EB5
  5
4A7E
331
3EBD
  5
4A99
331
4A69
  5
4B40
331
4EA1
  5
513D
331
5272
  5
5273
331
50F6
  5
387F
331
E5D
  5
14CA
331
4EA9
  5
5145
331
50FE
  5
3EC1
331
5135
  5
3F8D
331
5038
  5
5158
331
506F
  5
5163
331
51BC
  5
5255
331
513D
  5
3F97
331
5145
  5
3F9F
331
3EC5
  5
4AA1
331
3F84
  5
4AB6
331
4A71
  5
4BCC
331
4AA8
  5
4F1E
331
3ECD
  5
4AA9
331
3F8C
  5
4ABD
331
4AB0
  5
5038
331
4B17
  5
5102
331
3F94
  5
4AD3
331
4AB8
  5
5041
331
3F9C
  5
4AE1
331
4AD0
  5
50E9
331
3615
  5
4330
331
3625
  5
4343
331
CF6
  5
CF6
331
5040
  5
5160
331
510E
  5
3ECC
331
514D
  5
3FAB
331
4BCA
  5
511D
331
525B
  5
525C
331
4BD2
  5
5133
331
5263
  5
5264
331
50E7
  5
37B4
331
4BDA
  5
513B
331
526B
  5
526C
331
5126
  5
3F84
331
50EF
  5
387E
331
3EA6
  5
4A6C
331
3FA4
  5
4B17
331
4AD8
  5
50EF
331
4A99
  5
4EAA
331
3F3D
  5
4AAF
331
3EAE
  5
4A74
331
3FAC
  5
4B1E
331
4AE0
  5
50F9
331
4AA1
  5
4EEF
331
3EB6
  5
4A7F
331
3EBE
  5
4A9A
331
4A6A
  5
4B42
331
4EA2
  5
513E
331
5273
  5
5274
331
50F7
  5
3EB1
331
E5E
  5
1A41
331
4EAA
  5
5146
331
50FF
  5
3EC2
331
5039
  5
5159
331
5136
  5
3F8F
331
513E
  5
3F98
331
3EC6
  5
4AA2
331
378F
  5
4A6A
331
3F85
  5
4AB7
331
4A72
  5
4BCD
331
4AA9
  5
4F20
331
4A7A
  5
4BD2
331
3ECE
  5
4AAA
331
3F8D
  5
4ABE
331
4AB1
  5
503A
331
4B18
  5
5103
331
3F95
  5
4AD6
331
4AB9
  5
5042
331
3F9D
  5
4AE2
331
3626
  5
43AF
331
5041
  5
5161
331
CF7
  5
CF7
331
1AB6
  5
3398
331
4EF2
  5
514A
331
510F
  5
3ECD
331
514E
  5
3FAC
331
4BCB
  5
5125
331
4EFA
  5
514C
331
525C
  5
525D
331
5156
  5
3FDF
331
4BD3
  5
5134
331
5264
  5
5265
331
50E8
  5
37B5
331
526C
  5
526D
331
5127
  5
3F85
331
3EA7
  5
4A6D
331
4B58
  5
5119
331
3F3E
  5
4AB0
331
3EAF
  5
4A75
331
456C
  5
4B24
331
4A9A
  5
4EDB
331
4AE1
  5
50FA
331
4AA2
  5
4EF0
331
3EB7
  5
4A80
331
3EBF
  5
4A9B
331
4A6B
  5
4B58
331
DDF
  5
DE2
331
E37
  5
14C9
331
4EA3
  5
513F
331
5274
  5
5275
331
E5F
  5
1A42
331
50F8
  5
3EB4
331
512F
  5
3F86
331
5100
  5
3EC3
331
503A
  5
515A
331
5137
  5
3F90
331
513F
  5
3F99
331
5147
  5
3FA1
331
3FED
  5
4B1F
331
3EC7
  5
4AA3
331
3790
  5
4A6B
331
3F86
  5
4AB8
331
4A73
  5
4BCE
331
4AAA
  5
4F22
331
4A7B
  5
4BD3
331
4AB2
  5
503B
331
4B19
  5
5104
331
3F96
  5
4AD7
331
4ABA
  5
5043
331
3F9E
  5
4AE3
331
3627
  5
43B0
331
366F
  5
4573
331
CF8
  5
CF8
331
4EF3
  5
514B
331
5255
  5
5256
331
5110
  5
3ECE
331
514F
  5
3FC4
331
4BCC
  5
5126
331
4EFB
  5
514D
331
525D
  5
525E
331
5157
  5
3FED
331
4BD4
  5
5135
331
5265
  5
5266
331
515F
  5
4021
331
50E9
  5
37BE
331
526D
  5
526E
331
3EA8
  5
4A6E
331
3F3F
  5
4AB1
331
3EB0
  5
4A76
331
456D
  5
4B25
331
4A9B
  5
4EDC
331
4AE2
  5
50FB
331
3EB8
  5
4A8C
331
3FD6
  5
E5F
331
4A6C
  5
4B63
331
2046
  5
353A
331
DE0
  5
DF7
331
4EA4
  5
5140
331
5275
  5
5276
331
50F9
  5
3EBC
331
5130
  5
3F87
331
5101
  5
3EC4
331
503B
  5
515B
331
5138
  5
3F91
331
5140
  5
3F9A
331
3EC0
  5
4A9C
331
3F87
  5
4AB9
331
3EC8
  5
4AA4
331
4A74
  5
4BCF
331
4AAB
  5
4F26
331
3F8F
  5
4ABF
331
4A7C
  5
4BD4
331
4AB3
  5
503C
331
3F97
  5
4AD8
331
4386
  5
4B21
331
4ABB
  5
506F
331
3F9F
  5
4AE4
331
4A8C
  5
4BD9
331
4B42
  5
5105
331
14C8
  5
1A43
331
CE9
  5
CE9
331
5043
  5
5162
331
5256
  5
5257
331
5111
  5
3ECF
331
5150
  5
3FD2
331
4BCD
  5
5127
331
525E
  5
525F
331
5119
  5
3F3D
331
5158
  5
401A
331
4BD5
  5
5136
331
5266
  5
5267
331
50EA
  5
37C0
331
5160
  5
430B
331
526E
  5
526F
331
3EA9
  5
4A6F
331
4A94
  5
4BDA
331
3F40
  5
4AB2
331
3EB1
  5
4A7A
331
4A9C
  5
4EDD
331
4AE3
  5
50FC
331
4666
  5
4B26
331
3EB9
  5
4A95
331
4AA4
  5
4EF3
  0
SORTENTSTABLE
  5
49B5
102
{ACAD_REACTORS
330
49B4
102
}
330
49B4
100
AcDbSortentsTable
330
49B3
  0
LAYOUT
  5
3294
102
{ACAD_XDICTIONARY
360
5375
102
}
102
{ACAD_REACTORS
330
3291
102
}
330
3291
100
AcDbPlotSettings
  1

  2
HP LaserJet 2100 Series PCL 6
  4

  6

 40
0.0
 41
0.0
 42
0.0
 43
0.0
 44
0.0
 45
0.0
 46
0.0
 47
0.0
 48
0.0
 49
0.0
140
0.0
141
0.0
142
1.0
143
1.0
 70
   688
 72
     0
 73
     0
 74
     5
  7
Erik.ctb
 75
    16
147
1.0
148
0.0
149
0.0
100
AcDbLayout
  1
Layout1
 70
     1
 71
     1
 10
0.0
 20
0.0
 11
12.0
 21
9.0
 12
0.0
 22
0.0
 32
0.0
 14
1.000000000000000E+20
 24
1.000000000000000E+20
 34
1.000000000000000E+20
 15
-1.000000000000000E+20
 25
-1.000000000000000E+20
 35
-1.000000000000000E+20
146
0.0
 13
0.0
 23
0.0
 33
0.0
 16
1.0
 26
0.0
 36
0.0
 17
0.0
 27
1.0
 37
0.0
 76
     0
330
1DE5
  0
LAYOUT
  5
3293
102
{ACAD_XDICTIONARY
360
5373
102
}
102
{ACAD_REACTORS
330
3291
102
}
330
3291
100
AcDbPlotSettings
  1

  2
ImagePrinter Pro
  4
Letter
  6

 40
3.174999952316284
 41
3.174999952316284
 42
3.175003051757812
 43
3.17498779296875
 44
215.8999938964844
 45
279.3999938964844
 46
6.494528945599474
 47
0.0
 48
0.0
 49
0.0
140
0.0
141
0.0
142
1.0
143
23.99295332505126
 70
  3764
 72
     0
 73
     3
 74
     1
  7
acad.ctb
 75
     0
147
0.0416789040703835
148
-4589.293000218559
149
419.4151534387525
100
AcDbLayout
  1
Model
 70
     1
 71
     0
 10
0.0
 20
0.0
 11
12.0
 21
9.0
 12
0.0
 22
0.0
 32
0.0
 14
0.0
 24
0.0
 34
0.0
 15
0.0
 25
0.0
 35
0.0
146
0.0
 13
0.0
 23
0.0
 33
0.0
 16
1.0
 26
0.0
 36
0.0
 17
0.0
 27
1.0
 37
0.0
 76
     0
330
1DE8
331
35D6
1001
ACAD_PSEXT
1000
ImagePrinter Pro
1000
ImagePrinter Pro 5.6.0.0
1000
ImagePort:
1000
ImagePrinter Pro
1070
     0
  0
MATERIAL
  5
35DA
102
{ACAD_XDICTIONARY
360
5379
102
}
102
{ACAD_REACTORS
330
35D8
102
}
330
35D8
100
AcDbMaterial
  1
ByBlock
  0
MATERIAL
  5
35D9
102
{ACAD_XDICTIONARY
360
5377
102
}
102
{ACAD_REACTORS
330
35D8
102
}
330
35D8
100
AcDbMaterial
  1
ByLayer
  0
MATERIAL
  5
35DB
102
{ACAD_XDICTIONARY
360
537B
102
}
102
{ACAD_REACTORS
330
35D8
102
}
330
35D8
100
AcDbMaterial
  1
Global
  0
MLINESTYLE
  5
1DEB
102
{ACAD_REACTORS
330
1DDE
102
}
330
1DDE
100
AcDbMlineStyle
  2
STANDARD
 70
     0
  3

 62
     0
 51
90.0
 52
90.0
 71
     2
 49
0.5
 62
   256
  6
BYLAYER
 49
-0.5
 62
   256
  6
BYLAYER
  0
ACDBPLACEHOLDER
  5
3290
102
{ACAD_REACTORS
330
328F
102
}
330
328F
  0
TABLESTYLE
  5
35EF
102
{ACAD_XDICTIONARY
360
537D
102
}
102
{ACAD_REACTORS
330
35EE
102
}
330
35EE
100
AcDbTableStyle
  3
Standard
 70
     0
 71
     0
 40
0.06
 41
0.06
280
     0
281
     0
  7
STANDARD
140
0.18
170
     2
 62
     0
 63
     7
283
     0
274
    -2
284
     1
 64
     0
275
    -2
285
     1
 65
     0
276
    -2
286
     1
 66
     0
277
    -2
287
     1
 67
     0
278
    -2
288
     1
 68
     0
279
    -2
289
     1
 69
     0
  7
STANDARD
140
0.25
170
     5
 62
     0
 63
     7
283
     0
274
    -2
284
     1
 64
     0
275
    -2
285
     1
 65
     0
276
    -2
286
     1
 66
     0
277
    -2
287
     1
 67
     0
278
    -2
288
     1
 68
     0
279
    -2
289
     1
 69
     0
  7
STANDARD
140
0.18
170
     5
 62
     0
 63
     7
283
     0
274
    -2
284
     1
 64
     0
275
    -2
285
     1
 65
     0
276
    -2
286
     1
 66
     0
277
    -2
287
     1
 67
     0
278
    -2
288
     1
 68
     0
279
    -2
289
     1
 69
     0
  0
VISUALSTYLE
  5
35E2
102
{ACAD_REACTORS
330
35DC
102
}
330
35DC
100
AcDbVisualStyle
  2
2dWireframe
 70
     4
 71
     0
 72
     2
 73
     0
 90
        0
 40
-0.6
 41
-30.0
 62
     5
 63
     7
 74
     1
 91
        4
 64
     7
 65
   257
 75
     1
175
     1
 42
1.0
 92
        0
 66
   257
 43
1.0
 76
     1
 77
     6
 78
     2
 67
     7
 79
     5
170
     0
171
     0
290
     0
174
     0
 93
        1
 44
0.0
173
     0
291
     0
 45
0.0
1001
ACAD
1000
AcDbSavedByObjectVersion
1070
     0
  0
VISUALSTYLE
  5
35E4
102
{ACAD_REACTORS
330
35DC
102
}
330
35DC
100
AcDbVisualStyle
  2
3D Hidden
 70
     6
 71
     1
 72
     2
 73
     2
 90
        0
 40
-0.6
 41
-30.0
 62
     5
 63
     7
 74
     2
 91
        2
 64
     7
 65
   257
 75
     2
175
     1
 42
40.0
 92
        0
 66
   257
 43
1.0
 76
     1
 77
     6
 78
     2
 67
     7
 79
     3
170
     0
171
     0
290
     0
174
     0
 93
        1
 44
0.0
173
     0
291
     0
 45
0.0
1001
ACAD
1000
AcDbSavedByObjectVersion
1070
     0
  0
VISUALSTYLE
  5
35E3
102
{ACAD_REACTORS
330
35DC
102
}
330
35DC
100
AcDbVisualStyle
  2
3dWireframe
 70
     5
 71
     0
 72
     2
 73
     0
 90
        0
 40
-0.6
 41
-30.0
 62
     5
 63
     7
 74
     1
 91
        4
 64
     7
 65
   257
 75
     1
175
     1
 42
1.0
 92
        0
 66
   257
 43
1.0
 76
     1
 77
     6
 78
     2
 67
     7
 79
     5
170
     0
171
     0
290
     0
174
     0
 93
        1
 44
0.0
173
     0
291
     0
 45
0.0
1001
ACAD
1000
AcDbSavedByObjectVersion
1070
     0
  0
VISUALSTYLE
  5
35E1
102
{ACAD_REACTORS
330
35DC
102
}
330
35DC
100
AcDbVisualStyle
  2
Basic
 70
     7
 71
     1
 72
     0
 73
     1
 90
        0
 40
-0.6
 41
-30.0
 62
     5
 63
     7
 74
     0
 91
        4
 64
     7
 65
   257
 75
     1
175
     1
 42
1.0
 92
        8
 66
     7
 43
1.0
 76
     1
 77
     6
 78
     2
 67
     7
 79
     5
170
     0
171
     0
290
     0
174
     0
 93
        1
 44
0.0
173
     0
291
     1
 45
0.0
1001
ACAD
1000
AcDbSavedByObjectVersion
1070
     0
  0
VISUALSTYLE
  5
35E8
102
{ACAD_REACTORS
330
35DC
102
}
330
35DC
100
AcDbVisualStyle
  2
Brighten
 70
    12
 71
     2
 72
     2
 73
     0
 90
        0
 40
-0.6
 41
-30.0
 62
     5
 63
     7
 74
     1
 91
        4
 64
     7
 65
   257
 75
     1
175
     1
 42
1.0
 92
        8
 66
     7
 43
1.0
 76
     1
 77
     6
 78
     2
 67
     7
 79
     5
170
     0
171
     0
290
     0
174
     0
 93
        1
 44
50.0
173
     0
291
     1
 45
0.0
1001
ACAD
1000
AcDbSavedByObjectVersion
1070
     0
  0
VISUALSTYLE
  5
35EC
102
{ACAD_REACTORS
330
35DC
102
}
330
35DC
100
AcDbVisualStyle
  2
ColorChange
 70
    16
 71
     2
 72
     2
 73
     3
 90
        0
 40
-0.6
 41
-30.0
 62
     5
 63
     8
 74
     1
 91
        4
 64
     7
 65
   257
 75
     1
175
     1
 42
1.0
 92
        8
 66
     8
 43
1.0
 76
     1
 77
     6
 78
     2
 67
     7
 79
     5
170
     0
171
     0
290
     0
174
     0
 93
        1
 44
0.0
173
     0
291
     1
 45
0.0
1001
ACAD
1000
AcDbSavedByObjectVersion
1070
     0
  0
VISUALSTYLE
  5
35E5
102
{ACAD_REACTORS
330
35DC
102
}
330
35DC
100
AcDbVisualStyle
  2
Conceptual
 70
     9
 71
     3
 72
     2
 73
     0
 90
        0
 40
-0.6
 41
-30.0
 62
     5
 63
     7
 74
     2
 91
        2
 64
     7
 65
   257
 75
     1
175
     1
 42
40.0
 92
        8
 66
     7
 43
1.0
 76
     1
 77
     6
 78
     2
 67
     7
 79
     3
170
     0
171
     0
290
     0
174
     0
 93
        1
 44
0.0
173
     0
291
     0
 45
0.0
1001
ACAD
1000
AcDbSavedByObjectVersion
1070
     0
  0
VISUALSTYLE
  5
35E7
102
{ACAD_REACTORS
330
35DC
102
}
330
35DC
100
AcDbVisualStyle
  2
Dim
 70
    11
 71
     2
 72
     2
 73
     0
 90
        0
 40
-0.6
 41
-30.0
 62
     5
 63
     7
 74
     1
 91
        4
 64
     7
 65
   257
 75
     1
175
     1
 42
1.0
 92
        8
 66
     7
 43
1.0
 76
     1
 77
     6
 78
     2
 67
     7
 79
     5
170
     0
171
     0
290
     0
174
     0
 93
        1
 44
-50.0
173
     0
291
     1
 45
0.0
1001
ACAD
1000
AcDbSavedByObjectVersion
1070
     0
  0
VISUALSTYLE
  5
35EB
102
{ACAD_REACTORS
330
35DC
102
}
330
35DC
100
AcDbVisualStyle
  2
Facepattern
 70
    15
 71
     2
 72
     2
 73
     0
 90
        0
 40
-0.6
 41
-30.0
 62
     5
 63
     7
 74
     1
 91
        4
 64
     7
 65
   257
 75
     1
175
     1
 42
1.0
 92
        8
 66
     7
 43
1.0
 76
     1
 77
     6
 78
     2
 67
     7
 79
     5
170
     0
171
     0
290
     0
174
     0
 93
        1
 44
0.0
173
     0
291
     1
 45
0.0
1001
ACAD
1000
AcDbSavedByObjectVersion
1070
     0
  0
VISUALSTYLE
  5
35DD
102
{ACAD_REACTORS
330
35DC
102
}
330
35DC
100
AcDbVisualStyle
  2
Flat
 70
     0
 71
     2
 72
     1
 73
     1
 90
        2
 40
-0.6
 41
30.0
 62
     5
 63
     7
 74
     0
 91
        4
 64
     7
 65
   257
 75
     1
175
     1
 42
1.0
 92
        8
 66
     7
 43
1.0
 76
     1
 77
     6
 78
     2
 67
     7
 79
     5
170
     0
171
     0
290
     0
174
     0
 93
       13
 44
0.0
173
     0
291
     1
 45
0.0
1001
ACAD
1000
AcDbSavedByObjectVersion
1070
     0
  0
VISUALSTYLE
  5
35DE
102
{ACAD_REACTORS
330
35DC
102
}
330
35DC
100
AcDbVisualStyle
  2
FlatWithEdges
 70
     1
 71
     2
 72
     1
 73
     1
 90
        2
 40
-0.6
 41
30.0
 62
     5
 63
     7
 74
     1
 91
        4
 64
     7
 65
   257
 75
     1
175
     1
 42
1.0
 92
        0
 66
   257
 43
1.0
 76
     1
 77
     6
 78
     2
 67
     7
 79
     5
170
     0
171
     0
290
     0
174
     0
 93
       13
 44
0.0
173
     0
291
     1
 45
0.0
1001
ACAD
1000
AcDbSavedByObjectVersion
1070
     0
  0
VISUALSTYLE
  5
35DF
102
{ACAD_REACTORS
330
35DC
102
}
330
35DC
100
AcDbVisualStyle
  2
Gouraud
 70
     2
 71
     2
 72
     2
 73
     1
 90
        2
 40
-0.6
 41
30.0
 62
     5
 63
     7
 74
     0
 91
        4
 64
     7
 65
   257
 75
     1
175
     1
 42
1.0
 92
        0
 66
     7
 43
1.0
 76
     1
 77
     6
 78
     2
 67
     7
 79
     5
170
     0
171
     0
290
     0
174
     0
 93
       13
 44
0.0
173
     0
291
     1
 45
0.0
1001
ACAD
1000
AcDbSavedByObjectVersion
1070
     0
  0
VISUALSTYLE
  5
35E0
102
{ACAD_REACTORS
330
35DC
102
}
330
35DC
100
AcDbVisualStyle
  2
GouraudWithEdges
 70
     3
 71
     2
 72
     2
 73
     1
 90
        2
 40
-0.6
 41
30.0
 62
     5
 63
     7
 74
     1
 91
        4
 64
     7
 65
   257
 75
     1
175
     1
 42
1.0
 92
        0
 66
   257
 43
1.0
 76
     1
 77
     6
 78
     2
 67
     7
 79
     5
170
     0
171
     0
290
     0
174
     0
 93
       13
 44
0.0
173
     0
291
     1
 45
0.0
1001
ACAD
1000
AcDbSavedByObjectVersion
1070
     0
  0
VISUALSTYLE
  5
35EA
102
{ACAD_REACTORS
330
35DC
102
}
330
35DC
100
AcDbVisualStyle
  2
Linepattern
 70
    14
 71
     2
 72
     2
 73
     0
 90
        0
 40
-0.6
 41
-30.0
 62
     5
 63
     7
 74
     1
 91
        4
 64
     7
 65
   257
 75
     7
175
     7
 42
1.0
 92
        8
 66
     7
 43
1.0
 76
     1
 77
     6
 78
     2
 67
     7
 79
     5
170
     0
171
     0
290
     0
174
     0
 93
        1
 44
0.0
173
     0
291
     1
 45
0.0
1001
ACAD
1000
AcDbSavedByObjectVersion
1070
     0
  0
VISUALSTYLE
  5
35E6
102
{ACAD_REACTORS
330
35DC
102
}
330
35DC
100
AcDbVisualStyle
  2
Realistic
 70
     8
 71
     2
 72
     2
 73
     0
 90
        0
 40
-0.6
 41
-30.0
 62
     5
 63
     7
 74
     1
 91
        0
 64
     7
 65
   257
 75
     1
175
     1
 42
1.0
 92
        8
 66
     8
 43
1.0
 76
     1
 77
     6
 78
     2
 67
     7
 79
     5
170
     0
171
     0
290
     0
174
     0
 93
       13
 44
0.0
173
     0
291
     0
 45
0.0
1001
ACAD
1000
AcDbSavedByObjectVersion
1070
     0
  0
VISUALSTYLE
  5
35E9
102
{ACAD_REACTORS
330
35DC
102
}
330
35DC
100
AcDbVisualStyle
  2
Thicken
 70
    13
 71
     2
 72
     2
 73
     0
 90
        0
 40
-0.6
 41
-30.0
 62
     5
 63
     7
 74
     1
 91
        4
 64
     7
 65
   257
 75
     1
175
     1
 42
1.0
 92
       12
 66
     7
 43
1.0
 76
     1
 77
     6
 78
     2
 67
     7
 79
     5
170
     0
171
     0
290
     0
174
     0
 93
        1
 44
0.0
173
     0
291
     1
 45
0.0
1001
ACAD
1000
AcDbSavedByObjectVersion
1070
     0
  0
DICTIONARYVAR
  5
35FF
102
{ACAD_REACTORS
330
35FE
102
}
330
35FE
100
DictionaryVariables
280
     0
  1
STANDARD
  0
DICTIONARYVAR
  5
51B3
102
{ACAD_REACTORS
330
35FE
102
}
330
35FE
100
DictionaryVariables
280
     0
  1
1
  0
DICTIONARYVAR
  5
51B2
102
{ACAD_REACTORS
330
35FE
102
}
330
35FE
100
DictionaryVariables
280
     0
  1
0
  0
DICTIONARYVAR
  5
51B1
102
{ACAD_REACTORS
330
35FE
102
}
330
35FE
100
DictionaryVariables
280
     0
  1
127
  0
XRECORD
  5
35FD
102
{ACAD_REACTORS
330
35FB
102
}
330
35FB
100
AcDbXrecord
280
     1
330
28D8
330
E5D
330
E5E
330
E5F
330
14C8
330
14C9
330
14CA
330
1A41
330
1A42
330
1AB1
330
1AB6
330
0
330
2E38
  0
DICTIONARY
  5
5375
330
3294
100
AcDbDictionary
280
     1
281
     1
  3
ACAD_XREC_ROUNDTRIP
360
5376
  0
DICTIONARY
  5
5373
330
3293
100
AcDbDictionary
280
     1
281
     1
  3
ACAD_XREC_ROUNDTRIP
360
5374
  0
DICTIONARY
  5
5379
330
35DA
100
AcDbDictionary
280
     1
281
     1
  3
ACAD_XREC_ROUNDTRIP
360
537A
  0
DICTIONARY
  5
5377
330
35D9
100
AcDbDictionary
280
     1
281
     1
  3
ACAD_XREC_ROUNDTRIP
360
5378
  0
DICTIONARY
  5
537B
330
35DB
100
AcDbDictionary
280
     1
281
     1
  3
ACAD_XREC_ROUNDTRIP
360
537C
  0
DICTIONARY
  5
537D
330
35EF
100
AcDbDictionary
280
     1
281
     1
  3
ACAD_XREC_ROUNDTRIP
360
537E
  0
XRECORD
  5
5376
102
{ACAD_REACTORS
330
5375
102
}
330
5375
100
AcDbXrecord
280
     1
102
SHADEPLOT
 70
     0
102
SHADEPLOTRESLEVEL
 70
     2
102
SHADEPLOTCUSTOMDPI
 70
   300
  0
XRECORD
  5
5374
102
{ACAD_REACTORS
330
5373
102
}
330
5373
100
AcDbXrecord
280
     1
102
SHADEPLOT
 70
     1
102
SHADEPLOTRESLEVEL
 70
     2
102
SHADEPLOTCUSTOMDPI
 70
   300
  0
XRECORD
  5
537A
102
{ACAD_REACTORS
330
5379
102
}
330
5379
100
AcDbXrecord
280
     1
102
MATERIAL
148
0.0
149
0.0
149
0.0
 93
        0
 94
       63
282
     0
 72
     1
 77
     1
171
     1
175
     1
179
     1
273
     0
  0
XRECORD
  5
5378
102
{ACAD_REACTORS
330
5377
102
}
330
5377
100
AcDbXrecord
280
     1
102
MATERIAL
148
0.0
149
0.0
149
0.0
 93
        0
 94
       63
282
     0
 72
     1
 77
     1
171
     1
175
     1
179
     1
273
     0
  0
XRECORD
  5
537C
102
{ACAD_REACTORS
330
537B
102
}
330
537B
100
AcDbXrecord
280
     1
102
MATERIAL
148
0.0
149
0.0
149
0.0
 93
        0
 94
       63
282
     0
 72
     1
 77
     1
171
     1
175
     1
179
     1
273
     0
  0
XRECORD
  5
537E
102
{ACAD_REACTORS
330
537D
102
}
330
537D
100
AcDbXrecord
280
     1
102
ACAD_ROUNDTRIP_PRE2007_TABLESTYLE
 90
      512
 91
        0
  1

 92
      512
 93
        0
  2

 94
      512
 95
        0
  3

  0
ENDSEC
  0
EOF
