  0
SECTION
  2
HEADER
  9
$ACADVER
  1
AC1021
  9
$ACADMAINTVER
 70
     1
  9
$DWGCODEPAGE
  3
ANSI_1252
  9
$LASTSAVEDBY
  1
dusti
  9
$INSBASE
 10
0.0
 20
0.0
 30
0.0
  9
$EXTMIN
 10
-8.212651997750072
 20
919.8745451251648
 30
-0.0000000000000053
  9
$EXTMAX
 10
286.3583363305806
 20
1147.597468895445
 30
0.0000000000000099
  9
$LIMMIN
 10
0.0
 20
0.0
  9
$LIMMAX
 10
12.0
 20
9.0
  9
$ORTHOMODE
 70
     1
  9
$REGENMODE
 70
     1
  9
$FILLMODE
 70
     1
  9
$QTEXTMODE
 70
     0
  9
$MIRRTEXT
 70
     1
  9
$LTSCALE
 40
5.0
  9
$ATTMODE
 70
     1
  9
$TEXTSIZE
 40
3.0
  9
$TRACEWID
 40
0.05
  9
$TEXTSTYLE
  7
ROMANS
  9
$CLAYER
  8
0
  9
$CELTYPE
  6
BYLAYER
  9
$CECOLOR
 62
     7
  9
$CELTSCALE
 40
1.0
  9
$DISPSILH
 70
     0
  9
$DIMSCALE
 40
12.0
  9
$DIMASZ
 40
0.1875
  9
$DIMEXO
 40
0.0625
  9
$DIMDLI
 40
0.375
  9
$DIMRND
 40
0.0
  9
$DIMDLE
 40
0.0
  9
$DIMEXE
 40
0.1875
  9
$DIMTP
 40
0.0
  9
$DIMTM
 40
0.0
  9
$DIMTXT
 40
0.1875
  9
$DIMCEN
 40
0.0625
  9
$DIMTSZ
 40
0.0
  9
$DIMTOL
 70
     0
  9
$DIMLIM
 70
     0
  9
$DIMTIH
 70
     1
  9
$DIMTOH
 70
     1
  9
$DIMSE1
 70
     0
  9
$DIMSE2
 70
     0
  9
$DIMTAD
 70
     0
  9
$DIMZIN
 70
     3
  9
$DIMBLK
  1

  9
$DIMASO
 70
     1
  9
$DIMSHO
 70
     1
  9
$DIMPOST
  1

  9
$DIMAPOST
  1

  9
$DIMALT
 70
     0
  9
$DIMALTD
 70
     2
  9
$DIMALTF
 40
25.4
  9
$DIMLFAC
 40
1.0
  9
$DIMTOFL
 70
     0
  9
$DIMTVP
 40
0.0
  9
$DIMTIX
 70
     0
  9
$DIMSOXD
 70
     0
  9
$DIMSAH
 70
     0
  9
$DIMBLK1
  1

  9
$DIMBLK2
  1

  9
$DIMSTYLE
  2
STANDARD
  9
$DIMCLRD
 70
     0
  9
$DIMCLRE
 70
     0
  9
$DIMCLRT
 70
     0
  9
$DIMTFAC
 40
1.0
  9
$DIMGAP
 40
0.0625
  9
$DIMJUST
 70
     0
  9
$DIMSD1
 70
     0
  9
$DIMSD2
 70
     0
  9
$DIMTOLJ
 70
     1
  9
$DIMTZIN
 70
     0
  9
$DIMALTZ
 70
     0
  9
$DIMALTTZ
 70
     0
  9
$DIMUPT
 70
     0
  9
$DIMDEC
 70
     4
  9
$DIMTDEC
 70
     4
  9
$DIMALTU
 70
     2
  9
$DIMALTTD
 70
     2
  9
$DIMTXSTY
  7
ROMANS
  9
$DIMAUNIT
 70
     0
  9
$DIMADEC
 70
     0
  9
$DIMALTRND
 40
0.0
  9
$DIMAZIN
 70
     0
  9
$DIMDSEP
 70
    46
  9
$DIMATFIT
 70
     3
  9
$DIMFRAC
 70
     2
  9
$DIMLDRBLK
  1

  9
$DIMLUNIT
 70
     4
  9
$DIMLWD
 70
    -2
  9
$DIMLWE
 70
    -2
  9
$DIMTMOVE
 70
     0
  9
$DIMFXL
 40
1.0
  9
$DIMFXLON
 70
     0
  9
$DIMJOGANG
 40
0.7853981633974483
  9
$DIMTFILL
 70
     0
  9
$DIMTFILLCLR
 70
     0
  9
$DIMARCSYM
 70
     0
  9
$DIMLTYPE
  6

  9
$DIMLTEX1
  6

  9
$DIMLTEX2
  6

  9
$LUNITS
 70
     4
  9
$LUPREC
 70
     4
  9
$SKETCHINC
 40
0.1
  9
$FILLETRAD
 40
0.0
  9
$AUNITS
 70
     0
  9
$AUPREC
 70
     0
  9
$MENU
  1
acad
  9
$ELEVATION
 40
0.0
  9
$PELEVATION
 40
0.0
  9
$THICKNESS
 40
0.0
  9
$LIMCHECK
 70
     0
  9
$CHAMFERA
 40
0.0
  9
$CHAMFERB
 40
0.0
  9
$CHAMFERC
 40
0.0
  9
$CHAMFERD
 40
0.0
  9
$SKPOLY
 70
     0
  9
$TDCREATE
 40
2451513.381977314
  9
$TDUCREATE
 40
2451513.590310648
  9
$TDUPDATE
 40
2459620.559040822
  9
$TDUUPDATE
 40
2459620.767374155
  9
$TDINDWG
 40
1.1783117014
  9
$TDUSRTIMER
 40
1.1783117014
  9
$USRTIMER
 70
     1
  9
$ANGBASE
 50
0.0
  9
$ANGDIR
 70
     0
  9
$PDMODE
 70
    33
  9
$PDSIZE
 40
0.0
  9
$PLINEWID
 40
0.0
  9
$SPLFRAME
 70
     0
  9
$SPLINETYPE
 70
     6
  9
$SPLINESEGS
 70
     8
  9
$HANDSEED
  5
6C12
  9
$SURFTAB1
 70
     6
  9
$SURFTAB2
 70
     6
  9
$SURFTYPE
 70
     6
  9
$SURFU
 70
     6
  9
$SURFV
 70
     6
  9
$UCSBASE
  2

  9
$UCSNAME
  2

  9
$UCSORG
 10
0.0
 20
0.0
 30
0.0
  9
$UCSXDIR
 10
1.0
 20
0.0
 30
0.0
  9
$UCSYDIR
 10
0.0
 20
1.0
 30
0.0
  9
$UCSORTHOREF
  2

  9
$UCSORTHOVIEW
 70
     0
  9
$UCSORGTOP
 10
0.0
 20
0.0
 30
0.0
  9
$UCSORGBOTTOM
 10
0.0
 20
0.0
 30
0.0
  9
$UCSORGLEFT
 10
0.0
 20
0.0
 30
0.0
  9
$UCSORGRIGHT
 10
0.0
 20
0.0
 30
0.0
  9
$UCSORGFRONT
 10
0.0
 20
0.0
 30
0.0
  9
$UCSORGBACK
 10
0.0
 20
0.0
 30
0.0
  9
$PUCSBASE
  2

  9
$PUCSNAME
  2

  9
$PUCSORG
 10
0.0
 20
0.0
 30
0.0
  9
$PUCSXDIR
 10
1.0
 20
0.0
 30
0.0
  9
$PUCSYDIR
 10
0.0
 20
1.0
 30
0.0
  9
$PUCSORTHOREF
  2

  9
$PUCSORTHOVIEW
 70
     0
  9
$PUCSORGTOP
 10
0.0
 20
0.0
 30
0.0
  9
$PUCSORGBOTTOM
 10
0.0
 20
0.0
 30
0.0
  9
$PUCSORGLEFT
 10
0.0
 20
0.0
 30
0.0
  9
$PUCSORGRIGHT
 10
0.0
 20
0.0
 30
0.0
  9
$PUCSORGFRONT
 10
0.0
 20
0.0
 30
0.0
  9
$PUCSORGBACK
 10
0.0
 20
0.0
 30
0.0
  9
$USERI1
 70
     0
  9
$USERI2
 70
     0
  9
$USERI3
 70
     0
  9
$USERI4
 70
     0
  9
$USERI5
 70
     0
  9
$USERR1
 40
0.0
  9
$USERR2
 40
0.0
  9
$USERR3
 40
0.0
  9
$USERR4
 40
0.0
  9
$USERR5
 40
0.0
  9
$WORLDVIEW
 70
     1
  9
$SHADEDGE
 70
     3
  9
$SHADEDIF
 70
    70
  9
$TILEMODE
 70
     1
  9
$MAXACTVP
 70
    16
  9
$PINSBASE
 10
0.0
 20
0.0
 30
0.0
  9
$PLIMCHECK
 70
     0
  9
$PEXTMIN
 10
1.000000000000000E+20
 20
1.000000000000000E+20
 30
1.000000000000000E+20
  9
$PEXTMAX
 10
-1.000000000000000E+20
 20
-1.000000000000000E+20
 30
-1.000000000000000E+20
  9
$PLIMMIN
 10
0.0
 20
0.0
  9
$PLIMMAX
 10
12.0
 20
9.0
  9
$UNITMODE
 70
     0
  9
$VISRETAIN
 70
     0
  9
$PLINEGEN
 70
     0
  9
$PSLTSCALE
 70
     1
  9
$TREEDEPTH
 70
  3020
  9
$CMLSTYLE
  2
STANDARD
  9
$CMLJUST
 70
     0
  9
$CMLSCALE
 40
1.0
  9
$PROXYGRAPHICS
 70
     1
  9
$MEASUREMENT
 70
     0
  9
$CELWEIGHT
370
    -1
  9
$ENDCAPS
280
     0
  9
$JOINSTYLE
280
     0
  9
$LWDISPLAY
290
     0
  9
$INSUNITS
 70
     0
  9
$HYPERLINKBASE
  1

  9
$STYLESHEET
  1
acad.ctb
  9
$XEDIT
290
     1
  9
$CEPSNTYPE
380
     0
  9
$PSTYLEMODE
290
     1
  9
$FINGERPRINTGUID
  2
{902FD958-4C5E-11D6-8735-0010B50CF566}
  9
$VERSIONGUID
  2
{CE8867DD-B819-4FDB-9A7B-5BDBF20AB266}
  9
$EXTNAMES
290
     1
  9
$PSVPSCALE
 40
0.0
  9
$OLESTARTUP
290
     0
  9
$SORTENTS
280
   127
  9
$INDEXCTL
280
     0
  9
$HIDETEXT
280
     0
  9
$XCLIPFRAME
290
     0
  9
$HALOGAP
280
     0
  9
$OBSCOLOR
 70
   257
  9
$OBSLTYPE
280
     0
  9
$INTERSECTIONDISPLAY
280
     0
  9
$INTERSECTIONCOLOR
 70
   257
  9
$DIMASSOC
280
     1
  9
$PROJECTNAME
  1

  9
$CAMERADISPLAY
290
     0
  9
$LENSLENGTH
 40
50.0
  9
$CAMERAHEIGHT
 40
0.0
  9
$STEPSPERSEC
 40
2.0
  9
$STEPSIZE
 40
6.0
  9
$3DDWFPREC
 40
2.0
  9
$PSOLWIDTH
 40
0.25
  9
$PSOLHEIGHT
 40
4.0
  9
$LOFTANG1
 40
1.570796326794896
  9
$LOFTANG2
 40
1.570796326794896
  9
$LOFTMAG1
 40
0.0
  9
$LOFTMAG2
 40
0.0
  9
$LOFTPARAM
 70
     7
  9
$LOFTNORMALS
280
     1
  9
$LATITUDE
 40
37.795
  9
$LONGITUDE
 40
-122.394
  9
$NORTHDIRECTION
 40
0.0
  9
$TIMEZONE
 70
 -8000
  9
$LIGHTGLYPHDISPLAY
280
     1
  9
$TILEMODELIGHTSYNCH
280
     1
  9
$CMATERIAL
347
5B2F
  9
$SOLIDHIST
280
     1
  9
$SHOWHIST
280
     1
  9
$DWFFRAME
280
     2
  9
$DGNFRAME
280
     0
  9
$REALWORLDSCALE
290
     1
  9
$INTERFERECOLOR
 62
     1
  9
$INTERFEREOBJVS
345
5B3C
  9
$INTERFEREVPVS
346
5B39
  9
$CSHADOW
280
     0
  9
$SHADOWPLANELOCATION
 40
0.0
  0
ENDSEC
  0
SECTION
  2
CLASSES
  0
CLASS
  1
ACDBDICTIONARYWDFLT
  2
AcDbDictionaryWithDefault
  3
ObjectDBX Classes
 90
        0
 91
        1
280
     0
281
     0
  0
CLASS
  1
MATERIAL
  2
AcDbMaterial
  3
ObjectDBX Classes
 90
     1024
 91
        3
280
     0
281
     0
  0
CLASS
  1
VISUALSTYLE
  2
AcDbVisualStyle
  3
ObjectDBX Classes
 90
     4095
 91
       16
280
     0
281
     0
  0
CLASS
  1
TABLESTYLE
  2
AcDbTableStyle
  3
ObjectDBX Classes
 90
     4095
 91
        1
280
     0
281
     0
  0
CLASS
  1
DICTIONARYVAR
  2
AcDbDictionaryVar
  3
ObjectDBX Classes
 90
        0
 91
        4
280
     0
281
     0
  0
CLASS
  1
SORTENTSTABLE
  2
AcDbSortentsTable
  3
ObjectDBX Classes
 90
        0
 91
        3
280
     0
281
     0
  0
CLASS
  1
EXACTERMXREFMAP
  2
ExAcTermXrefMap
  3
EXAC_SERVICE
 90
     1025
 91
        0
280
     0
281
     0
  0
CLASS
  1
NPOCOLLECTION
  2
AcDbImpNonPersistentObjectsCollection
  3
ObjectDBX Classes
 90
     1153
 91
        1
280
     0
281
     0
  0
CLASS
  1
EXACXREFPANELOBJECT
  2
ExAcXREFPanelObject
  3
EXAC_ESW
 90
     1025
 91
        1
280
     0
281
     0
  0
ENDSEC
  0
SECTION
  2
TABLES
  0
TABLE
  2
VPORT
  5
8
102
{ACAD_XDICTIONARY
360
6485
102
}
330
0
100
AcDbSymbolTable
 70
     1
  0
VPORT
  5
5B2C
330
8
100
AcDbSymbolTableRecord
100
AcDbViewportTableRecord
  2
*Active
 70
     0
 10
0.0
 20
0.0
 11
1.0
 21
1.0
 12
92.09502320543993
 22
1048.255929113497
 13
0.0
 23
0.0
 14
1.0
 24
1.0
 15
0.0
 25
0.0
 16
0.0
 26
0.0
 36
1.0
 17
0.0
 27
0.0
 37
0.0
 40
314.3954285004222
 41
2.016703786191536
 42
50.0
 43
0.0
 44
0.0
 50
0.0
 51
0.0
 71
     0
 72
   100
 73
     1
 74
     0
 75
     0
 76
     0
 77
     0
 78
     0
281
     0
 65
     1
110
0.0
120
0.0
130
0.0
111
1.0
121
0.0
131
0.0
112
0.0
122
1.0
132
0.0
 79
     0
146
0.0
348
5B38
 60
     3
 61
     5
292
     1
282
     1
141
0.0
142
0.0
 63
   250
421
  3355443
  0
ENDTAB
  0
TABLE
  2
LTYPE
  5
5
330
0
100
AcDbSymbolTable
 70
     3
  0
LTYPE
  5
12
330
5
100
AcDbSymbolTableRecord
100
AcDbLinetypeTableRecord
  2
BYBLOCK
 70
     0
  3

 72
    65
 73
     0
 40
0.0
  0
LTYPE
  5
13
330
5
100
AcDbSymbolTableRecord
100
AcDbLinetypeTableRecord
  2
BYLAYER
 70
     0
  3

 72
    65
 73
     0
 40
0.0
  0
LTYPE
  5
14
330
5
100
AcDbSymbolTableRecord
100
AcDbLinetypeTableRecord
  2
CONTINUOUS
 70
     0
  3
Solid line
 72
    65
 73
     0
 40
0.0
  0
LTYPE
  5
75
330
5
100
AcDbSymbolTableRecord
100
AcDbLinetypeTableRecord
  2
PHANTOM
 70
     0
  3
______  __  __  ______  __  __  ______  __  __ 
 72
    65
 73
     6
 40
2.5
 49
1.25
 74
     0
 49
-0.25
 74
     0
 49
0.25
 74
     0
 49
-0.25
 74
     0
 49
0.25
 74
     0
 49
-0.25
 74
     0
  0
LTYPE
  5
3477
330
5
100
AcDbSymbolTableRecord
100
AcDbLinetypeTableRecord
  2
HIDDEN
 70
     0
  3
__ __ __ __ __ __ __ __ __ __ __ __ __ __ __ __
 72
    65
 73
     2
 40
0.375
 49
0.25
 74
     0
 49
-0.125
 74
     0
  0
ENDTAB
  0
TABLE
  2
LAYER
  5
2
330
0
100
AcDbSymbolTable
 70
     2
  0
LAYER
  5
F
330
2
100
AcDbSymbolTableRecord
100
AcDbLayerTableRecord
  2
0
 70
     0
 62
     7
  6
CONTINUOUS
370
    -3
390
5896
347
5B31
  0
LAYER
  5
79
330
2
100
AcDbSymbolTableRecord
100
AcDbLayerTableRecord
  2
DEFPOINTS
 70
     0
 62
     7
  6
CONTINUOUS
290
     0
370
    -3
390
5896
347
5B31
  0
ENDTAB
  0
TABLE
  2
STYLE
  5
3
330
0
100
AcDbSymbolTable
 70
     5
  0
STYLE
  5
10
330
3
100
AcDbSymbolTableRecord
100
AcDbTextStyleTableRecord
  2
STANDARD
 70
     0
 40
0.0
 41
1.0
 50
0.0
 71
     0
 42
0.2
  3
txt
  4

  0
STYLE
  5
6F
330
3
100
AcDbSymbolTableRecord
100
AcDbTextStyleTableRecord
  2
ROMANS
 70
     0
 40
0.0
 41
1.0
 50
0.0
 71
     0
 42
3.0
  3
romans
  4

  0
STYLE
  5
70
330
3
100
AcDbSymbolTableRecord
100
AcDbTextStyleTableRecord
  2
ROMANC
 70
     0
 40
1.5314
 41
1.0
 50
0.0
 71
     0
 42
1.768799999999999
  3
romanc
  4

  0
STYLE
  5
308A
330
3
100
AcDbSymbolTableRecord
100
AcDbTextStyleTableRecord
  2
STYLE1
 70
     0
 40
0.0
 41
1.0
 50
0.0
 71
     0
 42
3.0954
  3
C:\Program Files\AutoCAD LT\romanc.shx
  4

  0
ENDTAB
  0
TABLE
  2
VIEW
  5
6
330
0
100
AcDbSymbolTable
 70
     0
  0
ENDTAB
  0
TABLE
  2
UCS
  5
7
330
0
100
AcDbSymbolTable
 70
     0
  0
ENDTAB
  0
TABLE
  2
APPID
  5
9
330
0
100
AcDbSymbolTable
 70
     3
  0
APPID
  5
11
330
9
100
AcDbSymbolTableRecord
100
AcDbRegAppTableRecord
  2
ACAD
 70
     0
  0
APPID
  5
5B5C
330
9
100
AcDbSymbolTableRecord
100
AcDbRegAppTableRecord
  2
ACAD_PSEXT
 70
     0
  0
APPID
  5
6913
330
9
100
AcDbSymbolTableRecord
100
AcDbRegAppTableRecord
  2
ACAD_EXEMPT_FROM_CAD_STANDARDS
 70
     0
  0
ENDTAB
  0
TABLE
  2
DIMSTYLE
  5
A
330
0
100
AcDbSymbolTable
 70
     4
100
AcDbDimStyleTable
 71
     3
340
AB7
340
B04
340
BA8
  0
DIMSTYLE
105
AB7
330
A
100
AcDbSymbolTableRecord
100
AcDbDimStyleTableRecord
  2
STANDARD
 70
     0
 40
12.0
 41
0.1875
 43
0.375
 44
0.1875
 78
     3
140
0.1875
141
0.0625
147
0.0625
276
     2
277
     4
340
6F
  0
DIMSTYLE
105
B04
102
{ACAD_REACTORS
330
2368
330
389E
330
4A2B
330
6463
330
651E
330
651F
330
68B6
330
6A50
330
6B44
330
6BC3
330
6BD1
330
6BDF
330
6BF1
102
}
330
A
100
AcDbSymbolTableRecord
100
AcDbDimStyleTableRecord
  2
STANDARD$0
 70
     0
 40
12.0
 41
0.1875
 43
0.375
 44
0.1875
 78
     3
140
0.1875
141
0.0625
147
0.0625
276
     2
277
     4
340
6F
  0
DIMSTYLE
105
BA8
102
{ACAD_REACTORS
330
59B0
102
}
330
A
100
AcDbSymbolTableRecord
100
AcDbDimStyleTableRecord
  2
STANDARD$2
 70
     0
 40
12.0
 41
0.1875
 43
0.375
 44
0.1875
 78
     3
140
0.1875
141
0.0625
147
0.0625
271
     0
272
     0
276
     2
277
     4
340
6F
  0
ENDTAB
  0
TABLE
  2
BLOCK_RECORD
  5
1
330
0
100
AcDbSymbolTable
 70
    24
  0
BLOCK_RECORD
  5
18
102
{ACAD_XDICTIONARY
360
5B54
102
}
330
1
100
AcDbSymbolTableRecord
100
AcDbBlockTableRecord
  2
*MODEL_SPACE
340
5899
 70
     0
280
     1
281
     0
  0
BLOCK_RECORD
  5
15
330
1
100
AcDbSymbolTableRecord
100
AcDbBlockTableRecord
  2
*PAPER_SPACE
340
589A
 70
     0
280
     1
281
     0
  0
BLOCK_RECORD
  5
1F
330
1
100
AcDbSymbolTableRecord
100
AcDbBlockTableRecord
  2
LINETYPE
340
0
102
{BLKREFS
331
731
331
739
331
87C
331
87D
331
8CE
331
8CF
331
9AA
331
9AB
331
A3D
331
A3E
331
A57
331
A58
331
1052
331
1053
331
108A
331
108B
331
162A
331
163B
331
17F5
331
17FB
331
1AD1
331
1AD2
331
1AD3
331
1AD4
331
1B1A
331
1B1B
331
1B1C
331
210A
331
210B
331
2142
331
2143
331
30A8
331
3584
331
3590
331
3591
331
3592
331
359B
331
359C
331
359D
331
359E
331
3600
331
3F3B
331
3F3C
331
3F73
331
3F74
331
52D2
331
52D3
331
52D5
331
52D6
331
52DA
331
52DB
331
52DC
331
52DD
331
52DE
331
52DF
331
52E0
331
52E1
331
52FB
331
52FC
331
52FD
331
52FE
331
52FF
331
5300
331
5301
331
5302
331
5303
331
5304
331
5305
331
5306
331
5307
331
5308
331
5309
331
5319
331
531A
331
5350
331
5351
331
5378
331
541F
331
5420
331
5421
331
5422
331
5423
331
5424
331
5425
331
5426
331
5427
331
5484
331
5485
331
5486
331
5487
331
54B8
331
54B9
331
54BA
331
54BB
331
54BC
331
54BD
331
54BE
331
54BF
331
54C0
331
54C1
331
54C2
331
54C3
331
54C5
331
54C6
331
54C7
331
54C8
331
54F3
331
54F4
331
54F5
331
54F6
331
5532
331
5533
331
5534
331
5535
331
5544
331
5545
331
5546
331
5562
331
5563
331
5564
331
5565
331
5567
331
5568
331
5569
331
556A
331
556B
331
556C
331
556D
331
556E
331
556F
331
5570
331
558E
331
558F
331
5590
102
}
 70
     0
280
     1
281
     0
  0
BLOCK_RECORD
  5
235B
330
1
100
AcDbSymbolTableRecord
100
AcDbBlockTableRecord
  2
*D1
340
0
 70
     0
280
     1
281
     0
  0
BLOCK_RECORD
  5
3891
330
1
100
AcDbSymbolTableRecord
100
AcDbBlockTableRecord
  2
*D2
340
0
 70
     0
280
     1
281
     0
  0
BLOCK_RECORD
  5
4A1E
330
1
100
AcDbSymbolTableRecord
100
AcDbBlockTableRecord
  2
*D3
340
0
 70
     0
280
     1
281
     0
  0
BLOCK_RECORD
  5
58A8
102
{ACAD_XDICTIONARY
360
6148
102
}
330
1
100
AcDbSymbolTableRecord
100
AcDbBlockTableRecord
  2
Border
340
0
 70
     0
280
     1
281
     0
  0
BLOCK_RECORD
  5
58AD
330
1
100
AcDbSymbolTableRecord
100
AcDbBlockTableRecord
  2
border-T
340
0
102
{BLKREFS
331
58BE
102
}
 70
     0
280
     1
281
     0
  0
BLOCK_RECORD
  5
59B1
330
1
100
AcDbSymbolTableRecord
100
AcDbBlockTableRecord
  2
*D6
340
0
 70
     0
280
     1
281
     0
  0
BLOCK_RECORD
  5
5E97
330
1
100
AcDbSymbolTableRecord
100
AcDbBlockTableRecord
  2
*X7
340
0
102
{BLKREFS
331
5E96
331
63C2
102
}
 70
     0
280
     1
281
     0
  0
BLOCK_RECORD
  5
6464
330
1
100
AcDbSymbolTableRecord
100
AcDbBlockTableRecord
  2
*D8
340
0
 70
     0
280
     1
281
     0
  0
BLOCK_RECORD
  5
6534
330
1
100
AcDbSymbolTableRecord
100
AcDbBlockTableRecord
  2
*D9
340
0
 70
     0
280
     1
281
     0
  0
BLOCK_RECORD
  5
6541
330
1
100
AcDbSymbolTableRecord
100
AcDbBlockTableRecord
  2
*D10
340
0
 70
     0
280
     1
281
     0
  0
BLOCK_RECORD
  5
67BC
102
{ACAD_XDICTIONARY
360
67C7
102
}
330
1
100
AcDbSymbolTableRecord
100
AcDbBlockTableRecord
  2
A$C18BE6784
340
0
 70
     0
280
     1
281
     0
  0
BLOCK_RECORD
  5
68B8
330
1
100
AcDbSymbolTableRecord
100
AcDbBlockTableRecord
  2
*D12
340
0
 70
     0
280
     1
281
     0
  0
BLOCK_RECORD
  5
6A51
330
1
100
AcDbSymbolTableRecord
100
AcDbBlockTableRecord
  2
*D13
340
0
 70
     0
280
     1
281
     0
  0
BLOCK_RECORD
  5
6AD4
330
1
100
AcDbSymbolTableRecord
100
AcDbBlockTableRecord
  2
*D14
340
0
 70
     0
280
     1
281
     0
  0
BLOCK_RECORD
  5
6AEC
330
1
100
AcDbSymbolTableRecord
100
AcDbBlockTableRecord
  2
*D15
340
0
 70
     0
280
     1
281
     0
  0
BLOCK_RECORD
  5
6AFA
330
1
100
AcDbSymbolTableRecord
100
AcDbBlockTableRecord
  2
*D16
340
0
 70
     0
280
     1
281
     0
  0
BLOCK_RECORD
  5
6B08
330
1
100
AcDbSymbolTableRecord
100
AcDbBlockTableRecord
  2
*D17
340
0
 70
     0
280
     1
281
     0
  0
BLOCK_RECORD
  5
6B45
330
1
100
AcDbSymbolTableRecord
100
AcDbBlockTableRecord
  2
*D18
340
0
 70
     0
280
     1
281
     0
  0
BLOCK_RECORD
  5
6BC4
330
1
100
AcDbSymbolTableRecord
100
AcDbBlockTableRecord
  2
*D19
340
0
 70
     0
280
     1
281
     0
  0
BLOCK_RECORD
  5
6BD2
330
1
100
AcDbSymbolTableRecord
100
AcDbBlockTableRecord
  2
*D20
340
0
 70
     0
280
     1
281
     0
  0
BLOCK_RECORD
  5
6BE0
330
1
100
AcDbSymbolTableRecord
100
AcDbBlockTableRecord
  2
*D21
340
0
 70
     0
280
     1
281
     0
  0
BLOCK_RECORD
  5
6BF2
330
1
100
AcDbSymbolTableRecord
100
AcDbBlockTableRecord
  2
*D22
340
0
 70
     0
280
     1
281
     0
  0
ENDTAB
  0
ENDSEC
  0
SECTION
  2
BLOCKS
  0
BLOCK
  5
7C
330
18
100
AcDbEntity
  8
0
 62
     5
100
AcDbBlockBegin
  2
*MODEL_SPACE
 70
     0
 10
0.0
 20
0.0
 30
0.0
  3
*MODEL_SPACE
  1

  0
ENDBLK
  5
7D
330
18
100
AcDbEntity
  8
0
 62
     5
100
AcDbBlockEnd
  0
BLOCK
  5
7A
330
15
100
AcDbEntity
 67
     1
  8
0
 62
     5
100
AcDbBlockBegin
  2
*PAPER_SPACE
 70
     0
 10
0.0
 20
0.0
 30
0.0
  3
*PAPER_SPACE
  1

  0
ENDBLK
  5
7B
330
15
100
AcDbEntity
 67
     1
  8
0
 62
     5
100
AcDbBlockEnd
  0
BLOCK
  5
13D
330
1F
100
AcDbEntity
  8
0
100
AcDbBlockBegin
  2
LINETYPE
 70
     0
 10
0.0
 20
0.0
 30
0.0
  3
LINETYPE
  1

  0
ENDBLK
  5
13E
330
1F
100
AcDbEntity
  8
0
100
AcDbBlockEnd
  0
BLOCK
  5
4C08
330
235B
100
AcDbEntity
  8
0
100
AcDbBlockBegin
  2
*D1
 70
     1
 10
0.0
 20
0.0
 30
0.0
  3
*D1
  1

  0
LINE
  5
6964
330
235B
100
AcDbEntity
  8
0
 62
     0
370
    -2
100
AcDbLine
 10
217.9449124385
 20
970.8233088623259
 30
0.0
 11
217.9449124385
 21
965.1889702142389
 31
0.0
  0
LINE
  5
6965
330
235B
100
AcDbEntity
  8
0
 62
     0
370
    -2
100
AcDbLine
 10
257.4449124385
 20
970.8233088623257
 30
0.0
 11
257.4449124385
 21
965.1889702142389
 31
0.0
  0
LINE
  5
6966
330
235B
100
AcDbEntity
  8
0
 62
     0
370
    -2
100
AcDbLine
 10
220.1949124385
 20
967.438970214239
 30
0.0
 11
225.9091981527857
 21
967.438970214239
 31
0.0
  0
LINE
  5
6967
330
235B
100
AcDbEntity
  8
0
 62
     0
370
    -2
100
AcDbLine
 10
255.1949124385
 20
967.438970214239
 30
0.0
 11
249.4806267242142
 21
967.438970214239
 31
0.0
  0
SOLID
  5
6968
330
235B
100
AcDbEntity
  8
0
 62
     0
100
AcDbTrace
 10
220.1949124385
 20
967.8139702142388
 30
0.0
 11
220.1949124385
 21
967.0639702142389
 31
0.0
 12
217.9449124385
 22
967.438970214239
 32
0.0
 13
217.9449124385
 23
967.438970214239
 33
0.0
  0
SOLID
  5
6969
330
235B
100
AcDbEntity
  8
0
 62
     0
100
AcDbTrace
 10
255.1949124385
 20
967.8139702142388
 30
0.0
 11
255.1949124385
 21
967.0639702142389
 31
0.0
 12
257.4449124385
 22
967.438970214239
 32
0.0
 13
257.4449124385
 23
967.438970214239
 33
0.0
  0
MTEXT
  5
696A
330
235B
100
AcDbEntity
  8
0
 62
     0
100
AcDbMText
 10
237.6949124384999
 20
967.438970214239
 30
0.0
 40
2.25
 41
0.0
 46
0.0
 71
     5
 72
     1
  1
\A1;CLEAR TREAD\P29-1/2"MIN\P55-1/2"MAX
  7
ROMANS
 73
     1
 44
1.0
  0
POINT
  5
696B
330
235B
100
AcDbEntity
  8
DEFPOINTS
 62
     0
100
AcDbPoint
 10
217.9449124385
 20
971.573308862326
 30
0.0
  0
POINT
  5
696C
330
235B
100
AcDbEntity
  8
DEFPOINTS
 62
     0
100
AcDbPoint
 10
257.4449124385
 20
971.5733088623258
 30
0.0
  0
POINT
  5
696D
330
235B
100
AcDbEntity
  8
DEFPOINTS
 62
     0
100
AcDbPoint
 10
257.4449124385
 20
967.438970214239
 30
0.0
  0
ENDBLK
  5
4C13
330
235B
100
AcDbEntity
  8
0
100
AcDbBlockEnd
  0
BLOCK
  5
4BE7
330
3891
100
AcDbEntity
  8
0
100
AcDbBlockBegin
  2
*D2
 70
     1
 10
0.0
 20
0.0
 30
0.0
  3
*D2
  1

  0
LINE
  5
699D
330
3891
100
AcDbEntity
  8
0
 62
     0
370
    -2
100
AcDbLine
 10
36.17009230553305
 20
970.823308862327
 30
0.0
 11
36.17009230553305
 21
953.8492531694778
 31
0.0
  0
LINE
  5
699E
330
3891
100
AcDbEntity
  8
0
 62
     0
370
    -2
100
AcDbLine
 10
184.3401947330678
 20
970.8233088623259
 30
0.0
 11
184.3401947330678
 21
953.8492531694778
 31
0.0
  0
LINE
  5
699F
330
3891
100
AcDbEntity
  8
0
 62
     0
370
    -2
100
AcDbLine
 10
38.42009230553305
 20
956.0992531694777
 30
0.0
 11
101.576572090729
 21
956.0992531694777
 31
0.0
  0
LINE
  5
69A0
330
3891
100
AcDbEntity
  8
0
 62
     0
370
    -2
100
AcDbLine
 10
182.0901947330678
 20
956.0992531694777
 30
0.0
 11
118.9337149478718
 21
956.0992531694777
 31
0.0
  0
SOLID
  5
69A1
330
3891
100
AcDbEntity
  8
0
 62
     0
100
AcDbTrace
 10
38.42009230553305
 20
956.4742531694777
 30
0.0
 11
38.42009230553305
 21
955.7242531694779
 31
0.0
 12
36.17009230553305
 22
956.0992531694777
 32
0.0
 13
36.17009230553305
 23
956.0992531694777
 33
0.0
  0
SOLID
  5
69A2
330
3891
100
AcDbEntity
  8
0
 62
     0
100
AcDbTrace
 10
182.0901947330678
 20
956.4742531694777
 30
0.0
 11
182.0901947330678
 21
955.7242531694779
 31
0.0
 12
184.3401947330678
 22
956.0992531694777
 32
0.0
 13
184.3401947330678
 23
956.0992531694777
 33
0.0
  0
MTEXT
  5
69A3
330
3891
100
AcDbEntity
  8
0
 62
     0
100
AcDbMText
 10
110.2551435193004
 20
956.0992531694777
 30
0.0
 40
2.25
 41
0.0
 46
0.0
 71
     5
 72
     1
  1
\A1;AS REQ'D
  7
ROMANS
 73
     1
 44
1.0
  0
POINT
  5
69A4
330
3891
100
AcDbEntity
  8
DEFPOINTS
 62
     0
100
AcDbPoint
 10
36.17009230553305
 20
971.5733088623268
 30
0.0
  0
POINT
  5
69A5
330
3891
100
AcDbEntity
  8
DEFPOINTS
 62
     0
100
AcDbPoint
 10
184.3401947330678
 20
971.573308862326
 30
0.0
  0
POINT
  5
69A6
330
3891
100
AcDbEntity
  8
DEFPOINTS
 62
     0
100
AcDbPoint
 10
184.3401947330678
 20
956.0992531694777
 30
0.0
  0
ENDBLK
  5
4BF2
330
3891
100
AcDbEntity
  8
0
100
AcDbBlockEnd
  0
BLOCK
  5
4BFC
330
4A1E
100
AcDbEntity
  8
0
100
AcDbBlockBegin
  2
*D3
 70
     1
 10
0.0
 20
0.0
 30
0.0
  3
*D3
  1

  0
LINE
  5
6993
330
4A1E
100
AcDbEntity
  8
0
 62
     0
370
    -2
100
AcDbLine
 10
259.6949124385
 20
970.8233088623259
 30
0.0
 11
259.6949124385
 21
953.8492531694778
 31
0.0
  0
LINE
  5
6994
330
4A1E
100
AcDbEntity
  8
0
 62
     0
370
    -2
100
AcDbLine
 10
215.6949124385
 20
970.8233088623257
 30
0.0
 11
215.6949124385
 21
953.8492531694778
 31
0.0
  0
LINE
  5
6995
330
4A1E
100
AcDbEntity
  8
0
 62
     0
370
    -2
100
AcDbLine
 10
261.9449124384999
 20
956.0992531694777
 30
0.0
 11
264.1949124384999
 21
956.0992531694777
 31
0.0
  0
LINE
  5
6996
330
4A1E
100
AcDbEntity
  8
0
 62
     0
370
    -2
100
AcDbLine
 10
213.4449124385
 20
956.0992531694777
 30
0.0
 11
211.1949124385
 21
956.0992531694777
 31
0.0
  0
MTEXT
  5
6997
330
4A1E
100
AcDbEntity
  8
0
 62
     0
100
AcDbMText
 10
237.6039176337017
 20
956.0992531694777
 30
0.0
 40
2.25
 41
0.0
 46
0.0
 71
     5
 72
     1
  1
\A1;CLEAR TREAD + 4-1/2"
  7
ROMANS
 73
     1
 44
1.0
  0
SOLID
  5
6998
330
4A1E
100
AcDbEntity
  8
0
 62
     0
100
AcDbTrace
 10
261.9449124384999
 20
956.4742531694777
 30
0.0
 11
261.9449124384999
 21
955.7242531694779
 31
0.0
 12
259.6949124385
 22
956.0992531694777
 32
0.0
 13
259.6949124385
 23
956.0992531694777
 33
0.0
  0
SOLID
  5
6999
330
4A1E
100
AcDbEntity
  8
0
 62
     0
100
AcDbTrace
 10
213.4449124385
 20
956.4742531694777
 30
0.0
 11
213.4449124385
 21
955.7242531694779
 31
0.0
 12
215.6949124385
 22
956.0992531694777
 32
0.0
 13
215.6949124385
 23
956.0992531694777
 33
0.0
  0
POINT
  5
699A
330
4A1E
100
AcDbEntity
  8
DEFPOINTS
 62
     0
100
AcDbPoint
 10
259.6949124385
 20
971.573308862326
 30
0.0
  0
POINT
  5
699B
330
4A1E
100
AcDbEntity
  8
DEFPOINTS
 62
     0
100
AcDbPoint
 10
215.6949124385
 20
971.5733088623258
 30
0.0
  0
POINT
  5
699C
330
4A1E
100
AcDbEntity
  8
DEFPOINTS
 62
     0
100
AcDbPoint
 10
215.6949124385
 20
956.0992531694777
 30
0.0
  0
ENDBLK
  5
4C07
330
4A1E
100
AcDbEntity
  8
0
100
AcDbBlockEnd
  0
BLOCK
  5
58A9
330
58A8
100
AcDbEntity
  8
0
 62
     7
100
AcDbBlockBegin
  2
Border
 70
     0
 10
-0.7091800116219247
 20
15.8157349101412
 30
0.0
  3
Border
  1
\\Precisionserver\Cad Files\Ladders\STANDARD\X-REF\Border.dwg
  0
TEXT
  5
5E8B
330
58A8
100
AcDbEntity
  8
0
 62
     7
100
AcDbText
 10
14.88063647735445
 20
3.555192752089299
 30
0.0
 40
1.424754602022191
  1
Ph: (423) 586-2265 Fax: (423) 586-2091
  7
ROMANS
100
AcDbText
  0
TEXT
  5
5E8C
330
58A8
100
AcDbEntity
  8
0
 62
     7
100
AcDbText
 10
14.08259024903724
 20
5.861938298220397
 30
0.0
 40
1.424754602022191
  1
P.O. BOX 2279 Morristown, TN 37816-2279
  7
ROMANS
100
AcDbText
  0
POLYLINE
  5
5E8D
330
58A8
100
AcDbEntity
  8
0
 62
     7
100
AcDb2dPolyline
 66
     1
 10
0.0
 20
0.0
 30
0.0
1001
ACAD
1000
ASC_BOUNDS
1002
{
1070
    19
1002
}
  0
VERTEX
  5
5E8E
330
5E8D
100
AcDbEntity
  8
0
 62
     7
100
AcDbVertex
100
AcDb2dVertex
 10
8.766680817386179
 20
6.443475067235914
 30
0.0
  0
VERTEX
  5
5E8F
330
5E8D
100
AcDbEntity
  8
0
 62
     7
100
AcDbVertex
100
AcDb2dVertex
 10
8.994566881815797
 20
6.559590470402541
 30
0.0
1001
ACAD
1000
ASC_BOUNDS
1002
{
1070
    19
1002
}
  0
VERTEX
  5
5E90
330
5E8D
100
AcDbEntity
  8
0
 62
     7
100
AcDbVertex
100
AcDb2dVertex
 10
10.52763436609123
 20
3.491790326072928
 30
0.0
1001
ACAD
1000
ASC_BOUNDS
1002
{
1070
    19
1002
}
  0
VERTEX
  5
5E91
330
5E8D
100
AcDbEntity
  8
0
 62
     7
100
AcDbVertex
100
AcDb2dVertex
 10
10.03502769416031
 20
3.494898529831843
 30
0.0
  0
VERTEX
  5
5E92
330
5E8D
100
AcDbEntity
  8
0
 62
     7
100
AcDbVertex
100
AcDb2dVertex
 10
8.60317326800528
 20
6.36016262307789
 30
0.0
  0
SEQEND
  5
5E93
330
5E8D
100
AcDbEntity
  8
0
 62
     7
  0
TEXT
  5
5E94
330
58A8
100
AcDbEntity
  8
0
 62
     7
100
AcDbText
 10
9.015369284921122
 20
8.285226862434919
 30
0.0
 40
2.328886132939683
  1
Precision Ladders, LLC
  7
STYLE1
100
AcDbText
  0
CIRCLE
  5
5E95
330
58A8
100
AcDbEntity
  8
0
100
AcDbCircle
 10
7.214644270335539
 20
7.943780927853118
 30
0.0
 40
6.386783474246639
1001
ACAD
1000
ASC_BOUNDS
1002
{
1070
    19
1002
}
  0
INSERT
  5
5E96
330
58A8
100
AcDbEntity
  8
0
100
AcDbBlockReference
  2
*X7
 10
26.35103919121864
 20
151.2550454807789
 30
0.0
 41
0.5167726248169388
 42
0.5167726248169388
 43
0.5167726248169388
1001
ACAD
1000
HATCH
1002
{
1070
    19
1000
ANSI31
1040
0.8843871093750001
1040
0.0
1002
}
  0
LWPOLYLINE
  5
60E4
330
58A8
100
AcDbEntity
  8
0
 62
     7
100
AcDbPolyline
 90
        4
 70
     1
 43
0.0
 10
2.975488579343775
 20
11.20574487544475
 10
2.975488579343775
 20
11.66813709808382
 10
7.899965750449309
 20
11.66813709808382
 10
7.899965750449309
 20
11.20574487544475
1001
ACAD
1000
ASC_BOUNDS
1002
{
1070
    19
1005
0
1005
0
1002
}
  0
LINE
  5
60E5
330
58A8
100
AcDbEntity
  8
0
 62
     7
100
AcDbLine
 10
3.147317460242413
 20
11.15583866480141
 30
0.0
 11
5.194053803500192
 21
7.138892415524502
 31
0.0
1001
ACAD
1000
ASC_BOUNDS
1002
{
1070
    19
1002
}
  0
LWPOLYLINE
  5
60E6
330
58A8
100
AcDbEntity
  8
0
 62
     7
100
AcDbPolyline
 90
        4
 70
     0
 43
0.0
 10
3.043241497727863
 20
11.20371728648946
 10
5.210472883142562
 20
6.950286201614057
 10
5.200585015452042
 20
6.945248081384521
 10
3.033353630037338
 20
11.19867916625988
1001
ACAD
1000
ASC_BOUNDS
1002
{
1070
    19
1002
}
  0
LINE
  5
60E7
330
58A8
100
AcDbEntity
  8
0
 62
     7
100
AcDbLine
 10
3.085518287176609
 20
11.12435041336665
 30
0.0
 11
3.147317460242413
 21
11.15583866480141
 31
0.0
1001
ACAD
1000
ASC_BOUNDS
1002
{
1070
    19
1002
}
  0
LINE
  5
60E8
330
58A8
100
AcDbEntity
  8
0
 62
     7
100
AcDbLine
 10
3.147317460242413
 20
11.15583866480141
 30
0.0
 11
3.245263913540979
 21
11.20574487544475
 31
0.0
1001
ACAD
1000
ASC_BOUNDS
1002
{
1070
    19
1002
}
  0
LINE
  5
60E9
330
58A8
100
AcDbEntity
  8
0
 62
     7
100
AcDbLine
 10
3.147317460242413
 20
11.15583866480141
 30
0.0
 11
3.273270465981351
 21
10.90864197253824
 31
0.0
1001
ACAD
1000
ASC_BOUNDS
1002
{
1070
    19
1002
}
  0
LINE
  5
60EA
330
58A8
100
AcDbEntity
  8
0
 62
     7
100
AcDbLine
 10
5.072300872670789
 20
9.53744807870658
 30
0.0
 11
4.595747463433541
 21
8.569300236298861
 31
0.0
1001
ACAD
1000
ASC_BOUNDS
1002
{
1070
    19
1005
0
1002
}
  0
LWPOLYLINE
  5
60EB
330
58A8
100
AcDbEntity
  8
0
 62
     7
100
AcDbPolyline
 90
        2
 70
     0
 43
0.0
 10
4.960506419544628
 20
9.543645531164383
 10
4.503413916137342
 20
8.615033727373582
1001
ACAD
1000
ASC_BOUNDS
1002
{
1070
    19
1005
0
1002
}
  0
LINE
  5
60EC
330
58A8
100
AcDbEntity
  8
0
 62
     7
100
AcDbLine
 10
4.056007838214296
 20
11.20574487544475
 30
0.0
 11
4.932195406234607
 21
9.486129949655111
 31
0.0
1001
ACAD
1000
ASC_BOUNDS
1002
{
1070
    19
1002
}
  0
LINE
  5
60ED
330
58A8
100
AcDbEntity
  8
0
 62
     7
100
AcDbLine
 10
3.978164599682429
 20
11.20574487544475
 30
0.0
 11
4.89394569271214
 21
9.408423281521596
 31
0.0
1001
ACAD
1000
ASC_BOUNDS
1002
{
1070
    19
1002
}
  0
LINE
  5
60EE
330
58A8
100
AcDbEntity
  8
0
 62
     7
100
AcDbLine
 10
3.898137361914258
 20
10.64985270363088
 30
0.0
 11
4.715447029607361
 21
9.045792163565488
 31
0.0
1001
ACAD
1000
ASC_BOUNDS
1002
{
1070
    19
1002
}
  0
LINE
  5
60EF
330
58A8
100
AcDbEntity
  8
0
 62
     7
100
AcDbLine
 10
5.484078733523913
 20
6.910143144887292
 30
0.0
 11
8.60317326800528
 21
6.36016262307789
 31
0.0
1001
ACAD
1000
ASC_BOUNDS
1002
{
1070
    19
1002
}
  0
POLYLINE
  5
60F0
330
58A8
100
AcDbEntity
  8
0
 62
     7
100
AcDb2dPolyline
 66
     1
 10
0.0
 20
0.0
 30
0.0
1001
ACAD
1000
ASC_BOUNDS
1002
{
1070
    19
1002
}
  0
VERTEX
  5
60F1
330
60F0
100
AcDbEntity
  8
0
 62
     7
100
AcDbVertex
100
AcDb2dVertex
 10
5.558944561790159
 20
7.225843565768938
 30
0.0
  0
VERTEX
  5
60F2
330
60F0
100
AcDbEntity
  8
0
 62
     7
100
AcDbVertex
100
AcDb2dVertex
 10
5.585448566250245
 20
7.338318007944597
 30
0.0
1001
ACAD
1000
ASC_BOUNDS
1002
{
1070
    19
1002
}
  0
VERTEX
  5
60F3
330
60F0
100
AcDbEntity
  8
0
 62
     7
100
AcDbVertex
100
AcDb2dVertex
 10
8.691008811799827
 20
6.790723946438539
 30
0.0
1001
ACAD
1000
ASC_BOUNDS
1002
{
1070
    19
1002
}
  0
VERTEX
  5
60F4
330
60F0
100
AcDbEntity
  8
0
 62
     7
100
AcDbVertex
100
AcDb2dVertex
 10
8.636574317061807
 20
6.523891328589764
 30
0.0
  0
SEQEND
  5
60F5
330
60F0
100
AcDbEntity
  8
0
 62
     7
  0
LINE
  5
60F6
330
58A8
100
AcDbEntity
  8
0
 62
     7
100
AcDbLine
 10
4.952359499322798
 20
9.293779731001041
 30
0.0
 11
5.847982934755883
 21
7.536019767643502
 31
0.0
1001
ACAD
1000
ASC_BOUNDS
1002
{
1070
    19
1005
0
1002
}
  0
LWPOLYLINE
  5
60F7
330
58A8
100
AcDbEntity
  8
0
 62
     7
100
AcDbPolyline
 90
        2
 70
     0
 43
0.0
 10
4.99060921284524
 20
9.371486399134514
 10
5.907719454906815
 20
7.571556203358091
1001
ACAD
1000
ASC_BOUNDS
1002
{
1070
    19
1002
}
  0
LWPOLYLINE
  5
60F8
330
58A8
100
AcDbEntity
  8
0
 62
     7
100
AcDbPolyline
 90
        3
 70
     0
 43
0.0
 10
4.504244055464261
 20
8.499766960532987
 10
4.67048220616947
 20
8.580846724094861
 10
4.635360593571968
 20
8.649776769948978
1001
ACAD
1000
ASC_BOUNDS
1002
{
1070
    19
1002
}
  0
CIRCLE
  5
60F9
330
58A8
100
AcDbEntity
  8
0
 62
     7
100
AcDbCircle
 10
4.570160018674124
 20
8.632639705777027
 30
0.0
 40
0.0173397083489631
1001
ACAD
1000
ASC_BOUNDS
1002
{
1070
    19
1002
}
  0
LINE
  5
60FA
330
58A8
100
AcDbEntity
  8
0
 62
     7
100
AcDbLine
 10
4.561762586535443
 20
8.733572674442768
 30
0.0
 11
4.420275384971654
 21
8.664564755375142
 31
0.0
1001
ACAD
1000
ASC_BOUNDS
1002
{
1070
    19
1002
}
  0
LINE
  5
60FB
330
58A8
100
AcDbEntity
  8
0
 62
     7
100
AcDbLine
 10
4.397705692942639
 20
8.699031828263084
 30
0.0
 11
4.523658698681582
 21
8.451835135999914
 31
0.0
1001
ACAD
1000
ASC_BOUNDS
1002
{
1070
    19
1002
}
  0
LINE
  5
60FC
330
58A8
100
AcDbEntity
  8
0
 62
     7
100
AcDbLine
 10
4.59567476800885
 20
8.569197878952618
 30
0.0
 11
4.503235545724734
 21
8.614717395049247
 31
0.0
1001
ACAD
1000
ASC_BOUNDS
1002
{
1070
    19
1002
}
  0
LWPOLYLINE
  5
60FD
330
58A8
100
AcDbEntity
  8
0
 62
     1
100
AcDbPolyline
 90
        2
 70
     1
 43
0.0
 10
4.587499727023091
 20
8.632639705777027
 42
-1.0
 10
4.552820310325168
 20
8.632639705777027
 42
-1.0
1001
ACAD
1000
ASC_BOUNDS
1002
{
1070
    19
1002
}
  0
LINE
  5
60FE
330
58A8
100
AcDbEntity
  8
0
 62
     7
100
AcDbLine
 10
5.908215410248867
 20
7.571854203391933
 30
0.0
 11
5.848763286247105
 21
7.536131763361761
 31
0.0
1001
ACAD
1000
ASC_BOUNDS
1002
{
1070
    19
1002
}
  0
LINE
  5
60FF
330
58A8
100
AcDbEntity
  8
0
 62
     7
100
AcDbLine
 10
5.430122954348513
 20
7.259175655722259
 30
0.0
 11
5.130795973607245
 21
7.106660941314304
 31
0.0
1001
ACAD
1000
ASC_BOUNDS
1002
{
1070
    19
1002
}
  0
POLYLINE
  5
6100
330
58A8
100
AcDbEntity
  8
0
 62
     7
100
AcDb2dPolyline
 66
     1
 10
0.0
 20
0.0
 30
0.0
1001
ACAD
1000
ASC_BOUNDS
1002
{
1070
    19
1002
}
  0
VERTEX
  5
6101
330
6100
100
AcDbEntity
  8
0
 62
     7
100
AcDbVertex
100
AcDb2dVertex
 10
5.484532578181231
 20
6.910063119829048
 30
0.0
  0
VERTEX
  5
6102
330
6100
100
AcDbEntity
  8
0
 62
     7
100
AcDbVertex
100
AcDb2dVertex
 10
5.546463850673874
 20
7.172879455274841
 30
0.0
1001
ACAD
1000
ASC_BOUNDS
1002
{
1070
    19
1002
}
  0
SEQEND
  5
6103
330
6100
100
AcDbEntity
  8
0
 62
     7
  0
LINE
  5
6104
330
58A8
100
AcDbEntity
  8
0
 62
     7
100
AcDbLine
 10
4.773860836218019
 20
8.931148613044847
 30
0.0
 11
5.339284363245941
 21
7.821442458840061
 31
0.0
1001
ACAD
1000
ASC_BOUNDS
1002
{
1070
    19
1002
}
  0
LINE
  5
6105
330
58A8
100
AcDbEntity
  8
0
 62
     7
100
AcDbLine
 10
5.372431002767807
 20
7.756388515892252
 30
0.0
 11
5.585448566250245
 21
7.338318007944597
 31
0.0
1001
ACAD
1000
ASC_BOUNDS
1002
{
1070
    19
1002
}
  0
LWPOLYLINE
  5
6106
330
58A8
100
AcDbEntity
  8
0
 62
     7
100
AcDbPolyline
 90
        4
 70
     0
 43
0.0
 10
5.663392081283444
 20
7.898299715888605
 10
5.184306973023733
 20
7.664634295893689
 10
5.152818721589007
 20
7.726433468959521
 10
5.627680504219661
 20
7.968387632202145
1001
ACAD
1000
ASC_BOUNDS
1002
{
1070
    19
1005
0
1002
}
  0
LWPOLYLINE
  5
6107
330
58A8
100
AcDbEntity
  8
0
 62
     7
100
AcDbPolyline
 90
        5
 70
     0
 43
0.0
 10
5.58544856627228
 20
7.338318008040809
 10
5.597934850417206
 20
7.310058788560708
 10
5.751776773106651
 20
6.999255221859684
 10
5.648175584206336
 20
6.94797458096329
 10
5.517682900888962
 20
7.236519860065415
1001
ACAD
1000
ASC_BOUNDS
1002
{
1070
    19
1002
}
  0
POLYLINE
  5
6108
330
58A8
100
AcDbEntity
  8
0
 62
     7
100
AcDb2dPolyline
 66
     1
 10
0.0
 20
0.0
 30
0.0
 70
     1
1001
ACAD
1000
ASC_BOUNDS
1002
{
1070
    19
1002
}
  0
VERTEX
  5
6109
330
6108
100
AcDbEntity
  8
0
 62
     7
100
AcDbVertex
100
AcDb2dVertex
 10
5.195606360788609
 20
7.318468839405722
 30
0.0
1001
ACAD
1000
ASC_BOUNDS
1002
{
1070
    19
1002
}
  0
VERTEX
  5
610A
330
6108
100
AcDbEntity
  8
0
 62
     7
100
AcDbVertex
100
AcDb2dVertex
 10
5.217042192292937
 20
7.421416678144872
 30
0.0
  0
VERTEX
  5
610B
330
6108
100
AcDbEntity
  8
0
 62
     7
100
AcDbVertex
100
AcDb2dVertex
 10
5.246883850365481
 20
7.413418789619857
 30
0.0
  0
VERTEX
  5
610C
330
6108
100
AcDbEntity
  8
0
 62
     7
100
AcDbVertex
100
AcDb2dVertex
 10
5.58544856627228
 20
7.338318008040809
 30
0.0
  0
VERTEX
  5
610D
330
6108
100
AcDbEntity
  8
0
 62
     7
100
AcDbVertex
100
AcDb2dVertex
 10
5.560414972412595
 20
7.225463102738594
 30
0.0
  0
VERTEX
  5
610E
330
6108
100
AcDbEntity
  8
0
 62
     7
100
AcDbVertex
100
AcDb2dVertex
 10
5.22467748046209
 20
7.312333873137024
 30
0.0
  0
SEQEND
  5
610F
330
6108
100
AcDbEntity
  8
0
 62
     7
  0
LWPOLYLINE
  5
6110
330
58A8
100
AcDbEntity
  8
0
 62
     7
100
AcDbPolyline
 90
        5
 70
     0
 43
0.0
 10
8.603173268005274
 20
6.36016262307789
 10
8.589470773575794
 20
6.387852556696197
 10
8.422268196328207
 20
6.691677329242223
 10
8.523543120510186
 20
6.74741152165798
 10
8.666451280049757
 20
6.464809369457237
1001
ACAD
1000
ASC_BOUNDS
1002
{
1070
    19
1002
}
  0
LINE
  5
6111
330
58A8
100
AcDbEntity
  8
0
 62
     7
100
AcDbLine
 10
8.626266396393788
 20
6.473362900436553
 30
0.0
 11
8.60317326800528
 21
6.36016262307789
 31
0.0
1001
ACAD
1000
ASC_BOUNDS
1002
{
1070
    19
1002
}
  0
POLYLINE
  5
6112
330
58A8
100
AcDbEntity
  8
0
 62
     7
100
AcDb2dPolyline
 66
     1
 10
0.0
 20
0.0
 30
0.0
 70
     1
1001
ACAD
1000
ASC_BOUNDS
1002
{
1070
    19
1002
}
  0
VERTEX
  5
6113
330
6112
100
AcDbEntity
  8
0
 62
     7
100
AcDbVertex
100
AcDb2dVertex
 10
8.991784676367734
 20
6.396933643765679
 30
0.0
1001
ACAD
1000
ASC_BOUNDS
1002
{
1070
    19
1002
}
  0
VERTEX
  5
6114
330
6112
100
AcDbEntity
  8
0
 62
     7
100
AcDbVertex
100
AcDb2dVertex
 10
8.974842694154414
 20
6.293151556621431
 30
0.0
  0
VERTEX
  5
6115
330
6112
100
AcDbEntity
  8
0
 62
     7
100
AcDbVertex
100
AcDb2dVertex
 10
8.944681676551669
 20
6.299845120286859
 30
0.0
  0
VERTEX
  5
6116
330
6112
100
AcDbEntity
  8
0
 62
     7
100
AcDbVertex
100
AcDb2dVertex
 10
8.603173268005274
 20
6.36016262307789
 30
0.0
  0
VERTEX
  5
6117
330
6112
100
AcDbEntity
  8
0
 62
     7
100
AcDbVertex
100
AcDb2dVertex
 10
8.623279102268954
 20
6.473998759260005
 30
0.0
  0
VERTEX
  5
6118
330
6112
100
AcDbEntity
  8
0
 62
     7
100
AcDbVertex
100
AcDb2dVertex
 10
8.962474422630362
 20
6.401799528684035
 30
0.0
  0
SEQEND
  5
6119
330
6112
100
AcDbEntity
  8
0
 62
     7
  0
LINE
  5
611A
330
58A8
100
AcDbEntity
  8
0
 62
     1
100
AcDbLine
 10
8.691008811799827
 20
6.790723946438539
 30
0.0
 11
8.636574317061807
 21
6.523891328589764
 31
0.0
1001
ACAD
1000
ASC_BOUNDS
1002
{
1070
    19
1002
}
  0
LINE
  5
611B
330
58A8
100
AcDbEntity
  8
0
 62
     1
100
AcDbLine
 10
8.636574317061807
 20
6.523891328589764
 30
0.0
 11
8.666451280049757
 21
6.464809369457237
 31
0.0
1001
ACAD
1000
ASC_BOUNDS
1002
{
1070
    19
1002
}
  0
LINE
  5
611C
330
58A8
100
AcDbEntity
  8
0
 62
     1
100
AcDbLine
 10
8.666451280049757
 20
6.464809369457237
 30
0.0
 11
8.766680817386195
 21
6.443475067235914
 31
0.0
  0
LINE
  5
611D
330
58A8
100
AcDbEntity
  8
0
 62
     1
100
AcDbLine
 10
8.766680817386195
 20
6.443475067235914
 30
0.0
 11
8.994566881815797
 21
6.559590470402541
 31
0.0
1001
ACAD
1000
ASC_BOUNDS
1002
{
1070
    19
1002
}
  0
LINE
  5
611E
330
58A8
100
AcDbEntity
  8
0
 62
     7
100
AcDbLine
 10
3.61489615320033
 20
11.20574487544475
 30
0.0
 11
3.86829586787606
 21
10.70841993333023
 31
0.0
1001
ACAD
1000
ASC_BOUNDS
1002
{
1070
    19
1002
}
  0
LWPOLYLINE
  5
611F
330
58A8
100
AcDbEntity
  8
0
 62
     7
100
AcDbPolyline
 90
        4
 70
     0
 43
0.0
 10
4.159256946391717
 20
10.85033113332658
 10
3.68203522590797
 20
10.61757454827512
 10
3.712440137243662
 20
10.5552352417607
 10
4.186533502887983
 20
10.79679787699292
1001
ACAD
1000
ASC_BOUNDS
1002
{
1070
    19
1002
}
  0
LINE
  5
6120
330
58A8
100
AcDbEntity
  8
0
 62
     7
100
AcDbLine
 10
5.709486798505537
 20
11.20574487544475
 30
0.0
 11
5.11728991060976
 21
10.13539932711142
 31
0.0
1001
ACAD
1000
ASC_BOUNDS
1002
{
1070
    19
1002
}
  0
LINE
  5
6121
330
58A8
100
AcDbEntity
  8
0
 62
     7
100
AcDbLine
 10
5.577375125302518
 20
11.20574487544475
 30
0.0
 11
5.136154627876379
 21
10.40827632249176
 31
0.0
1001
ACAD
1000
ASC_BOUNDS
1002
{
1070
    19
1002
}
  0
CIRCLE
  5
6122
330
58A8
100
AcDbEntity
  8
0
 62
     7
100
AcDbCircle
 10
5.02104187821431
 20
9.565686892025851
 30
0.0
 40
0.0173397083489631
1001
ACAD
1000
ASC_BOUNDS
1002
{
1070
    19
1002
}
  0
LWPOLYLINE
  5
6123
330
58A8
100
AcDbEntity
  8
0
 62
     1
100
AcDbPolyline
 90
        2
 70
     1
 43
0.0
 10
5.038381586563275
 20
9.565686892025851
 42
-1.0
 10
5.00370216986535
 20
9.565686892025851
 42
-1.0
1001
ACAD
1000
ASC_BOUNDS
1002
{
1070
    19
1002
}
  0
LINE
  5
6124
330
58A8
100
AcDbEntity
  8
0
 62
     1
100
AcDbLine
 10
5.075828546832791
 20
9.535663205337947
 30
0.0
 11
5.071422300771323
 21
9.535663205337947
 31
0.0
  0
LINE
  5
6125
330
58A8
100
AcDbEntity
  8
0
 62
     7
100
AcDbLine
 10
5.191285764011571
 20
11.20574487544475
 30
0.0
 11
5.075277381445791
 21
9.52769063131852
 31
0.0
1001
ACAD
1000
ASC_BOUNDS
1002
{
1070
    19
1005
0
1002
}
  0
LWPOLYLINE
  5
6126
330
58A8
100
AcDbEntity
  8
0
 62
     7
100
AcDbPolyline
 90
        3
 70
     0
 43
0.0
 10
5.075411797167864
 20
11.20574487544475
 10
4.9599545799891
 20
9.535663205337947
 10
5.075552635648853
 20
9.535663205337947
1001
ACAD
1000
ASC_BOUNDS
1002
{
1070
    19
1005
0
1002
}
  0
TEXT
  5
6127
330
58A8
100
AcDbEntity
  8
0
 62
     7
100
AcDbText
 10
21.37027972100177
 20
0.9805520374701943
 30
0.0
 40
1.638467792325521
  1
www.PrecisionLadders.com
  7
ROMANS
100
AcDbText
  0
LWPOLYLINE
  5
6128
330
58A8
100
AcDbEntity
  8
0
 62
     7
100
AcDbPolyline
 90
        9
 70
     0
 43
0.0
 10
10.36633405241562
 20
3.428726298408117
 10
10.36655286501771
 20
3.463405024791232
 10
10.26251668586843
 20
3.464061462597571
 10
10.19315923310223
 20
3.464499087801723
 10
10.19294042050013
 20
3.429820361418695
 42
0.4142135623730939
 10
10.20442705842713
 20
3.418187848423535
 10
10.35470153942054
 20
3.417239660481108
 42
0.4142135623730989
 10
10.3663340524156
 20
3.428726298408117
 42
-0.4142135623730944
 10
10.35470153942054
 20
3.417239660481108
1001
ACAD
1000
ASC_BOUNDS
1002
{
1070
    19
1002
}
  0
LINE
  5
6129
330
58A8
100
AcDbEntity
  8
0
 62
     7
100
AcDbLine
 10
10.31311986264362
 20
3.493143849733797
 30
0.0
 11
10.3127092320714
 21
3.463744762338132
 31
0.0
1001
ACAD
1000
ASC_BOUNDS
1002
{
1070
    19
1002
}
  0
LINE
  5
612A
330
58A8
100
AcDbEntity
  8
0
 62
     7
100
AcDbLine
 10
10.24954219760794
 20
3.493545006170977
 30
0.0
 11
10.31311986264362
 21
3.493143849733797
 31
0.0
1001
ACAD
1000
ASC_BOUNDS
1002
{
1070
    19
1002
}
  0
LINE
  5
612B
330
58A8
100
AcDbEntity
  8
0
 62
     7
100
AcDbLine
 10
10.24938007573792
 20
3.467850965163846
 30
0.0
 11
10.24954219760794
 21
3.493545006170977
 31
0.0
1001
ACAD
1000
ASC_BOUNDS
1002
{
1070
    19
1002
}
  0
TEXT
  5
612C
330
58A8
100
AcDbEntity
  8
0
100
AcDbText
 10
66.24482379919353
 20
0.7698485708019974
 30
0.0
 40
1.1055
  1
WORK ORDER: ( )
 50
90.0
 41
0.9
  7
ROMANS
100
AcDbText
  0
TEXT
  5
612D
330
58A8
100
AcDbEntity
  8
0
100
AcDbText
 10
67.90690698866296
 20
3.502753249128737
 30
0.0
 40
1.1055
  1
CHECKED BY:
  7
ROMANS
100
AcDbText
  0
TEXT
  5
612E
330
58A8
100
AcDbEntity
  8
0
100
AcDbText
 10
67.90690698866296
 20
13.80825974738626
 30
0.0
 40
1.1055
  1
DWG. CHECK
  7
ROMANS
100
AcDbText
  0
TEXT
  5
612F
330
58A8
100
AcDbEntity
  8
0
100
AcDbText
 10
67.90690698866296
 20
8.655506498257498
 30
0.0
 40
1.1055
  1
BUILT BY:
  7
ROMANS
100
AcDbText
  0
TEXT
  5
6130
330
58A8
100
AcDbEntity
  8
0
100
AcDbText
 10
99.41250000000003
 20
3.502753249128737
 30
0.0
 40
1.1055
  1
DRAWN BY:
  7
ROMANS
100
AcDbText
  0
TEXT
  5
6131
330
58A8
100
AcDbEntity
  8
0
100
AcDbText
 10
99.41250000000003
 20
8.655506498257498
 30
0.0
 40
1.1055
  1
PURCHASE ORDER
  7
ROMANS
100
AcDbText
  0
TEXT
  5
6132
330
58A8
100
AcDbEntity
  8
0
100
AcDbText
 10
99.41250000000003
 20
13.80825974738626
 30
0.0
 40
1.1055
  1
ARCH'T OR ENG'R.
  7
ROMANS
100
AcDbText
  0
TEXT
  5
6133
330
58A8
100
AcDbEntity
  8
0
100
AcDbText
 10
220.5524394415514
 20
8.236073841958663
 30
0.0
 40
1.1055
  1
SERIAL#
  7
ROMANS
100
AcDbText
  0
TEXT
  5
6134
330
58A8
100
AcDbEntity
  8
0
100
AcDbText
 10
220.4125000000001
 20
13.80825974738626
 30
0.0
 40
1.1055
  1
PRECISION REP
  7
ROMANS
100
AcDbText
  0
TEXT
  5
6135
330
58A8
100
AcDbEntity
  8
0
100
AcDbText
 10
143.4125
 20
3.502753249128737
 30
0.0
 40
1.1055
  1
DATE
  7
ROMANS
100
AcDbText
  0
TEXT
  5
6136
330
58A8
100
AcDbEntity
  8
0
100
AcDbText
 10
159.9125
 20
3.502753249128737
 30
0.0
 40
1.1055
  1
MODEL#
  7
ROMANS
100
AcDbText
  0
TEXT
  5
6137
330
58A8
100
AcDbEntity
  8
0
100
AcDbText
 10
143.4125
 20
13.80825974738626
 30
0.0
 40
1.1055
  1
PROJECT
  7
ROMANS
100
AcDbText
  0
TEXT
  5
6138
330
58A8
100
AcDbEntity
  8
0
100
AcDbText
 10
143.4125
 20
8.655506498257498
 30
0.0
 40
1.1055
  1
WORK ORDER
  7
ROMANS
100
AcDbText
  0
TEXT
  5
6139
330
58A8
100
AcDbEntity
  8
0
100
AcDbText
 10
159.9125
 20
8.655506498257498
 30
0.0
 40
1.1055
  1
PURCHASER
  7
ROMANS
100
AcDbText
  0
TEXT
  5
613A
330
58A8
100
AcDbEntity
  8
0
100
AcDbText
 10
209.4125
 20
3.502753249128737
 30
0.0
 40
1.1055
  1
QTY.
  7
ROMANS
100
AcDbText
  0
LINE
  5
613B
330
58A8
100
AcDbEntity
  8
0
 62
     1
100
AcDbLine
 10
67.49440698866294
 20
5.15275324912876
 30
0.0
 11
220.0
 21
5.15275324912876
 31
0.0
  0
LINE
  5
613C
330
58A8
100
AcDbEntity
  8
0
 62
     1
100
AcDbLine
 10
275.0
 20
0.0
 30
0.0
 11
275.0
 21
212.5
 31
0.0
  0
LINE
  5
613D
330
58A8
100
AcDbEntity
  8
0
 62
     1
100
AcDbLine
 10
275.0
 20
212.5
 30
0.0
 11
0.0
 21
212.5
 31
0.0
  0
LINE
  5
613E
330
58A8
100
AcDbEntity
  8
0
 62
     1
100
AcDbLine
 10
0.0
 20
212.5
 30
0.0
 11
0.0
 21
0.0
 31
0.0
  0
LINE
  5
613F
330
58A8
100
AcDbEntity
  8
0
 62
     1
100
AcDbLine
 10
0.0
 20
0.0
 30
0.0
 11
275.0
 21
0.0
 31
0.0
  0
LINE
  5
6140
330
58A8
100
AcDbEntity
  8
0
 62
     1
100
AcDbLine
 10
67.49440698866294
 20
0.0
 30
0.0
 11
67.49440698866294
 21
15.45825974738624
 31
0.0
  0
LINE
  5
6141
330
58A8
100
AcDbEntity
  8
0
 62
     1
100
AcDbLine
 10
99.0
 20
0.0
 30
0.0
 11
99.0
 21
15.45825974738624
 31
0.0
  0
LINE
  5
6142
330
58A8
100
AcDbEntity
  8
0
 62
     1
100
AcDbLine
 10
143.0
 20
0.0
 30
0.0
 11
143.0
 21
15.45825974738624
 31
0.0
  0
LINE
  5
6143
330
58A8
100
AcDbEntity
  8
0
 62
     1
100
AcDbLine
 10
159.5
 20
0.0
 30
0.0
 11
159.5
 21
10.30550649825748
 31
0.0
  0
LINE
  5
6144
330
58A8
100
AcDbEntity
  8
0
 62
     1
100
AcDbLine
 10
220.0
 20
0.0
 30
0.0
 11
220.0
 21
15.45825974738624
 31
0.0
  0
LINE
  5
6145
330
58A8
100
AcDbEntity
  8
0
 62
     1
100
AcDbLine
 10
209.0
 20
0.0
 30
0.0
 11
209.0
 21
5.15275324912876
 31
0.0
  0
LINE
  5
6146
330
58A8
100
AcDbEntity
  8
0
 62
     1
100
AcDbLine
 10
0.0
 20
15.45825974738624
 30
0.0
 11
275.0
 21
15.45825974738624
 31
0.0
  0
LINE
  5
6147
330
58A8
100
AcDbEntity
  8
0
 62
     1
100
AcDbLine
 10
67.49440698866294
 20
10.30550649825748
 30
0.0
 11
275.0
 21
10.30550649825748
 31
0.0
  0
ENDBLK
  5
58AA
330
58A8
100
AcDbEntity
  8
0
 62
     7
100
AcDbBlockEnd
  0
BLOCK
  5
58BC
330
58AD
100
AcDbEntity
  8
0
 62
     7
100
AcDbBlockBegin
  2
border-T
 70
     2
 10
0.0
 20
0.0
 30
0.0
  3
border-T
  1

  0
ATTDEF
  5
58AE
330
58AD
100
AcDbEntity
  8
0
 62
     5
100
AcDbText
 10
1.270598029493498
 20
16.95296065185261
 30
0.0
 40
2.25
  1

  7
ROMANS
100
AcDbAttributeDefinition
  3
SCALE
  2
SCALE
 70
     0
280
     0
  0
ATTDEF
  5
58AF
330
58AD
100
AcDbEntity
  8
0
100
AcDbText
 10
267.5431072019895
 20
17.84606723821125
 30
0.0
 40
1.7518359375
  1

  7
ROMANS
 72
     4
 11
267.5431072019895
 21
17.84606723821125
 31
0.0
100
AcDbAttributeDefinition
  3
SAVED AS
  2
SAVEDAS
 70
     0
280
     0
  0
ATTDEF
  5
58B0
330
58AD
100
AcDbEntity
  8
0
 62
     5
100
AcDbText
 10
65.77232295450201
 20
13.4910955979239
 30
0.0
 40
1.248161764705882
  1

 50
90.0
  7
ROMANS
 72
     4
 11
65.77232295450201
 21
13.4910955979239
 31
0.0
100
AcDbAttributeDefinition
  3
WORK ORDER (X)
  2
X
 70
     0
280
     0
  0
ATTDEF
  5
58B1
330
58AD
100
AcDbEntity
  8
0
100
AcDbText
 10
120.7768196578975
 20
11.16830391662092
 30
0.0
 40
1.769029714285714
  1

  7
ROMANS
 72
     1
 11
120.7768196578975
 21
11.16830391662092
 31
0.0
100
AcDbAttributeDefinition
  3
ARCHITECT OR ENGINEER
  2
ARCHORENG
 70
     0
280
     0
  0
ATTDEF
  5
58B2
330
58AD
100
AcDbEntity
  8
0
100
AcDbText
 10
120.7768196578975
 20
6.014881478758579
 30
0.0
 40
1.769029714285714
  1

  7
ROMANS
 72
     1
 11
120.7768196578975
 21
6.014881478758579
 31
0.0
100
AcDbAttributeDefinition
  3
PURCHASE ORDER
  2
PURCHASEORDER
 70
     0
280
     0
  0
ATTDEF
  5
58B3
330
58AD
100
AcDbEntity
  8
0
100
AcDbText
 10
118.4602331272852
 20
0.8614590408961362
 30
0.0
 40
1.769029714285714
  1
JEB
  7
ROMANS
 72
     1
 11
120.7768196578975
 21
0.8614590408961362
 31
0.0
100
AcDbAttributeDefinition
  3
WHO ARE YOU?
  2
DRAWNBY
 70
     0
280
     0
  0
ATTDEF
  5
58B4
330
58AD
100
AcDbEntity
  8
0
100
AcDbText
 10
151.0307482293261
 20
6.014881478758579
 30
0.0
 40
1.769029714285714
  1

  7
ROMANS
 72
     1
 11
151.0307482293261
 21
6.014881478758579
 31
0.0
100
AcDbAttributeDefinition
  3
WORK ORDER DATE?
  2
DATE
 70
     0
280
     0
  0
ATTDEF
  5
58B5
330
58AD
100
AcDbEntity
  8
0
100
AcDbText
 10
151.0307482293261
 20
0.8614590408961362
 30
0.0
 40
1.769029714285714
  1

  7
ROMANS
 72
     1
 11
151.0307482293261
 21
0.8614590408961362
 31
0.0
100
AcDbAttributeDefinition
  3
WHAT IS TODAY'S DATE?
  2
DATE
 70
     0
280
     0
  0
ATTDEF
  5
58B6
330
58AD
100
AcDbEntity
  8
0
100
AcDbText
 10
181.2846768007546
 20
11.16830391662092
 30
0.0
 40
1.769029714285714
  1

  7
ROMANS
 72
     1
 11
181.2846768007546
 21
11.16830391662092
 31
0.0
100
AcDbAttributeDefinition
  3
PROJECT
  2
PROJECT
 70
     0
280
     0
  0
ATTDEF
  5
58B7
330
58AD
100
AcDbEntity
  8
0
100
AcDbText
 10
189.535748229326
 20
6.014881478758579
 30
0.0
 40
1.769029714285714
  1

  7
ROMANS
 72
     1
 11
189.535748229326
 21
6.014881478758579
 31
0.0
100
AcDbAttributeDefinition
  3
PURCHASER
  2
PURCHASER
 70
     0
280
     0
  0
ATTDEF
  5
58B8
330
58AD
100
AcDbEntity
  8
0
100
AcDbText
 10
184.0350339436118
 20
0.8614590408962374
 30
0.0
 40
1.769029714285714
  1

  7
ROMANS
 72
     1
 11
184.0350339436118
 21
0.8614590408962374
 31
0.0
100
AcDbAttributeDefinition
  3
MODEL #
  2
MODEL
 70
     0
280
     0
  0
ATTDEF
  5
58B9
330
58AD
100
AcDbEntity
  8
0
100
AcDbText
 10
213.5729266783056
 20
0.8614590408961362
 30
0.0
 40
1.769029714285714
  1
1
  7
ROMANS
 72
     1
 11
214.2889625150403
 21
0.8614590408961362
 31
0.0
100
AcDbAttributeDefinition
  3
QUANTITY
  2
QTY
 70
     0
280
     0
  0
ATTDEF
  5
58BA
330
58AD
100
AcDbEntity
  8
0
100
AcDbText
 10
247.2932482293261
 20
11.16763472788734
 30
0.0
 40
1.769029714285714
  1

  7
ROMANS
 72
     1
 11
247.2932482293261
 21
11.16763472788734
 31
0.0
100
AcDbAttributeDefinition
  3
PRECISION REP
  2
REP
 70
     0
280
     0
  0
ATTDEF
  5
58BB
330
58AD
100
AcDbEntity
  8
0
100
AcDbText
 10
247.3274175489777
 20
3.153238685427304
 30
0.0
 40
3.455136160714285
  1

  7
ROMANS
 72
     1
 11
247.3274175489777
 21
3.153238685427304
 31
0.0
100
AcDbAttributeDefinition
  3
SERIAL #
  2
L010000
 70
     0
280
     0
  0
ENDBLK
  5
58BD
330
58AD
100
AcDbEntity
  8
0
 62
     7
100
AcDbBlockEnd
  0
BLOCK
  5
59BC
330
59B1
100
AcDbEntity
  8
0
 62
     7
100
AcDbBlockBegin
  2
*D6
 70
     1
 10
0.0
 20
0.0
 30
0.0
  3
*D6
  1

  0
ARC
  5
69F4
330
59B1
100
AcDbEntity
  8
0
 62
     0
370
    -2
100
AcDbCircle
 10
42.80035626758689
 20
971.5733088623263
 30
0.0
 40
24.06874635384849
100
AcDbArc
 50
5.358089249089705
 51
16.17471560010618
  0
ARC
  5
69F5
330
59B1
100
AcDbEntity
  8
0
 62
     0
370
    -2
100
AcDbCircle
 10
42.80035626758689
 20
971.5733088623263
 30
0.0
 40
24.06874635384849
100
AcDbArc
 50
28.90363320079762
 51
34.64706748781838
  0
SOLID
  5
69F6
330
59B1
100
AcDbEntity
  8
0
 62
     0
100
AcDbTrace
 10
67.13852525536978
 20
973.8383776127889
 30
0.0
 11
66.3893449777097
 21
973.8033217778237
 31
0.0
 12
66.86910262143539
 22
971.573308862326
 32
0.0
 13
66.86910262143539
 23
971.573308862326
 33
0.0
  0
SOLID
  5
69F7
330
59B1
100
AcDbEntity
  8
0
 62
     0
100
AcDbTrace
 10
62.30278365502798
 20
985.0294848409308
 30
0.0
 11
62.89918157279197
 21
985.4842479921279
 31
0.0
 12
61.23669316031854
 22
987.0460601698216
 32
0.0
 13
61.23669316031854
 23
987.0460601698216
 33
0.0
  0
MTEXT
  5
69F8
330
59B1
100
AcDbEntity
  8
0
 62
     0
100
AcDbMText
 10
84.38873308684113
 20
980.742360385504
 30
0.0
 40
2.25
 41
0.0
 46
0.0
 71
     5
 72
     1
  1
\A1;30°-45° (AVAILABLE RANGE)
  7
ROMANS
 73
     1
 44
1.0
  0
POINT
  5
69F9
330
59B1
100
AcDbEntity
  8
DEFPOINTS
 62
     0
100
AcDbPoint
 10
64.30832544564203
 20
982.3766330212009
 30
0.0
  0
POINT
  5
69FA
330
59B1
100
AcDbEntity
  8
DEFPOINTS
 62
     0
100
AcDbPoint
 10
184.3401947330679
 20
1090.361044919744
 30
0.0
  0
POINT
  5
69FB
330
59B1
100
AcDbEntity
  8
DEFPOINTS
 62
     0
100
AcDbPoint
 10
184.3401947330678
 20
971.573308862326
 30
0.0
  0
POINT
  5
69FC
330
59B1
100
AcDbEntity
  8
DEFPOINTS
 62
     0
100
AcDbPoint
 10
42.80035626758698
 20
971.5733088623261
 30
0.0
  0
POINT
  5
69FD
330
59B1
100
AcDbEntity
  8
DEFPOINTS
 62
     0
100
AcDbPoint
 10
42.80035626758686
 20
971.573308862326
 30
0.0
  0
ENDBLK
  5
59BD
330
59B1
100
AcDbEntity
  8
0
 62
     7
100
AcDbBlockEnd
  0
BLOCK
  5
5E98
330
5E97
100
AcDbEntity
  8
0
100
AcDbBlockBegin
  2
*X7
 70
     1
 10
0.0
 20
0.0
 30
0.0
  3
*X7
  1

  0
LINE
  5
5E99
330
5E97
100
AcDbEntity
  8
0
 62
     0
100
AcDbLine
 10
-39.38783740946116
 20
-279.4947837961181
 30
0.0
 11
-38.65407559127778
 21
-278.7610219779348
 31
0.0
  0
LINE
  5
5E9A
330
5E97
100
AcDbEntity
  8
0
 62
     0
100
AcDbLine
 10
-39.50054631068232
 20
-279.4749101758668
 30
0.0
 11
-38.76678449249896
 21
-278.7411483576835
 31
0.0
  0
LINE
  5
5E9B
330
5E97
100
AcDbEntity
  8
0
 62
     0
100
AcDbLine
 10
-39.61325521190351
 20
-279.4550365556156
 30
0.0
 11
-38.87949339372014
 21
-278.7212747374322
 31
0.0
  0
LINE
  5
5E9C
330
5E97
100
AcDbEntity
  8
0
 62
     0
100
AcDbLine
 10
-39.7259641131247
 20
-279.4351629353642
 30
0.0
 11
-38.99220229494132
 21
-278.7014011171809
 31
0.0
  0
LINE
  5
5E9D
330
5E97
100
AcDbEntity
  8
0
 62
     0
100
AcDbLine
 10
-39.83867301434587
 20
-279.415289315113
 30
0.0
 11
-39.1049111961625
 21
-278.6815274969296
 31
0.0
  0
LINE
  5
5E9E
330
5E97
100
AcDbEntity
  8
0
 62
     0
100
AcDbLine
 10
-39.95138191556705
 20
-279.3954156948617
 30
0.0
 11
-39.21762009738368
 21
-278.6616538766783
 31
0.0
  0
LINE
  5
5E9F
330
5E97
100
AcDbEntity
  8
0
 62
     0
100
AcDbLine
 10
-40.06409081678821
 20
-279.3755420746104
 30
0.0
 11
-39.33032899860484
 21
-278.641780256427
 31
0.0
  0
LINE
  5
5EA0
330
5E97
100
AcDbEntity
  8
0
 62
     0
100
AcDbLine
 10
-40.1767997180094
 20
-279.3556684543591
 30
0.0
 11
-40.06372011526283
 21
-279.2425888516125
 31
0.0
  0
LINE
  5
5EA1
330
5E97
100
AcDbEntity
  8
0
 62
     0
100
AcDbLine
 10
-39.89688315430998
 20
-279.0757518906596
 30
0.0
 11
-39.44303789982602
 21
-278.6219066361756
 31
0.0
  0
LINE
  5
5EA2
330
5E97
100
AcDbEntity
  8
0
 62
     0
100
AcDbLine
 10
-40.06372011526283
 20
-279.2425888516125
 30
0.0
 11
-39.89688315430998
 21
-279.0757518906597
 31
0.0
  0
LINE
  5
5EA3
330
5E97
100
AcDbEntity
  8
0
 62
     0
100
AcDbLine
 10
-40.28950861923056
 20
-279.3357948341077
 30
0.0
 11
-40.10500766087813
 21
-279.1512938757553
 31
0.0
  0
LINE
  5
5EA4
330
5E97
100
AcDbEntity
  8
0
 62
     0
100
AcDbLine
 10
-39.94078059974761
 20
-278.9870668146248
 30
0.0
 11
-39.5557468010472
 21
-278.6020330159244
 31
0.0
  0
LINE
  5
5EA5
330
5E97
100
AcDbEntity
  8
0
 62
     0
100
AcDbLine
 10
-40.10500766087811
 20
-279.1512938757553
 30
0.0
 11
-39.9407805997476
 21
-278.9870668146248
 31
0.0
  0
LINE
  5
5EA6
330
5E97
100
AcDbEntity
  8
0
 62
     0
100
AcDbLine
 10
-40.36990717715883
 20
-279.2836108705636
 30
0.0
 11
-40.1462952064934
 21
-279.0599988998982
 31
0.0
  0
LINE
  5
5EA7
330
5E97
100
AcDbEntity
  8
0
 62
     0
100
AcDbLine
 10
-39.98467804518519
 20
-278.8983817385899
 30
0.0
 11
-39.66845570226838
 21
-278.5821593956731
 31
0.0
  0
LINE
  5
5EA8
330
5E97
100
AcDbEntity
  8
0
 62
     0
100
AcDbLine
 10
-40.14629520649338
 20
-279.0599988998981
 30
0.0
 11
-39.98467804518524
 21
-278.89838173859
 31
0.0
  0
LINE
  5
5EA9
330
5E97
100
AcDbEntity
  8
0
 62
     0
100
AcDbLine
 10
-40.32903303677044
 20
-279.1101542087027
 30
0.0
 11
-40.18758275210868
 21
-278.968703924041
 31
0.0
  0
LINE
  5
5EAA
330
5E97
100
AcDbEntity
  8
0
 62
     0
100
AcDbLine
 10
-40.02857549062279
 20
-278.8096966625551
 30
0.0
 11
-39.78116460348956
 21
-278.5622857754218
 31
0.0
  0
LINE
  5
5EAB
330
5E97
100
AcDbEntity
  8
0
 62
     0
100
AcDbLine
 10
-40.18758275210866
 20
-278.9687039240409
 30
0.0
 11
-40.02857549062286
 21
-278.8096966625551
 31
0.0
  0
LINE
  5
5EAC
330
5E97
100
AcDbEntity
  8
0
 62
     0
100
AcDbLine
 10
-40.28815889638206
 20
-278.9366975468419
 30
0.0
 11
-40.22887029772395
 21
-278.8774089481838
 31
0.0
  0
LINE
  5
5EAD
330
5E97
100
AcDbEntity
  8
0
 62
     0
100
AcDbLine
 10
-40.07247293606041
 20
-278.7210115865202
 30
0.0
 11
-39.89387350471074
 21
-278.5424121551705
 31
0.0
  0
LINE
  5
5EAE
330
5E97
100
AcDbEntity
  8
0
 62
     0
100
AcDbLine
 10
-40.22887029772394
 20
-278.8774089481837
 30
0.0
 11
-40.07247293606049
 21
-278.7210115865203
 31
0.0
  0
LINE
  5
5EAF
330
5E97
100
AcDbEntity
  8
0
 62
     0
100
AcDbLine
 10
-40.27015784333923
 20
-278.7861139723266
 30
0.0
 11
-40.11637038149812
 21
-278.6323265104854
 31
0.0
  0
LINE
  5
5EB0
330
5E97
100
AcDbEntity
  8
0
 62
     0
100
AcDbLine
 10
-40.116370381498
 20
-278.6323265104853
 30
0.0
 11
-40.00658240593192
 21
-278.5225385349192
 31
0.0
  0
LINE
  5
5EB1
330
5E97
100
AcDbEntity
  8
0
 62
     0
100
AcDbLine
 10
-40.31144538895452
 20
-278.6948189964694
 30
0.0
 11
-40.30692854477254
 21
-278.6903021522874
 31
0.0
  0
LINE
  5
5EB2
330
5E97
100
AcDbEntity
  8
0
 62
     0
100
AcDbLine
 10
-39.69215944246978
 20
-278.0755330499846
 30
0.0
 11
-39.59237083622737
 21
-277.9757444437422
 31
0.0
  0
LINE
  5
5EB3
330
5E97
100
AcDbEntity
  8
0
 62
     0
100
AcDbLine
 10
-40.30692854477248
 20
-278.6903021522873
 30
0.0
 11
-40.20641061560525
 21
-278.5897842231201
 31
0.0
  0
LINE
  5
5EB4
330
5E97
100
AcDbEntity
  8
0
 62
     0
100
AcDbLine
 10
-40.16017812122486
 20
-278.5435517287397
 30
0.0
 11
-40.11929130715309
 21
-278.5026649146679
 31
0.0
  0
LINE
  5
5EB5
330
5E97
100
AcDbEntity
  8
0
 62
     0
100
AcDbLine
 10
-40.20466276288202
 20
-278.5880363703969
 30
0.0
 11
-40.16017812122502
 21
-278.5435517287398
 31
0.0
  0
LINE
  5
5EB6
330
5E97
100
AcDbEntity
  8
0
 62
     0
100
AcDbLine
 10
-40.41225758634928
 20
-278.6630486723916
 30
0.0
 11
-40.23018407840633
 21
-278.4809751644487
 31
0.0
  0
LINE
  5
5EB7
330
5E97
100
AcDbEntity
  8
0
 62
     0
100
AcDbLine
 10
-39.73691136690469
 20
-277.987702452947
 30
0.0
 11
-39.6371227606623
 21
-277.8879138467047
 31
0.0
  0
LINE
  5
5EB8
330
5E97
100
AcDbEntity
  8
0
 62
     0
100
AcDbLine
 10
-40.23018407840633
 20
-278.4809751644486
 30
0.0
 11
-40.20259152936932
 21
-278.4533826154117
 31
0.0
  0
LINE
  5
5EB9
330
5E97
100
AcDbEntity
  8
0
 62
     0
100
AcDbLine
 10
-40.57051962558798
 20
-278.6887281901577
 30
0.0
 11
-40.51758662792604
 21
-278.6357951924959
 31
0.0
  0
LINE
  5
5EBA
330
5E97
100
AcDbEntity
  8
0
 62
     0
100
AcDbLine
 10
-39.78166329133961
 20
-277.8998718559094
 30
0.0
 11
-39.68187468509722
 21
-277.8000832496671
 31
0.0
  0
LINE
  5
5EBB
330
5E97
100
AcDbEntity
  8
0
 62
     0
100
AcDbLine
 10
-40.51758662792603
 20
-278.6357951924959
 30
0.0
 11
-40.33869630383812
 21
-278.456904868408
 31
0.0
  0
LINE
  5
5EBC
330
5E97
100
AcDbEntity
  8
0
 62
     0
100
AcDbLine
 10
-40.33869630383812
 20
-278.456904868408
 30
0.0
 11
-40.24734345380425
 21
-278.3655520183742
 31
0.0
  0
LINE
  5
5EBD
330
5E97
100
AcDbEntity
  8
0
 62
     0
100
AcDbLine
 10
-40.84083440815077
 20
-278.8264604512481
 30
0.0
 11
-40.62291566950281
 21
-278.6085417126002
 31
0.0
  0
LINE
  5
5EBE
330
5E97
100
AcDbEntity
  8
0
 62
     0
100
AcDbLine
 10
-39.82641521577454
 20
-277.812041258872
 30
0.0
 11
-39.72662660953214
 21
-277.7122526526295
 31
0.0
  0
LINE
  5
5EBF
330
5E97
100
AcDbEntity
  8
0
 62
     0
100
AcDbLine
 10
-40.62291566950278
 20
-278.6085417126002
 30
0.0
 11
-40.44720852926992
 21
-278.4328345723673
 31
0.0
  0
LINE
  5
5EC0
330
5E97
100
AcDbEntity
  8
0
 62
     0
100
AcDbLine
 10
-40.44720852926991
 20
-278.4328345723673
 30
0.0
 11
-40.29209537823916
 21
-278.2777214213366
 31
0.0
  0
LINE
  5
5EC1
330
5E97
100
AcDbEntity
  8
0
 62
     0
100
AcDbLine
 10
-41.07098574326527
 20
-278.9240292648902
 30
0.0
 11
-40.96884180887604
 21
-278.821885330501
 31
0.0
  0
LINE
  5
5EC2
330
5E97
100
AcDbEntity
  8
0
 62
     0
100
AcDbLine
 10
-39.87116714020946
 20
-277.7242106618344
 30
0.0
 11
-39.77137853396706
 21
-277.624422055592
 31
0.0
  0
LINE
  5
5EC3
330
5E97
100
AcDbEntity
  8
0
 62
     0
100
AcDbLine
 10
-40.96884180887601
 20
-278.8218853305009
 30
0.0
 11
-40.72824471107957
 21
-278.5812882327045
 31
0.0
  0
LINE
  5
5EC4
330
5E97
100
AcDbEntity
  8
0
 62
     0
100
AcDbLine
 10
-40.55572075470169
 20
-278.4087642763266
 30
0.0
 11
-40.33684730267409
 21
-278.189890824299
 31
0.0
  0
LINE
  5
5EC5
330
5E97
100
AcDbEntity
  8
0
 62
     0
100
AcDbLine
 10
-40.72824471107958
 20
-278.5812882327045
 30
0.0
 11
-40.55572075470172
 21
-278.4087642763266
 31
0.0
  0
LINE
  5
5EC6
330
5E97
100
AcDbEntity
  8
0
 62
     0
100
AcDbLine
 10
-41.11573766770019
 20
-278.8361986678526
 30
0.0
 11
-41.01359373331094
 21
-278.7340547334634
 31
0.0
  0
LINE
  5
5EC7
330
5E97
100
AcDbEntity
  8
0
 62
     0
100
AcDbLine
 10
-39.91591906464438
 20
-277.6363800647968
 30
0.0
 11
-39.81613045840198
 21
-277.5365914585544
 31
0.0
  0
LINE
  5
5EC8
330
5E97
100
AcDbEntity
  8
0
 62
     0
100
AcDbLine
 10
-41.01359373331097
 20
-278.7340547334634
 30
0.0
 11
-40.83357375265634
 21
-278.5540347528088
 31
0.0
  0
LINE
  5
5EC9
330
5E97
100
AcDbEntity
  8
0
 62
     0
100
AcDbLine
 10
-40.66423298013347
 20
-278.3846939802859
 30
0.0
 11
-40.38159922710902
 21
-278.1020602272615
 31
0.0
  0
LINE
  5
5ECA
330
5E97
100
AcDbEntity
  8
0
 62
     0
100
AcDbLine
 10
-40.83357375265634
 20
-278.5540347528088
 30
0.0
 11
-40.66423298013349
 21
-278.384693980286
 31
0.0
  0
LINE
  5
5ECB
330
5E97
100
AcDbEntity
  8
0
 62
     0
100
AcDbLine
 10
-41.16048959213512
 20
-278.7483680708151
 30
0.0
 11
-41.05834565774588
 21
-278.6462241364259
 31
0.0
  0
LINE
  5
5ECC
330
5E97
100
AcDbEntity
  8
0
 62
     0
100
AcDbLine
 10
-39.96067098907931
 20
-277.5485494677593
 30
0.0
 11
-39.86088238283691
 21
-277.4487608615169
 31
0.0
  0
LINE
  5
5ECD
330
5E97
100
AcDbEntity
  8
0
 62
     0
100
AcDbLine
 10
-41.05834565774586
 20
-278.6462241364258
 30
0.0
 11
-40.93646758632097
 21
-278.524346065001
 31
0.0
  0
LINE
  5
5ECE
330
5E97
100
AcDbEntity
  8
0
 62
     0
100
AcDbLine
 10
-40.77274520556526
 20
-278.3606236842452
 30
0.0
 11
-40.42635115154395
 21
-278.0142296302239
 31
0.0
  0
LINE
  5
5ECF
330
5E97
100
AcDbEntity
  8
0
 62
     0
100
AcDbLine
 10
-40.93646758632099
 20
-278.524346065001
 30
0.0
 11
-40.77274520556528
 21
-278.3606236842453
 31
0.0
  0
LINE
  5
5ED0
330
5E97
100
AcDbEntity
  8
0
 62
     0
100
AcDbLine
 10
-41.20524151657004
 20
-278.6605374737775
 30
0.0
 11
-41.10309758218079
 21
-278.5583935393883
 31
0.0
  0
LINE
  5
5ED1
330
5E97
100
AcDbEntity
  8
0
 62
     0
100
AcDbLine
 10
-40.00542291351423
 20
-277.4607188707217
 30
0.0
 11
-39.90563430727183
 21
-277.3609302644794
 31
0.0
  0
LINE
  5
5ED2
330
5E97
100
AcDbEntity
  8
0
 62
     0
100
AcDbLine
 10
-41.10309758218081
 20
-278.5583935393883
 30
0.0
 11
-40.90160135388338
 21
-278.3568973110909
 31
0.0
  0
LINE
  5
5ED3
330
5E97
100
AcDbEntity
  8
0
 62
     0
100
AcDbLine
 10
-40.87969543086212
 20
-278.3349913880696
 30
0.0
 11
-40.47110307597886
 21
-277.9263990331864
 31
0.0
  0
LINE
  5
5ED4
330
5E97
100
AcDbEntity
  8
0
 62
     0
100
AcDbLine
 10
-40.9016013538834
 20
-278.3568973110909
 30
0.0
 11
-40.87969543086214
 21
-278.3349913880696
 31
0.0
  0
LINE
  5
5ED5
330
5E97
100
AcDbEntity
  8
0
 62
     0
100
AcDbLine
 10
-41.24999344100497
 20
-278.57270687674
 30
0.0
 11
-41.14784950661573
 21
-278.4705629423507
 31
0.0
  0
LINE
  5
5ED6
330
5E97
100
AcDbEntity
  8
0
 62
     0
100
AcDbLine
 10
-40.05017483794916
 20
-277.3728882736842
 30
0.0
 11
-39.95038623170675
 21
-277.2730996674417
 31
0.0
  0
LINE
  5
5ED7
330
5E97
100
AcDbEntity
  8
0
 62
     0
100
AcDbLine
 10
-41.14784950661571
 20
-278.4705629423507
 30
0.0
 11
-40.51585500041379
 21
-277.8385684361488
 31
0.0
  0
LINE
  5
5ED8
330
5E97
100
AcDbEntity
  8
0
 62
     0
100
AcDbLine
 10
-40.13520989857035
 20
-277.4579233343053
 30
0.0
 11
-40.05017483794913
 21
-277.3728882736842
 31
0.0
  0
LINE
  5
5ED9
330
5E97
100
AcDbEntity
  8
0
 62
     0
100
AcDbLine
 10
-41.29474536543989
 20
-278.4848762797024
 30
0.0
 11
-41.19260143105066
 21
-278.3827323453132
 31
0.0
  0
LINE
  5
5EDA
330
5E97
100
AcDbEntity
  8
0
 62
     0
100
AcDbLine
 10
-40.09492676238408
 20
-277.2850576766466
 30
0.0
 11
-39.99513815614167
 21
-277.1852690704042
 31
0.0
  0
LINE
  5
5EDB
330
5E97
100
AcDbEntity
  8
0
 62
     0
100
AcDbLine
 10
-41.19260143105065
 20
-278.3827323453131
 30
0.0
 11
-40.56060692484869
 21
-277.7507378391113
 31
0.0
  0
LINE
  5
5EDC
330
5E97
100
AcDbEntity
  8
0
 62
     0
100
AcDbLine
 10
-40.39402495983168
 20
-277.5841558740942
 30
0.0
 11
-40.09492676238404
 21
-277.2850576766466
 31
0.0
  0
LINE
  5
5EDD
330
5E97
100
AcDbEntity
  8
0
 62
     0
100
AcDbLine
 10
-41.3394972898748
 20
-278.3970456826649
 30
0.0
 11
-41.23735335548558
 21
-278.2949017482756
 31
0.0
  0
LINE
  5
5EDE
330
5E97
100
AcDbEntity
  8
0
 62
     0
100
AcDbLine
 10
-40.13967868681899
 20
-277.197227079609
 30
0.0
 11
-40.0398900805766
 21
-277.0974384733666
 31
0.0
  0
LINE
  5
5EDF
330
5E97
100
AcDbEntity
  8
0
 62
     0
100
AcDbLine
 10
-41.23735335548557
 20
-278.2949017482756
 30
0.0
 11
-40.65284002109301
 21
-277.7103884138831
 31
0.0
  0
LINE
  5
5EE0
330
5E97
100
AcDbEntity
  8
0
 62
     0
100
AcDbLine
 10
-40.65284002109302
 20
-277.710388413883
 30
0.0
 11
-40.33209807941335
 21
-277.3896464722034
 31
0.0
  0
LINE
  5
5EE1
330
5E97
100
AcDbEntity
  8
0
 62
     0
100
AcDbLine
 10
-41.38424921430973
 20
-278.3092150856273
 30
0.0
 11
-41.28210527992051
 21
-278.2070711512381
 31
0.0
  0
LINE
  5
5EE2
330
5E97
100
AcDbEntity
  8
0
 62
     0
100
AcDbLine
 10
-40.18443061125393
 20
-277.1093964825715
 30
0.0
 11
-40.08464200501151
 21
-277.0096078763291
 31
0.0
  0
LINE
  5
5EE3
330
5E97
100
AcDbEntity
  8
0
 62
     0
100
AcDbLine
 10
-41.2821052799205
 20
-278.2070711512381
 30
0.0
 11
-40.91165508235433
 21
-277.8366209536719
 31
0.0
  0
LINE
  5
5EE4
330
5E97
100
AcDbEntity
  8
0
 62
     0
100
AcDbLine
 10
-40.91165508235427
 20
-277.8366209536719
 30
0.0
 11
-40.60241286197611
 21
-277.5273787332937
 31
0.0
  0
LINE
  5
5EE5
330
5E97
100
AcDbEntity
  8
0
 62
     0
100
AcDbLine
 10
-41.42900113874467
 20
-278.2213844885897
 30
0.0
 11
-41.32685720435543
 21
-278.1192405542005
 31
0.0
  0
LINE
  5
5EE6
330
5E97
100
AcDbEntity
  8
0
 62
     0
100
AcDbLine
 10
-40.22918253568884
 20
-277.0215658855339
 30
0.0
 11
-40.12939392944644
 21
-276.9217772792915
 31
0.0
  0
LINE
  5
5EE7
330
5E97
100
AcDbEntity
  8
0
 62
     0
100
AcDbLine
 10
-41.32685720435541
 20
-278.1192405542005
 30
0.0
 11
-40.99595323982196
 21
-277.788336589667
 31
0.0
  0
LINE
  5
5EE8
330
5E97
100
AcDbEntity
  8
0
 62
     0
100
AcDbLine
 10
-40.87272764453877
 20
-277.6651109943838
 30
0.0
 11
-40.69486269815346
 21
-277.4872460479985
 31
0.0
  0
LINE
  5
5EE9
330
5E97
100
AcDbEntity
  8
0
 62
     0
100
AcDbLine
 10
-40.99595323982194
 20
-277.788336589667
 30
0.0
 11
-40.87272764453897
 21
-277.665110994384
 31
0.0
  0
LINE
  5
5EEA
330
5E97
100
AcDbEntity
  8
0
 62
     0
100
AcDbLine
 10
-41.47375306317957
 20
-278.1335538915521
 30
0.0
 11
-41.37160912879036
 21
-278.031409957163
 31
0.0
  0
LINE
  5
5EEB
330
5E97
100
AcDbEntity
  8
0
 62
     0
100
AcDbLine
 10
-40.27393446012377
 20
-276.9337352884964
 30
0.0
 11
-40.17414585388136
 21
-276.833946682254
 31
0.0
  0
LINE
  5
5EEC
330
5E97
100
AcDbEntity
  8
0
 62
     0
100
AcDbLine
 10
-41.37160912879035
 20
-278.0314099571629
 30
0.0
 11
-40.73961462258838
 21
-277.399415450961
 31
0.0
  0
LINE
  5
5EED
330
5E97
100
AcDbEntity
  8
0
 62
     0
100
AcDbLine
 10
-41.51850498761451
 20
-278.0457232945146
 30
0.0
 11
-41.41636105322528
 21
-277.9435793601255
 31
0.0
  0
LINE
  5
5EEE
330
5E97
100
AcDbEntity
  8
0
 62
     0
100
AcDbLine
 10
-40.3186863845587
 20
-276.8459046914588
 30
0.0
 11
-40.21889777831629
 21
-276.7461160852164
 31
0.0
  0
LINE
  5
5EEF
330
5E97
100
AcDbEntity
  8
0
 62
     0
100
AcDbLine
 10
-41.41636105322527
 20
-277.9435793601254
 30
0.0
 11
-40.78436654702331
 21
-277.3115848539234
 31
0.0
  0
LINE
  5
5EF0
330
5E97
100
AcDbEntity
  8
0
 62
     0
100
AcDbLine
 10
-41.56325691204942
 20
-277.9578926974771
 30
0.0
 11
-41.46111297766021
 21
-277.8557487630879
 31
0.0
  0
LINE
  5
5EF1
330
5E97
100
AcDbEntity
  8
0
 62
     0
100
AcDbLine
 10
-40.36343830899361
 20
-276.7580740944213
 30
0.0
 11
-40.2636497027512
 21
-276.6582854881789
 31
0.0
  0
LINE
  5
5EF2
330
5E97
100
AcDbEntity
  8
0
 62
     0
100
AcDbLine
 10
-41.4611129776602
 20
-277.8557487630878
 30
0.0
 11
-40.82911847145823
 21
-277.2237542568859
 31
0.0
  0
LINE
  5
5EF3
330
5E97
100
AcDbEntity
  8
0
 62
     0
100
AcDbLine
 10
-41.60800883648435
 20
-277.8700621004395
 30
0.0
 11
-41.50586490209513
 21
-277.7679181660503
 31
0.0
  0
LINE
  5
5EF4
330
5E97
100
AcDbEntity
  8
0
 62
     0
100
AcDbLine
 10
-40.40819023342854
 20
-276.6702434973837
 30
0.0
 11
-40.30840162718615
 21
-276.5704548911414
 31
0.0
  0
LINE
  5
5EF5
330
5E97
100
AcDbEntity
  8
0
 62
     0
100
AcDbLine
 10
-41.50586490209512
 20
-277.7679181660503
 30
0.0
 11
-40.87387039589315
 21
-277.1359236598483
 31
0.0
  0
LINE
  5
5EF6
330
5E97
100
AcDbEntity
  8
0
 62
     0
100
AcDbLine
 10
-41.65276076091928
 20
-277.782231503402
 30
0.0
 11
-41.55061682653006
 21
-277.6800875690128
 31
0.0
  0
LINE
  5
5EF7
330
5E97
100
AcDbEntity
  8
0
 62
     0
100
AcDbLine
 10
-40.45294215786347
 20
-276.5824129003462
 30
0.0
 11
-40.35315355162107
 21
-276.4826242941037
 31
0.0
  0
LINE
  5
5EF8
330
5E97
100
AcDbEntity
  8
0
 62
     0
100
AcDbLine
 10
-41.55061682653004
 20
-277.6800875690128
 30
0.0
 11
-40.91862232032808
 21
-277.0480930628108
 31
0.0
  0
LINE
  5
5EF9
330
5E97
100
AcDbEntity
  8
0
 62
     0
100
AcDbLine
 10
-41.6975126853542
 20
-277.6944009063644
 30
0.0
 11
-41.59536875096497
 21
-277.5922569719752
 31
0.0
  0
LINE
  5
5EFA
330
5E97
100
AcDbEntity
  8
0
 62
     0
100
AcDbLine
 10
-40.49769408229838
 20
-276.4945823033086
 30
0.0
 11
-40.39790547605599
 21
-276.3947936970662
 31
0.0
  0
LINE
  5
5EFB
330
5E97
100
AcDbEntity
  8
0
 62
     0
100
AcDbLine
 10
-41.59536875096496
 20
-277.5922569719751
 30
0.0
 11
-40.963374244763
 21
-276.9602624657732
 31
0.0
  0
LINE
  5
5EFC
330
5E97
100
AcDbEntity
  8
0
 62
     0
100
AcDbLine
 10
-41.74226460978912
 20
-277.6065703093268
 30
0.0
 11
-41.6401206753999
 21
-277.5044263749377
 31
0.0
  0
LINE
  5
5EFD
330
5E97
100
AcDbEntity
  8
0
 62
     0
100
AcDbLine
 10
-40.54244600673332
 20
-276.4067517062711
 30
0.0
 11
-40.44265740049091
 21
-276.3069631000287
 31
0.0
  0
LINE
  5
5EFE
330
5E97
100
AcDbEntity
  8
0
 62
     0
100
AcDbLine
 10
-41.64012067539989
 20
-277.5044263749376
 30
0.0
 11
-41.00812616919793
 21
-276.8724318687357
 31
0.0
  0
LINE
  5
5EFF
330
5E97
100
AcDbEntity
  8
0
 62
     0
100
AcDbLine
 10
-41.78701653422404
 20
-277.5187397122893
 30
0.0
 11
-41.68487259983481
 21
-277.4165957779001
 31
0.0
  0
LINE
  5
5F00
330
5E97
100
AcDbEntity
  8
0
 62
     0
100
AcDbLine
 10
-40.58719793116824
 20
-276.3189211092335
 30
0.0
 11
-40.48740932492584
 21
-276.2191325029911
 31
0.0
  0
LINE
  5
5F01
330
5E97
100
AcDbEntity
  8
0
 62
     0
100
AcDbLine
 10
-41.68487259983482
 20
-277.4165957779001
 30
0.0
 11
-41.05287809363285
 21
-276.7846012716981
 31
0.0
  0
LINE
  5
5F02
330
5E97
100
AcDbEntity
  8
0
 62
     0
100
AcDbLine
 10
-41.83176845865896
 20
-277.4309091152518
 30
0.0
 11
-41.72962452426975
 21
-277.3287651808626
 31
0.0
  0
LINE
  5
5F03
330
5E97
100
AcDbEntity
  8
0
 62
     0
100
AcDbLine
 10
-40.63194985560315
 20
-276.2310905121959
 30
0.0
 11
-40.53216124936076
 21
-276.1313019059535
 31
0.0
  0
LINE
  5
5F04
330
5E97
100
AcDbEntity
  8
0
 62
     0
100
AcDbLine
 10
-41.72962452426975
 20
-277.3287651808625
 30
0.0
 11
-41.09763001806778
 21
-276.6967706746606
 31
0.0
  0
LINE
  5
5F05
330
5E97
100
AcDbEntity
  8
0
 62
     0
100
AcDbLine
 10
-41.8765203830939
 20
-277.3430785182142
 30
0.0
 11
-41.77437644870467
 21
-277.240934583825
 31
0.0
  0
LINE
  5
5F06
330
5E97
100
AcDbEntity
  8
0
 62
     0
100
AcDbLine
 10
-40.67670178003808
 20
-276.1432599151584
 30
0.0
 11
-40.57691317379568
 21
-276.043471308916
 31
0.0
  0
LINE
  5
5F07
330
5E97
100
AcDbEntity
  8
0
 62
     0
100
AcDbLine
 10
-41.77437644870467
 20
-277.240934583825
 30
0.0
 11
-41.1423819425027
 21
-276.608940077623
 31
0.0
  0
LINE
  5
5F08
330
5E97
100
AcDbEntity
  8
0
 62
     0
100
AcDbLine
 10
-41.92127230752881
 20
-277.2552479211766
 30
0.0
 11
-41.8191283731396
 21
-277.1531039867875
 31
0.0
  0
LINE
  5
5F09
330
5E97
100
AcDbEntity
  8
0
 62
     0
100
AcDbLine
 10
-40.72145370447301
 20
-276.0554293181209
 30
0.0
 11
-40.6216650982306
 21
-275.9556407118785
 31
0.0
  0
LINE
  5
5F0A
330
5E97
100
AcDbEntity
  8
0
 62
     0
100
AcDbLine
 10
-41.81912837313959
 20
-277.1531039867874
 30
0.0
 11
-41.18713386693762
 21
-276.5211094805855
 31
0.0
  0
LINE
  5
5F0B
330
5E97
100
AcDbEntity
  8
0
 62
     0
100
AcDbLine
 10
-41.96602423196374
 20
-277.1674173241391
 30
0.0
 11
-41.86388029757452
 21
-277.0652733897499
 31
0.0
  0
LINE
  5
5F0C
330
5E97
100
AcDbEntity
  8
0
 62
     0
100
AcDbLine
 10
-35.8061910555824
 20
-271.0075841477578
 30
0.0
 11
-35.70443277119299
 21
-270.9058258633683
 31
0.0
  0
LINE
  5
5F0D
330
5E97
100
AcDbEntity
  8
0
 62
     0
100
AcDbLine
 10
-41.86388029757451
 20
-277.0652733897498
 30
0.0
 11
-41.23188579137255
 21
-276.4332788835479
 31
0.0
  0
LINE
  5
5F0E
330
5E97
100
AcDbEntity
  8
0
 62
     0
100
AcDbLine
 10
-40.76620562890794
 20
-275.9675987210833
 30
0.0
 11
-40.66641702266553
 21
-275.8678101148409
 31
0.0
  0
LINE
  5
5F0F
330
5E97
100
AcDbEntity
  8
0
 62
     0
100
AcDbLine
 10
-42.01077615639866
 20
-277.0795867271015
 30
0.0
 11
-41.90863222200944
 21
-276.9774427927123
 31
0.0
  0
LINE
  5
5F10
330
5E97
100
AcDbEntity
  8
0
 62
     0
100
AcDbLine
 10
-35.93877357705487
 20
-271.0075841477578
 30
0.0
 11
-35.70443277119299
 21
-270.7732433418959
 31
0.0
  0
LINE
  5
5F11
330
5E97
100
AcDbEntity
  8
0
 62
     0
100
AcDbLine
 10
-41.90863222200944
 20
-276.9774427927123
 30
0.0
 11
-41.27663771580747
 21
-276.3454482865104
 31
0.0
  0
LINE
  5
5F12
330
5E97
100
AcDbEntity
  8
0
 62
     0
100
AcDbLine
 10
-40.81095755334286
 20
-275.8797681240458
 30
0.0
 11
-40.71116894710044
 21
-275.7799795178034
 31
0.0
  0
LINE
  5
5F13
330
5E97
100
AcDbEntity
  8
0
 62
     0
100
AcDbLine
 10
-42.05552808083359
 20
-276.991756130064
 30
0.0
 11
-41.95338414644437
 21
-276.8896121956748
 31
0.0
  0
LINE
  5
5F14
330
5E97
100
AcDbEntity
  8
0
 62
     0
100
AcDbLine
 10
-36.07135609852736
 20
-271.0075841477578
 30
0.0
 11
-35.70443277119299
 21
-270.6406608204234
 31
0.0
  0
LINE
  5
5F15
330
5E97
100
AcDbEntity
  8
0
 62
     0
100
AcDbLine
 10
-41.95338414644437
 20
-276.8896121956748
 30
0.0
 11
-41.32138964024239
 21
-276.2576176894728
 31
0.0
  0
LINE
  5
5F16
330
5E97
100
AcDbEntity
  8
0
 62
     0
100
AcDbLine
 10
-40.85570947777777
 20
-275.7919375270082
 30
0.0
 11
-40.75592087153537
 21
-275.6921489207658
 31
0.0
  0
LINE
  5
5F17
330
5E97
100
AcDbEntity
  8
0
 62
     0
100
AcDbLine
 10
-42.10028000526851
 20
-276.9039255330264
 30
0.0
 11
-41.99813607087929
 21
-276.8017815986373
 31
0.0
  0
LINE
  5
5F18
330
5E97
100
AcDbEntity
  8
0
 62
     0
100
AcDbLine
 10
-36.20393861999985
 20
-271.0075841477578
 30
0.0
 11
-35.70443277119299
 21
-270.5080782989509
 31
0.0
  0
LINE
  5
5F19
330
5E97
100
AcDbEntity
  8
0
 62
     0
100
AcDbLine
 10
-41.99813607087929
 20
-276.8017815986372
 30
0.0
 11
-41.36614156467731
 21
-276.1697870924352
 31
0.0
  0
LINE
  5
5F1A
330
5E97
100
AcDbEntity
  8
0
 62
     0
100
AcDbLine
 10
-40.90046140221271
 20
-275.7041069299706
 30
0.0
 11
-40.80067279597029
 21
-275.6043183237283
 31
0.0
  0
LINE
  5
5F1B
330
5E97
100
AcDbEntity
  8
0
 62
     0
100
AcDbLine
 10
-42.14503192970343
 20
-276.8160949359889
 30
0.0
 11
-42.04288799531422
 21
-276.7139510015997
 31
0.0
  0
LINE
  5
5F1C
330
5E97
100
AcDbEntity
  8
0
 62
     0
100
AcDbLine
 10
-36.33652114147233
 20
-271.0075841477578
 30
0.0
 11
-35.70443277119299
 21
-270.3754957774785
 31
0.0
  0
LINE
  5
5F1D
330
5E97
100
AcDbEntity
  8
0
 62
     0
100
AcDbLine
 10
-42.04288799531422
 20
-276.7139510015996
 30
0.0
 11
-41.41089348911224
 21
-276.0819564953977
 31
0.0
  0
LINE
  5
5F1E
330
5E97
100
AcDbEntity
  8
0
 62
     0
100
AcDbLine
 10
-40.94521332664762
 20
-275.6162763329331
 30
0.0
 11
-40.84542472040522
 21
-275.5164877266907
 31
0.0
  0
LINE
  5
5F1F
330
5E97
100
AcDbEntity
  8
0
 62
     0
100
AcDbLine
 10
-42.18978385413836
 20
-276.7282643389513
 30
0.0
 11
-42.08763991974914
 21
-276.6261204045621
 31
0.0
  0
LINE
  5
5F20
330
5E97
100
AcDbEntity
  8
0
 62
     0
100
AcDbLine
 10
-36.46910366294478
 20
-271.0075841477578
 30
0.0
 11
-35.70443277119299
 21
-270.242913256006
 31
0.0
  0
LINE
  5
5F21
330
5E97
100
AcDbEntity
  8
0
 62
     0
100
AcDbLine
 10
-42.08763991974914
 20
-276.6261204045621
 30
0.0
 11
-41.45564541354717
 21
-275.9941258983601
 31
0.0
  0
LINE
  5
5F22
330
5E97
100
AcDbEntity
  8
0
 62
     0
100
AcDbLine
 10
-40.98996525108254
 20
-275.5284457358955
 30
0.0
 11
-40.89017664484013
 21
-275.4286571296531
 31
0.0
  0
LINE
  5
5F23
330
5E97
100
AcDbEntity
  8
0
 62
     0
100
AcDbLine
 10
-42.23453577857329
 20
-276.6404337419138
 30
0.0
 11
-42.13239184418406
 21
-276.5382898075245
 31
0.0
  0
LINE
  5
5F24
330
5E97
100
AcDbEntity
  8
0
 62
     0
100
AcDbLine
 10
-36.60168618441726
 20
-271.0075841477578
 30
0.0
 11
-35.7069169949642
 21
-270.1128149583047
 31
0.0
  0
LINE
  5
5F25
330
5E97
100
AcDbEntity
  8
0
 62
     0
100
AcDbLine
 10
-42.13239184418408
 20
-276.5382898075245
 30
0.0
 11
-41.50039733798208
 21
-275.9062953013226
 31
0.0
  0
LINE
  5
5F26
330
5E97
100
AcDbEntity
  8
0
 62
     0
100
AcDbLine
 10
-41.03471717551747
 20
-275.4406151388579
 30
0.0
 11
-40.93492856927506
 21
-275.3408265326156
 31
0.0
  0
LINE
  5
5F27
330
5E97
100
AcDbEntity
  8
0
 62
     0
100
AcDbLine
 10
-42.2792877030082
 20
-276.5526031448762
 30
0.0
 11
-42.17714376861898
 21
-276.450459210487
 31
0.0
  0
LINE
  5
5F28
330
5E97
100
AcDbEntity
  8
0
 62
     0
100
AcDbLine
 10
-36.73426870588975
 20
-271.0075841477578
 30
0.0
 11
-35.83949951643669
 21
-270.1128149583047
 31
0.0
  0
LINE
  5
5F29
330
5E97
100
AcDbEntity
  8
0
 62
     0
100
AcDbLine
 10
-42.17714376861898
 20
-276.450459210487
 30
0.0
 11
-41.54514926241701
 21
-275.818464704285
 31
0.0
  0
LINE
  5
5F2A
330
5E97
100
AcDbEntity
  8
0
 62
     0
100
AcDbLine
 10
-41.0794690999524
 20
-275.3527845418204
 30
0.0
 11
-40.97968049370998
 21
-275.2529959355781
 31
0.0
  0
LINE
  5
5F2B
330
5E97
100
AcDbEntity
  8
0
 62
     0
100
AcDbLine
 10
-42.32403962744313
 20
-276.4647725478386
 30
0.0
 11
-42.22189569305391
 21
-276.3626286134495
 31
0.0
  0
LINE
  5
5F2C
330
5E97
100
AcDbEntity
  8
0
 62
     0
100
AcDbLine
 10
-36.86685122736224
 20
-271.0075841477578
 30
0.0
 11
-35.97208203790917
 21
-270.1128149583047
 31
0.0
  0
LINE
  5
5F2D
330
5E97
100
AcDbEntity
  8
0
 62
     0
100
AcDbLine
 10
-42.22189569305391
 20
-276.3626286134494
 30
0.0
 11
-41.58990118685194
 21
-275.7306341072474
 31
0.0
  0
LINE
  5
5F2E
330
5E97
100
AcDbEntity
  8
0
 62
     0
100
AcDbLine
 10
-41.12422102438733
 20
-275.2649539447828
 30
0.0
 11
-41.02443241814492
 21
-275.1651653385405
 31
0.0
  0
LINE
  5
5F2F
330
5E97
100
AcDbEntity
  8
0
 62
     0
100
AcDbLine
 10
-42.36879155187804
 20
-276.3769419508011
 30
0.0
 11
-42.2684645752521
 21
-276.2766149741751
 31
0.0
  0
LINE
  5
5F30
330
5E97
100
AcDbEntity
  8
0
 62
     0
100
AcDbLine
 10
-36.99943374883472
 20
-271.0075841477578
 30
0.0
 11
-36.10466455938166
 21
-270.1128149583047
 31
0.0
  0
LINE
  5
5F31
330
5E97
100
AcDbEntity
  8
0
 62
     0
100
AcDbLine
 10
-42.26664761748884
 20
-276.2747980164119
 30
0.0
 11
-42.19792528481469
 21
-276.2060756837377
 31
0.0
  0
LINE
  5
5F32
330
5E97
100
AcDbEntity
  8
0
 62
     0
100
AcDbLine
 10
-41.16897294882225
 20
-275.1771233477454
 30
0.0
 11
-41.06918434257984
 21
-275.0773347415029
 31
0.0
  0
LINE
  5
5F33
330
5E97
100
AcDbEntity
  8
0
 62
     0
100
AcDbLine
 10
-42.1979252848146
 20
-276.2060756837377
 30
0.0
 11
-42.10043854447298
 21
-276.108588943396
 31
0.0
  0
LINE
  5
5F34
330
5E97
100
AcDbEntity
  8
0
 62
     0
100
AcDbLine
 10
-41.99598251496389
 20
-276.004132913887
 30
0.0
 11
-41.63465311128686
 21
-275.6428035102099
 31
0.0
  0
LINE
  5
5F35
330
5E97
100
AcDbEntity
  8
0
 62
     0
100
AcDbLine
 10
-42.10043854447292
 20
-276.1085889433959
 30
0.0
 11
-42.09566753742882
 21
-276.1038179363519
 31
0.0
  0
LINE
  5
5F36
330
5E97
100
AcDbEntity
  8
0
 62
     0
100
AcDbLine
 10
-42.09566753742871
 20
-276.1038179363518
 30
0.0
 11
-41.99598251496389
 21
-276.004132913887
 31
0.0
  0
LINE
  5
5F37
330
5E97
100
AcDbEntity
  8
0
 62
     0
100
AcDbLine
 10
-42.41354347631298
 20
-276.2891113537635
 30
0.0
 11
-42.31321649968703
 21
-276.1887843771376
 31
0.0
  0
LINE
  5
5F38
330
5E97
100
AcDbEntity
  8
0
 62
     0
100
AcDbLine
 10
-37.13201627030717
 20
-271.0075841477578
 30
0.0
 11
-36.23724708085414
 21
-270.1128149583047
 31
0.0
  0
LINE
  5
5F39
330
5E97
100
AcDbEntity
  8
0
 62
     0
100
AcDbLine
 10
-42.31139954192374
 20
-276.1869674193743
 30
0.0
 11
-42.1892754338011
 21
-276.0648433112517
 31
0.0
  0
LINE
  5
5F3A
330
5E97
100
AcDbEntity
  8
0
 62
     0
100
AcDbLine
 10
-41.21372487325716
 20
-275.0892927507078
 30
0.0
 11
-41.11393626701477
 21
-274.9895041444653
 31
0.0
  0
LINE
  5
5F3B
330
5E97
100
AcDbEntity
  8
0
 62
     0
100
AcDbLine
 10
-42.18927543380108
 20
-276.0648433112517
 30
0.0
 11
-42.14458912338753
 21
-276.0201570008381
 31
0.0
  0
LINE
  5
5F3C
330
5E97
100
AcDbEntity
  8
0
 62
     0
100
AcDbLine
 10
-41.96714156490001
 20
-275.8427094423506
 30
0.0
 11
-41.67940503572178
 21
-275.5549729131724
 31
0.0
  0
LINE
  5
5F3D
330
5E97
100
AcDbEntity
  8
0
 62
     0
100
AcDbLine
 10
-42.11450619999326
 20
-275.9900740774438
 30
0.0
 11
-41.96714156489998
 21
-275.8427094423506
 31
0.0
  0
LINE
  5
5F3E
330
5E97
100
AcDbEntity
  8
0
 62
     0
100
AcDbLine
 10
-42.4582954007479
 20
-276.201280756726
 30
0.0
 11
-42.35796842412195
 21
-276.1009537801001
 31
0.0
  0
LINE
  5
5F3F
330
5E97
100
AcDbEntity
  8
0
 62
     0
100
AcDbLine
 10
-37.26459879177965
 20
-271.0075841477578
 30
0.0
 11
-36.36982960232659
 21
-270.1128149583047
 31
0.0
  0
LINE
  5
5F40
330
5E97
100
AcDbEntity
  8
0
 62
     0
100
AcDbLine
 10
-42.35615146635868
 20
-276.0991368223368
 30
0.0
 11
-42.27628628029851
 21
-276.0192716362766
 31
0.0
  0
LINE
  5
5F41
330
5E97
100
AcDbEntity
  8
0
 62
     0
100
AcDbLine
 10
-41.2584767976921
 20
-275.0014621536702
 30
0.0
 11
-41.15868819144969
 21
-274.9016735474278
 31
0.0
  0
LINE
  5
5F42
330
5E97
100
AcDbEntity
  8
0
 62
     0
100
AcDbLine
 10
-42.27628628029848
 20
-276.0192716362765
 30
0.0
 11
-41.83861559237119
 21
-275.5816009483493
 31
0.0
  0
LINE
  5
5F43
330
5E97
100
AcDbEntity
  8
0
 62
     0
100
AcDbLine
 10
-41.83861559237118
 20
-275.5816009483492
 30
0.0
 11
-41.72415696015671
 21
-275.4671423161348
 31
0.0
  0
LINE
  5
5F44
330
5E97
100
AcDbEntity
  8
0
 62
     0
100
AcDbLine
 10
-42.50304732518282
 20
-276.1134501596885
 30
0.0
 11
-42.40272034855689
 21
-276.0131231830625
 31
0.0
  0
LINE
  5
5F45
330
5E97
100
AcDbEntity
  8
0
 62
     0
100
AcDbLine
 10
-37.39718131325214
 20
-271.0075841477578
 30
0.0
 11
-36.50241212379908
 21
-270.1128149583047
 31
0.0
  0
LINE
  5
5F46
330
5E97
100
AcDbEntity
  8
0
 62
     0
100
AcDbLine
 10
-42.4009033907936
 20
-276.0113062252992
 30
0.0
 11
-42.19714334742477
 21
-275.8075461819304
 31
0.0
  0
LINE
  5
5F47
330
5E97
100
AcDbEntity
  8
0
 62
     0
100
AcDbLine
 10
-41.30322872212701
 20
-274.9136315566326
 30
0.0
 11
-41.20344011588461
 21
-274.8138429503903
 31
0.0
  0
LINE
  5
5F48
330
5E97
100
AcDbEntity
  8
0
 62
     0
100
AcDbLine
 10
-42.19714334742469
 20
-275.8075461819303
 30
0.0
 11
-42.14776030776967
 21
-275.7581631422754
 31
0.0
  0
LINE
  5
5F49
330
5E97
100
AcDbEntity
  8
0
 62
     0
100
AcDbLine
 10
-42.14776030776969
 20
-275.7581631422754
 30
0.0
 11
-41.71008961984234
 21
-275.320492454348
 31
0.0
  0
LINE
  5
5F4A
330
5E97
100
AcDbEntity
  8
0
 62
     0
100
AcDbLine
 10
-42.54779924961775
 20
-276.0256195626509
 30
0.0
 11
-42.44747227299181
 21
-275.925292586025
 31
0.0
  0
LINE
  5
5F4B
330
5E97
100
AcDbEntity
  8
0
 62
     0
100
AcDbLine
 10
-37.52976383472462
 20
-271.0075841477578
 30
0.0
 11
-36.63499464527156
 21
-270.1128149583047
 31
0.0
  0
LINE
  5
5F4C
330
5E97
100
AcDbEntity
  8
0
 62
     0
100
AcDbLine
 10
-42.44565531522854
 20
-275.9234756282617
 30
0.0
 11
-42.01923433524084
 21
-275.497054648274
 31
0.0
  0
LINE
  5
5F4D
330
5E97
100
AcDbEntity
  8
0
 62
     0
100
AcDbLine
 10
-41.34798064656194
 20
-274.8258009595951
 30
0.0
 11
-41.24819204031953
 21
-274.7260123533527
 31
0.0
  0
LINE
  5
5F4E
330
5E97
100
AcDbEntity
  8
0
 62
     0
100
AcDbLine
 10
-42.01923433524087
 20
-275.497054648274
 30
0.0
 11
-41.58156364731355
 21
-275.0593839603467
 31
0.0
  0
LINE
  5
5F4F
330
5E97
100
AcDbEntity
  8
0
 62
     0
100
AcDbLine
 10
-42.59255117405266
 20
-275.9377889656133
 30
0.0
 11
-42.49040723966347
 21
-275.8356450312241
 31
0.0
  0
LINE
  5
5F50
330
5E97
100
AcDbEntity
  8
0
 62
     0
100
AcDbLine
 10
-37.6623463561971
 20
-271.0075841477578
 30
0.0
 11
-36.76757716674404
 21
-270.1128149583047
 31
0.0
  0
LINE
  5
5F51
330
5E97
100
AcDbEntity
  8
0
 62
     0
100
AcDbLine
 10
-42.49040723966347
 20
-275.8356450312241
 30
0.0
 11
-41.89070836271205
 21
-275.2359461542728
 31
0.0
  0
LINE
  5
5F52
330
5E97
100
AcDbEntity
  8
0
 62
     0
100
AcDbLine
 10
-41.39273257099687
 20
-274.7379703625575
 30
0.0
 11
-41.29294396475446
 21
-274.6381817563151
 31
0.0
  0
LINE
  5
5F53
330
5E97
100
AcDbEntity
  8
0
 62
     0
100
AcDbLine
 10
-41.89070836271203
 20
-275.2359461542727
 30
0.0
 11
-41.45303767478471
 21
-274.7982754663454
 31
0.0
  0
LINE
  5
5F54
330
5E97
100
AcDbEntity
  8
0
 62
     0
100
AcDbLine
 10
-42.63730309848759
 20
-275.8499583685758
 30
0.0
 11
-42.53515916409838
 21
-275.7478144341866
 31
0.0
  0
LINE
  5
5F55
330
5E97
100
AcDbEntity
  8
0
 62
     0
100
AcDbLine
 10
-37.79492887766956
 20
-271.0075841477578
 30
0.0
 11
-36.90015968821653
 21
-270.1128149583047
 31
0.0
  0
LINE
  5
5F56
330
5E97
100
AcDbEntity
  8
0
 62
     0
100
AcDbLine
 10
-42.53515916409839
 20
-275.7478144341866
 30
0.0
 11
-41.90316465789641
 21
-275.1158199279846
 31
0.0
  0
LINE
  5
5F57
330
5E97
100
AcDbEntity
  8
0
 62
     0
100
AcDbLine
 10
-41.76218239018321
 20
-274.9748376602715
 30
0.0
 11
-41.32451170225591
 21
-274.5371669723441
 31
0.0
  0
LINE
  5
5F58
330
5E97
100
AcDbEntity
  8
0
 62
     0
100
AcDbLine
 10
-42.68205502292253
 20
-275.7621277715383
 30
0.0
 11
-42.57991108853331
 21
-275.6599838371491
 31
0.0
  0
LINE
  5
5F59
330
5E97
100
AcDbEntity
  8
0
 62
     0
100
AcDbLine
 10
-37.92751139914204
 20
-271.0075841477578
 30
0.0
 11
-37.03274220968898
 21
-270.1128149583047
 31
0.0
  0
LINE
  5
5F5A
330
5E97
100
AcDbEntity
  8
0
 62
     0
100
AcDbLine
 10
-42.57991108853332
 20
-275.659983837149
 30
0.0
 11
-41.94791658233133
 21
-275.027989330947
 31
0.0
  0
LINE
  5
5F5B
330
5E97
100
AcDbEntity
  8
0
 62
     0
100
AcDbLine
 10
-41.63365641765442
 20
-274.7137291662701
 30
0.0
 11
-41.19598572972707
 21
-274.2760584783428
 31
0.0
  0
LINE
  5
5F5C
330
5E97
100
AcDbEntity
  8
0
 62
     0
100
AcDbLine
 10
-42.72680694735743
 20
-275.6742971745007
 30
0.0
 11
-42.62466301296824
 21
-275.5721532401115
 31
0.0
  0
LINE
  5
5F5D
330
5E97
100
AcDbEntity
  8
0
 62
     0
100
AcDbLine
 10
-38.06009392061452
 20
-271.0075841477578
 30
0.0
 11
-37.16532473116146
 21
-270.1128149583047
 31
0.0
  0
LINE
  5
5F5E
330
5E97
100
AcDbEntity
  8
0
 62
     0
100
AcDbLine
 10
-42.62466301296824
 20
-275.5721532401115
 30
0.0
 11
-41.99266850676624
 21
-274.9401587339095
 31
0.0
  0
LINE
  5
5F5F
330
5E97
100
AcDbEntity
  8
0
 62
     0
100
AcDbLine
 10
-41.24320808781802
 20
-274.1906983149613
 30
0.0
 11
-41.16028905131896
 21
-274.1077792784622
 31
0.0
  0
LINE
  5
5F60
330
5E97
100
AcDbEntity
  8
0
 62
     0
100
AcDbLine
 10
-41.52698834430164
 20
-274.4744785714449
 30
0.0
 11
-41.50513044512558
 21
-274.4526206722688
 31
0.0
  0
LINE
  5
5F61
330
5E97
100
AcDbEntity
  8
0
 62
     0
100
AcDbLine
 10
-41.2918472873847
 20
-274.2393375145279
 30
0.0
 11
-41.26594175883485
 21
-274.2134319859781
 31
0.0
  0
LINE
  5
5F62
330
5E97
100
AcDbEntity
  8
0
 62
     0
100
AcDbLine
 10
-41.50513044512556
 20
-274.4526206722688
 30
0.0
 11
-41.29184728738475
 21
-274.239337514528
 31
0.0
  0
LINE
  5
5F63
330
5E97
100
AcDbEntity
  8
0
 62
     0
100
AcDbLine
 10
-42.77155887179236
 20
-275.5864665774631
 30
0.0
 11
-42.66941493740316
 21
-275.484322643074
 31
0.0
  0
LINE
  5
5F64
330
5E97
100
AcDbEntity
  8
0
 62
     0
100
AcDbLine
 10
-38.192676442087
 20
-271.0075841477578
 30
0.0
 11
-37.29790725263395
 21
-270.1128149583047
 31
0.0
  0
LINE
  5
5F65
330
5E97
100
AcDbEntity
  8
0
 62
     0
100
AcDbLine
 10
-42.66941493740316
 20
-275.484322643074
 30
0.0
 11
-42.03742043120118
 21
-274.8523281368719
 31
0.0
  0
LINE
  5
5F66
330
5E97
100
AcDbEntity
  8
0
 62
     0
100
AcDbLine
 10
-41.39132135807054
 20
-274.2062290637413
 30
0.0
 11
-41.15044255176923
 21
-273.96535025744
 31
0.0
  0
LINE
  5
5F67
330
5E97
100
AcDbEntity
  8
0
 62
     0
100
AcDbLine
 10
-41.57174026873658
 20
-274.3866479744074
 30
0.0
 11
-41.47195166249413
 21
-274.2868593681649
 31
0.0
  0
LINE
  5
5F68
330
5E97
100
AcDbEntity
  8
0
 62
     0
100
AcDbLine
 10
-42.81631079622728
 20
-275.4986359804255
 30
0.0
 11
-42.71416686183809
 21
-275.3964920460364
 31
0.0
  0
LINE
  5
5F69
330
5E97
100
AcDbEntity
  8
0
 62
     0
100
AcDbLine
 10
-38.32525896355949
 20
-271.0075841477578
 30
0.0
 11
-37.43048977410643
 21
-270.1128149583047
 31
0.0
  0
LINE
  5
5F6A
330
5E97
100
AcDbEntity
  8
0
 62
     0
100
AcDbLine
 10
-42.71416686183809
 20
-275.3964920460364
 30
0.0
 11
-42.0821723556361
 21
-274.7644975398344
 31
0.0
  0
LINE
  5
5F6B
330
5E97
100
AcDbEntity
  8
0
 62
     0
100
AcDbLine
 10
-41.3814748585208
 20
-274.0638000427191
 30
0.0
 11
-41.1405960522195
 21
-273.8229212364178
 31
0.0
  0
LINE
  5
5F6C
330
5E97
100
AcDbEntity
  8
0
 62
     0
100
AcDbLine
 10
-41.6164921931715
 20
-274.2988173773698
 30
0.0
 11
-41.51670358692905
 21
-274.1990287711273
 31
0.0
  0
LINE
  5
5F6D
330
5E97
100
AcDbEntity
  8
0
 62
     0
100
AcDbLine
 10
-42.86106272066221
 20
-275.410805383388
 30
0.0
 11
-42.75891878627302
 21
-275.3086614489988
 31
0.0
  0
LINE
  5
5F6E
330
5E97
100
AcDbEntity
  8
0
 62
     0
100
AcDbLine
 10
-38.45784148503194
 20
-271.0075841477578
 30
0.0
 11
-37.56307229557891
 21
-270.1128149583047
 31
0.0
  0
LINE
  5
5F6F
330
5E97
100
AcDbEntity
  8
0
 62
     0
100
AcDbLine
 10
-42.75891878627301
 20
-275.3086614489988
 30
0.0
 11
-42.12692428007102
 21
-274.6766669427968
 31
0.0
  0
LINE
  5
5F70
330
5E97
100
AcDbEntity
  8
0
 62
     0
100
AcDbLine
 10
-41.37162835897107
 20
-273.9213710216969
 30
0.0
 11
-41.13074955266977
 21
-273.6804922153956
 31
0.0
  0
LINE
  5
5F71
330
5E97
100
AcDbEntity
  8
0
 62
     0
100
AcDbLine
 10
-41.66124411760642
 20
-274.2109867803322
 30
0.0
 11
-41.56145551136398
 21
-274.1111981740898
 31
0.0
  0
LINE
  5
5F72
330
5E97
100
AcDbEntity
  8
0
 62
     0
100
AcDbLine
 10
-42.90581464509713
 20
-275.3229747863504
 30
0.0
 11
-42.80367071070794
 21
-275.2208308519613
 31
0.0
  0
LINE
  5
5F73
330
5E97
100
AcDbEntity
  8
0
 62
     0
100
AcDbLine
 10
-38.59042400650442
 20
-271.0075841477578
 30
0.0
 11
-37.69565481705136
 21
-270.1128149583047
 31
0.0
  0
LINE
  5
5F74
330
5E97
100
AcDbEntity
  8
0
 62
     0
100
AcDbLine
 10
-42.80367071070794
 20
-275.2208308519613
 30
0.0
 11
-42.17167620450595
 21
-274.5888363457593
 31
0.0
  0
LINE
  5
5F75
330
5E97
100
AcDbEntity
  8
0
 62
     0
100
AcDbLine
 10
-41.36178185942134
 20
-273.7789420006746
 30
0.0
 11
-41.12090305312004
 21
-273.5380631943733
 31
0.0
  0
LINE
  5
5F76
330
5E97
100
AcDbEntity
  8
0
 62
     0
100
AcDbLine
 10
-41.70599604204134
 20
-274.1231561832947
 30
0.0
 11
-41.60620743579889
 21
-274.0233675770522
 31
0.0
  0
LINE
  5
5F77
330
5E97
100
AcDbEntity
  8
0
 62
     0
100
AcDbLine
 10
-42.95056656953206
 20
-275.2351441893129
 30
0.0
 11
-42.84842263514287
 21
-275.1330002549237
 31
0.0
  0
LINE
  5
5F78
330
5E97
100
AcDbEntity
  8
0
 62
     0
100
AcDbLine
 10
-38.72300652797691
 20
-271.0075841477578
 30
0.0
 11
-37.82823733852385
 21
-270.1128149583047
 31
0.0
  0
LINE
  5
5F79
330
5E97
100
AcDbEntity
  8
0
 62
     0
100
AcDbLine
 10
-42.84842263514287
 20
-275.1330002549237
 30
0.0
 11
-42.21642812894087
 21
-274.5010057487217
 31
0.0
  0
LINE
  5
5F7A
330
5E97
100
AcDbEntity
  8
0
 62
     0
100
AcDbLine
 10
-41.35193535987162
 20
-273.6365129796524
 30
0.0
 11
-41.11105655357031
 21
-273.3956341733511
 31
0.0
  0
LINE
  5
5F7B
330
5E97
100
AcDbEntity
  8
0
 62
     0
100
AcDbLine
 10
-41.75074796647627
 20
-274.0353255862571
 30
0.0
 11
-41.65095936023383
 21
-273.9355369800147
 31
0.0
  0
LINE
  5
5F7C
330
5E97
100
AcDbEntity
  8
0
 62
     0
100
AcDbLine
 10
-42.99531849396698
 20
-275.1473135922753
 30
0.0
 11
-42.89317455957778
 21
-275.0451696578862
 31
0.0
  0
LINE
  5
5F7D
330
5E97
100
AcDbEntity
  8
0
 62
     0
100
AcDbLine
 10
-38.85558904944939
 20
-271.0075841477578
 30
0.0
 11
-37.96081985999633
 21
-270.1128149583047
 31
0.0
  0
LINE
  5
5F7E
330
5E97
100
AcDbEntity
  8
0
 62
     0
100
AcDbLine
 10
-42.89317455957778
 20
-275.0451696578862
 30
0.0
 11
-42.2611800533758
 21
-274.4131751516842
 31
0.0
  0
LINE
  5
5F7F
330
5E97
100
AcDbEntity
  8
0
 62
     0
100
AcDbLine
 10
-41.34208886032189
 20
-273.4940839586302
 30
0.0
 11
-41.10121005402058
 21
-273.2532051523289
 31
0.0
  0
LINE
  5
5F80
330
5E97
100
AcDbEntity
  8
0
 62
     0
100
AcDbLine
 10
-41.79549989091119
 20
-273.9474949892195
 30
0.0
 11
-41.69571128466874
 21
-273.8477063829771
 31
0.0
  0
LINE
  5
5F81
330
5E97
100
AcDbEntity
  8
0
 62
     0
100
AcDbLine
 10
-43.0400704184019
 20
-275.0594829952378
 30
0.0
 11
-42.93792648401271
 21
-274.9573390608487
 31
0.0
  0
LINE
  5
5F82
330
5E97
100
AcDbEntity
  8
0
 62
     0
100
AcDbLine
 10
-38.98817157092188
 20
-271.0075841477578
 30
0.0
 11
-38.09340238146882
 21
-270.1128149583047
 31
0.0
  0
LINE
  5
5F83
330
5E97
100
AcDbEntity
  8
0
 62
     0
100
AcDbLine
 10
-42.93792648401271
 20
-274.9573390608486
 30
0.0
 11
-42.30593197781072
 21
-274.3253445546466
 31
0.0
  0
LINE
  5
5F84
330
5E97
100
AcDbEntity
  8
0
 62
     0
100
AcDbLine
 10
-41.33224236077215
 20
-273.351654937608
 30
0.0
 11
-41.09136355447085
 21
-273.1107761313067
 31
0.0
  0
LINE
  5
5F85
330
5E97
100
AcDbEntity
  8
0
 62
     0
100
AcDbLine
 10
-41.84025181534611
 20
-273.859664392182
 30
0.0
 11
-41.74046320910367
 21
-273.7598757859395
 31
0.0
  0
LINE
  5
5F86
330
5E97
100
AcDbEntity
  8
0
 62
     0
100
AcDbLine
 10
-43.08482234283682
 20
-274.9716523982002
 30
0.0
 11
-42.98267840844763
 21
-274.8695084638111
 31
0.0
  0
LINE
  5
5F87
330
5E97
100
AcDbEntity
  8
0
 62
     0
100
AcDbLine
 10
-39.12075409239436
 20
-271.0075841477578
 30
0.0
 11
-38.2259849029413
 21
-270.1128149583047
 31
0.0
  0
LINE
  5
5F88
330
5E97
100
AcDbEntity
  8
0
 62
     0
100
AcDbLine
 10
-42.98267840844764
 20
-274.8695084638111
 30
0.0
 11
-42.35068390224564
 21
-274.2375139576091
 31
0.0
  0
LINE
  5
5F89
330
5E97
100
AcDbEntity
  8
0
 62
     0
100
AcDbLine
 10
-41.08151705492112
 20
-272.9683471102845
 30
0.0
 11
-40.96181643366968
 21
-272.848646489033
 31
0.0
  0
LINE
  5
5F8A
330
5E97
100
AcDbEntity
  8
0
 62
     0
100
AcDbLine
 10
-41.88500373978103
 20
-273.7718337951445
 30
0.0
 11
-41.78521513353859
 21
-273.672045188902
 31
0.0
  0
LINE
  5
5F8B
330
5E97
100
AcDbEntity
  8
0
 62
     0
100
AcDbLine
 10
-41.32239586122242
 20
-273.2092259165858
 30
0.0
 11
-41.08151705492112
 21
-272.9683471102845
 31
0.0
  0
LINE
  5
5F8C
330
5E97
100
AcDbEntity
  8
0
 62
     0
100
AcDbLine
 10
-43.12957426727176
 20
-274.8838218011627
 30
0.0
 11
-43.02743033288257
 21
-274.7816778667736
 31
0.0
  0
LINE
  5
5F8D
330
5E97
100
AcDbEntity
  8
0
 62
     0
100
AcDbLine
 10
-39.25333661386681
 20
-271.0075841477578
 30
0.0
 11
-38.35856742441375
 21
-270.1128149583047
 31
0.0
  0
LINE
  5
5F8E
330
5E97
100
AcDbEntity
  8
0
 62
     0
100
AcDbLine
 10
-43.02743033288256
 20
-274.7816778667735
 30
0.0
 11
-42.39543582668058
 21
-274.1496833605715
 31
0.0
  0
LINE
  5
5F8F
330
5E97
100
AcDbEntity
  8
0
 62
     0
100
AcDbLine
 10
-41.07167055537138
 20
-272.8259180892623
 30
0.0
 11
-40.79761027123158
 21
-272.5518578051226
 31
0.0
  0
LINE
  5
5F90
330
5E97
100
AcDbEntity
  8
0
 62
     0
100
AcDbLine
 10
-41.92975566421597
 20
-273.6840031981069
 30
0.0
 11
-41.82996705797352
 21
-273.5842145918645
 31
0.0
  0
LINE
  5
5F91
330
5E97
100
AcDbEntity
  8
0
 62
     0
100
AcDbLine
 10
-41.3125493616727
 20
-273.0667968955636
 30
0.0
 11
-41.07167055537138
 21
-272.8259180892623
 31
0.0
  0
LINE
  5
5F92
330
5E97
100
AcDbEntity
  8
0
 62
     0
100
AcDbLine
 10
-43.17432619170667
 20
-274.7959912041251
 30
0.0
 11
-43.07218225731747
 21
-274.693847269736
 31
0.0
  0
LINE
  5
5F93
330
5E97
100
AcDbEntity
  8
0
 62
     0
100
AcDbLine
 10
-39.3859191353393
 20
-271.0075841477578
 30
0.0
 11
-38.49114994588624
 21
-270.1128149583047
 31
0.0
  0
LINE
  5
5F94
330
5E97
100
AcDbEntity
  8
0
 62
     0
100
AcDbLine
 10
-43.07218225731748
 20
-274.693847269736
 30
0.0
 11
-42.44018775111549
 21
-274.0618527635339
 31
0.0
  0
LINE
  5
5F95
330
5E97
100
AcDbEntity
  8
0
 62
     0
100
AcDbLine
 10
-41.06182405582166
 20
-272.6834890682401
 30
0.0
 11
-40.63340410879347
 21
-272.2550691212119
 31
0.0
  0
LINE
  5
5F96
330
5E97
100
AcDbEntity
  8
0
 62
     0
100
AcDbLine
 10
-41.97450758865088
 20
-273.5961726010693
 30
0.0
 11
-41.87471898240843
 21
-273.4963839948269
 31
0.0
  0
LINE
  5
5F97
330
5E97
100
AcDbEntity
  8
0
 62
     0
100
AcDbLine
 10
-41.30270286212296
 20
-272.9243678745414
 30
0.0
 11
-41.06182405582166
 21
-272.6834890682401
 31
0.0
  0
LINE
  5
5F98
330
5E97
100
AcDbEntity
  8
0
 62
     0
100
AcDbLine
 10
-43.2190781161416
 20
-274.7081606070876
 30
0.0
 11
-43.11693418175241
 21
-274.6060166726984
 31
0.0
  0
LINE
  5
5F99
330
5E97
100
AcDbEntity
  8
0
 62
     0
100
AcDbLine
 10
-39.51850165681178
 20
-271.0075841477578
 30
0.0
 11
-38.62373246735872
 21
-270.1128149583047
 31
0.0
  0
LINE
  5
5F9A
330
5E97
100
AcDbEntity
  8
0
 62
     0
100
AcDbLine
 10
-43.11693418175241
 20
-274.6060166726984
 30
0.0
 11
-42.48493967555043
 21
-273.9740221664964
 31
0.0
  0
LINE
  5
5F9B
330
5E97
100
AcDbEntity
  8
0
 62
     0
100
AcDbLine
 10
-41.04147028864789
 20
-272.5305527795939
 30
0.0
 11
-40.46919794635537
 21
-271.9582804373014
 31
0.0
  0
LINE
  5
5F9C
330
5E97
100
AcDbEntity
  8
0
 62
     0
100
AcDbLine
 10
-42.0192595130858
 20
-273.5083420040318
 30
0.0
 11
-41.91947090684336
 21
-273.4085533977893
 31
0.0
  0
LINE
  5
5F9D
330
5E97
100
AcDbEntity
  8
0
 62
     0
100
AcDbLine
 10
-41.29285636257323
 20
-272.7819388535192
 30
0.0
 11
-41.05197755627193
 21
-272.5410600472179
 31
0.0
  0
LINE
  5
5F9E
330
5E97
100
AcDbEntity
  8
0
 62
     0
100
AcDbLine
 10
-43.26383004057651
 20
-274.62033001005
 30
0.0
 11
-43.16168610618734
 21
-274.5181860756609
 31
0.0
  0
LINE
  5
5F9F
330
5E97
100
AcDbEntity
  8
0
 62
     0
100
AcDbLine
 10
-39.65108417828427
 20
-271.0075841477578
 30
0.0
 11
-38.7563149888312
 21
-270.1128149583047
 31
0.0
  0
LINE
  5
5FA0
330
5E97
100
AcDbEntity
  8
0
 62
     0
100
AcDbLine
 10
-43.16168610618732
 20
-274.5181860756608
 30
0.0
 11
-42.52969159998534
 21
-273.8861915694589
 31
0.0
  0
LINE
  5
5FA1
330
5E97
100
AcDbEntity
  8
0
 62
     0
100
AcDbLine
 10
-40.87726412620977
 20
-272.2337640956832
 30
0.0
 11
-40.30499178391731
 21
-271.6614917533908
 31
0.0
  0
LINE
  5
5FA2
330
5E97
100
AcDbEntity
  8
0
 62
     0
100
AcDbLine
 10
-42.06401143752072
 20
-273.4205114069942
 30
0.0
 11
-41.96422283127828
 21
-273.3207228007517
 31
0.0
  0
LINE
  5
5FA3
330
5E97
100
AcDbEntity
  8
0
 62
     0
100
AcDbLine
 10
-41.2830098630235
 20
-272.639509832497
 30
0.0
 11
-41.04213105672219
 21
-272.3986310261957
 31
0.0
  0
LINE
  5
5FA4
330
5E97
100
AcDbEntity
  8
0
 62
     0
100
AcDbLine
 10
-43.30858196501145
 20
-274.5324994130124
 30
0.0
 11
-43.20643803062226
 21
-274.4303554786233
 31
0.0
  0
LINE
  5
5FA5
330
5E97
100
AcDbEntity
  8
0
 62
     0
100
AcDbLine
 10
-39.78366669975674
 20
-271.0075841477578
 30
0.0
 11
-38.88889751030369
 21
-270.1128149583047
 31
0.0
  0
LINE
  5
5FA6
330
5E97
100
AcDbEntity
  8
0
 62
     0
100
AcDbLine
 10
-43.20643803062226
 20
-274.4303554786232
 30
0.0
 11
-42.57444352442026
 21
-273.7983609724213
 31
0.0
  0
LINE
  5
5FA7
330
5E97
100
AcDbEntity
  8
0
 62
     0
100
AcDbLine
 10
-40.71305796377171
 20
-271.9369754117727
 30
0.0
 11
-40.14078562147921
 21
-271.3647030694802
 31
0.0
  0
LINE
  5
5FA8
330
5E97
100
AcDbEntity
  8
0
 62
     0
100
AcDbLine
 10
-42.10876336195565
 20
-273.3326808099567
 30
0.0
 11
-42.00897475571321
 21
-273.2328922037142
 31
0.0
  0
LINE
  5
5FA9
330
5E97
100
AcDbEntity
  8
0
 62
     0
100
AcDbLine
 10
-41.27316336347377
 20
-272.4970808114748
 30
0.0
 11
-41.03228455717245
 21
-272.2562020051735
 31
0.0
  0
LINE
  5
5FAA
330
5E97
100
AcDbEntity
  8
0
 62
     0
100
AcDbLine
 10
-43.35333388944637
 20
-274.4446688159749
 30
0.0
 11
-43.25118995505717
 21
-274.3425248815857
 31
0.0
  0
LINE
  5
5FAB
330
5E97
100
AcDbEntity
  8
0
 62
     0
100
AcDbLine
 10
-39.9162492212292
 20
-271.0075841477578
 30
0.0
 11
-39.02148003177617
 21
-270.1128149583047
 31
0.0
  0
LINE
  5
5FAC
330
5E97
100
AcDbEntity
  8
0
 62
     0
100
AcDbLine
 10
-43.25118995505718
 20
-274.3425248815857
 30
0.0
 11
-42.61919544885519
 21
-273.7105303753837
 31
0.0
  0
LINE
  5
5FAD
330
5E97
100
AcDbEntity
  8
0
 62
     0
100
AcDbLine
 10
-40.5488518013336
 20
-271.6401867278622
 30
0.0
 11
-39.97657945904111
 21
-271.0679143855696
 31
0.0
  0
LINE
  5
5FAE
330
5E97
100
AcDbEntity
  8
0
 62
     0
100
AcDbLine
 10
-42.15351528639057
 20
-273.2448502129191
 30
0.0
 11
-42.05372668014815
 21
-273.1450616066767
 31
0.0
  0
LINE
  5
5FAF
330
5E97
100
AcDbEntity
  8
0
 62
     0
100
AcDbLine
 10
-41.26331686392403
 20
-272.3546517904526
 30
0.0
 11
-41.02243805762273
 21
-272.1137729841512
 31
0.0
  0
LINE
  5
5FB0
330
5E97
100
AcDbEntity
  8
0
 62
     0
100
AcDbLine
 10
-43.39808581388129
 20
-274.3568382189374
 30
0.0
 11
-43.29594187949211
 21
-274.2546942845482
 31
0.0
  0
LINE
  5
5FB1
330
5E97
100
AcDbEntity
  8
0
 62
     0
100
AcDbLine
 10
-40.04883174270166
 20
-271.0075841477577
 30
0.0
 11
-39.15406255324862
 21
-270.1128149583047
 31
0.0
  0
LINE
  5
5FB2
330
5E97
100
AcDbEntity
  8
0
 62
     0
100
AcDbLine
 10
-43.29594187949211
 20
-274.2546942845482
 30
0.0
 11
-42.66394737329011
 21
-273.6226997783461
 31
0.0
  0
LINE
  5
5FB3
330
5E97
100
AcDbEntity
  8
0
 62
     0
100
AcDbLine
 10
-40.38464563889553
 20
-271.3433980439516
 30
0.0
 11
-40.04883174270168
 21
-271.0075841477578
 31
0.0
  0
LINE
  5
5FB4
330
5E97
100
AcDbEntity
  8
0
 62
     0
100
AcDbLine
 10
-42.19826721082549
 20
-273.1570196158815
 30
0.0
 11
-42.09847860458307
 21
-273.0572310096391
 31
0.0
  0
LINE
  5
5FB5
330
5E97
100
AcDbEntity
  8
0
 62
     0
100
AcDbLine
 10
-41.25347036437431
 20
-272.2122227694304
 30
0.0
 11
-41.01259155807299
 21
-271.971343963129
 31
0.0
  0
LINE
  5
5FB6
330
5E97
100
AcDbEntity
  8
0
 62
     0
100
AcDbLine
 10
-43.44283773831622
 20
-274.2690076218998
 30
0.0
 11
-43.34069380392703
 21
-274.1668636875106
 31
0.0
  0
LINE
  5
5FB7
330
5E97
100
AcDbEntity
  8
0
 62
     0
100
AcDbLine
 10
-40.18141426417416
 20
-271.0075841477577
 30
0.0
 11
-39.28664507472111
 21
-270.1128149583047
 31
0.0
  0
LINE
  5
5FB8
330
5E97
100
AcDbEntity
  8
0
 62
     0
100
AcDbLine
 10
-43.34069380392703
 20
-274.1668636875106
 30
0.0
 11
-42.70869929772504
 21
-273.5348691813086
 31
0.0
  0
LINE
  5
5FB9
330
5E97
100
AcDbEntity
  8
0
 62
     0
100
AcDbLine
 10
-40.22043947645742
 20
-271.046609360041
 30
0.0
 11
-40.18141426417416
 21
-271.0075841477578
 31
0.0
  0
LINE
  5
5FBA
330
5E97
100
AcDbEntity
  8
0
 62
     0
100
AcDbLine
 10
-42.24301913526041
 20
-273.069189018844
 30
0.0
 11
-42.14323052901799
 21
-272.9694004126015
 31
0.0
  0
LINE
  5
5FBB
330
5E97
100
AcDbEntity
  8
0
 62
     0
100
AcDbLine
 10
-41.24362386482458
 20
-272.0697937484081
 30
0.0
 11
-41.00274505852326
 21
-271.8289149421068
 31
0.0
  0
LINE
  5
5FBC
330
5E97
100
AcDbEntity
  8
0
 62
     0
100
AcDbLine
 10
-43.48758966275113
 20
-274.1811770248623
 30
0.0
 11
-43.38544572836195
 21
-274.0790330904731
 31
0.0
  0
LINE
  5
5FBD
330
5E97
100
AcDbEntity
  8
0
 62
     0
100
AcDbLine
 10
-40.31399678564665
 20
-271.0075841477578
 30
0.0
 11
-39.41922759619359
 21
-270.1128149583047
 31
0.0
  0
LINE
  5
5FBE
330
5E97
100
AcDbEntity
  8
0
 62
     0
100
AcDbLine
 10
-43.38544572836195
 20
-274.0790330904731
 30
0.0
 11
-42.75345122215997
 21
-273.447038584271
 31
0.0
  0
LINE
  5
5FBF
330
5E97
100
AcDbEntity
  8
0
 62
     0
100
AcDbLine
 10
-41.23377736527484
 20
-271.9273647273859
 30
0.0
 11
-40.99289855897352
 21
-271.6864859210846
 31
0.0
  0
LINE
  5
5FC0
330
5E97
100
AcDbEntity
  8
0
 62
     0
100
AcDbLine
 10
-42.28777105969533
 20
-272.9813584218064
 30
0.0
 11
-42.18798245345292
 21
-272.881569815564
 31
0.0
  0
LINE
  5
5FC1
330
5E97
100
AcDbEntity
  8
0
 62
     0
100
AcDbLine
 10
-43.53234158718605
 20
-274.0933464278247
 30
0.0
 11
-43.43019765279687
 21
-273.9912024934355
 31
0.0
  0
LINE
  5
5FC2
330
5E97
100
AcDbEntity
  8
0
 62
     0
100
AcDbLine
 10
-40.44657930711912
 20
-271.0075841477578
 30
0.0
 11
-39.55181011766607
 21
-270.1128149583047
 31
0.0
  0
LINE
  5
5FC3
330
5E97
100
AcDbEntity
  8
0
 62
     0
100
AcDbLine
 10
-43.43019765279688
 20
-273.9912024934355
 30
0.0
 11
-42.79820314659487
 21
-273.3592079872335
 31
0.0
  0
LINE
  5
5FC4
330
5E97
100
AcDbEntity
  8
0
 62
     0
100
AcDbLine
 10
-41.22393086572511
 20
-271.7849357063637
 30
0.0
 11
-40.9830520594238
 21
-271.5440569000624
 31
0.0
  0
LINE
  5
5FC5
330
5E97
100
AcDbEntity
  8
0
 62
     0
100
AcDbLine
 10
-42.33252298413026
 20
-272.8935278247689
 30
0.0
 11
-42.23273437788784
 21
-272.7937392185264
 31
0.0
  0
LINE
  5
5FC6
330
5E97
100
AcDbEntity
  8
0
 62
     0
100
AcDbLine
 10
-43.57709351162099
 20
-274.0055158307872
 30
0.0
 11
-43.4749495772318
 21
-273.903371896398
 31
0.0
  0
LINE
  5
5FC7
330
5E97
100
AcDbEntity
  8
0
 62
     0
100
AcDbLine
 10
-40.57916182859158
 20
-271.0075841477578
 30
0.0
 11
-39.68439263913856
 21
-270.1128149583047
 31
0.0
  0
LINE
  5
5FC8
330
5E97
100
AcDbEntity
  8
0
 62
     0
100
AcDbLine
 10
-43.4749495772318
 20
-273.903371896398
 30
0.0
 11
-42.84295507102982
 21
-273.2713773901959
 31
0.0
  0
LINE
  5
5FC9
330
5E97
100
AcDbEntity
  8
0
 62
     0
100
AcDbLine
 10
-41.21408436617539
 20
-271.6425066853415
 30
0.0
 11
-40.97320555987406
 21
-271.4016278790402
 31
0.0
  0
LINE
  5
5FCA
330
5E97
100
AcDbEntity
  8
0
 62
     0
100
AcDbLine
 10
-42.37727490856518
 20
-272.8056972277314
 30
0.0
 11
-42.27748630232276
 21
-272.705908621489
 31
0.0
  0
LINE
  5
5FCB
330
5E97
100
AcDbEntity
  8
0
 62
     0
100
AcDbLine
 10
-43.6218454360559
 20
-273.9176852337496
 30
0.0
 11
-43.51970150166672
 21
-273.8155412993604
 31
0.0
  0
LINE
  5
5FCC
330
5E97
100
AcDbEntity
  8
0
 62
     0
100
AcDbLine
 10
-40.71174435006406
 20
-271.0075841477578
 30
0.0
 11
-39.81697516061101
 21
-270.1128149583047
 31
0.0
  0
LINE
  5
5FCD
330
5E97
100
AcDbEntity
  8
0
 62
     0
100
AcDbLine
 10
-43.51970150166672
 20
-273.8155412993604
 30
0.0
 11
-42.88770699546473
 21
-273.1835467931584
 31
0.0
  0
LINE
  5
5FCE
330
5E97
100
AcDbEntity
  8
0
 62
     0
100
AcDbLine
 10
-41.20423786662565
 20
-271.5000776643193
 30
0.0
 11
-40.96335906032432
 21
-271.259198858018
 31
0.0
  0
LINE
  5
5FCF
330
5E97
100
AcDbEntity
  8
0
 62
     0
100
AcDbLine
 10
-42.4220268330001
 20
-272.7178666306938
 30
0.0
 11
-42.32223822675769
 21
-272.6180780244514
 31
0.0
  0
LINE
  5
5FD0
330
5E97
100
AcDbEntity
  8
0
 62
     0
100
AcDbLine
 10
-43.66659736049083
 20
-273.829854636712
 30
0.0
 11
-43.56445342610165
 21
-273.7277107023229
 31
0.0
  0
LINE
  5
5FD1
330
5E97
100
AcDbEntity
  8
0
 62
     0
100
AcDbLine
 10
-40.84432687153655
 20
-271.0075841477578
 30
0.0
 11
-39.94955768208349
 21
-270.1128149583047
 31
0.0
  0
LINE
  5
5FD2
330
5E97
100
AcDbEntity
  8
0
 62
     0
100
AcDbLine
 10
-43.56445342610164
 20
-273.7277107023228
 30
0.0
 11
-42.93245891989965
 21
-273.0957161961208
 31
0.0
  0
LINE
  5
5FD3
330
5E97
100
AcDbEntity
  8
0
 62
     0
100
AcDbLine
 10
-41.19439136707593
 20
-271.3576486432971
 30
0.0
 11
-40.95351256077459
 21
-271.1167698369958
 31
0.0
  0
LINE
  5
5FD4
330
5E97
100
AcDbEntity
  8
0
 62
     0
100
AcDbLine
 10
-42.46677875743502
 20
-272.6300360336562
 30
0.0
 11
-42.36699015119261
 21
-272.5302474274138
 31
0.0
  0
LINE
  5
5FD5
330
5E97
100
AcDbEntity
  8
0
 62
     0
100
AcDbLine
 10
-43.71134928492576
 20
-273.7420240396744
 30
0.0
 11
-43.60920535053657
 21
-273.6398801052853
 31
0.0
  0
LINE
  5
5FD6
330
5E97
100
AcDbEntity
  8
0
 62
     0
100
AcDbLine
 10
-40.97690939300903
 20
-271.0075841477578
 30
0.0
 11
-40.08214020355597
 21
-270.1128149583047
 31
0.0
  0
LINE
  5
5FD7
330
5E97
100
AcDbEntity
  8
0
 62
     0
100
AcDbLine
 10
-43.60920535053657
 20
-273.6398801052853
 30
0.0
 11
-42.97721084433458
 21
-273.0078855990833
 31
0.0
  0
LINE
  5
5FD8
330
5E97
100
AcDbEntity
  8
0
 62
     0
100
AcDbLine
 10
-41.1845448675262
 20
-271.2152196222749
 30
0.0
 11
-40.97690939300904
 21
-271.0075841477578
 31
0.0
  0
LINE
  5
5FD9
330
5E97
100
AcDbEntity
  8
0
 62
     0
100
AcDbLine
 10
-42.51153068186996
 20
-272.5422054366187
 30
0.0
 11
-42.41174207562753
 21
-272.4424168303762
 31
0.0
  0
LINE
  5
5FDA
330
5E97
100
AcDbEntity
  8
0
 62
     0
100
AcDbLine
 10
-43.75610120936068
 20
-273.6541934426369
 30
0.0
 11
-43.65395727497149
 21
-273.5520495082478
 31
0.0
  0
LINE
  5
5FDB
330
5E97
100
AcDbEntity
  8
0
 62
     0
100
AcDbLine
 10
-41.10949191448152
 20
-271.0075841477578
 30
0.0
 11
-40.21472272502846
 21
-270.1128149583047
 31
0.0
  0
LINE
  5
5FDC
330
5E97
100
AcDbEntity
  8
0
 62
     0
100
AcDbLine
 10
-43.65395727497149
 20
-273.5520495082478
 30
0.0
 11
-43.02196276876951
 21
-272.9200550020458
 31
0.0
  0
LINE
  5
5FDD
330
5E97
100
AcDbEntity
  8
0
 62
     0
100
AcDbLine
 10
-41.17469836797646
 20
-271.0727906012527
 30
0.0
 11
-41.10949191448153
 21
-271.0075841477578
 31
0.0
  0
LINE
  5
5FDE
330
5E97
100
AcDbEntity
  8
0
 62
     0
100
AcDbLine
 10
-42.55628260630487
 20
-272.4543748395811
 30
0.0
 11
-42.45649400006246
 21
-272.3545862333387
 31
0.0
  0
LINE
  5
5FDF
330
5E97
100
AcDbEntity
  8
0
 62
     0
100
AcDbLine
 10
-43.8008531337956
 20
-273.5663628455994
 30
0.0
 11
-43.69870919940642
 21
-273.4642189112102
 31
0.0
  0
LINE
  5
5FE0
330
5E97
100
AcDbEntity
  8
0
 62
     0
100
AcDbLine
 10
-41.242074435954
 20
-271.0075841477578
 30
0.0
 11
-40.34730524650094
 21
-270.1128149583047
 31
0.0
  0
LINE
  5
5FE1
330
5E97
100
AcDbEntity
  8
0
 62
     0
100
AcDbLine
 10
-43.69870919940643
 20
-273.4642189112102
 30
0.0
 11
-43.06671469320444
 21
-272.8322244050082
 31
0.0
  0
LINE
  5
5FE2
330
5E97
100
AcDbEntity
  8
0
 62
     0
100
AcDbLine
 10
-42.6010345307398
 20
-272.3665442425436
 30
0.0
 11
-42.50124592449738
 21
-272.2667556363012
 31
0.0
  0
LINE
  5
5FE3
330
5E97
100
AcDbEntity
  8
0
 62
     0
100
AcDbLine
 10
-43.84560505823052
 20
-273.4785322485618
 30
0.0
 11
-43.74346112384134
 21
-273.3763883141727
 31
0.0
  0
LINE
  5
5FE4
330
5E97
100
AcDbEntity
  8
0
 62
     0
100
AcDbLine
 10
-41.37465695742645
 20
-271.0075841477578
 30
0.0
 11
-40.47988776797339
 21
-270.1128149583047
 31
0.0
  0
LINE
  5
5FE5
330
5E97
100
AcDbEntity
  8
0
 62
     0
100
AcDbLine
 10
-43.74346112384134
 20
-273.3763883141726
 30
0.0
 11
-43.11146661763936
 21
-272.7443938079706
 31
0.0
  0
LINE
  5
5FE6
330
5E97
100
AcDbEntity
  8
0
 62
     0
100
AcDbLine
 10
-42.64578645517471
 20
-272.278713645506
 30
0.0
 11
-42.5459978489323
 21
-272.1789250392636
 31
0.0
  0
LINE
  5
5FE7
330
5E97
100
AcDbEntity
  8
0
 62
     0
100
AcDbLine
 10
-43.89035698266545
 20
-273.3907016515242
 30
0.0
 11
-43.78821304827627
 21
-273.2885577171351
 31
0.0
  0
LINE
  5
5FE8
330
5E97
100
AcDbEntity
  8
0
 62
     0
100
AcDbLine
 10
-41.50723947889893
 20
-271.0075841477578
 30
0.0
 11
-40.61247028944587
 21
-270.1128149583047
 31
0.0
  0
LINE
  5
5FE9
330
5E97
100
AcDbEntity
  8
0
 62
     0
100
AcDbLine
 10
-43.78821304827627
 20
-273.2885577171351
 30
0.0
 11
-43.15621854207427
 21
-272.6565632109331
 31
0.0
  0
LINE
  5
5FEA
330
5E97
100
AcDbEntity
  8
0
 62
     0
100
AcDbLine
 10
-42.69053837960965
 20
-272.1908830484685
 30
0.0
 11
-42.59074977336722
 21
-272.0910944422261
 31
0.0
  0
LINE
  5
5FEB
330
5E97
100
AcDbEntity
  8
0
 62
     0
100
AcDbLine
 10
-43.93510890710039
 20
-273.3028710544867
 30
0.0
 11
-43.83296497271119
 21
-273.2007271200976
 31
0.0
  0
LINE
  5
5FEC
330
5E97
100
AcDbEntity
  8
0
 62
     0
100
AcDbLine
 10
-41.63982200037142
 20
-271.0075841477578
 30
0.0
 11
-40.74505281091837
 21
-270.1128149583047
 31
0.0
  0
LINE
  5
5FED
330
5E97
100
AcDbEntity
  8
0
 62
     0
100
AcDbLine
 10
-43.83296497271119
 20
-273.2007271200975
 30
0.0
 11
-43.2009704665092
 21
-272.5687326138955
 31
0.0
  0
LINE
  5
5FEE
330
5E97
100
AcDbEntity
  8
0
 62
     0
100
AcDbLine
 10
-42.73529030404456
 20
-272.1030524514309
 30
0.0
 11
-42.63550169780215
 21
-272.0032638451885
 31
0.0
  0
LINE
  5
5FEF
330
5E97
100
AcDbEntity
  8
0
 62
     0
100
AcDbLine
 10
-43.97986083153529
 20
-273.2150404574491
 30
0.0
 11
-43.87771689714611
 21
-273.11289652306
 31
0.0
  0
LINE
  5
5FF0
330
5E97
100
AcDbEntity
  8
0
 62
     0
100
AcDbLine
 10
-41.7724045218439
 20
-271.0075841477578
 30
0.0
 11
-40.87763533239084
 21
-270.1128149583047
 31
0.0
  0
LINE
  5
5FF1
330
5E97
100
AcDbEntity
  8
0
 62
     0
100
AcDbLine
 10
-43.87771689714612
 20
-273.11289652306
 30
0.0
 11
-43.24572239094412
 21
-272.480902016858
 31
0.0
  0
LINE
  5
5FF2
330
5E97
100
AcDbEntity
  8
0
 62
     0
100
AcDbLine
 10
-42.78004222847949
 20
-272.0152218543934
 30
0.0
 11
-42.68025362223707
 21
-271.9154332481509
 31
0.0
  0
LINE
  5
5FF3
330
5E97
100
AcDbEntity
  8
0
 62
     0
100
AcDbLine
 10
-44.02461275597022
 20
-273.1272098604116
 30
0.0
 11
-43.92246882158103
 21
-273.0250659260224
 31
0.0
  0
LINE
  5
5FF4
330
5E97
100
AcDbEntity
  8
0
 62
     0
100
AcDbLine
 10
-41.90498704331639
 20
-271.0075841477578
 30
0.0
 11
-41.01021785386333
 21
-270.1128149583047
 31
0.0
  0
LINE
  5
5FF5
330
5E97
100
AcDbEntity
  8
0
 62
     0
100
AcDbLine
 10
-43.92246882158103
 20
-273.0250659260224
 30
0.0
 11
-43.29047431537905
 21
-272.3930714198204
 31
0.0
  0
LINE
  5
5FF6
330
5E97
100
AcDbEntity
  8
0
 62
     0
100
AcDbLine
 10
-42.8247941529144
 20
-271.9273912573558
 30
0.0
 11
-42.72500554667199
 21
-271.8276026511134
 31
0.0
  0
LINE
  5
5FF7
330
5E97
100
AcDbEntity
  8
0
 62
     0
100
AcDbLine
 10
-44.06936468040514
 20
-273.0393792633741
 30
0.0
 11
-43.96722074601596
 21
-272.9372353289849
 31
0.0
  0
LINE
  5
5FF8
330
5E97
100
AcDbEntity
  8
0
 62
     0
100
AcDbLine
 10
-42.03756956478883
 20
-271.0075841477578
 30
0.0
 11
-41.14280037533577
 21
-270.1128149583047
 31
0.0
  0
LINE
  5
5FF9
330
5E97
100
AcDbEntity
  8
0
 62
     0
100
AcDbLine
 10
-43.96722074601596
 20
-272.9372353289849
 30
0.0
 11
-43.33522623981397
 21
-272.3052408227829
 31
0.0
  0
LINE
  5
5FFA
330
5E97
100
AcDbEntity
  8
0
 62
     0
100
AcDbLine
 10
-42.86954607734934
 20
-271.8395606603182
 30
0.0
 11
-42.76975747110692
 21
-271.7397720540759
 31
0.0
  0
LINE
  5
5FFB
330
5E97
100
AcDbEntity
  8
0
 62
     0
100
AcDbLine
 10
-44.11411660484007
 20
-272.9515486663365
 30
0.0
 11
-44.01197267045088
 21
-272.8494047319474
 31
0.0
  0
LINE
  5
5FFC
330
5E97
100
AcDbEntity
  8
0
 62
     0
100
AcDbLine
 10
-42.17015208626132
 20
-271.0075841477578
 30
0.0
 11
-41.27538289680827
 21
-270.1128149583047
 31
0.0
  0
LINE
  5
5FFD
330
5E97
100
AcDbEntity
  8
0
 62
     0
100
AcDbLine
 10
-44.01197267045089
 20
-272.8494047319474
 30
0.0
 11
-43.3799781642489
 21
-272.2174102257453
 31
0.0
  0
LINE
  5
5FFE
330
5E97
100
AcDbEntity
  8
0
 62
     0
100
AcDbLine
 10
-42.91429800178426
 20
-271.7517300632807
 30
0.0
 11
-42.81450939554184
 21
-271.6519414570383
 31
0.0
  0
LINE
  5
5FFF
330
5E97
100
AcDbEntity
  8
0
 62
     0
100
AcDbLine
 10
-43.03552049306387
 20
-271.8729525545603
 30
0.0
 11
-42.91429800178426
 21
-271.7517300632807
 31
0.0
  0
LINE
  5
6000
330
5E97
100
AcDbEntity
  8
0
 62
     0
100
AcDbLine
 10
-44.15886852927499
 20
-272.8637180692989
 30
0.0
 11
-44.0567245948858
 21
-272.7615741349098
 31
0.0
  0
LINE
  5
6001
330
5E97
100
AcDbEntity
  8
0
 62
     0
100
AcDbLine
 10
-42.30273460773381
 20
-271.0075841477578
 30
0.0
 11
-41.40796541828075
 21
-270.1128149583047
 31
0.0
  0
LINE
  5
6002
330
5E97
100
AcDbEntity
  8
0
 62
     0
100
AcDbLine
 10
-44.05672459488581
 20
-272.7615741349098
 30
0.0
 11
-43.42473008868381
 21
-272.1295796287078
 31
0.0
  0
LINE
  5
6003
330
5E97
100
AcDbEntity
  8
0
 62
     0
100
AcDbLine
 10
-42.95904992621917
 20
-271.6638994662432
 30
0.0
 11
-42.85926131997678
 21
-271.5641108600007
 31
0.0
  0
LINE
  5
6004
330
5E97
100
AcDbEntity
  8
0
 62
     0
100
AcDbLine
 10
-43.30583527562661
 20
-272.0106848156506
 30
0.0
 11
-43.03567928394395
 21
-271.7405288239679
 31
0.0
  0
LINE
  5
6005
330
5E97
100
AcDbEntity
  8
0
 62
     0
100
AcDbLine
 10
-44.20362045370992
 20
-272.7758874722614
 30
0.0
 11
-44.10147651932073
 21
-272.6737435378722
 31
0.0
  0
LINE
  5
6006
330
5E97
100
AcDbEntity
  8
0
 62
     0
100
AcDbLine
 10
-42.43531712920629
 20
-271.0075841477578
 30
0.0
 11
-41.54054793975324
 21
-270.1128149583047
 31
0.0
  0
LINE
  5
6007
330
5E97
100
AcDbEntity
  8
0
 62
     0
100
AcDbLine
 10
-44.10147651932073
 20
-272.6737435378722
 30
0.0
 11
-43.57615005818931
 21
-272.1484170767408
 31
0.0
  0
LINE
  5
6008
330
5E97
100
AcDbEntity
  8
0
 62
     0
100
AcDbLine
 10
-43.00380185065409
 20
-271.5760688692056
 30
0.0
 11
-42.9040132444117
 21
-271.4762802629631
 31
0.0
  0
LINE
  5
6009
330
5E97
100
AcDbEntity
  8
0
 62
     0
100
AcDbLine
 10
-43.57615005818945
 20
-272.1484170767408
 30
0.0
 11
-43.29449434520518
 21
-271.8667613637567
 31
0.0
  0
LINE
  5
600A
330
5E97
100
AcDbEntity
  8
0
 62
     0
100
AcDbLine
 10
-44.24837237814484
 20
-272.6880568752238
 30
0.0
 11
-44.14622844375565
 21
-272.5859129408347
 31
0.0
  0
LINE
  5
600B
330
5E97
100
AcDbEntity
  8
0
 62
     0
100
AcDbLine
 10
-42.56789965067877
 20
-271.0075841477578
 30
0.0
 11
-41.67313046122571
 21
-270.1128149583047
 31
0.0
  0
LINE
  5
600C
330
5E97
100
AcDbEntity
  8
0
 62
     0
100
AcDbLine
 10
-44.14622844375567
 20
-272.5859129408347
 30
0.0
 11
-43.81389900091518
 21
-272.2535834979942
 31
0.0
  0
LINE
  5
600D
330
5E97
100
AcDbEntity
  8
0
 62
     0
100
AcDbLine
 10
-43.04855377508903
 20
-271.488238272168
 30
0.0
 11
-42.94876516884662
 21
-271.3884496659257
 31
0.0
  0
LINE
  5
600E
330
5E97
100
AcDbEntity
  8
0
 62
     0
100
AcDbLine
 10
-43.81389900091516
 20
-272.2535834979942
 30
0.0
 11
-43.5533094064665
 21
-271.9929939035455
 31
0.0
  0
LINE
  5
600F
330
5E97
100
AcDbEntity
  8
0
 62
     0
100
AcDbLine
 10
-43.55330940646641
 20
-271.9929939035454
 30
0.0
 11
-43.51423393755367
 21
-271.9539184346327
 31
0.0
  0
LINE
  5
6010
330
5E97
100
AcDbEntity
  8
0
 62
     0
100
AcDbLine
 10
-44.29312430257975
 20
-272.6002262781863
 30
0.0
 11
-44.19098036819057
 21
-272.4980823437971
 31
0.0
  0
LINE
  5
6011
330
5E97
100
AcDbEntity
  8
0
 62
     0
100
AcDbLine
 10
-42.70048217215122
 20
-271.0075841477578
 30
0.0
 11
-41.80571298269817
 21
-270.1128149583047
 31
0.0
  0
LINE
  5
6012
330
5E97
100
AcDbEntity
  8
0
 62
     0
100
AcDbLine
 10
-44.19098036819058
 20
-272.4980823437971
 30
0.0
 11
-43.85736435006013
 21
-272.1644663256667
 31
0.0
  0
LINE
  5
6013
330
5E97
100
AcDbEntity
  8
0
 62
     0
100
AcDbLine
 10
-43.09330569952394
 20
-271.4004076751304
 30
0.0
 11
-42.99351709328155
 21
-271.3006190688881
 31
0.0
  0
LINE
  5
6014
330
5E97
100
AcDbEntity
  8
0
 62
     0
100
AcDbLine
 10
-43.85736435006017
 20
-272.1644663256666
 30
0.0
 11
-43.81212446772781
 21
-272.1192264433343
 31
0.0
  0
LINE
  5
6015
330
5E97
100
AcDbEntity
  8
0
 62
     0
100
AcDbLine
 10
-43.81212446772774
 20
-272.1192264433343
 30
0.0
 11
-43.5589858619886
 21
-271.8660878375951
 31
0.0
  0
LINE
  5
6016
330
5E97
100
AcDbEntity
  8
0
 62
     0
100
AcDbLine
 10
-44.33787622701468
 20
-272.5123956811487
 30
0.0
 11
-44.23573229262551
 21
-272.4102517467596
 31
0.0
  0
LINE
  5
6017
330
5E97
100
AcDbEntity
  8
0
 62
     0
100
AcDbLine
 10
-42.83306469362371
 20
-271.0075841477578
 30
0.0
 11
-41.93829550417065
 21
-270.1128149583047
 31
0.0
  0
LINE
  5
6018
330
5E97
100
AcDbEntity
  8
0
 62
     0
100
AcDbLine
 10
-44.23573229262551
 20
-272.4102517467596
 30
0.0
 11
-43.60373778642352
 21
-271.7782572405575
 31
0.0
  0
LINE
  5
6019
330
5E97
100
AcDbEntity
  8
0
 62
     0
100
AcDbLine
 10
-43.13805762395886
 20
-271.3125770780929
 30
0.0
 11
-43.03826901771647
 21
-271.2127884718505
 31
0.0
  0
LINE
  5
601A
330
5E97
100
AcDbEntity
  8
0
 62
     0
100
AcDbLine
 10
-44.38262815144962
 20
-272.4245650841112
 30
0.0
 11
-44.28048421706043
 21
-272.3224211497221
 31
0.0
  0
LINE
  5
601B
330
5E97
100
AcDbEntity
  8
0
 62
     0
100
AcDbLine
 10
-42.9656472150962
 20
-271.0075841477578
 30
0.0
 11
-42.07087802564314
 21
-270.1128149583047
 31
0.0
  0
LINE
  5
601C
330
5E97
100
AcDbEntity
  8
0
 62
     0
100
AcDbLine
 10
-44.28048421706043
 20
-272.322421149722
 30
0.0
 11
-43.64848971085844
 21
-271.69042664352
 31
0.0
  0
LINE
  5
601D
330
5E97
100
AcDbEntity
  8
0
 62
     0
100
AcDbLine
 10
-43.18280954839378
 20
-271.2247464810554
 30
0.0
 11
-43.08302094215139
 21
-271.1249578748129
 31
0.0
  0
LINE
  5
601E
330
5E97
100
AcDbEntity
  8
0
 62
     0
100
AcDbLine
 10
-44.42738007588452
 20
-272.3367344870736
 30
0.0
 11
-44.32523614149536
 21
-272.2345905526844
 31
0.0
  0
LINE
  5
601F
330
5E97
100
AcDbEntity
  8
0
 62
     0
100
AcDbLine
 10
-43.09822973656867
 20
-271.0075841477578
 30
0.0
 11
-42.20346054711562
 21
-270.1128149583047
 31
0.0
  0
LINE
  5
6020
330
5E97
100
AcDbEntity
  8
0
 62
     0
100
AcDbLine
 10
-44.32523614149537
 20
-272.2345905526844
 30
0.0
 11
-43.69324163529338
 21
-271.6025960464825
 31
0.0
  0
LINE
  5
6021
330
5E97
100
AcDbEntity
  8
0
 62
     0
100
AcDbLine
 10
-43.22756147282872
 20
-271.1369158840178
 30
0.0
 11
-43.12777286658632
 21
-271.0371272777754
 31
0.0
  0
LINE
  5
6022
330
5E97
100
AcDbEntity
  8
0
 62
     0
100
AcDbLine
 10
-44.47213200031946
 20
-272.2489038900361
 30
0.0
 11
-44.36998806593027
 21
-272.1467599556469
 31
0.0
  0
LINE
  5
6023
330
5E97
100
AcDbEntity
  8
0
 62
     0
100
AcDbLine
 10
-43.23081225804116
 20
-271.0075841477578
 30
0.0
 11
-42.3360430685881
 21
-270.1128149583047
 31
0.0
  0
LINE
  5
6024
330
5E97
100
AcDbEntity
  8
0
 62
     0
100
AcDbLine
 10
-44.36998806593028
 20
-272.1467599556469
 30
0.0
 11
-43.7379935597283
 21
-271.5147654494449
 31
0.0
  0
LINE
  5
6025
330
5E97
100
AcDbEntity
  8
0
 62
     0
100
AcDbLine
 10
-43.27231339726363
 20
-271.0490852869802
 30
0.0
 11
-43.23081225804115
 21
-271.0075841477578
 31
0.0
  0
LINE
  5
6026
330
5E97
100
AcDbEntity
  8
0
 62
     0
100
AcDbLine
 10
-44.51688392475437
 20
-272.1610732929985
 30
0.0
 11
-44.41473999036521
 21
-272.0589293586094
 31
0.0
  0
LINE
  5
6027
330
5E97
100
AcDbEntity
  8
0
 62
     0
100
AcDbLine
 10
-43.36339477951361
 20
-271.0075841477578
 30
0.0
 11
-42.46862559006059
 21
-270.1128149583047
 31
0.0
  0
LINE
  5
6028
330
5E97
100
AcDbEntity
  8
0
 62
     0
100
AcDbLine
 10
-44.4147399903652
 20
-272.0589293586093
 30
0.0
 11
-43.78274548416323
 21
-271.4269348524073
 31
0.0
  0
LINE
  5
6029
330
5E97
100
AcDbEntity
  8
0
 62
     0
100
AcDbLine
 10
-44.5616358491893
 20
-272.0732426959609
 30
0.0
 11
-44.45949191480012
 21
-271.9710987615718
 31
0.0
  0
LINE
  5
602A
330
5E97
100
AcDbEntity
  8
0
 62
     0
100
AcDbLine
 10
-43.4959773009861
 20
-271.0075841477578
 30
0.0
 11
-42.60120811153304
 21
-270.1128149583047
 31
0.0
  0
LINE
  5
602B
330
5E97
100
AcDbEntity
  8
0
 62
     0
100
AcDbLine
 10
-44.45949191480013
 20
-271.9710987615718
 30
0.0
 11
-43.82749740859814
 21
-271.3391042553698
 31
0.0
  0
LINE
  5
602C
330
5E97
100
AcDbEntity
  8
0
 62
     0
100
AcDbLine
 10
-44.60638777362423
 20
-271.9854120989233
 30
0.0
 11
-44.50424383923505
 21
-271.8832681645342
 31
0.0
  0
LINE
  5
602D
330
5E97
100
AcDbEntity
  8
0
 62
     0
100
AcDbLine
 10
-43.62855982245858
 20
-271.0075841477578
 30
0.0
 11
-42.73379063300552
 21
-270.1128149583047
 31
0.0
  0
LINE
  5
602E
330
5E97
100
AcDbEntity
  8
0
 62
     0
100
AcDbLine
 10
-44.50424383923506
 20
-271.8832681645342
 30
0.0
 11
-43.87224933303307
 21
-271.2512736583323
 31
0.0
  0
LINE
  5
602F
330
5E97
100
AcDbEntity
  8
0
 62
     0
100
AcDbLine
 10
-44.65113969805915
 20
-271.8975815018858
 30
0.0
 11
-44.54899576366996
 21
-271.7954375674967
 31
0.0
  0
LINE
  5
6030
330
5E97
100
AcDbEntity
  8
0
 62
     0
100
AcDbLine
 10
-43.76114234393106
 20
-271.0075841477578
 30
0.0
 11
-42.86637315447801
 21
-270.1128149583047
 31
0.0
  0
LINE
  5
6031
330
5E97
100
AcDbEntity
  8
0
 62
     0
100
AcDbLine
 10
-44.54899576366997
 20
-271.7954375674967
 30
0.0
 11
-43.91700125746799
 21
-271.1634430612947
 31
0.0
  0
LINE
  5
6032
330
5E97
100
AcDbEntity
  8
0
 62
     0
100
AcDbLine
 10
-44.69589162249408
 20
-271.8097509048483
 30
0.0
 11
-44.5937476881049
 21
-271.7076069704591
 31
0.0
  0
LINE
  5
6033
330
5E97
100
AcDbEntity
  8
0
 62
     0
100
AcDbLine
 10
-43.89372486540355
 20
-271.0075841477578
 30
0.0
 11
-42.99895567595049
 21
-270.1128149583047
 31
0.0
  0
LINE
  5
6034
330
5E97
100
AcDbEntity
  8
0
 62
     0
100
AcDbLine
 10
-44.59374768810491
 20
-271.7076069704591
 30
0.0
 11
-43.96175318190293
 21
-271.0756124642572
 31
0.0
  0
LINE
  5
6035
330
5E97
100
AcDbEntity
  8
0
 62
     0
100
AcDbLine
 10
-44.74064354692899
 20
-271.7219203078107
 30
0.0
 11
-44.63849961253981
 21
-271.6197763734216
 31
0.0
  0
LINE
  5
6036
330
5E97
100
AcDbEntity
  8
0
 62
     0
100
AcDbLine
 10
-44.02630738687596
 20
-271.0075841477577
 30
0.0
 11
-43.13153819742297
 21
-270.1128149583047
 31
0.0
  0
LINE
  5
6037
330
5E97
100
AcDbEntity
  8
0
 62
     0
100
AcDbLine
 10
-44.63849961253983
 20
-271.6197763734216
 30
0.0
 11
-44.02630738687603
 21
-271.0075841477578
 31
0.0
  0
LINE
  5
6038
330
5E97
100
AcDbEntity
  8
0
 62
     0
100
AcDbLine
 10
-44.78539547136391
 20
-271.6340897107732
 30
0.0
 11
-44.68325153697474
 21
-271.5319457763841
 31
0.0
  0
LINE
  5
6039
330
5E97
100
AcDbEntity
  8
0
 62
     0
100
AcDbLine
 10
-44.15888990834845
 20
-271.0075841477577
 30
0.0
 11
-43.26412071889542
 21
-270.1128149583047
 31
0.0
  0
LINE
  5
603A
330
5E97
100
AcDbEntity
  8
0
 62
     0
100
AcDbLine
 10
-44.68325153697477
 20
-271.531945776384
 30
0.0
 11
-44.15888990834848
 21
-271.0075841477578
 31
0.0
  0
LINE
  5
603B
330
5E97
100
AcDbEntity
  8
0
 62
     0
100
AcDbLine
 10
-44.83014739579885
 20
-271.5462591137356
 30
0.0
 11
-44.72800346140967
 21
-271.4441151793465
 31
0.0
  0
LINE
  5
603C
330
5E97
100
AcDbEntity
  8
0
 62
     0
100
AcDbLine
 10
-44.29147242982091
 20
-271.0075841477577
 30
0.0
 11
-43.39670324036791
 21
-270.1128149583047
 31
0.0
  0
LINE
  5
603D
330
5E97
100
AcDbEntity
  8
0
 62
     0
100
AcDbLine
 10
-44.72800346140968
 20
-271.4441151793465
 30
0.0
 11
-44.29147242982097
 21
-271.0075841477578
 31
0.0
  0
LINE
  5
603E
330
5E97
100
AcDbEntity
  8
0
 62
     0
100
AcDbLine
 10
-44.87489932023376
 20
-271.4584285166981
 30
0.0
 11
-44.7727553858446
 21
-271.3562845823089
 31
0.0
  0
LINE
  5
603F
330
5E97
100
AcDbEntity
  8
0
 62
     0
100
AcDbLine
 10
-44.42405495129341
 20
-271.0075841477577
 30
0.0
 11
-43.5292857618404
 21
-270.1128149583047
 31
0.0
  0
LINE
  5
6040
330
5E97
100
AcDbEntity
  8
0
 62
     0
100
AcDbLine
 10
-44.77275538584461
 20
-271.3562845823089
 30
0.0
 11
-44.42405495129345
 21
-271.0075841477578
 31
0.0
  0
LINE
  5
6041
330
5E97
100
AcDbEntity
  8
0
 62
     0
100
AcDbLine
 10
-44.91965124466869
 20
-271.3705979196606
 30
0.0
 11
-44.81750731027952
 21
-271.2684539852714
 31
0.0
  0
LINE
  5
6042
330
5E97
100
AcDbEntity
  8
0
 62
     0
100
AcDbLine
 10
-44.55663747276587
 20
-271.0075841477577
 30
0.0
 11
-43.66186828331287
 21
-270.1128149583047
 31
0.0
  0
LINE
  5
6043
330
5E97
100
AcDbEntity
  8
0
 62
     0
100
AcDbLine
 10
-44.81750731027953
 20
-271.2684539852714
 30
0.0
 11
-44.55663747276593
 21
-271.0075841477578
 31
0.0
  0
LINE
  5
6044
330
5E97
100
AcDbEntity
  8
0
 62
     0
100
AcDbLine
 10
-44.96440316910361
 20
-271.282767322623
 30
0.0
 11
-44.86225923471444
 21
-271.1806233882338
 31
0.0
  0
LINE
  5
6045
330
5E97
100
AcDbEntity
  8
0
 62
     0
100
AcDbLine
 10
-44.68921999423836
 20
-271.0075841477577
 30
0.0
 11
-43.79445080478536
 21
-270.1128149583047
 31
0.0
  0
LINE
  5
6046
330
5E97
100
AcDbEntity
  8
0
 62
     0
100
AcDbLine
 10
-44.86225923471446
 20
-271.1806233882338
 30
0.0
 11
-44.68921999423842
 21
-271.0075841477578
 31
0.0
  0
LINE
  5
6047
330
5E97
100
AcDbEntity
  8
0
 62
     0
100
AcDbLine
 10
-45.00915509353854
 20
-271.1949367255854
 30
0.0
 11
-44.93619626528839
 21
-271.1219778973352
 31
0.0
  0
LINE
  5
6048
330
5E97
100
AcDbEntity
  8
0
 62
     0
100
AcDbLine
 10
-44.82180251571087
 20
-271.0075841477578
 30
0.0
 11
-43.92703332625781
 21
-270.1128149583047
 31
0.0
  0
LINE
  5
6049
330
5E97
100
AcDbEntity
  8
0
 62
     0
100
AcDbLine
 10
-44.95438503718335
 20
-271.0075841477578
 30
0.0
 11
-44.0596158477303
 21
-270.1128149583047
 31
0.0
  0
LINE
  5
604A
330
5E97
100
AcDbEntity
  8
0
 62
     0
100
AcDbLine
 10
-45.08696755865584
 20
-271.0075841477578
 30
0.0
 11
-44.19219836920278
 21
-270.1128149583047
 31
0.0
  0
LINE
  5
604B
330
5E97
100
AcDbEntity
  8
0
 62
     0
100
AcDbLine
 10
-45.21955008012832
 20
-271.0075841477578
 30
0.0
 11
-44.32478089067527
 21
-270.1128149583047
 31
0.0
  0
LINE
  5
604C
330
5E97
100
AcDbEntity
  8
0
 62
     0
100
AcDbLine
 10
-45.23372463886881
 20
-270.8891761850257
 30
0.0
 11
-44.45736341214774
 21
-270.1128149583047
 31
0.0
  0
LINE
  5
604D
330
5E97
100
AcDbEntity
  8
0
 62
     0
100
AcDbLine
 10
-45.23372463886881
 20
-270.7565936635533
 30
0.0
 11
-44.5899459336202
 21
-270.1128149583047
 31
0.0
  0
LINE
  5
604E
330
5E97
100
AcDbEntity
  8
0
 62
     0
100
AcDbLine
 10
-45.23372463886881
 20
-270.6240111420808
 30
0.0
 11
-44.72252845509268
 21
-270.1128149583047
 31
0.0
  0
LINE
  5
604F
330
5E97
100
AcDbEntity
  8
0
 62
     0
100
AcDbLine
 10
-45.23372463886881
 20
-270.4914286206083
 30
0.0
 11
-44.85511097656517
 21
-270.1128149583047
 31
0.0
  0
LINE
  5
6050
330
5E97
100
AcDbEntity
  8
0
 62
     0
100
AcDbLine
 10
-45.2337246388688
 20
-270.3588460991359
 30
0.0
 11
-44.98769349803765
 21
-270.1128149583047
 31
0.0
  0
LINE
  5
6051
330
5E97
100
AcDbEntity
  8
0
 62
     0
100
AcDbLine
 10
-45.2337246388688
 20
-270.2262635776634
 30
0.0
 11
-45.12027601951014
 21
-270.1128149583047
 31
0.0
  0
LINE
  5
6052
330
5E97
100
AcDbEntity
  8
0
 62
     0
100
AcDbLine
 10
-39.27512850824
 20
-279.5146574163695
 30
0.0
 11
-38.5413666900566
 21
-278.7808955981861
 31
0.0
  0
LINE
  5
6053
330
5E97
100
AcDbEntity
  8
0
 62
     0
100
AcDbLine
 10
-39.16241960701883
 20
-279.5345310366208
 30
0.0
 11
-38.42865778883542
 21
-278.8007692184374
 31
0.0
  0
LINE
  5
6054
330
5E97
100
AcDbEntity
  8
0
 62
     0
100
AcDbLine
 10
-39.04971070579762
 20
-279.5544046568721
 30
0.0
 11
-38.31594888761424
 21
-278.8206428386887
 31
0.0
  0
LINE
  5
6055
330
5E97
100
AcDbEntity
  8
0
 62
     0
100
AcDbLine
 10
-38.93700180457646
 20
-279.5742782771234
 30
0.0
 11
-38.20323998639308
 21
-278.84051645894
 31
0.0
  0
LINE
  5
6056
330
5E97
100
AcDbEntity
  8
0
 62
     0
100
AcDbLine
 10
-38.82429290335529
 20
-279.5941518973747
 30
0.0
 11
-38.0905310851719
 21
-278.8603900791913
 31
0.0
  0
LINE
  5
6057
330
5E97
100
AcDbEntity
  8
0
 62
     0
100
AcDbLine
 10
-38.71158400213412
 20
-279.614025517626
 30
0.0
 11
-37.97782218395072
 21
-278.8802636994426
 31
0.0
  0
LINE
  5
6058
330
5E97
100
AcDbEntity
  8
0
 62
     0
100
AcDbLine
 10
-38.59887510091292
 20
-279.6338991378773
 30
0.0
 11
-37.86511328272954
 21
-278.9001373196939
 31
0.0
  0
LINE
  5
6059
330
5E97
100
AcDbEntity
  8
0
 62
     0
100
AcDbLine
 10
-38.48616619969174
 20
-279.6537727581286
 30
0.0
 11
-37.75240438150836
 21
-278.9200109399452
 31
0.0
  0
LINE
  5
605A
330
5E97
100
AcDbEntity
  8
0
 62
     0
100
AcDbLine
 10
-38.37345729847058
 20
-279.6736463783799
 30
0.0
 11
-37.63969548028717
 21
-278.9398845601965
 31
0.0
  0
LINE
  5
605B
330
5E97
100
AcDbEntity
  8
0
 62
     0
100
AcDbLine
 10
-38.26074839724942
 20
-279.6935199986312
 30
0.0
 11
-37.526986579066
 21
-278.9597581804478
 31
0.0
  0
LINE
  5
605C
330
5E97
100
AcDbEntity
  8
0
 62
     0
100
AcDbLine
 10
-38.14803949602821
 20
-279.7133936188825
 30
0.0
 11
-37.41427767784482
 21
-278.9796318006991
 31
0.0
  0
LINE
  5
605D
330
5E97
100
AcDbEntity
  8
0
 62
     0
100
AcDbLine
 10
-38.03533059480704
 20
-279.7332672391338
 30
0.0
 11
-37.30156877662363
 21
-278.9995054209504
 31
0.0
  0
LINE
  5
605E
330
5E97
100
AcDbEntity
  8
0
 62
     0
100
AcDbLine
 10
-37.92262169358588
 20
-279.7531408593851
 30
0.0
 11
-37.18885987540245
 21
-279.0193790412017
 31
0.0
  0
LINE
  5
605F
330
5E97
100
AcDbEntity
  8
0
 62
     0
100
AcDbLine
 10
-37.80991279236471
 20
-279.7730144796364
 30
0.0
 11
-37.07615097418127
 21
-279.039252661453
 31
0.0
  0
LINE
  5
6060
330
5E97
100
AcDbEntity
  8
0
 62
     0
100
AcDbLine
 10
-37.6972038911435
 20
-279.7928880998877
 30
0.0
 11
-36.96344207296009
 21
-279.0591262817043
 31
0.0
  0
LINE
  5
6061
330
5E97
100
AcDbEntity
  8
0
 62
     0
100
AcDbLine
 10
-37.58449498992233
 20
-279.812761720139
 30
0.0
 11
-36.85073317173891
 21
-279.0789999019556
 31
0.0
  0
LINE
  5
6062
330
5E97
100
AcDbEntity
  8
0
 62
     0
100
AcDbLine
 10
-37.47178608870117
 20
-279.8326353403903
 30
0.0
 11
-36.73802427051778
 21
-279.0988735222069
 31
0.0
  0
LINE
  5
6063
330
5E97
100
AcDbEntity
  8
0
 62
     0
100
AcDbLine
 10
-37.35907718748001
 20
-279.8525089606416
 30
0.0
 11
-36.62531536929659
 21
-279.1187471424582
 31
0.0
  0
LINE
  5
6064
330
5E97
100
AcDbEntity
  8
0
 62
     0
100
AcDbLine
 10
-37.24636828625879
 20
-279.8723825808929
 30
0.0
 11
-36.51260646807542
 21
-279.1386207627095
 31
0.0
  0
LINE
  5
6065
330
5E97
100
AcDbEntity
  8
0
 62
     0
100
AcDbLine
 10
-37.13365938503763
 20
-279.8922562011442
 30
0.0
 11
-36.39989756685424
 21
-279.1584943829608
 31
0.0
  0
LINE
  5
6066
330
5E97
100
AcDbEntity
  8
0
 62
     0
100
AcDbLine
 10
-37.02095048381647
 20
-279.9121298213955
 30
0.0
 11
-36.28718866563306
 21
-279.1783680032121
 31
0.0
  0
LINE
  5
6067
330
5E97
100
AcDbEntity
  8
0
 62
     0
100
AcDbLine
 10
-36.9082415825953
 20
-279.9320034416468
 30
0.0
 11
-36.17447976441188
 21
-279.1982416234634
 31
0.0
  0
LINE
  5
6068
330
5E97
100
AcDbEntity
  8
0
 62
     0
100
AcDbLine
 10
-36.79553268137409
 20
-279.9518770618981
 30
0.0
 11
-36.0617708631907
 21
-279.2181152437147
 31
0.0
  0
LINE
  5
6069
330
5E97
100
AcDbEntity
  8
0
 62
     0
100
AcDbLine
 10
-36.68282378015292
 20
-279.9717506821494
 30
0.0
 11
-35.94906196196951
 21
-279.237988863966
 31
0.0
  0
LINE
  5
606A
330
5E97
100
AcDbEntity
  8
0
 62
     0
100
AcDbLine
 10
-36.57011487893175
 20
-279.9916243024007
 30
0.0
 11
-35.83635306074833
 21
-279.2578624842173
 31
0.0
  0
LINE
  5
606B
330
5E97
100
AcDbEntity
  8
0
 62
     0
100
AcDbLine
 10
-36.45740597771059
 20
-280.011497922652
 30
0.0
 11
-35.72364415952716
 21
-279.2777361044686
 31
0.0
  0
LINE
  5
606C
330
5E97
100
AcDbEntity
  8
0
 62
     0
100
AcDbLine
 10
-36.34469707648938
 20
-280.0313715429033
 30
0.0
 11
-35.61093525830597
 21
-279.2976097247199
 31
0.0
  0
LINE
  5
606D
330
5E97
100
AcDbEntity
  8
0
 62
     0
100
AcDbLine
 10
-36.23198817526822
 20
-280.0512451631546
 30
0.0
 11
-35.49822635708479
 21
-279.3174833449712
 31
0.0
  0
LINE
  5
606E
330
5E97
100
AcDbEntity
  8
0
 62
     0
100
AcDbLine
 10
-36.11927927404706
 20
-280.0711187834059
 30
0.0
 11
-35.38551745586361
 21
-279.3373569652225
 31
0.0
  0
LINE
  5
606F
330
5E97
100
AcDbEntity
  8
0
 62
     0
100
AcDbLine
 10
-36.00657037282589
 20
-280.0909924036572
 30
0.0
 11
-35.27280855464243
 21
-279.3572305854738
 31
0.0
  0
LINE
  5
6070
330
5E97
100
AcDbEntity
  8
0
 62
     0
100
AcDbLine
 10
-35.89386147160467
 20
-280.1108660239085
 30
0.0
 11
-35.16009965342125
 21
-279.3771042057251
 31
0.0
  0
LINE
  5
6071
330
5E97
100
AcDbEntity
  8
0
 62
     0
100
AcDbLine
 10
-35.78115257038351
 20
-280.1307396441598
 30
0.0
 11
-35.04739075220007
 21
-279.3969778259764
 31
0.0
  0
LINE
  5
6072
330
5E97
100
AcDbEntity
  8
0
 62
     0
100
AcDbLine
 10
-35.66844366916234
 20
-280.1506132644111
 30
0.0
 11
-34.93468185097889
 21
-279.4168514462277
 31
0.0
  0
LINE
  5
6073
330
5E97
100
AcDbEntity
  8
0
 62
     0
100
AcDbLine
 10
-35.55573476794118
 20
-280.1704868846624
 30
0.0
 11
-34.82197294975771
 21
-279.436725066479
 31
0.0
  0
LINE
  5
6074
330
5E97
100
AcDbEntity
  8
0
 62
     0
100
AcDbLine
 10
-35.44302586671997
 20
-280.1903605049137
 30
0.0
 11
-34.70926404853658
 21
-279.4565986867303
 31
0.0
  0
LINE
  5
6075
330
5E97
100
AcDbEntity
  8
0
 62
     0
100
AcDbLine
 10
-35.3303169654988
 20
-280.210234125165
 30
0.0
 11
-34.59655514731539
 21
-279.4764723069816
 31
0.0
  0
LINE
  5
6076
330
5E97
100
AcDbEntity
  8
0
 62
     0
100
AcDbLine
 10
-35.21760806427764
 20
-280.2301077454163
 30
0.0
 11
-34.48384624609421
 21
-279.496345927233
 31
0.0
  0
LINE
  5
6077
330
5E97
100
AcDbEntity
  8
0
 62
     0
100
AcDbLine
 10
-35.10489916305647
 20
-280.2499813656676
 30
0.0
 11
-34.65961316436878
 21
-279.80469536698
 31
0.0
  0
LINE
  5
6078
330
5E97
100
AcDbEntity
  8
0
 62
     0
100
AcDbLine
 10
-34.49507239555112
 20
-279.6401545981623
 30
0.0
 11
-34.37113734487303
 21
-279.5162195474842
 31
0.0
  0
LINE
  5
6079
330
5E97
100
AcDbEntity
  8
0
 62
     0
100
AcDbLine
 10
-34.65961316436874
 20
-279.8046953669799
 30
0.0
 11
-34.49507239555113
 21
-279.6401545981623
 31
0.0
  0
LINE
  5
607A
330
5E97
100
AcDbEntity
  8
0
 62
     0
100
AcDbLine
 10
-34.99219026183526
 20
-280.2698549859189
 30
0.0
 11
-34.61254978408334
 21
-279.890214508167
 31
0.0
  0
LINE
  5
607B
330
5E97
100
AcDbEntity
  8
0
 62
     0
100
AcDbLine
 10
-34.4505443932725
 20
-279.7282091173562
 30
0.0
 11
-34.25842844365185
 21
-279.5360931677355
 31
0.0
  0
LINE
  5
607C
330
5E97
100
AcDbEntity
  8
0
 62
     0
100
AcDbLine
 10
-34.61254978408327
 20
-279.8902145081669
 30
0.0
 11
-34.45054439327251
 21
-279.7282091173562
 31
0.0
  0
LINE
  5
607D
330
5E97
100
AcDbEntity
  8
0
 62
     0
100
AcDbLine
 10
-34.8794813606141
 20
-280.2897286061702
 30
0.0
 11
-34.56548640379791
 21
-279.975733649354
 31
0.0
  0
LINE
  5
607E
330
5E97
100
AcDbEntity
  8
0
 62
     0
100
AcDbLine
 10
-34.40601639099387
 20
-279.81626363655
 30
0.0
 11
-34.18212969867614
 21
-279.5923769442322
 31
0.0
  0
LINE
  5
607F
330
5E97
100
AcDbEntity
  8
0
 62
     0
100
AcDbLine
 10
-34.5654864037978
 20
-279.975733649354
 30
0.0
 11
-34.4060163909939
 21
-279.81626363655
 31
0.0
  0
LINE
  5
6080
330
5E97
100
AcDbEntity
  8
0
 62
     0
100
AcDbLine
 10
-34.76677245939293
 20
-280.3096022264215
 30
0.0
 11
-34.51842302351247
 21
-280.0612527905411
 31
0.0
  0
LINE
  5
6081
330
5E97
100
AcDbEntity
  8
0
 62
     0
100
AcDbLine
 10
-34.36148838871525
 20
-279.9043181557439
 30
0.0
 11
-34.21610863625688
 21
-279.7589384032855
 31
0.0
  0
LINE
  5
6082
330
5E97
100
AcDbEntity
  8
0
 62
     0
100
AcDbLine
 10
-34.51842302351233
 20
-280.0612527905409
 30
0.0
 11
-34.36148838871528
 21
-279.9043181557439
 31
0.0
  0
LINE
  5
6083
330
5E97
100
AcDbEntity
  8
0
 62
     0
100
AcDbLine
 10
-34.65406355817177
 20
-280.3294758466728
 30
0.0
 11
-34.47135964322703
 21
-280.1467719317281
 31
0.0
  0
LINE
  5
6084
330
5E97
100
AcDbEntity
  8
0
 62
     0
100
AcDbLine
 10
-34.31696038643663
 20
-279.9923726749377
 30
0.0
 11
-34.25008757383762
 21
-279.9254998623387
 31
0.0
  0
LINE
  5
6085
330
5E97
100
AcDbEntity
  8
0
 62
     0
100
AcDbLine
 10
-34.47135964322686
 20
-280.1467719317279
 30
0.0
 11
-34.31696038643667
 21
-279.9923726749378
 31
0.0
  0
LINE
  5
6086
330
5E97
100
AcDbEntity
  8
0
 62
     0
100
AcDbLine
 10
-34.54135465695056
 20
-280.3493494669242
 30
0.0
 11
-34.4242962629416
 21
-280.2322910729151
 31
0.0
  0
LINE
  5
6087
330
5E97
100
AcDbEntity
  8
0
 62
     0
100
AcDbLine
 10
-34.42429626294139
 20
-280.232291072915
 30
0.0
 11
-34.27243238415805
 21
-280.0804271941316
 31
0.0
  0
LINE
  5
6088
330
5E97
100
AcDbEntity
  8
0
 62
     0
100
AcDbLine
 10
-34.42864575572939
 20
-280.3692230871754
 30
0.0
 11
-34.37723288265617
 21
-280.3178102141022
 31
0.0
  0
LINE
  5
6089
330
5E97
100
AcDbEntity
  8
0
 62
     0
100
AcDbLine
 10
-34.23763487951733
 20
-280.1782122109634
 30
0.0
 11
-34.22790438187941
 21
-280.1684817133254
 31
0.0
  0
LINE
  5
608A
330
5E97
100
AcDbEntity
  8
0
 62
     0
100
AcDbLine
 10
-34.37723288265592
 20
-280.317810214102
 30
0.0
 11
-34.32222178119469
 21
-280.2627991126407
 31
0.0
  0
LINE
  5
608B
330
5E97
100
AcDbEntity
  8
0
 62
     0
100
AcDbLine
 10
-34.3180454489991
 20
-280.2586227804452
 30
0.0
 11
-34.23763487951734
 21
-280.1782122109634
 31
0.0
  0
LINE
  5
608C
330
5E97
100
AcDbEntity
  8
0
 62
     0
100
AcDbLine
 10
-34.33279649784393
 20
-280.4059563507625
 30
0.0
 11
-34.31594377963411
 21
-280.3891036325526
 31
0.0
  0
LINE
  5
608D
330
5E97
100
AcDbEntity
  8
0
 62
     0
100
AcDbLine
 10
-34.31594377963405
 20
-280.3891036325526
 30
0.0
 11
-34.12832042519916
 21
-280.2014802781177
 31
0.0
  0
LINE
  5
608E
330
5E97
100
AcDbEntity
  8
0
 62
     0
100
AcDbLine
 10
-34.2886183190611
 20
-280.4943606934521
 30
0.0
 11
-34.20326302751831
 21
-280.4090054019093
 31
0.0
  0
LINE
  5
608F
330
5E97
100
AcDbEntity
  8
0
 62
     0
100
AcDbLine
 10
-34.01900597088106
 20
-280.224748345272
 30
0.0
 11
-34.00684354492805
 21
-280.2125859193191
 31
0.0
  0
LINE
  5
6090
330
5E97
100
AcDbEntity
  8
0
 62
     0
100
AcDbLine
 10
-34.20326302751827
 20
-280.4090054019093
 30
0.0
 11
-34.01900597088101
 21
-280.224748345272
 31
0.0
  0
LINE
  5
6091
330
5E97
100
AcDbEntity
  8
0
 62
     0
100
AcDbLine
 10
-34.24444014027825
 20
-280.5827650361417
 30
0.0
 11
-34.09058227540249
 21
-280.4289071712659
 31
0.0
  0
LINE
  5
6092
330
5E97
100
AcDbEntity
  8
0
 62
     0
100
AcDbLine
 10
-33.90969151656292
 20
-280.2480164124263
 30
0.0
 11
-33.73652476279732
 21
-280.0748496586608
 31
0.0
  0
LINE
  5
6093
330
5E97
100
AcDbEntity
  8
0
 62
     0
100
AcDbLine
 10
-34.09058227540246
 20
-280.4289071712659
 30
0.0
 11
-33.90969151656286
 21
-280.2480164124263
 31
0.0
  0
LINE
  5
6094
330
5E97
100
AcDbEntity
  8
0
 62
     0
100
AcDbLine
 10
-34.20026196149541
 20
-280.6711693788314
 30
0.0
 11
-33.9779015232867
 21
-280.4488089406227
 31
0.0
  0
LINE
  5
6095
330
5E97
100
AcDbEntity
  8
0
 62
     0
100
AcDbLine
 10
-33.80037706224471
 20
-280.2712844795807
 30
0.0
 11
-33.56665993146914
 21
-280.0375673488051
 31
0.0
  0
LINE
  5
6096
330
5E97
100
AcDbEntity
  8
0
 62
     0
100
AcDbLine
 10
-33.97790152328667
 20
-280.4488089406226
 30
0.0
 11
-33.80037706224476
 21
-280.2712844795808
 31
0.0
  0
LINE
  5
6097
330
5E97
100
AcDbEntity
  8
0
 62
     0
100
AcDbLine
 10
-34.15608378271257
 20
-280.759573721521
 30
0.0
 11
-33.86522077117088
 21
-280.4687107099793
 31
0.0
  0
LINE
  5
6098
330
5E97
100
AcDbEntity
  8
0
 62
     0
100
AcDbLine
 10
-33.69106260792654
 20
-280.294552546735
 30
0.0
 11
-33.52248175268631
 21
-280.1259716914947
 31
0.0
  0
LINE
  5
6099
330
5E97
100
AcDbEntity
  8
0
 62
     0
100
AcDbLine
 10
-33.86522077117085
 20
-280.4687107099793
 30
0.0
 11
-33.69106260792662
 21
-280.2945525467351
 31
0.0
  0
LINE
  5
609A
330
5E97
100
AcDbEntity
  8
0
 62
     0
100
AcDbLine
 10
-34.11190560392971
 20
-280.8479780642106
 30
0.0
 11
-33.75254001905505
 21
-280.488612479336
 31
0.0
  0
LINE
  5
609B
330
5E97
100
AcDbEntity
  8
0
 62
     0
100
AcDbLine
 10
-33.59453372366715
 20
-280.330606183948
 30
0.0
 11
-33.47830357390347
 21
-280.2143760341844
 31
0.0
  0
LINE
  5
609C
330
5E97
100
AcDbEntity
  8
0
 62
     0
100
AcDbLine
 10
-33.75254001905507
 20
-280.4886124793359
 30
0.0
 11
-33.59453372366719
 21
-280.3306061839481
 31
0.0
  0
LINE
  5
609D
330
5E97
100
AcDbEntity
  8
0
 62
     0
100
AcDbLine
 10
-34.06772742514688
 20
-280.9363824069003
 30
0.0
 11
-33.64145204273529
 21
-280.5101070244887
 31
0.0
  0
LINE
  5
609E
330
5E97
100
AcDbEntity
  8
0
 62
     0
100
AcDbLine
 10
-33.62039977625162
 20
-280.489054758005
 30
0.0
 11
-33.43412539512061
 21
-280.302780376874
 31
0.0
  0
LINE
  5
609F
330
5E97
100
AcDbEntity
  8
0
 62
     0
100
AcDbLine
 10
-33.64145204273528
 20
-280.5101070244887
 30
0.0
 11
-33.62039977625164
 21
-280.489054758005
 31
0.0
  0
LINE
  5
60A0
330
5E97
100
AcDbEntity
  8
0
 62
     0
100
AcDbLine
 10
-34.02354924636404
 20
-281.0247867495899
 30
0.0
 11
-33.38994721633778
 21
-280.3911847195636
 31
0.0
  0
LINE
  5
60A1
330
5E97
100
AcDbEntity
  8
0
 62
     0
100
AcDbLine
 10
-33.97937106758119
 20
-281.1131910922795
 30
0.0
 11
-33.34576903755494
 21
-280.4795890622533
 31
0.0
  0
LINE
  5
60A2
330
5E97
100
AcDbEntity
  8
0
 62
     0
100
AcDbLine
 10
-33.93519288879836
 20
-281.2015954349691
 30
0.0
 11
-33.30159085877209
 21
-280.567993404943
 31
0.0
  0
LINE
  5
60A3
330
5E97
100
AcDbEntity
  8
0
 62
     0
100
AcDbLine
 10
-33.89101471001551
 20
-281.2899997776588
 30
0.0
 11
-33.25741267998925
 21
-280.6563977476325
 31
0.0
  0
LINE
  5
60A4
330
5E97
100
AcDbEntity
  8
0
 62
     0
100
AcDbLine
 10
-33.84683653123266
 20
-281.3784041203485
 30
0.0
 11
-33.21323450120642
 21
-280.7448020903222
 31
0.0
  0
LINE
  5
60A5
330
5E97
100
AcDbEntity
  8
0
 62
     0
100
AcDbLine
 10
-33.80265835244982
 20
-281.4668084630381
 30
0.0
 11
-33.16905632242356
 21
-280.8332064330118
 31
0.0
  0
LINE
  5
60A6
330
5E97
100
AcDbEntity
  8
0
 62
     0
100
AcDbLine
 10
-33.75848017366698
 20
-281.5552128057277
 30
0.0
 11
-33.12487814364072
 21
-280.9216107757015
 31
0.0
  0
LINE
  5
60A7
330
5E97
100
AcDbEntity
  8
0
 62
     0
100
AcDbLine
 10
-33.71430199488414
 20
-281.6436171484174
 30
0.0
 11
-33.08069996485789
 21
-281.010015118391
 31
0.0
  0
LINE
  5
60A8
330
5E97
100
AcDbEntity
  8
0
 62
     0
100
AcDbLine
 10
-33.6701238161013
 20
-281.732021491107
 30
0.0
 11
-33.03652178607503
 21
-281.0984194610807
 31
0.0
  0
LINE
  5
60A9
330
5E97
100
AcDbEntity
  8
0
 62
     0
100
AcDbLine
 10
-33.62594563731845
 20
-281.8204258337966
 30
0.0
 11
-32.9923436072922
 21
-281.1868238037704
 31
0.0
  0
LINE
  5
60AA
330
5E97
100
AcDbEntity
  8
0
 62
     0
100
AcDbLine
 10
-33.58176745853561
 20
-281.9088301764862
 30
0.0
 11
-32.94816542850937
 21
-281.2752281464601
 31
0.0
  0
LINE
  5
60AB
330
5E97
100
AcDbEntity
  8
0
 62
     0
100
AcDbLine
 10
-33.53758927975277
 20
-281.9972345191759
 30
0.0
 11
-32.90398724972653
 21
-281.3636324891497
 31
0.0
  0
LINE
  5
60AC
330
5E97
100
AcDbEntity
  8
0
 62
     0
100
AcDbLine
 10
-33.49341110096992
 20
-282.0856388618656
 30
0.0
 11
-32.85980907094367
 21
-281.4520368318393
 31
0.0
  0
LINE
  5
60AD
330
5E97
100
AcDbEntity
  8
0
 62
     0
100
AcDbLine
 10
-33.44923292218708
 20
-282.1740432045552
 30
0.0
 11
-32.81563089216084
 21
-281.5404411745289
 31
0.0
  0
LINE
  5
60AE
330
5E97
100
AcDbEntity
  8
0
 62
     0
100
AcDbLine
 10
-33.40505474340423
 20
-282.2624475472448
 30
0.0
 11
-32.771452713378
 21
-281.6288455172186
 31
0.0
  0
LINE
  5
60AF
330
5E97
100
AcDbEntity
  8
0
 62
     0
100
AcDbLine
 10
-33.36087656462139
 20
-282.3508518899345
 30
0.0
 11
-32.72727453459515
 21
-281.7172498599082
 31
0.0
  0
LINE
  5
60B0
330
5E97
100
AcDbEntity
  8
0
 62
     0
100
AcDbLine
 10
-33.31669838583855
 20
-282.4392562326241
 30
0.0
 11
-32.68309635581231
 21
-281.8056542025978
 31
0.0
  0
LINE
  5
60B1
330
5E97
100
AcDbEntity
  8
0
 62
     0
100
AcDbLine
 10
-33.27252020705571
 20
-282.5276605753137
 30
0.0
 11
-32.63891817702948
 21
-281.8940585452875
 31
0.0
  0
LINE
  5
60B2
330
5E97
100
AcDbEntity
  8
0
 62
     0
100
AcDbLine
 10
-33.22834202827287
 20
-282.6160649180033
 30
0.0
 11
-32.59473999824662
 21
-281.9824628879771
 31
0.0
  0
LINE
  5
60B3
330
5E97
100
AcDbEntity
  8
0
 62
     0
100
AcDbLine
 10
-33.18416384949003
 20
-282.704469260693
 30
0.0
 11
-32.55056181946378
 21
-282.0708672306667
 31
0.0
  0
LINE
  5
60B4
330
5E97
100
AcDbEntity
  8
0
 62
     0
100
AcDbLine
 10
-33.13998567070718
 20
-282.7928736033826
 30
0.0
 11
-32.50638364068095
 21
-282.1592715733564
 31
0.0
  0
LINE
  5
60B5
330
5E97
100
AcDbEntity
  8
0
 62
     0
100
AcDbLine
 10
-33.09580749192433
 20
-282.8812779460723
 30
0.0
 11
-32.46220546189811
 21
-282.247675916046
 31
0.0
  0
LINE
  5
60B6
330
5E97
100
AcDbEntity
  8
0
 62
     0
100
AcDbLine
 10
-33.0516293131415
 20
-282.9696822887619
 30
0.0
 11
-32.41802728311526
 21
-282.3360802587357
 31
0.0
  0
LINE
  5
60B7
330
5E97
100
AcDbEntity
  8
0
 62
     0
100
AcDbLine
 10
-33.00745113435866
 20
-283.0580866314516
 30
0.0
 11
-32.37384910433242
 21
-282.4244846014253
 31
0.0
  0
LINE
  5
60B8
330
5E97
100
AcDbEntity
  8
0
 62
     0
100
AcDbLine
 10
-32.96327295557581
 20
-283.1464909741411
 30
0.0
 11
-32.32967092554959
 21
-282.5128889441149
 31
0.0
  0
LINE
  5
60B9
330
5E97
100
AcDbEntity
  8
0
 62
     0
100
AcDbLine
 10
-32.91909477679296
 20
-283.2348953168308
 30
0.0
 11
-32.28549274676673
 21
-282.6012932868045
 31
0.0
  0
LINE
  5
60BA
330
5E97
100
AcDbEntity
  8
0
 62
     0
100
AcDbLine
 10
-32.87491659801013
 20
-283.3232996595204
 30
0.0
 11
-32.24131456798389
 21
-282.6896976294942
 31
0.0
  0
LINE
  5
60BB
330
5E97
100
AcDbEntity
  8
0
 62
     0
100
AcDbLine
 10
-32.83073841922728
 20
-283.4117040022101
 30
0.0
 11
-32.19713638920106
 21
-282.7781019721838
 31
0.0
  0
LINE
  5
60BC
330
5E97
100
AcDbEntity
  8
0
 62
     0
100
AcDbLine
 10
-32.78656024044444
 20
-283.5001083448997
 30
0.0
 11
-32.1529582104182
 21
-282.8665063148735
 31
0.0
  0
LINE
  5
60BD
330
5E97
100
AcDbEntity
  8
0
 62
     0
100
AcDbLine
 10
-32.7423820616616
 20
-283.5885126875893
 30
0.0
 11
-32.10878003163537
 21
-282.9549106575631
 31
0.0
  0
LINE
  5
60BE
330
5E97
100
AcDbEntity
  8
0
 62
     0
100
AcDbLine
 10
-32.69820388287876
 20
-283.6769170302789
 30
0.0
 11
-32.06460185285254
 21
-283.0433150002527
 31
0.0
  0
LINE
  5
60BF
330
5E97
100
AcDbEntity
  8
0
 62
     0
100
AcDbLine
 10
-32.65402570409591
 20
-283.7653213729686
 30
0.0
 11
-32.0204236740697
 21
-283.1317193429424
 31
0.0
  0
LINE
  5
60C0
330
5E97
100
AcDbEntity
  8
0
 62
     0
100
AcDbLine
 10
-32.60984752531307
 20
-283.8537257156582
 30
0.0
 11
-31.97624549528684
 21
-283.220123685632
 31
0.0
  0
LINE
  5
60C1
330
5E97
100
AcDbEntity
  8
0
 62
     0
100
AcDbLine
 10
-32.56566934653022
 20
-283.9421300583479
 30
0.0
 11
-31.93206731650401
 21
-283.3085280283216
 31
0.0
  0
LINE
  5
60C2
330
5E97
100
AcDbEntity
  8
0
 62
     0
100
AcDbLine
 10
-32.52149116774738
 20
-284.0305344010375
 30
0.0
 11
-31.88788913772117
 21
-283.3969323710113
 31
0.0
  0
LINE
  5
60C3
330
5E97
100
AcDbEntity
  8
0
 62
     0
100
AcDbLine
 10
-32.47731298896454
 20
-284.1189387437271
 30
0.0
 11
-31.84371095893832
 21
-283.4853367137009
 31
0.0
  0
LINE
  5
60C4
330
5E97
100
AcDbEntity
  8
0
 62
     0
100
AcDbLine
 10
-32.43313481018169
 20
-284.2073430864168
 30
0.0
 11
-31.79953278015548
 21
-283.5737410563906
 31
0.0
  0
LINE
  5
60C5
330
5E97
100
AcDbEntity
  8
0
 62
     0
100
AcDbLine
 10
-32.38895663139885
 20
-284.2957474291064
 30
0.0
 11
-31.75535460137264
 21
-283.6621453990801
 31
0.0
  0
LINE
  5
60C6
330
5E97
100
AcDbEntity
  8
0
 62
     0
100
AcDbLine
 10
-32.34477845261601
 20
-284.384151771796
 30
0.0
 11
-31.71117642258979
 21
-283.7505497417698
 31
0.0
  0
LINE
  5
60C7
330
5E97
100
AcDbEntity
  8
0
 62
     0
100
AcDbLine
 10
-32.30060027383317
 20
-284.4725561144857
 30
0.0
 11
-31.66699824380695
 21
-283.8389540844595
 31
0.0
  0
LINE
  5
60C8
330
5E97
100
AcDbEntity
  8
0
 62
     0
100
AcDbLine
 10
-32.25642209505032
 20
-284.5609604571753
 30
0.0
 11
-31.62282006502412
 21
-283.9273584271491
 31
0.0
  0
LINE
  5
60C9
330
5E97
100
AcDbEntity
  8
0
 62
     0
100
AcDbLine
 10
-32.21224391626749
 20
-284.649364799865
 30
0.0
 11
-31.57864188624126
 21
-284.0157627698387
 31
0.0
  0
LINE
  5
60CA
330
5E97
100
AcDbEntity
  8
0
 62
     0
100
AcDbLine
 10
-32.16806573748464
 20
-284.7377691425545
 30
0.0
 11
-31.53446370745843
 21
-284.1041671125284
 31
0.0
  0
LINE
  5
60CB
330
5E97
100
AcDbEntity
  8
0
 62
     0
100
AcDbLine
 10
-32.1238875587018
 20
-284.8261734852442
 30
0.0
 11
-31.49028552867559
 21
-284.192571455218
 31
0.0
  0
LINE
  5
60CC
330
5E97
100
AcDbEntity
  8
0
 62
     0
100
AcDbLine
 10
-32.07970937991895
 20
-284.9145778279338
 30
0.0
 11
-31.44610734989275
 21
-284.2809757979077
 31
0.0
  0
LINE
  5
60CD
330
5E97
100
AcDbEntity
  8
0
 62
     0
100
AcDbLine
 10
-32.03553120113612
 20
-285.0029821706235
 30
0.0
 11
-31.4019291711099
 21
-284.3693801405972
 31
0.0
  0
LINE
  5
60CE
330
5E97
100
AcDbEntity
  8
0
 62
     0
100
AcDbLine
 10
-31.99135302235327
 20
-285.0913865133131
 30
0.0
 11
-31.35775099232706
 21
-284.4577844832869
 31
0.0
  0
LINE
  5
60CF
330
5E97
100
AcDbEntity
  8
0
 62
     0
100
AcDbLine
 10
-31.94717484357042
 20
-285.1797908560028
 30
0.0
 11
-31.31357281354423
 21
-284.5461888259766
 31
0.0
  0
LINE
  5
60D0
330
5E97
100
AcDbEntity
  8
0
 62
     0
100
AcDbLine
 10
-31.90299666478758
 20
-285.2681951986924
 30
0.0
 11
-31.26939463476138
 21
-284.6345931686662
 31
0.0
  0
LINE
  5
60D1
330
5E97
100
AcDbEntity
  8
0
 62
     0
100
AcDbLine
 10
-31.85881848600474
 20
-285.356599541382
 30
0.0
 11
-31.22521645597854
 21
-284.7229975113558
 31
0.0
  0
LINE
  5
60D2
330
5E97
100
AcDbEntity
  8
0
 62
     0
100
AcDbLine
 10
-31.8146403072219
 20
-285.4450038840717
 30
0.0
 11
-31.1810382771957
 21
-284.8114018540455
 31
0.0
  0
LINE
  5
60D3
330
5E97
100
AcDbEntity
  8
0
 62
     0
100
AcDbLine
 10
-31.77046212843906
 20
-285.5334082267613
 30
0.0
 11
-31.13686009841285
 21
-284.8998061967351
 31
0.0
  0
LINE
  5
60D4
330
5E97
100
AcDbEntity
  8
0
 62
     0
100
AcDbLine
 10
-31.72628394965622
 20
-285.6218125694509
 30
0.0
 11
-31.09268191963001
 21
-284.9882105394248
 31
0.0
  0
LINE
  5
60D5
330
5E97
100
AcDbEntity
  8
0
 62
     0
100
AcDbLine
 10
-31.68210577087337
 20
-285.7102169121406
 30
0.0
 11
-31.04850374084718
 21
-285.0766148821143
 31
0.0
  0
LINE
  5
60D6
330
5E97
100
AcDbEntity
  8
0
 62
     0
100
AcDbLine
 10
-31.63792759209052
 20
-285.7986212548302
 30
0.0
 11
-31.00432556206434
 21
-285.165019224804
 31
0.0
  0
LINE
  5
60D7
330
5E97
100
AcDbEntity
  8
0
 62
     0
100
AcDbLine
 10
-31.59374941330769
 20
-285.8870255975199
 30
0.0
 11
-30.96014738328149
 21
-285.2534235674937
 31
0.0
  0
LINE
  5
60D8
330
5E97
100
AcDbEntity
  8
0
 62
     0
100
AcDbLine
 10
-31.50332316272872
 20
-285.9291818684134
 30
0.0
 11
-30.91596920449865
 21
-285.3418279101833
 31
0.0
  0
LINE
  5
60D9
330
5E97
100
AcDbEntity
  8
0
 62
     0
100
AcDbLine
 10
-31.37157195278595
 20
-285.9300131799431
 30
0.0
 11
-30.87179102571581
 21
-285.4302322528729
 31
0.0
  0
LINE
  5
60DA
330
5E97
100
AcDbEntity
  8
0
 62
     0
100
AcDbLine
 10
-31.23982074284319
 20
-285.9308444914728
 30
0.0
 11
-30.82761284693296
 21
-285.5186365955626
 31
0.0
  0
LINE
  5
60DB
330
5E97
100
AcDbEntity
  8
0
 62
     0
100
AcDbLine
 10
-31.25232952633624
 20
-286.0759357964383
 30
0.0
 11
-31.16460760049095
 21
-285.988213870593
 31
0.0
  0
LINE
  5
60DC
330
5E97
100
AcDbEntity
  8
0
 62
     0
100
AcDbLine
 10
-31.10806953290039
 20
-285.9316758030024
 30
0.0
 11
-30.78343466815012
 21
-285.6070409382521
 31
0.0
  0
LINE
  5
60DD
330
5E97
100
AcDbEntity
  8
0
 62
     0
100
AcDbLine
 10
-31.15811563536502
 20
-285.981721905467
 30
0.0
 11
-31.10806953290039
 21
-285.9316758030025
 31
0.0
  0
LINE
  5
60DE
330
5E97
100
AcDbEntity
  8
0
 62
     0
100
AcDbLine
 10
-31.12177404626793
 20
-286.0779628378424
 30
0.0
 11
-31.0328563905482
 21
-285.9890451821227
 31
0.0
  0
LINE
  5
60DF
330
5E97
100
AcDbEntity
  8
0
 62
     0
100
AcDbLine
 10
-30.97631832295762
 20
-285.9325071145322
 30
0.0
 11
-30.73925648936729
 21
-285.6954452809418
 31
0.0
  0
LINE
  5
60E0
330
5E97
100
AcDbEntity
  8
0
 62
     0
100
AcDbLine
 10
-30.99002283632514
 20
-286.0787941493721
 30
0.0
 11
-30.93156545569635
 21
-286.0203367687433
 31
0.0
  0
LINE
  5
60E1
330
5E97
100
AcDbEntity
  8
0
 62
     0
100
AcDbLine
 10
-30.84456711301486
 20
-285.9333384260619
 30
0.0
 11
-30.69507831058443
 21
-285.7838496236314
 31
0.0
  0
LINE
  5
60E2
330
5E97
100
AcDbEntity
  8
0
 62
     0
100
AcDbLine
 10
-30.7128159030721
 20
-285.9341697375916
 30
0.0
 11
-30.6509001318016
 21
-285.8722539663211
 31
0.0
  0
ENDBLK
  5
60E3
330
5E97
100
AcDbEntity
  8
0
100
AcDbBlockEnd
  0
BLOCK
  5
6470
330
6464
100
AcDbEntity
  8
0
 62
     7
100
AcDbBlockBegin
  2
*D8
 70
     1
 10
0.0
 20
0.0
 30
0.0
  3
*D8
  1

  0
LINE
  5
6A1F
330
6464
100
AcDbEntity
  8
0
 62
     0
370
    -2
100
AcDbLine
 10
113.6725185520532
 20
1031.653819423557
 30
0.0
 11
124.6544908527101
 21
1031.653819423557
 31
0.0
  0
LINE
  5
6A20
330
6464
100
AcDbEntity
  8
0
 62
     0
370
    -2
100
AcDbLine
 10
103.4699933833368
 20
1023.091319423557
 30
0.0
 11
124.6544908527101
 21
1023.091319423557
 31
0.0
  0
LINE
  5
6A21
330
6464
100
AcDbEntity
  8
0
 62
     0
370
    -2
100
AcDbLine
 10
122.4044908527101
 20
1029.403819423557
 30
0.0
 11
122.4044908527101
 21
1025.341319423557
 31
0.0
  0
LINE
  5
6A22
330
6464
100
AcDbEntity
  8
0
 62
     0
370
    -2
100
AcDbLine
 10
124.6544908527101
 20
1019.017562074778
 30
0.0
 11
122.4044908527101
 21
1019.017562074778
 31
0.0
  0
LINE
  5
6A23
330
6464
100
AcDbEntity
  8
0
 62
     0
370
    -2
100
AcDbLine
 10
122.4044908527101
 20
1019.017562074778
 30
0.0
 11
122.4044908527101
 21
1023.091319423557
 31
0.0
  0
MTEXT
  5
6A24
330
6464
100
AcDbEntity
  8
0
 62
     0
100
AcDbMText
 10
136.5473479955671
 20
1019.017562074778
 30
0.0
 40
2.25
 41
0.0
 46
0.0
 71
     5
 72
     1
  1
\A1;6-1/2" MIN.\P9-1/2" MAX.
  7
ROMANS
 73
     1
 44
1.0
  0
SOLID
  5
6A25
330
6464
100
AcDbEntity
  8
0
 62
     0
100
AcDbTrace
 10
122.0294908527101
 20
1029.403819423557
 30
0.0
 11
122.7794908527101
 21
1029.403819423557
 31
0.0
 12
122.4044908527101
 22
1031.653819423557
 32
0.0
 13
122.4044908527101
 23
1031.653819423557
 33
0.0
  0
SOLID
  5
6A26
330
6464
100
AcDbEntity
  8
0
 62
     0
100
AcDbTrace
 10
122.0294908527101
 20
1025.341319423557
 30
0.0
 11
122.7794908527101
 21
1025.341319423557
 31
0.0
 12
122.4044908527101
 22
1023.091319423557
 32
0.0
 13
122.4044908527101
 23
1023.091319423557
 33
0.0
  0
POINT
  5
6A27
330
6464
100
AcDbEntity
  8
DEFPOINTS
 62
     0
100
AcDbPoint
 10
112.9225185520532
 20
1031.653819423557
 30
0.0
  0
POINT
  5
6A28
330
6464
100
AcDbEntity
  8
DEFPOINTS
 62
     0
100
AcDbPoint
 10
102.7199933833367
 20
1023.091319423557
 30
0.0
  0
POINT
  5
6A29
330
6464
100
AcDbEntity
  8
DEFPOINTS
 62
     0
100
AcDbPoint
 10
122.4044908527101
 20
1023.091319423557
 30
0.0
  0
ENDBLK
  5
6471
330
6464
100
AcDbEntity
  8
0
 62
     7
100
AcDbBlockEnd
  0
BLOCK
  5
653F
330
6534
100
AcDbEntity
  8
0
 62
     7
100
AcDbBlockBegin
  2
*D9
 70
     1
 10
0.0
 20
0.0
 30
0.0
  3
*D9
  1

  0
LINE
  5
6B1A
330
6534
100
AcDbEntity
  8
0
 62
     0
370
    -2
100
AcDbLine
 10
6.938399785079311
 20
1109.710202719785
 30
0.0
 11
6.938399785079311
 21
1116.137671477223
 31
0.0
  0
LINE
  5
6B1B
330
6534
100
AcDbEntity
  8
0
 62
     0
370
    -2
100
AcDbLine
 10
60.21077777995561
 20
1109.710202719785
 30
0.0
 11
60.21077777995561
 21
1116.137671477223
 31
0.0
  0
LINE
  5
6B1C
330
6534
100
AcDbEntity
  8
0
 62
     0
370
    -2
100
AcDbLine
 10
9.188399785079312
 20
1113.887671477223
 30
0.0
 11
24.89601735394603
 21
1113.887671477223
 31
0.0
  0
LINE
  5
6B1D
330
6534
100
AcDbEntity
  8
0
 62
     0
370
    -2
100
AcDbLine
 10
57.9607777799556
 20
1113.887671477223
 30
0.0
 11
42.25316021108888
 21
1113.887671477223
 31
0.0
  0
SOLID
  5
6B1E
330
6534
100
AcDbEntity
  8
0
 62
     0
100
AcDbTrace
 10
9.188399785079312
 20
1114.262671477223
 30
0.0
 11
9.188399785079312
 21
1113.512671477222
 31
0.0
 12
6.938399785079311
 22
1113.887671477223
 32
0.0
 13
6.938399785079311
 23
1113.887671477223
 33
0.0
  0
SOLID
  5
6B1F
330
6534
100
AcDbEntity
  8
0
 62
     0
100
AcDbTrace
 10
57.9607777799556
 20
1114.262671477223
 30
0.0
 11
57.9607777799556
 21
1113.512671477222
 31
0.0
 12
60.21077777995561
 22
1113.887671477223
 32
0.0
 13
60.21077777995561
 23
1113.887671477223
 33
0.0
  0
MTEXT
  5
6B20
330
6534
100
AcDbEntity
  8
0
 62
     0
100
AcDbMText
 10
33.57458878251746
 20
1113.887671477223
 30
0.0
 40
2.25
 41
0.0
 46
0.0
 71
     5
 72
     1
  1
\A1;AS REQ'D
  7
ROMANS
 73
     1
 44
1.0
  0
POINT
  5
6B21
330
6534
100
AcDbEntity
  8
DEFPOINTS
 62
     0
100
AcDbPoint
 10
6.938399785079311
 20
1108.960202719785
 30
0.0
  0
POINT
  5
6B22
330
6534
100
AcDbEntity
  8
DEFPOINTS
 62
     0
100
AcDbPoint
 10
60.21077777995561
 20
1108.960202719785
 30
0.0
  0
POINT
  5
6B23
330
6534
100
AcDbEntity
  8
DEFPOINTS
 62
     0
100
AcDbPoint
 10
60.21077777995561
 20
1113.887671477223
 30
0.0
  0
ENDBLK
  5
6540
330
6534
100
AcDbEntity
  8
0
 62
     7
100
AcDbBlockEnd
  0
BLOCK
  5
654C
330
6541
100
AcDbEntity
  8
0
 62
     7
100
AcDbBlockBegin
  2
*D10
 70
     1
 10
0.0
 20
0.0
 30
0.0
  3
*D10
  1

  0
LINE
  5
6B24
330
6541
100
AcDbEntity
  8
0
 62
     0
370
    -2
100
AcDbLine
 10
60.9607777799556
 20
1108.960202719785
 30
0.0
 11
71.02872807015234
 21
1108.960202719785
 31
0.0
  0
LINE
  5
6B25
330
6541
100
AcDbEntity
  8
0
 62
     0
370
    -2
100
AcDbLine
 10
60.96077777995585
 20
1102.267331186228
 30
0.0
 11
71.02872807015234
 21
1102.267331186228
 31
0.0
  0
LINE
  5
6B26
330
6541
100
AcDbEntity
  8
0
 62
     0
370
    -2
100
AcDbLine
 10
68.77872807015234
 20
1111.210202719785
 30
0.0
 11
68.77872807015234
 21
1113.460202719785
 31
0.0
  0
LINE
  5
6B27
330
6541
100
AcDbEntity
  8
0
 62
     0
370
    -2
100
AcDbLine
 10
68.77872807015234
 20
1100.017331186228
 30
0.0
 11
68.77872807015234
 21
1097.767331186228
 31
0.0
  0
SOLID
  5
6B28
330
6541
100
AcDbEntity
  8
0
 62
     0
100
AcDbTrace
 10
68.40372807015234
 20
1111.210202719785
 30
0.0
 11
69.15372807015234
 21
1111.210202719785
 31
0.0
 12
68.77872807015234
 22
1108.960202719785
 32
0.0
 13
68.77872807015234
 23
1108.960202719785
 33
0.0
  0
SOLID
  5
6B29
330
6541
100
AcDbEntity
  8
0
 62
     0
100
AcDbTrace
 10
68.40372807015234
 20
1100.017331186228
 30
0.0
 11
69.15372807015234
 21
1100.017331186228
 31
0.0
 12
68.77872807015234
 22
1102.267331186228
 32
0.0
 13
68.77872807015234
 23
1102.267331186228
 33
0.0
  0
MTEXT
  5
6B2A
330
6541
100
AcDbEntity
  8
0
 62
     0
100
AcDbMText
 10
68.77872807015217
 20
1105.613766953006
 30
0.0
 40
2.25
 41
0.0
 46
0.0
 71
     5
 72
     1
  1
\A1;VARIES
  7
ROMANS
 73
     1
 44
1.0
  0
POINT
  5
6B2B
330
6541
100
AcDbEntity
  8
DEFPOINTS
 62
     0
100
AcDbPoint
 10
60.21077777995561
 20
1108.960202719785
 30
0.0
  0
POINT
  5
6B2C
330
6541
100
AcDbEntity
  8
DEFPOINTS
 62
     0
100
AcDbPoint
 10
60.21077777995585
 20
1102.267331186228
 30
0.0
  0
POINT
  5
6B2D
330
6541
100
AcDbEntity
  8
DEFPOINTS
 62
     0
100
AcDbPoint
 10
68.77872807015234
 20
1102.267331186228
 30
0.0
  0
ENDBLK
  5
654D
330
6541
100
AcDbEntity
  8
0
 62
     7
100
AcDbBlockEnd
  0
BLOCK
  5
67C9
330
67BC
100
AcDbEntity
  8
0
 62
     7
100
AcDbBlockBegin
  2
A$C18BE6784
 70
     0
 10
0.0
 20
0.0
 30
0.0
  3
A$C18BE6784
  1

  0
ARC
  5
67BD
330
67BC
100
AcDbEntity
  8
0
 62
     7
100
AcDbCircle
 10
1.749999557743905
 20
1.999999850106178
 30
0.0
 40
0.5
100
AcDbArc
 50
270.0
 51
0.0
  0
ARC
  5
67BE
330
67BC
100
AcDbEntity
  8
0
 62
     7
100
AcDbCircle
 10
2.249999557743791
 20
1.499999850106178
 30
0.0
 40
1.5
100
AcDbArc
 50
270.0
 51
288.83947953138
  0
LINE
  5
67BF
330
67BC
100
AcDbEntity
  8
0
 62
     7
100
AcDbLine
 10
2.249999557743791
 20
-0.0000001498938218
 30
0.0
 11
-0.0000004422550148
 21
-0.0000001498940492
 31
0.0
  0
LINE
  5
67C0
330
67BC
100
AcDbEntity
  8
0
 62
     7
100
AcDbLine
 10
1.749999557743905
 20
1.499999850106178
 30
0.0
 11
-0.000000442254958
 21
1.499999850106178
 31
0.0
  0
LINE
  5
67C1
330
67BC
100
AcDbEntity
  8
0
 62
     7
100
AcDbLine
 10
2.249999557744928
 20
0.8437498501064055
 30
0.0
 11
2.249999557744928
 21
11.1562498501064
 31
0.0
  0
LINE
  5
67C2
330
67BC
100
AcDbEntity
  8
0
 62
     7
100
AcDbLine
 10
3.937499557744928
 20
0.8437498501064055
 30
0.0
 11
3.937499557744928
 21
11.1562498501064
 31
0.0
  0
LINE
  5
67C3
330
67BC
100
AcDbEntity
  8
0
 62
     7
100
AcDbLine
 10
2.2499995577447
 20
7.734197887460823
 30
0.0
 11
3.937499557744928
 21
7.734197887460823
 31
0.0
  0
LINE
  5
67C4
330
67BC
100
AcDbEntity
  8
0
 62
     7
100
AcDbLine
 10
2.2499995577447
 20
4.078301812751533
 30
0.0
 11
3.937499557744928
 21
4.078301812751533
 31
0.0
  0
ARC
  5
67C5
330
67BC
100
AcDbEntity
  8
0
 62
     7
100
AcDbCircle
 10
3.093749557744928
 20
11.1562498501064
 30
0.0
 40
0.84375
100
AcDbArc
 50
0.0
 51
180.0
  0
ARC
  5
67C6
330
67BC
100
AcDbEntity
  8
0
 62
     7
100
AcDbCircle
 10
3.093749557744928
 20
0.8437498501064055
 30
0.0
 40
0.84375
100
AcDbArc
 50
180.0
 51
0.0
  0
ENDBLK
  5
67CA
330
67BC
100
AcDbEntity
  8
0
 62
     7
100
AcDbBlockEnd
  0
BLOCK
  5
68C3
330
68B8
100
AcDbEntity
  8
0
 62
     7
100
AcDbBlockBegin
  2
*D12
 70
     1
 10
0.0
 20
0.0
 30
0.0
  3
*D12
  1

  0
LINE
  5
6919
330
68B8
100
AcDbEntity
  8
0
 62
     0
370
    -2
100
AcDbLine
 10
219.9136624384991
 20
1089.479558862325
 30
0.0
 11
219.9136624384991
 21
1097.388182062031
 31
0.0
  0
LINE
  5
691A
330
68B8
100
AcDbEntity
  8
0
 62
     0
370
    -2
100
AcDbLine
 10
217.6636624384998
 20
1089.521398801025
 30
0.0
 11
217.6636624384998
 21
1097.388182062031
 31
0.0
  0
LINE
  5
691B
330
68B8
100
AcDbEntity
  8
0
 62
     0
370
    -2
100
AcDbLine
 10
222.1636624384991
 20
1095.138182062031
 30
0.0
 11
224.4136624384991
 21
1095.138182062031
 31
0.0
  0
LINE
  5
691C
330
68B8
100
AcDbEntity
  8
0
 62
     0
370
    -2
100
AcDbLine
 10
215.4136624384998
 20
1095.138182062031
 30
0.0
 11
213.1636624384998
 21
1095.138182062031
 31
0.0
  0
SOLID
  5
691D
330
68B8
100
AcDbEntity
  8
0
 62
     0
100
AcDbTrace
 10
222.1636624384991
 20
1095.513182062031
 30
0.0
 11
222.1636624384991
 21
1094.763182062031
 31
0.0
 12
219.9136624384991
 22
1095.138182062031
 32
0.0
 13
219.9136624384991
 23
1095.138182062031
 33
0.0
  0
SOLID
  5
691E
330
68B8
100
AcDbEntity
  8
0
 62
     0
100
AcDbTrace
 10
215.4136624384998
 20
1095.513182062031
 30
0.0
 11
215.4136624384998
 21
1094.763182062031
 31
0.0
 12
217.6636624384998
 22
1095.138182062031
 32
0.0
 13
217.6636624384998
 23
1095.138182062031
 33
0.0
  0
MTEXT
  5
691F
330
68B8
100
AcDbEntity
  8
0
 62
     0
100
AcDbMText
 10
206.4136624384998
 20
1095.138182062031
 30
0.0
 40
2.25
 41
0.0
 46
0.0
 71
     5
 72
     1
  1
\A1;2 1/4"
  7
ROMANS
 73
     1
 44
1.0
  0
POINT
  5
6920
330
68B8
100
AcDbEntity
  8
DEFPOINTS
 62
     0
100
AcDbPoint
 10
219.9136624384991
 20
1088.729558862325
 30
0.0
  0
POINT
  5
6921
330
68B8
100
AcDbEntity
  8
DEFPOINTS
 62
     0
100
AcDbPoint
 10
217.6636624384998
 20
1088.771398801025
 30
0.0
  0
POINT
  5
6922
330
68B8
100
AcDbEntity
  8
DEFPOINTS
 62
     0
100
AcDbPoint
 10
217.6636624384998
 20
1095.138182062031
 30
0.0
  0
ENDBLK
  5
68C4
330
68B8
100
AcDbEntity
  8
0
 62
     7
100
AcDbBlockEnd
  0
BLOCK
  5
6A5C
330
6A51
100
AcDbEntity
  8
0
 62
     7
100
AcDbBlockBegin
  2
*D13
 70
     1
 10
0.0
 20
0.0
 30
0.0
  3
*D13
  1

  0
LINE
  5
6A5E
330
6A51
100
AcDbEntity
  8
0
 62
     0
370
    -2
100
AcDbLine
 10
71.31494304590098
 20
1006.698308862326
 30
0.0
 11
71.31494304590098
 21
1031.160141943184
 31
0.0
  0
LINE
  5
6A5F
330
6A51
100
AcDbEntity
  8
0
 62
     0
370
    -2
100
AcDbLine
 10
81.51746821461875
 20
1015.260808862326
 30
0.0
 11
81.51746821461875
 21
1031.160141943184
 31
0.0
  0
LINE
  5
6A60
330
6A51
100
AcDbEntity
  8
0
 62
     0
370
    -2
100
AcDbLine
 10
73.56494304590097
 20
1028.910141943184
 30
0.0
 11
79.26746821461875
 21
1028.910141943184
 31
0.0
  0
LINE
  5
6A61
330
6A51
100
AcDbEntity
  8
0
 62
     0
370
    -2
100
AcDbLine
 10
81.51746821461875
 20
1028.910141943184
 30
0.0
 11
83.76746821461876
 21
1028.910141943184
 31
0.0
  0
SOLID
  5
6A62
330
6A51
100
AcDbEntity
  8
0
 62
     0
100
AcDbTrace
 10
73.56494304590097
 20
1029.285141943184
 30
0.0
 11
73.56494304590097
 21
1028.535141943184
 31
0.0
 12
71.31494304590098
 22
1028.910141943184
 32
0.0
 13
71.31494304590098
 23
1028.910141943184
 33
0.0
  0
SOLID
  5
6A63
330
6A51
100
AcDbEntity
  8
0
 62
     0
100
AcDbTrace
 10
79.26746821461875
 20
1029.285141943184
 30
0.0
 11
79.26746821461875
 21
1028.535141943184
 31
0.0
 12
81.51746821461875
 22
1028.910141943184
 32
0.0
 13
81.51746821461875
 23
1028.910141943184
 33
0.0
  0
MTEXT
  5
6A64
330
6A51
100
AcDbEntity
  8
0
 62
     0
100
AcDbMText
 10
90.78532535747589
 20
1028.910141943184
 30
0.0
 40
2.25
 41
0.0
 46
0.0
 71
     5
 72
     1
  1
\A1;9-1/2"\PMIN.
  7
ROMANS
 73
     1
 44
1.0
  0
POINT
  5
6A65
330
6A51
100
AcDbEntity
  8
DEFPOINTS
 62
     0
100
AcDbPoint
 10
71.31494304590098
 20
1005.948308862326
 30
0.0
  0
POINT
  5
6A66
330
6A51
100
AcDbEntity
  8
DEFPOINTS
 62
     0
100
AcDbPoint
 10
81.51746821461875
 20
1014.510808862326
 30
0.0
  0
POINT
  5
6A67
330
6A51
100
AcDbEntity
  8
DEFPOINTS
 62
     0
100
AcDbPoint
 10
81.51746821461875
 20
1028.910141943184
 30
0.0
  0
ENDBLK
  5
6A5D
330
6A51
100
AcDbEntity
  8
0
 62
     7
100
AcDbBlockEnd
  0
BLOCK
  5
6ADF
330
6AD4
100
AcDbEntity
  8
0
 62
     7
100
AcDbBlockBegin
  2
*D14
 70
     1
 10
0.0
 20
0.0
 30
0.0
  3
*D14
  1

  0
LINE
  5
6AE1
330
6AD4
100
AcDbEntity
  8
0
 62
     0
370
    -2
100
AcDbLine
 10
30.44432572016108
 20
1006.397520080673
 30
0.0
 11
30.44432572016108
 21
1011.544361903652
 31
0.0
  0
LINE
  5
6AE2
330
6AD4
100
AcDbEntity
  8
0
 62
     0
370
    -2
100
AcDbLine
 10
18.41840039776877
 20
1004.635808862326
 30
0.0
 11
18.41840039776877
 21
1011.544361903652
 31
0.0
  0
LINE
  5
6AE3
330
6AD4
100
AcDbEntity
  8
0
 62
     0
370
    -2
100
AcDbLine
 10
32.69432572016107
 20
1009.294361903652
 30
0.0
 11
34.94432572016108
 21
1009.294361903652
 31
0.0
  0
LINE
  5
6AE4
330
6AD4
100
AcDbEntity
  8
0
 62
     0
370
    -2
100
AcDbLine
 10
16.16840039776877
 20
1009.294361903652
 30
0.0
 11
13.91840039776877
 21
1009.294361903652
 31
0.0
  0
SOLID
  5
6AE5
330
6AD4
100
AcDbEntity
  8
0
 62
     0
100
AcDbTrace
 10
32.69432572016107
 20
1009.669361903652
 30
0.0
 11
32.69432572016107
 21
1008.919361903652
 31
0.0
 12
30.44432572016108
 22
1009.294361903652
 32
0.0
 13
30.44432572016108
 23
1009.294361903652
 33
0.0
  0
SOLID
  5
6AE6
330
6AD4
100
AcDbEntity
  8
0
 62
     0
100
AcDbTrace
 10
16.16840039776877
 20
1009.669361903652
 30
0.0
 11
16.16840039776877
 21
1008.919361903652
 31
0.0
 12
18.41840039776877
 22
1009.294361903652
 32
0.0
 13
18.41840039776877
 23
1009.294361903652
 33
0.0
  0
MTEXT
  5
6AE7
330
6AD4
100
AcDbEntity
  8
0
 62
     0
100
AcDbMText
 10
24.43136305896493
 20
1009.294361903652
 30
0.0
 40
2.25
 41
0.0
 46
0.0
 71
     5
 72
     1
  1
\A1;1'-0"
  7
ROMANS
 73
     1
 44
1.0
  0
POINT
  5
6AE8
330
6AD4
100
AcDbEntity
  8
DEFPOINTS
 62
     0
100
AcDbPoint
 10
30.44432572016108
 20
1005.647520080673
 30
0.0
  0
POINT
  5
6AE9
330
6AD4
100
AcDbEntity
  8
DEFPOINTS
 62
     0
100
AcDbPoint
 10
18.41840039776877
 20
1003.885808862326
 30
0.0
  0
POINT
  5
6AEA
330
6AD4
100
AcDbEntity
  8
DEFPOINTS
 62
     0
100
AcDbPoint
 10
18.41840039776877
 20
1009.294361903652
 30
0.0
  0
ENDBLK
  5
6AE0
330
6AD4
100
AcDbEntity
  8
0
 62
     7
100
AcDbBlockEnd
  0
BLOCK
  5
6AF7
330
6AEC
100
AcDbEntity
  8
0
 62
     7
100
AcDbBlockBegin
  2
*D15
 70
     1
 10
0.0
 20
0.0
 30
0.0
  3
*D15
  1

  0
LINE
  5
6AED
330
6AEC
100
AcDbEntity
  8
0
 62
     0
370
    -2
100
AcDbLine
 10
19.35590039776871
 20
993.5733088623264
 30
0.0
 11
10.82596309467567
 21
993.5733088623264
 31
0.0
  0
LINE
  5
6AEE
330
6AEC
100
AcDbEntity
  8
0
 62
     0
370
    -2
100
AcDbLine
 10
19.35590039776871
 20
1005.573308862326
 30
0.0
 11
10.82596309467567
 21
1005.573308862326
 31
0.0
  0
LINE
  5
6AEF
330
6AEC
100
AcDbEntity
  8
0
 62
     0
370
    -2
100
AcDbLine
 10
13.07596309467567
 20
995.8233088623263
 30
0.0
 11
13.07596309467567
 21
997.4840231480406
 31
0.0
  0
LINE
  5
6AF0
330
6AEC
100
AcDbEntity
  8
0
 62
     0
370
    -2
100
AcDbLine
 10
13.07596309467567
 20
1003.323308862326
 30
0.0
 11
13.07596309467567
 21
1001.662594576612
 31
0.0
  0
SOLID
  5
6AF1
330
6AEC
100
AcDbEntity
  8
0
 62
     0
100
AcDbTrace
 10
12.70096309467567
 20
995.8233088623263
 30
0.0
 11
13.45096309467567
 21
995.8233088623263
 31
0.0
 12
13.07596309467567
 22
993.5733088623264
 32
0.0
 13
13.07596309467567
 23
993.5733088623264
 33
0.0
  0
SOLID
  5
6AF2
330
6AEC
100
AcDbEntity
  8
0
 62
     0
100
AcDbTrace
 10
12.70096309467567
 20
1003.323308862326
 30
0.0
 11
13.45096309467567
 21
1003.323308862326
 31
0.0
 12
13.07596309467567
 22
1005.573308862326
 32
0.0
 13
13.07596309467567
 23
1005.573308862326
 33
0.0
  0
MTEXT
  5
6AF3
330
6AEC
100
AcDbEntity
  8
0
 62
     0
100
AcDbMText
 10
13.07596309467551
 20
999.5733088623264
 30
0.0
 40
2.25
 41
0.0
 46
0.0
 71
     5
 72
     1
  1
\A1;1'-0"
  7
ROMANS
 73
     1
 44
1.0
  0
POINT
  5
6AF4
330
6AEC
100
AcDbEntity
  8
DEFPOINTS
 62
     0
100
AcDbPoint
 10
20.10590039776872
 20
993.5733088623264
 30
0.0
  0
POINT
  5
6AF5
330
6AEC
100
AcDbEntity
  8
DEFPOINTS
 62
     0
100
AcDbPoint
 10
20.10590039776872
 20
1005.573308862326
 30
0.0
  0
POINT
  5
6AF6
330
6AEC
100
AcDbEntity
  8
DEFPOINTS
 62
     0
100
AcDbPoint
 10
13.07596309467567
 20
1005.573308862326
 30
0.0
  0
ENDBLK
  5
6AF8
330
6AEC
100
AcDbEntity
  8
0
 62
     7
100
AcDbBlockEnd
  0
BLOCK
  5
6B05
330
6AFA
100
AcDbEntity
  8
0
 62
     7
100
AcDbBlockBegin
  2
*D16
 70
     1
 10
0.0
 20
0.0
 30
0.0
  3
*D16
  1

  0
LINE
  5
6AFB
330
6AFA
100
AcDbEntity
  8
0
 62
     0
370
    -2
100
AcDbLine
 10
35.42009230553305
 20
971.5733088623261
 30
0.0
 11
3.591237820769715
 21
971.5733088623261
 31
0.0
  0
LINE
  5
6AFC
330
6AFA
100
AcDbEntity
  8
0
 62
     0
370
    -2
100
AcDbLine
 10
19.35590039776877
 20
1005.573308862326
 30
0.0
 11
3.591237820769723
 21
1005.573308862326
 31
0.0
  0
LINE
  5
6AFD
330
6AFA
100
AcDbEntity
  8
0
 62
     0
370
    -2
100
AcDbLine
 10
5.841237820769714
 20
973.823308862326
 30
0.0
 11
5.841237820769718
 21
986.4840231480405
 31
0.0
  0
LINE
  5
6AFE
330
6AFA
100
AcDbEntity
  8
0
 62
     0
370
    -2
100
AcDbLine
 10
5.841237820769721
 20
1003.323308862326
 30
0.0
 11
5.841237820769719
 21
990.6625945766119
 31
0.0
  0
SOLID
  5
6AFF
330
6AFA
100
AcDbEntity
  8
0
 62
     0
100
AcDbTrace
 10
5.466237820769714
 20
973.823308862326
 30
0.0
 11
6.216237820769714
 21
973.823308862326
 31
0.0
 12
5.841237820769714
 22
971.5733088623261
 32
0.0
 13
5.841237820769714
 23
971.5733088623261
 33
0.0
  0
SOLID
  5
6B00
330
6AFA
100
AcDbEntity
  8
0
 62
     0
100
AcDbTrace
 10
5.466237820769721
 20
1003.323308862326
 30
0.0
 11
6.216237820769721
 21
1003.323308862326
 31
0.0
 12
5.841237820769721
 22
1005.573308862326
 32
0.0
 13
5.841237820769721
 23
1005.573308862326
 33
0.0
  0
MTEXT
  5
6B01
330
6AFA
100
AcDbEntity
  8
0
 62
     0
100
AcDbMText
 10
5.841237820769559
 20
988.5733088623263
 30
0.0
 40
2.25
 41
0.0
 46
0.0
 71
     5
 72
     1
  1
\A1;2'-10"
  7
ROMANS
 73
     1
 44
1.0
  0
POINT
  5
6B02
330
6AFA
100
AcDbEntity
  8
DEFPOINTS
 62
     0
100
AcDbPoint
 10
36.17009230553305
 20
971.5733088623261
 30
0.0
  0
POINT
  5
6B03
330
6AFA
100
AcDbEntity
  8
DEFPOINTS
 62
     0
100
AcDbPoint
 10
20.10590039776877
 20
1005.573308862326
 30
0.0
  0
POINT
  5
6B04
330
6AFA
100
AcDbEntity
  8
DEFPOINTS
 62
     0
100
AcDbPoint
 10
5.841237820769721
 20
1005.573308862326
 30
0.0
  0
ENDBLK
  5
6B06
330
6AFA
100
AcDbEntity
  8
0
 62
     7
100
AcDbBlockEnd
  0
BLOCK
  5
6B13
330
6B08
100
AcDbEntity
  8
0
 62
     7
100
AcDbBlockBegin
  2
*D17
 70
     1
 10
0.0
 20
0.0
 30
0.0
  3
*D17
  1

  0
LINE
  5
6B09
330
6B08
100
AcDbEntity
  8
0
 62
     0
370
    -2
100
AcDbLine
 10
36.175511636346
 20
977.0868748962328
 30
0.0
 11
-4.128169928041419
 21
977.0868748962328
 31
0.0
  0
LINE
  5
6B0A
330
6B08
100
AcDbEntity
  8
0
 62
     0
370
    -2
100
AcDbLine
 10
36.175511636346
 20
1019.086874896233
 30
0.0
 11
-4.128169928041409
 21
1019.086874896233
 31
0.0
  0
LINE
  5
6B0B
330
6B08
100
AcDbEntity
  8
0
 62
     0
370
    -2
100
AcDbLine
 10
-1.878169928041421
 20
979.3368748962329
 30
0.0
 11
-1.878169928041417
 21
995.9975891819475
 31
0.0
  0
LINE
  5
6B0C
330
6B08
100
AcDbEntity
  8
0
 62
     0
370
    -2
100
AcDbLine
 10
-1.878169928041412
 20
1016.836874896233
 30
0.0
 11
-1.878169928041416
 21
1000.176160610519
 31
0.0
  0
SOLID
  5
6B0D
330
6B08
100
AcDbEntity
  8
0
 62
     0
100
AcDbTrace
 10
-2.253169928041421
 20
979.3368748962329
 30
0.0
 11
-1.503169928041421
 21
979.3368748962329
 31
0.0
 12
-1.878169928041421
 22
977.0868748962328
 32
0.0
 13
-1.878169928041421
 23
977.0868748962328
 33
0.0
  0
SOLID
  5
6B0E
330
6B08
100
AcDbEntity
  8
0
 62
     0
100
AcDbTrace
 10
-2.253169928041413
 20
1016.836874896233
 30
0.0
 11
-1.503169928041412
 21
1016.836874896233
 31
0.0
 12
-1.878169928041412
 22
1019.086874896233
 32
0.0
 13
-1.878169928041412
 23
1019.086874896233
 33
0.0
  0
MTEXT
  5
6B0F
330
6B08
100
AcDbEntity
  8
0
 62
     0
100
AcDbMText
 10
-1.878169928041577
 20
998.0868748962331
 30
0.0
 40
2.25
 41
0.0
 46
0.0
 71
     5
 72
     1
  1
\A1;3'-6"
  7
ROMANS
 73
     1
 44
1.0
  0
POINT
  5
6B10
330
6B08
100
AcDbEntity
  8
DEFPOINTS
 62
     0
100
AcDbPoint
 10
36.925511636346
 20
977.0868748962328
 30
0.0
  0
POINT
  5
6B11
330
6B08
100
AcDbEntity
  8
DEFPOINTS
 62
     0
100
AcDbPoint
 10
36.925511636346
 20
1019.086874896233
 30
0.0
  0
POINT
  5
6B12
330
6B08
100
AcDbEntity
  8
DEFPOINTS
 62
     0
100
AcDbPoint
 10
-1.878169928041412
 20
1019.086874896233
 30
0.0
  0
ENDBLK
  5
6B14
330
6B08
100
AcDbEntity
  8
0
 62
     7
100
AcDbBlockEnd
  0
BLOCK
  5
6B50
330
6B45
100
AcDbEntity
  8
0
 62
     7
100
AcDbBlockBegin
  2
*D18
 70
     1
 10
0.0
 20
0.0
 30
0.0
  3
*D18
  1

  0
LINE
  5
6B52
330
6B45
100
AcDbEntity
  8
0
 62
     0
370
    -2
100
AcDbLine
 10
221.6011624384996
 20
1077.420243592246
 30
0.0
 11
221.6011624384996
 21
1075.377424077015
 31
0.0
  0
LINE
  5
6B53
330
6B45
100
AcDbEntity
  8
0
 62
     0
370
    -2
100
AcDbLine
 10
253.7886624385003
 20
1077.420243592246
 30
0.0
 11
253.7886624385003
 21
1075.377424077015
 31
0.0
  0
LINE
  5
6B54
330
6B45
100
AcDbEntity
  8
0
 62
     0
370
    -2
100
AcDbLine
 10
223.8511624384996
 20
1077.627424077016
 30
0.0
 11
229.8734838670713
 21
1077.627424077016
 31
0.0
  0
LINE
  5
6B55
330
6B45
100
AcDbEntity
  8
0
 62
     0
370
    -2
100
AcDbLine
 10
251.5386624385003
 20
1077.627424077016
 30
0.0
 11
245.5163410099285
 21
1077.627424077016
 31
0.0
  0
SOLID
  5
6B56
330
6B45
100
AcDbEntity
  8
0
 62
     0
100
AcDbTrace
 10
223.8511624384996
 20
1078.002424077016
 30
0.0
 11
223.8511624384996
 21
1077.252424077016
 31
0.0
 12
221.6011624384996
 22
1077.627424077016
 32
0.0
 13
221.6011624384996
 23
1077.627424077016
 33
0.0
  0
SOLID
  5
6B57
330
6B45
100
AcDbEntity
  8
0
 62
     0
100
AcDbTrace
 10
251.5386624385003
 20
1078.002424077016
 30
0.0
 11
251.5386624385003
 21
1077.252424077016
 31
0.0
 12
253.7886624385003
 22
1077.627424077016
 32
0.0
 13
253.7886624385003
 23
1077.627424077016
 33
0.0
  0
MTEXT
  5
6B58
330
6B45
100
AcDbEntity
  8
0
 62
     0
100
AcDbMText
 10
237.6949124384999
 20
1077.627424077016
 30
0.0
 40
2.25
 41
0.0
 46
0.0
 71
     5
 72
     1
  1
\A1;22" MIN.
  7
ROMANS
 73
     1
 44
1.0
  0
POINT
  5
6B59
330
6B45
100
AcDbEntity
  8
DEFPOINTS
 62
     0
100
AcDbPoint
 10
221.6011624384996
 20
1078.170243592246
 30
0.0
  0
POINT
  5
6B5A
330
6B45
100
AcDbEntity
  8
DEFPOINTS
 62
     0
100
AcDbPoint
 10
253.7886624385003
 20
1078.170243592246
 30
0.0
  0
POINT
  5
6B5B
330
6B45
100
AcDbEntity
  8
DEFPOINTS
 62
     0
100
AcDbPoint
 10
253.7886624385003
 20
1077.627424077016
 30
0.0
  0
ENDBLK
  5
6B51
330
6B45
100
AcDbEntity
  8
0
 62
     7
100
AcDbBlockEnd
  0
BLOCK
  5
6BCF
330
6BC4
100
AcDbEntity
  8
0
 62
     7
100
AcDbBlockBegin
  2
*D19
 70
     1
 10
0.0
 20
0.0
 30
0.0
  3
*D19
  1

  0
LINE
  5
6BC5
330
6BC4
100
AcDbEntity
  8
0
 62
     0
370
    -2
100
AcDbLine
 10
29.76986753975092
 20
1005.710918780459
 30
0.0
 11
21.62821617790769
 21
1005.710918780459
 31
0.0
  0
LINE
  5
6BC6
330
6BC4
100
AcDbEntity
  8
0
 62
     0
370
    -2
100
AcDbLine
 10
29.76986753975092
 20
993.7109187804594
 30
0.0
 11
21.62821617790768
 21
993.7109187804594
 31
0.0
  0
LINE
  5
6BC7
330
6BC4
100
AcDbEntity
  8
0
 62
     0
370
    -2
100
AcDbLine
 10
23.87821617790769
 20
1003.460918780459
 30
0.0
 11
23.87821617790769
 21
1001.800204494745
 31
0.0
  0
LINE
  5
6BC8
330
6BC4
100
AcDbEntity
  8
0
 62
     0
370
    -2
100
AcDbLine
 10
23.87821617790768
 20
995.9609187804595
 30
0.0
 11
23.87821617790768
 21
997.6216330661738
 31
0.0
  0
SOLID
  5
6BC9
330
6BC4
100
AcDbEntity
  8
0
 62
     0
100
AcDbTrace
 10
23.50321617790769
 20
1003.460918780459
 30
0.0
 11
24.25321617790769
 21
1003.460918780459
 31
0.0
 12
23.87821617790769
 22
1005.710918780459
 32
0.0
 13
23.87821617790769
 23
1005.710918780459
 33
0.0
  0
SOLID
  5
6BCA
330
6BC4
100
AcDbEntity
  8
0
 62
     0
100
AcDbTrace
 10
23.50321617790768
 20
995.9609187804595
 30
0.0
 11
24.25321617790769
 21
995.9609187804595
 31
0.0
 12
23.87821617790768
 22
993.7109187804594
 32
0.0
 13
23.87821617790768
 23
993.7109187804594
 33
0.0
  0
MTEXT
  5
6BCB
330
6BC4
100
AcDbEntity
  8
0
 62
     0
100
AcDbMText
 10
23.87821617790752
 20
999.7109187804595
 30
0.0
 40
2.25
 41
0.0
 46
0.0
 71
     5
 72
     1
  1
\A1;1'-0"
  7
ROMANS
 73
     1
 44
1.0
  0
POINT
  5
6BCC
330
6BC4
100
AcDbEntity
  8
DEFPOINTS
 62
     0
100
AcDbPoint
 10
30.51986753975092
 20
1005.710918780459
 30
0.0
  0
POINT
  5
6BCD
330
6BC4
100
AcDbEntity
  8
DEFPOINTS
 62
     0
100
AcDbPoint
 10
30.51986753975092
 20
993.7109187804594
 30
0.0
  0
POINT
  5
6BCE
330
6BC4
100
AcDbEntity
  8
DEFPOINTS
 62
     0
100
AcDbPoint
 10
23.87821617790768
 20
993.7109187804594
 30
0.0
  0
ENDBLK
  5
6BD0
330
6BC4
100
AcDbEntity
  8
0
 62
     7
100
AcDbBlockEnd
  0
BLOCK
  5
6BDD
330
6BD2
100
AcDbEntity
  8
0
 62
     7
100
AcDbBlockBegin
  2
*D20
 70
     1
 10
0.0
 20
0.0
 30
0.0
  3
*D20
  1

  0
LINE
  5
6BD3
330
6BD2
100
AcDbEntity
  8
0
 62
     0
370
    -2
100
AcDbLine
 10
39.957367539752
 20
980.2608088623264
 30
0.0
 11
10.14854100379466
 21
980.2608088623264
 31
0.0
  0
LINE
  5
6BD4
330
6BD2
100
AcDbEntity
  8
0
 62
     0
370
    -2
100
AcDbLine
 10
39.95736753975092
 20
1014.260808862325
 30
0.0
 11
10.14854100379467
 21
1014.260808862325
 31
0.0
  0
LINE
  5
6BD5
330
6BD2
100
AcDbEntity
  8
0
 62
     0
370
    -2
100
AcDbLine
 10
12.39854100379466
 20
982.5108088623265
 30
0.0
 11
12.39854100379466
 21
995.1715231480404
 31
0.0
  0
LINE
  5
6BD6
330
6BD2
100
AcDbEntity
  8
0
 62
     0
370
    -2
100
AcDbLine
 10
12.39854100379466
 20
1012.010808862325
 30
0.0
 11
12.39854100379466
 21
999.3500945766117
 31
0.0
  0
SOLID
  5
6BD7
330
6BD2
100
AcDbEntity
  8
0
 62
     0
100
AcDbTrace
 10
12.02354100379466
 20
982.5108088623265
 30
0.0
 11
12.77354100379466
 21
982.5108088623265
 31
0.0
 12
12.39854100379466
 22
980.2608088623264
 32
0.0
 13
12.39854100379466
 23
980.2608088623264
 33
0.0
  0
SOLID
  5
6BD8
330
6BD2
100
AcDbEntity
  8
0
 62
     0
100
AcDbTrace
 10
12.02354100379466
 20
1012.010808862325
 30
0.0
 11
12.77354100379466
 21
1012.010808862325
 31
0.0
 12
12.39854100379466
 22
1014.260808862325
 32
0.0
 13
12.39854100379466
 23
1014.260808862325
 33
0.0
  0
MTEXT
  5
6BD9
330
6BD2
100
AcDbEntity
  8
0
 62
     0
100
AcDbMText
 10
12.3985410037945
 20
997.260808862326
 30
0.0
 40
2.25
 41
0.0
 46
0.0
 71
     5
 72
     1
  1
\A1;2'-10"
  7
ROMANS
 73
     1
 44
1.0
  0
POINT
  5
6BDA
330
6BD2
100
AcDbEntity
  8
DEFPOINTS
 62
     0
100
AcDbPoint
 10
40.70736753975199
 20
980.2608088623264
 30
0.0
  0
POINT
  5
6BDB
330
6BD2
100
AcDbEntity
  8
DEFPOINTS
 62
     0
100
AcDbPoint
 10
40.70736753975092
 20
1014.260808862325
 30
0.0
  0
POINT
  5
6BDC
330
6BD2
100
AcDbEntity
  8
DEFPOINTS
 62
     0
100
AcDbPoint
 10
12.39854100379466
 20
1014.260808862325
 30
0.0
  0
ENDBLK
  5
6BDE
330
6BD2
100
AcDbEntity
  8
0
 62
     7
100
AcDbBlockEnd
  0
BLOCK
  5
6BEB
330
6BE0
100
AcDbEntity
  8
0
 62
     7
100
AcDbBlockBegin
  2
*D21
 70
     1
 10
0.0
 20
0.0
 30
0.0
  3
*D21
  1

  0
LINE
  5
6BE1
330
6BE0
100
AcDbEntity
  8
0
 62
     0
370
    -2
100
AcDbLine
 10
39.957367539752
 20
980.2608088623264
 30
0.0
 11
-1.729137696798946
 21
980.2608088623264
 31
0.0
  0
LINE
  5
6BE2
330
6BE0
100
AcDbEntity
  8
0
 62
     0
370
    -2
100
AcDbLine
 10
39.95736753975092
 20
1022.260808862325
 30
0.0
 11
-1.729137696798936
 21
1022.260808862325
 31
0.0
  0
LINE
  5
6BE3
330
6BE0
100
AcDbEntity
  8
0
 62
     0
370
    -2
100
AcDbLine
 10
0.5208623032010542
 20
982.5108088623265
 30
0.0
 11
0.5208623032010579
 21
999.1715231480402
 31
0.0
  0
LINE
  5
6BE4
330
6BE0
100
AcDbEntity
  8
0
 62
     0
370
    -2
100
AcDbLine
 10
0.5208623032010626
 20
1020.010808862325
 30
0.0
 11
0.5208623032010589
 21
1003.350094576611
 31
0.0
  0
SOLID
  5
6BE5
330
6BE0
100
AcDbEntity
  8
0
 62
     0
100
AcDbTrace
 10
0.1458623032010542
 20
982.5108088623265
 30
0.0
 11
0.8958623032010542
 21
982.5108088623265
 31
0.0
 12
0.5208623032010538
 22
980.2608088623264
 32
0.0
 13
0.5208623032010538
 23
980.2608088623264
 33
0.0
  0
SOLID
  5
6BE6
330
6BE0
100
AcDbEntity
  8
0
 62
     0
100
AcDbTrace
 10
0.1458623032010625
 20
1020.010808862325
 30
0.0
 11
0.8958623032010624
 21
1020.010808862325
 31
0.0
 12
0.5208623032010631
 22
1022.260808862325
 32
0.0
 13
0.5208623032010631
 23
1022.260808862325
 33
0.0
  0
MTEXT
  5
6BE7
330
6BE0
100
AcDbEntity
  8
0
 62
     0
100
AcDbMText
 10
0.5208623032008974
 20
1001.260808862326
 30
0.0
 40
2.25
 41
0.0
 46
0.0
 71
     5
 72
     1
  1
\A1;3'-6"
  7
ROMANS
 73
     1
 44
1.0
  0
POINT
  5
6BE8
330
6BE0
100
AcDbEntity
  8
DEFPOINTS
 62
     0
100
AcDbPoint
 10
40.70736753975199
 20
980.2608088623264
 30
0.0
  0
POINT
  5
6BE9
330
6BE0
100
AcDbEntity
  8
DEFPOINTS
 62
     0
100
AcDbPoint
 10
40.70736753975092
 20
1022.260808862325
 30
0.0
  0
POINT
  5
6BEA
330
6BE0
100
AcDbEntity
  8
DEFPOINTS
 62
     0
100
AcDbPoint
 10
0.5208623032010631
 20
1022.260808862325
 30
0.0
  0
ENDBLK
  5
6BEC
330
6BE0
100
AcDbEntity
  8
0
 62
     7
100
AcDbBlockEnd
  0
BLOCK
  5
6BFD
330
6BF2
100
AcDbEntity
  8
0
 62
     7
100
AcDbBlockBegin
  2
*D22
 70
     1
 10
0.0
 20
0.0
 30
0.0
  3
*D22
  1

  0
LINE
  5
6BFF
330
6BF2
100
AcDbEntity
  8
0
 62
     0
370
    -2
100
AcDbLine
 10
40.70736753975199
 20
977.2608088623256
 30
0.0
 11
40.70736753975199
 21
973.0282180167666
 31
0.0
  0
LINE
  5
6C00
330
6BF2
100
AcDbEntity
  8
0
 62
     0
370
    -2
100
AcDbLine
 10
30.51986753975092
 20
992.9609187804594
 30
0.0
 11
30.51986753975092
 21
973.0282180167666
 31
0.0
  0
LINE
  5
6C01
330
6BF2
100
AcDbEntity
  8
0
 62
     0
370
    -2
100
AcDbLine
 10
38.457367539752
 20
975.2782180167665
 30
0.0
 11
32.76986753975092
 21
975.2782180167665
 31
0.0
  0
LINE
  5
6C02
330
6BF2
100
AcDbEntity
  8
0
 62
     0
370
    -2
100
AcDbLine
 10
30.51986753975092
 20
975.2782180167665
 30
0.0
 11
28.26986753975092
 21
975.2782180167665
 31
0.0
  0
SOLID
  5
6C03
330
6BF2
100
AcDbEntity
  8
0
 62
     0
100
AcDbTrace
 10
38.457367539752
 20
975.6532180167665
 30
0.0
 11
38.457367539752
 21
974.9032180167665
 31
0.0
 12
40.70736753975199
 22
975.2782180167665
 32
0.0
 13
40.70736753975199
 23
975.2782180167665
 33
0.0
  0
SOLID
  5
6C04
330
6BF2
100
AcDbEntity
  8
0
 62
     0
100
AcDbTrace
 10
32.76986753975092
 20
975.6532180167665
 30
0.0
 11
32.76986753975092
 21
974.9032180167665
 31
0.0
 12
30.51986753975092
 22
975.2782180167665
 32
0.0
 13
30.51986753975092
 23
975.2782180167665
 33
0.0
  0
MTEXT
  5
6C05
330
6BF2
100
AcDbEntity
  8
0
 62
     0
100
AcDbMText
 10
16.26986753975091
 20
975.2782180167665
 30
0.0
 40
2.25
 41
0.0
 46
0.0
 71
     5
 72
     1
  1
\A1;TREAD DEPTH
  7
ROMANS
 73
     1
 44
1.0
  0
POINT
  5
6C06
330
6BF2
100
AcDbEntity
  8
DEFPOINTS
 62
     0
100
AcDbPoint
 10
40.70736753975199
 20
978.0108088623256
 30
0.0
  0
POINT
  5
6C07
330
6BF2
100
AcDbEntity
  8
DEFPOINTS
 62
     0
100
AcDbPoint
 10
30.51986753975092
 20
993.7109187804592
 30
0.0
  0
POINT
  5
6C08
330
6BF2
100
AcDbEntity
  8
DEFPOINTS
 62
     0
100
AcDbPoint
 10
30.51986753975092
 20
975.2782180167665
 30
0.0
  0
ENDBLK
  5
6BFE
330
6BF2
100
AcDbEntity
  8
0
 62
     7
100
AcDbBlockEnd
  0
ENDSEC
  0
SECTION
  2
ENTITIES
  0
INSERT
  5
731
330
18
100
AcDbEntity
  8
0
100
AcDbBlockReference
  2
LINETYPE
 10
1755.465720098802
 20
319.6312055368388
 30
0.0
  0
INSERT
  5
739
330
18
100
AcDbEntity
  8
0
100
AcDbBlockReference
  2
LINETYPE
 10
1580.831671270289
 20
258.5738563159389
 30
0.0
  0
LINE
  5
7F9
330
18
100
AcDbEntity
  8
0
100
AcDbLine
 10
173.3401947330678
 20
1091.573308862325
 30
0.0
 11
36.17009230553316
 21
976.4528869458853
 31
0.0
  0
INSERT
  5
87C
330
18
100
AcDbEntity
  8
0
100
AcDbBlockReference
  2
LINETYPE
 10
3335.985291857908
 20
1226.649039023404
 30
0.0
  0
INSERT
  5
87D
330
18
100
AcDbEntity
  8
0
100
AcDbBlockReference
  2
LINETYPE
 10
3161.351243029394
 20
1165.591689802504
 30
0.0
  0
INSERT
  5
8CE
330
18
100
AcDbEntity
  8
0
100
AcDbBlockReference
  2
LINETYPE
 10
3030.127795686781
 20
1132.026704061406
 30
0.0
  0
INSERT
  5
8CF
330
18
100
AcDbEntity
  8
0
100
AcDbBlockReference
  2
LINETYPE
 10
2855.493746858268
 20
1070.969354840506
 30
0.0
  0
INSERT
  5
9AA
330
18
100
AcDbEntity
  8
0
100
AcDbBlockReference
  2
LINETYPE
 10
3452.502434436856
 20
1190.255832572662
 30
0.0
  0
INSERT
  5
9AB
330
18
100
AcDbEntity
  8
0
100
AcDbBlockReference
  2
LINETYPE
 10
3277.868385608343
 20
1129.198483351762
 30
0.0
  0
INSERT
  5
A3D
330
18
100
AcDbEntity
  8
0
100
AcDbBlockReference
  2
LINETYPE
 10
3270.44439946711
 20
1204.813115152959
 30
0.0
  0
INSERT
  5
A3E
330
18
100
AcDbEntity
  8
0
100
AcDbBlockReference
  2
LINETYPE
 10
3095.810350638597
 20
1143.755765932059
 30
0.0
  0
INSERT
  5
A57
330
18
100
AcDbEntity
  8
0
100
AcDbBlockReference
  2
LINETYPE
 10
3328.702970756584
 20
1117.469421481109
 30
0.0
  0
INSERT
  5
A58
330
18
100
AcDbEntity
  8
0
100
AcDbBlockReference
  2
LINETYPE
 10
3154.068921928071
 20
1056.412072260209
 30
0.0
  0
LINE
  5
C6A
330
18
100
AcDbEntity
  8
0
100
AcDbLine
 10
259.6949124385
 20
971.573308862326
 30
0.0
 11
257.4449124385
 21
971.573308862326
 31
0.0
  0
LINE
  5
C6C
330
18
100
AcDbEntity
  8
0
100
AcDbLine
 10
215.6949124384998
 20
1091.573308862326
 30
0.0
 11
215.6949124385
 21
971.5733088623258
 31
0.0
  0
LINE
  5
C6D
330
18
100
AcDbEntity
  8
0
100
AcDbLine
 10
217.9449124384998
 20
1091.573308862326
 30
0.0
 11
217.9449124384998
 21
1070.46974849969
 31
0.0
  0
LINE
  5
C6E
330
18
100
AcDbEntity
  8
0
100
AcDbLine
 10
257.4449124385
 20
1091.573308862326
 30
0.0
 11
257.4449124385
 21
1070.46974849969
 31
0.0
  0
LINE
  5
C76
330
18
100
AcDbEntity
  8
0
100
AcDbLine
 10
217.9449124385
 20
971.573308862326
 30
0.0
 11
215.6949124385
 21
971.573308862326
 31
0.0
  0
MTEXT
  5
D20
330
18
100
AcDbEntity
  8
0
 62
     5
100
AcDbMText
 10
8.011253675687839
 20
1120.075936755773
 30
0.0
 40
2.8125
 41
0.0
 46
0.0
 71
     6
 72
     5
  1
 
  7
ROMANS
 73
     1
 44
1.0
  0
TEXT
  5
FD5
330
18
100
AcDbEntity
  8
0
100
AcDbText
 10
23.74105125343104
 20
1051.766104684253
 30
0.0
 40
2.2565466
  1
ALUMINUM PIPE
  7
ROMANS
 72
     1
 11
36.95796705343104
 21
1051.766104684253
 31
0.0
100
AcDbText
  0
TEXT
  5
FD6
330
18
100
AcDbEntity
  8
0
100
AcDbText
 10
22.45159605343103
 20
1055.419561084253
 30
0.0
 40
2.2565466
  1
1-1/4" SCH 40
  7
ROMANS
 72
     1
 11
36.95796705343104
 21
1055.419561084253
 31
0.0
100
AcDbText
  0
TEXT
  5
FD7
330
18
100
AcDbEntity
  8
0
100
AcDbText
 10
27.82432605343104
 20
1044.459191884254
 30
0.0
 40
2.2565466
  1
(6005-T5)
  7
ROMANS
 72
     1
 11
36.95796705343104
 21
1044.459191884254
 31
0.0
100
AcDbText
  0
TEXT
  5
FD8
330
18
100
AcDbEntity
  8
0
100
AcDbText
 10
18.74441235343103
 20
1048.112648284253
 30
0.0
 40
2.2565466
  1
HANDRAIL/GUARDRAIL
  7
ROMANS
 72
     1
 11
36.95796705343104
 21
1048.112648284253
 31
0.0
100
AcDbText
  0
LINE
  5
FD9
330
18
100
AcDbEntity
  8
0
100
AcDbLine
 10
58.80293375697083
 20
1040.319440473456
 30
0.0
 11
51.94638668220999
 21
1045.326520427038
 31
0.0
  0
SOLID
  5
FDA
330
18
100
AcDbEntity
  8
0
100
AcDbTrace
 10
59.06488852258416
 20
1040.664370852514
 30
0.0
 11
58.54097899135727
 21
1039.974510094398
 31
0.0
 12
60.87251603132141
 22
1038.747711879776
 32
0.0
 13
60.87251603132141
 23
1038.747711879776
 33
0.0
  0
LINE
  5
FDB
330
18
100
AcDbEntity
  8
0
100
AcDbLine
 10
51.94638668220999
 20
1045.326520427038
 30
0.0
 11
46.84901258327822
 21
1045.326520427038
 31
0.0
  0
INSERT
  5
1052
330
18
100
AcDbEntity
  8
0
100
AcDbBlockReference
  2
LINETYPE
 10
707.4207238873416
 20
1171.184298484356
 30
0.0
  0
INSERT
  5
1053
330
18
100
AcDbEntity
  8
0
100
AcDbBlockReference
  2
LINETYPE
 10
1073.912317512891
 20
1161.109206428277
 30
0.0
  0
INSERT
  5
108A
330
18
100
AcDbEntity
  8
0
100
AcDbBlockReference
  2
LINETYPE
 10
1193.204674166987
 20
1215.797146101187
 30
0.0
  0
INSERT
  5
108B
330
18
100
AcDbEntity
  8
0
100
AcDbBlockReference
  2
LINETYPE
 10
1559.696267792537
 20
1205.722054045109
 30
0.0
  0
INSERT
  5
162A
330
18
100
AcDbEntity
  8
0
100
AcDbBlockReference
  2
LINETYPE
 10
757.2613386694179
 20
1372.951021811622
 30
0.0
  0
INSERT
  5
163B
330
18
100
AcDbEntity
  8
0
100
AcDbBlockReference
  2
LINETYPE
 10
1123.752932294967
 20
1362.875929755544
 30
0.0
  0
INSERT
  5
17F5
330
18
100
AcDbEntity
  8
0
100
AcDbBlockReference
  2
LINETYPE
 10
1243.045288949063
 20
1417.563869428454
 30
0.0
  0
INSERT
  5
17FB
330
18
100
AcDbEntity
  8
0
100
AcDbBlockReference
  2
LINETYPE
 10
1609.536882574612
 20
1407.488777372375
 30
0.0
  0
INSERT
  5
1AD1
330
18
100
AcDbEntity
  8
0
100
AcDbBlockReference
  2
LINETYPE
 10
726.9409203705532
 20
1310.206906098342
 30
0.0
  0
INSERT
  5
1AD2
330
18
100
AcDbEntity
  8
0
100
AcDbBlockReference
  2
LINETYPE
 10
1093.432513996103
 20
1300.131814042263
 30
0.0
  0
INSERT
  5
1AD3
330
18
100
AcDbEntity
  8
0
100
AcDbBlockReference
  2
LINETYPE
 10
1212.724870650198
 20
1354.819753715174
 30
0.0
  0
INSERT
  5
1AD4
330
18
100
AcDbEntity
  8
0
100
AcDbBlockReference
  2
LINETYPE
 10
1579.216464275748
 20
1344.744661659095
 30
0.0
  0
INSERT
  5
1B1A
330
18
100
AcDbEntity
  8
0
100
AcDbBlockReference
  2
LINETYPE
 10
1096.103694165373
 20
1287.484861659437
 30
0.0
  0
INSERT
  5
1B1B
330
18
100
AcDbEntity
  8
0
100
AcDbBlockReference
  2
LINETYPE
 10
1215.006594584586
 20
1614.165547174558
 30
0.0
  0
INSERT
  5
1B1C
330
18
100
AcDbEntity
  8
0
100
AcDbBlockReference
  2
LINETYPE
 10
1581.498188210135
 20
1604.090455118479
 30
0.0
  0
LEADER
  5
1BBE
330
18
100
AcDbEntity
  8
0
100
AcDbLeader
  3
STANDARD
 73
     0
 40
2.25
 41
-0.6428571428571424
 76
     3
 10
127.6801556476506
 20
1042.848819402059
 30
0.0
 10
133.1005896285527
 20
1037.686342438096
 30
0.0
 10
136.2618082347049
 20
1037.686342438096
 30
0.0
211
-1.0
221
0.0
231
0.0
  0
TEXT
  5
1BC0
330
18
100
AcDbEntity
  8
0
100
AcDbText
 10
138.2152570514352
 20
1032.680217044245
 30
0.0
 40
2.2320522
  1
ALUMINUM CHANNEL
  7
ROMANS
100
AcDbText
  0
TEXT
  5
1BC1
330
18
100
AcDbEntity
  8
0
100
AcDbText
 10
137.5798577886378
 20
1036.814803624779
 30
0.0
 40
2.2320522
  1
8" x 2-1/4" x 1/4"
  7
ROMANS
100
AcDbText
  0
LINE
  5
1CEA
330
18
100
AcDbEntity
  8
0
100
AcDbLine
 10
36.17009230553315
 20
976.4528869458851
 30
0.0
 11
36.17009230553305
 21
971.5733088623261
 31
0.0
  0
LINE
  5
1D1B
330
18
100
AcDbEntity
  8
0
100
AcDbLine
 10
259.6949124385
 20
975.7950775546017
 30
0.0
 11
257.4449124385
 21
975.7950775546017
 31
0.0
  0
LINE
  5
1D1C
330
18
100
AcDbEntity
  8
0
100
AcDbLine
 10
217.9449124384997
 20
975.7950775546014
 30
0.0
 11
215.6949124384997
 21
975.7950775546014
 31
0.0
  0
LINE
  5
1D1D
330
18
100
AcDbEntity
  8
0
100
AcDbLine
 10
259.6949124385
 20
1091.573308862326
 30
0.0
 11
259.6949124385
 21
971.573308862326
 31
0.0
  0
LINE
  5
1D1E
330
18
100
AcDbEntity
  8
0
100
AcDbLine
 10
217.6949124385
 20
975.5450775546014
 30
0.0
 11
217.6949124385
 21
971.8233088623257
 31
0.0
  0
LINE
  5
1D1F
330
18
100
AcDbEntity
  8
0
100
AcDbLine
 10
217.6949124385
 20
975.5450775546014
 30
0.0
 11
215.6949124384997
 21
975.5450775546014
 31
0.0
  0
LINE
  5
1D20
330
18
100
AcDbEntity
  8
0
100
AcDbLine
 10
217.6949124385
 20
971.8233088623257
 30
0.0
 11
215.6949124385
 21
971.8233088623261
 31
0.0
  0
LINE
  5
1D21
330
18
100
AcDbEntity
  8
0
100
AcDbLine
 10
259.6949124385
 20
975.5450775546016
 30
0.0
 11
257.6949124385
 21
975.5450775546016
 31
0.0
  0
LINE
  5
1D22
330
18
100
AcDbEntity
  8
0
100
AcDbLine
 10
257.6949124384997
 20
975.5450775546016
 30
0.0
 11
257.6949124385
 21
971.8233088623261
 31
0.0
  0
LINE
  5
1D23
330
18
100
AcDbEntity
  8
0
100
AcDbLine
 10
259.6949124385
 20
971.8233088623261
 30
0.0
 11
257.6949124385
 21
971.8233088623261
 31
0.0
  0
INSERT
  5
210A
330
18
100
AcDbEntity
  8
0
100
AcDbBlockReference
  2
LINETYPE
 10
1159.671809081867
 20
1262.952798464323
 30
0.0
  0
INSERT
  5
210B
330
18
100
AcDbEntity
  8
0
100
AcDbBlockReference
  2
LINETYPE
 10
1526.163402707417
 20
1252.877706408245
 30
0.0
  0
INSERT
  5
2142
330
18
100
AcDbEntity
  8
0
100
AcDbBlockReference
  2
LINETYPE
 10
1645.455759361513
 20
1307.565646081155
 30
0.0
  0
INSERT
  5
2143
330
18
100
AcDbEntity
  8
0
100
AcDbBlockReference
  2
LINETYPE
 10
2011.947352987062
 20
1297.490554025076
 30
0.0
  0
LINE
  5
225B
330
18
100
AcDbEntity
  8
0
100
AcDbLine
 10
184.3401947330678
 20
971.573308862326
 30
0.0
 11
42.80035626758695
 21
971.573308862326
 31
0.0
  0
DIMENSION
  5
2368
330
18
100
AcDbEntity
  8
0
100
AcDbDimension
  2
*D1
 10
257.4449124385
 20
967.438970214239
 30
0.0
 11
237.6949124384999
 21
967.438970214239
 31
0.0
 70
    32
  1
CLEAR TREAD\P29-1/2"MIN\P55-1/2"MAX
 71
     5
 42
39.5
 73
     0
 74
     0
 75
     0
  3
STANDARD$0
100
AcDbAlignedDimension
 13
217.9449124385
 23
971.573308862326
 33
0.0
 14
257.4449124385
 24
971.5733088623258
 34
0.0
100
AcDbRotatedDimension
  0
TEXT
  5
2C6B
330
18
100
AcDbEntity
  8
0
100
AcDbText
 10
146.9050258420912
 20
1028.721635330715
 30
0.0
 40
2.2320522
  1
(TYPICAL)
  7
ROMANS
100
AcDbText
  0
INSERT
  5
30A8
330
18
100
AcDbEntity
  8
0
100
AcDbBlockReference
  2
LINETYPE
 10
353.6907942653397
 20
938.9188396915168
 30
0.0
  0
INSERT
  5
3584
330
18
100
AcDbEntity
  8
0
100
AcDbBlockReference
  2
LINETYPE
 10
580.5048466692899
 20
999.7249753139026
 30
0.0
  0
INSERT
  5
3590
330
18
100
AcDbEntity
  8
0
100
AcDbBlockReference
  2
LINETYPE
 10
946.9964402948395
 20
989.649883257824
 30
0.0
  0
INSERT
  5
3591
330
18
100
AcDbEntity
  8
0
100
AcDbBlockReference
  2
LINETYPE
 10
1066.288796948935
 20
1044.337822930734
 30
0.0
  0
INSERT
  5
3592
330
18
100
AcDbEntity
  8
0
100
AcDbBlockReference
  2
LINETYPE
 10
1432.780390574485
 20
1034.262730874655
 30
0.0
  0
INSERT
  5
359B
330
18
100
AcDbEntity
  8
0
100
AcDbBlockReference
  2
LINETYPE
 10
667.3663632275645
 20
1325.838801791054
 30
0.0
  0
INSERT
  5
359C
330
18
100
AcDbEntity
  8
0
100
AcDbBlockReference
  2
LINETYPE
 10
1033.857956853114
 20
1315.763709734975
 30
0.0
  0
INSERT
  5
359D
330
18
100
AcDbEntity
  8
0
100
AcDbBlockReference
  2
LINETYPE
 10
1153.15031350721
 20
1370.451649407885
 30
0.0
  0
INSERT
  5
359E
330
18
100
AcDbEntity
  8
0
100
AcDbBlockReference
  2
LINETYPE
 10
1519.64190713276
 20
1360.376557351807
 30
0.0
  0
INSERT
  5
3600
330
18
100
AcDbEntity
  8
0
100
AcDbBlockReference
  2
LINETYPE
 10
552.6865624342715
 20
975.5032583184439
 30
0.0
  0
LINE
  5
37DC
330
18
100
AcDbEntity
  8
0
100
AcDbLine
 10
173.3401947330678
 20
1091.573308862325
 30
0.0
 11
184.3401947330678
 21
1091.573308862325
 31
0.0
  0
DIMENSION
  5
389E
330
18
100
AcDbEntity
  8
0
100
AcDbDimension
  2
*D2
 10
184.3401947330678
 20
956.0992531694777
 30
0.0
 11
110.2551435193004
 21
956.0992531694777
 31
0.0
 70
    32
  1
AS REQ'D
 71
     5
 42
148.1701024275347
 73
     0
 74
     0
 75
     0
  3
STANDARD$0
100
AcDbAlignedDimension
 13
36.17009230553305
 23
971.5733088623268
 33
0.0
 14
184.3401947330678
 24
971.573308862326
 34
0.0
100
AcDbRotatedDimension
  0
INSERT
  5
3F3B
330
18
100
AcDbEntity
  8
0
100
AcDbBlockReference
  2
LINETYPE
 10
968.4915880401558
 20
1056.659252077015
 30
0.0
  0
INSERT
  5
3F3C
330
18
100
AcDbEntity
  8
0
100
AcDbBlockReference
  2
LINETYPE
 10
1334.983181665705
 20
1046.584160020937
 30
0.0
  0
INSERT
  5
3F73
330
18
100
AcDbEntity
  8
0
100
AcDbBlockReference
  2
LINETYPE
 10
1454.275538319801
 20
1101.272099693847
 30
0.0
  0
INSERT
  5
3F74
330
18
100
AcDbEntity
  8
0
100
AcDbBlockReference
  2
LINETYPE
 10
1820.767131945351
 20
1091.197007637768
 30
0.0
  0
LINE
  5
488D
330
18
100
AcDbEntity
  8
0
100
AcDbLine
 10
36.17009230553316
 20
971.5733088623261
 30
0.0
 11
42.80035626758712
 21
971.5733088623261
 31
0.0
  0
LINE
  5
488E
330
18
100
AcDbEntity
  8
0
100
AcDbLine
 10
36.17009230553305
 20
971.5733088623261
 30
0.0
 11
36.17009230553305
 21
976.452886945885
 31
0.0
  0
LINE
  5
48C4
330
18
100
AcDbEntity
  8
0
100
AcDbLine
 10
217.9449124384998
 20
1091.573308862328
 30
0.0
 11
215.6949124384998
 21
1091.573308862326
 31
0.0
  0
LINE
  5
48C8
330
18
100
AcDbEntity
  8
0
100
AcDbLine
 10
257.4449124385
 20
1091.573308862326
 30
0.0
 11
259.6949124385
 21
1091.573308862328
 31
0.0
  0
LINE
  5
49C2
330
18
100
AcDbEntity
  8
0
100
AcDbLine
 10
184.3401947330679
 20
1089.584860483014
 30
0.0
 11
184.3401947330678
 21
971.573308862326
 31
0.0
  0
DIMENSION
  5
4A2B
330
18
100
AcDbEntity
  8
0
100
AcDbDimension
  2
*D3
 10
215.6949124385
 20
956.0992531694777
 30
0.0
 11
237.6039176337017
 21
956.0992531694777
 31
0.0
 70
   160
  1
CLEAR TREAD + 4-1/2"
 71
     5
 42
44.0
 73
     0
 74
     0
 75
     0
  3
STANDARD$0
100
AcDbAlignedDimension
 13
259.6949124385
 23
971.573308862326
 33
0.0
 14
215.6949124385
 24
971.5733088623258
 34
0.0
100
AcDbRotatedDimension
1001
ACAD
1000
DSTYLE
1002
{
1070
   279
1070
     2
1002
}
  0
CIRCLE
  5
4A3E
330
18
100
AcDbEntity
  8
0
  6
PHANTOM
100
AcDbCircle
 10
138.0866832757502
 20
1056.134413992132
 30
0.0
 40
6.228796531046824
  0
CIRCLE
  5
4A3F
330
18
100
AcDbEntity
  8
0
100
AcDbCircle
 10
148.0149007064814
 20
1048.603670740463
 30
0.0
 40
2.384584713686682
  0
TEXT
  5
4A40
330
18
100
AcDbEntity
  8
0
100
AcDbText
 10
146.9138264606815
 20
1047.354334361231
 30
0.0
 40
2.566860029999999
  1
A
  7
ROMANS
100
AcDbText
  0
LINE
  5
4A41
330
18
100
AcDbEntity
  8
0
100
AcDbLine
 10
143.0493536769752
 20
1052.370133355146
 30
0.0
 11
146.1150300141504
 21
1050.044759082367
 31
0.0
  0
LINE
  5
4B76
330
18
100
AcDbEntity
  8
0
100
AcDbLine
 10
184.3401947330678
 20
1090.361044919744
 30
0.0
 11
42.80035626758683
 21
971.573308862326
 31
0.0
  0
LINE
  5
4B77
330
18
100
AcDbEntity
  8
0
100
AcDbLine
 10
184.3401947330678
 20
1090.687421391571
 30
0.0
 11
42.41146702165486
 21
971.5733088623261
 31
0.0
  0
LINE
  5
4B78
330
18
100
AcDbEntity
  8
0
100
AcDbLine
 10
173.7459679368477
 20
1091.58747877484
 30
0.0
 11
36.17009230553316
 21
976.1265104740584
 31
0.0
  0
INSERT
  5
52D2
330
18
100
AcDbEntity
  8
0
100
AcDbBlockReference
  2
LINETYPE
 10
2153.583350926369
 20
1336.90347466704
 30
0.0
  0
INSERT
  5
52D3
330
18
100
AcDbEntity
  8
0
100
AcDbBlockReference
  2
LINETYPE
 10
1978.949302097856
 20
1275.84612544614
 30
0.0
  0
INSERT
  5
52D5
330
18
100
AcDbEntity
  8
0
100
AcDbBlockReference
  2
LINETYPE
 10
3734.102922685475
 20
2243.921308153605
 30
0.0
  0
INSERT
  5
52D6
330
18
100
AcDbEntity
  8
0
100
AcDbBlockReference
  2
LINETYPE
 10
3559.468873856962
 20
2182.863958932705
 30
0.0
  0
INSERT
  5
52DA
330
18
100
AcDbEntity
  8
0
100
AcDbBlockReference
  2
LINETYPE
 10
3428.245426514348
 20
2149.298973191607
 30
0.0
  0
INSERT
  5
52DB
330
18
100
AcDbEntity
  8
0
100
AcDbBlockReference
  2
LINETYPE
 10
3253.611377685835
 20
2088.241623970708
 30
0.0
  0
INSERT
  5
52DC
330
18
100
AcDbEntity
  8
0
100
AcDbBlockReference
  2
LINETYPE
 10
3850.620065264423
 20
2207.528101702864
 30
0.0
  0
INSERT
  5
52DD
330
18
100
AcDbEntity
  8
0
100
AcDbBlockReference
  2
LINETYPE
 10
3675.98601643591
 20
2146.470752481964
 30
0.0
  0
INSERT
  5
52DE
330
18
100
AcDbEntity
  8
0
100
AcDbBlockReference
  2
LINETYPE
 10
3668.562030294677
 20
2222.08538428316
 30
0.0
  0
INSERT
  5
52DF
330
18
100
AcDbEntity
  8
0
100
AcDbBlockReference
  2
LINETYPE
 10
3493.927981466164
 20
2161.02803506226
 30
0.0
  0
INSERT
  5
52E0
330
18
100
AcDbEntity
  8
0
100
AcDbBlockReference
  2
LINETYPE
 10
3726.820601584151
 20
2134.74169061131
 30
0.0
  0
INSERT
  5
52E1
330
18
100
AcDbEntity
  8
0
100
AcDbBlockReference
  2
LINETYPE
 10
3552.186552755639
 20
2073.684341390411
 30
0.0
  0
INSERT
  5
52FB
330
18
100
AcDbEntity
  8
0
100
AcDbBlockReference
  2
LINETYPE
 10
1105.538354714909
 20
2188.456567614557
 30
0.0
  0
INSERT
  5
52FC
330
18
100
AcDbEntity
  8
0
100
AcDbBlockReference
  2
LINETYPE
 10
1472.029948340458
 20
2178.381475558479
 30
0.0
  0
INSERT
  5
52FD
330
18
100
AcDbEntity
  8
0
100
AcDbBlockReference
  2
LINETYPE
 10
1591.322304994554
 20
2233.069415231389
 30
0.0
  0
INSERT
  5
52FE
330
18
100
AcDbEntity
  8
0
100
AcDbBlockReference
  2
LINETYPE
 10
1957.813898620104
 20
2222.99432317531
 30
0.0
  0
INSERT
  5
52FF
330
18
100
AcDbEntity
  8
0
100
AcDbBlockReference
  2
LINETYPE
 10
1155.378969496985
 20
2390.223290941824
 30
0.0
  0
INSERT
  5
5300
330
18
100
AcDbEntity
  8
0
100
AcDbBlockReference
  2
LINETYPE
 10
1521.870563122535
 20
2380.148198885745
 30
0.0
  0
INSERT
  5
5301
330
18
100
AcDbEntity
  8
0
100
AcDbBlockReference
  2
LINETYPE
 10
1641.16291977663
 20
2434.836138558655
 30
0.0
  0
INSERT
  5
5302
330
18
100
AcDbEntity
  8
0
100
AcDbBlockReference
  2
LINETYPE
 10
2007.65451340218
 20
2424.761046502577
 30
0.0
  0
INSERT
  5
5303
330
18
100
AcDbEntity
  8
0
100
AcDbBlockReference
  2
LINETYPE
 10
1125.05855119812
 20
2327.479175228544
 30
0.0
  0
INSERT
  5
5304
330
18
100
AcDbEntity
  8
0
100
AcDbBlockReference
  2
LINETYPE
 10
1491.55014482367
 20
2317.404083172465
 30
0.0
  0
INSERT
  5
5305
330
18
100
AcDbEntity
  8
0
100
AcDbBlockReference
  2
LINETYPE
 10
1610.842501477766
 20
2372.092022845375
 30
0.0
  0
INSERT
  5
5306
330
18
100
AcDbEntity
  8
0
100
AcDbBlockReference
  2
LINETYPE
 10
1977.334095103315
 20
2362.016930789296
 30
0.0
  0
INSERT
  5
5307
330
18
100
AcDbEntity
  8
0
100
AcDbBlockReference
  2
LINETYPE
 10
1494.22132499294
 20
2304.757130789639
 30
0.0
  0
INSERT
  5
5308
330
18
100
AcDbEntity
  8
0
100
AcDbBlockReference
  2
LINETYPE
 10
1613.124225412153
 20
2631.437816304759
 30
0.0
  0
INSERT
  5
5309
330
18
100
AcDbEntity
  8
0
100
AcDbBlockReference
  2
LINETYPE
 10
1979.615819037703
 20
2621.36272424868
 30
0.0
  0
INSERT
  5
5319
330
18
100
AcDbEntity
  8
0
100
AcDbBlockReference
  2
LINETYPE
 10
1557.789439909434
 20
2280.225067594525
 30
0.0
  0
INSERT
  5
531A
330
18
100
AcDbEntity
  8
0
100
AcDbBlockReference
  2
LINETYPE
 10
1924.281033534984
 20
2270.149975538446
 30
0.0
  0
INSERT
  5
5350
330
18
100
AcDbEntity
  8
0
100
AcDbBlockReference
  2
LINETYPE
 10
2043.57339018908
 20
2324.837915211357
 30
0.0
  0
INSERT
  5
5351
330
18
100
AcDbEntity
  8
0
100
AcDbBlockReference
  2
LINETYPE
 10
2410.06498381463
 20
2314.762823155278
 30
0.0
  0
INSERT
  5
5378
330
18
100
AcDbEntity
  8
0
100
AcDbBlockReference
  2
LINETYPE
 10
751.808425092907
 20
1956.191108821718
 30
0.0
  0
INSERT
  5
541F
330
18
100
AcDbEntity
  8
0
100
AcDbBlockReference
  2
LINETYPE
 10
978.6224774968571
 20
2016.997244444104
 30
0.0
  0
INSERT
  5
5420
330
18
100
AcDbEntity
  8
0
100
AcDbBlockReference
  2
LINETYPE
 10
1345.114071122407
 20
2006.922152388025
 30
0.0
  0
INSERT
  5
5421
330
18
100
AcDbEntity
  8
0
100
AcDbBlockReference
  2
LINETYPE
 10
1464.406427776502
 20
2061.610092060936
 30
0.0
  0
INSERT
  5
5422
330
18
100
AcDbEntity
  8
0
100
AcDbBlockReference
  2
LINETYPE
 10
1830.898021402052
 20
2051.535000004857
 30
0.0
  0
INSERT
  5
5423
330
18
100
AcDbEntity
  8
0
100
AcDbBlockReference
  2
LINETYPE
 10
1065.483994055132
 20
2343.111070921255
 30
0.0
  0
INSERT
  5
5424
330
18
100
AcDbEntity
  8
0
100
AcDbBlockReference
  2
LINETYPE
 10
1431.975587680681
 20
2333.035978865177
 30
0.0
  0
INSERT
  5
5425
330
18
100
AcDbEntity
  8
0
100
AcDbBlockReference
  2
LINETYPE
 10
1551.267944334777
 20
2387.723918538087
 30
0.0
  0
INSERT
  5
5426
330
18
100
AcDbEntity
  8
0
100
AcDbBlockReference
  2
LINETYPE
 10
1917.759537960327
 20
2377.648826482008
 30
0.0
  0
INSERT
  5
5427
330
18
100
AcDbEntity
  8
0
100
AcDbBlockReference
  2
LINETYPE
 10
950.8041932618388
 20
1992.775527448645
 30
0.0
  0
INSERT
  5
5484
330
18
100
AcDbEntity
  8
0
100
AcDbBlockReference
  2
LINETYPE
 10
1366.609218867723
 20
2073.931521207217
 30
0.0
  0
INSERT
  5
5485
330
18
100
AcDbEntity
  8
0
100
AcDbBlockReference
  2
LINETYPE
 10
1733.100812493273
 20
2063.856429151138
 30
0.0
  0
INSERT
  5
5486
330
18
100
AcDbEntity
  8
0
100
AcDbBlockReference
  2
LINETYPE
 10
1852.393169147368
 20
2118.544368824049
 30
0.0
  0
INSERT
  5
5487
330
18
100
AcDbEntity
  8
0
100
AcDbBlockReference
  2
LINETYPE
 10
2218.884762772919
 20
2108.46927676797
 30
0.0
  0
INSERT
  5
54B8
330
18
100
AcDbEntity
  8
0
100
AcDbBlockReference
  2
LINETYPE
 10
2613.070435552172
 20
2267.359898458266
 30
0.0
  0
INSERT
  5
54B9
330
18
100
AcDbEntity
  8
0
100
AcDbBlockReference
  2
LINETYPE
 10
2438.43638672366
 20
2206.302549237365
 30
0.0
  0
INSERT
  5
54BA
330
18
100
AcDbEntity
  8
0
100
AcDbBlockReference
  2
LINETYPE
 10
4193.590007311278
 20
3174.377731944831
 30
0.0
  0
INSERT
  5
54BB
330
18
100
AcDbEntity
  8
0
100
AcDbBlockReference
  2
LINETYPE
 10
4018.955958482765
 20
3113.320382723931
 30
0.0
  0
INSERT
  5
54BC
330
18
100
AcDbEntity
  8
0
100
AcDbBlockReference
  2
LINETYPE
 10
3887.732511140152
 20
3079.755396982833
 30
0.0
  0
INSERT
  5
54BD
330
18
100
AcDbEntity
  8
0
100
AcDbBlockReference
  2
LINETYPE
 10
3713.098462311638
 20
3018.698047761933
 30
0.0
  0
INSERT
  5
54BE
330
18
100
AcDbEntity
  8
0
100
AcDbBlockReference
  2
LINETYPE
 10
4310.107149890226
 20
3137.984525494089
 30
0.0
  0
INSERT
  5
54BF
330
18
100
AcDbEntity
  8
0
100
AcDbBlockReference
  2
LINETYPE
 10
4135.473101061713
 20
3076.92717627319
 30
0.0
  0
INSERT
  5
54C0
330
18
100
AcDbEntity
  8
0
100
AcDbBlockReference
  2
LINETYPE
 10
4128.04911492048
 20
3152.541808074386
 30
0.0
  0
INSERT
  5
54C1
330
18
100
AcDbEntity
  8
0
100
AcDbBlockReference
  2
LINETYPE
 10
3953.415066091968
 20
3091.484458853486
 30
0.0
  0
INSERT
  5
54C2
330
18
100
AcDbEntity
  8
0
100
AcDbBlockReference
  2
LINETYPE
 10
4186.307686209955
 20
3065.198114402536
 30
0.0
  0
INSERT
  5
54C3
330
18
100
AcDbEntity
  8
0
100
AcDbBlockReference
  2
LINETYPE
 10
4011.673637381441
 20
3004.140765181637
 30
0.0
  0
LINE
  5
54C4
330
18
100
AcDbEntity
  8
0
100
AcDbLine
 10
217.9449124384998
 20
1091.573308862326
 30
0.0
 11
257.4449124385
 21
1091.573308862326
 31
0.0
  0
INSERT
  5
54C5
330
18
100
AcDbEntity
  8
0
100
AcDbBlockReference
  2
LINETYPE
 10
1565.025439340712
 20
3118.912991405783
 30
0.0
  0
INSERT
  5
54C6
330
18
100
AcDbEntity
  8
0
100
AcDbBlockReference
  2
LINETYPE
 10
1931.517032966262
 20
3108.837899349705
 30
0.0
  0
INSERT
  5
54C7
330
18
100
AcDbEntity
  8
0
100
AcDbBlockReference
  2
LINETYPE
 10
2050.809389620358
 20
3163.525839022615
 30
0.0
  0
INSERT
  5
54C8
330
18
100
AcDbEntity
  8
0
100
AcDbBlockReference
  2
LINETYPE
 10
2417.300983245908
 20
3153.450746966536
 30
0.0
  0
INSERT
  5
54F3
330
18
100
AcDbEntity
  8
0
100
AcDbBlockReference
  2
LINETYPE
 10
1614.866054122789
 20
3320.679714733049
 30
0.0
  0
INSERT
  5
54F4
330
18
100
AcDbEntity
  8
0
100
AcDbBlockReference
  2
LINETYPE
 10
1981.357647748338
 20
3310.604622676971
 30
0.0
  0
INSERT
  5
54F5
330
18
100
AcDbEntity
  8
0
100
AcDbBlockReference
  2
LINETYPE
 10
2100.650004402434
 20
3365.292562349882
 30
0.0
  0
INSERT
  5
54F6
330
18
100
AcDbEntity
  8
0
100
AcDbBlockReference
  2
LINETYPE
 10
2467.141598027984
 20
3355.217470293803
 30
0.0
  0
INSERT
  5
5532
330
18
100
AcDbEntity
  8
0
100
AcDbBlockReference
  2
LINETYPE
 10
1584.545635823924
 20
3257.935599019769
 30
0.0
  0
INSERT
  5
5533
330
18
100
AcDbEntity
  8
0
100
AcDbBlockReference
  2
LINETYPE
 10
1951.037229449473
 20
3247.860506963691
 30
0.0
  0
INSERT
  5
5534
330
18
100
AcDbEntity
  8
0
100
AcDbBlockReference
  2
LINETYPE
 10
2070.329586103569
 20
3302.548446636601
 30
0.0
  0
INSERT
  5
5535
330
18
100
AcDbEntity
  8
0
100
AcDbBlockReference
  2
LINETYPE
 10
2436.821179729119
 20
3292.473354580522
 30
0.0
  0
INSERT
  5
5544
330
18
100
AcDbEntity
  8
0
100
AcDbBlockReference
  2
LINETYPE
 10
1953.708409618744
 20
3235.213554580865
 30
0.0
  0
INSERT
  5
5545
330
18
100
AcDbEntity
  8
0
100
AcDbBlockReference
  2
LINETYPE
 10
2072.611310037956
 20
3561.894240095985
 30
0.0
  0
INSERT
  5
5546
330
18
100
AcDbEntity
  8
0
100
AcDbBlockReference
  2
LINETYPE
 10
2439.102903663506
 20
3551.819148039906
 30
0.0
  0
INSERT
  5
5562
330
18
100
AcDbEntity
  8
0
100
AcDbBlockReference
  2
LINETYPE
 10
2017.276524535238
 20
3210.681491385751
 30
0.0
  0
INSERT
  5
5563
330
18
100
AcDbEntity
  8
0
100
AcDbBlockReference
  2
LINETYPE
 10
2383.768118160788
 20
3200.606399329672
 30
0.0
  0
INSERT
  5
5564
330
18
100
AcDbEntity
  8
0
100
AcDbBlockReference
  2
LINETYPE
 10
2503.060474814884
 20
3255.294339002583
 30
0.0
  0
INSERT
  5
5565
330
18
100
AcDbEntity
  8
0
100
AcDbBlockReference
  2
LINETYPE
 10
2869.552068440433
 20
3245.219246946503
 30
0.0
  0
INSERT
  5
5567
330
18
100
AcDbEntity
  8
0
100
AcDbBlockReference
  2
LINETYPE
 10
1574.946212654065
 20
3180.996409962831
 30
0.0
  0
INSERT
  5
5568
330
18
100
AcDbEntity
  8
0
100
AcDbBlockReference
  2
LINETYPE
 10
2410.95528187472
 20
3399.858345755819
 30
0.0
  0
INSERT
  5
5569
330
18
100
AcDbEntity
  8
0
100
AcDbBlockReference
  2
LINETYPE
 10
2777.44687550027
 20
3389.783253699741
 30
0.0
  0
INSERT
  5
556A
330
18
100
AcDbEntity
  8
0
100
AcDbBlockReference
  2
LINETYPE
 10
2896.739232154366
 20
3444.471193372652
 30
0.0
  0
INSERT
  5
556B
330
18
100
AcDbEntity
  8
0
100
AcDbBlockReference
  2
LINETYPE
 10
3263.230825779916
 20
3434.396101316572
 30
0.0
  0
INSERT
  5
556C
330
18
100
AcDbEntity
  8
0
100
AcDbBlockReference
  2
LINETYPE
 10
2389.581620798065
 20
3362.109989527116
 30
0.0
 50
0.0000000000004071
  0
INSERT
  5
556D
330
18
100
AcDbEntity
  8
0
100
AcDbBlockReference
  2
LINETYPE
 10
2756.073214423615
 20
3352.034897471039
 30
0.0
 50
0.0000000000004071
  0
INSERT
  5
556E
330
18
100
AcDbEntity
  8
0
100
AcDbBlockReference
  2
LINETYPE
 10
2875.36557107771
 20
3406.722837143951
 30
0.0
 50
0.0000000000004071
  0
INSERT
  5
556F
330
18
100
AcDbEntity
  8
0
100
AcDbBlockReference
  2
LINETYPE
 10
3241.857164703259
 20
3396.647745087875
 30
0.0
 50
0.0000000000004071
  0
INSERT
  5
5570
330
18
100
AcDbEntity
  8
0
100
AcDbBlockReference
  2
LINETYPE
 10
2046.776751368468
 20
3307.532952428936
 30
0.0
  0
INSERT
  5
558E
330
18
100
AcDbEntity
  8
0
100
AcDbBlockReference
  2
LINETYPE
 10
2083.735095327142
 20
3238.123710367403
 30
0.0
 50
359.999999999987
  0
INSERT
  5
558F
330
18
100
AcDbEntity
  8
0
100
AcDbBlockReference
  2
LINETYPE
 10
2106.259205504469
 20
3221.911593834334
 30
0.0
 50
359.999999999987
  0
INSERT
  5
5590
330
18
100
AcDbEntity
  8
0
100
AcDbBlockReference
  2
LINETYPE
 10
1552.075055645496
 20
3147.337306146799
 30
0.0
 50
359.999999999987
  0
INSERT
  5
58BE
330
18
100
AcDbEntity
  8
0
100
AcDbBlockReference
 66
     1
  2
border-T
 10
-8.204881487594441
 20
919.9203698259928
 30
0.0
 41
1.071124999999999
 42
1.071124999999998
 43
1.071124999999999
  0
ATTRIB
  5
58BF
330
58BE
100
AcDbEntity
  8
0
 62
     5
100
AcDbText
 10
-6.843912173253178
 20
938.0791098042084
 30
0.0
 40
2.410031249999999
  1

  7
ROMANS
100
AcDbAttribute
  2
SCALE
 70
     0
280
     0
  0
ATTRIB
  5
58C0
330
58BE
100
AcDbEntity
  8
0
100
AcDbText
 10
274.4356505562125
 20
938.0975209622446
 30
0.0
 40
1.876435268554687
  1
PS-5
  7
ROMANS
 72
     4
 11
278.3672292141366
 21
939.0357385965218
 31
0.0
100
AcDbAttribute
  2
SAVEDAS
 70
     0
280
     0
  0
ATTRIB
  5
58C1
330
58BE
100
AcDbEntity
  8
0
 62
     5
100
AcDbText
 10
62.24549793704652
 20
934.371019598319
 30
0.0
 40
1.336937270220588
  1

 50
90.0
  7
ROMANS
 72
     4
 11
62.24549793704652
 21
934.371019598319
 31
0.0
100
AcDbAttribute
  2
X
 70
     0
280
     0
  0
ATTRIB
  5
58C2
330
58BE
100
AcDbEntity
  8
0
100
AcDbText
 10
121.162189468471
 20
931.8830193586833
 30
0.0
 40
1.894851952714285
  1

  7
ROMANS
 72
     1
 11
121.162189468471
 21
931.8830193586833
 31
0.0
100
AcDbAttribute
  2
ARCHORENG
 70
     0
280
     0
  0
ATTRIB
  5
58C3
330
58BE
100
AcDbEntity
  8
0
100
AcDbText
 10
121.162189468471
 20
926.3630597499279
 30
0.0
 40
1.894851952714285
  1

  7
ROMANS
 72
     1
 11
121.162189468471
 21
926.3630597499279
 31
0.0
100
AcDbAttribute
  2
PURCHASEORDER
 70
     0
280
     0
  0
ATTRIB
  5
58C4
330
58BE
100
AcDbEntity
  8
0
100
AcDbText
 10
118.2296804940322
 20
920.8431001411726
 30
0.0
 40
1.894851952714285
  1
DNH
  7
ROMANS
 72
     1
 11
121.162189468471
 21
920.8431001411726
 31
0.0
100
AcDbAttribute
  2
DRAWNBY
 70
     0
280
     0
  0
ATTRIB
  5
58C5
330
58BE
100
AcDbEntity
  8
0
100
AcDbText
 10
153.5679287095425
 20
926.3630597499279
 30
0.0
 40
1.894851952714285
  1

  7
ROMANS
 72
     1
 11
153.5679287095425
 21
926.3630597499279
 31
0.0
100
AcDbAttribute
  2
DATE
 70
     0
280
     0
  0
ATTRIB
  5
58C6
330
58BE
100
AcDbEntity
  8
0
100
AcDbText
 10
147.973603896767
 20
920.8431001411726
 30
0.0
 40
1.894851952714285
  1
2/9/22
  7
ROMANS
 72
     1
 11
153.5679287095425
 21
920.8431001411726
 31
0.0
100
AcDbAttribute
  2
DATE
 70
     0
280
     0
  0
ATTRIB
  5
58C7
330
58BE
100
AcDbEntity
  8
0
100
AcDbText
 10
185.9736679506139
 20
931.8830193586833
 30
0.0
 40
1.894851952714285
  1

  7
ROMANS
 72
     1
 11
185.9736679506139
 21
931.8830193586833
 31
0.0
100
AcDbAttribute
  2
PROJECT
 70
     0
280
     0
  0
ATTRIB
  5
58C8
330
58BE
100
AcDbEntity
  8
0
100
AcDbText
 10
194.8115968345423
 20
926.3630597499279
 30
0.0
 40
1.894851952714285
  1

  7
ROMANS
 72
     1
 11
194.8115968345423
 21
926.3630597499279
 31
0.0
100
AcDbAttribute
  2
PURCHASER
 70
     0
280
     0
  0
ATTRIB
  5
58C9
330
58BE
100
AcDbEntity
  8
0
100
AcDbText
 10
185.8969042254506
 20
920.8431001411728
 30
0.0
 40
1.894851952714285
  1
PS-
  7
ROMANS
 72
     1
 11
188.9196442452567
 21
920.8431001411728
 31
0.0
100
AcDbAttribute
  2
MODEL
 70
     0
280
     0
  0
ATTRIB
  5
58CA
330
58BE
100
AcDbEntity
  8
0
100
AcDbText
 10
221.3253834863281
 20
920.8431001411726
 30
0.0
 40
1.894851952714285
  1

  7
ROMANS
 72
     1
 11
221.3253834863281
 21
920.8431001411726
 31
0.0
100
AcDbAttribute
  2
QTY
 70
     0
280
     0
  0
ATTRIB
  5
58CB
330
58BE
100
AcDbEntity
  8
0
100
AcDbText
 10
256.6770990220425
 20
931.8823025739012
 30
0.0
 40
1.894851952714285
  1

  7
ROMANS
 72
     1
 11
256.6770990220425
 21
931.8823025739012
 31
0.0
100
AcDbAttribute
  2
REP
 70
     0
280
     0
  0
ATTRIB
  5
58CC
330
58BE
100
AcDbEntity
  8
0
100
AcDbText
 10
256.7136986345543
 20
923.297882612921
 30
0.0
 40
3.700882720145089
  1

  7
ROMANS
 72
     1
 11
256.7136986345543
 21
923.297882612921
 31
0.0
100
AcDbAttribute
  2
L010000
 70
     0
280
     0
  0
SEQEND
  5
58CD
330
58BE
100
AcDbEntity
  8
0
 62
     7
  0
LINE
  5
58D0
330
18
100
AcDbEntity
  8
0
100
AcDbLine
 10
184.3401947330678
 20
1091.573308862326
 30
0.0
 11
184.3401947330678
 21
1090.361044919744
 31
0.0
  0
DIMENSION
  5
59B0
330
18
100
AcDbEntity
  8
0
100
AcDbDimension
  2
*D6
 10
42.80035626758683
 20
971.573308862326
 30
0.0
 11
84.38873308684122
 21
980.742360385504
 31
0.0
 70
   162
  1
30°-45° (AVAILABLE RANGE)
 71
     5
 42
0.6982217028354383
 73
     0
 74
     0
 75
     0
  3
STANDARD$2
100
AcDb2LineAngularDimension
 13
184.3401947330678
 23
971.573308862326
 33
0.0
 14
42.80035626758695
 24
971.573308862326
 34
0.0
 15
184.3401947330678
 25
1090.361044919744
 35
0.0
 16
64.30832544564203
 26
982.3766330212009
 36
0.0
1001
ACAD
1000
DSTYLE
1002
{
1070
   279
1070
     2
1002
}
  0
LINE
  5
5A27
330
18
100
AcDbEntity
  8
0
100
AcDbLine
 10
217.9449124384998
 20
1083.010808862326
 30
0.0
 11
219.9136624384995
 21
1083.010808862326
 31
0.0
  0
LINE
  5
5A28
330
18
100
AcDbEntity
  8
0
100
AcDbLine
 10
217.9449124384998
 20
1081.022360483015
 30
0.0
 11
219.9136624384995
 21
1081.022360483015
 31
0.0
  0
LINE
  5
5A29
330
18
100
AcDbEntity
  8
0
100
AcDbLine
 10
217.9449124384998
 20
1074.448308862326
 30
0.0
 11
219.9136624384995
 21
1074.448308862327
 31
0.0
  0
LINE
  5
5A2A
330
18
100
AcDbEntity
  8
0
100
AcDbLine
 10
217.9449124384998
 20
1072.459860483015
 30
0.0
 11
219.9136624384995
 21
1072.459860483015
 31
0.0
  0
LINE
  5
5A2B
330
18
100
AcDbEntity
  8
0
100
AcDbLine
 10
217.9449124384998
 20
1065.885808862326
 30
0.0
 11
219.9136624384995
 21
1065.885808862326
 31
0.0
  0
LINE
  5
5A2C
330
18
100
AcDbEntity
  8
0
100
AcDbLine
 10
217.9449124384998
 20
1063.897360483015
 30
0.0
 11
219.9136624384995
 21
1063.897360483015
 31
0.0
  0
LINE
  5
5A2D
330
18
100
AcDbEntity
  8
0
100
AcDbLine
 10
217.9449124384998
 20
1057.323308862326
 30
0.0
 11
219.9136624384995
 21
1057.323308862326
 31
0.0
  0
LINE
  5
5A2E
330
18
100
AcDbEntity
  8
0
100
AcDbLine
 10
217.9449124384998
 20
1055.334860483015
 30
0.0
 11
219.9136624384995
 21
1055.334860483015
 31
0.0
  0
LINE
  5
5A2F
330
18
100
AcDbEntity
  8
0
100
AcDbLine
 10
217.9449124384998
 20
1048.760808862326
 30
0.0
 11
219.9136624384995
 21
1048.760808862326
 31
0.0
  0
LINE
  5
5A30
330
18
100
AcDbEntity
  8
0
100
AcDbLine
 10
217.9449124384998
 20
1046.772360483015
 30
0.0
 11
219.9136624384996
 21
1046.772360483015
 31
0.0
  0
LINE
  5
5A31
330
18
100
AcDbEntity
  8
0
100
AcDbLine
 10
217.9449124384998
 20
1040.198308862326
 30
0.0
 11
219.9136624384996
 21
1040.198308862326
 31
0.0
  0
LINE
  5
5A32
330
18
100
AcDbEntity
  8
0
100
AcDbLine
 10
217.9449124384998
 20
1038.209860483015
 30
0.0
 11
219.9136624384996
 21
1038.209860483015
 31
0.0
  0
LINE
  5
5A33
330
18
100
AcDbEntity
  8
0
100
AcDbLine
 10
217.9449124384998
 20
1031.635808862326
 30
0.0
 11
219.9136624384996
 21
1031.635808862326
 31
0.0
  0
LINE
  5
5A34
330
18
100
AcDbEntity
  8
0
100
AcDbLine
 10
217.9449124384998
 20
1029.647360483015
 30
0.0
 11
219.9136624384996
 21
1029.647360483015
 31
0.0
  0
LINE
  5
5A35
330
18
100
AcDbEntity
  8
0
100
AcDbLine
 10
217.9449124384998
 20
1023.073308862326
 30
0.0
 11
219.9136624384996
 21
1023.073308862326
 31
0.0
  0
LINE
  5
5A36
330
18
100
AcDbEntity
  8
0
100
AcDbLine
 10
217.9449124384998
 20
1021.084860483015
 30
0.0
 11
219.9136624384996
 21
1021.084860483015
 31
0.0
  0
LINE
  5
5A37
330
18
100
AcDbEntity
  8
0
100
AcDbLine
 10
217.9449124384998
 20
1014.510808862326
 30
0.0
 11
219.9136624384996
 21
1014.510808862326
 31
0.0
  0
LINE
  5
5A38
330
18
100
AcDbEntity
  8
0
100
AcDbLine
 10
217.9449124384998
 20
1012.522360483015
 30
0.0
 11
219.9136624384996
 21
1012.522360483015
 31
0.0
  0
LINE
  5
5A39
330
18
100
AcDbEntity
  8
0
100
AcDbLine
 10
217.9449124384998
 20
1005.948308862326
 30
0.0
 11
219.9136624384997
 21
1005.948308862326
 31
0.0
  0
LINE
  5
5A3A
330
18
100
AcDbEntity
  8
0
100
AcDbLine
 10
217.9449124384998
 20
1003.959860483015
 30
0.0
 11
219.9136624384997
 21
1003.959860483014
 31
0.0
  0
LINE
  5
5A3B
330
18
100
AcDbEntity
  8
0
100
AcDbLine
 10
217.9449124384998
 20
997.3858088623263
 30
0.0
 11
219.9136624384997
 21
997.3858088623263
 31
0.0
  0
LINE
  5
5A3C
330
18
100
AcDbEntity
  8
0
100
AcDbLine
 10
217.9449124384998
 20
995.3973604830149
 30
0.0
 11
219.9136624384997
 21
995.3973604830148
 31
0.0
  0
LINE
  5
5A3D
330
18
100
AcDbEntity
  8
0
100
AcDbLine
 10
217.9449124384998
 20
988.8233088623264
 30
0.0
 11
257.4449124385
 21
988.8233088623266
 31
0.0
  0
LINE
  5
5A3E
330
18
100
AcDbEntity
  8
0
100
AcDbLine
 10
217.9449124384998
 20
986.8348604830149
 30
0.0
 11
257.4449124385
 21
986.8348604830149
 31
0.0
  0
LINE
  5
5A3F
330
18
100
AcDbEntity
  8
0
100
AcDbLine
 10
217.9449124384998
 20
980.2608088623264
 30
0.0
 11
257.4449124385
 21
980.2608088623266
 31
0.0
  0
LINE
  5
5A40
330
18
100
AcDbEntity
  8
0
100
AcDbLine
 10
217.9449124384998
 20
978.2723604830149
 30
0.0
 11
257.4449124385
 21
978.2723604830149
 31
0.0
  0
LINE
  5
5B53
330
18
100
AcDbEntity
  8
0
100
AcDbLine
 10
170.9571231608128
 20
1089.573308862325
 30
0.0
 11
120.9126201434579
 21
1089.573308862325
 31
0.0
  0
LINE
  5
5B6F
330
18
100
AcDbEntity
  8
0
100
AcDbLine
 10
260.3824124388108
 20
1091.573308862106
 30
0.0
 11
273.2789708076391
 21
1091.573308862106
 31
0.0
  0
LINE
  5
5B70
330
18
100
AcDbEntity
  8
0
100
AcDbLine
 10
260.382412438811
 20
971.5733088621062
 30
0.0
 11
273.2789708076391
 21
971.5733088621062
 31
0.0
  0
LINE
  5
5B71
330
18
100
AcDbEntity
  8
0
100
AcDbLine
 10
271.2164708076391
 20
1089.510808862106
 30
0.0
 11
271.2164708076391
 21
1042.4799415029
 31
0.0
  0
LINE
  5
5B72
330
18
100
AcDbEntity
  8
0
100
AcDbLine
 10
271.2164708076391
 20
973.6358088621063
 30
0.0
 11
271.2164708076391
 21
1017.596414939983
 31
0.0
  0
SOLID
  5
5B73
330
18
100
AcDbEntity
  8
0
100
AcDbTrace
 10
270.8727208076391
 20
1089.510808862106
 30
0.0
 11
271.5602208076391
 21
1089.510808862106
 31
0.0
 12
271.2164708076391
 22
1091.573308862106
 32
0.0
 13
271.2164708076391
 23
1091.573308862106
 33
0.0
  0
SOLID
  5
5B74
330
18
100
AcDbEntity
  8
0
100
AcDbTrace
 10
270.8727208076391
 20
973.6358088621063
 30
0.0
 11
271.5602208076391
 21
973.6358088621063
 31
0.0
 12
271.2164708076391
 22
971.5733088621062
 32
0.0
 13
271.2164708076391
 23
971.5733088621062
 33
0.0
  0
MTEXT
  5
5B75
330
18
100
AcDbEntity
  8
0
100
AcDbMText
 10
271.2164708076383
 20
1030.02238086577
 30
0.0
 40
2.0625
 41
0.0
 46
0.0
 71
     5
 72
     1
  1
\A1;VERTICAL\PHEIGHT\P\P \P\P \PMAX 15'
  7
ROMANS
 73
     1
 44
1.0
  0
LINE
  5
5B76
330
18
100
AcDbEntity
  8
0
100
AcDbLine
 10
263.4159599150649
 20
1017.596414939985
 30
0.0
 11
279.0389429111901
 21
1017.596414939981
 31
0.0
  0
LINE
  5
5B77
330
18
100
AcDbEntity
  8
0
100
AcDbLine
 10
279.0389429111957
 20
1042.479941502898
 30
0.0
 11
263.4159599150704
 21
1042.479941502901
 31
0.0
  0
LINE
  5
5B78
330
18
100
AcDbEntity
  8
0
100
AcDbLine
 10
263.4159599150704
 20
1042.479941502901
 30
0.0
 11
263.4159599150649
 21
1017.596414939985
 31
0.0
  0
LINE
  5
5B79
330
18
100
AcDbEntity
  8
0
100
AcDbLine
 10
263.4159599150659
 20
1022.196096851216
 30
0.0
 11
279.0389429111912
 21
1022.196096851212
 31
0.0
  0
LINE
  5
5B7A
330
18
100
AcDbEntity
  8
0
100
AcDbLine
 10
263.4159599150689
 20
1035.768929886069
 30
0.0
 11
279.0389429111942
 21
1035.768929886065
 31
0.0
  0
LINE
  5
5B7B
330
18
100
AcDbEntity
  8
0
100
AcDbLine
 10
279.0389429111957
 20
1042.479941502898
 30
0.0
 11
279.0389429111901
 21
1017.596414939981
 31
0.0
  0
TEXT
  5
63A0
330
18
100
AcDbEntity
  8
0
100
AcDbText
 10
228.8920423915504
 20
942.7061960026106
 30
0.0
 40
2.862783962279999
  1
FACTORY FINISH
  7
ROMANS
 72
     1
 11
246.1369076881418
 21
942.7061960026106
 31
0.0
100
AcDbText
  0
TEXT
  5
63A1
330
18
100
AcDbEntity
  8
0
100
AcDbText
 10
221.4828848510783
 20
938.0712124446343
 30
0.0
 40
2.862783962279999
  1
%%OALUMINUM-MILL FINISH
  7
ROMANS
 72
     1
 11
246.136907688142
 21
938.0712124446343
 31
0.0
100
AcDbText
  0
TEXT
  5
63A2
330
18
100
AcDbEntity
  8
0
100
AcDbText
 10
96.57516715063449
 20
1118.769385206266
 30
0.0
 40
2.312960265
  1
NOTE:
  7
ROMANS
100
AcDbText
  0
TEXT
  5
63A3
330
18
100
AcDbEntity
  8
0
100
AcDbText
 10
96.57516715063449
 20
1115.024592396266
 30
0.0
 40
2.312960265
  1
ALL BOLTS/FASTENERS
  7
ROMANS
100
AcDbText
  0
TEXT
  5
63A4
330
18
100
AcDbEntity
  8
0
100
AcDbText
 10
96.57516715063449
 20
1111.279799586266
 30
0.0
 40
2.312960265
  1
NECESSARY TO ANCHOR
  7
ROMANS
100
AcDbText
  0
TEXT
  5
63A5
330
18
100
AcDbEntity
  8
0
100
AcDbText
 10
96.57516715063449
 20
1107.535006776266
 30
0.0
 40
2.312960265
  1
STAIRWAY ARE BY OTHERS.
  7
ROMANS
100
AcDbText
  0
TEXT
  5
63AD
330
18
100
AcDbEntity
  8
0
100
AcDbText
 10
78.28046765344398
 20
1137.35534856075
 30
0.0
 40
5.140705817519999
  1
INDUSTRIAL STAIRWAY TO HATCH
  7
ROMANC
100
AcDbText
  0
TEXT
  5
63B7
330
18
100
AcDbEntity
  8
0
100
AcDbText
 10
7.734140259211877
 20
923.7284256625745
 30
0.0
 40
1.526090273091019
  1
Ph: (423) 586-2265 Fax: (423) 586-2091
  7
ROMANS
100
AcDbText
  0
TEXT
  5
63B8
330
18
100
AcDbEntity
  8
0
100
AcDbText
 10
6.879332992905605
 20
926.1992384856741
 30
0.0
 40
1.526090273091019
  1
P.O. BOX 2279 Morristown, TN 37816-2279
  7
ROMANS
100
AcDbText
  0
POLYLINE
  5
63B9
330
18
100
AcDbEntity
  8
0
100
AcDb2dPolyline
 66
     1
 10
0.0
 20
0.0
 30
0.0
1001
ACAD
1000
ASC_BOUNDS
1002
{
1070
    19
1002
}
  0
VERTEX
  5
63BA
330
63B9
100
AcDbEntity
  8
0
100
AcDbVertex
100
AcDb2dVertex
 10
1.185329502928357
 20
926.822137057386
 30
0.0
  0
VERTEX
  5
63BB
330
63B9
100
AcDbEntity
  8
0
100
AcDbVertex
100
AcDb2dVertex
 10
1.429423963690533
 20
926.9465111686027
 30
0.0
1001
ACAD
1000
ASC_BOUNDS
1002
{
1070
    19
1002
}
  0
VERTEX
  5
63BC
330
63B9
100
AcDbEntity
  8
0
100
AcDbVertex
100
AcDb2dVertex
 10
3.071530872785059
 20
923.6605137390077
 30
0.0
1001
ACAD
1000
ASC_BOUNDS
1002
{
1070
    19
1002
}
  0
VERTEX
  5
63BD
330
63B9
100
AcDbEntity
  8
0
100
AcDbVertex
100
AcDb2dVertex
 10
2.543887551313047
 20
923.663843013759
 30
0.0
  0
VERTEX
  5
63BE
330
63B9
100
AcDbEntity
  8
0
100
AcDbVertex
100
AcDb2dVertex
 10
1.010192479097742
 20
926.7328990156372
 30
0.0
  0
SEQEND
  5
63BF
330
63B9
100
AcDbEntity
  8
0
  0
TEXT
  5
63C0
330
18
100
AcDbEntity
  8
0
100
AcDbText
 10
1.451705937716725
 20
928.7948834490183
 30
0.0
 40
2.494528159145018
  1
Precision Ladders, LLC
  7
STYLE1
100
AcDbText
  0
CIRCLE
  5
63C1
330
18
100
AcDbEntity
  8
0
100
AcDbCircle
 10
-0.4770956435312579
 20
928.4291521723394
 30
0.0
 40
6.84104344885243
1001
ACAD
1000
ASC_BOUNDS
1002
{
1070
    19
1002
}
  0
INSERT
  5
63C2
330
18
100
AcDbEntity
  8
0
100
AcDbBlockReference
  2
*X7
 10
20.02037536609965
 20
1081.933430416592
 30
0.0
 41
0.5535280777570435
 42
0.553528077757008
 43
0.5535280777570434
1001
ACAD
1000
HATCH
1002
{
1070
    19
1000
ANSI31
1040
0.8843871093750001
1040
0.0
1002
}
  0
LWPOLYLINE
  5
63C3
330
18
100
AcDbEntity
  8
0
100
AcDbPolyline
 90
        4
 70
     1
 43
0.0
 10
-5.01776128304481
 20
931.9231233057037
 10
-5.01776128304481
 20
932.4184031751778
 10
0.2569693268556046
 20
932.4184031751778
 10
0.2569693268556046
 20
931.9231233057037
1001
ACAD
1000
ASC_BOUNDS
1002
{
1070
    19
1005
0
1005
0
1002
}
  0
LINE
  5
63C4
330
18
100
AcDbEntity
  8
0
100
AcDbLine
 10
-4.833711072992257
 20
931.8696675158282
 30
0.0
 11
-2.641400607320267
 21
927.5670159645715
 31
0.0
1001
ACAD
1000
ASC_BOUNDS
1002
{
1070
    19
1002
}
  0
LWPOLYLINE
  5
63C5
330
18
100
AcDbEntity
  8
0
100
AcDbPolyline
 90
        4
 70
     0
 43
0.0
 10
-4.945189438340653
 20
931.9209515044837
 10
-2.623813720638334
 20
927.3649951336967
 10
-2.634404862918342
 20
927.3595986771658
 10
-4.955780580620667
 20
931.9155550479528
1001
ACAD
1000
ASC_BOUNDS
1002
{
1070
    19
1002
}
  0
LINE
  5
63C6
330
18
100
AcDbEntity
  8
0
100
AcDbLine
 10
-4.899905712242366
 20
931.8359396625101
 30
0.0
 11
-4.833711072992257
 21
931.8696675158282
 31
0.0
1001
ACAD
1000
ASC_BOUNDS
1002
{
1070
    19
1002
}
  0
LINE
  5
63C7
330
18
100
AcDbEntity
  8
0
100
AcDbLine
 10
-4.833711072992257
 20
931.8696675158282
 30
0.0
 11
-4.72879817820283
 21
931.9231233057037
 31
0.0
1001
ACAD
1000
ASC_BOUNDS
1002
{
1070
    19
1002
}
  0
LINE
  5
63C8
330
18
100
AcDbEntity
  8
0
100
AcDbLine
 10
-4.833711072992257
 20
931.8696675158282
 30
0.0
 11
-4.698799659720136
 21
931.6048889588278
 31
0.0
1001
ACAD
1000
ASC_BOUNDS
1002
{
1070
    19
1002
}
  0
LINE
  5
63C9
330
18
100
AcDbEntity
  8
0
100
AcDbLine
 10
-2.771813215354912
 20
930.1361688992972
 30
0.0
 11
-3.28226148582416
 21
929.0991615415984
 31
0.0
1001
ACAD
1000
ASC_BOUNDS
1002
{
1070
    19
1005
0
1002
}
  0
LWPOLYLINE
  5
63CA
330
18
100
AcDbEntity
  8
0
100
AcDbPolyline
 90
        2
 70
     0
 43
0.0
 10
-2.891559048959671
 20
930.1428071455612
 10
-3.3811622566718
 20
929.1481478272258
1001
ACAD
1000
ASC_BOUNDS
1002
{
1070
    19
1005
0
1002
}
  0
LINE
  5
63CB
330
18
100
AcDbEntity
  8
0
100
AcDbLine
 10
-3.860390091887123
 20
931.9231233057037
 30
0.0
 11
-2.921883683091367
 21
930.0812007683171
 31
0.0
1001
ACAD
1000
ASC_BOUNDS
1002
{
1070
    19
1002
}
  0
LINE
  5
63CC
330
18
100
AcDbEntity
  8
0
100
AcDbLine
 10
-3.94376993075957
 20
931.9231233057037
 30
0.0
 11
-2.962853907488121
 21
929.9979672134126
 31
0.0
1001
ACAD
1000
ASC_BOUNDS
1002
{
1070
    19
1002
}
  0
LINE
  5
63CD
330
18
100
AcDbEntity
  8
0
100
AcDbLine
 10
-4.029489105814001
 20
931.3276933031694
 30
0.0
 11
-3.154048288006227
 21
929.6095439571919
 31
0.0
1001
ACAD
1000
ASC_BOUNDS
1002
{
1070
    19
1002
}
  0
LINE
  5
63CE
330
18
100
AcDbEntity
  8
0
100
AcDbLine
 10
-2.33074765414861
 20
927.3219969020603
 30
0.0
 11
1.010192479097742
 21
926.7328990156372
 31
0.0
1001
ACAD
1000
ASC_BOUNDS
1002
{
1070
    19
1002
}
  0
POLYLINE
  5
63CF
330
18
100
AcDbEntity
  8
0
100
AcDb2dPolyline
 66
     1
 10
0.0
 20
0.0
 30
0.0
1001
ACAD
1000
ASC_BOUNDS
1002
{
1070
    19
1002
}
  0
VERTEX
  5
63D0
330
63CF
100
AcDbEntity
  8
0
100
AcDbVertex
100
AcDb2dVertex
 10
-2.250556993846927
 20
927.6601515153769
 30
0.0
  0
VERTEX
  5
63D1
330
63CF
100
AcDbEntity
  8
0
100
AcDbVertex
100
AcDb2dVertex
 10
-2.222167892069618
 20
927.7806257022524
 30
0.0
1001
ACAD
1000
ASC_BOUNDS
1002
{
1070
    19
1002
}
  0
VERTEX
  5
63D2
330
63CF
100
AcDbEntity
  8
0
100
AcDbVertex
100
AcDb2dVertex
 10
1.104275325944676
 20
927.1940840131218
 30
0.0
1001
ACAD
1000
ASC_BOUNDS
1002
{
1070
    19
1002
}
  0
VERTEX
  5
63D3
330
63CF
100
AcDbEntity
  8
0
100
AcDbVertex
100
AcDb2dVertex
 10
1.045969177768416
 20
926.9082729253286
 30
0.0
  0
SEQEND
  5
63D4
330
63CF
100
AcDbEntity
  8
0
  0
LINE
  5
63D5
330
18
100
AcDbEntity
  8
0
100
AcDbLine
 10
-2.900285418882279
 20
929.8751696403613
 30
0.0
 11
-1.940960766604017
 21
927.99238899961
 31
0.0
1001
ACAD
1000
ASC_BOUNDS
1002
{
1070
    19
1005
0
1002
}
  0
LWPOLYLINE
  5
63D6
330
18
100
AcDbEntity
  8
0
100
AcDbPolyline
 90
        2
 70
     0
 43
0.0
 10
-2.859315194485554
 20
929.9584031952658
 10
-1.876975486457349
 20
928.0304529643146
1001
ACAD
1000
ASC_BOUNDS
1002
{
1070
    19
1002
}
  0
LWPOLYLINE
  5
63D7
330
18
100
AcDbEntity
  8
0
100
AcDbPolyline
 90
        3
 70
     0
 43
0.0
 10
-3.380273073685255
 20
929.0246827115938
 10
-3.202211234511137
 20
929.1115292733389
 10
-3.239830871804636
 20
929.1853619687044
1001
ACAD
1000
ASC_BOUNDS
1002
{
1070
    19
1002
}
  0
CIRCLE
  5
63D8
330
18
100
AcDbEntity
  8
0
100
AcDbCircle
 10
-3.309668837592091
 20
929.1670060308431
 30
0.0
 40
0.0185729951052831
1001
ACAD
1000
ASC_BOUNDS
1002
{
1070
    19
1002
}
  0
LINE
  5
63D9
330
18
100
AcDbEntity
  8
0
100
AcDbLine
 10
-3.318663537091635
 20
929.2751178569053
 30
0.0
 11
-3.470214015866648
 21
929.201201749594
 31
0.0
1001
ACAD
1000
ASC_BOUNDS
1002
{
1070
    19
1002
}
  0
LINE
  5
63DA
330
18
100
AcDbEntity
  8
0
100
AcDbLine
 10
-3.494388977241228
 20
929.238120293041
 30
0.0
 11
-3.359477563969101
 21
928.9733417360407
 31
0.0
1001
ACAD
1000
ASC_BOUNDS
1002
{
1070
    19
1002
}
  0
LINE
  5
63DB
330
18
100
AcDbEntity
  8
0
100
AcDbLine
 10
-3.282339351710932
 20
929.0990519040859
 30
0.0
 11
-3.381353313680005
 21
929.1478089957648
 31
0.0
1001
ACAD
1000
ASC_BOUNDS
1002
{
1070
    19
1002
}
  0
LWPOLYLINE
  5
63DC
330
18
100
AcDbEntity
  8
0
100
AcDbPolyline
 90
        2
 70
     1
 43
0.0
 10
-3.291095842486803
 20
929.1670060308431
 42
-1.0
 10
-3.328241832697365
 20
929.1670060308431
 42
-1.0
1001
ACAD
1000
ASC_BOUNDS
1002
{
1070
    19
1002
}
  0
LINE
  5
63DD
330
18
100
AcDbEntity
  8
0
100
AcDbLine
 10
-1.876444256291594
 20
928.030772159601
 30
0.0
 11
-1.940124912612981
 21
927.9925089610236
 31
0.0
1001
ACAD
1000
ASC_BOUNDS
1002
{
1070
    19
1002
}
  0
LINE
  5
63DE
330
18
100
AcDbEntity
  8
0
100
AcDbLine
 10
-2.38854103811786
 20
927.6958543502283
 30
0.0
 11
-2.709157650364351
 21
927.532492026758
 31
0.0
1001
ACAD
1000
ASC_BOUNDS
1002
{
1070
    19
1002
}
  0
POLYLINE
  5
63DF
330
18
100
AcDbEntity
  8
0
100
AcDb2dPolyline
 66
     1
 10
0.0
 20
0.0
 30
0.0
1001
ACAD
1000
ASC_BOUNDS
1002
{
1070
    19
1002
}
  0
VERTEX
  5
63E0
330
63DF
100
AcDbEntity
  8
0
100
AcDbVertex
100
AcDb2dVertex
 10
-2.33026152979004
 20
927.3219111852197
 30
0.0
  0
VERTEX
  5
63E1
330
63DF
100
AcDbEntity
  8
0
100
AcDbVertex
100
AcDb2dVertex
 10
-2.263925395541358
 20
927.6034203325242
 30
0.0
1001
ACAD
1000
ASC_BOUNDS
1002
{
1070
    19
1002
}
  0
SEQEND
  5
63E2
330
63DF
100
AcDbEntity
  8
0
  0
LINE
  5
63E3
330
18
100
AcDbEntity
  8
0
100
AcDbLine
 10
-3.091479799400386
 20
929.4867463841404
 30
0.0
 11
-2.485840524012603
 21
928.2981123797179
 31
0.0
1001
ACAD
1000
ASC_BOUNDS
1002
{
1070
    19
1002
}
  0
LINE
  5
63E4
330
18
100
AcDbEntity
  8
0
100
AcDbLine
 10
-2.450336329754744
 20
928.2284314750778
 30
0.0
 11
-2.222167892069618
 21
927.7806257022524
 31
0.0
1001
ACAD
1000
ASC_BOUNDS
1002
{
1070
    19
1002
}
  0
LWPOLYLINE
  5
63E5
330
18
100
AcDbEntity
  8
0
100
AcDbPolyline
 90
        4
 70
     0
 43
0.0
 10
-2.138680644529682
 20
928.3804361091741
 10
-2.651840681114366
 20
928.1301512361819
 10
-2.685568534432387
 20
928.196345875432
 10
-2.176932207512127
 20
928.4555090285353
1001
ACAD
1000
ASC_BOUNDS
1002
{
1070
    19
1005
0
1002
}
  0
LWPOLYLINE
  5
63E6
330
18
100
AcDbEntity
  8
0
100
AcDbPolyline
 90
        5
 70
     0
 43
0.0
 10
-2.222167892046016
 20
927.7806257023554
 10
-2.208793520941282
 20
927.75035654589
 10
-2.04400959150055
 20
927.4174470755072
 10
-2.154979414961399
 20
927.3625190990271
 10
-2.294753390379722
 20
927.6715871611054
1001
ACAD
1000
ASC_BOUNDS
1002
{
1070
    19
1002
}
  0
POLYLINE
  5
63E7
330
18
100
AcDbEntity
  8
0
100
AcDb2dPolyline
 66
     1
 10
0.0
 20
0.0
 30
0.0
 70
     1
1001
ACAD
1000
ASC_BOUNDS
1002
{
1070
    19
1002
}
  0
VERTEX
  5
63E8
330
63E7
100
AcDbEntity
  8
0
100
AcDbVertex
100
AcDb2dVertex
 10
-2.639737624394713
 20
927.7593647616013
 30
0.0
1001
ACAD
1000
ASC_BOUNDS
1002
{
1070
    19
1002
}
  0
VERTEX
  5
63E9
330
63E7
100
AcDbEntity
  8
0
100
AcDbVertex
100
AcDb2dVertex
 10
-2.616777169374639
 20
927.8696347653706
 30
0.0
  0
VERTEX
  5
63EA
330
63E7
100
AcDbEntity
  8
0
100
AcDbVertex
100
AcDb2dVertex
 10
-2.584813023371685
 20
927.8610680270244
 30
0.0
  0
VERTEX
  5
63EB
330
63E7
100
AcDbEntity
  8
0
100
AcDbVertex
100
AcDb2dVertex
 10
-2.222167892046016
 20
927.7806257023554
 30
0.0
  0
VERTEX
  5
63EC
330
63E7
100
AcDbEntity
  8
0
100
AcDbVertex
100
AcDb2dVertex
 10
-2.24898200026897
 20
927.6597439919136
 30
0.0
  0
VERTEX
  5
63ED
330
63E7
100
AcDbEntity
  8
0
100
AcDbVertex
100
AcDb2dVertex
 10
-2.608598821334455
 20
927.7527934458566
 30
0.0
  0
SEQEND
  5
63EE
330
63E7
100
AcDbEntity
  8
0
  0
LWPOLYLINE
  5
63EF
330
18
100
AcDbEntity
  8
0
100
AcDbPolyline
 90
        5
 70
     0
 43
0.0
 10
1.010192479097737
 20
926.7328990156372
 10
0.9955153947519592
 20
926.762558395784
 10
0.8164205341976389
 20
927.0879927052774
 10
0.9248986373620615
 20
927.1476909921288
 10
1.077971139748883
 20
926.8449887618528
1001
ACAD
1000
ASC_BOUNDS
1002
{
1070
    19
1002
}
  0
LINE
  5
63F0
330
18
100
AcDbEntity
  8
0
100
AcDbLine
 10
1.034928106242883
 20
926.8541506627229
 30
0.0
 11
1.010192479097742
 21
926.7328990156372
 31
0.0
1001
ACAD
1000
ASC_BOUNDS
1002
{
1070
    19
1002
}
  0
POLYLINE
  5
63F1
330
18
100
AcDbEntity
  8
0
100
AcDb2dPolyline
 66
     1
 10
0.0
 20
0.0
 30
0.0
 70
     1
1001
ACAD
1000
ASC_BOUNDS
1002
{
1070
    19
1002
}
  0
VERTEX
  5
63F2
330
63F1
100
AcDbEntity
  8
0
100
AcDbVertex
100
AcDb2dVertex
 10
1.426443873879975
 20
926.7722853751712
 30
0.0
1001
ACAD
1000
ASC_BOUNDS
1002
{
1070
    19
1002
}
  0
VERTEX
  5
63F3
330
63F1
100
AcDbEntity
  8
0
100
AcDbVertex
100
AcDb2dVertex
 10
1.408296893181734
 20
926.6611217870789
 30
0.0
  0
VERTEX
  5
63F4
330
63F1
100
AcDbEntity
  8
0
100
AcDbVertex
100
AcDb2dVertex
 10
1.375990673201993
 20
926.6682914304601
 30
0.0
  0
VERTEX
  5
63F5
330
63F1
100
AcDbEntity
  8
0
100
AcDbVertex
100
AcDb2dVertex
 10
1.010192479097737
 20
926.7328990156372
 30
0.0
  0
VERTEX
  5
63F6
330
63F1
100
AcDbEntity
  8
0
100
AcDbVertex
100
AcDb2dVertex
 10
1.03172834082342
 20
926.8548317470051
 30
0.0
  0
VERTEX
  5
63F7
330
63F1
100
AcDbEntity
  8
0
100
AcDbVertex
100
AcDb2dVertex
 10
1.395048928345533
 20
926.7774973461545
 30
0.0
  0
SEQEND
  5
63F8
330
63F1
100
AcDbEntity
  8
0
  0
LINE
  5
63F9
330
18
100
AcDbEntity
  8
0
100
AcDbLine
 10
1.104275325944676
 20
927.1940840131218
 30
0.0
 11
1.045969177768416
 21
926.9082729253286
 31
0.0
1001
ACAD
1000
ASC_BOUNDS
1002
{
1070
    19
1002
}
  0
LINE
  5
63FA
330
18
100
AcDbEntity
  8
0
100
AcDbLine
 10
1.045969177768416
 20
926.9082729253286
 30
0.0
 11
1.077971139748883
 21
926.8449887618528
 31
0.0
1001
ACAD
1000
ASC_BOUNDS
1002
{
1070
    19
1002
}
  0
LINE
  5
63FB
330
18
100
AcDbEntity
  8
0
100
AcDbLine
 10
1.077971139748883
 20
926.8449887618528
 30
0.0
 11
1.185329502928375
 21
926.822137057386
 31
0.0
  0
LINE
  5
63FC
330
18
100
AcDbEntity
  8
0
100
AcDbLine
 10
1.185329502928375
 20
926.822137057386
 30
0.0
 11
1.429423963690533
 21
926.9465111686027
 31
0.0
1001
ACAD
1000
ASC_BOUNDS
1002
{
1070
    19
1002
}
  0
LINE
  5
63FD
330
18
100
AcDbEntity
  8
0
100
AcDbLine
 10
-4.332875845497708
 20
931.9231233057037
 30
0.0
 11
-4.061453076115666
 21
931.3904261270812
 31
0.0
1001
ACAD
1000
ASC_BOUNDS
1002
{
1070
    19
1002
}
  0
LWPOLYLINE
  5
63FE
330
18
100
AcDbEntity
  8
0
100
AcDbPolyline
 90
        4
 70
     0
 43
0.0
 10
-3.749797390890584
 20
931.5424307611772
 10
-4.260961506243737
 20
931.2931193640141
 10
-4.228394045589293
 20
931.2263461743238
 10
-3.720580789313521
 20
931.4850899519868
1001
ACAD
1000
ASC_BOUNDS
1002
{
1070
    19
1002
}
  0
LINE
  5
63FF
330
18
100
AcDbEntity
  8
0
100
AcDbLine
 10
-2.089307440545169
 20
931.9231233057037
 30
0.0
 11
-2.723624332092532
 21
930.776649430245
 31
0.0
1001
ACAD
1000
ASC_BOUNDS
1002
{
1070
    19
1002
}
  0
LINE
  5
6400
330
18
100
AcDbEntity
  8
0
100
AcDbLine
 10
-2.230815556504752
 20
931.9231233057037
 30
0.0
 11
-2.703417861810325
 21
931.0689348019216
 31
0.0
1001
ACAD
1000
ASC_BOUNDS
1002
{
1070
    19
1002
}
  0
CIRCLE
  5
6401
330
18
100
AcDbEntity
  8
0
100
AcDbCircle
 10
-2.826718005792108
 20
930.166416198214
 30
0.0
 40
0.0185729951052831
1001
ACAD
1000
ASC_BOUNDS
1002
{
1070
    19
1002
}
  0
LWPOLYLINE
  5
6402
330
18
100
AcDbEntity
  8
0
100
AcDbPolyline
 90
        2
 70
     1
 43
0.0
 10
-2.808145010686823
 20
930.166416198214
 42
-1.0
 10
-2.845291000897388
 20
930.166416198214
 42
-1.0
1001
ACAD
1000
ASC_BOUNDS
1002
{
1070
    19
1002
}
  0
LINE
  5
6403
330
18
100
AcDbEntity
  8
0
100
AcDbLine
 10
-2.768034635368139
 20
930.1342570768104
 30
0.0
 11
-2.772754275680728
 21
930.1342570768104
 31
0.0
  0
LINE
  5
6404
330
18
100
AcDbEntity
  8
0
100
AcDbLine
 10
-2.644365523617517
 20
931.9231233057037
 30
0.0
 11
-2.768625002393289
 21
930.1257174534638
 31
0.0
1001
ACAD
1000
ASC_BOUNDS
1002
{
1070
    19
1005
0
1002
}
  0
LWPOLYLINE
  5
6405
330
18
100
AcDbEntity
  8
0
100
AcDbPolyline
 90
        3
 70
     0
 43
0.0
 10
-2.768481026352983
 20
931.9231233057037
 10
-2.892150138103588
 20
930.1342570768104
 10
-2.768330170735033
 20
930.1342570768104
1001
ACAD
1000
ASC_BOUNDS
1002
{
1070
    19
1005
0
1002
}
  0
TEXT
  5
6406
330
18
100
AcDbEntity
  8
0
100
AcDbText
 10
14.68535937856361
 20
920.9706636271279
 30
0.0
 40
1.755003814054673
  1
www.PrecisionLadders.com
  7
ROMANS
100
AcDbText
  0
LWPOLYLINE
  5
6407
330
18
100
AcDbEntity
  8
0
100
AcDbPolyline
 90
        9
 70
     0
 43
0.0
 10
2.89875807429927
 20
923.5929642823752
 10
2.898992449947681
 20
923.6301095331722
 10
2.787556697556407
 20
923.6308126601176
 10
2.713266195962218
 20
923.6312814114144
 10
2.71303182031379
 20
923.5941361606174
 42
0.4142135623730939
 10
2.725335445363346
 20
923.5816762851355
 10
2.886298198817415
 20
923.5806606573257
 42
0.4142135623730989
 10
2.898758074299252
 20
923.5929642823752
 42
-0.4142135623730944
 10
2.886298198817415
 20
923.5806606573257
1001
ACAD
1000
ASC_BOUNDS
1002
{
1070
    19
1002
}
  0
LINE
  5
6408
330
18
100
AcDbEntity
  8
0
100
AcDbLine
 10
2.841759025279735
 20
923.6619635320389
 30
0.0
 11
2.841319188608064
 21
923.6304734345523
 31
0.0
1001
ACAD
1000
ASC_BOUNDS
1002
{
1070
    19
1002
}
  0
LINE
  5
6409
330
18
100
AcDbEntity
  8
0
100
AcDbLine
 10
2.773659398818391
 20
923.6623932207278
 30
0.0
 11
2.841759025279735
 21
923.6619635320389
 31
0.0
1001
ACAD
1000
ASC_BOUNDS
1002
{
1070
    19
1002
}
  0
LINE
  5
640A
330
18
100
AcDbEntity
  8
0
100
AcDbLine
 10
2.773485746030368
 20
923.6348716910539
 30
0.0
 11
2.773659398818391
 21
923.6623932207278
 31
0.0
1001
ACAD
1000
ASC_BOUNDS
1002
{
1070
    19
1002
}
  0
TEXT
  5
640C
330
18
100
AcDbEntity
  8
0
100
AcDbText
 10
64.5319042606372
 20
923.6722563999657
 30
0.0
 40
1.184128687499999
  1
CHECKED BY:
  7
ROMANS
100
AcDbText
  0
TEXT
  5
640D
330
18
100
AcDbEntity
  8
0
100
AcDbText
 10
64.5319042606372
 20
934.7107420479119
 30
0.0
 40
1.184128687499999
  1
DWG. CHECK
  7
ROMANS
100
AcDbText
  0
TEXT
  5
640E
330
18
100
AcDbEntity
  8
0
100
AcDbText
 10
64.5319042606372
 20
929.1914992239389
 30
0.0
 40
1.184128687499999
  1
BUILT BY:
  7
ROMANS
100
AcDbText
  0
TEXT
  5
640F
330
18
100
AcDbEntity
  8
0
100
AcDbText
 10
98.2783325749056
 20
923.6722563999657
 30
0.0
 40
1.184128687499999
  1
DRAWN BY:
  7
ROMANS
100
AcDbText
  0
TEXT
  5
6410
330
18
100
AcDbEntity
  8
0
100
AcDbText
 10
98.2783325749056
 20
929.1914992239389
 30
0.0
 40
1.184128687499999
  1
PURCHASE ORDER
  7
ROMANS
100
AcDbText
  0
TEXT
  5
6411
330
18
100
AcDbEntity
  8
0
100
AcDbText
 10
98.2783325749056
 20
934.7107420479119
 30
0.0
 40
1.184128687499999
  1
ARCH'T OR ENG'R.
  7
ROMANS
100
AcDbText
  0
TEXT
  5
6412
330
18
100
AcDbEntity
  8
0
100
AcDbText
 10
228.0343502092374
 20
928.7422344199606
 30
0.0
 40
1.184128687499999
  1
SERIAL#
  7
ROMANS
100
AcDbText
  0
TEXT
  5
6413
330
18
100
AcDbEntity
  8
0
100
AcDbText
 10
227.8844575749056
 20
934.7107420479119
 30
0.0
 40
1.184128687499999
  1
PRECISION REP
  7
ROMANS
100
AcDbText
  0
TEXT
  5
6414
330
18
100
AcDbEntity
  8
0
100
AcDbText
 10
145.4078325749056
 20
923.6722563999657
 30
0.0
 40
1.184128687499999
  1
DATE
  7
ROMANS
100
AcDbText
  0
TEXT
  5
6415
330
18
100
AcDbEntity
  8
0
100
AcDbText
 10
163.0813950749056
 20
923.6722563999657
 30
0.0
 40
1.184128687499999
  1
MODEL#
  7
ROMANS
100
AcDbText
  0
TEXT
  5
6416
330
18
100
AcDbEntity
  8
0
100
AcDbText
 10
145.4078325749056
 20
934.7107420479119
 30
0.0
 40
1.184128687499999
  1
PROJECT
  7
ROMANS
100
AcDbText
  0
TEXT
  5
6417
330
18
100
AcDbEntity
  8
0
100
AcDbText
 10
145.4078325749056
 20
929.1914992239389
 30
0.0
 40
1.184128687499999
  1
WORK ORDER
  7
ROMANS
100
AcDbText
  0
TEXT
  5
6418
330
18
100
AcDbEntity
  8
0
100
AcDbText
 10
163.0813950749056
 20
929.1914992239389
 30
0.0
 40
1.184128687499999
  1
PURCHASER
  7
ROMANS
100
AcDbText
  0
TEXT
  5
6419
330
18
100
AcDbEntity
  8
0
100
AcDbText
 10
216.1020825749056
 20
923.6722563999657
 30
0.0
 40
1.184128687499999
  1
QTY.
  7
ROMANS
100
AcDbText
  0
LINE
  5
641A
330
18
100
AcDbEntity
  8
0
100
AcDbLine
 10
64.09006519813718
 20
925.4396126499658
 30
0.0
 11
227.4426185124056
 21
925.4396126499658
 31
0.0
  0
LINE
  5
641B
330
18
100
AcDbEntity
  8
0
100
AcDbLine
 10
286.3544935124056
 20
919.9203698259928
 30
0.0
 11
286.3544935124056
 21
1147.534432325993
 31
0.0
  0
LINE
  5
641C
330
18
100
AcDbEntity
  8
0
100
AcDbLine
 10
286.3544935124056
 20
1147.534432325993
 30
0.0
 11
-8.204881487594411
 21
1147.534432325993
 31
0.0
  0
LINE
  5
641D
330
18
100
AcDbEntity
  8
0
100
AcDbLine
 10
-8.204881487594411
 20
1147.534432325993
 30
0.0
 11
-8.204881487594411
 21
919.9203698259928
 31
0.0
  0
LINE
  5
641E
330
18
100
AcDbEntity
  8
0
100
AcDbLine
 10
-8.204881487594411
 20
919.9203698259928
 30
0.0
 11
286.3544935124056
 21
919.9203698259928
 31
0.0
  0
LINE
  5
641F
330
18
100
AcDbEntity
  8
0
100
AcDbLine
 10
64.09006519813718
 20
919.9203698259928
 30
0.0
 11
64.09006519813718
 21
936.4780982979119
 31
0.0
  0
LINE
  5
6420
330
18
100
AcDbEntity
  8
0
100
AcDbLine
 10
97.83649351240558
 20
919.9203698259928
 30
0.0
 11
97.83649351240558
 21
936.4780982979119
 31
0.0
  0
LINE
  5
6421
330
18
100
AcDbEntity
  8
0
100
AcDbLine
 10
144.9659935124056
 20
919.9203698259928
 30
0.0
 11
144.9659935124056
 21
936.4780982979119
 31
0.0
  0
LINE
  5
6422
330
18
100
AcDbEntity
  8
0
100
AcDbLine
 10
162.6395560124056
 20
919.9203698259928
 30
0.0
 11
162.6395560124056
 21
930.958855473939
 31
0.0
  0
LINE
  5
6423
330
18
100
AcDbEntity
  8
0
100
AcDbLine
 10
227.4426185124056
 20
919.9203698259928
 30
0.0
 11
227.4426185124056
 21
936.4780982979119
 31
0.0
  0
LINE
  5
6424
330
18
100
AcDbEntity
  8
0
100
AcDbLine
 10
215.6602435124056
 20
919.9203698259928
 30
0.0
 11
215.6602435124056
 21
925.4396126499658
 31
0.0
  0
LINE
  5
6425
330
18
100
AcDbEntity
  8
0
100
AcDbLine
 10
-8.204881487594411
 20
936.4780982979119
 30
0.0
 11
286.3544935124056
 21
936.4780982979119
 31
0.0
  0
LINE
  5
6426
330
18
100
AcDbEntity
  8
0
100
AcDbLine
 10
64.09006519813718
 20
930.958855473939
 30
0.0
 11
286.3544935124056
 21
930.958855473939
 31
0.0
  0
LINE
  5
6435
330
18
100
AcDbEntity
  8
0
100
AcDbLine
 10
36.17009230553316
 20
971.8233088623261
 30
0.0
 11
42.80035626758712
 21
971.8233088623261
 31
0.0
  0
LEADER
  5
6436
330
18
100
AcDbEntity
  8
0
100
AcDbLeader
  3
STANDARD
 73
     0
 40
6.428571428571428
 41
24.85714285714285
 76
     3
 10
36.17009230553316
 20
971.5733088623261
 30
0.0
 10
30.13662970825567
 20
965.3333039289705
 30
0.0
 10
26.9091952186443
 20
965.3333039289705
 30
0.0
340
6437
213
0.0
223
1.125
233
0.0
1001
ACAD
1000
DSTYLE
1002
{
1070
   147
1040
0.0625
1070
    77
1070
     0
1002
}
  0
MTEXT
  5
6437
102
{ACAD_REACTORS
330
6436
102
}
330
18
100
AcDbEntity
  8
0
100
AcDbMText
 10
26.1591952186443
 20
964.2083039289707
 30
0.0
 40
2.25
 41
0.0
 46
0.0
 71
     6
 72
     1
  1
4" FLAT BAR\PFOR MOUNTING
  7
ROMANS
 73
     1
 44
1.0
  0
LINE
  5
643A
330
18
100
AcDbEntity
  8
0
100
AcDbLine
 10
128.434189793388
 20
1087.885808862325
 30
0.0
 11
104.9665998064054
 21
1068.190563230423
 31
0.0
  0
LINE
  5
643B
330
18
100
AcDbEntity
  8
0
100
AcDbLine
 10
134.5888015836195
 20
1059.051085358329
 30
0.0
 11
134.5888015836188
 21
1087.845630327785
 31
0.0
  0
LINE
  5
6449
330
18
100
AcDbEntity
  8
0
100
AcDbLine
 10
71.96939802919138
 20
1006.49756217969
 30
0.0
 11
71.96939802919138
 21
1046.29452099486
 31
0.0
  0
LINE
  5
644B
330
18
100
AcDbEntity
  8
0
100
AcDbLine
 10
103.2790998064054
 20
1032.77432376901
 30
0.0
 11
103.2790998064054
 21
1072.571282584177
 31
0.0
  0
LINE
  5
644F
330
18
100
AcDbEntity
  8
0
100
AcDbLine
 10
143.9241550130452
 20
1087.885808862325
 30
0.0
 11
136.2763015836191
 21
1081.467324819742
 31
0.0
  0
DIMENSION
  5
6463
330
18
100
AcDbEntity
  8
0
100
AcDbDimension
  2
*D8
 10
122.4044908527101
 20
1023.091319423557
 30
0.0
 11
128.4393781556483
 21
1019.017562074778
 31
0.0
 70
   160
  1
6-1/2" MIN.\P9-1/2" MAX.
 71
     5
 42
8.562499999999772
 73
     0
 74
     0
 75
     0
  3
STANDARD$0
100
AcDbAlignedDimension
 13
112.9225185520532
 23
1031.653819423557
 33
0.0
 14
102.7199933833367
 24
1023.091319423557
 34
0.0
 50
90.0
100
AcDbRotatedDimension
1001
ACAD
1000
DSTYLE
1002
{
1070
   279
1070
     1
1002
}
  0
TEXT
  5
64FA
330
18
100
AcDbEntity
  8
0
100
AcDbText
 10
7.693210252782358
 20
1125.367517060683
 30
0.0
 40
2.864644120799999
  1
BAR GRATING TREAD
  7
ROMANS
100
AcDbText
  0
CIRCLE
  5
64FB
330
18
100
AcDbEntity
  8
0
100
AcDbCircle
 10
3.067440980037624
 20
1126.588338113829
 30
0.0
 40
2.612730869959591
  0
TEXT
  5
64FC
330
18
100
AcDbEntity
  8
0
100
AcDbText
 10
2.014789073557262
 20
1125.081639051485
 30
0.0
 40
2.864644120799999
  1
A
  7
ROMANS
 72
     1
 11
3.242493696757263
 21
1125.081639051485
 31
0.0
100
AcDbText
  0
TEXT
  5
64FD
330
18
100
AcDbEntity
  8
0
100
AcDbText
 10
14.42403512211475
 20
1089.722678834966
 30
0.0
 40
1.718786472479999
  1
TREAD WELDED AND BOLTED
  7
ROMANS
100
AcDbText
  0
TEXT
  5
64FE
330
18
100
AcDbEntity
  8
0
100
AcDbText
 10
17.05491120806606
 20
1086.939881689046
 30
0.0
 40
1.718786472479999
  1
TO STRINGER WITH 3/8"
  7
ROMANS
100
AcDbText
  0
TEXT
  5
64FF
330
18
100
AcDbEntity
  8
0
100
AcDbText
 10
19.44661708012002
 20
1084.157084543126
 30
0.0
 40
1.718786472479999
  1
HEX HEAD BOLTS
  7
ROMANS
100
AcDbText
  0
LINE
  5
6500
330
18
100
AcDbEntity
  8
0
100
AcDbLine
 10
60.21077777995561
 20
1108.960202719785
 30
0.0
 11
6.938399785079311
 21
1108.960202719785
 31
0.0
  0
LINE
  5
6501
330
18
100
AcDbEntity
  8
0
100
AcDbLine
 10
6.938399785079311
 20
1108.960202719785
 30
0.0
 11
6.938399785079311
 21
1096.483256186228
 31
0.0
  0
LINE
  5
6502
330
18
100
AcDbEntity
  8
0
100
AcDbLine
 10
60.21077777995585
 20
1108.960202719785
 30
0.0
 11
60.21077777995561
 21
1096.483256186228
 31
0.0
  0
LINE
  5
6503
330
18
100
AcDbEntity
  8
0
100
AcDbLine
 10
60.21077777995561
 20
1096.483256186228
 30
0.0
 11
6.938399785079311
 21
1096.483256186228
 31
0.0
  0
LINE
  5
6504
330
18
100
AcDbEntity
  8
0
  6
HIDDEN
100
AcDbLine
 10
60.21077777995585
 20
1102.267331186228
 30
0.0
 11
59.05396277995566
 21
1102.267331186228
 31
0.0
  0
LINE
  5
6505
330
18
100
AcDbEntity
  8
0
  6
HIDDEN
100
AcDbLine
 10
8.095214785079434
 20
1106.646572719785
 30
0.0
 11
8.095214785079374
 21
1099.953701186228
 31
0.0
  0
LINE
  5
6506
330
18
100
AcDbEntity
  8
0
  6
HIDDEN
100
AcDbLine
 10
59.05396277995566
 20
1107.803387719785
 30
0.0
 11
54.72326527793656
 21
1107.803387719785
 31
0.0
  0
LINE
  5
6507
330
18
100
AcDbEntity
  8
0
  6
HIDDEN
100
AcDbLine
 10
59.05396277995578
 20
1108.960202719785
 30
0.0
 11
59.05396277995566
 21
1102.267331186228
 31
0.0
  0
LINE
  5
6508
330
18
100
AcDbEntity
  8
0
  6
HIDDEN
100
AcDbLine
 10
12.72247478507934
 20
1108.960202719785
 30
0.0
 11
12.72247478507934
 21
1102.267331186228
 31
0.0
  0
LINE
  5
6509
330
18
100
AcDbEntity
  8
0
  6
HIDDEN
100
AcDbLine
 10
13.87928978507934
 20
1108.960202719785
 30
0.0
 11
13.87928978507934
 21
1102.267331186228
 31
0.0
  0
LINE
  5
650A
330
18
100
AcDbEntity
  8
0
  6
HIDDEN
100
AcDbLine
 10
18.50654978507931
 20
1108.960202719785
 30
0.0
 11
18.50654978507931
 21
1102.267331186228
 31
0.0
  0
LINE
  5
650B
330
18
100
AcDbEntity
  8
0
  6
HIDDEN
100
AcDbLine
 10
19.66336478507932
 20
1108.960202719785
 30
0.0
 11
19.66336478507932
 21
1102.267331186228
 31
0.0
  0
LINE
  5
650C
330
18
100
AcDbEntity
  8
0
  6
HIDDEN
100
AcDbLine
 10
41.83978941944875
 20
1108.960202719785
 30
0.0
 11
41.83978941944875
 21
1102.267331186228
 31
0.0
  0
LINE
  5
650D
330
18
100
AcDbEntity
  8
0
  6
HIDDEN
100
AcDbLine
 10
42.99660441944875
 20
1108.960202719785
 30
0.0
 11
42.99660441944864
 21
1102.267331186228
 31
0.0
  0
LINE
  5
650E
330
18
100
AcDbEntity
  8
0
  6
HIDDEN
100
AcDbLine
 10
53.56645027793673
 20
1108.960202719785
 30
0.0
 11
53.56645027793673
 21
1102.267331186228
 31
0.0
  0
LINE
  5
650F
330
18
100
AcDbEntity
  8
0
  6
HIDDEN
100
AcDbLine
 10
54.72326527793674
 20
1108.960202719785
 30
0.0
 11
54.72326527793674
 21
1102.267331186228
 31
0.0
  0
LINE
  5
6510
330
18
100
AcDbEntity
  8
0
  6
HIDDEN
100
AcDbLine
 10
12.72247478507934
 20
1107.803387719785
 30
0.0
 11
6.938399785079311
 21
1107.803387719785
 31
0.0
  0
LINE
  5
6511
330
18
100
AcDbEntity
  8
0
  6
HIDDEN
100
AcDbLine
 10
18.50654978507943
 20
1107.803387719785
 30
0.0
 11
13.87928978507934
 21
1107.803387719785
 31
0.0
  0
LINE
  5
6512
330
18
100
AcDbEntity
  8
0
  6
HIDDEN
100
AcDbLine
 10
53.56645027793661
 20
1107.803387719785
 30
0.0
 11
48.78067941944867
 21
1107.803387719785
 31
0.0
  0
LINE
  5
6513
330
18
100
AcDbEntity
  8
0
  6
HIDDEN
100
AcDbLine
 10
12.72247478507934
 20
1106.646572719785
 30
0.0
 11
8.095214785079434
 21
1106.646572719785
 31
0.0
  0
LINE
  5
6514
330
18
100
AcDbEntity
  8
0
  6
HIDDEN
100
AcDbLine
 10
13.87928978507934
 20
1102.267331186228
 30
0.0
 11
12.72247478507945
 21
1102.267331186228
 31
0.0
  0
LINE
  5
6515
330
18
100
AcDbEntity
  8
0
  6
HIDDEN
100
AcDbLine
 10
19.66336478507937
 20
1102.267331186228
 30
0.0
 11
18.50654978507931
 21
1102.267331186228
 31
0.0
  0
LINE
  5
6516
330
18
100
AcDbEntity
  8
0
  6
HIDDEN
100
AcDbLine
 10
42.99660441944875
 20
1102.267331186228
 30
0.0
 11
41.83978941944881
 21
1102.267331186228
 31
0.0
  0
LINE
  5
6517
330
18
100
AcDbEntity
  8
0
  6
HIDDEN
100
AcDbLine
 10
54.72326527793674
 20
1102.267331186228
 30
0.0
 11
53.56645027793673
 21
1102.267331186228
 31
0.0
  0
CIRCLE
  5
6518
330
18
100
AcDbEntity
  8
0
100
AcDbCircle
 10
12.14406728507934
 20
1099.953701186228
 30
0.0
 40
1.012213124999999
  0
ARC
  5
6519
330
18
100
AcDbEntity
  8
0
100
AcDbCircle
 10
46.32493382899849
 20
1099.953701186228
 30
0.0
 40
1.012213124999999
100
AcDbArc
 50
90.0
 51
270.0
  0
ARC
  5
651A
330
18
100
AcDbEntity
  8
0
100
AcDbCircle
 10
50.37378632899851
 20
1099.953701186228
 30
0.0
 40
1.012213124999999
100
AcDbArc
 50
270.0
 51
90.0
  0
LINE
  5
651B
330
18
100
AcDbEntity
  8
0
100
AcDbLine
 10
46.32493382899849
 20
1098.941488061228
 30
0.0
 11
50.37378632899851
 21
1098.941488061228
 31
0.0
  0
LINE
  5
651C
330
18
100
AcDbEntity
  8
0
100
AcDbLine
 10
46.32493382899849
 20
1100.965914311228
 30
0.0
 11
50.37378632899851
 21
1100.965914311228
 31
0.0
  0
LINE
  5
651D
330
18
100
AcDbEntity
  8
0
  6
HIDDEN
100
AcDbLine
 10
8.095214785079374
 20
1099.953701186228
 30
0.0
 11
6.938399785079252
 21
1099.953701186228
 31
0.0
  0
DIMENSION
  5
651E
330
18
100
AcDbEntity
  8
0
100
AcDbDimension
  2
*D9
 10
60.21077777995561
 20
1113.887671477223
 30
0.0
 11
33.57458878251746
 21
1113.887671477223
 31
0.0
 70
    32
  1
AS REQ'D
 71
     5
 42
53.2723779948763
 73
     0
 74
     0
 75
     0
  3
STANDARD$0
100
AcDbAlignedDimension
 13
6.938399785079311
 23
1108.960202719785
 33
0.0
 14
60.21077777995561
 24
1108.960202719785
 34
0.0
100
AcDbRotatedDimension
  0
DIMENSION
  5
651F
330
18
100
AcDbEntity
  8
0
100
AcDbDimension
  2
*D10
 10
68.77872807015234
 20
1102.267331186228
 30
0.0
 11
68.77872807015217
 21
1105.613766953006
 31
0.0
 70
   160
  1
VARIES
 71
     5
 42
6.692871533557308
 73
     0
 74
     0
 75
     0
  3
STANDARD$0
100
AcDbAlignedDimension
 13
60.21077777995561
 23
1108.960202719785
 33
0.0
 14
60.21077777995585
 24
1102.267331186228
 34
0.0
 50
90.0
100
AcDbRotatedDimension
  0
TEXT
  5
6520
330
18
100
AcDbEntity
  8
0
100
AcDbText
 10
19.54189421357781
 20
1121.178559351466
 30
0.0
 40
1.718786472479999
  1
(GROOVED NOSING)
  7
ROMANS
100
AcDbText
  0
LINE
  5
6521
330
18
100
AcDbEntity
  8
0
  6
HIDDEN
100
AcDbLine
 10
48.78067941944867
 20
1108.960202719785
 30
0.0
 11
48.78067941944856
 21
1102.267331186228
 31
0.0
  0
LINE
  5
6522
330
18
100
AcDbEntity
  8
0
  6
HIDDEN
100
AcDbLine
 10
47.62386441944861
 20
1108.960202719785
 30
0.0
 11
47.62386441944861
 21
1102.267331186228
 31
0.0
  0
LINE
  5
6523
330
18
100
AcDbEntity
  8
0
  6
HIDDEN
100
AcDbLine
 10
48.78067941944867
 20
1102.267331186228
 30
0.0
 11
47.62386441944872
 21
1102.267331186228
 31
0.0
  0
LINE
  5
6524
330
18
100
AcDbEntity
  8
0
  6
HIDDEN
100
AcDbLine
 10
47.62386441944861
 20
1107.803387719785
 30
0.0
 11
42.99660441944864
 21
1107.803387719785
 31
0.0
  0
LINE
  5
6525
330
18
100
AcDbEntity
  8
0
  6
HIDDEN
100
AcDbLine
 10
36.05571441944891
 20
1108.960202719785
 30
0.0
 11
36.05571441944891
 21
1102.267331186228
 31
0.0
  0
LINE
  5
6526
330
18
100
AcDbEntity
  8
0
  6
HIDDEN
100
AcDbLine
 10
37.21252941944891
 20
1108.960202719785
 30
0.0
 11
37.21252941944879
 21
1102.267331186228
 31
0.0
  0
LINE
  5
6527
330
18
100
AcDbEntity
  8
0
  6
HIDDEN
100
AcDbLine
 10
37.21252941944891
 20
1102.267331186228
 30
0.0
 11
36.05571441944896
 21
1102.267331186228
 31
0.0
  0
LINE
  5
6528
330
18
100
AcDbEntity
  8
0
  6
HIDDEN
100
AcDbLine
 10
41.83978941944875
 20
1107.803387719785
 30
0.0
 11
37.21252941944879
 21
1107.803387719785
 31
0.0
  0
LINE
  5
6529
330
18
100
AcDbEntity
  8
0
  6
HIDDEN
100
AcDbLine
 10
31.428454419449
 20
1108.960202719785
 30
0.0
 11
31.42845441944887
 21
1102.267331186228
 31
0.0
  0
LINE
  5
652A
330
18
100
AcDbEntity
  8
0
  6
HIDDEN
100
AcDbLine
 10
30.27163941944899
 20
1108.960202719785
 30
0.0
 11
30.27163941944899
 21
1102.267331186228
 31
0.0
  0
LINE
  5
652B
330
18
100
AcDbEntity
  8
0
  6
HIDDEN
100
AcDbLine
 10
31.428454419449
 20
1102.267331186228
 30
0.0
 11
30.2716394194491
 21
1102.267331186228
 31
0.0
  0
LINE
  5
652C
330
18
100
AcDbEntity
  8
0
  6
HIDDEN
100
AcDbLine
 10
36.05571441944891
 20
1107.803387719785
 30
0.0
 11
31.42845441944887
 21
1107.803387719785
 31
0.0
  0
LINE
  5
652D
330
18
100
AcDbEntity
  8
0
  6
HIDDEN
100
AcDbLine
 10
24.48756441944901
 20
1108.960202719785
 30
0.0
 11
24.48756441944901
 21
1102.267331186228
 31
0.0
  0
LINE
  5
652E
330
18
100
AcDbEntity
  8
0
  6
HIDDEN
100
AcDbLine
 10
25.64437941944908
 20
1108.960202719785
 30
0.0
 11
25.64437941944896
 21
1102.267331186228
 31
0.0
  0
LINE
  5
652F
330
18
100
AcDbEntity
  8
0
  6
HIDDEN
100
AcDbLine
 10
25.64437941944908
 20
1102.267331186228
 30
0.0
 11
24.48756441944913
 21
1102.267331186228
 31
0.0
  0
LINE
  5
6530
330
18
100
AcDbEntity
  8
0
  6
HIDDEN
100
AcDbLine
 10
30.27163941944899
 20
1107.803387719785
 30
0.0
 11
25.64437941944896
 21
1107.803387719785
 31
0.0
  0
LINE
  5
6531
330
18
100
AcDbEntity
  8
0
  6
HIDDEN
100
AcDbLine
 10
24.48756441944901
 20
1107.803387719785
 30
0.0
 11
19.86030441944905
 21
1107.803387719785
 31
0.0
  0
LWPOLYLINE
  5
6532
330
18
100
AcDbEntity
  8
0
  6
HIDDEN
100
AcDbPolyline
 90
        5
 70
     0
 43
0.0
 10
182.394561507534
 20
1089.323308862325
 10
173.3401947330678
 20
1089.323308862325
 10
173.3401947330678
 20
1091.573308862325
 10
184.3401947330678
 20
1091.573308862325
 10
184.3401947330678
 20
1091.537287739864
  0
LWPOLYLINE
  5
6533
330
18
100
AcDbEntity
  8
0
  6
Continuous
100
AcDbPolyline
 90
        3
 70
     0
 43
0.0
 10
184.3401947330678
 20
1091.537287739864
 10
184.3401947330678
 20
1089.323308862325
 10
182.394561507534
 20
1089.323308862325
  0
LWPOLYLINE
  5
659C
330
18
100
AcDbEntity
  8
0
  6
HIDDEN
100
AcDbPolyline
 90
        5
 70
     0
 43
0.0
 10
172.1920363388184
 20
1080.760808862325
 10
163.1376695643522
 20
1080.760808862325
 10
163.1376695643522
 20
1083.010808862325
 10
174.1376695643522
 20
1083.010808862325
 10
174.1376695643522
 20
1082.974787739864
  0
LWPOLYLINE
  5
659D
330
18
100
AcDbEntity
  8
0
  6
Continuous
100
AcDbPolyline
 90
        3
 70
     0
 43
0.0
 10
174.1376695643522
 20
1082.974787739864
 10
174.1376695643522
 20
1080.760808862325
 10
172.1920363388184
 20
1080.760808862325
  0
LWPOLYLINE
  5
659E
330
18
100
AcDbEntity
  8
0
  6
HIDDEN
100
AcDbPolyline
 90
        5
 70
     0
 43
0.0
 10
161.9895111701017
 20
1072.198308862325
 10
152.9351443956356
 20
1072.198308862325
 10
152.9351443956356
 20
1074.448308862325
 10
163.9351443956355
 20
1074.448308862325
 10
163.9351443956355
 20
1074.412287739864
  0
LWPOLYLINE
  5
659F
330
18
100
AcDbEntity
  8
0
  6
Continuous
100
AcDbPolyline
 90
        3
 70
     0
 43
0.0
 10
163.9351443956355
 20
1074.412287739864
 10
163.9351443956355
 20
1072.198308862325
 10
161.9895111701017
 20
1072.198308862325
  0
LWPOLYLINE
  5
65A0
330
18
100
AcDbEntity
  8
0
  6
HIDDEN
100
AcDbPolyline
 90
        5
 70
     0
 43
0.0
 10
151.786986001385
 20
1063.635808862325
 10
142.7326192269188
 20
1063.635808862325
 10
142.7326192269188
 20
1065.885808862325
 10
153.7326192269189
 20
1065.885808862325
 10
153.7326192269188
 20
1065.849787739864
  0
LWPOLYLINE
  5
65A1
330
18
100
AcDbEntity
  8
0
  6
Continuous
100
AcDbPolyline
 90
        3
 70
     0
 43
0.0
 10
153.7326192269188
 20
1065.849787739864
 10
153.7326192269188
 20
1063.635808862325
 10
151.786986001385
 20
1063.635808862325
  0
LWPOLYLINE
  5
65A2
330
18
100
AcDbEntity
  8
0
  6
HIDDEN
100
AcDbPolyline
 90
        5
 70
     0
 43
0.0
 10
141.5844608326684
 20
1055.073308862325
 10
132.5300940582022
 20
1055.073308862325
 10
132.5300940582022
 20
1057.323308862325
 10
143.5300940582022
 20
1057.323308862325
 10
143.5300940582021
 20
1057.287287739864
  0
LWPOLYLINE
  5
65A3
330
18
100
AcDbEntity
  8
0
  6
Continuous
100
AcDbPolyline
 90
        3
 70
     0
 43
0.0
 10
143.5300940582021
 20
1057.287287739864
 10
143.5300940582021
 20
1055.073308862325
 10
141.5844608326684
 20
1055.073308862325
  0
LWPOLYLINE
  5
65A4
330
18
100
AcDbEntity
  8
0
  6
HIDDEN
100
AcDbPolyline
 90
        5
 70
     0
 43
0.0
 10
131.3819356639516
 20
1046.510808862325
 10
122.3275688894855
 20
1046.510808862325
 10
122.3275688894855
 20
1048.760808862325
 10
133.3275688894854
 20
1048.760808862325
 10
133.3275688894854
 20
1048.724787739864
  0
LWPOLYLINE
  5
65A5
330
18
100
AcDbEntity
  8
0
  6
Continuous
100
AcDbPolyline
 90
        3
 70
     0
 43
0.0
 10
133.3275688894854
 20
1048.724787739864
 10
133.3275688894854
 20
1046.510808862325
 10
131.3819356639516
 20
1046.510808862325
  0
LWPOLYLINE
  5
65A6
330
18
100
AcDbEntity
  8
0
  6
HIDDEN
100
AcDbPolyline
 90
        5
 70
     0
 43
0.0
 10
121.179410495235
 20
1037.948308862326
 10
112.1250437207688
 20
1037.948308862326
 10
112.1250437207688
 20
1040.198308862325
 10
123.1250437207688
 20
1040.198308862325
 10
123.1250437207688
 20
1040.162287739864
  0
LWPOLYLINE
  5
65A7
330
18
100
AcDbEntity
  8
0
  6
Continuous
100
AcDbPolyline
 90
        3
 70
     0
 43
0.0
 10
123.1250437207688
 20
1040.162287739864
 10
123.1250437207688
 20
1037.948308862326
 10
121.179410495235
 20
1037.948308862326
  0
LWPOLYLINE
  5
65A8
330
18
100
AcDbEntity
  8
0
  6
HIDDEN
100
AcDbPolyline
 90
        5
 70
     0
 43
0.0
 10
110.9768853265183
 20
1029.385808862326
 10
101.9225185520521
 20
1029.385808862326
 10
101.9225185520521
 20
1031.635808862325
 10
112.9225185520521
 20
1031.635808862325
 10
112.922518552052
 20
1031.599787739864
  0
LWPOLYLINE
  5
65A9
330
18
100
AcDbEntity
  8
0
  6
Continuous
100
AcDbPolyline
 90
        3
 70
     0
 43
0.0
 10
112.922518552052
 20
1031.599787739864
 10
112.922518552052
 20
1029.385808862326
 10
110.9768853265183
 20
1029.385808862326
  0
LWPOLYLINE
  5
65AA
330
18
100
AcDbEntity
  8
0
  6
HIDDEN
100
AcDbPolyline
 90
        5
 70
     0
 43
0.0
 10
100.7743601578016
 20
1020.823308862325
 10
91.71999338333543
 20
1020.823308862325
 10
91.71999338333543
 20
1023.073308862325
 10
102.7199933833354
 20
1023.073308862325
 10
102.7199933833353
 20
1023.037287739864
  0
LWPOLYLINE
  5
65AB
330
18
100
AcDbEntity
  8
0
  6
Continuous
100
AcDbPolyline
 90
        3
 70
     0
 43
0.0
 10
102.7199933833353
 20
1023.037287739864
 10
102.7199933833353
 20
1020.823308862325
 10
100.7743601578016
 20
1020.823308862325
  0
LWPOLYLINE
  5
65AC
330
18
100
AcDbEntity
  8
0
  6
HIDDEN
100
AcDbPolyline
 90
        5
 70
     0
 43
0.0
 10
90.57183498908495
 20
1012.260808862325
 10
81.51746821461875
 20
1012.260808862325
 10
81.51746821461875
 20
1014.510808862326
 10
92.51746821461876
 20
1014.510808862326
 10
92.51746821461869
 20
1014.474787739864
  0
LWPOLYLINE
  5
65AD
330
18
100
AcDbEntity
  8
0
  6
Continuous
100
AcDbPolyline
 90
        3
 70
     0
 43
0.0
 10
92.51746821461869
 20
1014.474787739864
 10
92.51746821461869
 20
1012.260808862325
 10
90.57183498908495
 20
1012.260808862325
  0
LWPOLYLINE
  5
65AE
330
18
100
AcDbEntity
  8
0
  6
HIDDEN
100
AcDbPolyline
 90
        5
 70
     0
 43
0.0
 10
80.36930982036825
 20
1003.698308862325
 10
71.31494304590205
 20
1003.698308862325
 10
71.31494304590205
 20
1005.948308862326
 10
82.31494304590205
 20
1005.948308862326
 10
82.31494304590199
 20
1005.912287739864
  0
LWPOLYLINE
  5
65AF
330
18
100
AcDbEntity
  8
0
  6
Continuous
100
AcDbPolyline
 90
        3
 70
     0
 43
0.0
 10
82.31494304590199
 20
1005.912287739864
 10
82.31494304590199
 20
1003.698308862325
 10
80.36930982036825
 20
1003.698308862325
  0
LWPOLYLINE
  5
65B0
330
18
100
AcDbEntity
  8
0
  6
HIDDEN
100
AcDbPolyline
 90
        5
 70
     0
 43
0.0
 10
70.16678465165154
 20
995.1358088623255
 10
61.11241787718535
 20
995.1358088623255
 10
61.11241787718535
 20
997.3858088623256
 10
72.11241787718535
 20
997.3858088623256
 10
72.11241787718529
 20
997.349787739864
  0
LWPOLYLINE
  5
65B1
330
18
100
AcDbEntity
  8
0
  6
Continuous
100
AcDbPolyline
 90
        3
 70
     0
 43
0.0
 10
72.11241787718529
 20
997.349787739864
 10
72.11241787718529
 20
995.1358088623255
 10
70.16678465165154
 20
995.1358088623255
  0
LWPOLYLINE
  5
65B2
330
18
100
AcDbEntity
  8
0
  6
HIDDEN
100
AcDbPolyline
 90
        5
 70
     0
 43
0.0
 10
59.96425948293486
 20
986.5733088623256
 10
50.90989270846868
 20
986.5733088623256
 10
50.90989270846868
 20
988.8233088623255
 10
61.90989270846867
 20
988.8233088623255
 10
61.90989270846862
 20
988.787287739864
  0
LWPOLYLINE
  5
65B3
330
18
100
AcDbEntity
  8
0
  6
Continuous
100
AcDbPolyline
 90
        3
 70
     0
 43
0.0
 10
61.90989270846862
 20
988.787287739864
 10
61.90989270846862
 20
986.5733088623256
 10
59.96425948293486
 20
986.5733088623256
  0
LWPOLYLINE
  5
65B4
330
18
100
AcDbEntity
  8
0
  6
HIDDEN
100
AcDbPolyline
 90
        5
 70
     0
 43
0.0
 10
49.76173431421819
 20
978.0108088623256
 10
40.70736753975199
 20
978.0108088623256
 10
40.70736753975199
 20
980.2608088623255
 10
51.707367539752
 20
980.2608088623255
 10
51.70736753975194
 20
980.224787739864
  0
LWPOLYLINE
  5
65B5
330
18
100
AcDbEntity
  8
0
  6
Continuous
100
AcDbPolyline
 90
        3
 70
     0
 43
0.0
 10
51.70736753975194
 20
980.224787739864
 10
51.70736753975194
 20
978.0108088623256
 10
49.76173431421819
 20
978.0108088623256
  0
LINE
  5
666A
330
18
100
AcDbEntity
  8
0
100
AcDbLine
 10
181.8142733136621
 20
1088.241157754949
 30
0.0
 11
184.0901947330678
 21
1088.241157754949
 31
0.0
  0
LINE
  5
666C
330
18
100
AcDbEntity
  8
0
100
AcDbLine
 10
184.0901947330678
 20
1083.241157754949
 30
0.0
 11
175.8565943830243
 21
1083.241157754949
 31
0.0
  0
LINE
  5
666D
330
18
100
AcDbEntity
  8
0
100
AcDbLine
 10
184.0901947330678
 20
1082.741157754949
 30
0.0
 11
184.3401947330679
 21
1082.741157754949
 31
0.0
  0
LINE
  5
666E
330
18
100
AcDbEntity
  8
0
100
AcDbLine
 10
184.3401947330679
 20
1082.741157754949
 30
0.0
 11
184.3401947330679
 21
1088.741157754949
 31
0.0
  0
LINE
  5
666F
330
18
100
AcDbEntity
  8
0
100
AcDbLine
 10
184.3401947330679
 20
1088.741157754949
 30
0.0
 11
184.0901947330678
 21
1088.741157754949
 31
0.0
  0
LINE
  5
6670
330
18
100
AcDbEntity
  8
0
100
AcDbLine
 10
184.0901947330678
 20
1088.741157754949
 30
0.0
 11
184.0901947330678
 21
1082.741157754949
 31
0.0
  0
MTEXT
  5
6674
330
18
100
AcDbEntity
  8
0
100
AcDbMText
 10
193.0648070456229
 20
1076.523506234774
 30
0.0
 40
2.25
 41
0.0
 46
0.0
 71
     4
 72
     1
  1
5" CHANNEL\Pw/6" PLATE
  7
ROMANS
 73
     1
 44
1.0
  0
LINE
  5
676C
330
18
100
AcDbEntity
  8
0
100
AcDbLine
 10
131.0591922034274
 20
1087.885808862326
 30
0.0
 11
104.9665998064054
 21
1065.987522045592
 31
0.0
  0
LINE
  5
676D
330
18
100
AcDbEntity
  8
0
100
AcDbLine
 10
42.39486753975092
 20
981.6770483237394
 30
0.0
 11
42.39486753975091
 21
1021.474007138908
 31
0.0
  0
LINE
  5
676E
330
18
100
AcDbEntity
  8
0
100
AcDbLine
 10
146.5491574230849
 20
1087.885808862326
 30
0.0
 11
136.2763015836191
 21
1079.264283634911
 31
0.0
  0
LINE
  5
676F
330
18
100
AcDbEntity
  8
0
100
AcDbLine
 10
73.65689802919139
 20
1007.913801641104
 30
0.0
 11
73.65689802919137
 21
1047.710760456273
 31
0.0
  0
LINE
  5
6770
330
18
100
AcDbEntity
  8
0
100
AcDbLine
 10
104.9665998064054
 20
1034.190563230422
 30
0.0
 11
104.9665998064054
 21
1073.987522045591
 31
0.0
  0
LINE
  5
6772
330
18
100
AcDbEntity
  8
0
100
AcDbLine
 10
136.2763015836195
 20
1060.467324819742
 30
0.0
 11
136.2763015836188
 21
1087.845630327785
 31
0.0
  0
LINE
  5
6773
330
18
100
AcDbEntity
  8
0
100
AcDbLine
 10
168.9464065217225
 20
1087.885808862325
 30
0.0
 11
121.5269059144073
 21
1087.885808862325
 31
0.0
  0
LINE
  5
6774
330
18
100
AcDbEntity
  8
0
 62
     7
100
AcDbLine
 10
40.70736753975092
 20
980.2608088623255
 30
0.0
 11
40.70736753975092
 21
1022.260808862326
 31
0.0
  0
LINE
  5
6775
330
18
100
AcDbEntity
  8
0
100
AcDbLine
 10
120.9126201434577
 20
1089.573308862325
 30
0.0
 11
40.70736753975092
 21
1022.260808862325
 31
0.0
  0
LINE
  5
6776
330
18
100
AcDbEntity
  8
0
100
AcDbLine
 10
121.5269059144071
 20
1087.885808862325
 30
0.0
 11
42.39486753975091
 21
1021.474007138907
 31
0.0
  0
LINE
  5
6777
330
18
100
AcDbEntity
  8
0
 62
     7
100
AcDbLine
 10
121.5269059144073
 20
1087.885808862325
 30
0.0
 11
120.9126201434577
 21
1089.573308862325
 31
0.0
  0
LINE
  5
67B2
330
18
100
AcDbEntity
  8
0
100
AcDbLine
 10
71.96939802919139
 20
1025.294520994859
 30
0.0
 11
42.39486753975092
 21
1000.474007138907
 31
0.0
  0
LINE
  5
67B3
330
18
100
AcDbEntity
  8
0
100
AcDbLine
 10
71.96939802919138
 20
1027.497562179691
 30
0.0
 11
42.39486753975092
 21
1002.677048323739
 31
0.0
  0
LINE
  5
67B4
330
18
100
AcDbEntity
  8
0
100
AcDbLine
 10
71.96939802919139
 20
1038.29452099486
 30
0.0
 11
32.20736528327093
 21
1004.924115163284
 31
0.0
  0
LINE
  5
67B5
330
18
100
AcDbEntity
  8
0
100
AcDbLine
 10
71.96939802919139
 20
1040.497562179691
 30
0.0
 11
30.51986753975092
 21
1005.71091878046
 31
0.0
  0
LINE
  5
67B6
330
18
100
AcDbEntity
  8
0
100
AcDbLine
 10
103.2790998064054
 20
1051.571282584178
 30
0.0
 11
73.65689802919138
 21
1026.710760456272
 31
0.0
  0
LINE
  5
67B7
330
18
100
AcDbEntity
  8
0
100
AcDbLine
 10
103.2790998064054
 20
1053.77432376901
 30
0.0
 11
73.65689802919139
 21
1028.913801641104
 31
0.0
  0
LINE
  5
67B8
330
18
100
AcDbEntity
  8
0
100
AcDbLine
 10
103.2790998064054
 20
1064.571282584179
 30
0.0
 11
73.65689802919137
 21
1039.710760456273
 31
0.0
  0
LINE
  5
67B9
330
18
100
AcDbEntity
  8
0
100
AcDbLine
 10
103.2790998064054
 20
1066.77432376901
 30
0.0
 11
73.65689802919138
 21
1041.913801641105
 31
0.0
  0
LINE
  5
67BA
330
18
100
AcDbEntity
  8
0
100
AcDbLine
 10
134.5888015836191
 20
1077.848044173497
 30
0.0
 11
104.9665998064054
 21
1052.987522045591
 31
0.0
  0
LINE
  5
67BB
330
18
100
AcDbEntity
  8
0
100
AcDbLine
 10
134.5888015836191
 20
1080.051085358329
 30
0.0
 11
104.9665998064054
 21
1055.190563230424
 31
0.0
  0
LINE
  5
67EE
330
18
100
AcDbEntity
  8
0
 62
     7
100
AcDbLine
 10
40.70736753975092
 20
1022.260808862326
 30
0.0
 11
42.39486753975091
 21
1021.474007138908
 31
0.0
  0
TEXT
  5
686D
330
18
100
AcDbEntity
  8
0
100
AcDbText
 10
-2.823583328182533
 20
939.5711954639613
 30
0.0
 40
2.312960265
  1
OSHA 1910.25 & 29
  7
ROMANS
100
AcDbText
  0
ARC
  5
68A3
330
18
100
AcDbEntity
  8
0
 62
     7
100
AcDbCircle
 10
216.8199124384999
 20
1088.728467355587
 30
0.0
 40
0.8448415067378828
100
AcDbArc
 50
2.912795456034946
 51
177.0872045439976
  0
LINE
  5
68A4
330
18
100
AcDbEntity
  8
0
 62
     7
100
AcDbLine
 10
215.9761624384997
 20
1088.77139880102
 30
0.0
 11
215.9761624384996
 21
977.0868748962332
 31
0.0
  0
LINE
  5
68A5
330
18
100
AcDbEntity
  8
0
 62
     7
100
AcDbLine
 10
217.6636624384997
 20
1088.771398801025
 30
0.0
 11
217.6636624384996
 21
977.0868748962332
 31
0.0
  0
ARC
  5
68A6
330
18
100
AcDbEntity
  8
0
 62
     7
100
AcDbCircle
 10
219.4136624384987
 20
995.6475200806726
 30
0.0
 40
0.5
100
AcDbArc
 50
270.0
 51
0.0
  0
ARC
  5
68A7
330
18
100
AcDbEntity
  8
0
 62
     7
100
AcDbCircle
 10
219.9136624384985
 20
995.1475200806726
 30
0.0
 40
1.5
100
AcDbArc
 50
270.0
 51
288.8394795313806
  0
LINE
  5
68A8
330
18
100
AcDbEntity
  8
0
 62
     7
100
AcDbLine
 10
219.9136624384985
 20
993.6475200806725
 30
0.0
 11
217.6636624384998
 21
993.6475200806723
 31
0.0
  0
LINE
  5
68A9
330
18
100
AcDbEntity
  8
0
 62
     7
100
AcDbLine
 10
219.4136624384987
 20
995.1475200806726
 30
0.0
 11
217.6636624384998
 21
995.1475200806726
 31
0.0
  0
LINE
  5
68AA
330
18
100
AcDbEntity
  8
0
 62
     7
100
AcDbLine
 10
219.9136624384997
 20
994.4912700806728
 30
0.0
 11
219.9136624384997
 21
1004.803770080673
 31
0.0
  0
LINE
  5
68AB
330
18
100
AcDbEntity
  8
0
 62
     7
100
AcDbLine
 10
221.6011624384996
 20
994.4912700806728
 30
0.0
 11
221.6011624384996
 21
1004.803770080673
 31
0.0
  0
ARC
  5
68AE
330
18
100
AcDbEntity
  8
0
 62
     7
100
AcDbCircle
 10
219.4136624384998
 20
1068.46974849969
 30
0.0
 40
0.5
100
AcDbArc
 50
0.0
 51
90.0
  0
LINE
  5
68AF
330
18
100
AcDbEntity
  8
0
 62
     7
100
AcDbLine
 10
219.9136624384997
 20
1070.46974849969
 30
0.0
 11
217.6636624384997
 21
1070.46974849969
 31
0.0
  0
LINE
  5
68B0
330
18
100
AcDbEntity
  8
0
 62
     7
100
AcDbLine
 10
219.4136624384998
 20
1068.96974849969
 30
0.0
 11
217.6636624384998
 21
1068.96974849969
 31
0.0
  0
LINE
  5
68B1
330
18
100
AcDbEntity
  8
0
 62
     7
100
AcDbLine
 10
219.9136624384997
 20
1004.803770080673
 30
0.0
 11
219.9136624384995
 21
1088.729558862325
 31
0.0
  0
LINE
  5
68B2
330
18
100
AcDbEntity
  8
0
 62
     7
100
AcDbLine
 10
221.6011624384996
 20
1004.803770080673
 30
0.0
 11
221.6011624384995
 21
1088.729558862325
 31
0.0
  0
ARC
  5
68B3
330
18
100
AcDbEntity
  8
0
 62
     7
100
AcDbCircle
 10
220.7574124384991
 20
1088.729558862325
 30
0.0
 40
0.84375
100
AcDbArc
 50
0.0
 51
180.0
  0
ARC
  5
68B4
330
18
100
AcDbEntity
  8
0
 62
     7
100
AcDbCircle
 10
220.7574124384997
 20
1004.803770080673
 30
0.0
 40
0.84375
100
AcDbArc
 50
0.0
 51
180.0
  0
ARC
  5
68B5
330
18
100
AcDbEntity
  8
0
 62
     7
100
AcDbCircle
 10
220.7574124384997
 20
994.4912700806728
 30
0.0
 40
0.84375
100
AcDbArc
 50
180.0
 51
0.0
  0
DIMENSION
  5
68B6
330
18
100
AcDbEntity
  8
0
 62
     7
100
AcDbDimension
  2
*D12
 10
217.6636624384998
 20
1095.138182062031
 30
0.0
 11
206.4136624384998
 21
1095.138182062031
 31
0.0
 70
    32
 71
     5
 42
2.249999999999289
 73
     0
 74
     0
 75
     0
  3
STANDARD$0
100
AcDbAlignedDimension
 13
219.9136624384991
 23
1088.729558862325
 33
0.0
 14
217.6636624384998
 24
1088.771398801025
 34
0.0
100
AcDbRotatedDimension
  0
LINE
  5
6911
330
18
100
AcDbEntity
  8
0
 62
     7
100
AcDbLine
 10
215.9761624384996
 20
977.0868748962332
 30
0.0
 11
217.6636624384996
 21
977.0868748962334
 31
0.0
  0
ARC
  5
6923
330
18
100
AcDbEntity
  8
0
 62
     7
100
AcDbCircle
 10
258.5699124384999
 20
1088.728467355587
 30
0.0
 40
0.8448415067378828
100
AcDbArc
 50
2.912795456002331
 51
177.087204543965
  0
LINE
  5
6924
330
18
100
AcDbEntity
  8
0
 62
     7
100
AcDbLine
 10
259.4136624385001
 20
1088.77139880102
 30
0.0
 11
259.4136624385002
 21
977.0868748962332
 31
0.0
  0
LINE
  5
6925
330
18
100
AcDbEntity
  8
0
 62
     7
100
AcDbLine
 10
257.7261624385001
 20
1088.771398801025
 30
0.0
 11
257.7261624385002
 21
977.0868748962332
 31
0.0
  0
ARC
  5
6926
330
18
100
AcDbEntity
  8
0
 62
     7
100
AcDbCircle
 10
255.9761624385012
 20
995.6475200806726
 30
0.0
 40
0.5
100
AcDbArc
 50
180.0
 51
270.0
  0
ARC
  5
6927
330
18
100
AcDbEntity
  8
0
 62
     7
100
AcDbCircle
 10
255.4761624385013
 20
995.1475200806726
 30
0.0
 40
1.5
100
AcDbArc
 50
251.1605204686208
 51
270.0
  0
LINE
  5
6928
330
18
100
AcDbEntity
  8
0
 62
     7
100
AcDbLine
 10
255.4761624385013
 20
993.6475200806725
 30
0.0
 11
257.7261624385
 21
993.6475200806723
 31
0.0
  0
LINE
  5
6929
330
18
100
AcDbEntity
  8
0
 62
     7
100
AcDbLine
 10
255.9761624385012
 20
995.1475200806726
 30
0.0
 11
257.7261624385
 21
995.1475200806726
 31
0.0
  0
LINE
  5
692A
330
18
100
AcDbEntity
  8
0
 62
     7
100
AcDbLine
 10
255.4761624385001
 20
994.4912700806728
 30
0.0
 11
255.4761624385001
 21
1004.803770080673
 31
0.0
  0
LINE
  5
692B
330
18
100
AcDbEntity
  8
0
 62
     7
100
AcDbLine
 10
253.7886624385001
 20
994.4912700806728
 30
0.0
 11
253.7886624385001
 21
1004.803770080673
 31
0.0
  0
ARC
  5
692E
330
18
100
AcDbEntity
  8
0
 62
     7
100
AcDbCircle
 10
255.9761624385
 20
1068.46974849969
 30
0.0
 40
0.5
100
AcDbArc
 50
90.0
 51
180.0
  0
LINE
  5
692F
330
18
100
AcDbEntity
  8
0
 62
     7
100
AcDbLine
 10
255.4761624385001
 20
1070.46974849969
 30
0.0
 11
257.7261624385001
 21
1070.46974849969
 31
0.0
  0
LINE
  5
6930
330
18
100
AcDbEntity
  8
0
 62
     7
100
AcDbLine
 10
255.9761624385
 20
1068.96974849969
 30
0.0
 11
257.7261624385
 21
1068.96974849969
 31
0.0
  0
LINE
  5
6931
330
18
100
AcDbEntity
  8
0
 62
     7
100
AcDbLine
 10
255.4761624385001
 20
1004.803770080673
 30
0.0
 11
255.4761624385003
 21
1088.729558862325
 31
0.0
  0
LINE
  5
6932
330
18
100
AcDbEntity
  8
0
 62
     7
100
AcDbLine
 10
253.7886624385001
 20
1004.803770080673
 30
0.0
 11
253.7886624385003
 21
1088.729558862325
 31
0.0
  0
ARC
  5
6933
330
18
100
AcDbEntity
  8
0
 62
     7
100
AcDbCircle
 10
254.6324124385007
 20
1088.729558862325
 30
0.0
 40
0.84375
100
AcDbArc
 50
0.000000000000007
 51
180.0
  0
ARC
  5
6934
330
18
100
AcDbEntity
  8
0
 62
     7
100
AcDbCircle
 10
254.6324124385001
 20
1004.803770080673
 30
0.0
 40
0.84375
100
AcDbArc
 50
0.000000000000007
 51
180.0
  0
ARC
  5
6935
330
18
100
AcDbEntity
  8
0
 62
     7
100
AcDbCircle
 10
254.6324124385001
 20
994.4912700806728
 30
0.0
 40
0.84375
100
AcDbArc
 50
180.0
 51
0.000000000000007
  0
LINE
  5
6937
330
18
100
AcDbEntity
  8
0
100
AcDbLine
 10
217.9449124384998
 20
1089.584860483014
 30
0.0
 11
257.4449124385
 21
1089.584860483014
 31
0.0
  0
LINE
  5
6938
330
18
100
AcDbEntity
  8
0
100
AcDbLine
 10
221.6011624384995
 20
1081.022360483015
 30
0.0
 11
253.7886624385003
 21
1081.022360483015
 31
0.0
  0
LINE
  5
6939
330
18
100
AcDbEntity
  8
0
100
AcDbLine
 10
221.6011624384995
 20
1083.010808862326
 30
0.0
 11
253.7886624385003
 21
1083.010808862326
 31
0.0
  0
LINE
  5
693A
330
18
100
AcDbEntity
  8
0
100
AcDbLine
 10
221.6011624384995
 20
1072.459860483015
 30
0.0
 11
253.7886624385003
 21
1072.459860483015
 31
0.0
  0
LINE
  5
693B
330
18
100
AcDbEntity
  8
0
100
AcDbLine
 10
221.6011624384995
 20
1074.448308862327
 30
0.0
 11
253.7886624385003
 21
1074.448308862327
 31
0.0
  0
LINE
  5
693C
330
18
100
AcDbEntity
  8
0
100
AcDbLine
 10
221.6011624384996
 20
1063.897360483015
 30
0.0
 11
253.7886624385003
 21
1063.897360483015
 31
0.0
  0
LINE
  5
693D
330
18
100
AcDbEntity
  8
0
100
AcDbLine
 10
221.6011624384996
 20
1065.885808862326
 30
0.0
 11
253.7886624385003
 21
1065.885808862326
 31
0.0
  0
LINE
  5
693E
330
18
100
AcDbEntity
  8
0
100
AcDbLine
 10
217.9449124384999
 20
1068.96974849969
 30
0.0
 11
217.9449124384999
 21
995.1475200806726
 31
0.0
  0
LINE
  5
693F
330
18
100
AcDbEntity
  8
0
100
AcDbLine
 10
221.6011624384996
 20
1046.772360483015
 30
0.0
 11
253.7886624385002
 21
1046.772360483015
 31
0.0
  0
LINE
  5
6940
330
18
100
AcDbEntity
  8
0
100
AcDbLine
 10
221.6011624384996
 20
1048.760808862326
 30
0.0
 11
253.7886624385002
 21
1048.760808862326
 31
0.0
  0
LINE
  5
6941
330
18
100
AcDbEntity
  8
0
100
AcDbLine
 10
221.6011624384996
 20
1055.334860483015
 30
0.0
 11
253.7886624385002
 21
1055.334860483015
 31
0.0
  0
LINE
  5
6942
330
18
100
AcDbEntity
  8
0
100
AcDbLine
 10
221.6011624384996
 20
1057.323308862326
 30
0.0
 11
253.7886624385002
 21
1057.323308862326
 31
0.0
  0
LINE
  5
6943
330
18
100
AcDbEntity
  8
0
100
AcDbLine
 10
221.6011624384996
 20
1021.084860483015
 30
0.0
 11
253.7886624385002
 21
1021.084860483014
 31
0.0
  0
LINE
  5
6944
330
18
100
AcDbEntity
  8
0
100
AcDbLine
 10
221.6011624384996
 20
1023.073308862326
 30
0.0
 11
253.7886624385002
 21
1023.073308862326
 31
0.0
  0
LINE
  5
6945
330
18
100
AcDbEntity
  8
0
100
AcDbLine
 10
221.6011624384996
 20
1029.647360483015
 30
0.0
 11
253.7886624385002
 21
1029.647360483015
 31
0.0
  0
LINE
  5
6946
330
18
100
AcDbEntity
  8
0
100
AcDbLine
 10
221.6011624384996
 20
1031.635808862326
 30
0.0
 11
253.7886624385002
 21
1031.635808862326
 31
0.0
  0
LINE
  5
6947
330
18
100
AcDbEntity
  8
0
100
AcDbLine
 10
221.6011624384996
 20
1038.209860483015
 30
0.0
 11
253.7886624385002
 21
1038.209860483015
 31
0.0
  0
LINE
  5
6948
330
18
100
AcDbEntity
  8
0
100
AcDbLine
 10
221.6011624384996
 20
1040.198308862326
 30
0.0
 11
253.7886624385002
 21
1040.198308862326
 31
0.0
  0
LINE
  5
6949
330
18
100
AcDbEntity
  8
0
100
AcDbLine
 10
221.6011624384996
 20
1012.522360483015
 30
0.0
 11
253.7886624385002
 21
1012.522360483015
 31
0.0
  0
LINE
  5
694A
330
18
100
AcDbEntity
  8
0
100
AcDbLine
 10
221.6011624384996
 20
1014.510808862326
 30
0.0
 11
253.7886624385002
 21
1014.510808862326
 31
0.0
  0
LINE
  5
694B
330
18
100
AcDbEntity
  8
0
100
AcDbLine
 10
221.6011624384996
 20
1003.959860483014
 30
0.0
 11
253.7886624385001
 21
1003.959860483015
 31
0.0
  0
LINE
  5
694C
330
18
100
AcDbEntity
  8
0
100
AcDbLine
 10
221.6011624384996
 20
1005.948308862326
 30
0.0
 11
253.7886624385001
 21
1005.948308862326
 31
0.0
  0
LINE
  5
694D
330
18
100
AcDbEntity
  8
0
100
AcDbLine
 10
217.9449124384999
 20
993.6475200806723
 30
0.0
 11
217.9449124385
 21
971.5733088623258
 31
0.0
  0
LINE
  5
694E
330
18
100
AcDbEntity
  8
0
100
AcDbLine
 10
257.4449124385
 20
993.6475200806723
 30
0.0
 11
257.4449124385
 21
971.5733088623258
 31
0.0
  0
LINE
  5
694F
330
18
100
AcDbEntity
  8
0
100
AcDbLine
 10
255.4761624385001
 20
1003.959860483015
 30
0.0
 11
257.4449124385
 21
1003.959860483015
 31
0.0
  0
LINE
  5
6950
330
18
100
AcDbEntity
  8
0
100
AcDbLine
 10
255.4761624385001
 20
1005.948308862326
 30
0.0
 11
257.4449124385
 21
1005.948308862326
 31
0.0
  0
LINE
  5
6951
330
18
100
AcDbEntity
  8
0
100
AcDbLine
 10
255.4761624385001
 20
1012.522360483015
 30
0.0
 11
257.4449124385
 21
1012.522360483015
 31
0.0
  0
LINE
  5
6952
330
18
100
AcDbEntity
  8
0
100
AcDbLine
 10
255.4761624385001
 20
1014.510808862326
 30
0.0
 11
257.4449124385
 21
1014.510808862326
 31
0.0
  0
LINE
  5
6953
330
18
100
AcDbEntity
  8
0
100
AcDbLine
 10
255.4761624385002
 20
1021.084860483014
 30
0.0
 11
257.4449124385
 21
1021.084860483015
 31
0.0
  0
LINE
  5
6954
330
18
100
AcDbEntity
  8
0
100
AcDbLine
 10
255.4761624385002
 20
1023.073308862326
 30
0.0
 11
257.4449124385
 21
1023.073308862326
 31
0.0
  0
LINE
  5
6955
330
18
100
AcDbEntity
  8
0
100
AcDbLine
 10
255.4761624385002
 20
1029.647360483015
 30
0.0
 11
257.4449124385
 21
1029.647360483015
 31
0.0
  0
LINE
  5
6956
330
18
100
AcDbEntity
  8
0
100
AcDbLine
 10
255.4761624385002
 20
1031.635808862327
 30
0.0
 11
257.4449124385
 21
1031.635808862326
 31
0.0
  0
LINE
  5
6957
330
18
100
AcDbEntity
  8
0
100
AcDbLine
 10
255.4761624385002
 20
1038.209860483015
 30
0.0
 11
257.4449124385
 21
1038.209860483015
 31
0.0
  0
LINE
  5
6958
330
18
100
AcDbEntity
  8
0
100
AcDbLine
 10
255.4761624385002
 20
1040.198308862326
 30
0.0
 11
257.4449124385
 21
1040.198308862326
 31
0.0
  0
LINE
  5
6959
330
18
100
AcDbEntity
  8
0
100
AcDbLine
 10
255.4761624385002
 20
1046.772360483015
 30
0.0
 11
257.4449124385
 21
1046.772360483015
 31
0.0
  0
LINE
  5
695A
330
18
100
AcDbEntity
  8
0
100
AcDbLine
 10
255.4761624385002
 20
1048.760808862326
 30
0.0
 11
257.4449124385
 21
1048.760808862326
 31
0.0
  0
LINE
  5
695B
330
18
100
AcDbEntity
  8
0
100
AcDbLine
 10
255.4761624385002
 20
1055.334860483015
 30
0.0
 11
257.4449124385
 21
1055.334860483015
 31
0.0
  0
LINE
  5
695C
330
18
100
AcDbEntity
  8
0
100
AcDbLine
 10
255.4761624385002
 20
1057.323308862326
 30
0.0
 11
257.4449124385
 21
1057.323308862326
 31
0.0
  0
LINE
  5
695D
330
18
100
AcDbEntity
  8
0
100
AcDbLine
 10
255.4761624385003
 20
1063.897360483015
 30
0.0
 11
257.4449124385
 21
1063.897360483015
 31
0.0
  0
LINE
  5
695E
330
18
100
AcDbEntity
  8
0
100
AcDbLine
 10
255.4761624385003
 20
1065.885808862326
 30
0.0
 11
257.4449124385
 21
1065.885808862326
 31
0.0
  0
LINE
  5
695F
330
18
100
AcDbEntity
  8
0
100
AcDbLine
 10
255.4761624385003
 20
1072.459860483015
 30
0.0
 11
257.4449124385
 21
1072.459860483015
 31
0.0
  0
LINE
  5
6960
330
18
100
AcDbEntity
  8
0
100
AcDbLine
 10
255.4761624385003
 20
1074.448308862327
 30
0.0
 11
257.4449124385
 21
1074.448308862326
 31
0.0
  0
LINE
  5
6961
330
18
100
AcDbEntity
  8
0
100
AcDbLine
 10
255.4761624385003
 20
1081.022360483015
 30
0.0
 11
257.4449124385
 21
1081.022360483015
 31
0.0
  0
LINE
  5
6962
330
18
100
AcDbEntity
  8
0
100
AcDbLine
 10
255.4761624385003
 20
1083.010808862326
 30
0.0
 11
257.4449124385
 21
1083.010808862326
 31
0.0
  0
LINE
  5
6963
330
18
100
AcDbEntity
  8
0
100
AcDbLine
 10
257.4449124385
 20
1068.96974849969
 30
0.0
 11
257.4449124385
 21
995.1475200806726
 31
0.0
  0
LEADER
  5
69BF
330
18
100
AcDbEntity
  8
0
 62
     7
100
AcDbLeader
  3
STANDARD
 73
     0
 40
3.75
 76
     3
 10
184.3401947330679
 20
1083.829612446453
 30
0.0
 10
189.3674534292959
 20
1078.946227087717
 30
0.0
 10
191.9746335746495
 20
1078.946227087717
 30
0.0
340
69C0
213
0.0
223
-1.125
233
0.0
1001
ACAD
1000
DSTYLE
1002
{
1070
   147
1040
0.0625
1070
    77
1070
     0
1002
}
  0
MTEXT
  5
69C0
102
{ACAD_REACTORS
330
69BF
102
}
330
18
100
AcDbEntity
  8
0
 62
     7
100
AcDbMText
 10
192.7246335746495
 20
1080.071227087717
 30
0.0
 40
2.25
 41
0.0
 46
0.0
 71
     1
 72
     1
  1
\A1;
  7
ROMANS
 73
     1
 44
1.0
  0
LINE
  5
69D9
330
18
100
AcDbEntity
  8
0
 62
     7
100
AcDbLine
 10
257.7261624385002
 20
977.0868748962332
 30
0.0
 11
259.4136624385002
 21
977.0868748962332
 31
0.0
  0
DIMENSION
  5
6A50
330
18
100
AcDbEntity
  8
0
 62
     7
100
AcDbDimension
  2
*D13
 10
81.51746821461875
 20
1028.910141943184
 30
0.0
 11
90.78532535747589
 21
1028.910141943184
 31
0.0
 70
    32
  1
9-1/2"\PMIN.
 71
     5
 42
10.20252516871778
 73
     0
 74
     0
 75
     0
  3
STANDARD$0
100
AcDbAlignedDimension
 13
71.31494304590098
 23
1005.948308862326
 33
0.0
 14
81.51746821461875
 24
1014.510808862326
 34
0.0
100
AcDbRotatedDimension
  0
CIRCLE
  5
6AA6
330
18
100
AcDbEntity
  8
0
  6
HIDDEN
 62
     7
100
AcDbCircle
 10
41.55111753975092
 20
994.5546687804593
 30
0.0
 40
0.84375
  0
LINE
  5
6AA7
330
18
100
AcDbEntity
  8
0
 62
     7
100
AcDbLine
 10
41.55111753975092
 20
993.7109187804594
 30
0.0
 11
36.39486753975093
 21
993.7109187804594
 31
0.0
  0
LINE
  5
6AA8
330
18
100
AcDbEntity
  8
0
 62
     7
100
AcDbLine
 10
41.55306889965227
 20
995.3984165239791
 30
0.0
 11
36.39681889965227
 21
995.3984165239791
 31
0.0
  0
LINE
  5
6AA9
330
18
100
AcDbEntity
  8
0
 62
     7
100
AcDbLine
 10
36.39486753975093
 20
993.7109187804594
 30
0.0
 11
36.39681889965227
 21
995.3984165239791
 31
0.0
  0
LINE
  5
6AAA
330
18
100
AcDbEntity
  8
0
 62
     7
100
AcDbLine
 10
36.39681889965227
 20
995.3984165239791
 30
0.0
 11
32.20736528327092
 21
995.3984165239791
 31
0.0
  0
LINE
  5
6AAB
330
18
100
AcDbEntity
  8
0
 62
     7
100
AcDbLine
 10
30.51986753975092
 20
993.7109187804592
 30
0.0
 11
36.39486753975093
 21
993.7109187804594
 31
0.0
  0
LINE
  5
6AAC
330
18
100
AcDbEntity
  8
0
 62
     7
100
AcDbLine
 10
215.6949124385
 20
971.5733088623258
 30
0.0
 11
213.6949124385
 21
971.5733088623258
 31
0.0
  0
LINE
  5
6AAD
330
18
100
AcDbEntity
  8
0
 62
     7
100
AcDbLine
 10
213.6949124385
 20
971.5733088623258
 30
0.0
 11
213.6949124385
 21
971.8233088623257
 31
0.0
  0
LINE
  5
6AAE
330
18
100
AcDbEntity
  8
0
 62
     7
100
AcDbLine
 10
213.6949124385
 20
971.8233088623257
 30
0.0
 11
215.6949124385
 21
971.8233088623257
 31
0.0
  0
LINE
  5
6AAF
330
18
100
AcDbEntity
  8
0
 62
     7
100
AcDbLine
 10
214.6949124384999
 20
970.8468317936249
 30
0.0
 11
214.6949124384999
 21
972.470017746421
 31
0.0
  0
LINE
  5
6AB0
330
18
100
AcDbEntity
  8
0
 62
     7
100
AcDbLine
 10
259.6949124385
 20
971.5733088623258
 30
0.0
 11
261.6949124385
 21
971.5733088623258
 31
0.0
  0
LINE
  5
6AB1
330
18
100
AcDbEntity
  8
0
 62
     7
100
AcDbLine
 10
261.6949124385
 20
971.5733088623258
 30
0.0
 11
261.6949124385
 21
971.8233088623257
 31
0.0
  0
LINE
  5
6AB2
330
18
100
AcDbEntity
  8
0
 62
     7
100
AcDbLine
 10
261.6949124385
 20
971.8233088623257
 30
0.0
 11
259.6949124385
 21
971.8233088623257
 31
0.0
  0
LINE
  5
6AB3
330
18
100
AcDbEntity
  8
0
 62
     7
100
AcDbLine
 10
260.6949124385
 20
970.8468317936249
 30
0.0
 11
260.6949124385
 21
972.470017746421
 31
0.0
  0
TEXT
  5
6AC3
330
18
100
AcDbEntity
  8
0
100
AcDbText
 10
120.3052821702616
 20
997.9180307966403
 30
0.0
 40
2.118351925305
  1
UNIFORM RISER HEIGHTS AND
  7
ROMANS
100
AcDbText
  0
TEXT
  5
6AC4
330
18
100
AcDbEntity
  8
0
100
AcDbText
 10
116.1297440251213
 20
994.4883181556706
 30
0.0
 40
2.118351925305
  1
TREAD DEPTHS BETWEEN LANDINGS
  7
ROMANS
100
AcDbText
  0
LWPOLYLINE
  5
6AC5
330
18
100
AcDbEntity
  8
0
 62
     7
100
AcDbPolyline
 90
        4
 70
     1
 43
0.0
 10
176.9637891186661
 20
991.120331243121
 10
114.3821033594989
 20
991.120331243121
 10
114.3821033594989
 20
1003.291654316024
 10
176.9637891186661
 20
1003.291654316024
  0
LINE
  5
6B16
330
18
100
AcDbEntity
  8
0
100
AcDbLine
 10
221.6011624384996
 20
995.3973604830148
 30
0.0
 11
253.7886624385001
 21
995.3973604830149
 31
0.0
  0
LINE
  5
6B17
330
18
100
AcDbEntity
  8
0
100
AcDbLine
 10
221.6011624384996
 20
997.3858088623263
 30
0.0
 11
253.7886624385001
 21
997.3858088623265
 31
0.0
  0
LINE
  5
6B18
330
18
100
AcDbEntity
  8
0
100
AcDbLine
 10
255.4761624385001
 20
997.3858088623265
 30
0.0
 11
257.4449124385
 21
997.3858088623266
 31
0.0
  0
LINE
  5
6B19
330
18
100
AcDbEntity
  8
0
100
AcDbLine
 10
255.4761624385001
 20
995.3973604830149
 30
0.0
 11
257.4449124385
 21
995.3973604830149
 31
0.0
  0
DIMENSION
  5
6B44
330
18
100
AcDbEntity
  8
0
 62
     7
100
AcDbDimension
  2
*D18
 10
253.7886624385003
 20
1077.627424077016
 30
0.0
 11
237.6949124384999
 21
1077.627424077016
 31
0.0
 70
    32
  1
22" MIN.
 71
     5
 42
32.18750000000071
 73
     0
 74
     0
 75
     0
  3
STANDARD$0
100
AcDbAlignedDimension
 13
221.6011624384996
 23
1078.170243592246
 33
0.0
 14
253.7886624385003
 24
1078.170243592246
 34
0.0
100
AcDbRotatedDimension
  0
LEADER
  5
6BB1
330
18
100
AcDbEntity
  8
0
100
AcDbLeader
  3
STANDARD
 73
     0
 40
6.017457600000001
 41
33.310926
 76
     3
 10
271.2164708076385
 20
1091.573308862108
 30
0.0
 10
269.1680257884809
 20
1102.477567612781
 30
0.0
 10
267.1915011560939
 20
1102.477567612781
 30
0.0
340
6BB2
213
0.7219019390720277
223
0.9000000000000085
233
0.0
1001
ACAD
1000
DSTYLE
1002
{
1070
   147
1040
0.0625
1070
    77
1070
     0
1002
}
  0
MTEXT
  5
6BB2
102
{ACAD_REACTORS
330
6BB1
102
}
330
18
100
AcDbEntity
  8
0
100
AcDbMText
 10
265.7195992170218
 20
1101.577567612781
 30
0.0
 40
2.2565466
 41
0.0
 46
0.0
 71
     9
 72
     1
  1
BASE OF STANDARD\PHATCH
  7
ROMANS
 73
     1
 44
1.0
  0
LWPOLYLINE
  5
6BB4
330
18
100
AcDbEntity
  8
0
 62
     7
100
AcDbPolyline
 90
        4
 70
     1
 43
0.0
 10
230.4605773108117
 20
1109.821485830498
 10
267.1915011560939
 20
1109.821485830498
 10
267.1915011560939
 20
1099.178832597376
 10
230.4605773108117
 20
1099.178832597376
  0
LINE
  5
6BBE
330
18
100
AcDbEntity
  8
0
 62
     7
100
AcDbLine
 10
30.51986753975092
 20
993.7109187804594
 30
0.0
 11
30.51986753975092
 21
1005.710918780459
 31
0.0
  0
LINE
  5
6BC1
330
18
100
AcDbEntity
  8
0
 62
     7
100
AcDbLine
 10
32.20736528327092
 20
995.3984165239791
 30
0.0
 11
32.20736528327092
 21
1004.924115163284
 31
0.0
  0
LINE
  5
6BC2
330
18
100
AcDbEntity
  8
0
 62
     7
100
AcDbLine
 10
32.20736528327092
 20
1004.924115163284
 30
0.0
 11
30.51986753975092
 21
1005.71091878046
 31
0.0
  0
DIMENSION
  5
6BC3
330
18
100
AcDbEntity
  8
0
 62
     7
100
AcDbDimension
  2
*D19
 10
23.87821617790768
 20
993.7109187804594
 30
0.0
 11
23.87821617790752
 21
999.7109187804595
 31
0.0
 70
    32
 71
     5
 42
12.0
 73
     0
 74
     0
 75
     0
  3
STANDARD$0
100
AcDbAlignedDimension
 13
30.51986753975092
 23
1005.710918780459
 33
0.0
 14
30.51986753975092
 24
993.7109187804594
 34
0.0
 50
90.0
100
AcDbRotatedDimension
  0
DIMENSION
  5
6BD1
330
18
100
AcDbEntity
  8
0
 62
     7
100
AcDbDimension
  2
*D20
 10
12.39854100379466
 20
1014.260808862325
 30
0.0
 11
12.3985410037945
 21
997.260808862326
 31
0.0
 70
    32
 71
     5
 42
33.9999999999992
 73
     0
 74
     0
 75
     0
  3
STANDARD$0
100
AcDbAlignedDimension
 13
40.70736753975199
 23
980.2608088623264
 33
0.0
 14
40.70736753975092
 24
1014.260808862325
 34
0.0
 50
90.0
100
AcDbRotatedDimension
  0
DIMENSION
  5
6BDF
330
18
100
AcDbEntity
  8
0
 62
     7
100
AcDbDimension
  2
*D21
 10
0.5208623032010631
 20
1022.260808862325
 30
0.0
 11
0.5208623032008974
 21
1001.260808862326
 31
0.0
 70
    32
 71
     5
 42
41.99999999999886
 73
     0
 74
     0
 75
     0
  3
STANDARD$0
100
AcDbAlignedDimension
 13
40.70736753975199
 23
980.2608088623264
 33
0.0
 14
40.70736753975092
 24
1022.260808862325
 34
0.0
 50
90.0
100
AcDbRotatedDimension
  0
DIMENSION
  5
6BF1
330
18
100
AcDbEntity
  8
0
 62
     7
100
AcDbDimension
  2
*D22
 10
30.51986753975092
 20
975.2782180167665
 30
0.0
 11
16.26986753975091
 21
975.2782180167665
 31
0.0
 70
    32
  1
TREAD DEPTH
 71
     5
 42
10.18750000000108
 73
     0
 74
     0
 75
     0
  3
STANDARD$0
100
AcDbAlignedDimension
 13
40.70736753975199
 23
978.0108088623256
 33
0.0
 14
30.51986753975092
 24
993.7109187804592
 34
0.0
100
AcDbRotatedDimension
  0
LINE
  5
6C09
330
18
100
AcDbEntity
  8
0
 62
     7
100
AcDbLine
 10
30.51986753975092
 20
993.7109187804594
 30
0.0
 11
32.20736528327092
 21
995.3984165239791
 31
0.0
  0
ENDSEC
  0
SECTION
  2
OBJECTS
  0
DICTIONARY
  5
C
330
0
100
AcDbDictionary
281
     1
  3
ACAD_COLOR
350
5B43
  3
ACAD_GROUP
350
D
  3
ACAD_LAYOUT
350
5897
  3
ACAD_MATERIAL
350
5B2E
  3
ACAD_MLINESTYLE
350
E
  3
ACAD_PLOTSETTINGS
350
5898
  3
ACAD_PLOTSTYLENAME
350
5895
  3
ACAD_TABLESTYLE
350
5B44
  3
ACAD_VISUALSTYLE
350
5B32
  3
AcDbVariableDictionary
350
5B46
  0
DICTIONARY
  5
6485
330
8
100
AcDbDictionary
280
     1
281
     1
  0
DICTIONARY
  5
5B54
330
18
100
AcDbDictionary
280
     1
281
     1
  3
ACAD_SORTENTS
360
5B55
  0
DICTIONARY
  5
6148
330
58A8
100
AcDbDictionary
280
     1
281
     1
  0
DICTIONARY
  5
67C7
330
67BC
100
AcDbDictionary
280
     1
281
     1
  3
ACAD_SORTENTS
360
67C8
  0
DICTIONARY
  5
5B43
102
{ACAD_REACTORS
330
C
102
}
330
C
100
AcDbDictionary
281
     1
  0
DICTIONARY
  5
D
102
{ACAD_REACTORS
330
C
102
}
330
C
100
AcDbDictionary
281
     1
  0
DICTIONARY
  5
5897
102
{ACAD_REACTORS
330
C
102
}
330
C
100
AcDbDictionary
281
     1
  3
Layout1
350
589A
  3
Model
350
5899
  0
DICTIONARY
  5
5B2E
102
{ACAD_REACTORS
330
C
102
}
330
C
100
AcDbDictionary
281
     1
  3
ByBlock
350
5B30
  3
ByLayer
350
5B2F
  3
Global
350
5B31
  0
DICTIONARY
  5
E
102
{ACAD_REACTORS
330
C
102
}
330
C
100
AcDbDictionary
281
     1
  3
STANDARD
350
1B
  0
DICTIONARY
  5
5898
102
{ACAD_REACTORS
330
C
102
}
330
C
100
AcDbDictionary
281
     1
  0
ACDBDICTIONARYWDFLT
  5
5895
102
{ACAD_REACTORS
330
C
102
}
330
C
100
AcDbDictionary
281
     1
  3
Normal
350
5896
100
AcDbDictionaryWithDefault
340
5896
  0
DICTIONARY
  5
5B44
102
{ACAD_REACTORS
330
C
102
}
330
C
100
AcDbDictionary
281
     1
  3
Standard
350
5B45
  0
DICTIONARY
  5
5B32
102
{ACAD_REACTORS
330
C
102
}
330
C
100
AcDbDictionary
281
     1
  3
2dWireframe
350
5B38
  3
3D Hidden
350
5B3A
  3
3dWireframe
350
5B39
  3
Basic
350
5B37
  3
Brighten
350
5B3E
  3
ColorChange
350
5B42
  3
Conceptual
350
5B3B
  3
Dim
350
5B3D
  3
Facepattern
350
5B41
  3
Flat
350
5B33
  3
FlatWithEdges
350
5B34
  3
Gouraud
350
5B35
  3
GouraudWithEdges
350
5B36
  3
Linepattern
350
5B40
  3
Realistic
350
5B3C
  3
Thicken
350
5B3F
  0
DICTIONARY
  5
5B46
102
{ACAD_REACTORS
330
C
102
}
330
C
100
AcDbDictionary
281
     1
  3
CTABLESTYLE
350
5B47
  3
DIMASSOC
350
6499
  3
INDEXCTL
350
6498
  3
SORTENTS
350
6497
  0
SORTENTSTABLE
  5
5B55
102
{ACAD_REACTORS
330
5B54
102
}
330
5B54
100
AcDbSortentsTable
330
18
331
52D2
  5
52DC
331
359D
  5
3F3B
331
48C4
  5
4A3A
331
52DA
  5
52E0
331
1D1F
  5
1D23
331
6530
  5
67E9
331
731
  5
731
331
666F
  5
6926
331
643A
  5
652C
331
63FB
  5
5A37
331
6501
  5
65AE
331
739
  5
739
331
6AC3
  5
6AD3
331
694E
  5
FD6
331
6509
  5
666A
331
6403
  5
5A3F
331
63C4
  5
59C3
331
7F9
  5
7F9
331
6956
  5
6436
331
676F
  5
65A3
331
6511
  5
6674
331
63CC
  5
59CB
331
5300
  5
5306
331
5487
  5
54BD
331
54BF
  5
54C5
331
6BB1
  5
6BB4
331
6927
  5
695E
331
6777
  5
6940
331
695E
  5
630E
331
5308
  5
5378
331
556E
  5
58D0
331
5A2C
  5
630F
331
5B53
  5
6511
331
692F
  5
69BF
331
54C7
  5
5533
331
5A34
  5
6437
331
558E
  5
5905
331
5A3C
  5
6509
331
FD9
  5
1053
331
488D
  5
4915
331
6519
  5
6773
331
6413
  5
5B53
331
68A8
  5
694A
331
67B7
  5
659C
331
6521
  5
67B5
331
641B
  5
5B74
331
63DC
  5
5A29
331
63A5
  5
6526
331
65A0
  5
680B
331
6BC1
  5
693D
331
68B0
  5
6950
331
6937
  5
54F5
331
6529
  5
67E2
331
6423
  5
61DA
331
63AD
  5
6527
331
63E4
  5
5A2E
331
65A8
  5
68A8
331
5350
  5
5422
331
693F
  5
632D
331
65B0
  5
68B0
331
5378
  5
5424
331
5B73
  5
6517
331
6BD1
  5
6BD1
331
6AAC
  5
6AB3
331
6947
  5
6424
331
5B7B
  5
651F
331
5420
  5
5426
331
1BC0
  5
1D1C
331
52D3
  5
52DD
331
C6A
  5
C6A
331
359E
  5
3F3C
331
52DB
  5
52E1
331
1D20
  5
210A
331
64FA
  5
65A7
331
6531
  5
67EA
331
643B
  5
61F4
331
63FC
  5
5A38
331
6502
  5
65AF
331
6670
  5
6927
331
6AC4
  5
6AEB
331
694F
  5
6505
331
644B
  5
65A4
331
63C5
  5
59C4
331
6404
  5
5A41
331
650A
  5
666C
331
6957
  5
6425
331
6770
  5
65A5
331
6463
  5
65A6
331
63CD
  5
59CC
331
640C
  5
5A49
331
6512
  5
676C
331
5301
  5
5307
331
54B8
  5
54BE
331
5567
  5
556E
331
556F
  5
5901
331
6BB2
  5
6BBE
331
6928
  5
695F
331
695F
  5
630B
331
5309
  5
541F
331
54C0
  5
54C6
331
58BE
  5
61F2
331
5A2D
  5
6312
331
5319
  5
5420
331
54C8
  5
5534
331
5A35
  5
643A
331
558F
  5
5906
331
5A3D
  5
650D
331
1AD1
  5
1B1A
331
FDA
  5
108A
331
389E
  5
488D
331
1052
  5
162A
331
108A
  5
17F5
331
488E
  5
4A2B
331
651A
  5
6774
331
6414
  5
5B56
331
63D5
  5
59CF
331
6930
  5
69C0
331
68A9
  5
694B
331
65A1
  5
6819
331
6522
  5
67B6
331
641C
  5
5B75
331
63DD
  5
5A2A
331
9AA
  5
9AA
331
67B8
  5
6530
331
6BC2
  5
6BC2
331
5351
  5
5423
331
68B1
  5
6951
331
652A
  5
67E3
331
6424
  5
61EF
331
63E5
  5
5A2F
331
65A9
  5
68A9
331
6938
  5
6304
331
5B74
  5
6518
331
65B1
  5
68B1
331
6940
  5
632A
331
6AAD
  5
6AC3
331
5421
  5
5427
331
1BC1
  5
1D1D
331
162A
  5
1AD1
331
2368
  5
3591
331
52DC
  5
52FB
331
1D21
  5
210B
331
64FB
  5
65A8
331
6532
  5
67EB
331
6911
  5
6957
331
6948
  5
6330
331
63FD
  5
5A39
331
6503
  5
65B0
331
6AC5
  5
6B19
331
69BF
  5
6A9D
331
650B
  5
666D
331
6405
  5
5A43
331
63C6
  5
59C5
331
6950
  5
6502
331
5302
  5
5308
331
54B9
  5
54BF
331
5568
  5
556F
331
6513
  5
676D
331
63CE
  5
59CD
331
640D
  5
5A4A
331
6958
  5
6331
331
54C1
  5
54C7
331
5570
  5
5904
331
5A2E
  5
6326
331
6929
  5
6960
331
6960
  5
6308
331
531A
  5
5421
331
5A36
  5
6441
331
5A3E
  5
650E
331
30A8
  5
359B
331
1AD2
  5
1B1B
331
FDB
  5
108B
331
1B1A
  5
1BC0
331
1053
  5
163B
331
4A3E
  5
4B78
331
108B
  5
17FB
331
3590
  5
359D
331
651B
  5
6775
331
6415
  5
5B5B
331
63D6
  5
59D0
331
6931
  5
69D9
331
68AA
  5
694C
331
65A2
  5
686D
331
6523
  5
67B9
331
641D
  5
5B76
331
63DE
  5
5A2B
331
9AB
  5
9AB
331
67B9
  5
652D
331
6BC3
  5
6BC3
331
5590
  5
5907
331
68B2
  5
6952
331
652B
  5
67E4
331
6425
  5
61F0
331
63E6
  5
5A30
331
65AA
  5
68AA
331
6939
  5
6301
331
6AA6
  5
6AAD
331
5B75
  5
6519
331
65B2
  5
68B2
331
6941
  5
6327
331
6B44
  5
6BB2
331
6AAE
  5
6AC4
331
5422
  5
5475
331
52D5
  5
52DE
331
4B76
  5
52D6
331
C6C
  5
C6C
331
163B
  5
1AD2
331
1CEA
  5
1D1E
331
3600
  5
3F73
331
52DD
  5
52FC
331
1D22
  5
2142
331
6435
  5
49C2
331
63B7
  5
5909
331
64FC
  5
65A9
331
6533
  5
67EC
331
666A
  5
68B6
331
6504
  5
65B1
331
63FE
  5
5A3A
331
6949
  5
64FC
331
69C0
  5
6A9E
331
52FB
  5
5301
331
650C
  5
666E
331
63C7
  5
59C6
331
6406
  5
5A44
331
6951
  5
64FD
331
54BA
  5
54C0
331
5303
  5
5309
331
5569
  5
5570
331
5A27
  5
6300
331
6772
  5
61F5
331
6514
  5
676E
331
63CF
  5
59CE
331
640E
  5
5A4B
331
87C
  5
87C
331
6959
  5
632E
331
6BB4
  5
6BBF
331
54C2
  5
54C8
331
5A2F
  5
6329
331
692A
  5
6961
331
68A3
  5
6943
331
6961
  5
6305
331
5A37
  5
6455
331
5A3F
  5
650F
331
210A
  5
225B
331
17FB
  5
1AD4
331
1AD3
  5
1B1C
331
2142
  5
2C6B
331
1B1B
  5
1BC1
331
4A3F
  5
52D2
331
3591
  5
359E
331
67B2
  5
65A1
331
651C
  5
6776
331
6416
  5
5B6F
331
63D7
  5
59D1
331
63A0
  5
6520
331
6932
  5
6A50
331
68AB
  5
694D
331
6524
  5
67BA
331
641E
  5
5B77
331
63DF
  5
5A2C
331
65A3
  5
68A3
331
67BA
  5
659F
331
58D0
  5
61F3
331
68B3
  5
6953
331
693A
  5
630A
331
652C
  5
67E5
331
6426
  5
61F1
331
63E7
  5
5A31
331
65AB
  5
68AB
331
6AA7
  5
6AAE
331
5532
  5
554D
331
59B0
  5
61F6
331
5B76
  5
651A
331
6942
  5
631F
331
65B3
  5
68B3
331
63EF
  5
5A32
331
6AAF
  5
6AC5
331
5423
  5
5485
331
52D6
  5
52DF
331
4B77
  5
52DA
331
C6D
  5
C6D
331
48C8
  5
4A3F
331
52DE
  5
52FD
331
1D1B
  5
1D1F
331
1D23
  5
2143
331
6436
  5
6528
331
63B8
  5
5914
331
64FD
  5
65AA
331
694A
  5
6463
331
6505
  5
65B2
331
63FF
  5
5A3B
331
63C0
  5
59B0
331
6A50
  5
6AAC
331
52FC
  5
5302
331
5562
  5
556A
331
6952
  5
64FA
331
6407
  5
5A45
331
63C8
  5
59C7
331
650D
  5
666F
331
69D9
  5
6AAB
331
5304
  5
5319
331
54BB
  5
54C1
331
556A
  5
5574
331
5A28
  5
6303
331
6923
  5
6958
331
695A
  5
632B
331
87D
  5
87D
331
6773
  5
6512
331
6515
  5
676F
331
640F
  5
5A4C
331
54C3
  5
54F3
331
5A30
  5
632C
331
692B
  5
6962
331
68A4
  5
6944
331
6962
  5
6302
331
6B16
  5
650B
331
5A38
  5
64FB
331
5B6F
  5
6513
331
FD5
  5
FD9
331
210B
  5
2368
331
1AD4
  5
1BBE
331
2143
  5
30A8
331
225B
  5
3584
331
1B1C
  5
1CEA
331
4A40
  5
52D3
331
3592
  5
3600
331
67B3
  5
659D
331
651D
  5
6777
331
6417
  5
5B70
331
63D8
  5
59D2
331
63A1
  5
6521
331
659C
  5
67ED
331
6933
  5
6A9A
331
67BB
  5
6533
331
6525
  5
67BB
331
641F
  5
5B78
331
65A4
  5
68A4
331
54F3
  5
5535
331
5A40
  5
6510
331
68B4
  5
6954
331
693B
  5
6307
331
A3D
  5
A3D
331
652D
  5
67E6
331
65AC
  5
68AC
331
6AA8
  5
6AAF
331
5533
  5
5563
331
5B77
  5
651B
331
6943
  5
6442
331
65B4
  5
68B4
331
6AB0
  5
6AC6
331
5424
  5
5486
331
4B78
  5
52DB
331
C6E
  5
D20
331
2C6B
  5
3592
331
52DF
  5
52FE
331
C76
  5
FD7
331
17F5
  5
1AD3
331
1D1C
  5
1D20
331
6BDF
  5
6BDF
331
63F0
  5
5A33
331
6437
  5
652A
331
63B9
  5
5915
331
64FE
  5
65AB
331
666C
  5
6923
331
694B
  5
6504
331
6506
  5
65B3
331
6400
  5
5A3C
331
63C1
  5
59C0
331
6674
  5
6936
331
52FD
  5
5303
331
5484
  5
54BA
331
5563
  5
556B
331
6953
  5
6443
331
676C
  5
652F
331
644F
  5
6532
331
63C9
  5
59C8
331
6408
  5
5A46
331
650E
  5
6670
331
54BC
  5
54C2
331
5305
  5
531A
331
556B
  5
558F
331
5A29
  5
6306
331
6924
  5
6959
331
686D
  5
6942
331
695B
  5
6328
331
6774
  5
693B
331
6516
  5
6770
331
54C4
  5
54F4
331
5A31
  5
632F
331
6B17
  5
6507
331
68A5
  5
6945
331
6963
  5
FD5
331
6BBE
  5
693C
331
5A39
  5
6500
331
A57
  5
A57
331
FD6
  5
FDA
331
4A41
  5
52D5
331
6410
  5
5A4D
331
67B4
  5
6531
331
8CE
  5
8CE
331
651E
  5
67B2
331
6418
  5
5B71
331
63D9
  5
59D3
331
63A2
  5
6522
331
659D
  5
67EE
331
6934
  5
6A9B
331
6526
  5
67DF
331
6420
  5
5B79
331
65A5
  5
68A5
331
54F4
  5
5544
331
5B70
  5
6514
331
68B5
  5
6955
331
693C
  5
6310
331
A3E
  5
A3E
331
652E
  5
67E7
331
65AD
  5
68AD
331
6AA9
  5
6AB0
331
5534
  5
5564
331
5B78
  5
651C
331
6944
  5
643B
331
65B5
  5
68B5
331
6AB1
  5
6AD0
331
5544
  5
5567
331
5425
  5
5487
331
359B
  5
37DC
331
52E0
  5
52FF
331
49C2
  5
4B76
331
1D1D
  5
1D21
331
63F1
  5
5A34
331
64FF
  5
65AC
331
63F9
  5
5A35
331
666D
  5
6924
331
694C
  5
6501
331
6507
  5
65B4
331
6401
  5
5A3D
331
63C2
  5
59C1
331
52FE
  5
5304
331
5485
  5
54BB
331
5564
  5
556C
331
67EE
  5
6941
331
6954
  5
643F
331
676D
  5
652B
331
650F
  5
6672
331
63CA
  5
59C9
331
6409
  5
5A47
331
54BD
  5
54C3
331
5306
  5
5350
331
556C
  5
5590
331
5A2A
  5
6309
331
6925
  5
695A
331
6775
  5
693E
331
695C
  5
6325
331
6517
  5
6771
331
54C5
  5
54F6
331
5A32
  5
6423
331
68A6
  5
6948
331
6B18
  5
6508
331
5A3A
  5
6503
331
A58
  5
A58
331
FD7
  5
FDB
331
3F3B
  5
488E
331
3584
  5
359C
331
3F73
  5
48C7
331
1BBE
  5
1D1B
331
6411
  5
5B50
331
67B5
  5
652E
331
8CF
  5
8CF
331
651F
  5
67B3
331
6419
  5
5B72
331
63DA
  5
5A27
331
63A3
  5
6523
331
659E
  5
67EF
331
6935
  5
6A9C
331
68AE
  5
694E
331
6527
  5
67E0
331
6421
  5
5B7A
331
65A6
  5
68A6
331
54F5
  5
5545
331
5B71
  5
6515
331
68B6
  5
6956
331
693D
  5
630D
331
652F
  5
67E8
331
65AE
  5
68AE
331
6AAA
  5
6AB1
331
5535
  5
5565
331
5B79
  5
651D
331
6945
  5
6438
331
6AB2
  5
6AD1
331
5545
  5
5568
331
5426
  5
548F
331
359C
  5
389E
331
37DC
  5
3F74
331
D20
  5
FD8
331
1D1E
  5
1D22
331
52E1
  5
5300
331
6500
  5
65AD
331
63FA
  5
5A36
331
666E
  5
6925
331
694D
  5
C76
331
6449
  5
65A2
331
6402
  5
5A3E
331
63C3
  5
59C2
331
6508
  5
65B5
331
52FF
  5
5305
331
5486
  5
54BC
331
5565
  5
556D
331
6955
  5
6439
331
676E
  5
659E
331
6510
  5
6673
331
63CB
  5
59CA
331
640A
  5
5A48
331
54BE
  5
54C4
331
5307
  5
5351
331
556D
  5
58BE
331
5A2B
  5
630C
331
6926
  5
695D
331
6776
  5
693F
331
695D
  5
6311
331
54C6
  5
5532
331
5A33
  5
6426
331
692E
  5
6963
331
68A7
  5
6949
331
6B19
  5
650C
331
5A3B
  5
6506
331
FD8
  5
1052
331
4A2B
  5
4B77
331
3F3C
  5
48A9
331
3F74
  5
4914
331
6518
  5
6772
331
6412
  5
5B51
331
67B6
  5
65A0
331
6520
  5
67B4
331
641A
  5
5B73
331
63DB
  5
5A28
331
63A4
  5
6525
331
659F
  5
67FD
331
68AF
  5
694F
331
6528
  5
67E1
331
6422
  5
5B7B
331
63E3
  5
5A2D
331
65A7
  5
68A7
331
54F6
  5
5546
331
5B72
  5
6516
331
693E
  5
C6E
331
65AF
  5
68AF
331
6AAB
  5
6AB2
331
6946
  5
6435
331
5B7A
  5
651E
331
5546
  5
5569
331
6AB3
  5
6AD2
331
541F
  5
5425
331
5427
  5
54B9
  0
SORTENTSTABLE
  5
67C8
102
{ACAD_REACTORS
330
67C7
102
}
330
67C7
100
AcDbSortentsTable
330
67BC
  0
LAYOUT
  5
589A
102
{ACAD_REACTORS
330
5897
102
}
330
5897
100
AcDbPlotSettings
  1

  2
HP LaserJet 2100 Series PCL 6
  4

  6

 40
0.0
 41
0.0
 42
0.0
 43
0.0
 44
0.0
 45
0.0
 46
0.0
 47
0.0
 48
0.0
 49
0.0
140
0.0
141
0.0
142
1.0
143
1.0
 70
   688
 72
     0
 73
     0
 74
     5
  7
acad.ctb
 75
    16
147
1.0
 76
     0
 77
     2
 78
   300
148
0.0
149
0.0
100
AcDbLayout
  1
Layout1
 70
     1
 71
     1
 10
0.0
 20
0.0
 11
12.0
 21
9.0
 12
0.0
 22
0.0
 32
0.0
 14
1.000000000000000E+20
 24
1.000000000000000E+20
 34
1.000000000000000E+20
 15
-1.000000000000000E+20
 25
-1.000000000000000E+20
 35
-1.000000000000000E+20
146
0.0
 13
0.0
 23
0.0
 33
0.0
 16
1.0
 26
0.0
 36
0.0
 17
0.0
 27
1.0
 37
0.0
 76
     0
330
15
  0
LAYOUT
  5
5899
102
{ACAD_REACTORS
330
5897
102
}
330
5897
100
AcDbPlotSettings
  1

  2
PDF Pro 10
  4
Letter
  6

 40
3.174999952316284
 41
3.174999952316284
 42
3.175003051757812
 43
3.17498779296875
 44
215.8999938964844
 45
279.3999938964844
 46
0.0
 47
0.9912382730645203
 48
0.0
 49
0.0
140
0.0
141
0.0
142
1.0
143
27.6032009399566
 70
  3764
 72
     0
 73
     1
 74
     1
  7
acad.ctb
 75
     0
147
0.0362276825131706
 76
     0
 77
     2
 78
   300
148
208.7155878096342
149
-23365.16989421746
100
AcDbLayout
  1
Model
 70
     1
 71
     0
 10
0.0
 20
0.0
 11
12.0
 21
9.0
 12
0.0
 22
0.0
 32
0.0
 14
0.0
 24
0.0
 34
0.0
 15
0.0
 25
0.0
 35
0.0
146
0.0
 13
0.0
 23
0.0
 33
0.0
 16
1.0
 26
0.0
 36
0.0
 17
0.0
 27
1.0
 37
0.0
 76
     0
330
18
331
5B2C
1001
ACAD_PSEXT
1000
PDF Pro 10
1000
Visage PDF
1000
VSP1:
1000

1070
     0
  0
MATERIAL
  5
5B30
102
{ACAD_REACTORS
330
5B2E
102
}
330
5B2E
100
AcDbMaterial
  1
ByBlock
  0
MATERIAL
  5
5B2F
102
{ACAD_REACTORS
330
5B2E
102
}
330
5B2E
100
AcDbMaterial
  1
ByLayer
  0
MATERIAL
  5
5B31
102
{ACAD_REACTORS
330
5B2E
102
}
330
5B2E
100
AcDbMaterial
  1
Global
  0
MLINESTYLE
  5
1B
102
{ACAD_REACTORS
330
E
102
}
330
E
100
AcDbMlineStyle
  2
STANDARD
 70
     0
  3

 62
     0
 51
90.0
 52
90.0
 71
     2
 49
0.5
 62
   256
  6
BYLAYER
 49
-0.5
 62
   256
  6
BYLAYER
  0
ACDBPLACEHOLDER
  5
5896
102
{ACAD_REACTORS
330
5895
102
}
330
5895
  0
TABLESTYLE
  5
5B45
102
{ACAD_REACTORS
330
5B44
102
}
330
5B44
100
AcDbTableStyle
  3
Standard
 70
     0
 71
     0
 40
0.06
 41
0.06
280
     0
281
     0
  7
STANDARD
140
0.18
170
     2
 62
     0
 63
     7
283
     0
 90
      512
 91
        0
  1

274
    -2
284
     1
 64
     0
275
    -2
285
     1
 65
     0
276
    -2
286
     1
 66
     0
277
    -2
287
     1
 67
     0
278
    -2
288
     1
 68
     0
279
    -2
289
     1
 69
     0
  7
STANDARD
140
0.25
170
     5
 62
     0
 63
     7
283
     0
 90
      512
 91
        0
  1

274
    -2
284
     1
 64
     0
275
    -2
285
     1
 65
     0
276
    -2
286
     1
 66
     0
277
    -2
287
     1
 67
     0
278
    -2
288
     1
 68
     0
279
    -2
289
     1
 69
     0
  7
STANDARD
140
0.18
170
     5
 62
     0
 63
     7
283
     0
 90
      512
 91
        0
  1

274
    -2
284
     1
 64
     0
275
    -2
285
     1
 65
     0
276
    -2
286
     1
 66
     0
277
    -2
287
     1
 67
     0
278
    -2
288
     1
 68
     0
279
    -2
289
     1
 69
     0
  0
VISUALSTYLE
  5
5B38
102
{ACAD_REACTORS
330
5B32
102
}
330
5B32
100
AcDbVisualStyle
  2
2dWireframe
 70
     4
 71
     0
 72
     2
 73
     0
 90
        0
 40
-0.6
 41
-30.0
 62
     5
 63
     7
 74
     1
 91
        4
 64
     7
 65
   257
 75
     1
175
     1
 42
1.0
 92
        0
 66
   257
 43
1.0
 76
     1
 77
     6
 78
     2
 67
     7
 79
     5
170
     0
171
     0
290
     0
174
     0
 93
        1
 44
0.0
173
     0
291
     0
 45
0.0
  0
VISUALSTYLE
  5
5B3A
102
{ACAD_REACTORS
330
5B32
102
}
330
5B32
100
AcDbVisualStyle
  2
3D Hidden
 70
     6
 71
     1
 72
     2
 73
     2
 90
        0
 40
-0.6
 41
-30.0
 62
     5
 63
     7
 74
     2
 91
        2
 64
     7
 65
   257
 75
     2
175
     1
 42
40.0
 92
        0
 66
   257
 43
1.0
 76
     1
 77
     6
 78
     2
 67
     7
 79
     3
170
     0
171
     0
290
     0
174
     0
 93
        1
 44
0.0
173
     0
291
     0
 45
0.0
  0
VISUALSTYLE
  5
5B39
102
{ACAD_REACTORS
330
5B32
102
}
330
5B32
100
AcDbVisualStyle
  2
3dWireframe
 70
     5
 71
     0
 72
     2
 73
     0
 90
        0
 40
-0.6
 41
-30.0
 62
     5
 63
     7
 74
     1
 91
        4
 64
     7
 65
   257
 75
     1
175
     1
 42
1.0
 92
        0
 66
   257
 43
1.0
 76
     1
 77
     6
 78
     2
 67
     7
 79
     5
170
     0
171
     0
290
     0
174
     0
 93
        1
 44
0.0
173
     0
291
     0
 45
0.0
  0
VISUALSTYLE
  5
5B37
102
{ACAD_REACTORS
330
5B32
102
}
330
5B32
100
AcDbVisualStyle
  2
Basic
 70
     7
 71
     1
 72
     0
 73
     1
 90
        0
 40
-0.6
 41
-30.0
 62
     5
 63
     7
 74
     0
 91
        4
 64
     7
 65
   257
 75
     1
175
     1
 42
1.0
 92
        8
 66
     7
 43
1.0
 76
     1
 77
     6
 78
     2
 67
     7
 79
     5
170
     0
171
     0
290
     0
174
     0
 93
        1
 44
0.0
173
     0
291
     1
 45
0.0
  0
VISUALSTYLE
  5
5B3E
102
{ACAD_REACTORS
330
5B32
102
}
330
5B32
100
AcDbVisualStyle
  2
Brighten
 70
    12
 71
     2
 72
     2
 73
     0
 90
        0
 40
-0.6
 41
-30.0
 62
     5
 63
     7
 74
     1
 91
        4
 64
     7
 65
   257
 75
     1
175
     1
 42
1.0
 92
        8
 66
     7
 43
1.0
 76
     1
 77
     6
 78
     2
 67
     7
 79
     5
170
     0
171
     0
290
     0
174
     0
 93
        1
 44
50.0
173
     0
291
     1
 45
0.0
  0
VISUALSTYLE
  5
5B42
102
{ACAD_REACTORS
330
5B32
102
}
330
5B32
100
AcDbVisualStyle
  2
ColorChange
 70
    16
 71
     2
 72
     2
 73
     3
 90
        0
 40
-0.6
 41
-30.0
 62
     5
 63
     8
 74
     1
 91
        4
 64
     7
 65
   257
 75
     1
175
     1
 42
1.0
 92
        8
 66
     8
 43
1.0
 76
     1
 77
     6
 78
     2
 67
     7
 79
     5
170
     0
171
     0
290
     0
174
     0
 93
        1
 44
0.0
173
     0
291
     1
 45
0.0
  0
VISUALSTYLE
  5
5B3B
102
{ACAD_REACTORS
330
5B32
102
}
330
5B32
100
AcDbVisualStyle
  2
Conceptual
 70
     9
 71
     3
 72
     2
 73
     0
 90
        0
 40
-0.6
 41
-30.0
 62
     5
 63
     7
 74
     2
 91
        2
 64
     7
 65
   257
 75
     1
175
     1
 42
40.0
 92
        8
 66
     7
 43
1.0
 76
     1
 77
     6
 78
     2
 67
     7
 79
     3
170
     0
171
     0
290
     0
174
     0
 93
        1
 44
0.0
173
     0
291
     0
 45
0.0
  0
VISUALSTYLE
  5
5B3D
102
{ACAD_REACTORS
330
5B32
102
}
330
5B32
100
AcDbVisualStyle
  2
Dim
 70
    11
 71
     2
 72
     2
 73
     0
 90
        0
 40
-0.6
 41
-30.0
 62
     5
 63
     7
 74
     1
 91
        4
 64
     7
 65
   257
 75
     1
175
     1
 42
1.0
 92
        8
 66
     7
 43
1.0
 76
     1
 77
     6
 78
     2
 67
     7
 79
     5
170
     0
171
     0
290
     0
174
     0
 93
        1
 44
-50.0
173
     0
291
     1
 45
0.0
  0
VISUALSTYLE
  5
5B41
102
{ACAD_REACTORS
330
5B32
102
}
330
5B32
100
AcDbVisualStyle
  2
Facepattern
 70
    15
 71
     2
 72
     2
 73
     0
 90
        0
 40
-0.6
 41
-30.0
 62
     5
 63
     7
 74
     1
 91
        4
 64
     7
 65
   257
 75
     1
175
     1
 42
1.0
 92
        8
 66
     7
 43
1.0
 76
     1
 77
     6
 78
     2
 67
     7
 79
     5
170
     0
171
     0
290
     0
174
     0
 93
        1
 44
0.0
173
     0
291
     1
 45
0.0
  0
VISUALSTYLE
  5
5B33
102
{ACAD_REACTORS
330
5B32
102
}
330
5B32
100
AcDbVisualStyle
  2
Flat
 70
     0
 71
     2
 72
     1
 73
     1
 90
        2
 40
-0.6
 41
30.0
 62
     5
 63
     7
 74
     0
 91
        4
 64
     7
 65
   257
 75
     1
175
     1
 42
1.0
 92
        8
 66
     7
 43
1.0
 76
     1
 77
     6
 78
     2
 67
     7
 79
     5
170
     0
171
     0
290
     0
174
     0
 93
       13
 44
0.0
173
     0
291
     1
 45
0.0
  0
VISUALSTYLE
  5
5B34
102
{ACAD_REACTORS
330
5B32
102
}
330
5B32
100
AcDbVisualStyle
  2
FlatWithEdges
 70
     1
 71
     2
 72
     1
 73
     1
 90
        2
 40
-0.6
 41
30.0
 62
     5
 63
     7
 74
     1
 91
        4
 64
     7
 65
   257
 75
     1
175
     1
 42
1.0
 92
        0
 66
   257
 43
1.0
 76
     1
 77
     6
 78
     2
 67
     7
 79
     5
170
     0
171
     0
290
     0
174
     0
 93
       13
 44
0.0
173
     0
291
     1
 45
0.0
  0
VISUALSTYLE
  5
5B35
102
{ACAD_REACTORS
330
5B32
102
}
330
5B32
100
AcDbVisualStyle
  2
Gouraud
 70
     2
 71
     2
 72
     2
 73
     1
 90
        2
 40
-0.6
 41
30.0
 62
     5
 63
     7
 74
     0
 91
        4
 64
     7
 65
   257
 75
     1
175
     1
 42
1.0
 92
        0
 66
     7
 43
1.0
 76
     1
 77
     6
 78
     2
 67
     7
 79
     5
170
     0
171
     0
290
     0
174
     0
 93
       13
 44
0.0
173
     0
291
     1
 45
0.0
  0
VISUALSTYLE
  5
5B36
102
{ACAD_REACTORS
330
5B32
102
}
330
5B32
100
AcDbVisualStyle
  2
GouraudWithEdges
 70
     3
 71
     2
 72
     2
 73
     1
 90
        2
 40
-0.6
 41
30.0
 62
     5
 63
     7
 74
     1
 91
        4
 64
     7
 65
   257
 75
     1
175
     1
 42
1.0
 92
        0
 66
   257
 43
1.0
 76
     1
 77
     6
 78
     2
 67
     7
 79
     5
170
     0
171
     0
290
     0
174
     0
 93
       13
 44
0.0
173
     0
291
     1
 45
0.0
  0
VISUALSTYLE
  5
5B40
102
{ACAD_REACTORS
330
5B32
102
}
330
5B32
100
AcDbVisualStyle
  2
Linepattern
 70
    14
 71
     2
 72
     2
 73
     0
 90
        0
 40
-0.6
 41
-30.0
 62
     5
 63
     7
 74
     1
 91
        4
 64
     7
 65
   257
 75
     7
175
     7
 42
1.0
 92
        8
 66
     7
 43
1.0
 76
     1
 77
     6
 78
     2
 67
     7
 79
     5
170
     0
171
     0
290
     0
174
     0
 93
        1
 44
0.0
173
     0
291
     1
 45
0.0
  0
VISUALSTYLE
  5
5B3C
102
{ACAD_REACTORS
330
5B32
102
}
330
5B32
100
AcDbVisualStyle
  2
Realistic
 70
     8
 71
     2
 72
     2
 73
     0
 90
        0
 40
-0.6
 41
-30.0
 62
     5
 63
     7
 74
     1
 91
        0
 64
     7
 65
   257
 75
     1
175
     1
 42
1.0
 92
        8
 66
     8
 43
1.0
 76
     1
 77
     6
 78
     2
 67
     7
 79
     5
170
     0
171
     0
290
     0
174
     0
 93
       13
 44
0.0
173
     0
291
     0
 45
0.0
  0
VISUALSTYLE
  5
5B3F
102
{ACAD_REACTORS
330
5B32
102
}
330
5B32
100
AcDbVisualStyle
  2
Thicken
 70
    13
 71
     2
 72
     2
 73
     0
 90
        0
 40
-0.6
 41
-30.0
 62
     5
 63
     7
 74
     1
 91
        4
 64
     7
 65
   257
 75
     1
175
     1
 42
1.0
 92
       12
 66
     7
 43
1.0
 76
     1
 77
     6
 78
     2
 67
     7
 79
     5
170
     0
171
     0
290
     0
174
     0
 93
        1
 44
0.0
173
     0
291
     1
 45
0.0
  0
DICTIONARYVAR
  5
5B47
102
{ACAD_REACTORS
330
5B46
102
}
330
5B46
100
DictionaryVariables
280
     0
  1
STANDARD
  0
DICTIONARYVAR
  5
6499
102
{ACAD_REACTORS
330
5B46
102
}
330
5B46
100
DictionaryVariables
280
     0
  1
1
  0
DICTIONARYVAR
  5
6498
102
{ACAD_REACTORS
330
5B46
102
}
330
5B46
100
DictionaryVariables
280
     0
  1
0
  0
DICTIONARYVAR
  5
6497
102
{ACAD_REACTORS
330
5B46
102
}
330
5B46
100
DictionaryVariables
280
     0
  1
127
  0
ENDSEC
  0
EOF
