  0
SECTION
  2
HEADER
  9
$ACADVER
  1
AC1015
  9
$ACADMAINTVER
 70
    20
  9
$DWGCODEPAGE
  3
ANSI_1252
  9
$INSBASE
 10
0.0
 20
0.0
 30
0.0
  9
$EXTMIN
 10
468.7056129421264
 20
6.930399282440461
 30
0.0
  9
$EXTMAX
 10
568.6925191921248
 20
78.92097178243922
 30
0.0
  9
$LIMMIN
 10
0.0
 20
0.0
  9
$LIMMAX
 10
12.0
 20
9.0
  9
$ORTHOMODE
 70
     0
  9
$REGENMODE
 70
     1
  9
$FILLMODE
 70
     1
  9
$QTEXTMODE
 70
     0
  9
$MIRRTEXT
 70
     1
  9
$LTSCALE
 40
1.0
  9
$ATTMODE
 70
     1
  9
$TEXTSIZE
 40
0.75
  9
$TRACEWID
 40
0.05
  9
$TEXTSTYLE
  7
ROMANS
  9
$CLAYER
  8
0
  9
$CELTYPE
  6
BYLAYER
  9
$CECOLOR
 62
   256
  9
$CELTSCALE
 40
1.0
  9
$DISPSILH
 70
     0
  9
$DIMSCALE
 40
1.0
  9
$DIMASZ
 40
0.75
  9
$DIMEXO
 40
0.75
  9
$DIMDLI
 40
0.5
  9
$DIMRND
 40
0.0
  9
$DIMDLE
 40
0.0
  9
$DIMEXE
 40
0.75
  9
$DIMTP
 40
0.0
  9
$DIMTM
 40
0.0
  9
$DIMTXT
 40
0.75
  9
$DIMCEN
 40
0.0625
  9
$DIMTSZ
 40
0.0
  9
$DIMTOL
 70
     0
  9
$DIMLIM
 70
     0
  9
$DIMTIH
 70
     1
  9
$DIMTOH
 70
     1
  9
$DIMSE1
 70
     0
  9
$DIMSE2
 70
     0
  9
$DIMTAD
 70
     0
  9
$DIMZIN
 70
     3
  9
$DIMBLK
  1

  9
$DIMASO
 70
     1
  9
$DIMSHO
 70
     1
  9
$DIMPOST
  1

  9
$DIMAPOST
  1

  9
$DIMALT
 70
     0
  9
$DIMALTD
 70
     2
  9
$DIMALTF
 40
25.4
  9
$DIMLFAC
 40
1.0
  9
$DIMTOFL
 70
     0
  9
$DIMTVP
 40
0.0
  9
$DIMTIX
 70
     0
  9
$DIMSOXD
 70
     0
  9
$DIMSAH
 70
     0
  9
$DIMBLK1
  1

  9
$DIMBLK2
  1

  9
$DIMSTYLE
  2
STANDARD
  9
$DIMCLRD
 70
     0
  9
$DIMCLRE
 70
     0
  9
$DIMCLRT
 70
     0
  9
$DIMTFAC
 40
1.0
  9
$DIMGAP
 40
1.0
  9
$DIMJUST
 70
     0
  9
$DIMSD1
 70
     0
  9
$DIMSD2
 70
     0
  9
$DIMTOLJ
 70
     1
  9
$DIMTZIN
 70
     0
  9
$DIMALTZ
 70
     0
  9
$DIMALTTZ
 70
     0
  9
$DIMUPT
 70
     0
  9
$DIMDEC
 70
     4
  9
$DIMTDEC
 70
     4
  9
$DIMALTU
 70
     2
  9
$DIMALTTD
 70
     2
  9
$DIMTXSTY
  7
ROMANS
  9
$DIMAUNIT
 70
     0
  9
$DIMADEC
 70
     0
  9
$DIMALTRND
 40
0.0
  9
$DIMAZIN
 70
     0
  9
$DIMDSEP
 70
    46
  9
$DIMATFIT
 70
     3
  9
$DIMFRAC
 70
     2
  9
$DIMLDRBLK
  1

  9
$DIMLUNIT
 70
     4
  9
$DIMLWD
 70
    -2
  9
$DIMLWE
 70
    -2
  9
$DIMTMOVE
 70
     2
  9
$LUNITS
 70
     4
  9
$LUPREC
 70
     4
  9
$SKETCHINC
 40
0.1
  9
$FILLETRAD
 40
0.125
  9
$AUNITS
 70
     0
  9
$AUPREC
 70
     0
  9
$MENU
  1
acad
  9
$ELEVATION
 40
0.0
  9
$PELEVATION
 40
0.0
  9
$THICKNESS
 40
0.0
  9
$LIMCHECK
 70
     0
  9
$CHAMFERA
 40
0.0
  9
$CHAMFERB
 40
0.0
  9
$CHAMFERC
 40
0.0
  9
$CHAMFERD
 40
0.0
  9
$SKPOLY
 70
     0
  9
$TDCREATE
 40
2449329.703918635
  9
$TDUCREATE
 40
2449329.870585301
  9
$TDUPDATE
 40
2457491.653734618
  9
$TDUUPDATE
 40
2457491.820401285
  9
$TDINDWG
 40
0.3642724190
  9
$TDUSRTIMER
 40
0.3642724190
  9
$USRTIMER
 70
     1
  9
$ANGBASE
 50
0.0
  9
$ANGDIR
 70
     0
  9
$PDMODE
 70
     0
  9
$PDSIZE
 40
0.0
  9
$PLINEWID
 40
0.0
  9
$SPLFRAME
 70
     0
  9
$SPLINETYPE
 70
     6
  9
$SPLINESEGS
 70
     8
  9
$HANDSEED
  5
1A2D
  9
$SURFTAB1
 70
     6
  9
$SURFTAB2
 70
     6
  9
$SURFTYPE
 70
     6
  9
$SURFU
 70
     6
  9
$SURFV
 70
     6
  9
$UCSBASE
  2

  9
$UCSNAME
  2

  9
$UCSORG
 10
0.0
 20
0.0
 30
0.0
  9
$UCSXDIR
 10
1.0
 20
0.0
 30
0.0
  9
$UCSYDIR
 10
0.0
 20
1.0
 30
0.0
  9
$UCSORTHOREF
  2

  9
$UCSORTHOVIEW
 70
     0
  9
$UCSORGTOP
 10
0.0
 20
0.0
 30
0.0
  9
$UCSORGBOTTOM
 10
0.0
 20
0.0
 30
0.0
  9
$UCSORGLEFT
 10
0.0
 20
0.0
 30
0.0
  9
$UCSORGRIGHT
 10
0.0
 20
0.0
 30
0.0
  9
$UCSORGFRONT
 10
0.0
 20
0.0
 30
0.0
  9
$UCSORGBACK
 10
0.0
 20
0.0
 30
0.0
  9
$PUCSBASE
  2

  9
$PUCSNAME
  2

  9
$PUCSORG
 10
0.0
 20
0.0
 30
0.0
  9
$PUCSXDIR
 10
1.0
 20
0.0
 30
0.0
  9
$PUCSYDIR
 10
0.0
 20
1.0
 30
0.0
  9
$PUCSORTHOREF
  2

  9
$PUCSORTHOVIEW
 70
     0
  9
$PUCSORGTOP
 10
0.0
 20
0.0
 30
0.0
  9
$PUCSORGBOTTOM
 10
0.0
 20
0.0
 30
0.0
  9
$PUCSORGLEFT
 10
0.0
 20
0.0
 30
0.0
  9
$PUCSORGRIGHT
 10
0.0
 20
0.0
 30
0.0
  9
$PUCSORGFRONT
 10
0.0
 20
0.0
 30
0.0
  9
$PUCSORGBACK
 10
0.0
 20
0.0
 30
0.0
  9
$USERI1
 70
     0
  9
$USERI2
 70
     0
  9
$USERI3
 70
     0
  9
$USERI4
 70
     0
  9
$USERI5
 70
     0
  9
$USERR1
 40
0.0
  9
$USERR2
 40
0.0
  9
$USERR3
 40
0.0
  9
$USERR4
 40
0.0
  9
$USERR5
 40
0.0
  9
$WORLDVIEW
 70
     1
  9
$SHADEDGE
 70
     3
  9
$SHADEDIF
 70
    70
  9
$TILEMODE
 70
     1
  9
$MAXACTVP
 70
    16
  9
$PINSBASE
 10
0.0
 20
0.0
 30
0.0
  9
$PLIMCHECK
 70
     0
  9
$PEXTMIN
 10
1.000000000000000E+20
 20
1.000000000000000E+20
 30
1.000000000000000E+20
  9
$PEXTMAX
 10
-1.000000000000000E+20
 20
-1.000000000000000E+20
 30
-1.000000000000000E+20
  9
$PLIMMIN
 10
0.0
 20
0.0
  9
$PLIMMAX
 10
12.0
 20
9.0
  9
$UNITMODE
 70
     0
  9
$VISRETAIN
 70
     0
  9
$PLINEGEN
 70
     0
  9
$PSLTSCALE
 70
     1
  9
$TREEDEPTH
 70
  3020
  9
$CMLSTYLE
  2
STANDARD
  9
$CMLJUST
 70
     0
  9
$CMLSCALE
 40
1.0
  9
$PROXYGRAPHICS
 70
     1
  9
$MEASUREMENT
 70
     0
  9
$CELWEIGHT
370
    -1
  9
$ENDCAPS
280
     0
  9
$JOINSTYLE
280
     0
  9
$LWDISPLAY
290
     0
  9
$INSUNITS
 70
     0
  9
$HYPERLINKBASE
  1

  9
$STYLESHEET
  1
Erik.ctb
  9
$XEDIT
290
     1
  9
$CEPSNTYPE
380
     0
  9
$PSTYLEMODE
290
     1
  9
$FINGERPRINTGUID
  2
{A40A6B60-44B3-11D7-8738-0010B50CF566}
  9
$VERSIONGUID
  2
{8696DB20-523A-4727-B1E2-8DEDD40FA053}
  9
$EXTNAMES
290
     1
  9
$PSVPSCALE
 40
0.0
  9
$OLESTARTUP
290
     0
  0
ENDSEC
  0
SECTION
  2
CLASSES
  0
CLASS
  1
ACDBDICTIONARYWDFLT
  2
AcDbDictionaryWithDefault
  3
ObjectDBX Classes
 90
        0
280
     0
281
     0
  0
CLASS
  1
ACDBPLACEHOLDER
  2
AcDbPlaceHolder
  3
ObjectDBX Classes
 90
        0
280
     0
281
     0
  0
CLASS
  1
LAYOUT
  2
AcDbLayout
  3
ObjectDBX Classes
 90
        0
280
     0
281
     0
  0
CLASS
  1
MATERIAL
  2
AcDbMaterial
  3
ObjectDBX Classes
 90
     1153
280
     0
281
     0
  0
CLASS
  1
VISUALSTYLE
  2
AcDbVisualStyle
  3
ObjectDBX Classes
 90
     4095
280
     0
281
     0
  0
CLASS
  1
TABLESTYLE
  2
AcDbTableStyle
  3
ObjectDBX Classes
 90
     4095
280
     0
281
     0
  0
CLASS
  1
DICTIONARYVAR
  2
AcDbDictionaryVar
  3
ObjectDBX Classes
 90
        0
280
     0
281
     0
  0
CLASS
  1
SORTENTSTABLE
  2
AcDbSortentsTable
  3
ObjectDBX Classes
 90
    32768
280
     0
281
     0
  0
ENDSEC
  0
SECTION
  2
TABLES
  0
TABLE
  2
VPORT
  5
729
102
{ACAD_XDICTIONARY
360
834
102
}
330
0
100
AcDbSymbolTable
 70
     1
  0
VPORT
  5
7E7
330
729
100
AcDbSymbolTableRecord
100
AcDbViewportTableRecord
  2
*Active
 70
     0
 10
0.0
 20
0.0
 11
1.0
 21
1.0
 12
518.6840830351968
 22
61.94372573432839
 13
0.0
 23
0.0
 14
1.0
 24
1.0
 15
0.0
 25
0.0
 16
0.0
 26
0.0
 36
1.0
 17
0.0
 27
0.0
 37
0.0
 40
110.7230095259384
 41
1.489646772228988
 42
50.0
 43
0.0
 44
0.0
 50
0.0
 51
0.0
 71
     0
 72
   100
 73
     1
 74
     0
 75
     0
 76
     0
 77
     0
 78
     0
281
     0
 65
     1
110
0.0
120
0.0
130
0.0
111
1.0
121
0.0
131
0.0
112
0.0
122
1.0
132
0.0
 79
     0
146
0.0
  0
ENDTAB
  0
TABLE
  2
LTYPE
  5
726
330
0
100
AcDbSymbolTable
 70
     2
  0
LTYPE
  5
733
330
726
100
AcDbSymbolTableRecord
100
AcDbLinetypeTableRecord
  2
BYBLOCK
 70
     0
  3

 72
    65
 73
     0
 40
0.0
  0
LTYPE
  5
734
330
726
100
AcDbSymbolTableRecord
100
AcDbLinetypeTableRecord
  2
BYLAYER
 70
     0
  3

 72
    65
 73
     0
 40
0.0
  0
LTYPE
  5
735
330
726
100
AcDbSymbolTableRecord
100
AcDbLinetypeTableRecord
  2
CONTINUOUS
 70
     0
  3
Solid line
 72
    65
 73
     0
 40
0.0
  0
LTYPE
  5
747
330
726
100
AcDbSymbolTableRecord
100
AcDbLinetypeTableRecord
  2
HIDDEN
 70
     0
  3
__ __ __ __ __ __ __ __ __ __ __ __ __ __ __ __
 72
    65
 73
     2
 40
0.375
 49
0.25
 74
     0
 49
-0.125
 74
     0
  0
ENDTAB
  0
TABLE
  2
LAYER
  5
723
102
{ACAD_XDICTIONARY
360
B5A
102
}
330
0
100
AcDbSymbolTable
 70
     2
  0
LAYER
  5
730
330
723
100
AcDbSymbolTableRecord
100
AcDbLayerTableRecord
  2
0
 70
     0
 62
     7
  6
CONTINUOUS
370
    -3
390
77D
  0
LAYER
  5
74B
330
723
100
AcDbSymbolTableRecord
100
AcDbLayerTableRecord
  2
DEFPOINTS
 70
     0
 62
     7
  6
CONTINUOUS
290
     0
370
    -3
390
77D
  0
ENDTAB
  0
TABLE
  2
STYLE
  5
724
330
0
100
AcDbSymbolTable
 70
     4
  0
STYLE
  5
731
330
724
100
AcDbSymbolTableRecord
100
AcDbTextStyleTableRecord
  2
STANDARD
 70
     0
 40
0.0
 41
1.0
 50
0.0
 71
     0
 42
0.2
  3
txt
  4

  0
STYLE
  5
745
330
724
100
AcDbSymbolTableRecord
100
AcDbTextStyleTableRecord
  2
ROMANS
 70
     0
 40
0.75
 41
1.0
 50
0.0
 71
     0
 42
0.75
  3
romans
  4

  0
STYLE
  5
746
330
724
100
AcDbSymbolTableRecord
100
AcDbTextStyleTableRecord
  2
ROMANC
 70
     0
 40
2.0
 41
1.0
 50
0.0
 71
     0
 42
2.0
  3
romanc
  4

  0
STYLE
  5
B58
330
724
100
AcDbSymbolTableRecord
100
AcDbTextStyleTableRecord
  2
STYLE1
 70
     0
 40
0.0
 41
1.0
 50
0.0
 71
     0
 42
3.0954
  3
C:\Program Files\AutoCAD LT\romanc.shx
  4

  0
ENDTAB
  0
TABLE
  2
VIEW
  5
727
330
0
100
AcDbSymbolTable
 70
     0
  0
ENDTAB
  0
TABLE
  2
UCS
  5
728
330
0
100
AcDbSymbolTable
 70
     0
  0
ENDTAB
  0
TABLE
  2
APPID
  5
72A
330
0
100
AcDbSymbolTable
 70
     2
  0
APPID
  5
732
330
72A
100
AcDbSymbolTableRecord
100
AcDbRegAppTableRecord
  2
ACAD
 70
     0
  0
APPID
  5
B59
330
72A
100
AcDbSymbolTableRecord
100
AcDbRegAppTableRecord
  2
ACAD_PSEXT
 70
     0
  0
ENDTAB
  0
TABLE
  2
DIMSTYLE
  5
72B
330
0
100
AcDbSymbolTable
 70
     2
100
AcDbDimStyleTable
 71
     1
340
749
  0
DIMSTYLE
105
749
102
{ACAD_REACTORS
330
C5
102
}
330
72B
100
AcDbSymbolTableRecord
100
AcDbDimStyleTableRecord
  2
STANDARD
 70
     0
 41
0.75
 42
0.75
 43
0.5
 44
0.75
 78
     3
140
0.75
141
0.0625
147
1.0
276
     2
277
     4
279
     2
340
745
  0
DIMSTYLE
105
74A
102
{ACAD_REACTORS
330
C6
330
C7
330
E8
102
}
330
72B
100
AcDbSymbolTableRecord
100
AcDbDimStyleTableRecord
  2
STANDARD$0
 70
     0
 41
0.75
 42
0.75
 43
0.5
 44
0.75
 78
     3
140
0.75
141
0.0625
147
1.0
273
     4
276
     2
277
     4
279
     2
284
     3
285
     3
286
     3
340
745
  0
ENDTAB
  0
TABLE
  2
BLOCK_RECORD
  5
722
330
0
100
AcDbSymbolTable
 70
     9
  0
BLOCK_RECORD
  5
739
330
722
100
AcDbSymbolTableRecord
100
AcDbBlockTableRecord
  2
*MODEL_SPACE
340
780
  0
BLOCK_RECORD
  5
736
330
722
100
AcDbSymbolTableRecord
100
AcDbBlockTableRecord
  2
*PAPER_SPACE
340
781
  0
BLOCK_RECORD
  5
73E
330
722
100
AcDbSymbolTableRecord
100
AcDbBlockTableRecord
  2
LINETYPE
340
0
102
{BLKREFS
331
447
331
462
331
47D
102
}
  0
BLOCK_RECORD
  5
73F
330
722
100
AcDbSymbolTableRecord
100
AcDbBlockTableRecord
  2
TB-ATT
340
0
  0
BLOCK_RECORD
  5
753
330
722
100
AcDbSymbolTableRecord
100
AcDbBlockTableRecord
  2
*D2
340
0
  0
BLOCK_RECORD
  5
760
330
722
100
AcDbSymbolTableRecord
100
AcDbBlockTableRecord
  2
*D3
340
0
  0
BLOCK_RECORD
  5
76D
330
722
100
AcDbSymbolTableRecord
100
AcDbBlockTableRecord
  2
*D4
340
0
  0
BLOCK_RECORD
  5
78D
330
722
100
AcDbSymbolTableRecord
100
AcDbBlockTableRecord
  2
Border-t
340
0
  0
BLOCK_RECORD
  5
8A1
330
722
100
AcDbSymbolTableRecord
100
AcDbBlockTableRecord
  2
*D6
340
0
  0
BLOCK_RECORD
  5
8D6
330
722
100
AcDbSymbolTableRecord
100
AcDbBlockTableRecord
  2
*X7
340
0
102
{BLKREFS
331
F76
102
}
  0
BLOCK_RECORD
  5
13B8
330
722
100
AcDbSymbolTableRecord
100
AcDbBlockTableRecord
  2
*X8
340
0
102
{BLKREFS
331
1727
331
1751
102
}
  0
ENDTAB
  0
ENDSEC
  0
SECTION
  2
BLOCKS
  0
BLOCK
  5
74E
330
739
100
AcDbEntity
  8
0
100
AcDbBlockBegin
  2
*MODEL_SPACE
 70
     0
 10
0.0
 20
0.0
 30
0.0
  3
*MODEL_SPACE
  1

  0
ENDBLK
  5
74F
330
739
100
AcDbEntity
  8
0
100
AcDbBlockEnd
  0
BLOCK
  5
74C
330
736
100
AcDbEntity
 67
     1
  8
0
100
AcDbBlockBegin
  2
*PAPER_SPACE
 70
     0
 10
0.0
 20
0.0
 30
0.0
  3
*PAPER_SPACE
  1

  0
ENDBLK
  5
74D
330
736
100
AcDbEntity
 67
     1
  8
0
100
AcDbBlockEnd
  0
BLOCK
  5
1A2
330
73E
100
AcDbEntity
  8
0
100
AcDbBlockBegin
  2
LINETYPE
 70
     0
 10
0.0
 20
0.0
 30
0.0
  3
LINETYPE
  1

  0
ENDBLK
  5
1A3
330
73E
100
AcDbEntity
  8
0
100
AcDbBlockEnd
  0
BLOCK
  5
1B8
330
73F
100
AcDbEntity
  8
0
 62
     7
100
AcDbBlockBegin
  2
TB-ATT
 70
     2
 10
0.0
 20
0.0
 30
0.0
  3
TB-ATT
  1

  0
ATTDEF
  5
1A5
330
73F
100
AcDbEntity
  8
0
 62
     5
100
AcDbText
 10
-215.598003151808
 20
12.89673285282586
 30
0.0
 40
1.248161764705882
  1

 50
90.0
  7
ROMANS
 72
     4
 11
-216.2220840341609
 21
13.4910955979239
 31
0.0
100
AcDbAttributeDefinition
  3
WORK ORDER (X)
  2
X
 70
     0
  0
ATTDEF
  5
1A6
330
73F
100
AcDbEntity
  8
0
100
AcDbText
 10
-99.56996915842902
 20
11.16830391662092
 30
0.0
 40
1.769029714285714
  1

  7
ROMANS
 72
     1
 11
-93.71532319924535
 21
11.16830391662092
 31
0.0
100
AcDbAttributeDefinition
  3
PROJECT
  2
PROJECT
 70
     0
  0
ATTDEF
  5
1A7
330
73F
100
AcDbEntity
  8
0
100
AcDbText
 10
-93.29852621965358
 20
6.014881478758579
 30
0.0
 40
1.769029714285714
  1

  7
ROMANS
 72
     1
 11
-85.464251770674
 21
6.014881478758579
 31
0.0
100
AcDbAttributeDefinition
  3
PURCHASER
  2
PURCHASER
 70
     0
  0
ATTDEF
  5
1A8
330
73F
100
AcDbEntity
  8
0
100
AcDbText
 10
-165.5533944645515
 20
6.014881478758579
 30
0.0
 40
1.769029714285714
  1

  7
ROMANS
 72
     1
 11
-154.2231803421025
 21
6.014881478758579
 31
0.0
100
AcDbAttributeDefinition
  3
PURCHASE ORDER
  2
PURCHASEORDER
 70
     0
  0
ATTDEF
  5
1A9
330
73F
100
AcDbEntity
  8
0
100
AcDbText
 10
-33.81411626046983
 20
11.16830391662092
 30
0.0
 40
1.769029714285714
  1

  7
ROMANS
 72
     1
 11
-27.70675177067392
 21
11.16830391662092
 31
0.0
100
AcDbAttributeDefinition
  3
GENERAL CONTRACTOR
  2
GENCONT
 70
     0
  0
ATTDEF
  5
1AA
330
73F
100
AcDbEntity
  8
0
100
AcDbText
 10
-162.01533503598
 20
11.16830391662092
 30
0.0
 40
1.769029714285714
  1

  7
ROMANS
 72
     1
 11
-154.2231803421025
 21
11.16830391662092
 31
0.0
100
AcDbAttributeDefinition
  3
ARCHITECT OR ENGINEER
  2
ARCHORENG
 70
     0
  0
ATTDEF
  5
1AB
330
73F
100
AcDbEntity
  8
0
100
AcDbText
 10
-30.31817658700044
 20
6.014881478758579
 30
0.0
 40
1.769029714285714
  1

  7
ROMANS
 72
     1
 11
-27.70675177067392
 21
6.014881478758579
 31
0.0
100
AcDbAttributeDefinition
  3
PRECISION REP
  2
REP
 70
     0
  0
ATTDEF
  5
1AC
330
73F
100
AcDbEntity
  8
0
100
AcDbText
 10
-95.42966009720457
 20
0.8614590408962374
 30
0.0
 40
1.769029714285714
  1

  7
ROMANS
 72
     1
 11
-90.96496605638822
 21
0.8614590408962374
 31
0.0
100
AcDbAttributeDefinition
  3
MODEL #
  2
MODEL
 70
     0
  0
ATTDEF
  5
1AD
330
73F
100
AcDbEntity
  8
0
100
AcDbText
 10
-63.15398328087806
 20
0.8614590408961362
 30
0.0
 40
1.769029714285714
  1
1
  7
ROMANS
 72
     1
 11
-60.71103748495969
 21
0.8614590408961362
 31
0.0
100
AcDbAttributeDefinition
  3
QUANTITY
  2
QTY
 70
     0
  0
ATTDEF
  5
1AE
330
73F
100
AcDbEntity
  8
0
100
AcDbText
 10
-127.1703531584289
 20
6.014881478758579
 30
0.0
 40
1.769029714285714
  1

  7
ROMANS
 72
     1
 11
-123.9692517706739
 21
6.014881478758579
 31
0.0
100
AcDbAttributeDefinition
  3
DRAWN DATE
  2
DATE
 70
     0
  0
ATTDEF
  5
1AF
330
73F
100
AcDbEntity
  8
0
100
AcDbText
 10
-127.1703531584289
 20
0.8614590408961362
 30
0.0
 40
1.769029714285714
  1

  7
ROMANS
 72
     1
 11
-123.9692517706739
 21
0.8614590408961362
 31
0.0
100
AcDbAttributeDefinition
  3
WHAT IS TODAY'S DATE?
  2
DATE
 70
     0
  0
ATTDEF
  5
1B0
330
73F
100
AcDbEntity
  8
0
100
AcDbText
 10
-160.4569040972046
 20
0.8614590408961362
 30
0.0
 40
1.769029714285714
  1
JEB
  7
ROMANS
 72
     1
 11
-154.2231803421025
 21
0.8614590408961362
 31
0.0
100
AcDbAttributeDefinition
  3
WHO ARE YOU?
  2
DRAWNBY
 70
     0
  0
ATTDEF
  5
1B1
330
73F
100
AcDbEntity
  8
0
100
AcDbText
 10
-32.12932605638821
 20
0.8614590408961362
 30
0.0
 40
1.769029714285714
  1

  7
ROMANS
 72
     1
 11
-27.70675177067392
 21
0.8614590408961362
 31
0.0
100
AcDbAttributeDefinition
  3
SERIAL #
  2
SERIAL
 70
     0
  0
ATTDEF
  5
1B2
330
73F
100
AcDbEntity
  8
0
 62
     5
100
AcDbText
 10
-273.7294019705065
 20
16.95296065185261
 30
0.0
 40
2.25
  1

  7
ROMANS
100
AcDbAttributeDefinition
  3
SCALE
  2
SCALE
 70
     0
  0
ATTDEF
  5
1B3
330
73F
100
AcDbEntity
  8
0
100
AcDbText
 10
-230.486662134292
 20
5.38233882337615
 30
0.0
 40
1.3271484375
  1

  7
ROMANS
 72
     4
 11
-226.2524266432206
 21
6.04591304212615
 31
0.0
100
AcDbAttributeDefinition
  3
SAVED AS
  2
SAVEDAS
 70
     0
  0
ATTDEF
  5
1B4
330
73F
100
AcDbEntity
  8
0
100
AcDbText
 10
-231.3082302146491
 20
3.233622305519006
 30
0.0
 40
1.3271484375
  1

  7
ROMANS
 72
     4
 11
-226.2524266432206
 21
3.897196524269006
 31
0.0
100
AcDbAttributeDefinition
  3
FILE NAME
  2
SAVED-AS
 70
     0
  0
ATTDEF
  5
1B5
330
73F
100
AcDbEntity
  8
0
100
AcDbText
 10
-201.8500886821915
 20
11.16830391662092
 30
0.0
 40
1.769029714285714
  1

  7
ROMANS
 72
     1
 11
-194.6476105597425
 21
11.16830391662092
 31
0.0
100
AcDbAttributeDefinition
  3
DWG CHECK
  2
DWGCHECK
 70
     0
  0
ATTDEF
  5
1B6
330
73F
100
AcDbEntity
  8
0
100
AcDbText
 10
-199.9546997025996
 20
6.67317671248219
 30
0.0
 40
1.769029714285714
  1

  7
ROMANS
 72
     1
 11
-194.6476105597425
 21
6.67317671248219
 31
0.0
100
AcDbAttributeDefinition
  3
BUILT BY
  2
BUILTBY
 70
     0
  0
ATTDEF
  5
1B7
330
73F
100
AcDbEntity
  8
0
100
AcDbText
 10
-202.4397652536201
 20
1.519754274619748
 30
0.0
 40
1.769029714285714
  1

  7
ROMANS
 72
     1
 11
-194.6476105597425
 21
1.519754274619748
 31
0.0
100
AcDbAttributeDefinition
  3
CHECKED BY
  2
CHECKEDBY
 70
     0
  0
ENDBLK
  5
1B9
330
73F
100
AcDbEntity
  8
0
 62
     7
100
AcDbBlockEnd
  0
BLOCK
  5
754
330
753
100
AcDbEntity
  8
0
100
AcDbBlockBegin
  2
*D2
 70
     1
 10
0.0
 20
0.0
 30
0.0
  3
*D2
  1

  0
LINE
  5
139A
330
753
100
AcDbEntity
  8
0
 62
     0
370
    -2
100
AcDbLine
 10
477.8746691694713
 20
21.83729643193254
 30
0.0
 11
473.9831827371397
 21
21.83729643193254
 31
0.0
  0
LINE
  5
139B
330
753
100
AcDbEntity
  8
0
 62
     0
370
    -2
100
AcDbLine
 10
478.6246691694712
 20
47.83729643193254
 30
0.0
 11
473.9831827371397
 21
47.83729643193254
 31
0.0
  0
LINE
  5
139C
330
753
100
AcDbEntity
  8
0
 62
     0
370
    -2
100
AcDbLine
 10
474.7331827371398
 20
22.58729643193254
 30
0.0
 11
474.7331827371398
 21
33.39086786050398
 31
0.0
  0
LINE
  5
139D
330
753
100
AcDbEntity
  8
0
 62
     0
370
    -2
100
AcDbLine
 10
474.7331827371398
 20
47.08729643193254
 30
0.0
 11
474.7331827371398
 21
36.28372500336111
 31
0.0
  0
SOLID
  5
139E
330
753
100
AcDbEntity
  8
0
 62
     0
100
AcDbTrace
 10
474.6081827371397
 20
22.58729643193254
 30
0.0
 11
474.8581827371397
 21
22.58729643193254
 31
0.0
 12
474.7331827371398
 22
21.83729643193254
 32
0.0
 13
474.7331827371398
 23
21.83729643193254
 33
0.0
  0
SOLID
  5
139F
330
753
100
AcDbEntity
  8
0
 62
     0
100
AcDbTrace
 10
474.6081827371397
 20
47.08729643193254
 30
0.0
 11
474.8581827371397
 21
47.08729643193254
 31
0.0
 12
474.7331827371398
 22
47.83729643193254
 32
0.0
 13
474.7331827371398
 23
47.83729643193254
 33
0.0
  0
MTEXT
  5
13A0
330
753
100
AcDbEntity
  8
0
 62
     0
100
AcDbMText
 10
474.7331827371398
 20
34.83729643193262
 30
0.0
 40
0.75
 41
0.0
 71
     5
 72
     1
  1
\A1;26"
  7
ROMANS
 73
     1
 44
1.0
1001
ACAD
1000
MTEXTBEGIN
1070
    73
1070
     1
1070
    44
1040
1.0
1070
    74
1070
     0
1000
MTEXTEND
  0
POINT
  5
13A1
330
753
100
AcDbEntity
  8
DEFPOINTS
 62
     0
100
AcDbPoint
 10
478.6246691694712
 20
21.83729643193254
 30
0.0
  0
POINT
  5
13A2
330
753
100
AcDbEntity
  8
DEFPOINTS
 62
     0
100
AcDbPoint
 10
479.3746691694712
 20
47.83729643193254
 30
0.0
  0
POINT
  5
13A3
330
753
100
AcDbEntity
  8
DEFPOINTS
 62
     0
100
AcDbPoint
 10
474.7331827371398
 20
47.83729643193254
 30
0.0
  0
ENDBLK
  5
75F
330
753
100
AcDbEntity
  8
0
100
AcDbBlockEnd
  0
BLOCK
  5
761
330
760
100
AcDbEntity
  8
0
100
AcDbBlockBegin
  2
*D3
 70
     1
 10
0.0
 20
0.0
 30
0.0
  3
*D3
  1

  0
LINE
  5
13A4
330
760
100
AcDbEntity
  8
0
 62
     0
370
    -2
100
AcDbLine
 10
492.6246691694712
 20
21.08729643193254
 30
0.0
 11
492.6246691694712
 21
17.86451054281684
 31
0.0
  0
LINE
  5
13A5
330
760
100
AcDbEntity
  8
0
 62
     0
370
    -2
100
AcDbLine
 10
483.6246691694712
 20
21.08729643193254
 30
0.0
 11
483.6246691694712
 21
17.86451054281684
 31
0.0
  0
LINE
  5
13A6
330
760
100
AcDbEntity
  8
0
 62
     0
370
    -2
100
AcDbLine
 10
491.8746691694712
 20
18.61451054281684
 30
0.0
 11
489.6425263123283
 21
18.61451054281684
 31
0.0
  0
LINE
  5
13A7
330
760
100
AcDbEntity
  8
0
 62
     0
370
    -2
100
AcDbLine
 10
484.3746691694712
 20
18.61451054281684
 30
0.0
 11
486.6068120266141
 21
18.61451054281684
 31
0.0
  0
SOLID
  5
13A8
330
760
100
AcDbEntity
  8
0
 62
     0
100
AcDbTrace
 10
491.8746691694712
 20
18.73951054281684
 30
0.0
 11
491.8746691694712
 21
18.48951054281684
 31
0.0
 12
492.6246691694712
 22
18.61451054281684
 32
0.0
 13
492.6246691694712
 23
18.61451054281684
 33
0.0
  0
SOLID
  5
13A9
330
760
100
AcDbEntity
  8
0
 62
     0
100
AcDbTrace
 10
484.3746691694712
 20
18.73951054281684
 30
0.0
 11
484.3746691694712
 21
18.48951054281684
 31
0.0
 12
483.6246691694712
 22
18.61451054281684
 32
0.0
 13
483.6246691694712
 23
18.61451054281684
 33
0.0
  0
MTEXT
  5
13AA
330
760
100
AcDbEntity
  8
0
 62
     0
100
AcDbMText
 10
488.1246691694712
 20
18.61451054281684
 30
0.0
 40
0.75
 41
0.0
 71
     5
 72
     1
  1
\A1;9"
  7
ROMANS
 73
     1
 44
1.0
1001
ACAD
1000
MTEXTBEGIN
1070
    73
1070
     1
1070
    44
1040
1.0
1070
    74
1070
     0
1000
MTEXTEND
  0
POINT
  5
13AB
330
760
100
AcDbEntity
  8
DEFPOINTS
 62
     0
100
AcDbPoint
 10
492.6246691694712
 20
21.83729643193254
 30
0.0
  0
POINT
  5
13AC
330
760
100
AcDbEntity
  8
DEFPOINTS
 62
     0
100
AcDbPoint
 10
483.6246691694712
 20
21.83729643193254
 30
0.0
  0
POINT
  5
13AD
330
760
100
AcDbEntity
  8
DEFPOINTS
 62
     0
100
AcDbPoint
 10
483.6246691694712
 20
18.61451054281684
 30
0.0
  0
ENDBLK
  5
76C
330
760
100
AcDbEntity
  8
0
100
AcDbBlockEnd
  0
BLOCK
  5
76E
330
76D
100
AcDbEntity
  8
0
100
AcDbBlockBegin
  2
*D4
 70
     1
 10
0.0
 20
0.0
 30
0.0
  3
*D4
  1

  0
LINE
  5
13AE
330
76D
100
AcDbEntity
  8
0
 62
     0
370
    -2
100
AcDbLine
 10
479.2496691694712
 20
58.83179719657025
 30
0.0
 11
473.9831827371397
 21
58.83179719657025
 31
0.0
  0
LINE
  5
13AF
330
76D
100
AcDbEntity
  8
0
 62
     0
370
    -2
100
AcDbLine
 10
477.8746691694713
 20
66.83179719657025
 30
0.0
 11
473.9831827371397
 21
66.83179719657025
 31
0.0
  0
LINE
  5
13B0
330
76D
100
AcDbEntity
  8
0
 62
     0
370
    -2
100
AcDbLine
 10
474.7331827371398
 20
59.58179719657024
 30
0.0
 11
474.7331827371398
 21
61.38536862514167
 31
0.0
  0
LINE
  5
13B1
330
76D
100
AcDbEntity
  8
0
 62
     0
370
    -2
100
AcDbLine
 10
474.7331827371398
 20
66.08179719657025
 30
0.0
 11
474.7331827371398
 21
64.27822576799882
 31
0.0
  0
SOLID
  5
13B2
330
76D
100
AcDbEntity
  8
0
 62
     0
100
AcDbTrace
 10
474.6081827371397
 20
59.58179719657024
 30
0.0
 11
474.8581827371397
 21
59.58179719657024
 31
0.0
 12
474.7331827371398
 22
58.83179719657025
 32
0.0
 13
474.7331827371398
 23
58.83179719657025
 33
0.0
  0
SOLID
  5
13B3
330
76D
100
AcDbEntity
  8
0
 62
     0
100
AcDbTrace
 10
474.6081827371397
 20
66.08179719657025
 30
0.0
 11
474.8581827371397
 21
66.08179719657025
 31
0.0
 12
474.7331827371398
 22
66.83179719657025
 32
0.0
 13
474.7331827371398
 23
66.83179719657025
 33
0.0
  0
MTEXT
  5
13B4
330
76D
100
AcDbEntity
  8
0
 62
     0
100
AcDbMText
 10
474.7331827371398
 20
62.83179719657032
 30
0.0
 40
0.75
 41
0.0
 71
     5
 72
     1
  1
\A1;8"
  7
ROMANS
 73
     1
 44
1.0
1001
ACAD
1000
MTEXTBEGIN
1070
    73
1070
     1
1070
    44
1040
1.0
1070
    74
1070
     0
1000
MTEXTEND
  0
POINT
  5
13B5
330
76D
100
AcDbEntity
  8
DEFPOINTS
 62
     0
100
AcDbPoint
 10
479.9996691694712
 20
58.83179719657025
 30
0.0
  0
POINT
  5
13B6
330
76D
100
AcDbEntity
  8
DEFPOINTS
 62
     0
100
AcDbPoint
 10
478.6246691694712
 20
66.83179719657025
 30
0.0
  0
POINT
  5
13B7
330
76D
100
AcDbEntity
  8
DEFPOINTS
 62
     0
100
AcDbPoint
 10
474.7331827371398
 20
66.83179719657025
 30
0.0
  0
ENDBLK
  5
779
330
76D
100
AcDbEntity
  8
0
100
AcDbBlockEnd
  0
BLOCK
  5
79C
330
78D
100
AcDbEntity
  8
0
100
AcDbBlockBegin
  2
Border-t
 70
     2
 10
0.0
 20
0.0
 30
0.0
  3
Border-t
  1

  0
ATTDEF
  5
78E
330
78D
100
AcDbEntity
  8
0
 62
     5
100
AcDbText
 10
1.270598029493498
 20
16.95296065185261
 30
0.0
 40
2.25
  1

  7
ROMANS
100
AcDbAttributeDefinition
  3
SCALE
  2
SCALE
 70
     0
  0
ATTDEF
  5
78F
330
78D
100
AcDbEntity
  8
0
100
AcDbText
 10
267.5431072019895
 20
17.84606723821125
 30
0.0
 40
1.7518359375
  1

  7
ROMANS
 72
     4
 11
267.5431072019895
 21
17.84606723821125
 31
0.0
100
AcDbAttributeDefinition
  3
SAVED AS
  2
SAVEDAS
 70
     0
  0
ATTDEF
  5
790
330
78D
100
AcDbEntity
  8
0
 62
     5
100
AcDbText
 10
65.77232295450201
 20
13.4910955979239
 30
0.0
 40
1.248161764705882
  1

 50
90.0
  7
ROMANS
 72
     4
 11
65.77232295450201
 21
13.4910955979239
 31
0.0
100
AcDbAttributeDefinition
  3
WORK ORDER (X)
  2
X
 70
     0
  0
ATTDEF
  5
791
330
78D
100
AcDbEntity
  8
0
100
AcDbText
 10
120.7768196578975
 20
11.16830391662092
 30
0.0
 40
1.769029714285714
  1

  7
ROMANS
 72
     1
 11
120.7768196578975
 21
11.16830391662092
 31
0.0
100
AcDbAttributeDefinition
  3
ARCHITECT OR ENGINEER
  2
ARCHORENG
 70
     0
  0
ATTDEF
  5
792
330
78D
100
AcDbEntity
  8
0
100
AcDbText
 10
120.7768196578975
 20
6.014881478758579
 30
0.0
 40
1.769029714285714
  1

  7
ROMANS
 72
     1
 11
120.7768196578975
 21
6.014881478758579
 31
0.0
100
AcDbAttributeDefinition
  3
PURCHASE ORDER
  2
PURCHASEORDER
 70
     0
  0
ATTDEF
  5
793
330
78D
100
AcDbEntity
  8
0
100
AcDbText
 10
118.4602331272852
 20
0.8614590408961362
 30
0.0
 40
1.769029714285714
  1
JEB
  7
ROMANS
 72
     1
 11
120.7768196578975
 21
0.8614590408961362
 31
0.0
100
AcDbAttributeDefinition
  3
WHO ARE YOU?
  2
DRAWNBY
 70
     0
  0
ATTDEF
  5
794
330
78D
100
AcDbEntity
  8
0
100
AcDbText
 10
151.0307482293261
 20
6.014881478758579
 30
0.0
 40
1.769029714285714
  1

  7
ROMANS
 72
     1
 11
151.0307482293261
 21
6.014881478758579
 31
0.0
100
AcDbAttributeDefinition
  3
REVISION DATE or NO.
  2
REV
 70
     0
  0
ATTDEF
  5
795
330
78D
100
AcDbEntity
  8
0
100
AcDbText
 10
151.0307482293261
 20
0.8614590408961362
 30
0.0
 40
1.769029714285714
  1

  7
ROMANS
 72
     1
 11
151.0307482293261
 21
0.8614590408961362
 31
0.0
100
AcDbAttributeDefinition
  3
TODAY'S DATE
  2
DATE
 70
     0
  0
ATTDEF
  5
796
330
78D
100
AcDbEntity
  8
0
100
AcDbText
 10
181.2846768007546
 20
11.16830391662092
 30
0.0
 40
1.769029714285714
  1

  7
ROMANS
 72
     1
 11
181.2846768007546
 21
11.16830391662092
 31
0.0
100
AcDbAttributeDefinition
  3
PROJECT
  2
PROJECT
 70
     0
  0
ATTDEF
  5
797
330
78D
100
AcDbEntity
  8
0
100
AcDbText
 10
189.535748229326
 20
6.014881478758579
 30
0.0
 40
1.769029714285714
  1

  7
ROMANS
 72
     1
 11
189.535748229326
 21
6.014881478758579
 31
0.0
100
AcDbAttributeDefinition
  3
PURCHASER
  2
PURCHASER
 70
     0
  0
ATTDEF
  5
798
330
78D
100
AcDbEntity
  8
0
100
AcDbText
 10
184.0350339436118
 20
0.8614590408962374
 30
0.0
 40
1.769029714285714
  1

  7
ROMANS
 72
     1
 11
184.0350339436118
 21
0.8614590408962374
 31
0.0
100
AcDbAttributeDefinition
  3
MODEL #
  2
MODEL
 70
     0
  0
ATTDEF
  5
799
330
78D
100
AcDbEntity
  8
0
100
AcDbText
 10
213.5729266783056
 20
0.8614590408961362
 30
0.0
 40
1.769029714285714
  1
1
  7
ROMANS
 72
     1
 11
214.2889625150403
 21
0.8614590408961362
 31
0.0
100
AcDbAttributeDefinition
  3
QUANTITY
  2
QTY
 70
     0
  0
ATTDEF
  5
79A
330
78D
100
AcDbEntity
  8
0
100
AcDbText
 10
247.2932482293261
 20
11.16763472788734
 30
0.0
 40
1.769029714285714
  1

  7
ROMANS
 72
     1
 11
247.2932482293261
 21
11.16763472788734
 31
0.0
100
AcDbAttributeDefinition
  3
PRECISION REP
  2
REP
 70
     0
  0
ATTDEF
  5
79B
330
78D
100
AcDbEntity
  8
0
100
AcDbText
 10
247.3274175489777
 20
3.153238685427304
 30
0.0
 40
3.455136160714285
  1

  7
ROMANS
 72
     1
 11
247.3274175489777
 21
3.153238685427304
 31
0.0
100
AcDbAttributeDefinition
  3
SERIAL #
  2
L010000
 70
     0
  0
ENDBLK
  5
79D
330
78D
100
AcDbEntity
  8
0
100
AcDbBlockEnd
  0
BLOCK
  5
8AC
330
8A1
100
AcDbEntity
  8
0
100
AcDbBlockBegin
  2
*D6
 70
     1
 10
0.0
 20
0.0
 30
0.0
  3
*D6
  1

  0
LINE
  5
1390
330
8A1
100
AcDbEntity
  8
0
 62
     0
370
    -2
100
AcDbLine
 10
483.6246691694712
 20
72.95679719657025
 30
0.0
 11
483.6246691694712
 21
74.54662172144441
 31
0.0
  0
LINE
  5
1391
330
8A1
100
AcDbEntity
  8
0
 62
     0
370
    -2
100
AcDbLine
 10
483.8746691694712
 20
72.95679719657025
 30
0.0
 11
483.8746691694712
 21
74.54662172144441
 31
0.0
  0
LINE
  5
1392
330
8A1
100
AcDbEntity
  8
0
 62
     0
370
    -2
100
AcDbLine
 10
482.8746691694712
 20
73.79662172144441
 30
0.0
 11
482.1246691694712
 21
73.79662172144441
 31
0.0
  0
LINE
  5
1393
330
8A1
100
AcDbEntity
  8
0
 62
     0
370
    -2
100
AcDbLine
 10
484.6246691694712
 20
73.79662172144441
 30
0.0
 11
485.3746691694712
 21
73.79662172144441
 31
0.0
  0
MTEXT
  5
1394
330
8A1
100
AcDbEntity
  8
0
 62
     0
100
AcDbMText
 10
483.7496691694712
 20
76.18947886430155
 30
0.0
 40
0.75
 41
0.0
 71
     5
 72
     1
  1
\A1;1/4"
  7
ROMANS
 73
     1
 44
1.0
1001
ACAD
1000
MTEXTBEGIN
1070
    73
1070
     1
1070
    44
1040
1.0
1070
    74
1070
     0
1000
MTEXTEND
  0
SOLID
  5
1395
330
8A1
100
AcDbEntity
  8
0
 62
     0
100
AcDbTrace
 10
482.8746691694712
 20
73.92162172144441
 30
0.0
 11
482.8746691694712
 21
73.67162172144441
 31
0.0
 12
483.6246691694712
 22
73.79662172144441
 32
0.0
 13
483.6246691694712
 23
73.79662172144441
 33
0.0
  0
SOLID
  5
1396
330
8A1
100
AcDbEntity
  8
0
 62
     0
100
AcDbTrace
 10
484.6246691694712
 20
73.92162172144441
 30
0.0
 11
484.6246691694712
 21
73.67162172144441
 31
0.0
 12
483.8746691694712
 22
73.79662172144441
 32
0.0
 13
483.8746691694712
 23
73.79662172144441
 33
0.0
  0
POINT
  5
1397
330
8A1
100
AcDbEntity
  8
DEFPOINTS
 62
     0
100
AcDbPoint
 10
483.6246691694712
 20
72.20679719657025
 30
0.0
  0
POINT
  5
1398
330
8A1
100
AcDbEntity
  8
DEFPOINTS
 62
     0
100
AcDbPoint
 10
483.8746691694712
 20
72.20679719657025
 30
0.0
  0
POINT
  5
1399
330
8A1
100
AcDbEntity
  8
DEFPOINTS
 62
     0
100
AcDbPoint
 10
483.8746691694712
 20
73.79662172144441
 30
0.0
  0
ENDBLK
  5
8AD
330
8A1
100
AcDbEntity
  8
0
100
AcDbBlockEnd
  0
BLOCK
  5
8D7
330
8D6
100
AcDbEntity
  8
0
100
AcDbBlockBegin
  2
*X7
 70
     1
 10
0.0
 20
0.0
 30
0.0
  3
*X7
  1

  0
LINE
  5
8D8
330
8D6
100
AcDbEntity
  8
0
 62
     0
100
AcDbLine
 10
-39.38783740946116
 20
-279.4947837961181
 30
0.0
 11
-38.65407559127778
 21
-278.7610219779348
 31
0.0
  0
LINE
  5
8D9
330
8D6
100
AcDbEntity
  8
0
 62
     0
100
AcDbLine
 10
-39.50054631068232
 20
-279.4749101758668
 30
0.0
 11
-38.76678449249896
 21
-278.7411483576835
 31
0.0
  0
LINE
  5
8DA
330
8D6
100
AcDbEntity
  8
0
 62
     0
100
AcDbLine
 10
-39.61325521190351
 20
-279.4550365556156
 30
0.0
 11
-38.87949339372014
 21
-278.7212747374322
 31
0.0
  0
LINE
  5
8DB
330
8D6
100
AcDbEntity
  8
0
 62
     0
100
AcDbLine
 10
-39.7259641131247
 20
-279.4351629353642
 30
0.0
 11
-38.99220229494132
 21
-278.7014011171809
 31
0.0
  0
LINE
  5
8DC
330
8D6
100
AcDbEntity
  8
0
 62
     0
100
AcDbLine
 10
-39.83867301434587
 20
-279.415289315113
 30
0.0
 11
-39.1049111961625
 21
-278.6815274969296
 31
0.0
  0
LINE
  5
8DD
330
8D6
100
AcDbEntity
  8
0
 62
     0
100
AcDbLine
 10
-39.95138191556705
 20
-279.3954156948617
 30
0.0
 11
-39.21762009738368
 21
-278.6616538766783
 31
0.0
  0
LINE
  5
8DE
330
8D6
100
AcDbEntity
  8
0
 62
     0
100
AcDbLine
 10
-40.06409081678821
 20
-279.3755420746104
 30
0.0
 11
-39.33032899860484
 21
-278.641780256427
 31
0.0
  0
LINE
  5
8DF
330
8D6
100
AcDbEntity
  8
0
 62
     0
100
AcDbLine
 10
-40.1767997180094
 20
-279.3556684543591
 30
0.0
 11
-40.06372011526283
 21
-279.2425888516125
 31
0.0
  0
LINE
  5
8E0
330
8D6
100
AcDbEntity
  8
0
 62
     0
100
AcDbLine
 10
-39.89688315430998
 20
-279.0757518906596
 30
0.0
 11
-39.44303789982602
 21
-278.6219066361756
 31
0.0
  0
LINE
  5
8E1
330
8D6
100
AcDbEntity
  8
0
 62
     0
100
AcDbLine
 10
-40.06372011526283
 20
-279.2425888516125
 30
0.0
 11
-39.89688315430998
 21
-279.0757518906597
 31
0.0
  0
LINE
  5
8E2
330
8D6
100
AcDbEntity
  8
0
 62
     0
100
AcDbLine
 10
-40.28950861923056
 20
-279.3357948341077
 30
0.0
 11
-40.10500766087813
 21
-279.1512938757553
 31
0.0
  0
LINE
  5
8E3
330
8D6
100
AcDbEntity
  8
0
 62
     0
100
AcDbLine
 10
-39.94078059974761
 20
-278.9870668146248
 30
0.0
 11
-39.5557468010472
 21
-278.6020330159244
 31
0.0
  0
LINE
  5
8E4
330
8D6
100
AcDbEntity
  8
0
 62
     0
100
AcDbLine
 10
-40.10500766087811
 20
-279.1512938757553
 30
0.0
 11
-39.9407805997476
 21
-278.9870668146248
 31
0.0
  0
LINE
  5
8E5
330
8D6
100
AcDbEntity
  8
0
 62
     0
100
AcDbLine
 10
-40.36990717715883
 20
-279.2836108705636
 30
0.0
 11
-40.1462952064934
 21
-279.0599988998982
 31
0.0
  0
LINE
  5
8E6
330
8D6
100
AcDbEntity
  8
0
 62
     0
100
AcDbLine
 10
-39.98467804518519
 20
-278.8983817385899
 30
0.0
 11
-39.66845570226838
 21
-278.5821593956731
 31
0.0
  0
LINE
  5
8E7
330
8D6
100
AcDbEntity
  8
0
 62
     0
100
AcDbLine
 10
-40.14629520649338
 20
-279.0599988998981
 30
0.0
 11
-39.98467804518524
 21
-278.89838173859
 31
0.0
  0
LINE
  5
8E8
330
8D6
100
AcDbEntity
  8
0
 62
     0
100
AcDbLine
 10
-40.32903303677044
 20
-279.1101542087027
 30
0.0
 11
-40.18758275210868
 21
-278.968703924041
 31
0.0
  0
LINE
  5
8E9
330
8D6
100
AcDbEntity
  8
0
 62
     0
100
AcDbLine
 10
-40.02857549062279
 20
-278.8096966625551
 30
0.0
 11
-39.78116460348956
 21
-278.5622857754218
 31
0.0
  0
LINE
  5
8EA
330
8D6
100
AcDbEntity
  8
0
 62
     0
100
AcDbLine
 10
-40.18758275210866
 20
-278.9687039240409
 30
0.0
 11
-40.02857549062286
 21
-278.8096966625551
 31
0.0
  0
LINE
  5
8EB
330
8D6
100
AcDbEntity
  8
0
 62
     0
100
AcDbLine
 10
-40.28815889638206
 20
-278.9366975468419
 30
0.0
 11
-40.22887029772395
 21
-278.8774089481838
 31
0.0
  0
LINE
  5
8EC
330
8D6
100
AcDbEntity
  8
0
 62
     0
100
AcDbLine
 10
-40.07247293606041
 20
-278.7210115865202
 30
0.0
 11
-39.89387350471074
 21
-278.5424121551705
 31
0.0
  0
LINE
  5
8ED
330
8D6
100
AcDbEntity
  8
0
 62
     0
100
AcDbLine
 10
-40.22887029772394
 20
-278.8774089481837
 30
0.0
 11
-40.07247293606049
 21
-278.7210115865203
 31
0.0
  0
LINE
  5
8EE
330
8D6
100
AcDbEntity
  8
0
 62
     0
100
AcDbLine
 10
-40.27015784333923
 20
-278.7861139723266
 30
0.0
 11
-40.11637038149812
 21
-278.6323265104854
 31
0.0
  0
LINE
  5
8EF
330
8D6
100
AcDbEntity
  8
0
 62
     0
100
AcDbLine
 10
-40.116370381498
 20
-278.6323265104853
 30
0.0
 11
-40.00658240593192
 21
-278.5225385349192
 31
0.0
  0
LINE
  5
8F0
330
8D6
100
AcDbEntity
  8
0
 62
     0
100
AcDbLine
 10
-40.31144538895452
 20
-278.6948189964694
 30
0.0
 11
-40.30692854477254
 21
-278.6903021522874
 31
0.0
  0
LINE
  5
8F1
330
8D6
100
AcDbEntity
  8
0
 62
     0
100
AcDbLine
 10
-39.69215944246978
 20
-278.0755330499846
 30
0.0
 11
-39.59237083622737
 21
-277.9757444437422
 31
0.0
  0
LINE
  5
8F2
330
8D6
100
AcDbEntity
  8
0
 62
     0
100
AcDbLine
 10
-40.30692854477248
 20
-278.6903021522873
 30
0.0
 11
-40.20641061560525
 21
-278.5897842231201
 31
0.0
  0
LINE
  5
8F3
330
8D6
100
AcDbEntity
  8
0
 62
     0
100
AcDbLine
 10
-40.16017812122486
 20
-278.5435517287397
 30
0.0
 11
-40.11929130715309
 21
-278.5026649146679
 31
0.0
  0
LINE
  5
8F4
330
8D6
100
AcDbEntity
  8
0
 62
     0
100
AcDbLine
 10
-40.20466276288202
 20
-278.5880363703969
 30
0.0
 11
-40.16017812122502
 21
-278.5435517287398
 31
0.0
  0
LINE
  5
8F5
330
8D6
100
AcDbEntity
  8
0
 62
     0
100
AcDbLine
 10
-40.41225758634928
 20
-278.6630486723916
 30
0.0
 11
-40.23018407840633
 21
-278.4809751644487
 31
0.0
  0
LINE
  5
8F6
330
8D6
100
AcDbEntity
  8
0
 62
     0
100
AcDbLine
 10
-39.73691136690469
 20
-277.987702452947
 30
0.0
 11
-39.6371227606623
 21
-277.8879138467047
 31
0.0
  0
LINE
  5
8F7
330
8D6
100
AcDbEntity
  8
0
 62
     0
100
AcDbLine
 10
-40.23018407840633
 20
-278.4809751644486
 30
0.0
 11
-40.20259152936932
 21
-278.4533826154117
 31
0.0
  0
LINE
  5
8F8
330
8D6
100
AcDbEntity
  8
0
 62
     0
100
AcDbLine
 10
-40.57051962558798
 20
-278.6887281901577
 30
0.0
 11
-40.51758662792604
 21
-278.6357951924959
 31
0.0
  0
LINE
  5
8F9
330
8D6
100
AcDbEntity
  8
0
 62
     0
100
AcDbLine
 10
-39.78166329133961
 20
-277.8998718559094
 30
0.0
 11
-39.68187468509722
 21
-277.8000832496671
 31
0.0
  0
LINE
  5
8FA
330
8D6
100
AcDbEntity
  8
0
 62
     0
100
AcDbLine
 10
-40.51758662792603
 20
-278.6357951924959
 30
0.0
 11
-40.33869630383812
 21
-278.456904868408
 31
0.0
  0
LINE
  5
8FB
330
8D6
100
AcDbEntity
  8
0
 62
     0
100
AcDbLine
 10
-40.33869630383812
 20
-278.456904868408
 30
0.0
 11
-40.24734345380425
 21
-278.3655520183742
 31
0.0
  0
LINE
  5
8FC
330
8D6
100
AcDbEntity
  8
0
 62
     0
100
AcDbLine
 10
-40.84083440815077
 20
-278.8264604512481
 30
0.0
 11
-40.62291566950281
 21
-278.6085417126002
 31
0.0
  0
LINE
  5
8FD
330
8D6
100
AcDbEntity
  8
0
 62
     0
100
AcDbLine
 10
-39.82641521577454
 20
-277.812041258872
 30
0.0
 11
-39.72662660953214
 21
-277.7122526526295
 31
0.0
  0
LINE
  5
8FE
330
8D6
100
AcDbEntity
  8
0
 62
     0
100
AcDbLine
 10
-40.62291566950278
 20
-278.6085417126002
 30
0.0
 11
-40.44720852926992
 21
-278.4328345723673
 31
0.0
  0
LINE
  5
8FF
330
8D6
100
AcDbEntity
  8
0
 62
     0
100
AcDbLine
 10
-40.44720852926991
 20
-278.4328345723673
 30
0.0
 11
-40.29209537823916
 21
-278.2777214213366
 31
0.0
  0
LINE
  5
900
330
8D6
100
AcDbEntity
  8
0
 62
     0
100
AcDbLine
 10
-41.07098574326527
 20
-278.9240292648902
 30
0.0
 11
-40.96884180887604
 21
-278.821885330501
 31
0.0
  0
LINE
  5
901
330
8D6
100
AcDbEntity
  8
0
 62
     0
100
AcDbLine
 10
-39.87116714020946
 20
-277.7242106618344
 30
0.0
 11
-39.77137853396706
 21
-277.624422055592
 31
0.0
  0
LINE
  5
902
330
8D6
100
AcDbEntity
  8
0
 62
     0
100
AcDbLine
 10
-40.96884180887601
 20
-278.8218853305009
 30
0.0
 11
-40.72824471107957
 21
-278.5812882327045
 31
0.0
  0
LINE
  5
903
330
8D6
100
AcDbEntity
  8
0
 62
     0
100
AcDbLine
 10
-40.55572075470169
 20
-278.4087642763266
 30
0.0
 11
-40.33684730267409
 21
-278.189890824299
 31
0.0
  0
LINE
  5
904
330
8D6
100
AcDbEntity
  8
0
 62
     0
100
AcDbLine
 10
-40.72824471107958
 20
-278.5812882327045
 30
0.0
 11
-40.55572075470172
 21
-278.4087642763266
 31
0.0
  0
LINE
  5
905
330
8D6
100
AcDbEntity
  8
0
 62
     0
100
AcDbLine
 10
-41.11573766770019
 20
-278.8361986678526
 30
0.0
 11
-41.01359373331094
 21
-278.7340547334634
 31
0.0
  0
LINE
  5
906
330
8D6
100
AcDbEntity
  8
0
 62
     0
100
AcDbLine
 10
-39.91591906464438
 20
-277.6363800647968
 30
0.0
 11
-39.81613045840198
 21
-277.5365914585544
 31
0.0
  0
LINE
  5
907
330
8D6
100
AcDbEntity
  8
0
 62
     0
100
AcDbLine
 10
-41.01359373331097
 20
-278.7340547334634
 30
0.0
 11
-40.83357375265634
 21
-278.5540347528088
 31
0.0
  0
LINE
  5
908
330
8D6
100
AcDbEntity
  8
0
 62
     0
100
AcDbLine
 10
-40.66423298013347
 20
-278.3846939802859
 30
0.0
 11
-40.38159922710902
 21
-278.1020602272615
 31
0.0
  0
LINE
  5
909
330
8D6
100
AcDbEntity
  8
0
 62
     0
100
AcDbLine
 10
-40.83357375265634
 20
-278.5540347528088
 30
0.0
 11
-40.66423298013349
 21
-278.384693980286
 31
0.0
  0
LINE
  5
90A
330
8D6
100
AcDbEntity
  8
0
 62
     0
100
AcDbLine
 10
-41.16048959213512
 20
-278.7483680708151
 30
0.0
 11
-41.05834565774588
 21
-278.6462241364259
 31
0.0
  0
LINE
  5
90B
330
8D6
100
AcDbEntity
  8
0
 62
     0
100
AcDbLine
 10
-39.96067098907931
 20
-277.5485494677593
 30
0.0
 11
-39.86088238283691
 21
-277.4487608615169
 31
0.0
  0
LINE
  5
90C
330
8D6
100
AcDbEntity
  8
0
 62
     0
100
AcDbLine
 10
-41.05834565774586
 20
-278.6462241364258
 30
0.0
 11
-40.93646758632097
 21
-278.524346065001
 31
0.0
  0
LINE
  5
90D
330
8D6
100
AcDbEntity
  8
0
 62
     0
100
AcDbLine
 10
-40.77274520556526
 20
-278.3606236842452
 30
0.0
 11
-40.42635115154395
 21
-278.0142296302239
 31
0.0
  0
LINE
  5
90E
330
8D6
100
AcDbEntity
  8
0
 62
     0
100
AcDbLine
 10
-40.93646758632099
 20
-278.524346065001
 30
0.0
 11
-40.77274520556528
 21
-278.3606236842453
 31
0.0
  0
LINE
  5
90F
330
8D6
100
AcDbEntity
  8
0
 62
     0
100
AcDbLine
 10
-41.20524151657004
 20
-278.6605374737775
 30
0.0
 11
-41.10309758218079
 21
-278.5583935393883
 31
0.0
  0
LINE
  5
910
330
8D6
100
AcDbEntity
  8
0
 62
     0
100
AcDbLine
 10
-40.00542291351423
 20
-277.4607188707217
 30
0.0
 11
-39.90563430727183
 21
-277.3609302644794
 31
0.0
  0
LINE
  5
911
330
8D6
100
AcDbEntity
  8
0
 62
     0
100
AcDbLine
 10
-41.10309758218081
 20
-278.5583935393883
 30
0.0
 11
-40.90160135388338
 21
-278.3568973110909
 31
0.0
  0
LINE
  5
912
330
8D6
100
AcDbEntity
  8
0
 62
     0
100
AcDbLine
 10
-40.87969543086212
 20
-278.3349913880696
 30
0.0
 11
-40.47110307597886
 21
-277.9263990331864
 31
0.0
  0
LINE
  5
913
330
8D6
100
AcDbEntity
  8
0
 62
     0
100
AcDbLine
 10
-40.9016013538834
 20
-278.3568973110909
 30
0.0
 11
-40.87969543086214
 21
-278.3349913880696
 31
0.0
  0
LINE
  5
914
330
8D6
100
AcDbEntity
  8
0
 62
     0
100
AcDbLine
 10
-41.24999344100497
 20
-278.57270687674
 30
0.0
 11
-41.14784950661573
 21
-278.4705629423507
 31
0.0
  0
LINE
  5
915
330
8D6
100
AcDbEntity
  8
0
 62
     0
100
AcDbLine
 10
-40.05017483794916
 20
-277.3728882736842
 30
0.0
 11
-39.95038623170675
 21
-277.2730996674417
 31
0.0
  0
LINE
  5
916
330
8D6
100
AcDbEntity
  8
0
 62
     0
100
AcDbLine
 10
-41.14784950661571
 20
-278.4705629423507
 30
0.0
 11
-40.51585500041379
 21
-277.8385684361488
 31
0.0
  0
LINE
  5
917
330
8D6
100
AcDbEntity
  8
0
 62
     0
100
AcDbLine
 10
-40.13520989857035
 20
-277.4579233343053
 30
0.0
 11
-40.05017483794913
 21
-277.3728882736842
 31
0.0
  0
LINE
  5
918
330
8D6
100
AcDbEntity
  8
0
 62
     0
100
AcDbLine
 10
-41.29474536543989
 20
-278.4848762797024
 30
0.0
 11
-41.19260143105066
 21
-278.3827323453132
 31
0.0
  0
LINE
  5
919
330
8D6
100
AcDbEntity
  8
0
 62
     0
100
AcDbLine
 10
-40.09492676238408
 20
-277.2850576766466
 30
0.0
 11
-39.99513815614167
 21
-277.1852690704042
 31
0.0
  0
LINE
  5
91A
330
8D6
100
AcDbEntity
  8
0
 62
     0
100
AcDbLine
 10
-41.19260143105065
 20
-278.3827323453131
 30
0.0
 11
-40.56060692484869
 21
-277.7507378391113
 31
0.0
  0
LINE
  5
91B
330
8D6
100
AcDbEntity
  8
0
 62
     0
100
AcDbLine
 10
-40.39402495983168
 20
-277.5841558740942
 30
0.0
 11
-40.09492676238404
 21
-277.2850576766466
 31
0.0
  0
LINE
  5
91C
330
8D6
100
AcDbEntity
  8
0
 62
     0
100
AcDbLine
 10
-41.3394972898748
 20
-278.3970456826649
 30
0.0
 11
-41.23735335548558
 21
-278.2949017482756
 31
0.0
  0
LINE
  5
91D
330
8D6
100
AcDbEntity
  8
0
 62
     0
100
AcDbLine
 10
-40.13967868681899
 20
-277.197227079609
 30
0.0
 11
-40.0398900805766
 21
-277.0974384733666
 31
0.0
  0
LINE
  5
91E
330
8D6
100
AcDbEntity
  8
0
 62
     0
100
AcDbLine
 10
-41.23735335548557
 20
-278.2949017482756
 30
0.0
 11
-40.65284002109301
 21
-277.7103884138831
 31
0.0
  0
LINE
  5
91F
330
8D6
100
AcDbEntity
  8
0
 62
     0
100
AcDbLine
 10
-40.65284002109302
 20
-277.710388413883
 30
0.0
 11
-40.33209807941335
 21
-277.3896464722034
 31
0.0
  0
LINE
  5
920
330
8D6
100
AcDbEntity
  8
0
 62
     0
100
AcDbLine
 10
-41.38424921430973
 20
-278.3092150856273
 30
0.0
 11
-41.28210527992051
 21
-278.2070711512381
 31
0.0
  0
LINE
  5
921
330
8D6
100
AcDbEntity
  8
0
 62
     0
100
AcDbLine
 10
-40.18443061125393
 20
-277.1093964825715
 30
0.0
 11
-40.08464200501151
 21
-277.0096078763291
 31
0.0
  0
LINE
  5
922
330
8D6
100
AcDbEntity
  8
0
 62
     0
100
AcDbLine
 10
-41.2821052799205
 20
-278.2070711512381
 30
0.0
 11
-40.91165508235433
 21
-277.8366209536719
 31
0.0
  0
LINE
  5
923
330
8D6
100
AcDbEntity
  8
0
 62
     0
100
AcDbLine
 10
-40.91165508235427
 20
-277.8366209536719
 30
0.0
 11
-40.60241286197611
 21
-277.5273787332937
 31
0.0
  0
LINE
  5
924
330
8D6
100
AcDbEntity
  8
0
 62
     0
100
AcDbLine
 10
-41.42900113874467
 20
-278.2213844885897
 30
0.0
 11
-41.32685720435543
 21
-278.1192405542005
 31
0.0
  0
LINE
  5
925
330
8D6
100
AcDbEntity
  8
0
 62
     0
100
AcDbLine
 10
-40.22918253568884
 20
-277.0215658855339
 30
0.0
 11
-40.12939392944644
 21
-276.9217772792915
 31
0.0
  0
LINE
  5
926
330
8D6
100
AcDbEntity
  8
0
 62
     0
100
AcDbLine
 10
-41.32685720435541
 20
-278.1192405542005
 30
0.0
 11
-40.99595323982196
 21
-277.788336589667
 31
0.0
  0
LINE
  5
927
330
8D6
100
AcDbEntity
  8
0
 62
     0
100
AcDbLine
 10
-40.87272764453877
 20
-277.6651109943838
 30
0.0
 11
-40.69486269815346
 21
-277.4872460479985
 31
0.0
  0
LINE
  5
928
330
8D6
100
AcDbEntity
  8
0
 62
     0
100
AcDbLine
 10
-40.99595323982194
 20
-277.788336589667
 30
0.0
 11
-40.87272764453897
 21
-277.665110994384
 31
0.0
  0
LINE
  5
929
330
8D6
100
AcDbEntity
  8
0
 62
     0
100
AcDbLine
 10
-41.47375306317957
 20
-278.1335538915521
 30
0.0
 11
-41.37160912879036
 21
-278.031409957163
 31
0.0
  0
LINE
  5
92A
330
8D6
100
AcDbEntity
  8
0
 62
     0
100
AcDbLine
 10
-40.27393446012377
 20
-276.9337352884964
 30
0.0
 11
-40.17414585388136
 21
-276.833946682254
 31
0.0
  0
LINE
  5
92B
330
8D6
100
AcDbEntity
  8
0
 62
     0
100
AcDbLine
 10
-41.37160912879035
 20
-278.0314099571629
 30
0.0
 11
-40.73961462258838
 21
-277.399415450961
 31
0.0
  0
LINE
  5
92C
330
8D6
100
AcDbEntity
  8
0
 62
     0
100
AcDbLine
 10
-41.51850498761451
 20
-278.0457232945146
 30
0.0
 11
-41.41636105322528
 21
-277.9435793601255
 31
0.0
  0
LINE
  5
92D
330
8D6
100
AcDbEntity
  8
0
 62
     0
100
AcDbLine
 10
-40.3186863845587
 20
-276.8459046914588
 30
0.0
 11
-40.21889777831629
 21
-276.7461160852164
 31
0.0
  0
LINE
  5
92E
330
8D6
100
AcDbEntity
  8
0
 62
     0
100
AcDbLine
 10
-41.41636105322527
 20
-277.9435793601254
 30
0.0
 11
-40.78436654702331
 21
-277.3115848539234
 31
0.0
  0
LINE
  5
92F
330
8D6
100
AcDbEntity
  8
0
 62
     0
100
AcDbLine
 10
-41.56325691204942
 20
-277.9578926974771
 30
0.0
 11
-41.46111297766021
 21
-277.8557487630879
 31
0.0
  0
LINE
  5
930
330
8D6
100
AcDbEntity
  8
0
 62
     0
100
AcDbLine
 10
-40.36343830899361
 20
-276.7580740944213
 30
0.0
 11
-40.2636497027512
 21
-276.6582854881789
 31
0.0
  0
LINE
  5
931
330
8D6
100
AcDbEntity
  8
0
 62
     0
100
AcDbLine
 10
-41.4611129776602
 20
-277.8557487630878
 30
0.0
 11
-40.82911847145823
 21
-277.2237542568859
 31
0.0
  0
LINE
  5
932
330
8D6
100
AcDbEntity
  8
0
 62
     0
100
AcDbLine
 10
-41.60800883648435
 20
-277.8700621004395
 30
0.0
 11
-41.50586490209513
 21
-277.7679181660503
 31
0.0
  0
LINE
  5
933
330
8D6
100
AcDbEntity
  8
0
 62
     0
100
AcDbLine
 10
-40.40819023342854
 20
-276.6702434973837
 30
0.0
 11
-40.30840162718615
 21
-276.5704548911414
 31
0.0
  0
LINE
  5
934
330
8D6
100
AcDbEntity
  8
0
 62
     0
100
AcDbLine
 10
-41.50586490209512
 20
-277.7679181660503
 30
0.0
 11
-40.87387039589315
 21
-277.1359236598483
 31
0.0
  0
LINE
  5
935
330
8D6
100
AcDbEntity
  8
0
 62
     0
100
AcDbLine
 10
-41.65276076091928
 20
-277.782231503402
 30
0.0
 11
-41.55061682653006
 21
-277.6800875690128
 31
0.0
  0
LINE
  5
936
330
8D6
100
AcDbEntity
  8
0
 62
     0
100
AcDbLine
 10
-40.45294215786347
 20
-276.5824129003462
 30
0.0
 11
-40.35315355162107
 21
-276.4826242941037
 31
0.0
  0
LINE
  5
937
330
8D6
100
AcDbEntity
  8
0
 62
     0
100
AcDbLine
 10
-41.55061682653004
 20
-277.6800875690128
 30
0.0
 11
-40.91862232032808
 21
-277.0480930628108
 31
0.0
  0
LINE
  5
938
330
8D6
100
AcDbEntity
  8
0
 62
     0
100
AcDbLine
 10
-41.6975126853542
 20
-277.6944009063644
 30
0.0
 11
-41.59536875096497
 21
-277.5922569719752
 31
0.0
  0
LINE
  5
939
330
8D6
100
AcDbEntity
  8
0
 62
     0
100
AcDbLine
 10
-40.49769408229838
 20
-276.4945823033086
 30
0.0
 11
-40.39790547605599
 21
-276.3947936970662
 31
0.0
  0
LINE
  5
93A
330
8D6
100
AcDbEntity
  8
0
 62
     0
100
AcDbLine
 10
-41.59536875096496
 20
-277.5922569719751
 30
0.0
 11
-40.963374244763
 21
-276.9602624657732
 31
0.0
  0
LINE
  5
93B
330
8D6
100
AcDbEntity
  8
0
 62
     0
100
AcDbLine
 10
-41.74226460978912
 20
-277.6065703093268
 30
0.0
 11
-41.6401206753999
 21
-277.5044263749377
 31
0.0
  0
LINE
  5
93C
330
8D6
100
AcDbEntity
  8
0
 62
     0
100
AcDbLine
 10
-40.54244600673332
 20
-276.4067517062711
 30
0.0
 11
-40.44265740049091
 21
-276.3069631000287
 31
0.0
  0
LINE
  5
93D
330
8D6
100
AcDbEntity
  8
0
 62
     0
100
AcDbLine
 10
-41.64012067539989
 20
-277.5044263749376
 30
0.0
 11
-41.00812616919793
 21
-276.8724318687357
 31
0.0
  0
LINE
  5
93E
330
8D6
100
AcDbEntity
  8
0
 62
     0
100
AcDbLine
 10
-41.78701653422404
 20
-277.5187397122893
 30
0.0
 11
-41.68487259983481
 21
-277.4165957779001
 31
0.0
  0
LINE
  5
93F
330
8D6
100
AcDbEntity
  8
0
 62
     0
100
AcDbLine
 10
-40.58719793116824
 20
-276.3189211092335
 30
0.0
 11
-40.48740932492584
 21
-276.2191325029911
 31
0.0
  0
LINE
  5
940
330
8D6
100
AcDbEntity
  8
0
 62
     0
100
AcDbLine
 10
-41.68487259983482
 20
-277.4165957779001
 30
0.0
 11
-41.05287809363285
 21
-276.7846012716981
 31
0.0
  0
LINE
  5
941
330
8D6
100
AcDbEntity
  8
0
 62
     0
100
AcDbLine
 10
-41.83176845865896
 20
-277.4309091152518
 30
0.0
 11
-41.72962452426975
 21
-277.3287651808626
 31
0.0
  0
LINE
  5
942
330
8D6
100
AcDbEntity
  8
0
 62
     0
100
AcDbLine
 10
-40.63194985560315
 20
-276.2310905121959
 30
0.0
 11
-40.53216124936076
 21
-276.1313019059535
 31
0.0
  0
LINE
  5
943
330
8D6
100
AcDbEntity
  8
0
 62
     0
100
AcDbLine
 10
-41.72962452426975
 20
-277.3287651808625
 30
0.0
 11
-41.09763001806778
 21
-276.6967706746606
 31
0.0
  0
LINE
  5
944
330
8D6
100
AcDbEntity
  8
0
 62
     0
100
AcDbLine
 10
-41.8765203830939
 20
-277.3430785182142
 30
0.0
 11
-41.77437644870467
 21
-277.240934583825
 31
0.0
  0
LINE
  5
945
330
8D6
100
AcDbEntity
  8
0
 62
     0
100
AcDbLine
 10
-40.67670178003808
 20
-276.1432599151584
 30
0.0
 11
-40.57691317379568
 21
-276.043471308916
 31
0.0
  0
LINE
  5
946
330
8D6
100
AcDbEntity
  8
0
 62
     0
100
AcDbLine
 10
-41.77437644870467
 20
-277.240934583825
 30
0.0
 11
-41.1423819425027
 21
-276.608940077623
 31
0.0
  0
LINE
  5
947
330
8D6
100
AcDbEntity
  8
0
 62
     0
100
AcDbLine
 10
-41.92127230752881
 20
-277.2552479211766
 30
0.0
 11
-41.8191283731396
 21
-277.1531039867875
 31
0.0
  0
LINE
  5
948
330
8D6
100
AcDbEntity
  8
0
 62
     0
100
AcDbLine
 10
-40.72145370447301
 20
-276.0554293181209
 30
0.0
 11
-40.6216650982306
 21
-275.9556407118785
 31
0.0
  0
LINE
  5
949
330
8D6
100
AcDbEntity
  8
0
 62
     0
100
AcDbLine
 10
-41.81912837313959
 20
-277.1531039867874
 30
0.0
 11
-41.18713386693762
 21
-276.5211094805855
 31
0.0
  0
LINE
  5
94A
330
8D6
100
AcDbEntity
  8
0
 62
     0
100
AcDbLine
 10
-41.96602423196374
 20
-277.1674173241391
 30
0.0
 11
-41.86388029757452
 21
-277.0652733897499
 31
0.0
  0
LINE
  5
94B
330
8D6
100
AcDbEntity
  8
0
 62
     0
100
AcDbLine
 10
-35.8061910555824
 20
-271.0075841477578
 30
0.0
 11
-35.70443277119299
 21
-270.9058258633683
 31
0.0
  0
LINE
  5
94C
330
8D6
100
AcDbEntity
  8
0
 62
     0
100
AcDbLine
 10
-41.86388029757451
 20
-277.0652733897498
 30
0.0
 11
-41.23188579137255
 21
-276.4332788835479
 31
0.0
  0
LINE
  5
94D
330
8D6
100
AcDbEntity
  8
0
 62
     0
100
AcDbLine
 10
-40.76620562890794
 20
-275.9675987210833
 30
0.0
 11
-40.66641702266553
 21
-275.8678101148409
 31
0.0
  0
LINE
  5
94E
330
8D6
100
AcDbEntity
  8
0
 62
     0
100
AcDbLine
 10
-42.01077615639866
 20
-277.0795867271015
 30
0.0
 11
-41.90863222200944
 21
-276.9774427927123
 31
0.0
  0
LINE
  5
94F
330
8D6
100
AcDbEntity
  8
0
 62
     0
100
AcDbLine
 10
-35.93877357705487
 20
-271.0075841477578
 30
0.0
 11
-35.70443277119299
 21
-270.7732433418959
 31
0.0
  0
LINE
  5
950
330
8D6
100
AcDbEntity
  8
0
 62
     0
100
AcDbLine
 10
-41.90863222200944
 20
-276.9774427927123
 30
0.0
 11
-41.27663771580747
 21
-276.3454482865104
 31
0.0
  0
LINE
  5
951
330
8D6
100
AcDbEntity
  8
0
 62
     0
100
AcDbLine
 10
-40.81095755334286
 20
-275.8797681240458
 30
0.0
 11
-40.71116894710044
 21
-275.7799795178034
 31
0.0
  0
LINE
  5
952
330
8D6
100
AcDbEntity
  8
0
 62
     0
100
AcDbLine
 10
-42.05552808083359
 20
-276.991756130064
 30
0.0
 11
-41.95338414644437
 21
-276.8896121956748
 31
0.0
  0
LINE
  5
953
330
8D6
100
AcDbEntity
  8
0
 62
     0
100
AcDbLine
 10
-36.07135609852736
 20
-271.0075841477578
 30
0.0
 11
-35.70443277119299
 21
-270.6406608204234
 31
0.0
  0
LINE
  5
954
330
8D6
100
AcDbEntity
  8
0
 62
     0
100
AcDbLine
 10
-41.95338414644437
 20
-276.8896121956748
 30
0.0
 11
-41.32138964024239
 21
-276.2576176894728
 31
0.0
  0
LINE
  5
955
330
8D6
100
AcDbEntity
  8
0
 62
     0
100
AcDbLine
 10
-40.85570947777777
 20
-275.7919375270082
 30
0.0
 11
-40.75592087153537
 21
-275.6921489207658
 31
0.0
  0
LINE
  5
956
330
8D6
100
AcDbEntity
  8
0
 62
     0
100
AcDbLine
 10
-42.10028000526851
 20
-276.9039255330264
 30
0.0
 11
-41.99813607087929
 21
-276.8017815986373
 31
0.0
  0
LINE
  5
957
330
8D6
100
AcDbEntity
  8
0
 62
     0
100
AcDbLine
 10
-36.20393861999985
 20
-271.0075841477578
 30
0.0
 11
-35.70443277119299
 21
-270.5080782989509
 31
0.0
  0
LINE
  5
958
330
8D6
100
AcDbEntity
  8
0
 62
     0
100
AcDbLine
 10
-41.99813607087929
 20
-276.8017815986372
 30
0.0
 11
-41.36614156467731
 21
-276.1697870924352
 31
0.0
  0
LINE
  5
959
330
8D6
100
AcDbEntity
  8
0
 62
     0
100
AcDbLine
 10
-40.90046140221271
 20
-275.7041069299706
 30
0.0
 11
-40.80067279597029
 21
-275.6043183237283
 31
0.0
  0
LINE
  5
95A
330
8D6
100
AcDbEntity
  8
0
 62
     0
100
AcDbLine
 10
-42.14503192970343
 20
-276.8160949359889
 30
0.0
 11
-42.04288799531422
 21
-276.7139510015997
 31
0.0
  0
LINE
  5
95B
330
8D6
100
AcDbEntity
  8
0
 62
     0
100
AcDbLine
 10
-36.33652114147233
 20
-271.0075841477578
 30
0.0
 11
-35.70443277119299
 21
-270.3754957774785
 31
0.0
  0
LINE
  5
95C
330
8D6
100
AcDbEntity
  8
0
 62
     0
100
AcDbLine
 10
-42.04288799531422
 20
-276.7139510015996
 30
0.0
 11
-41.41089348911224
 21
-276.0819564953977
 31
0.0
  0
LINE
  5
95D
330
8D6
100
AcDbEntity
  8
0
 62
     0
100
AcDbLine
 10
-40.94521332664762
 20
-275.6162763329331
 30
0.0
 11
-40.84542472040522
 21
-275.5164877266907
 31
0.0
  0
LINE
  5
95E
330
8D6
100
AcDbEntity
  8
0
 62
     0
100
AcDbLine
 10
-42.18978385413836
 20
-276.7282643389513
 30
0.0
 11
-42.08763991974914
 21
-276.6261204045621
 31
0.0
  0
LINE
  5
95F
330
8D6
100
AcDbEntity
  8
0
 62
     0
100
AcDbLine
 10
-36.46910366294478
 20
-271.0075841477578
 30
0.0
 11
-35.70443277119299
 21
-270.242913256006
 31
0.0
  0
LINE
  5
960
330
8D6
100
AcDbEntity
  8
0
 62
     0
100
AcDbLine
 10
-42.08763991974914
 20
-276.6261204045621
 30
0.0
 11
-41.45564541354717
 21
-275.9941258983601
 31
0.0
  0
LINE
  5
961
330
8D6
100
AcDbEntity
  8
0
 62
     0
100
AcDbLine
 10
-40.98996525108254
 20
-275.5284457358955
 30
0.0
 11
-40.89017664484013
 21
-275.4286571296531
 31
0.0
  0
LINE
  5
962
330
8D6
100
AcDbEntity
  8
0
 62
     0
100
AcDbLine
 10
-42.23453577857329
 20
-276.6404337419138
 30
0.0
 11
-42.13239184418406
 21
-276.5382898075245
 31
0.0
  0
LINE
  5
963
330
8D6
100
AcDbEntity
  8
0
 62
     0
100
AcDbLine
 10
-36.60168618441726
 20
-271.0075841477578
 30
0.0
 11
-35.7069169949642
 21
-270.1128149583047
 31
0.0
  0
LINE
  5
964
330
8D6
100
AcDbEntity
  8
0
 62
     0
100
AcDbLine
 10
-42.13239184418408
 20
-276.5382898075245
 30
0.0
 11
-41.50039733798208
 21
-275.9062953013226
 31
0.0
  0
LINE
  5
965
330
8D6
100
AcDbEntity
  8
0
 62
     0
100
AcDbLine
 10
-41.03471717551747
 20
-275.4406151388579
 30
0.0
 11
-40.93492856927506
 21
-275.3408265326156
 31
0.0
  0
LINE
  5
966
330
8D6
100
AcDbEntity
  8
0
 62
     0
100
AcDbLine
 10
-42.2792877030082
 20
-276.5526031448762
 30
0.0
 11
-42.17714376861898
 21
-276.450459210487
 31
0.0
  0
LINE
  5
967
330
8D6
100
AcDbEntity
  8
0
 62
     0
100
AcDbLine
 10
-36.73426870588975
 20
-271.0075841477578
 30
0.0
 11
-35.83949951643669
 21
-270.1128149583047
 31
0.0
  0
LINE
  5
968
330
8D6
100
AcDbEntity
  8
0
 62
     0
100
AcDbLine
 10
-42.17714376861898
 20
-276.450459210487
 30
0.0
 11
-41.54514926241701
 21
-275.818464704285
 31
0.0
  0
LINE
  5
969
330
8D6
100
AcDbEntity
  8
0
 62
     0
100
AcDbLine
 10
-41.0794690999524
 20
-275.3527845418204
 30
0.0
 11
-40.97968049370998
 21
-275.2529959355781
 31
0.0
  0
LINE
  5
96A
330
8D6
100
AcDbEntity
  8
0
 62
     0
100
AcDbLine
 10
-42.32403962744313
 20
-276.4647725478386
 30
0.0
 11
-42.22189569305391
 21
-276.3626286134495
 31
0.0
  0
LINE
  5
96B
330
8D6
100
AcDbEntity
  8
0
 62
     0
100
AcDbLine
 10
-36.86685122736224
 20
-271.0075841477578
 30
0.0
 11
-35.97208203790917
 21
-270.1128149583047
 31
0.0
  0
LINE
  5
96C
330
8D6
100
AcDbEntity
  8
0
 62
     0
100
AcDbLine
 10
-42.22189569305391
 20
-276.3626286134494
 30
0.0
 11
-41.58990118685194
 21
-275.7306341072474
 31
0.0
  0
LINE
  5
96D
330
8D6
100
AcDbEntity
  8
0
 62
     0
100
AcDbLine
 10
-41.12422102438733
 20
-275.2649539447828
 30
0.0
 11
-41.02443241814492
 21
-275.1651653385405
 31
0.0
  0
LINE
  5
96E
330
8D6
100
AcDbEntity
  8
0
 62
     0
100
AcDbLine
 10
-42.36879155187804
 20
-276.3769419508011
 30
0.0
 11
-42.2684645752521
 21
-276.2766149741751
 31
0.0
  0
LINE
  5
96F
330
8D6
100
AcDbEntity
  8
0
 62
     0
100
AcDbLine
 10
-36.99943374883472
 20
-271.0075841477578
 30
0.0
 11
-36.10466455938166
 21
-270.1128149583047
 31
0.0
  0
LINE
  5
970
330
8D6
100
AcDbEntity
  8
0
 62
     0
100
AcDbLine
 10
-42.26664761748884
 20
-276.2747980164119
 30
0.0
 11
-42.19792528481469
 21
-276.2060756837377
 31
0.0
  0
LINE
  5
971
330
8D6
100
AcDbEntity
  8
0
 62
     0
100
AcDbLine
 10
-41.16897294882225
 20
-275.1771233477454
 30
0.0
 11
-41.06918434257984
 21
-275.0773347415029
 31
0.0
  0
LINE
  5
972
330
8D6
100
AcDbEntity
  8
0
 62
     0
100
AcDbLine
 10
-42.1979252848146
 20
-276.2060756837377
 30
0.0
 11
-42.10043854447298
 21
-276.108588943396
 31
0.0
  0
LINE
  5
973
330
8D6
100
AcDbEntity
  8
0
 62
     0
100
AcDbLine
 10
-41.99598251496389
 20
-276.004132913887
 30
0.0
 11
-41.63465311128686
 21
-275.6428035102099
 31
0.0
  0
LINE
  5
974
330
8D6
100
AcDbEntity
  8
0
 62
     0
100
AcDbLine
 10
-42.10043854447292
 20
-276.1085889433959
 30
0.0
 11
-42.09566753742882
 21
-276.1038179363519
 31
0.0
  0
LINE
  5
975
330
8D6
100
AcDbEntity
  8
0
 62
     0
100
AcDbLine
 10
-42.09566753742871
 20
-276.1038179363518
 30
0.0
 11
-41.99598251496389
 21
-276.004132913887
 31
0.0
  0
LINE
  5
976
330
8D6
100
AcDbEntity
  8
0
 62
     0
100
AcDbLine
 10
-42.41354347631298
 20
-276.2891113537635
 30
0.0
 11
-42.31321649968703
 21
-276.1887843771376
 31
0.0
  0
LINE
  5
977
330
8D6
100
AcDbEntity
  8
0
 62
     0
100
AcDbLine
 10
-37.13201627030717
 20
-271.0075841477578
 30
0.0
 11
-36.23724708085414
 21
-270.1128149583047
 31
0.0
  0
LINE
  5
978
330
8D6
100
AcDbEntity
  8
0
 62
     0
100
AcDbLine
 10
-42.31139954192374
 20
-276.1869674193743
 30
0.0
 11
-42.1892754338011
 21
-276.0648433112517
 31
0.0
  0
LINE
  5
979
330
8D6
100
AcDbEntity
  8
0
 62
     0
100
AcDbLine
 10
-41.21372487325716
 20
-275.0892927507078
 30
0.0
 11
-41.11393626701477
 21
-274.9895041444653
 31
0.0
  0
LINE
  5
97A
330
8D6
100
AcDbEntity
  8
0
 62
     0
100
AcDbLine
 10
-42.18927543380108
 20
-276.0648433112517
 30
0.0
 11
-42.14458912338753
 21
-276.0201570008381
 31
0.0
  0
LINE
  5
97B
330
8D6
100
AcDbEntity
  8
0
 62
     0
100
AcDbLine
 10
-41.96714156490001
 20
-275.8427094423506
 30
0.0
 11
-41.67940503572178
 21
-275.5549729131724
 31
0.0
  0
LINE
  5
97C
330
8D6
100
AcDbEntity
  8
0
 62
     0
100
AcDbLine
 10
-42.11450619999326
 20
-275.9900740774438
 30
0.0
 11
-41.96714156489998
 21
-275.8427094423506
 31
0.0
  0
LINE
  5
97D
330
8D6
100
AcDbEntity
  8
0
 62
     0
100
AcDbLine
 10
-42.4582954007479
 20
-276.201280756726
 30
0.0
 11
-42.35796842412195
 21
-276.1009537801001
 31
0.0
  0
LINE
  5
97E
330
8D6
100
AcDbEntity
  8
0
 62
     0
100
AcDbLine
 10
-37.26459879177965
 20
-271.0075841477578
 30
0.0
 11
-36.36982960232659
 21
-270.1128149583047
 31
0.0
  0
LINE
  5
97F
330
8D6
100
AcDbEntity
  8
0
 62
     0
100
AcDbLine
 10
-42.35615146635868
 20
-276.0991368223368
 30
0.0
 11
-42.27628628029851
 21
-276.0192716362766
 31
0.0
  0
LINE
  5
980
330
8D6
100
AcDbEntity
  8
0
 62
     0
100
AcDbLine
 10
-41.2584767976921
 20
-275.0014621536702
 30
0.0
 11
-41.15868819144969
 21
-274.9016735474278
 31
0.0
  0
LINE
  5
981
330
8D6
100
AcDbEntity
  8
0
 62
     0
100
AcDbLine
 10
-42.27628628029848
 20
-276.0192716362765
 30
0.0
 11
-41.83861559237119
 21
-275.5816009483493
 31
0.0
  0
LINE
  5
982
330
8D6
100
AcDbEntity
  8
0
 62
     0
100
AcDbLine
 10
-41.83861559237118
 20
-275.5816009483492
 30
0.0
 11
-41.72415696015671
 21
-275.4671423161348
 31
0.0
  0
LINE
  5
983
330
8D6
100
AcDbEntity
  8
0
 62
     0
100
AcDbLine
 10
-42.50304732518282
 20
-276.1134501596885
 30
0.0
 11
-42.40272034855689
 21
-276.0131231830625
 31
0.0
  0
LINE
  5
984
330
8D6
100
AcDbEntity
  8
0
 62
     0
100
AcDbLine
 10
-37.39718131325214
 20
-271.0075841477578
 30
0.0
 11
-36.50241212379908
 21
-270.1128149583047
 31
0.0
  0
LINE
  5
985
330
8D6
100
AcDbEntity
  8
0
 62
     0
100
AcDbLine
 10
-42.4009033907936
 20
-276.0113062252992
 30
0.0
 11
-42.19714334742477
 21
-275.8075461819304
 31
0.0
  0
LINE
  5
986
330
8D6
100
AcDbEntity
  8
0
 62
     0
100
AcDbLine
 10
-41.30322872212701
 20
-274.9136315566326
 30
0.0
 11
-41.20344011588461
 21
-274.8138429503903
 31
0.0
  0
LINE
  5
987
330
8D6
100
AcDbEntity
  8
0
 62
     0
100
AcDbLine
 10
-42.19714334742469
 20
-275.8075461819303
 30
0.0
 11
-42.14776030776967
 21
-275.7581631422754
 31
0.0
  0
LINE
  5
988
330
8D6
100
AcDbEntity
  8
0
 62
     0
100
AcDbLine
 10
-42.14776030776969
 20
-275.7581631422754
 30
0.0
 11
-41.71008961984234
 21
-275.320492454348
 31
0.0
  0
LINE
  5
989
330
8D6
100
AcDbEntity
  8
0
 62
     0
100
AcDbLine
 10
-42.54779924961775
 20
-276.0256195626509
 30
0.0
 11
-42.44747227299181
 21
-275.925292586025
 31
0.0
  0
LINE
  5
98A
330
8D6
100
AcDbEntity
  8
0
 62
     0
100
AcDbLine
 10
-37.52976383472462
 20
-271.0075841477578
 30
0.0
 11
-36.63499464527156
 21
-270.1128149583047
 31
0.0
  0
LINE
  5
98B
330
8D6
100
AcDbEntity
  8
0
 62
     0
100
AcDbLine
 10
-42.44565531522854
 20
-275.9234756282617
 30
0.0
 11
-42.01923433524084
 21
-275.497054648274
 31
0.0
  0
LINE
  5
98C
330
8D6
100
AcDbEntity
  8
0
 62
     0
100
AcDbLine
 10
-41.34798064656194
 20
-274.8258009595951
 30
0.0
 11
-41.24819204031953
 21
-274.7260123533527
 31
0.0
  0
LINE
  5
98D
330
8D6
100
AcDbEntity
  8
0
 62
     0
100
AcDbLine
 10
-42.01923433524087
 20
-275.497054648274
 30
0.0
 11
-41.58156364731355
 21
-275.0593839603467
 31
0.0
  0
LINE
  5
98E
330
8D6
100
AcDbEntity
  8
0
 62
     0
100
AcDbLine
 10
-42.59255117405266
 20
-275.9377889656133
 30
0.0
 11
-42.49040723966347
 21
-275.8356450312241
 31
0.0
  0
LINE
  5
98F
330
8D6
100
AcDbEntity
  8
0
 62
     0
100
AcDbLine
 10
-37.6623463561971
 20
-271.0075841477578
 30
0.0
 11
-36.76757716674404
 21
-270.1128149583047
 31
0.0
  0
LINE
  5
990
330
8D6
100
AcDbEntity
  8
0
 62
     0
100
AcDbLine
 10
-42.49040723966347
 20
-275.8356450312241
 30
0.0
 11
-41.89070836271205
 21
-275.2359461542728
 31
0.0
  0
LINE
  5
991
330
8D6
100
AcDbEntity
  8
0
 62
     0
100
AcDbLine
 10
-41.39273257099687
 20
-274.7379703625575
 30
0.0
 11
-41.29294396475446
 21
-274.6381817563151
 31
0.0
  0
LINE
  5
992
330
8D6
100
AcDbEntity
  8
0
 62
     0
100
AcDbLine
 10
-41.89070836271203
 20
-275.2359461542727
 30
0.0
 11
-41.45303767478471
 21
-274.7982754663454
 31
0.0
  0
LINE
  5
993
330
8D6
100
AcDbEntity
  8
0
 62
     0
100
AcDbLine
 10
-42.63730309848759
 20
-275.8499583685758
 30
0.0
 11
-42.53515916409838
 21
-275.7478144341866
 31
0.0
  0
LINE
  5
994
330
8D6
100
AcDbEntity
  8
0
 62
     0
100
AcDbLine
 10
-37.79492887766956
 20
-271.0075841477578
 30
0.0
 11
-36.90015968821653
 21
-270.1128149583047
 31
0.0
  0
LINE
  5
995
330
8D6
100
AcDbEntity
  8
0
 62
     0
100
AcDbLine
 10
-42.53515916409839
 20
-275.7478144341866
 30
0.0
 11
-41.90316465789641
 21
-275.1158199279846
 31
0.0
  0
LINE
  5
996
330
8D6
100
AcDbEntity
  8
0
 62
     0
100
AcDbLine
 10
-41.76218239018321
 20
-274.9748376602715
 30
0.0
 11
-41.32451170225591
 21
-274.5371669723441
 31
0.0
  0
LINE
  5
997
330
8D6
100
AcDbEntity
  8
0
 62
     0
100
AcDbLine
 10
-42.68205502292253
 20
-275.7621277715383
 30
0.0
 11
-42.57991108853331
 21
-275.6599838371491
 31
0.0
  0
LINE
  5
998
330
8D6
100
AcDbEntity
  8
0
 62
     0
100
AcDbLine
 10
-37.92751139914204
 20
-271.0075841477578
 30
0.0
 11
-37.03274220968898
 21
-270.1128149583047
 31
0.0
  0
LINE
  5
999
330
8D6
100
AcDbEntity
  8
0
 62
     0
100
AcDbLine
 10
-42.57991108853332
 20
-275.659983837149
 30
0.0
 11
-41.94791658233133
 21
-275.027989330947
 31
0.0
  0
LINE
  5
99A
330
8D6
100
AcDbEntity
  8
0
 62
     0
100
AcDbLine
 10
-41.63365641765442
 20
-274.7137291662701
 30
0.0
 11
-41.19598572972707
 21
-274.2760584783428
 31
0.0
  0
LINE
  5
99B
330
8D6
100
AcDbEntity
  8
0
 62
     0
100
AcDbLine
 10
-42.72680694735743
 20
-275.6742971745007
 30
0.0
 11
-42.62466301296824
 21
-275.5721532401115
 31
0.0
  0
LINE
  5
99C
330
8D6
100
AcDbEntity
  8
0
 62
     0
100
AcDbLine
 10
-38.06009392061452
 20
-271.0075841477578
 30
0.0
 11
-37.16532473116146
 21
-270.1128149583047
 31
0.0
  0
LINE
  5
99D
330
8D6
100
AcDbEntity
  8
0
 62
     0
100
AcDbLine
 10
-42.62466301296824
 20
-275.5721532401115
 30
0.0
 11
-41.99266850676624
 21
-274.9401587339095
 31
0.0
  0
LINE
  5
99E
330
8D6
100
AcDbEntity
  8
0
 62
     0
100
AcDbLine
 10
-41.24320808781802
 20
-274.1906983149613
 30
0.0
 11
-41.16028905131896
 21
-274.1077792784622
 31
0.0
  0
LINE
  5
99F
330
8D6
100
AcDbEntity
  8
0
 62
     0
100
AcDbLine
 10
-41.52698834430164
 20
-274.4744785714449
 30
0.0
 11
-41.50513044512558
 21
-274.4526206722688
 31
0.0
  0
LINE
  5
9A0
330
8D6
100
AcDbEntity
  8
0
 62
     0
100
AcDbLine
 10
-41.2918472873847
 20
-274.2393375145279
 30
0.0
 11
-41.26594175883485
 21
-274.2134319859781
 31
0.0
  0
LINE
  5
9A1
330
8D6
100
AcDbEntity
  8
0
 62
     0
100
AcDbLine
 10
-41.50513044512556
 20
-274.4526206722688
 30
0.0
 11
-41.29184728738475
 21
-274.239337514528
 31
0.0
  0
LINE
  5
9A2
330
8D6
100
AcDbEntity
  8
0
 62
     0
100
AcDbLine
 10
-42.77155887179236
 20
-275.5864665774631
 30
0.0
 11
-42.66941493740316
 21
-275.484322643074
 31
0.0
  0
LINE
  5
9A3
330
8D6
100
AcDbEntity
  8
0
 62
     0
100
AcDbLine
 10
-38.192676442087
 20
-271.0075841477578
 30
0.0
 11
-37.29790725263395
 21
-270.1128149583047
 31
0.0
  0
LINE
  5
9A4
330
8D6
100
AcDbEntity
  8
0
 62
     0
100
AcDbLine
 10
-42.66941493740316
 20
-275.484322643074
 30
0.0
 11
-42.03742043120118
 21
-274.8523281368719
 31
0.0
  0
LINE
  5
9A5
330
8D6
100
AcDbEntity
  8
0
 62
     0
100
AcDbLine
 10
-41.39132135807054
 20
-274.2062290637413
 30
0.0
 11
-41.15044255176923
 21
-273.96535025744
 31
0.0
  0
LINE
  5
9A6
330
8D6
100
AcDbEntity
  8
0
 62
     0
100
AcDbLine
 10
-41.57174026873658
 20
-274.3866479744074
 30
0.0
 11
-41.47195166249413
 21
-274.2868593681649
 31
0.0
  0
LINE
  5
9A7
330
8D6
100
AcDbEntity
  8
0
 62
     0
100
AcDbLine
 10
-42.81631079622728
 20
-275.4986359804255
 30
0.0
 11
-42.71416686183809
 21
-275.3964920460364
 31
0.0
  0
LINE
  5
9A8
330
8D6
100
AcDbEntity
  8
0
 62
     0
100
AcDbLine
 10
-38.32525896355949
 20
-271.0075841477578
 30
0.0
 11
-37.43048977410643
 21
-270.1128149583047
 31
0.0
  0
LINE
  5
9A9
330
8D6
100
AcDbEntity
  8
0
 62
     0
100
AcDbLine
 10
-42.71416686183809
 20
-275.3964920460364
 30
0.0
 11
-42.0821723556361
 21
-274.7644975398344
 31
0.0
  0
LINE
  5
9AA
330
8D6
100
AcDbEntity
  8
0
 62
     0
100
AcDbLine
 10
-41.3814748585208
 20
-274.0638000427191
 30
0.0
 11
-41.1405960522195
 21
-273.8229212364178
 31
0.0
  0
LINE
  5
9AB
330
8D6
100
AcDbEntity
  8
0
 62
     0
100
AcDbLine
 10
-41.6164921931715
 20
-274.2988173773698
 30
0.0
 11
-41.51670358692905
 21
-274.1990287711273
 31
0.0
  0
LINE
  5
9AC
330
8D6
100
AcDbEntity
  8
0
 62
     0
100
AcDbLine
 10
-42.86106272066221
 20
-275.410805383388
 30
0.0
 11
-42.75891878627302
 21
-275.3086614489988
 31
0.0
  0
LINE
  5
9AD
330
8D6
100
AcDbEntity
  8
0
 62
     0
100
AcDbLine
 10
-38.45784148503194
 20
-271.0075841477578
 30
0.0
 11
-37.56307229557891
 21
-270.1128149583047
 31
0.0
  0
LINE
  5
9AE
330
8D6
100
AcDbEntity
  8
0
 62
     0
100
AcDbLine
 10
-42.75891878627301
 20
-275.3086614489988
 30
0.0
 11
-42.12692428007102
 21
-274.6766669427968
 31
0.0
  0
LINE
  5
9AF
330
8D6
100
AcDbEntity
  8
0
 62
     0
100
AcDbLine
 10
-41.37162835897107
 20
-273.9213710216969
 30
0.0
 11
-41.13074955266977
 21
-273.6804922153956
 31
0.0
  0
LINE
  5
9B0
330
8D6
100
AcDbEntity
  8
0
 62
     0
100
AcDbLine
 10
-41.66124411760642
 20
-274.2109867803322
 30
0.0
 11
-41.56145551136398
 21
-274.1111981740898
 31
0.0
  0
LINE
  5
9B1
330
8D6
100
AcDbEntity
  8
0
 62
     0
100
AcDbLine
 10
-42.90581464509713
 20
-275.3229747863504
 30
0.0
 11
-42.80367071070794
 21
-275.2208308519613
 31
0.0
  0
LINE
  5
9B2
330
8D6
100
AcDbEntity
  8
0
 62
     0
100
AcDbLine
 10
-38.59042400650442
 20
-271.0075841477578
 30
0.0
 11
-37.69565481705136
 21
-270.1128149583047
 31
0.0
  0
LINE
  5
9B3
330
8D6
100
AcDbEntity
  8
0
 62
     0
100
AcDbLine
 10
-42.80367071070794
 20
-275.2208308519613
 30
0.0
 11
-42.17167620450595
 21
-274.5888363457593
 31
0.0
  0
LINE
  5
9B4
330
8D6
100
AcDbEntity
  8
0
 62
     0
100
AcDbLine
 10
-41.36178185942134
 20
-273.7789420006746
 30
0.0
 11
-41.12090305312004
 21
-273.5380631943733
 31
0.0
  0
LINE
  5
9B5
330
8D6
100
AcDbEntity
  8
0
 62
     0
100
AcDbLine
 10
-41.70599604204134
 20
-274.1231561832947
 30
0.0
 11
-41.60620743579889
 21
-274.0233675770522
 31
0.0
  0
LINE
  5
9B6
330
8D6
100
AcDbEntity
  8
0
 62
     0
100
AcDbLine
 10
-42.95056656953206
 20
-275.2351441893129
 30
0.0
 11
-42.84842263514287
 21
-275.1330002549237
 31
0.0
  0
LINE
  5
9B7
330
8D6
100
AcDbEntity
  8
0
 62
     0
100
AcDbLine
 10
-38.72300652797691
 20
-271.0075841477578
 30
0.0
 11
-37.82823733852385
 21
-270.1128149583047
 31
0.0
  0
LINE
  5
9B8
330
8D6
100
AcDbEntity
  8
0
 62
     0
100
AcDbLine
 10
-42.84842263514287
 20
-275.1330002549237
 30
0.0
 11
-42.21642812894087
 21
-274.5010057487217
 31
0.0
  0
LINE
  5
9B9
330
8D6
100
AcDbEntity
  8
0
 62
     0
100
AcDbLine
 10
-41.35193535987162
 20
-273.6365129796524
 30
0.0
 11
-41.11105655357031
 21
-273.3956341733511
 31
0.0
  0
LINE
  5
9BA
330
8D6
100
AcDbEntity
  8
0
 62
     0
100
AcDbLine
 10
-41.75074796647627
 20
-274.0353255862571
 30
0.0
 11
-41.65095936023383
 21
-273.9355369800147
 31
0.0
  0
LINE
  5
9BB
330
8D6
100
AcDbEntity
  8
0
 62
     0
100
AcDbLine
 10
-42.99531849396698
 20
-275.1473135922753
 30
0.0
 11
-42.89317455957778
 21
-275.0451696578862
 31
0.0
  0
LINE
  5
9BC
330
8D6
100
AcDbEntity
  8
0
 62
     0
100
AcDbLine
 10
-38.85558904944939
 20
-271.0075841477578
 30
0.0
 11
-37.96081985999633
 21
-270.1128149583047
 31
0.0
  0
LINE
  5
9BD
330
8D6
100
AcDbEntity
  8
0
 62
     0
100
AcDbLine
 10
-42.89317455957778
 20
-275.0451696578862
 30
0.0
 11
-42.2611800533758
 21
-274.4131751516842
 31
0.0
  0
LINE
  5
9BE
330
8D6
100
AcDbEntity
  8
0
 62
     0
100
AcDbLine
 10
-41.34208886032189
 20
-273.4940839586302
 30
0.0
 11
-41.10121005402058
 21
-273.2532051523289
 31
0.0
  0
LINE
  5
9BF
330
8D6
100
AcDbEntity
  8
0
 62
     0
100
AcDbLine
 10
-41.79549989091119
 20
-273.9474949892195
 30
0.0
 11
-41.69571128466874
 21
-273.8477063829771
 31
0.0
  0
LINE
  5
9C0
330
8D6
100
AcDbEntity
  8
0
 62
     0
100
AcDbLine
 10
-43.0400704184019
 20
-275.0594829952378
 30
0.0
 11
-42.93792648401271
 21
-274.9573390608487
 31
0.0
  0
LINE
  5
9C1
330
8D6
100
AcDbEntity
  8
0
 62
     0
100
AcDbLine
 10
-38.98817157092188
 20
-271.0075841477578
 30
0.0
 11
-38.09340238146882
 21
-270.1128149583047
 31
0.0
  0
LINE
  5
9C2
330
8D6
100
AcDbEntity
  8
0
 62
     0
100
AcDbLine
 10
-42.93792648401271
 20
-274.9573390608486
 30
0.0
 11
-42.30593197781072
 21
-274.3253445546466
 31
0.0
  0
LINE
  5
9C3
330
8D6
100
AcDbEntity
  8
0
 62
     0
100
AcDbLine
 10
-41.33224236077215
 20
-273.351654937608
 30
0.0
 11
-41.09136355447085
 21
-273.1107761313067
 31
0.0
  0
LINE
  5
9C4
330
8D6
100
AcDbEntity
  8
0
 62
     0
100
AcDbLine
 10
-41.84025181534611
 20
-273.859664392182
 30
0.0
 11
-41.74046320910367
 21
-273.7598757859395
 31
0.0
  0
LINE
  5
9C5
330
8D6
100
AcDbEntity
  8
0
 62
     0
100
AcDbLine
 10
-43.08482234283682
 20
-274.9716523982002
 30
0.0
 11
-42.98267840844763
 21
-274.8695084638111
 31
0.0
  0
LINE
  5
9C6
330
8D6
100
AcDbEntity
  8
0
 62
     0
100
AcDbLine
 10
-39.12075409239436
 20
-271.0075841477578
 30
0.0
 11
-38.2259849029413
 21
-270.1128149583047
 31
0.0
  0
LINE
  5
9C7
330
8D6
100
AcDbEntity
  8
0
 62
     0
100
AcDbLine
 10
-42.98267840844764
 20
-274.8695084638111
 30
0.0
 11
-42.35068390224564
 21
-274.2375139576091
 31
0.0
  0
LINE
  5
9C8
330
8D6
100
AcDbEntity
  8
0
 62
     0
100
AcDbLine
 10
-41.08151705492112
 20
-272.9683471102845
 30
0.0
 11
-40.96181643366968
 21
-272.848646489033
 31
0.0
  0
LINE
  5
9C9
330
8D6
100
AcDbEntity
  8
0
 62
     0
100
AcDbLine
 10
-41.88500373978103
 20
-273.7718337951445
 30
0.0
 11
-41.78521513353859
 21
-273.672045188902
 31
0.0
  0
LINE
  5
9CA
330
8D6
100
AcDbEntity
  8
0
 62
     0
100
AcDbLine
 10
-41.32239586122242
 20
-273.2092259165858
 30
0.0
 11
-41.08151705492112
 21
-272.9683471102845
 31
0.0
  0
LINE
  5
9CB
330
8D6
100
AcDbEntity
  8
0
 62
     0
100
AcDbLine
 10
-43.12957426727176
 20
-274.8838218011627
 30
0.0
 11
-43.02743033288257
 21
-274.7816778667736
 31
0.0
  0
LINE
  5
9CC
330
8D6
100
AcDbEntity
  8
0
 62
     0
100
AcDbLine
 10
-39.25333661386681
 20
-271.0075841477578
 30
0.0
 11
-38.35856742441375
 21
-270.1128149583047
 31
0.0
  0
LINE
  5
9CD
330
8D6
100
AcDbEntity
  8
0
 62
     0
100
AcDbLine
 10
-43.02743033288256
 20
-274.7816778667735
 30
0.0
 11
-42.39543582668058
 21
-274.1496833605715
 31
0.0
  0
LINE
  5
9CE
330
8D6
100
AcDbEntity
  8
0
 62
     0
100
AcDbLine
 10
-41.07167055537138
 20
-272.8259180892623
 30
0.0
 11
-40.79761027123158
 21
-272.5518578051226
 31
0.0
  0
LINE
  5
9CF
330
8D6
100
AcDbEntity
  8
0
 62
     0
100
AcDbLine
 10
-41.92975566421597
 20
-273.6840031981069
 30
0.0
 11
-41.82996705797352
 21
-273.5842145918645
 31
0.0
  0
LINE
  5
9D0
330
8D6
100
AcDbEntity
  8
0
 62
     0
100
AcDbLine
 10
-41.3125493616727
 20
-273.0667968955636
 30
0.0
 11
-41.07167055537138
 21
-272.8259180892623
 31
0.0
  0
LINE
  5
9D1
330
8D6
100
AcDbEntity
  8
0
 62
     0
100
AcDbLine
 10
-43.17432619170667
 20
-274.7959912041251
 30
0.0
 11
-43.07218225731747
 21
-274.693847269736
 31
0.0
  0
LINE
  5
9D2
330
8D6
100
AcDbEntity
  8
0
 62
     0
100
AcDbLine
 10
-39.3859191353393
 20
-271.0075841477578
 30
0.0
 11
-38.49114994588624
 21
-270.1128149583047
 31
0.0
  0
LINE
  5
9D3
330
8D6
100
AcDbEntity
  8
0
 62
     0
100
AcDbLine
 10
-43.07218225731748
 20
-274.693847269736
 30
0.0
 11
-42.44018775111549
 21
-274.0618527635339
 31
0.0
  0
LINE
  5
9D4
330
8D6
100
AcDbEntity
  8
0
 62
     0
100
AcDbLine
 10
-41.06182405582166
 20
-272.6834890682401
 30
0.0
 11
-40.63340410879347
 21
-272.2550691212119
 31
0.0
  0
LINE
  5
9D5
330
8D6
100
AcDbEntity
  8
0
 62
     0
100
AcDbLine
 10
-41.97450758865088
 20
-273.5961726010693
 30
0.0
 11
-41.87471898240843
 21
-273.4963839948269
 31
0.0
  0
LINE
  5
9D6
330
8D6
100
AcDbEntity
  8
0
 62
     0
100
AcDbLine
 10
-41.30270286212296
 20
-272.9243678745414
 30
0.0
 11
-41.06182405582166
 21
-272.6834890682401
 31
0.0
  0
LINE
  5
9D7
330
8D6
100
AcDbEntity
  8
0
 62
     0
100
AcDbLine
 10
-43.2190781161416
 20
-274.7081606070876
 30
0.0
 11
-43.11693418175241
 21
-274.6060166726984
 31
0.0
  0
LINE
  5
9D8
330
8D6
100
AcDbEntity
  8
0
 62
     0
100
AcDbLine
 10
-39.51850165681178
 20
-271.0075841477578
 30
0.0
 11
-38.62373246735872
 21
-270.1128149583047
 31
0.0
  0
LINE
  5
9D9
330
8D6
100
AcDbEntity
  8
0
 62
     0
100
AcDbLine
 10
-43.11693418175241
 20
-274.6060166726984
 30
0.0
 11
-42.48493967555043
 21
-273.9740221664964
 31
0.0
  0
LINE
  5
9DA
330
8D6
100
AcDbEntity
  8
0
 62
     0
100
AcDbLine
 10
-41.04147028864789
 20
-272.5305527795939
 30
0.0
 11
-40.46919794635537
 21
-271.9582804373014
 31
0.0
  0
LINE
  5
9DB
330
8D6
100
AcDbEntity
  8
0
 62
     0
100
AcDbLine
 10
-42.0192595130858
 20
-273.5083420040318
 30
0.0
 11
-41.91947090684336
 21
-273.4085533977893
 31
0.0
  0
LINE
  5
9DC
330
8D6
100
AcDbEntity
  8
0
 62
     0
100
AcDbLine
 10
-41.29285636257323
 20
-272.7819388535192
 30
0.0
 11
-41.05197755627193
 21
-272.5410600472179
 31
0.0
  0
LINE
  5
9DD
330
8D6
100
AcDbEntity
  8
0
 62
     0
100
AcDbLine
 10
-43.26383004057651
 20
-274.62033001005
 30
0.0
 11
-43.16168610618734
 21
-274.5181860756609
 31
0.0
  0
LINE
  5
9DE
330
8D6
100
AcDbEntity
  8
0
 62
     0
100
AcDbLine
 10
-39.65108417828427
 20
-271.0075841477578
 30
0.0
 11
-38.7563149888312
 21
-270.1128149583047
 31
0.0
  0
LINE
  5
9DF
330
8D6
100
AcDbEntity
  8
0
 62
     0
100
AcDbLine
 10
-43.16168610618732
 20
-274.5181860756608
 30
0.0
 11
-42.52969159998534
 21
-273.8861915694589
 31
0.0
  0
LINE
  5
9E0
330
8D6
100
AcDbEntity
  8
0
 62
     0
100
AcDbLine
 10
-40.87726412620977
 20
-272.2337640956832
 30
0.0
 11
-40.30499178391731
 21
-271.6614917533908
 31
0.0
  0
LINE
  5
9E1
330
8D6
100
AcDbEntity
  8
0
 62
     0
100
AcDbLine
 10
-42.06401143752072
 20
-273.4205114069942
 30
0.0
 11
-41.96422283127828
 21
-273.3207228007517
 31
0.0
  0
LINE
  5
9E2
330
8D6
100
AcDbEntity
  8
0
 62
     0
100
AcDbLine
 10
-41.2830098630235
 20
-272.639509832497
 30
0.0
 11
-41.04213105672219
 21
-272.3986310261957
 31
0.0
  0
LINE
  5
9E3
330
8D6
100
AcDbEntity
  8
0
 62
     0
100
AcDbLine
 10
-43.30858196501145
 20
-274.5324994130124
 30
0.0
 11
-43.20643803062226
 21
-274.4303554786233
 31
0.0
  0
LINE
  5
9E4
330
8D6
100
AcDbEntity
  8
0
 62
     0
100
AcDbLine
 10
-39.78366669975674
 20
-271.0075841477578
 30
0.0
 11
-38.88889751030369
 21
-270.1128149583047
 31
0.0
  0
LINE
  5
9E5
330
8D6
100
AcDbEntity
  8
0
 62
     0
100
AcDbLine
 10
-43.20643803062226
 20
-274.4303554786232
 30
0.0
 11
-42.57444352442026
 21
-273.7983609724213
 31
0.0
  0
LINE
  5
9E6
330
8D6
100
AcDbEntity
  8
0
 62
     0
100
AcDbLine
 10
-40.71305796377171
 20
-271.9369754117727
 30
0.0
 11
-40.14078562147921
 21
-271.3647030694802
 31
0.0
  0
LINE
  5
9E7
330
8D6
100
AcDbEntity
  8
0
 62
     0
100
AcDbLine
 10
-42.10876336195565
 20
-273.3326808099567
 30
0.0
 11
-42.00897475571321
 21
-273.2328922037142
 31
0.0
  0
LINE
  5
9E8
330
8D6
100
AcDbEntity
  8
0
 62
     0
100
AcDbLine
 10
-41.27316336347377
 20
-272.4970808114748
 30
0.0
 11
-41.03228455717245
 21
-272.2562020051735
 31
0.0
  0
LINE
  5
9E9
330
8D6
100
AcDbEntity
  8
0
 62
     0
100
AcDbLine
 10
-43.35333388944637
 20
-274.4446688159749
 30
0.0
 11
-43.25118995505717
 21
-274.3425248815857
 31
0.0
  0
LINE
  5
9EA
330
8D6
100
AcDbEntity
  8
0
 62
     0
100
AcDbLine
 10
-39.9162492212292
 20
-271.0075841477578
 30
0.0
 11
-39.02148003177617
 21
-270.1128149583047
 31
0.0
  0
LINE
  5
9EB
330
8D6
100
AcDbEntity
  8
0
 62
     0
100
AcDbLine
 10
-43.25118995505718
 20
-274.3425248815857
 30
0.0
 11
-42.61919544885519
 21
-273.7105303753837
 31
0.0
  0
LINE
  5
9EC
330
8D6
100
AcDbEntity
  8
0
 62
     0
100
AcDbLine
 10
-40.5488518013336
 20
-271.6401867278622
 30
0.0
 11
-39.97657945904111
 21
-271.0679143855696
 31
0.0
  0
LINE
  5
9ED
330
8D6
100
AcDbEntity
  8
0
 62
     0
100
AcDbLine
 10
-42.15351528639057
 20
-273.2448502129191
 30
0.0
 11
-42.05372668014815
 21
-273.1450616066767
 31
0.0
  0
LINE
  5
9EE
330
8D6
100
AcDbEntity
  8
0
 62
     0
100
AcDbLine
 10
-41.26331686392403
 20
-272.3546517904526
 30
0.0
 11
-41.02243805762273
 21
-272.1137729841512
 31
0.0
  0
LINE
  5
9EF
330
8D6
100
AcDbEntity
  8
0
 62
     0
100
AcDbLine
 10
-43.39808581388129
 20
-274.3568382189374
 30
0.0
 11
-43.29594187949211
 21
-274.2546942845482
 31
0.0
  0
LINE
  5
9F0
330
8D6
100
AcDbEntity
  8
0
 62
     0
100
AcDbLine
 10
-40.04883174270166
 20
-271.0075841477577
 30
0.0
 11
-39.15406255324862
 21
-270.1128149583047
 31
0.0
  0
LINE
  5
9F1
330
8D6
100
AcDbEntity
  8
0
 62
     0
100
AcDbLine
 10
-43.29594187949211
 20
-274.2546942845482
 30
0.0
 11
-42.66394737329011
 21
-273.6226997783461
 31
0.0
  0
LINE
  5
9F2
330
8D6
100
AcDbEntity
  8
0
 62
     0
100
AcDbLine
 10
-40.38464563889553
 20
-271.3433980439516
 30
0.0
 11
-40.04883174270168
 21
-271.0075841477578
 31
0.0
  0
LINE
  5
9F3
330
8D6
100
AcDbEntity
  8
0
 62
     0
100
AcDbLine
 10
-42.19826721082549
 20
-273.1570196158815
 30
0.0
 11
-42.09847860458307
 21
-273.0572310096391
 31
0.0
  0
LINE
  5
9F4
330
8D6
100
AcDbEntity
  8
0
 62
     0
100
AcDbLine
 10
-41.25347036437431
 20
-272.2122227694304
 30
0.0
 11
-41.01259155807299
 21
-271.971343963129
 31
0.0
  0
LINE
  5
9F5
330
8D6
100
AcDbEntity
  8
0
 62
     0
100
AcDbLine
 10
-43.44283773831622
 20
-274.2690076218998
 30
0.0
 11
-43.34069380392703
 21
-274.1668636875106
 31
0.0
  0
LINE
  5
9F6
330
8D6
100
AcDbEntity
  8
0
 62
     0
100
AcDbLine
 10
-40.18141426417416
 20
-271.0075841477577
 30
0.0
 11
-39.28664507472111
 21
-270.1128149583047
 31
0.0
  0
LINE
  5
9F7
330
8D6
100
AcDbEntity
  8
0
 62
     0
100
AcDbLine
 10
-43.34069380392703
 20
-274.1668636875106
 30
0.0
 11
-42.70869929772504
 21
-273.5348691813086
 31
0.0
  0
LINE
  5
9F8
330
8D6
100
AcDbEntity
  8
0
 62
     0
100
AcDbLine
 10
-40.22043947645742
 20
-271.046609360041
 30
0.0
 11
-40.18141426417416
 21
-271.0075841477578
 31
0.0
  0
LINE
  5
9F9
330
8D6
100
AcDbEntity
  8
0
 62
     0
100
AcDbLine
 10
-42.24301913526041
 20
-273.069189018844
 30
0.0
 11
-42.14323052901799
 21
-272.9694004126015
 31
0.0
  0
LINE
  5
9FA
330
8D6
100
AcDbEntity
  8
0
 62
     0
100
AcDbLine
 10
-41.24362386482458
 20
-272.0697937484081
 30
0.0
 11
-41.00274505852326
 21
-271.8289149421068
 31
0.0
  0
LINE
  5
9FB
330
8D6
100
AcDbEntity
  8
0
 62
     0
100
AcDbLine
 10
-43.48758966275113
 20
-274.1811770248623
 30
0.0
 11
-43.38544572836195
 21
-274.0790330904731
 31
0.0
  0
LINE
  5
9FC
330
8D6
100
AcDbEntity
  8
0
 62
     0
100
AcDbLine
 10
-40.31399678564665
 20
-271.0075841477578
 30
0.0
 11
-39.41922759619359
 21
-270.1128149583047
 31
0.0
  0
LINE
  5
9FD
330
8D6
100
AcDbEntity
  8
0
 62
     0
100
AcDbLine
 10
-43.38544572836195
 20
-274.0790330904731
 30
0.0
 11
-42.75345122215997
 21
-273.447038584271
 31
0.0
  0
LINE
  5
9FE
330
8D6
100
AcDbEntity
  8
0
 62
     0
100
AcDbLine
 10
-41.23377736527484
 20
-271.9273647273859
 30
0.0
 11
-40.99289855897352
 21
-271.6864859210846
 31
0.0
  0
LINE
  5
9FF
330
8D6
100
AcDbEntity
  8
0
 62
     0
100
AcDbLine
 10
-42.28777105969533
 20
-272.9813584218064
 30
0.0
 11
-42.18798245345292
 21
-272.881569815564
 31
0.0
  0
LINE
  5
A00
330
8D6
100
AcDbEntity
  8
0
 62
     0
100
AcDbLine
 10
-43.53234158718605
 20
-274.0933464278247
 30
0.0
 11
-43.43019765279687
 21
-273.9912024934355
 31
0.0
  0
LINE
  5
A01
330
8D6
100
AcDbEntity
  8
0
 62
     0
100
AcDbLine
 10
-40.44657930711912
 20
-271.0075841477578
 30
0.0
 11
-39.55181011766607
 21
-270.1128149583047
 31
0.0
  0
LINE
  5
A02
330
8D6
100
AcDbEntity
  8
0
 62
     0
100
AcDbLine
 10
-43.43019765279688
 20
-273.9912024934355
 30
0.0
 11
-42.79820314659487
 21
-273.3592079872335
 31
0.0
  0
LINE
  5
A03
330
8D6
100
AcDbEntity
  8
0
 62
     0
100
AcDbLine
 10
-41.22393086572511
 20
-271.7849357063637
 30
0.0
 11
-40.9830520594238
 21
-271.5440569000624
 31
0.0
  0
LINE
  5
A04
330
8D6
100
AcDbEntity
  8
0
 62
     0
100
AcDbLine
 10
-42.33252298413026
 20
-272.8935278247689
 30
0.0
 11
-42.23273437788784
 21
-272.7937392185264
 31
0.0
  0
LINE
  5
A05
330
8D6
100
AcDbEntity
  8
0
 62
     0
100
AcDbLine
 10
-43.57709351162099
 20
-274.0055158307872
 30
0.0
 11
-43.4749495772318
 21
-273.903371896398
 31
0.0
  0
LINE
  5
A06
330
8D6
100
AcDbEntity
  8
0
 62
     0
100
AcDbLine
 10
-40.57916182859158
 20
-271.0075841477578
 30
0.0
 11
-39.68439263913856
 21
-270.1128149583047
 31
0.0
  0
LINE
  5
A07
330
8D6
100
AcDbEntity
  8
0
 62
     0
100
AcDbLine
 10
-43.4749495772318
 20
-273.903371896398
 30
0.0
 11
-42.84295507102982
 21
-273.2713773901959
 31
0.0
  0
LINE
  5
A08
330
8D6
100
AcDbEntity
  8
0
 62
     0
100
AcDbLine
 10
-41.21408436617539
 20
-271.6425066853415
 30
0.0
 11
-40.97320555987406
 21
-271.4016278790402
 31
0.0
  0
LINE
  5
A09
330
8D6
100
AcDbEntity
  8
0
 62
     0
100
AcDbLine
 10
-42.37727490856518
 20
-272.8056972277314
 30
0.0
 11
-42.27748630232276
 21
-272.705908621489
 31
0.0
  0
LINE
  5
A0A
330
8D6
100
AcDbEntity
  8
0
 62
     0
100
AcDbLine
 10
-43.6218454360559
 20
-273.9176852337496
 30
0.0
 11
-43.51970150166672
 21
-273.8155412993604
 31
0.0
  0
LINE
  5
A0B
330
8D6
100
AcDbEntity
  8
0
 62
     0
100
AcDbLine
 10
-40.71174435006406
 20
-271.0075841477578
 30
0.0
 11
-39.81697516061101
 21
-270.1128149583047
 31
0.0
  0
LINE
  5
A0C
330
8D6
100
AcDbEntity
  8
0
 62
     0
100
AcDbLine
 10
-43.51970150166672
 20
-273.8155412993604
 30
0.0
 11
-42.88770699546473
 21
-273.1835467931584
 31
0.0
  0
LINE
  5
A0D
330
8D6
100
AcDbEntity
  8
0
 62
     0
100
AcDbLine
 10
-41.20423786662565
 20
-271.5000776643193
 30
0.0
 11
-40.96335906032432
 21
-271.259198858018
 31
0.0
  0
LINE
  5
A0E
330
8D6
100
AcDbEntity
  8
0
 62
     0
100
AcDbLine
 10
-42.4220268330001
 20
-272.7178666306938
 30
0.0
 11
-42.32223822675769
 21
-272.6180780244514
 31
0.0
  0
LINE
  5
A0F
330
8D6
100
AcDbEntity
  8
0
 62
     0
100
AcDbLine
 10
-43.66659736049083
 20
-273.829854636712
 30
0.0
 11
-43.56445342610165
 21
-273.7277107023229
 31
0.0
  0
LINE
  5
A10
330
8D6
100
AcDbEntity
  8
0
 62
     0
100
AcDbLine
 10
-40.84432687153655
 20
-271.0075841477578
 30
0.0
 11
-39.94955768208349
 21
-270.1128149583047
 31
0.0
  0
LINE
  5
A11
330
8D6
100
AcDbEntity
  8
0
 62
     0
100
AcDbLine
 10
-43.56445342610164
 20
-273.7277107023228
 30
0.0
 11
-42.93245891989965
 21
-273.0957161961208
 31
0.0
  0
LINE
  5
A12
330
8D6
100
AcDbEntity
  8
0
 62
     0
100
AcDbLine
 10
-41.19439136707593
 20
-271.3576486432971
 30
0.0
 11
-40.95351256077459
 21
-271.1167698369958
 31
0.0
  0
LINE
  5
A13
330
8D6
100
AcDbEntity
  8
0
 62
     0
100
AcDbLine
 10
-42.46677875743502
 20
-272.6300360336562
 30
0.0
 11
-42.36699015119261
 21
-272.5302474274138
 31
0.0
  0
LINE
  5
A14
330
8D6
100
AcDbEntity
  8
0
 62
     0
100
AcDbLine
 10
-43.71134928492576
 20
-273.7420240396744
 30
0.0
 11
-43.60920535053657
 21
-273.6398801052853
 31
0.0
  0
LINE
  5
A15
330
8D6
100
AcDbEntity
  8
0
 62
     0
100
AcDbLine
 10
-40.97690939300903
 20
-271.0075841477578
 30
0.0
 11
-40.08214020355597
 21
-270.1128149583047
 31
0.0
  0
LINE
  5
A16
330
8D6
100
AcDbEntity
  8
0
 62
     0
100
AcDbLine
 10
-43.60920535053657
 20
-273.6398801052853
 30
0.0
 11
-42.97721084433458
 21
-273.0078855990833
 31
0.0
  0
LINE
  5
A17
330
8D6
100
AcDbEntity
  8
0
 62
     0
100
AcDbLine
 10
-41.1845448675262
 20
-271.2152196222749
 30
0.0
 11
-40.97690939300904
 21
-271.0075841477578
 31
0.0
  0
LINE
  5
A18
330
8D6
100
AcDbEntity
  8
0
 62
     0
100
AcDbLine
 10
-42.51153068186996
 20
-272.5422054366187
 30
0.0
 11
-42.41174207562753
 21
-272.4424168303762
 31
0.0
  0
LINE
  5
A19
330
8D6
100
AcDbEntity
  8
0
 62
     0
100
AcDbLine
 10
-43.75610120936068
 20
-273.6541934426369
 30
0.0
 11
-43.65395727497149
 21
-273.5520495082478
 31
0.0
  0
LINE
  5
A1A
330
8D6
100
AcDbEntity
  8
0
 62
     0
100
AcDbLine
 10
-41.10949191448152
 20
-271.0075841477578
 30
0.0
 11
-40.21472272502846
 21
-270.1128149583047
 31
0.0
  0
LINE
  5
A1B
330
8D6
100
AcDbEntity
  8
0
 62
     0
100
AcDbLine
 10
-43.65395727497149
 20
-273.5520495082478
 30
0.0
 11
-43.02196276876951
 21
-272.9200550020458
 31
0.0
  0
LINE
  5
A1C
330
8D6
100
AcDbEntity
  8
0
 62
     0
100
AcDbLine
 10
-41.17469836797646
 20
-271.0727906012527
 30
0.0
 11
-41.10949191448153
 21
-271.0075841477578
 31
0.0
  0
LINE
  5
A1D
330
8D6
100
AcDbEntity
  8
0
 62
     0
100
AcDbLine
 10
-42.55628260630487
 20
-272.4543748395811
 30
0.0
 11
-42.45649400006246
 21
-272.3545862333387
 31
0.0
  0
LINE
  5
A1E
330
8D6
100
AcDbEntity
  8
0
 62
     0
100
AcDbLine
 10
-43.8008531337956
 20
-273.5663628455994
 30
0.0
 11
-43.69870919940642
 21
-273.4642189112102
 31
0.0
  0
LINE
  5
A1F
330
8D6
100
AcDbEntity
  8
0
 62
     0
100
AcDbLine
 10
-41.242074435954
 20
-271.0075841477578
 30
0.0
 11
-40.34730524650094
 21
-270.1128149583047
 31
0.0
  0
LINE
  5
A20
330
8D6
100
AcDbEntity
  8
0
 62
     0
100
AcDbLine
 10
-43.69870919940643
 20
-273.4642189112102
 30
0.0
 11
-43.06671469320444
 21
-272.8322244050082
 31
0.0
  0
LINE
  5
A21
330
8D6
100
AcDbEntity
  8
0
 62
     0
100
AcDbLine
 10
-42.6010345307398
 20
-272.3665442425436
 30
0.0
 11
-42.50124592449738
 21
-272.2667556363012
 31
0.0
  0
LINE
  5
A22
330
8D6
100
AcDbEntity
  8
0
 62
     0
100
AcDbLine
 10
-43.84560505823052
 20
-273.4785322485618
 30
0.0
 11
-43.74346112384134
 21
-273.3763883141727
 31
0.0
  0
LINE
  5
A23
330
8D6
100
AcDbEntity
  8
0
 62
     0
100
AcDbLine
 10
-41.37465695742645
 20
-271.0075841477578
 30
0.0
 11
-40.47988776797339
 21
-270.1128149583047
 31
0.0
  0
LINE
  5
A24
330
8D6
100
AcDbEntity
  8
0
 62
     0
100
AcDbLine
 10
-43.74346112384134
 20
-273.3763883141726
 30
0.0
 11
-43.11146661763936
 21
-272.7443938079706
 31
0.0
  0
LINE
  5
A25
330
8D6
100
AcDbEntity
  8
0
 62
     0
100
AcDbLine
 10
-42.64578645517471
 20
-272.278713645506
 30
0.0
 11
-42.5459978489323
 21
-272.1789250392636
 31
0.0
  0
LINE
  5
A26
330
8D6
100
AcDbEntity
  8
0
 62
     0
100
AcDbLine
 10
-43.89035698266545
 20
-273.3907016515242
 30
0.0
 11
-43.78821304827627
 21
-273.2885577171351
 31
0.0
  0
LINE
  5
A27
330
8D6
100
AcDbEntity
  8
0
 62
     0
100
AcDbLine
 10
-41.50723947889893
 20
-271.0075841477578
 30
0.0
 11
-40.61247028944587
 21
-270.1128149583047
 31
0.0
  0
LINE
  5
A28
330
8D6
100
AcDbEntity
  8
0
 62
     0
100
AcDbLine
 10
-43.78821304827627
 20
-273.2885577171351
 30
0.0
 11
-43.15621854207427
 21
-272.6565632109331
 31
0.0
  0
LINE
  5
A29
330
8D6
100
AcDbEntity
  8
0
 62
     0
100
AcDbLine
 10
-42.69053837960965
 20
-272.1908830484685
 30
0.0
 11
-42.59074977336722
 21
-272.0910944422261
 31
0.0
  0
LINE
  5
A2A
330
8D6
100
AcDbEntity
  8
0
 62
     0
100
AcDbLine
 10
-43.93510890710039
 20
-273.3028710544867
 30
0.0
 11
-43.83296497271119
 21
-273.2007271200976
 31
0.0
  0
LINE
  5
A2B
330
8D6
100
AcDbEntity
  8
0
 62
     0
100
AcDbLine
 10
-41.63982200037142
 20
-271.0075841477578
 30
0.0
 11
-40.74505281091837
 21
-270.1128149583047
 31
0.0
  0
LINE
  5
A2C
330
8D6
100
AcDbEntity
  8
0
 62
     0
100
AcDbLine
 10
-43.83296497271119
 20
-273.2007271200975
 30
0.0
 11
-43.2009704665092
 21
-272.5687326138955
 31
0.0
  0
LINE
  5
A2D
330
8D6
100
AcDbEntity
  8
0
 62
     0
100
AcDbLine
 10
-42.73529030404456
 20
-272.1030524514309
 30
0.0
 11
-42.63550169780215
 21
-272.0032638451885
 31
0.0
  0
LINE
  5
A2E
330
8D6
100
AcDbEntity
  8
0
 62
     0
100
AcDbLine
 10
-43.97986083153529
 20
-273.2150404574491
 30
0.0
 11
-43.87771689714611
 21
-273.11289652306
 31
0.0
  0
LINE
  5
A2F
330
8D6
100
AcDbEntity
  8
0
 62
     0
100
AcDbLine
 10
-41.7724045218439
 20
-271.0075841477578
 30
0.0
 11
-40.87763533239084
 21
-270.1128149583047
 31
0.0
  0
LINE
  5
A30
330
8D6
100
AcDbEntity
  8
0
 62
     0
100
AcDbLine
 10
-43.87771689714612
 20
-273.11289652306
 30
0.0
 11
-43.24572239094412
 21
-272.480902016858
 31
0.0
  0
LINE
  5
A31
330
8D6
100
AcDbEntity
  8
0
 62
     0
100
AcDbLine
 10
-42.78004222847949
 20
-272.0152218543934
 30
0.0
 11
-42.68025362223707
 21
-271.9154332481509
 31
0.0
  0
LINE
  5
A32
330
8D6
100
AcDbEntity
  8
0
 62
     0
100
AcDbLine
 10
-44.02461275597022
 20
-273.1272098604116
 30
0.0
 11
-43.92246882158103
 21
-273.0250659260224
 31
0.0
  0
LINE
  5
A33
330
8D6
100
AcDbEntity
  8
0
 62
     0
100
AcDbLine
 10
-41.90498704331639
 20
-271.0075841477578
 30
0.0
 11
-41.01021785386333
 21
-270.1128149583047
 31
0.0
  0
LINE
  5
A34
330
8D6
100
AcDbEntity
  8
0
 62
     0
100
AcDbLine
 10
-43.92246882158103
 20
-273.0250659260224
 30
0.0
 11
-43.29047431537905
 21
-272.3930714198204
 31
0.0
  0
LINE
  5
A35
330
8D6
100
AcDbEntity
  8
0
 62
     0
100
AcDbLine
 10
-42.8247941529144
 20
-271.9273912573558
 30
0.0
 11
-42.72500554667199
 21
-271.8276026511134
 31
0.0
  0
LINE
  5
A36
330
8D6
100
AcDbEntity
  8
0
 62
     0
100
AcDbLine
 10
-44.06936468040514
 20
-273.0393792633741
 30
0.0
 11
-43.96722074601596
 21
-272.9372353289849
 31
0.0
  0
LINE
  5
A37
330
8D6
100
AcDbEntity
  8
0
 62
     0
100
AcDbLine
 10
-42.03756956478883
 20
-271.0075841477578
 30
0.0
 11
-41.14280037533577
 21
-270.1128149583047
 31
0.0
  0
LINE
  5
A38
330
8D6
100
AcDbEntity
  8
0
 62
     0
100
AcDbLine
 10
-43.96722074601596
 20
-272.9372353289849
 30
0.0
 11
-43.33522623981397
 21
-272.3052408227829
 31
0.0
  0
LINE
  5
A39
330
8D6
100
AcDbEntity
  8
0
 62
     0
100
AcDbLine
 10
-42.86954607734934
 20
-271.8395606603182
 30
0.0
 11
-42.76975747110692
 21
-271.7397720540759
 31
0.0
  0
LINE
  5
A3A
330
8D6
100
AcDbEntity
  8
0
 62
     0
100
AcDbLine
 10
-44.11411660484007
 20
-272.9515486663365
 30
0.0
 11
-44.01197267045088
 21
-272.8494047319474
 31
0.0
  0
LINE
  5
A3B
330
8D6
100
AcDbEntity
  8
0
 62
     0
100
AcDbLine
 10
-42.17015208626132
 20
-271.0075841477578
 30
0.0
 11
-41.27538289680827
 21
-270.1128149583047
 31
0.0
  0
LINE
  5
A3C
330
8D6
100
AcDbEntity
  8
0
 62
     0
100
AcDbLine
 10
-44.01197267045089
 20
-272.8494047319474
 30
0.0
 11
-43.3799781642489
 21
-272.2174102257453
 31
0.0
  0
LINE
  5
A3D
330
8D6
100
AcDbEntity
  8
0
 62
     0
100
AcDbLine
 10
-42.91429800178426
 20
-271.7517300632807
 30
0.0
 11
-42.81450939554184
 21
-271.6519414570383
 31
0.0
  0
LINE
  5
A3E
330
8D6
100
AcDbEntity
  8
0
 62
     0
100
AcDbLine
 10
-43.03552049306387
 20
-271.8729525545603
 30
0.0
 11
-42.91429800178426
 21
-271.7517300632807
 31
0.0
  0
LINE
  5
A3F
330
8D6
100
AcDbEntity
  8
0
 62
     0
100
AcDbLine
 10
-44.15886852927499
 20
-272.8637180692989
 30
0.0
 11
-44.0567245948858
 21
-272.7615741349098
 31
0.0
  0
LINE
  5
A40
330
8D6
100
AcDbEntity
  8
0
 62
     0
100
AcDbLine
 10
-42.30273460773381
 20
-271.0075841477578
 30
0.0
 11
-41.40796541828075
 21
-270.1128149583047
 31
0.0
  0
LINE
  5
A41
330
8D6
100
AcDbEntity
  8
0
 62
     0
100
AcDbLine
 10
-44.05672459488581
 20
-272.7615741349098
 30
0.0
 11
-43.42473008868381
 21
-272.1295796287078
 31
0.0
  0
LINE
  5
A42
330
8D6
100
AcDbEntity
  8
0
 62
     0
100
AcDbLine
 10
-42.95904992621917
 20
-271.6638994662432
 30
0.0
 11
-42.85926131997678
 21
-271.5641108600007
 31
0.0
  0
LINE
  5
A43
330
8D6
100
AcDbEntity
  8
0
 62
     0
100
AcDbLine
 10
-43.30583527562661
 20
-272.0106848156506
 30
0.0
 11
-43.03567928394395
 21
-271.7405288239679
 31
0.0
  0
LINE
  5
A44
330
8D6
100
AcDbEntity
  8
0
 62
     0
100
AcDbLine
 10
-44.20362045370992
 20
-272.7758874722614
 30
0.0
 11
-44.10147651932073
 21
-272.6737435378722
 31
0.0
  0
LINE
  5
A45
330
8D6
100
AcDbEntity
  8
0
 62
     0
100
AcDbLine
 10
-42.43531712920629
 20
-271.0075841477578
 30
0.0
 11
-41.54054793975324
 21
-270.1128149583047
 31
0.0
  0
LINE
  5
A46
330
8D6
100
AcDbEntity
  8
0
 62
     0
100
AcDbLine
 10
-44.10147651932073
 20
-272.6737435378722
 30
0.0
 11
-43.57615005818931
 21
-272.1484170767408
 31
0.0
  0
LINE
  5
A47
330
8D6
100
AcDbEntity
  8
0
 62
     0
100
AcDbLine
 10
-43.00380185065409
 20
-271.5760688692056
 30
0.0
 11
-42.9040132444117
 21
-271.4762802629631
 31
0.0
  0
LINE
  5
A48
330
8D6
100
AcDbEntity
  8
0
 62
     0
100
AcDbLine
 10
-43.57615005818945
 20
-272.1484170767408
 30
0.0
 11
-43.29449434520518
 21
-271.8667613637567
 31
0.0
  0
LINE
  5
A49
330
8D6
100
AcDbEntity
  8
0
 62
     0
100
AcDbLine
 10
-44.24837237814484
 20
-272.6880568752238
 30
0.0
 11
-44.14622844375565
 21
-272.5859129408347
 31
0.0
  0
LINE
  5
A4A
330
8D6
100
AcDbEntity
  8
0
 62
     0
100
AcDbLine
 10
-42.56789965067877
 20
-271.0075841477578
 30
0.0
 11
-41.67313046122571
 21
-270.1128149583047
 31
0.0
  0
LINE
  5
A4B
330
8D6
100
AcDbEntity
  8
0
 62
     0
100
AcDbLine
 10
-44.14622844375567
 20
-272.5859129408347
 30
0.0
 11
-43.81389900091518
 21
-272.2535834979942
 31
0.0
  0
LINE
  5
A4C
330
8D6
100
AcDbEntity
  8
0
 62
     0
100
AcDbLine
 10
-43.04855377508903
 20
-271.488238272168
 30
0.0
 11
-42.94876516884662
 21
-271.3884496659257
 31
0.0
  0
LINE
  5
A4D
330
8D6
100
AcDbEntity
  8
0
 62
     0
100
AcDbLine
 10
-43.81389900091516
 20
-272.2535834979942
 30
0.0
 11
-43.5533094064665
 21
-271.9929939035455
 31
0.0
  0
LINE
  5
A4E
330
8D6
100
AcDbEntity
  8
0
 62
     0
100
AcDbLine
 10
-43.55330940646641
 20
-271.9929939035454
 30
0.0
 11
-43.51423393755367
 21
-271.9539184346327
 31
0.0
  0
LINE
  5
A4F
330
8D6
100
AcDbEntity
  8
0
 62
     0
100
AcDbLine
 10
-44.29312430257975
 20
-272.6002262781863
 30
0.0
 11
-44.19098036819057
 21
-272.4980823437971
 31
0.0
  0
LINE
  5
A50
330
8D6
100
AcDbEntity
  8
0
 62
     0
100
AcDbLine
 10
-42.70048217215122
 20
-271.0075841477578
 30
0.0
 11
-41.80571298269817
 21
-270.1128149583047
 31
0.0
  0
LINE
  5
A51
330
8D6
100
AcDbEntity
  8
0
 62
     0
100
AcDbLine
 10
-44.19098036819058
 20
-272.4980823437971
 30
0.0
 11
-43.85736435006013
 21
-272.1644663256667
 31
0.0
  0
LINE
  5
A52
330
8D6
100
AcDbEntity
  8
0
 62
     0
100
AcDbLine
 10
-43.09330569952394
 20
-271.4004076751304
 30
0.0
 11
-42.99351709328155
 21
-271.3006190688881
 31
0.0
  0
LINE
  5
A53
330
8D6
100
AcDbEntity
  8
0
 62
     0
100
AcDbLine
 10
-43.85736435006017
 20
-272.1644663256666
 30
0.0
 11
-43.81212446772781
 21
-272.1192264433343
 31
0.0
  0
LINE
  5
A54
330
8D6
100
AcDbEntity
  8
0
 62
     0
100
AcDbLine
 10
-43.81212446772774
 20
-272.1192264433343
 30
0.0
 11
-43.5589858619886
 21
-271.8660878375951
 31
0.0
  0
LINE
  5
A55
330
8D6
100
AcDbEntity
  8
0
 62
     0
100
AcDbLine
 10
-44.33787622701468
 20
-272.5123956811487
 30
0.0
 11
-44.23573229262551
 21
-272.4102517467596
 31
0.0
  0
LINE
  5
A56
330
8D6
100
AcDbEntity
  8
0
 62
     0
100
AcDbLine
 10
-42.83306469362371
 20
-271.0075841477578
 30
0.0
 11
-41.93829550417065
 21
-270.1128149583047
 31
0.0
  0
LINE
  5
A57
330
8D6
100
AcDbEntity
  8
0
 62
     0
100
AcDbLine
 10
-44.23573229262551
 20
-272.4102517467596
 30
0.0
 11
-43.60373778642352
 21
-271.7782572405575
 31
0.0
  0
LINE
  5
A58
330
8D6
100
AcDbEntity
  8
0
 62
     0
100
AcDbLine
 10
-43.13805762395886
 20
-271.3125770780929
 30
0.0
 11
-43.03826901771647
 21
-271.2127884718505
 31
0.0
  0
LINE
  5
A59
330
8D6
100
AcDbEntity
  8
0
 62
     0
100
AcDbLine
 10
-44.38262815144962
 20
-272.4245650841112
 30
0.0
 11
-44.28048421706043
 21
-272.3224211497221
 31
0.0
  0
LINE
  5
A5A
330
8D6
100
AcDbEntity
  8
0
 62
     0
100
AcDbLine
 10
-42.9656472150962
 20
-271.0075841477578
 30
0.0
 11
-42.07087802564314
 21
-270.1128149583047
 31
0.0
  0
LINE
  5
A5B
330
8D6
100
AcDbEntity
  8
0
 62
     0
100
AcDbLine
 10
-44.28048421706043
 20
-272.322421149722
 30
0.0
 11
-43.64848971085844
 21
-271.69042664352
 31
0.0
  0
LINE
  5
A5C
330
8D6
100
AcDbEntity
  8
0
 62
     0
100
AcDbLine
 10
-43.18280954839378
 20
-271.2247464810554
 30
0.0
 11
-43.08302094215139
 21
-271.1249578748129
 31
0.0
  0
LINE
  5
A5D
330
8D6
100
AcDbEntity
  8
0
 62
     0
100
AcDbLine
 10
-44.42738007588452
 20
-272.3367344870736
 30
0.0
 11
-44.32523614149536
 21
-272.2345905526844
 31
0.0
  0
LINE
  5
A5E
330
8D6
100
AcDbEntity
  8
0
 62
     0
100
AcDbLine
 10
-43.09822973656867
 20
-271.0075841477578
 30
0.0
 11
-42.20346054711562
 21
-270.1128149583047
 31
0.0
  0
LINE
  5
A5F
330
8D6
100
AcDbEntity
  8
0
 62
     0
100
AcDbLine
 10
-44.32523614149537
 20
-272.2345905526844
 30
0.0
 11
-43.69324163529338
 21
-271.6025960464825
 31
0.0
  0
LINE
  5
A60
330
8D6
100
AcDbEntity
  8
0
 62
     0
100
AcDbLine
 10
-43.22756147282872
 20
-271.1369158840178
 30
0.0
 11
-43.12777286658632
 21
-271.0371272777754
 31
0.0
  0
LINE
  5
A61
330
8D6
100
AcDbEntity
  8
0
 62
     0
100
AcDbLine
 10
-44.47213200031946
 20
-272.2489038900361
 30
0.0
 11
-44.36998806593027
 21
-272.1467599556469
 31
0.0
  0
LINE
  5
A62
330
8D6
100
AcDbEntity
  8
0
 62
     0
100
AcDbLine
 10
-43.23081225804116
 20
-271.0075841477578
 30
0.0
 11
-42.3360430685881
 21
-270.1128149583047
 31
0.0
  0
LINE
  5
A63
330
8D6
100
AcDbEntity
  8
0
 62
     0
100
AcDbLine
 10
-44.36998806593028
 20
-272.1467599556469
 30
0.0
 11
-43.7379935597283
 21
-271.5147654494449
 31
0.0
  0
LINE
  5
A64
330
8D6
100
AcDbEntity
  8
0
 62
     0
100
AcDbLine
 10
-43.27231339726363
 20
-271.0490852869802
 30
0.0
 11
-43.23081225804115
 21
-271.0075841477578
 31
0.0
  0
LINE
  5
A65
330
8D6
100
AcDbEntity
  8
0
 62
     0
100
AcDbLine
 10
-44.51688392475437
 20
-272.1610732929985
 30
0.0
 11
-44.41473999036521
 21
-272.0589293586094
 31
0.0
  0
LINE
  5
A66
330
8D6
100
AcDbEntity
  8
0
 62
     0
100
AcDbLine
 10
-43.36339477951361
 20
-271.0075841477578
 30
0.0
 11
-42.46862559006059
 21
-270.1128149583047
 31
0.0
  0
LINE
  5
A67
330
8D6
100
AcDbEntity
  8
0
 62
     0
100
AcDbLine
 10
-44.4147399903652
 20
-272.0589293586093
 30
0.0
 11
-43.78274548416323
 21
-271.4269348524073
 31
0.0
  0
LINE
  5
A68
330
8D6
100
AcDbEntity
  8
0
 62
     0
100
AcDbLine
 10
-44.5616358491893
 20
-272.0732426959609
 30
0.0
 11
-44.45949191480012
 21
-271.9710987615718
 31
0.0
  0
LINE
  5
A69
330
8D6
100
AcDbEntity
  8
0
 62
     0
100
AcDbLine
 10
-43.4959773009861
 20
-271.0075841477578
 30
0.0
 11
-42.60120811153304
 21
-270.1128149583047
 31
0.0
  0
LINE
  5
A6A
330
8D6
100
AcDbEntity
  8
0
 62
     0
100
AcDbLine
 10
-44.45949191480013
 20
-271.9710987615718
 30
0.0
 11
-43.82749740859814
 21
-271.3391042553698
 31
0.0
  0
LINE
  5
A6B
330
8D6
100
AcDbEntity
  8
0
 62
     0
100
AcDbLine
 10
-44.60638777362423
 20
-271.9854120989233
 30
0.0
 11
-44.50424383923505
 21
-271.8832681645342
 31
0.0
  0
LINE
  5
A6C
330
8D6
100
AcDbEntity
  8
0
 62
     0
100
AcDbLine
 10
-43.62855982245858
 20
-271.0075841477578
 30
0.0
 11
-42.73379063300552
 21
-270.1128149583047
 31
0.0
  0
LINE
  5
A6D
330
8D6
100
AcDbEntity
  8
0
 62
     0
100
AcDbLine
 10
-44.50424383923506
 20
-271.8832681645342
 30
0.0
 11
-43.87224933303307
 21
-271.2512736583323
 31
0.0
  0
LINE
  5
A6E
330
8D6
100
AcDbEntity
  8
0
 62
     0
100
AcDbLine
 10
-44.65113969805915
 20
-271.8975815018858
 30
0.0
 11
-44.54899576366996
 21
-271.7954375674967
 31
0.0
  0
LINE
  5
A6F
330
8D6
100
AcDbEntity
  8
0
 62
     0
100
AcDbLine
 10
-43.76114234393106
 20
-271.0075841477578
 30
0.0
 11
-42.86637315447801
 21
-270.1128149583047
 31
0.0
  0
LINE
  5
A70
330
8D6
100
AcDbEntity
  8
0
 62
     0
100
AcDbLine
 10
-44.54899576366997
 20
-271.7954375674967
 30
0.0
 11
-43.91700125746799
 21
-271.1634430612947
 31
0.0
  0
LINE
  5
A71
330
8D6
100
AcDbEntity
  8
0
 62
     0
100
AcDbLine
 10
-44.69589162249408
 20
-271.8097509048483
 30
0.0
 11
-44.5937476881049
 21
-271.7076069704591
 31
0.0
  0
LINE
  5
A72
330
8D6
100
AcDbEntity
  8
0
 62
     0
100
AcDbLine
 10
-43.89372486540355
 20
-271.0075841477578
 30
0.0
 11
-42.99895567595049
 21
-270.1128149583047
 31
0.0
  0
LINE
  5
A73
330
8D6
100
AcDbEntity
  8
0
 62
     0
100
AcDbLine
 10
-44.59374768810491
 20
-271.7076069704591
 30
0.0
 11
-43.96175318190293
 21
-271.0756124642572
 31
0.0
  0
LINE
  5
A74
330
8D6
100
AcDbEntity
  8
0
 62
     0
100
AcDbLine
 10
-44.74064354692899
 20
-271.7219203078107
 30
0.0
 11
-44.63849961253981
 21
-271.6197763734216
 31
0.0
  0
LINE
  5
A75
330
8D6
100
AcDbEntity
  8
0
 62
     0
100
AcDbLine
 10
-44.02630738687596
 20
-271.0075841477577
 30
0.0
 11
-43.13153819742297
 21
-270.1128149583047
 31
0.0
  0
LINE
  5
A76
330
8D6
100
AcDbEntity
  8
0
 62
     0
100
AcDbLine
 10
-44.63849961253983
 20
-271.6197763734216
 30
0.0
 11
-44.02630738687603
 21
-271.0075841477578
 31
0.0
  0
LINE
  5
A77
330
8D6
100
AcDbEntity
  8
0
 62
     0
100
AcDbLine
 10
-44.78539547136391
 20
-271.6340897107732
 30
0.0
 11
-44.68325153697474
 21
-271.5319457763841
 31
0.0
  0
LINE
  5
A78
330
8D6
100
AcDbEntity
  8
0
 62
     0
100
AcDbLine
 10
-44.15888990834845
 20
-271.0075841477577
 30
0.0
 11
-43.26412071889542
 21
-270.1128149583047
 31
0.0
  0
LINE
  5
A79
330
8D6
100
AcDbEntity
  8
0
 62
     0
100
AcDbLine
 10
-44.68325153697477
 20
-271.531945776384
 30
0.0
 11
-44.15888990834848
 21
-271.0075841477578
 31
0.0
  0
LINE
  5
A7A
330
8D6
100
AcDbEntity
  8
0
 62
     0
100
AcDbLine
 10
-44.83014739579885
 20
-271.5462591137356
 30
0.0
 11
-44.72800346140967
 21
-271.4441151793465
 31
0.0
  0
LINE
  5
A7B
330
8D6
100
AcDbEntity
  8
0
 62
     0
100
AcDbLine
 10
-44.29147242982091
 20
-271.0075841477577
 30
0.0
 11
-43.39670324036791
 21
-270.1128149583047
 31
0.0
  0
LINE
  5
A7C
330
8D6
100
AcDbEntity
  8
0
 62
     0
100
AcDbLine
 10
-44.72800346140968
 20
-271.4441151793465
 30
0.0
 11
-44.29147242982097
 21
-271.0075841477578
 31
0.0
  0
LINE
  5
A7D
330
8D6
100
AcDbEntity
  8
0
 62
     0
100
AcDbLine
 10
-44.87489932023376
 20
-271.4584285166981
 30
0.0
 11
-44.7727553858446
 21
-271.3562845823089
 31
0.0
  0
LINE
  5
A7E
330
8D6
100
AcDbEntity
  8
0
 62
     0
100
AcDbLine
 10
-44.42405495129341
 20
-271.0075841477577
 30
0.0
 11
-43.5292857618404
 21
-270.1128149583047
 31
0.0
  0
LINE
  5
A7F
330
8D6
100
AcDbEntity
  8
0
 62
     0
100
AcDbLine
 10
-44.77275538584461
 20
-271.3562845823089
 30
0.0
 11
-44.42405495129345
 21
-271.0075841477578
 31
0.0
  0
LINE
  5
A80
330
8D6
100
AcDbEntity
  8
0
 62
     0
100
AcDbLine
 10
-44.91965124466869
 20
-271.3705979196606
 30
0.0
 11
-44.81750731027952
 21
-271.2684539852714
 31
0.0
  0
LINE
  5
A81
330
8D6
100
AcDbEntity
  8
0
 62
     0
100
AcDbLine
 10
-44.55663747276587
 20
-271.0075841477577
 30
0.0
 11
-43.66186828331287
 21
-270.1128149583047
 31
0.0
  0
LINE
  5
A82
330
8D6
100
AcDbEntity
  8
0
 62
     0
100
AcDbLine
 10
-44.81750731027953
 20
-271.2684539852714
 30
0.0
 11
-44.55663747276593
 21
-271.0075841477578
 31
0.0
  0
LINE
  5
A83
330
8D6
100
AcDbEntity
  8
0
 62
     0
100
AcDbLine
 10
-44.96440316910361
 20
-271.282767322623
 30
0.0
 11
-44.86225923471444
 21
-271.1806233882338
 31
0.0
  0
LINE
  5
A84
330
8D6
100
AcDbEntity
  8
0
 62
     0
100
AcDbLine
 10
-44.68921999423836
 20
-271.0075841477577
 30
0.0
 11
-43.79445080478536
 21
-270.1128149583047
 31
0.0
  0
LINE
  5
A85
330
8D6
100
AcDbEntity
  8
0
 62
     0
100
AcDbLine
 10
-44.86225923471446
 20
-271.1806233882338
 30
0.0
 11
-44.68921999423842
 21
-271.0075841477578
 31
0.0
  0
LINE
  5
A86
330
8D6
100
AcDbEntity
  8
0
 62
     0
100
AcDbLine
 10
-45.00915509353854
 20
-271.1949367255854
 30
0.0
 11
-44.93619626528839
 21
-271.1219778973352
 31
0.0
  0
LINE
  5
A87
330
8D6
100
AcDbEntity
  8
0
 62
     0
100
AcDbLine
 10
-44.82180251571087
 20
-271.0075841477578
 30
0.0
 11
-43.92703332625781
 21
-270.1128149583047
 31
0.0
  0
LINE
  5
A88
330
8D6
100
AcDbEntity
  8
0
 62
     0
100
AcDbLine
 10
-44.95438503718335
 20
-271.0075841477578
 30
0.0
 11
-44.0596158477303
 21
-270.1128149583047
 31
0.0
  0
LINE
  5
A89
330
8D6
100
AcDbEntity
  8
0
 62
     0
100
AcDbLine
 10
-45.08696755865584
 20
-271.0075841477578
 30
0.0
 11
-44.19219836920278
 21
-270.1128149583047
 31
0.0
  0
LINE
  5
A8A
330
8D6
100
AcDbEntity
  8
0
 62
     0
100
AcDbLine
 10
-45.21955008012832
 20
-271.0075841477578
 30
0.0
 11
-44.32478089067527
 21
-270.1128149583047
 31
0.0
  0
LINE
  5
A8B
330
8D6
100
AcDbEntity
  8
0
 62
     0
100
AcDbLine
 10
-45.23372463886881
 20
-270.8891761850257
 30
0.0
 11
-44.45736341214774
 21
-270.1128149583047
 31
0.0
  0
LINE
  5
A8C
330
8D6
100
AcDbEntity
  8
0
 62
     0
100
AcDbLine
 10
-45.23372463886881
 20
-270.7565936635533
 30
0.0
 11
-44.5899459336202
 21
-270.1128149583047
 31
0.0
  0
LINE
  5
A8D
330
8D6
100
AcDbEntity
  8
0
 62
     0
100
AcDbLine
 10
-45.23372463886881
 20
-270.6240111420808
 30
0.0
 11
-44.72252845509268
 21
-270.1128149583047
 31
0.0
  0
LINE
  5
A8E
330
8D6
100
AcDbEntity
  8
0
 62
     0
100
AcDbLine
 10
-45.23372463886881
 20
-270.4914286206083
 30
0.0
 11
-44.85511097656517
 21
-270.1128149583047
 31
0.0
  0
LINE
  5
A8F
330
8D6
100
AcDbEntity
  8
0
 62
     0
100
AcDbLine
 10
-45.2337246388688
 20
-270.3588460991359
 30
0.0
 11
-44.98769349803765
 21
-270.1128149583047
 31
0.0
  0
LINE
  5
A90
330
8D6
100
AcDbEntity
  8
0
 62
     0
100
AcDbLine
 10
-45.2337246388688
 20
-270.2262635776634
 30
0.0
 11
-45.12027601951014
 21
-270.1128149583047
 31
0.0
  0
LINE
  5
A91
330
8D6
100
AcDbEntity
  8
0
 62
     0
100
AcDbLine
 10
-39.27512850824
 20
-279.5146574163695
 30
0.0
 11
-38.5413666900566
 21
-278.7808955981861
 31
0.0
  0
LINE
  5
A92
330
8D6
100
AcDbEntity
  8
0
 62
     0
100
AcDbLine
 10
-39.16241960701883
 20
-279.5345310366208
 30
0.0
 11
-38.42865778883542
 21
-278.8007692184374
 31
0.0
  0
LINE
  5
A93
330
8D6
100
AcDbEntity
  8
0
 62
     0
100
AcDbLine
 10
-39.04971070579762
 20
-279.5544046568721
 30
0.0
 11
-38.31594888761424
 21
-278.8206428386887
 31
0.0
  0
LINE
  5
A94
330
8D6
100
AcDbEntity
  8
0
 62
     0
100
AcDbLine
 10
-38.93700180457646
 20
-279.5742782771234
 30
0.0
 11
-38.20323998639308
 21
-278.84051645894
 31
0.0
  0
LINE
  5
A95
330
8D6
100
AcDbEntity
  8
0
 62
     0
100
AcDbLine
 10
-38.82429290335529
 20
-279.5941518973747
 30
0.0
 11
-38.0905310851719
 21
-278.8603900791913
 31
0.0
  0
LINE
  5
A96
330
8D6
100
AcDbEntity
  8
0
 62
     0
100
AcDbLine
 10
-38.71158400213412
 20
-279.614025517626
 30
0.0
 11
-37.97782218395072
 21
-278.8802636994426
 31
0.0
  0
LINE
  5
A97
330
8D6
100
AcDbEntity
  8
0
 62
     0
100
AcDbLine
 10
-38.59887510091292
 20
-279.6338991378773
 30
0.0
 11
-37.86511328272954
 21
-278.9001373196939
 31
0.0
  0
LINE
  5
A98
330
8D6
100
AcDbEntity
  8
0
 62
     0
100
AcDbLine
 10
-38.48616619969174
 20
-279.6537727581286
 30
0.0
 11
-37.75240438150836
 21
-278.9200109399452
 31
0.0
  0
LINE
  5
A99
330
8D6
100
AcDbEntity
  8
0
 62
     0
100
AcDbLine
 10
-38.37345729847058
 20
-279.6736463783799
 30
0.0
 11
-37.63969548028717
 21
-278.9398845601965
 31
0.0
  0
LINE
  5
A9A
330
8D6
100
AcDbEntity
  8
0
 62
     0
100
AcDbLine
 10
-38.26074839724942
 20
-279.6935199986312
 30
0.0
 11
-37.526986579066
 21
-278.9597581804478
 31
0.0
  0
LINE
  5
A9B
330
8D6
100
AcDbEntity
  8
0
 62
     0
100
AcDbLine
 10
-38.14803949602821
 20
-279.7133936188825
 30
0.0
 11
-37.41427767784482
 21
-278.9796318006991
 31
0.0
  0
LINE
  5
A9C
330
8D6
100
AcDbEntity
  8
0
 62
     0
100
AcDbLine
 10
-38.03533059480704
 20
-279.7332672391338
 30
0.0
 11
-37.30156877662363
 21
-278.9995054209504
 31
0.0
  0
LINE
  5
A9D
330
8D6
100
AcDbEntity
  8
0
 62
     0
100
AcDbLine
 10
-37.92262169358588
 20
-279.7531408593851
 30
0.0
 11
-37.18885987540245
 21
-279.0193790412017
 31
0.0
  0
LINE
  5
A9E
330
8D6
100
AcDbEntity
  8
0
 62
     0
100
AcDbLine
 10
-37.80991279236471
 20
-279.7730144796364
 30
0.0
 11
-37.07615097418127
 21
-279.039252661453
 31
0.0
  0
LINE
  5
A9F
330
8D6
100
AcDbEntity
  8
0
 62
     0
100
AcDbLine
 10
-37.6972038911435
 20
-279.7928880998877
 30
0.0
 11
-36.96344207296009
 21
-279.0591262817043
 31
0.0
  0
LINE
  5
AA0
330
8D6
100
AcDbEntity
  8
0
 62
     0
100
AcDbLine
 10
-37.58449498992233
 20
-279.812761720139
 30
0.0
 11
-36.85073317173891
 21
-279.0789999019556
 31
0.0
  0
LINE
  5
AA1
330
8D6
100
AcDbEntity
  8
0
 62
     0
100
AcDbLine
 10
-37.47178608870117
 20
-279.8326353403903
 30
0.0
 11
-36.73802427051778
 21
-279.0988735222069
 31
0.0
  0
LINE
  5
AA2
330
8D6
100
AcDbEntity
  8
0
 62
     0
100
AcDbLine
 10
-37.35907718748001
 20
-279.8525089606416
 30
0.0
 11
-36.62531536929659
 21
-279.1187471424582
 31
0.0
  0
LINE
  5
AA3
330
8D6
100
AcDbEntity
  8
0
 62
     0
100
AcDbLine
 10
-37.24636828625879
 20
-279.8723825808929
 30
0.0
 11
-36.51260646807542
 21
-279.1386207627095
 31
0.0
  0
LINE
  5
AA4
330
8D6
100
AcDbEntity
  8
0
 62
     0
100
AcDbLine
 10
-37.13365938503763
 20
-279.8922562011442
 30
0.0
 11
-36.39989756685424
 21
-279.1584943829608
 31
0.0
  0
LINE
  5
AA5
330
8D6
100
AcDbEntity
  8
0
 62
     0
100
AcDbLine
 10
-37.02095048381647
 20
-279.9121298213955
 30
0.0
 11
-36.28718866563306
 21
-279.1783680032121
 31
0.0
  0
LINE
  5
AA6
330
8D6
100
AcDbEntity
  8
0
 62
     0
100
AcDbLine
 10
-36.9082415825953
 20
-279.9320034416468
 30
0.0
 11
-36.17447976441188
 21
-279.1982416234634
 31
0.0
  0
LINE
  5
AA7
330
8D6
100
AcDbEntity
  8
0
 62
     0
100
AcDbLine
 10
-36.79553268137409
 20
-279.9518770618981
 30
0.0
 11
-36.0617708631907
 21
-279.2181152437147
 31
0.0
  0
LINE
  5
AA8
330
8D6
100
AcDbEntity
  8
0
 62
     0
100
AcDbLine
 10
-36.68282378015292
 20
-279.9717506821494
 30
0.0
 11
-35.94906196196951
 21
-279.237988863966
 31
0.0
  0
LINE
  5
AA9
330
8D6
100
AcDbEntity
  8
0
 62
     0
100
AcDbLine
 10
-36.57011487893175
 20
-279.9916243024007
 30
0.0
 11
-35.83635306074833
 21
-279.2578624842173
 31
0.0
  0
LINE
  5
AAA
330
8D6
100
AcDbEntity
  8
0
 62
     0
100
AcDbLine
 10
-36.45740597771059
 20
-280.011497922652
 30
0.0
 11
-35.72364415952716
 21
-279.2777361044686
 31
0.0
  0
LINE
  5
AAB
330
8D6
100
AcDbEntity
  8
0
 62
     0
100
AcDbLine
 10
-36.34469707648938
 20
-280.0313715429033
 30
0.0
 11
-35.61093525830597
 21
-279.2976097247199
 31
0.0
  0
LINE
  5
AAC
330
8D6
100
AcDbEntity
  8
0
 62
     0
100
AcDbLine
 10
-36.23198817526822
 20
-280.0512451631546
 30
0.0
 11
-35.49822635708479
 21
-279.3174833449712
 31
0.0
  0
LINE
  5
AAD
330
8D6
100
AcDbEntity
  8
0
 62
     0
100
AcDbLine
 10
-36.11927927404706
 20
-280.0711187834059
 30
0.0
 11
-35.38551745586361
 21
-279.3373569652225
 31
0.0
  0
LINE
  5
AAE
330
8D6
100
AcDbEntity
  8
0
 62
     0
100
AcDbLine
 10
-36.00657037282589
 20
-280.0909924036572
 30
0.0
 11
-35.27280855464243
 21
-279.3572305854738
 31
0.0
  0
LINE
  5
AAF
330
8D6
100
AcDbEntity
  8
0
 62
     0
100
AcDbLine
 10
-35.89386147160467
 20
-280.1108660239085
 30
0.0
 11
-35.16009965342125
 21
-279.3771042057251
 31
0.0
  0
LINE
  5
AB0
330
8D6
100
AcDbEntity
  8
0
 62
     0
100
AcDbLine
 10
-35.78115257038351
 20
-280.1307396441598
 30
0.0
 11
-35.04739075220007
 21
-279.3969778259764
 31
0.0
  0
LINE
  5
AB1
330
8D6
100
AcDbEntity
  8
0
 62
     0
100
AcDbLine
 10
-35.66844366916234
 20
-280.1506132644111
 30
0.0
 11
-34.93468185097889
 21
-279.4168514462277
 31
0.0
  0
LINE
  5
AB2
330
8D6
100
AcDbEntity
  8
0
 62
     0
100
AcDbLine
 10
-35.55573476794118
 20
-280.1704868846624
 30
0.0
 11
-34.82197294975771
 21
-279.436725066479
 31
0.0
  0
LINE
  5
AB3
330
8D6
100
AcDbEntity
  8
0
 62
     0
100
AcDbLine
 10
-35.44302586671997
 20
-280.1903605049137
 30
0.0
 11
-34.70926404853658
 21
-279.4565986867303
 31
0.0
  0
LINE
  5
AB4
330
8D6
100
AcDbEntity
  8
0
 62
     0
100
AcDbLine
 10
-35.3303169654988
 20
-280.210234125165
 30
0.0
 11
-34.59655514731539
 21
-279.4764723069816
 31
0.0
  0
LINE
  5
AB5
330
8D6
100
AcDbEntity
  8
0
 62
     0
100
AcDbLine
 10
-35.21760806427764
 20
-280.2301077454163
 30
0.0
 11
-34.48384624609421
 21
-279.496345927233
 31
0.0
  0
LINE
  5
AB6
330
8D6
100
AcDbEntity
  8
0
 62
     0
100
AcDbLine
 10
-35.10489916305647
 20
-280.2499813656676
 30
0.0
 11
-34.65961316436878
 21
-279.80469536698
 31
0.0
  0
LINE
  5
AB7
330
8D6
100
AcDbEntity
  8
0
 62
     0
100
AcDbLine
 10
-34.49507239555112
 20
-279.6401545981623
 30
0.0
 11
-34.37113734487303
 21
-279.5162195474842
 31
0.0
  0
LINE
  5
AB8
330
8D6
100
AcDbEntity
  8
0
 62
     0
100
AcDbLine
 10
-34.65961316436874
 20
-279.8046953669799
 30
0.0
 11
-34.49507239555113
 21
-279.6401545981623
 31
0.0
  0
LINE
  5
AB9
330
8D6
100
AcDbEntity
  8
0
 62
     0
100
AcDbLine
 10
-34.99219026183526
 20
-280.2698549859189
 30
0.0
 11
-34.61254978408334
 21
-279.890214508167
 31
0.0
  0
LINE
  5
ABA
330
8D6
100
AcDbEntity
  8
0
 62
     0
100
AcDbLine
 10
-34.4505443932725
 20
-279.7282091173562
 30
0.0
 11
-34.25842844365185
 21
-279.5360931677355
 31
0.0
  0
LINE
  5
ABB
330
8D6
100
AcDbEntity
  8
0
 62
     0
100
AcDbLine
 10
-34.61254978408327
 20
-279.8902145081669
 30
0.0
 11
-34.45054439327251
 21
-279.7282091173562
 31
0.0
  0
LINE
  5
ABC
330
8D6
100
AcDbEntity
  8
0
 62
     0
100
AcDbLine
 10
-34.8794813606141
 20
-280.2897286061702
 30
0.0
 11
-34.56548640379791
 21
-279.975733649354
 31
0.0
  0
LINE
  5
ABD
330
8D6
100
AcDbEntity
  8
0
 62
     0
100
AcDbLine
 10
-34.40601639099387
 20
-279.81626363655
 30
0.0
 11
-34.18212969867614
 21
-279.5923769442322
 31
0.0
  0
LINE
  5
ABE
330
8D6
100
AcDbEntity
  8
0
 62
     0
100
AcDbLine
 10
-34.5654864037978
 20
-279.975733649354
 30
0.0
 11
-34.4060163909939
 21
-279.81626363655
 31
0.0
  0
LINE
  5
ABF
330
8D6
100
AcDbEntity
  8
0
 62
     0
100
AcDbLine
 10
-34.76677245939293
 20
-280.3096022264215
 30
0.0
 11
-34.51842302351247
 21
-280.0612527905411
 31
0.0
  0
LINE
  5
AC0
330
8D6
100
AcDbEntity
  8
0
 62
     0
100
AcDbLine
 10
-34.36148838871525
 20
-279.9043181557439
 30
0.0
 11
-34.21610863625688
 21
-279.7589384032855
 31
0.0
  0
LINE
  5
AC1
330
8D6
100
AcDbEntity
  8
0
 62
     0
100
AcDbLine
 10
-34.51842302351233
 20
-280.0612527905409
 30
0.0
 11
-34.36148838871528
 21
-279.9043181557439
 31
0.0
  0
LINE
  5
AC2
330
8D6
100
AcDbEntity
  8
0
 62
     0
100
AcDbLine
 10
-34.65406355817177
 20
-280.3294758466728
 30
0.0
 11
-34.47135964322703
 21
-280.1467719317281
 31
0.0
  0
LINE
  5
AC3
330
8D6
100
AcDbEntity
  8
0
 62
     0
100
AcDbLine
 10
-34.31696038643663
 20
-279.9923726749377
 30
0.0
 11
-34.25008757383762
 21
-279.9254998623387
 31
0.0
  0
LINE
  5
AC4
330
8D6
100
AcDbEntity
  8
0
 62
     0
100
AcDbLine
 10
-34.47135964322686
 20
-280.1467719317279
 30
0.0
 11
-34.31696038643667
 21
-279.9923726749378
 31
0.0
  0
LINE
  5
AC5
330
8D6
100
AcDbEntity
  8
0
 62
     0
100
AcDbLine
 10
-34.54135465695056
 20
-280.3493494669242
 30
0.0
 11
-34.4242962629416
 21
-280.2322910729151
 31
0.0
  0
LINE
  5
AC6
330
8D6
100
AcDbEntity
  8
0
 62
     0
100
AcDbLine
 10
-34.42429626294139
 20
-280.232291072915
 30
0.0
 11
-34.27243238415805
 21
-280.0804271941316
 31
0.0
  0
LINE
  5
AC7
330
8D6
100
AcDbEntity
  8
0
 62
     0
100
AcDbLine
 10
-34.42864575572939
 20
-280.3692230871754
 30
0.0
 11
-34.37723288265617
 21
-280.3178102141022
 31
0.0
  0
LINE
  5
AC8
330
8D6
100
AcDbEntity
  8
0
 62
     0
100
AcDbLine
 10
-34.23763487951733
 20
-280.1782122109634
 30
0.0
 11
-34.22790438187941
 21
-280.1684817133254
 31
0.0
  0
LINE
  5
AC9
330
8D6
100
AcDbEntity
  8
0
 62
     0
100
AcDbLine
 10
-34.37723288265592
 20
-280.317810214102
 30
0.0
 11
-34.32222178119469
 21
-280.2627991126407
 31
0.0
  0
LINE
  5
ACA
330
8D6
100
AcDbEntity
  8
0
 62
     0
100
AcDbLine
 10
-34.3180454489991
 20
-280.2586227804452
 30
0.0
 11
-34.23763487951734
 21
-280.1782122109634
 31
0.0
  0
LINE
  5
ACB
330
8D6
100
AcDbEntity
  8
0
 62
     0
100
AcDbLine
 10
-34.33279649784393
 20
-280.4059563507625
 30
0.0
 11
-34.31594377963411
 21
-280.3891036325526
 31
0.0
  0
LINE
  5
ACC
330
8D6
100
AcDbEntity
  8
0
 62
     0
100
AcDbLine
 10
-34.31594377963405
 20
-280.3891036325526
 30
0.0
 11
-34.12832042519916
 21
-280.2014802781177
 31
0.0
  0
LINE
  5
ACD
330
8D6
100
AcDbEntity
  8
0
 62
     0
100
AcDbLine
 10
-34.2886183190611
 20
-280.4943606934521
 30
0.0
 11
-34.20326302751831
 21
-280.4090054019093
 31
0.0
  0
LINE
  5
ACE
330
8D6
100
AcDbEntity
  8
0
 62
     0
100
AcDbLine
 10
-34.01900597088106
 20
-280.224748345272
 30
0.0
 11
-34.00684354492805
 21
-280.2125859193191
 31
0.0
  0
LINE
  5
ACF
330
8D6
100
AcDbEntity
  8
0
 62
     0
100
AcDbLine
 10
-34.20326302751827
 20
-280.4090054019093
 30
0.0
 11
-34.01900597088101
 21
-280.224748345272
 31
0.0
  0
LINE
  5
AD0
330
8D6
100
AcDbEntity
  8
0
 62
     0
100
AcDbLine
 10
-34.24444014027825
 20
-280.5827650361417
 30
0.0
 11
-34.09058227540249
 21
-280.4289071712659
 31
0.0
  0
LINE
  5
AD1
330
8D6
100
AcDbEntity
  8
0
 62
     0
100
AcDbLine
 10
-33.90969151656292
 20
-280.2480164124263
 30
0.0
 11
-33.73652476279732
 21
-280.0748496586608
 31
0.0
  0
LINE
  5
AD2
330
8D6
100
AcDbEntity
  8
0
 62
     0
100
AcDbLine
 10
-34.09058227540246
 20
-280.4289071712659
 30
0.0
 11
-33.90969151656286
 21
-280.2480164124263
 31
0.0
  0
LINE
  5
AD3
330
8D6
100
AcDbEntity
  8
0
 62
     0
100
AcDbLine
 10
-34.20026196149541
 20
-280.6711693788314
 30
0.0
 11
-33.9779015232867
 21
-280.4488089406227
 31
0.0
  0
LINE
  5
AD4
330
8D6
100
AcDbEntity
  8
0
 62
     0
100
AcDbLine
 10
-33.80037706224471
 20
-280.2712844795807
 30
0.0
 11
-33.56665993146914
 21
-280.0375673488051
 31
0.0
  0
LINE
  5
AD5
330
8D6
100
AcDbEntity
  8
0
 62
     0
100
AcDbLine
 10
-33.97790152328667
 20
-280.4488089406226
 30
0.0
 11
-33.80037706224476
 21
-280.2712844795808
 31
0.0
  0
LINE
  5
AD6
330
8D6
100
AcDbEntity
  8
0
 62
     0
100
AcDbLine
 10
-34.15608378271257
 20
-280.759573721521
 30
0.0
 11
-33.86522077117088
 21
-280.4687107099793
 31
0.0
  0
LINE
  5
AD7
330
8D6
100
AcDbEntity
  8
0
 62
     0
100
AcDbLine
 10
-33.69106260792654
 20
-280.294552546735
 30
0.0
 11
-33.52248175268631
 21
-280.1259716914947
 31
0.0
  0
LINE
  5
AD8
330
8D6
100
AcDbEntity
  8
0
 62
     0
100
AcDbLine
 10
-33.86522077117085
 20
-280.4687107099793
 30
0.0
 11
-33.69106260792662
 21
-280.2945525467351
 31
0.0
  0
LINE
  5
AD9
330
8D6
100
AcDbEntity
  8
0
 62
     0
100
AcDbLine
 10
-34.11190560392971
 20
-280.8479780642106
 30
0.0
 11
-33.75254001905505
 21
-280.488612479336
 31
0.0
  0
LINE
  5
ADA
330
8D6
100
AcDbEntity
  8
0
 62
     0
100
AcDbLine
 10
-33.59453372366715
 20
-280.330606183948
 30
0.0
 11
-33.47830357390347
 21
-280.2143760341844
 31
0.0
  0
LINE
  5
ADB
330
8D6
100
AcDbEntity
  8
0
 62
     0
100
AcDbLine
 10
-33.75254001905507
 20
-280.4886124793359
 30
0.0
 11
-33.59453372366719
 21
-280.3306061839481
 31
0.0
  0
LINE
  5
ADC
330
8D6
100
AcDbEntity
  8
0
 62
     0
100
AcDbLine
 10
-34.06772742514688
 20
-280.9363824069003
 30
0.0
 11
-33.64145204273529
 21
-280.5101070244887
 31
0.0
  0
LINE
  5
ADD
330
8D6
100
AcDbEntity
  8
0
 62
     0
100
AcDbLine
 10
-33.62039977625162
 20
-280.489054758005
 30
0.0
 11
-33.43412539512061
 21
-280.302780376874
 31
0.0
  0
LINE
  5
ADE
330
8D6
100
AcDbEntity
  8
0
 62
     0
100
AcDbLine
 10
-33.64145204273528
 20
-280.5101070244887
 30
0.0
 11
-33.62039977625164
 21
-280.489054758005
 31
0.0
  0
LINE
  5
ADF
330
8D6
100
AcDbEntity
  8
0
 62
     0
100
AcDbLine
 10
-34.02354924636404
 20
-281.0247867495899
 30
0.0
 11
-33.38994721633778
 21
-280.3911847195636
 31
0.0
  0
LINE
  5
AE0
330
8D6
100
AcDbEntity
  8
0
 62
     0
100
AcDbLine
 10
-33.97937106758119
 20
-281.1131910922795
 30
0.0
 11
-33.34576903755494
 21
-280.4795890622533
 31
0.0
  0
LINE
  5
AE1
330
8D6
100
AcDbEntity
  8
0
 62
     0
100
AcDbLine
 10
-33.93519288879836
 20
-281.2015954349691
 30
0.0
 11
-33.30159085877209
 21
-280.567993404943
 31
0.0
  0
LINE
  5
AE2
330
8D6
100
AcDbEntity
  8
0
 62
     0
100
AcDbLine
 10
-33.89101471001551
 20
-281.2899997776588
 30
0.0
 11
-33.25741267998925
 21
-280.6563977476325
 31
0.0
  0
LINE
  5
AE3
330
8D6
100
AcDbEntity
  8
0
 62
     0
100
AcDbLine
 10
-33.84683653123266
 20
-281.3784041203485
 30
0.0
 11
-33.21323450120642
 21
-280.7448020903222
 31
0.0
  0
LINE
  5
AE4
330
8D6
100
AcDbEntity
  8
0
 62
     0
100
AcDbLine
 10
-33.80265835244982
 20
-281.4668084630381
 30
0.0
 11
-33.16905632242356
 21
-280.8332064330118
 31
0.0
  0
LINE
  5
AE5
330
8D6
100
AcDbEntity
  8
0
 62
     0
100
AcDbLine
 10
-33.75848017366698
 20
-281.5552128057277
 30
0.0
 11
-33.12487814364072
 21
-280.9216107757015
 31
0.0
  0
LINE
  5
AE6
330
8D6
100
AcDbEntity
  8
0
 62
     0
100
AcDbLine
 10
-33.71430199488414
 20
-281.6436171484174
 30
0.0
 11
-33.08069996485789
 21
-281.010015118391
 31
0.0
  0
LINE
  5
AE7
330
8D6
100
AcDbEntity
  8
0
 62
     0
100
AcDbLine
 10
-33.6701238161013
 20
-281.732021491107
 30
0.0
 11
-33.03652178607503
 21
-281.0984194610807
 31
0.0
  0
LINE
  5
AE8
330
8D6
100
AcDbEntity
  8
0
 62
     0
100
AcDbLine
 10
-33.62594563731845
 20
-281.8204258337966
 30
0.0
 11
-32.9923436072922
 21
-281.1868238037704
 31
0.0
  0
LINE
  5
AE9
330
8D6
100
AcDbEntity
  8
0
 62
     0
100
AcDbLine
 10
-33.58176745853561
 20
-281.9088301764862
 30
0.0
 11
-32.94816542850937
 21
-281.2752281464601
 31
0.0
  0
LINE
  5
AEA
330
8D6
100
AcDbEntity
  8
0
 62
     0
100
AcDbLine
 10
-33.53758927975277
 20
-281.9972345191759
 30
0.0
 11
-32.90398724972653
 21
-281.3636324891497
 31
0.0
  0
LINE
  5
AEB
330
8D6
100
AcDbEntity
  8
0
 62
     0
100
AcDbLine
 10
-33.49341110096992
 20
-282.0856388618656
 30
0.0
 11
-32.85980907094367
 21
-281.4520368318393
 31
0.0
  0
LINE
  5
AEC
330
8D6
100
AcDbEntity
  8
0
 62
     0
100
AcDbLine
 10
-33.44923292218708
 20
-282.1740432045552
 30
0.0
 11
-32.81563089216084
 21
-281.5404411745289
 31
0.0
  0
LINE
  5
AED
330
8D6
100
AcDbEntity
  8
0
 62
     0
100
AcDbLine
 10
-33.40505474340423
 20
-282.2624475472448
 30
0.0
 11
-32.771452713378
 21
-281.6288455172186
 31
0.0
  0
LINE
  5
AEE
330
8D6
100
AcDbEntity
  8
0
 62
     0
100
AcDbLine
 10
-33.36087656462139
 20
-282.3508518899345
 30
0.0
 11
-32.72727453459515
 21
-281.7172498599082
 31
0.0
  0
LINE
  5
AEF
330
8D6
100
AcDbEntity
  8
0
 62
     0
100
AcDbLine
 10
-33.31669838583855
 20
-282.4392562326241
 30
0.0
 11
-32.68309635581231
 21
-281.8056542025978
 31
0.0
  0
LINE
  5
AF0
330
8D6
100
AcDbEntity
  8
0
 62
     0
100
AcDbLine
 10
-33.27252020705571
 20
-282.5276605753137
 30
0.0
 11
-32.63891817702948
 21
-281.8940585452875
 31
0.0
  0
LINE
  5
AF1
330
8D6
100
AcDbEntity
  8
0
 62
     0
100
AcDbLine
 10
-33.22834202827287
 20
-282.6160649180033
 30
0.0
 11
-32.59473999824662
 21
-281.9824628879771
 31
0.0
  0
LINE
  5
AF2
330
8D6
100
AcDbEntity
  8
0
 62
     0
100
AcDbLine
 10
-33.18416384949003
 20
-282.704469260693
 30
0.0
 11
-32.55056181946378
 21
-282.0708672306667
 31
0.0
  0
LINE
  5
AF3
330
8D6
100
AcDbEntity
  8
0
 62
     0
100
AcDbLine
 10
-33.13998567070718
 20
-282.7928736033826
 30
0.0
 11
-32.50638364068095
 21
-282.1592715733564
 31
0.0
  0
LINE
  5
AF4
330
8D6
100
AcDbEntity
  8
0
 62
     0
100
AcDbLine
 10
-33.09580749192433
 20
-282.8812779460723
 30
0.0
 11
-32.46220546189811
 21
-282.247675916046
 31
0.0
  0
LINE
  5
AF5
330
8D6
100
AcDbEntity
  8
0
 62
     0
100
AcDbLine
 10
-33.0516293131415
 20
-282.9696822887619
 30
0.0
 11
-32.41802728311526
 21
-282.3360802587357
 31
0.0
  0
LINE
  5
AF6
330
8D6
100
AcDbEntity
  8
0
 62
     0
100
AcDbLine
 10
-33.00745113435866
 20
-283.0580866314516
 30
0.0
 11
-32.37384910433242
 21
-282.4244846014253
 31
0.0
  0
LINE
  5
AF7
330
8D6
100
AcDbEntity
  8
0
 62
     0
100
AcDbLine
 10
-32.96327295557581
 20
-283.1464909741411
 30
0.0
 11
-32.32967092554959
 21
-282.5128889441149
 31
0.0
  0
LINE
  5
AF8
330
8D6
100
AcDbEntity
  8
0
 62
     0
100
AcDbLine
 10
-32.91909477679296
 20
-283.2348953168308
 30
0.0
 11
-32.28549274676673
 21
-282.6012932868045
 31
0.0
  0
LINE
  5
AF9
330
8D6
100
AcDbEntity
  8
0
 62
     0
100
AcDbLine
 10
-32.87491659801013
 20
-283.3232996595204
 30
0.0
 11
-32.24131456798389
 21
-282.6896976294942
 31
0.0
  0
LINE
  5
AFA
330
8D6
100
AcDbEntity
  8
0
 62
     0
100
AcDbLine
 10
-32.83073841922728
 20
-283.4117040022101
 30
0.0
 11
-32.19713638920106
 21
-282.7781019721838
 31
0.0
  0
LINE
  5
AFB
330
8D6
100
AcDbEntity
  8
0
 62
     0
100
AcDbLine
 10
-32.78656024044444
 20
-283.5001083448997
 30
0.0
 11
-32.1529582104182
 21
-282.8665063148735
 31
0.0
  0
LINE
  5
AFC
330
8D6
100
AcDbEntity
  8
0
 62
     0
100
AcDbLine
 10
-32.7423820616616
 20
-283.5885126875893
 30
0.0
 11
-32.10878003163537
 21
-282.9549106575631
 31
0.0
  0
LINE
  5
AFD
330
8D6
100
AcDbEntity
  8
0
 62
     0
100
AcDbLine
 10
-32.69820388287876
 20
-283.6769170302789
 30
0.0
 11
-32.06460185285254
 21
-283.0433150002527
 31
0.0
  0
LINE
  5
AFE
330
8D6
100
AcDbEntity
  8
0
 62
     0
100
AcDbLine
 10
-32.65402570409591
 20
-283.7653213729686
 30
0.0
 11
-32.0204236740697
 21
-283.1317193429424
 31
0.0
  0
LINE
  5
AFF
330
8D6
100
AcDbEntity
  8
0
 62
     0
100
AcDbLine
 10
-32.60984752531307
 20
-283.8537257156582
 30
0.0
 11
-31.97624549528684
 21
-283.220123685632
 31
0.0
  0
LINE
  5
B00
330
8D6
100
AcDbEntity
  8
0
 62
     0
100
AcDbLine
 10
-32.56566934653022
 20
-283.9421300583479
 30
0.0
 11
-31.93206731650401
 21
-283.3085280283216
 31
0.0
  0
LINE
  5
B01
330
8D6
100
AcDbEntity
  8
0
 62
     0
100
AcDbLine
 10
-32.52149116774738
 20
-284.0305344010375
 30
0.0
 11
-31.88788913772117
 21
-283.3969323710113
 31
0.0
  0
LINE
  5
B02
330
8D6
100
AcDbEntity
  8
0
 62
     0
100
AcDbLine
 10
-32.47731298896454
 20
-284.1189387437271
 30
0.0
 11
-31.84371095893832
 21
-283.4853367137009
 31
0.0
  0
LINE
  5
B03
330
8D6
100
AcDbEntity
  8
0
 62
     0
100
AcDbLine
 10
-32.43313481018169
 20
-284.2073430864168
 30
0.0
 11
-31.79953278015548
 21
-283.5737410563906
 31
0.0
  0
LINE
  5
B04
330
8D6
100
AcDbEntity
  8
0
 62
     0
100
AcDbLine
 10
-32.38895663139885
 20
-284.2957474291064
 30
0.0
 11
-31.75535460137264
 21
-283.6621453990801
 31
0.0
  0
LINE
  5
B05
330
8D6
100
AcDbEntity
  8
0
 62
     0
100
AcDbLine
 10
-32.34477845261601
 20
-284.384151771796
 30
0.0
 11
-31.71117642258979
 21
-283.7505497417698
 31
0.0
  0
LINE
  5
B06
330
8D6
100
AcDbEntity
  8
0
 62
     0
100
AcDbLine
 10
-32.30060027383317
 20
-284.4725561144857
 30
0.0
 11
-31.66699824380695
 21
-283.8389540844595
 31
0.0
  0
LINE
  5
B07
330
8D6
100
AcDbEntity
  8
0
 62
     0
100
AcDbLine
 10
-32.25642209505032
 20
-284.5609604571753
 30
0.0
 11
-31.62282006502412
 21
-283.9273584271491
 31
0.0
  0
LINE
  5
B08
330
8D6
100
AcDbEntity
  8
0
 62
     0
100
AcDbLine
 10
-32.21224391626749
 20
-284.649364799865
 30
0.0
 11
-31.57864188624126
 21
-284.0157627698387
 31
0.0
  0
LINE
  5
B09
330
8D6
100
AcDbEntity
  8
0
 62
     0
100
AcDbLine
 10
-32.16806573748464
 20
-284.7377691425545
 30
0.0
 11
-31.53446370745843
 21
-284.1041671125284
 31
0.0
  0
LINE
  5
B0A
330
8D6
100
AcDbEntity
  8
0
 62
     0
100
AcDbLine
 10
-32.1238875587018
 20
-284.8261734852442
 30
0.0
 11
-31.49028552867559
 21
-284.192571455218
 31
0.0
  0
LINE
  5
B0B
330
8D6
100
AcDbEntity
  8
0
 62
     0
100
AcDbLine
 10
-32.07970937991895
 20
-284.9145778279338
 30
0.0
 11
-31.44610734989275
 21
-284.2809757979077
 31
0.0
  0
LINE
  5
B0C
330
8D6
100
AcDbEntity
  8
0
 62
     0
100
AcDbLine
 10
-32.03553120113612
 20
-285.0029821706235
 30
0.0
 11
-31.4019291711099
 21
-284.3693801405972
 31
0.0
  0
LINE
  5
B0D
330
8D6
100
AcDbEntity
  8
0
 62
     0
100
AcDbLine
 10
-31.99135302235327
 20
-285.0913865133131
 30
0.0
 11
-31.35775099232706
 21
-284.4577844832869
 31
0.0
  0
LINE
  5
B0E
330
8D6
100
AcDbEntity
  8
0
 62
     0
100
AcDbLine
 10
-31.94717484357042
 20
-285.1797908560028
 30
0.0
 11
-31.31357281354423
 21
-284.5461888259766
 31
0.0
  0
LINE
  5
B0F
330
8D6
100
AcDbEntity
  8
0
 62
     0
100
AcDbLine
 10
-31.90299666478758
 20
-285.2681951986924
 30
0.0
 11
-31.26939463476138
 21
-284.6345931686662
 31
0.0
  0
LINE
  5
B10
330
8D6
100
AcDbEntity
  8
0
 62
     0
100
AcDbLine
 10
-31.85881848600474
 20
-285.356599541382
 30
0.0
 11
-31.22521645597854
 21
-284.7229975113558
 31
0.0
  0
LINE
  5
B11
330
8D6
100
AcDbEntity
  8
0
 62
     0
100
AcDbLine
 10
-31.8146403072219
 20
-285.4450038840717
 30
0.0
 11
-31.1810382771957
 21
-284.8114018540455
 31
0.0
  0
LINE
  5
B12
330
8D6
100
AcDbEntity
  8
0
 62
     0
100
AcDbLine
 10
-31.77046212843906
 20
-285.5334082267613
 30
0.0
 11
-31.13686009841285
 21
-284.8998061967351
 31
0.0
  0
LINE
  5
B13
330
8D6
100
AcDbEntity
  8
0
 62
     0
100
AcDbLine
 10
-31.72628394965622
 20
-285.6218125694509
 30
0.0
 11
-31.09268191963001
 21
-284.9882105394248
 31
0.0
  0
LINE
  5
B14
330
8D6
100
AcDbEntity
  8
0
 62
     0
100
AcDbLine
 10
-31.68210577087337
 20
-285.7102169121406
 30
0.0
 11
-31.04850374084718
 21
-285.0766148821143
 31
0.0
  0
LINE
  5
B15
330
8D6
100
AcDbEntity
  8
0
 62
     0
100
AcDbLine
 10
-31.63792759209052
 20
-285.7986212548302
 30
0.0
 11
-31.00432556206434
 21
-285.165019224804
 31
0.0
  0
LINE
  5
B16
330
8D6
100
AcDbEntity
  8
0
 62
     0
100
AcDbLine
 10
-31.59374941330769
 20
-285.8870255975199
 30
0.0
 11
-30.96014738328149
 21
-285.2534235674937
 31
0.0
  0
LINE
  5
B17
330
8D6
100
AcDbEntity
  8
0
 62
     0
100
AcDbLine
 10
-31.50332316272872
 20
-285.9291818684134
 30
0.0
 11
-30.91596920449865
 21
-285.3418279101833
 31
0.0
  0
LINE
  5
B18
330
8D6
100
AcDbEntity
  8
0
 62
     0
100
AcDbLine
 10
-31.37157195278595
 20
-285.9300131799431
 30
0.0
 11
-30.87179102571581
 21
-285.4302322528729
 31
0.0
  0
LINE
  5
B19
330
8D6
100
AcDbEntity
  8
0
 62
     0
100
AcDbLine
 10
-31.23982074284319
 20
-285.9308444914728
 30
0.0
 11
-30.82761284693296
 21
-285.5186365955626
 31
0.0
  0
LINE
  5
B1A
330
8D6
100
AcDbEntity
  8
0
 62
     0
100
AcDbLine
 10
-31.25232952633624
 20
-286.0759357964383
 30
0.0
 11
-31.16460760049095
 21
-285.988213870593
 31
0.0
  0
LINE
  5
B1B
330
8D6
100
AcDbEntity
  8
0
 62
     0
100
AcDbLine
 10
-31.10806953290039
 20
-285.9316758030024
 30
0.0
 11
-30.78343466815012
 21
-285.6070409382521
 31
0.0
  0
LINE
  5
B1C
330
8D6
100
AcDbEntity
  8
0
 62
     0
100
AcDbLine
 10
-31.15811563536502
 20
-285.981721905467
 30
0.0
 11
-31.10806953290039
 21
-285.9316758030025
 31
0.0
  0
LINE
  5
B1D
330
8D6
100
AcDbEntity
  8
0
 62
     0
100
AcDbLine
 10
-31.12177404626793
 20
-286.0779628378424
 30
0.0
 11
-31.0328563905482
 21
-285.9890451821227
 31
0.0
  0
LINE
  5
B1E
330
8D6
100
AcDbEntity
  8
0
 62
     0
100
AcDbLine
 10
-30.97631832295762
 20
-285.9325071145322
 30
0.0
 11
-30.73925648936729
 21
-285.6954452809418
 31
0.0
  0
LINE
  5
B1F
330
8D6
100
AcDbEntity
  8
0
 62
     0
100
AcDbLine
 10
-30.99002283632514
 20
-286.0787941493721
 30
0.0
 11
-30.93156545569635
 21
-286.0203367687433
 31
0.0
  0
LINE
  5
B20
330
8D6
100
AcDbEntity
  8
0
 62
     0
100
AcDbLine
 10
-30.84456711301486
 20
-285.9333384260619
 30
0.0
 11
-30.69507831058443
 21
-285.7838496236314
 31
0.0
  0
LINE
  5
B21
330
8D6
100
AcDbEntity
  8
0
 62
     0
100
AcDbLine
 10
-30.7128159030721
 20
-285.9341697375916
 30
0.0
 11
-30.6509001318016
 21
-285.8722539663211
 31
0.0
  0
ENDBLK
  5
B22
330
8D6
100
AcDbEntity
  8
0
100
AcDbBlockEnd
  0
BLOCK
  5
13B9
330
13B8
100
AcDbEntity
  8
0
100
AcDbBlockBegin
  2
*X8
 70
     1
 10
0.0
 20
0.0
 30
0.0
  3
*X8
  1

  0
LINE
  5
13BA
330
13B8
100
AcDbEntity
  8
0
 62
     0
100
AcDbLine
 10
90.89191762865089
 20
31.22978296603593
 30
0.0
 11
91.19726673538691
 21
31.53513207277196
 31
0.0
  0
LINE
  5
13BB
330
13B8
100
AcDbEntity
  8
0
 62
     0
100
AcDbLine
 10
90.77183966316736
 20
31.50745256496984
 30
0.0
 11
90.79426060175727
 21
31.52987350355975
 31
0.0
  0
LINE
  5
13BC
330
13B8
100
AcDbEntity
  8
0
 62
     0
100
AcDbLine
 10
91.04708270769814
 20
30.98720048066575
 30
0.0
 11
91.22432950945672
 21
31.16444728242434
 31
0.0
  0
LINE
  5
13BD
330
13B8
100
AcDbEntity
  8
0
 62
     0
100
AcDbLine
 10
91.24222425858627
 20
31.18234203155389
 30
0.0
 11
91.59490377551875
 21
31.53502154848637
 31
0.0
  0
LINE
  5
13BE
330
13B8
100
AcDbEntity
  8
0
 62
     0
100
AcDbLine
 10
91.42651102614069
 20
30.96888123469087
 30
0.0
 11
91.4991897708156
 21
31.04155997936579
 31
0.0
  0
LINE
  5
13BF
330
13B8
100
AcDbEntity
  8
0
 62
     0
100
AcDbLine
 10
90.9207374051258
 20
31.12602022126084
 30
0.0
 11
91.11700599678981
 21
31.32228881292486
 31
0.0
  0
LINE
  5
13C0
330
13B8
100
AcDbEntity
  8
0
 62
     0
100
AcDbLine
 10
91.2637633320944
 20
31.46904614822946
 30
0.0
 11
91.32984925663691
 21
31.53513207277196
 31
0.0
  0
LINE
  5
13C1
330
13B8
100
AcDbEntity
  8
0
 62
     0
100
AcDbLine
 10
90.80786691675843
 20
31.41089729731091
 30
0.0
 11
90.93210169221949
 21
31.53513207277196
 31
0.0
  0
LINE
  5
13C2
330
13B8
100
AcDbEntity
  8
0
 62
     0
100
AcDbLine
 10
91.16070486835765
 20
30.96824012007527
 30
0.0
 11
91.40803195696616
 21
31.21556720868377
 31
0.0
  0
LINE
  5
13C3
330
13B8
100
AcDbEntity
  8
0
 62
     0
100
AcDbLine
 10
91.60422082211013
 20
31.41175607382775
 30
0.0
 11
91.63995709289935
 21
31.44749234461697
 31
0.0
  0
LINE
  5
13C4
330
13B8
100
AcDbEntity
  8
0
 62
     0
100
AcDbLine
 10
91.47359683780848
 20
31.2811320895261
 30
0.0
 11
91.5374678920028
 21
31.34500314372041
 31
0.0
  0
LINE
  5
13C5
330
13B8
100
AcDbEntity
  8
0
 62
     0
100
AcDbLine
 10
91.55941410469768
 20
30.96920179199786
 30
0.0
 11
91.74221602493505
 21
31.15200371223523
 31
0.0
  0
ENDBLK
  5
13C6
330
13B8
100
AcDbEntity
  8
0
100
AcDbBlockEnd
  0
ENDSEC
  0
SECTION
  2
ENTITIES
  0
LINE
  5
91
330
739
100
AcDbEntity
  8
0
100
AcDbLine
 10
483.6246691694712
 20
21.83729643193254
 30
0.0
 11
483.6246691694712
 21
24.83729643193254
 31
0.0
  0
LINE
  5
92
330
739
100
AcDbEntity
  8
0
100
AcDbLine
 10
483.6246691694712
 20
24.83729643193254
 30
0.0
 11
487.2496691694713
 21
24.83729643193254
 31
0.0
  0
LINE
  5
93
330
739
100
AcDbEntity
  8
0
100
AcDbLine
 10
492.6246691694712
 20
21.83729643193254
 30
0.0
 11
483.6246691694712
 21
21.83729643193254
 31
0.0
  0
LINE
  5
94
330
739
100
AcDbEntity
  8
0
100
AcDbLine
 10
480.6246691694712
 20
21.83729643193254
 30
0.0
 11
480.6246691694712
 21
34.46229643193254
 31
0.0
  0
LINE
  5
95
330
739
100
AcDbEntity
  8
0
100
AcDbLine
 10
483.6246691694712
 20
21.83729643193254
 30
0.0
 11
480.6246691694712
 21
21.83729643193254
 31
0.0
  0
LINE
  5
96
330
739
100
AcDbEntity
  8
0
100
AcDbLine
 10
483.6246691694712
 20
24.83729643193254
 30
0.0
 11
480.6246691694712
 21
24.83729643193254
 31
0.0
  0
LINE
  5
97
330
739
100
AcDbEntity
  8
0
  6
HIDDEN
100
AcDbLine
 10
483.8746691694712
 20
21.83729643193254
 30
0.0
 11
483.8746691694712
 21
24.83729643193254
 31
0.0
  0
LINE
  5
98
330
739
100
AcDbEntity
  8
0
100
AcDbLine
 10
487.4996691694712
 20
47.83729643193254
 30
0.0
 11
487.4996691694712
 21
21.83729643193254
 31
0.0
  0
LINE
  5
99
330
739
100
AcDbEntity
  8
0
100
AcDbLine
 10
487.2496691694713
 20
47.83729643193254
 30
0.0
 11
487.2496691694713
 21
21.83729643193254
 31
0.0
  0
LINE
  5
9A
330
739
100
AcDbEntity
  8
0
100
AcDbLine
 10
479.8746691694712
 20
47.83729643193254
 30
0.0
 11
479.3746691694712
 21
47.83729643193254
 31
0.0
  0
LINE
  5
9B
330
739
100
AcDbEntity
  8
0
100
AcDbLine
 10
478.6246691694712
 20
21.83729643193254
 30
0.0
 11
478.6246691694712
 21
47.08729643193254
 31
0.0
  0
LINE
  5
9C
330
739
100
AcDbEntity
  8
0
100
AcDbLine
 10
487.2496691694713
 20
47.83729643193254
 30
0.0
 11
487.4996691694712
 21
47.83729643193254
 31
0.0
  0
LINE
  5
9D
330
739
100
AcDbEntity
  8
0
100
AcDbLine
 10
487.4996691694712
 20
24.83729643193254
 30
0.0
 11
492.6246691694712
 21
24.83729643193254
 31
0.0
  0
ARC
  5
9E
330
739
100
AcDbEntity
  8
0
100
AcDbCircle
 10
479.3746691694712
 20
47.08729643193254
 30
0.0
 40
0.75
100
AcDbArc
 50
90.0
 51
180.0
  0
ARC
  5
9F
330
739
100
AcDbEntity
  8
0
100
AcDbCircle
 10
479.8746691694712
 20
47.08729643193254
 30
0.0
 40
0.75
100
AcDbArc
 50
9.594068226860521
 51
90.0
  0
LINE
  5
A0
330
739
100
AcDbEntity
  8
0
100
AcDbLine
 10
487.2496691694713
 20
47.21229643193254
 30
0.0
 11
479.6246691694712
 21
47.21229643193254
 31
0.0
  0
LINE
  5
A1
330
739
100
AcDbEntity
  8
0
100
AcDbLine
 10
487.2496691694713
 20
46.46229643193254
 30
0.0
 11
479.6246691694712
 21
46.46229643193254
 31
0.0
  0
ARC
  5
A2
330
739
100
AcDbEntity
  8
0
100
AcDbCircle
 10
479.6246691694712
 20
46.83729643193254
 30
0.0
 40
0.375
100
AcDbArc
 50
90.0
 51
270.0
  0
LINE
  5
A3
330
739
100
AcDbEntity
  8
0
100
AcDbLine
 10
480.6246691694712
 20
21.83729643193254
 30
0.0
 11
478.6246691694712
 21
21.83729643193254
 31
0.0
  0
LINE
  5
A4
330
739
100
AcDbEntity
  8
0
100
AcDbLine
 10
487.2496691694713
 20
35.21229643193255
 30
0.0
 11
479.6246691694712
 21
35.21229643193255
 31
0.0
  0
LINE
  5
A5
330
739
100
AcDbEntity
  8
0
100
AcDbLine
 10
487.2496691694713
 20
34.46229643193254
 30
0.0
 11
479.6246691694712
 21
34.46229643193254
 31
0.0
  0
ARC
  5
A6
330
739
100
AcDbEntity
  8
0
100
AcDbCircle
 10
479.6246691694712
 20
34.83729643193254
 30
0.0
 40
0.375
100
AcDbArc
 50
90.0
 51
270.0
  0
LINE
  5
A7
330
739
100
AcDbEntity
  8
0
100
AcDbLine
 10
480.6246691694712
 20
35.21229643193255
 30
0.0
 11
480.6246691694712
 21
46.46229643193254
 31
0.0
  0
CIRCLE
  5
A8
330
739
100
AcDbEntity
  8
0
100
AcDbCircle
 10
491.6246691694712
 20
23.83729643193254
 30
0.0
 40
0.1875
  0
CIRCLE
  5
A9
330
739
100
AcDbEntity
  8
0
100
AcDbCircle
 10
486.6246691694712
 20
22.83729643193254
 30
0.0
 40
0.1875
  0
LINE
  5
AA
330
739
100
AcDbEntity
  8
0
100
AcDbLine
 10
478.6246691694712
 20
66.83179719657025
 30
0.0
 11
478.6246691694712
 21
67.08179719657024
 31
0.0
  0
LINE
  5
AB
330
739
100
AcDbEntity
  8
0
100
AcDbLine
 10
478.6246691694712
 20
67.08179719657024
 30
0.0
 11
483.6246691694712
 21
67.08179719657024
 31
0.0
  0
LINE
  5
AC
330
739
100
AcDbEntity
  8
0
100
AcDbLine
 10
480.6246691694712
 20
66.83179719657025
 30
0.0
 11
480.6246691694712
 21
67.08179719657024
 31
0.0
  0
LINE
  5
AD
330
739
100
AcDbEntity
  8
0
100
AcDbLine
 10
478.6246691694712
 20
66.83179719657025
 30
0.0
 11
483.6246691694712
 21
66.83179719657025
 31
0.0
  0
LINE
  5
AE
330
739
100
AcDbEntity
  8
0
100
AcDbLine
 10
483.6246691694712
 20
63.20679719657025
 30
0.0
 11
483.6246691694712
 21
72.20679719657025
 31
0.0
  0
LINE
  5
AF
330
739
100
AcDbEntity
  8
0
100
AcDbLine
 10
483.8746691694712
 20
63.45679719657025
 30
0.0
 11
483.8746691694712
 21
72.20679719657025
 31
0.0
  0
LINE
  5
B0
330
739
100
AcDbEntity
  8
0
100
AcDbLine
 10
492.6246691694712
 20
21.83729643193254
 30
0.0
 11
492.6246691694712
 21
24.83729643193254
 31
0.0
  0
LINE
  5
B1
330
739
100
AcDbEntity
  8
0
100
AcDbLine
 10
483.6246691694712
 20
72.20679719657025
 30
0.0
 11
483.8746691694712
 21
72.20679719657025
 31
0.0
  0
LINE
  5
B2
330
739
100
AcDbEntity
  8
0
100
AcDbLine
 10
483.6246691694712
 20
63.20679719657025
 30
0.0
 11
492.6246691694712
 21
63.20679719657025
 31
0.0
  0
LINE
  5
B3
330
739
100
AcDbEntity
  8
0
100
AcDbLine
 10
492.6246691694712
 20
63.20679719657025
 30
0.0
 11
492.6246691694712
 21
63.45679719657025
 31
0.0
  0
LINE
  5
B4
330
739
100
AcDbEntity
  8
0
100
AcDbLine
 10
483.8746691694712
 20
63.45679719657025
 30
0.0
 11
492.6246691694712
 21
63.45679719657025
 31
0.0
  0
LINE
  5
B5
330
739
100
AcDbEntity
  8
0
100
AcDbLine
 10
487.4996691694712
 20
58.20679719657025
 30
0.0
 11
487.4996691694712
 21
63.20679719657025
 31
0.0
  0
LINE
  5
B6
330
739
100
AcDbEntity
  8
0
100
AcDbLine
 10
487.2496691694713
 20
58.20679719657025
 30
0.0
 11
487.2496691694713
 21
63.20679719657025
 31
0.0
  0
LINE
  5
B7
330
739
100
AcDbEntity
  8
0
100
AcDbLine
 10
487.2496691694713
 20
60.20679719657024
 30
0.0
 11
487.4996691694712
 21
60.20679719657024
 31
0.0
  0
LINE
  5
B8
330
739
100
AcDbEntity
  8
0
100
AcDbLine
 10
487.2496691694713
 20
58.20679719657025
 30
0.0
 11
487.4996691694712
 21
58.20679719657025
 31
0.0
  0
LINE
  5
B9
330
739
100
AcDbEntity
  8
0
100
AcDbLine
 10
479.2496691694712
 20
66.83179719657025
 30
0.0
 11
479.2496691694712
 21
59.58179719657024
 31
0.0
  0
LINE
  5
BA
330
739
100
AcDbEntity
  8
0
100
AcDbLine
 10
479.9996691694712
 20
66.83179719657025
 30
0.0
 11
479.9996691694712
 21
59.70679719657026
 31
0.0
  0
LINE
  5
BB
330
739
100
AcDbEntity
  8
0
100
AcDbLine
 10
487.2496691694713
 20
58.83179719657025
 30
0.0
 11
479.9996691694712
 21
58.83179719657025
 31
0.0
  0
LINE
  5
BC
330
739
100
AcDbEntity
  8
0
100
AcDbLine
 10
487.2496691694713
 20
59.58179719657024
 30
0.0
 11
480.1246691694712
 21
59.58179719657025
 31
0.0
  0
ARC
  5
BD
330
739
100
AcDbEntity
  8
0
100
AcDbCircle
 10
479.9996691694712
 20
59.58179719657024
 30
0.0
 40
0.75
100
AcDbArc
 50
180.0
 51
270.0
  0
ARC
  5
BE
330
739
100
AcDbEntity
  8
0
100
AcDbCircle
 10
480.1246691694712
 20
59.70679719657026
 30
0.0
 40
0.125
100
AcDbArc
 50
180.0
 51
270.0
  0
LINE
  5
BF
330
739
100
AcDbEntity
  8
0
100
AcDbLine
 10
483.8746691694713
 20
63.45679719657025
 30
0.0
 11
483.6246691694712
 21
63.20679719657025
 31
0.0
  0
POINT
  5
C4
330
739
100
AcDbEntity
  8
DEFPOINTS
  6
ByBlock
100
AcDbPoint
 10
492.6246691694712
 20
63.20679719657025
 30
0.0
  0
DIMENSION
  5
C5
330
739
100
AcDbEntity
  8
0
100
AcDbDimension
  2
*D6
 10
483.8746691694712
 20
73.79662172144441
 30
0.0
 11
483.7496691694712
 21
76.18947886430155
 31
0.0
 70
    32
 71
     5
 42
0.25
  3
STANDARD
100
AcDbAlignedDimension
 13
483.6246691694712
 23
72.20679719657025
 33
0.0
 14
483.8746691694712
 24
72.20679719657025
 34
0.0
100
AcDbRotatedDimension
  0
DIMENSION
  5
C6
330
739
100
AcDbEntity
  8
0
100
AcDbDimension
  2
*D2
 10
474.7331827371398
 20
47.83729643193254
 30
0.0
 11
474.7331827371398
 21
34.83729643193262
 31
0.0
 70
    32
  1
26"
 71
     5
 42
26.0
  3
STANDARD$0
100
AcDbAlignedDimension
 13
478.6246691694712
 23
21.83729643193254
 33
0.0
 14
479.3746691694712
 24
47.83729643193254
 34
0.0
 50
90.0
100
AcDbRotatedDimension
  0
DIMENSION
  5
C7
330
739
100
AcDbEntity
  8
0
100
AcDbDimension
  2
*D3
 10
483.6246691694712
 20
18.61451054281684
 30
0.0
 11
488.1246691694712
 21
18.61451054281684
 31
0.0
 70
    32
 71
     5
 42
9.0
  3
STANDARD$0
100
AcDbAlignedDimension
 13
492.6246691694712
 23
21.83729643193254
 33
0.0
 14
483.6246691694712
 24
21.83729643193254
 34
0.0
100
AcDbRotatedDimension
  0
LINE
  5
C8
330
739
100
AcDbEntity
  8
0
  6
ByBlock
100
AcDbLine
 10
492.5598184326329
 20
23.90364479746086
 30
0.0
 11
496.5166870650867
 21
24.18438261837936
 31
0.0
  0
SOLID
  5
C9
330
739
100
AcDbEntity
  8
0
  6
ByBlock
100
AcDbTrace
 10
492.56866488137
 20
23.7789582290393
 30
0.0
 11
492.5509719838958
 21
24.0283313658824
 31
0.0
 12
491.8116990221036
 22
23.85056610503821
 32
0.0
 13
491.8116990221036
 23
23.85056610503821
 33
0.0
  0
LINE
  5
CA
330
739
100
AcDbEntity
  8
0
  6
ByBlock
100
AcDbLine
 10
491.5621691694712
 20
23.83729643193254
 30
0.0
 11
491.6871691694713
 21
23.83729643193254
 31
0.0
  0
LINE
  5
CB
330
739
100
AcDbEntity
  8
0
  6
ByBlock
100
AcDbLine
 10
491.6246691694713
 20
23.77479643193254
 30
0.0
 11
491.6246691694713
 21
23.89979643193254
 31
0.0
  0
TEXT
  5
CC
330
739
100
AcDbEntity
  8
0
  6
ByBlock
100
AcDbText
 10
496.6330703014184
 20
23.86295404695079
 30
0.0
 40
0.75
  1
%%c7/16" 4 EACH
  7
ROMANS
 72
     4
 11
501.204498872847
 21
24.18438261837936
 31
0.0
100
AcDbText
  0
POINT
  5
CD
330
739
100
AcDbEntity
  8
DEFPOINTS
  6
ByBlock
100
AcDbPoint
 10
491.8116990221036
 20
23.85056610503821
 30
0.0
  0
POINT
  5
CE
330
739
100
AcDbEntity
  8
DEFPOINTS
  6
ByBlock
100
AcDbPoint
 10
491.4376393168389
 20
23.82402675882687
 30
0.0
  0
LINE
  5
CF
330
739
100
AcDbEntity
  8
0
  6
ByBlock
100
AcDbLine
 10
478.8746691694712
 20
21.83729643193254
 30
0.0
 11
476.8745013036331
 21
21.83729643193254
 31
0.0
  0
LINE
  5
D0
330
739
100
AcDbEntity
  8
0
  6
ByBlock
100
AcDbLine
 10
479.8746691694712
 20
24.83729643193254
 30
0.0
 11
475.8745013036331
 21
24.83729643193254
 31
0.0
  0
LINE
  5
D1
330
739
100
AcDbEntity
  8
0
  6
ByBlock
100
AcDbLine
 10
476.6245013036331
 20
21.08729643193254
 30
0.0
 11
476.6245013036331
 21
20.33729643193254
 31
0.0
  0
LINE
  5
D2
330
739
100
AcDbEntity
  8
0
  6
ByBlock
100
AcDbLine
 10
476.6245013036331
 20
25.58729643193255
 30
0.0
 11
476.6245013036331
 21
26.33729643193254
 31
0.0
  0
SOLID
  5
D3
330
739
100
AcDbEntity
  8
0
  6
ByBlock
100
AcDbTrace
 10
476.499501303633
 20
21.08729643193254
 30
0.0
 11
476.7495013036331
 21
21.08729643193254
 31
0.0
 12
476.6245013036331
 22
21.83729643193254
 32
0.0
 13
476.6245013036331
 23
21.83729643193254
 33
0.0
  0
SOLID
  5
D4
330
739
100
AcDbEntity
  8
0
  6
ByBlock
100
AcDbTrace
 10
476.499501303633
 20
25.58729643193255
 30
0.0
 11
476.7495013036331
 21
25.58729643193255
 31
0.0
 12
476.6245013036331
 22
24.83729643193254
 32
0.0
 13
476.6245013036331
 23
24.83729643193254
 33
0.0
  0
TEXT
  5
D5
330
739
100
AcDbEntity
  8
0
  6
ByBlock
100
AcDbText
 10
476.1723512582482
 20
22.89061903600751
 30
0.0
 40
0.75
  1
3"
  7
ROMANS
 72
     1
 11
476.7973512582482
 21
23.26561903600751
 31
0.0
100
AcDbText
 73
     2
  0
POINT
  5
D6
330
739
100
AcDbEntity
  8
DEFPOINTS
  6
ByBlock
100
AcDbPoint
 10
479.6246691694712
 20
21.83729643193254
 30
0.0
  0
POINT
  5
D7
330
739
100
AcDbEntity
  8
DEFPOINTS
  6
ByBlock
100
AcDbPoint
 10
481.6246691694712
 20
24.83729643193254
 30
0.0
  0
POINT
  5
D8
330
739
100
AcDbEntity
  8
DEFPOINTS
  6
ByBlock
100
AcDbPoint
 10
477.6245013036331
 20
24.83729643193254
 30
0.0
  0
LINE
  5
D9
330
739
100
AcDbEntity
  8
0
  6
ByBlock
100
AcDbLine
 10
485.9174911639207
 20
34.81757455804464
 30
0.0
 11
489.8743597963746
 21
35.09831237896314
 31
0.0
  0
SOLID
  5
DA
330
739
100
AcDbEntity
  8
0
  6
ByBlock
100
AcDbTrace
 10
485.9263376126578
 20
34.69288798962309
 30
0.0
 11
485.9086447151836
 21
34.94226112646619
 31
0.0
 12
485.1693717533914
 22
34.764495865622
 32
0.0
 13
485.1693717533914
 23
34.764495865622
 33
0.0
  0
TEXT
  5
DB
330
739
100
AcDbEntity
  8
0
  6
ByBlock
100
AcDbText
 10
490.3478858898491
 20
34.77688380753458
 30
0.0
 40
0.75
  1
%%c3/4" 2 EACH
  7
ROMANS
 72
     4
 11
494.5621716041348
 21
35.09831237896314
 31
0.0
100
AcDbText
  0
TEXT
  5
DE
330
739
100
AcDbEntity
  8
0
100
AcDbText
 10
518.0091280913966
 20
58.49585347295306
 30
0.0
 40
0.75
  1
ONE PIECE WELDED CONSTRUCTION
  7
ROMANS
100
AcDbText
  0
TEXT
  5
DF
330
739
100
AcDbEntity
  8
0
100
AcDbText
 10
518.0091280913966
 20
56.75192815192791
 30
0.0
 40
0.75
  1
(2) 7"x3" INTERIOR REINFORCING PLATES
  7
ROMANS
100
AcDbText
  0
TEXT
  5
E0
330
739
100
AcDbEntity
  8
0
100
AcDbText
 10
518.0091280913966
 20
54.97377055345754
 30
0.0
 40
0.75
  1
(4) 3/8"x2 1/2" STEEL BOLTS, LOCK WASHERS AND NUTS
  7
ROMANS
100
AcDbText
  0
TEXT
  5
E1
330
739
100
AcDbEntity
  8
0
100
AcDbText
 10
506.7852837538564
 20
76.40790360847123
 30
0.0
 40
1.8
  1
PRECISION SAFETY HANDRAIL
  7
ROMANC
100
AcDbText
  0
TEXT
  5
E2
330
739
100
AcDbEntity
  8
0
100
AcDbText
 10
515.7362379485858
 20
74.6324073314706
 30
0.0
 40
0.75
  1
(FOR ACCESS IN AND OUT OF ROOF HATCH)
  7
ROMANS
100
AcDbText
  0
TEXT
  5
E3
330
739
100
AcDbEntity
  8
0
100
AcDbText
 10
516.7512096884945
 20
65.77427426922993
 30
0.0
 40
1.0
  1
CAN BE MOUNTED TO LEFT OR 
  7
ROMANC
100
AcDbText
  0
TEXT
  5
E4
330
739
100
AcDbEntity
  8
0
100
AcDbText
 10
518.6642062253418
 20
64.10857083409846
 30
0.0
 40
1.0
  1
RIGHT CORNER OF HATCH
  7
ROMANC
100
AcDbText
  0
TEXT
  5
E5
330
739
100
AcDbEntity
  8
0
100
AcDbText
 10
531.6431893869076
 20
15.82675745515578
 30
0.0
 40
1.448130669229048
  1
FACTORY FINISH
  7
ROMANC
100
AcDbText
  0
TEXT
  5
E6
330
739
100
AcDbEntity
  8
0
100
AcDbText
 10
528.7816726650869
 20
13.94599052360607
 30
0.0
 40
0.75
  1
HOT ROLL STEEL-SAFETY YELLOW POWDER COATED
  7
ROMANS
100
AcDbText
  0
LINE
  5
E7
330
739
100
AcDbEntity
  8
0
100
AcDbLine
 10
528.7160699566384
 20
15.21436554955306
 30
0.0
 11
553.721874733366
 21
15.21436554955306
 31
0.0
  0
DIMENSION
  5
E8
330
739
100
AcDbEntity
  8
0
100
AcDbDimension
  2
*D4
 10
474.7331827371398
 20
66.83179719657025
 30
0.0
 11
474.7331827371398
 21
62.83179719657032
 31
0.0
 70
    32
 71
     5
 42
7.999999999999992
  3
STANDARD$0
100
AcDbAlignedDimension
 13
479.9996691694712
 23
58.83179719657025
 33
0.0
 14
478.6246691694712
 24
66.83179719657025
 34
0.0
 50
90.0
100
AcDbRotatedDimension
  0
LINE
  5
E9
330
739
100
AcDbEntity
  8
0
  6
ByBlock
100
AcDbLine
 10
492.6246691694712
 20
20.33310863432185
 30
0.0
 11
492.6246691694712
 21
19.67077817495027
 31
0.0
  0
POINT
  5
EA
330
739
100
AcDbEntity
  8
DEFPOINTS
  6
ByBlock
100
AcDbPoint
 10
492.6246691694712
 20
21.83729643193254
 30
0.0
  0
POINT
  5
EB
330
739
100
AcDbEntity
  8
DEFPOINTS
  6
ByBlock
100
AcDbPoint
 10
486.6246691694712
 20
22.83729643193254
 30
0.0
  0
LINE
  5
EC
330
739
100
AcDbEntity
  8
0
  6
ByBlock
100
AcDbLine
 10
491.8746691694712
 20
24.83729643193254
 30
0.0
 11
489.0566322599414
 21
24.83729643193254
 31
0.0
  0
POINT
  5
ED
330
739
100
AcDbEntity
  8
DEFPOINTS
  6
ByBlock
100
AcDbPoint
 10
492.6246691694712
 20
24.83729643193254
 30
0.0
  0
POINT
  5
EE
330
739
100
AcDbEntity
  8
DEFPOINTS
  6
ByBlock
100
AcDbPoint
 10
491.6246691694712
 20
23.83729643193254
 30
0.0
  0
POINT
  5
EF
330
739
100
AcDbEntity
  8
DEFPOINTS
  6
ByBlock
100
AcDbPoint
 10
483.8746691694712
 20
72.20679719657025
 30
0.0
  0
POINT
  5
F0
330
739
100
AcDbEntity
  8
DEFPOINTS
  6
ByBlock
100
AcDbPoint
 10
492.6246691694712
 20
63.45679719657025
 30
0.0
  0
TEXT
  5
F3
330
739
100
AcDbEntity
  8
0
100
AcDbText
 10
482.3798749133608
 20
55.50918361070386
 30
0.0
 40
1.0
  1
PLAN
  7
ROMANC
100
AcDbText
  0
INSERT
  5
447
330
739
100
AcDbEntity
  8
0
100
AcDbBlockReference
  2
LINETYPE
 10
364.3849553094191
 20
-3.676856388634192
 30
0.0
  0
INSERT
  5
462
330
739
100
AcDbEntity
  8
0
100
AcDbBlockReference
  2
LINETYPE
 10
364.3849553094191
 20
-3.676856388634192
 30
0.0
  0
INSERT
  5
47D
330
739
100
AcDbEntity
  8
0
100
AcDbBlockReference
  2
LINETYPE
 10
407.4897889684836
 20
33.61841639031151
 30
0.0
  0
LINE
  5
675
330
739
100
AcDbEntity
  8
0
  6
ByBlock
100
AcDbLine
 10
488.2496691694712
 20
58.20679719657025
 30
0.0
 11
495.6992122249851
 21
58.20679719657025
 31
0.0
  0
LINE
  5
676
330
739
100
AcDbEntity
  8
0
  6
ByBlock
100
AcDbLine
 10
493.3746691694712
 20
63.20679719657025
 30
0.0
 11
495.6992122249851
 21
63.20679719657025
 31
0.0
  0
LINE
  5
677
330
739
100
AcDbEntity
  8
0
  6
ByBlock
100
AcDbLine
 10
494.9492122249851
 20
58.95679719657024
 30
0.0
 11
494.9492122249851
 21
59.70679719657025
 31
0.0
  0
LINE
  5
678
330
739
100
AcDbEntity
  8
0
  6
ByBlock
100
AcDbLine
 10
494.9492122249851
 20
62.45679719657025
 30
0.0
 11
494.9492122249851
 21
61.70679719657025
 31
0.0
  0
SOLID
  5
67A
330
739
100
AcDbEntity
  8
0
  6
ByBlock
100
AcDbTrace
 10
495.0742122249851
 20
58.95679719657024
 30
0.0
 11
494.8242122249851
 21
58.95679719657024
 31
0.0
 12
494.9492122249851
 22
58.20679719657025
 32
0.0
 13
494.9492122249851
 23
58.20679719657025
 33
0.0
  0
SOLID
  5
67B
330
739
100
AcDbEntity
  8
0
  6
ByBlock
100
AcDbTrace
 10
495.0742122249851
 20
62.45679719657025
 30
0.0
 11
494.8242122249851
 21
62.45679719657025
 31
0.0
 12
494.9492122249851
 22
63.20679719657025
 32
0.0
 13
494.9492122249851
 23
63.20679719657025
 33
0.0
  0
TEXT
  5
67C
330
739
100
AcDbEntity
  8
0
  6
ByBlock
100
AcDbText
 10
494.424164935913
 20
60.46182228854686
 30
0.0
 40
0.75
  1
5"
  7
ROMANS
 72
     4
 11
495.0491649359131
 21
60.90825085997543
 31
0.0
100
AcDbText
  0
POINT
  5
67D
330
739
100
AcDbEntity
  8
DEFPOINTS
  6
ByBlock
100
AcDbPoint
 10
487.4996691694712
 20
58.20679719657025
 30
0.0
  0
POINT
  5
67E
330
739
100
AcDbEntity
  8
DEFPOINTS
  6
ByBlock
100
AcDbPoint
 10
492.6246691694712
 20
63.45679719657025
 30
0.0
  0
POINT
  5
67F
330
739
100
AcDbEntity
  8
DEFPOINTS
  6
ByBlock
100
AcDbPoint
 10
494.9492122249851
 20
63.20679719657025
 30
0.0
  0
LINE
  5
692
330
739
100
AcDbEntity
  8
0
  6
ByBlock
100
AcDbLine
 10
480.6246691694712
 20
21.08729643193254
 30
0.0
 11
480.6246691694712
 21
17.86451054281684
 31
0.0
  0
LINE
  5
694
330
739
100
AcDbEntity
  8
0
  6
ByBlock
100
AcDbLine
 10
479.8746691694712
 20
18.61451054281684
 30
0.0
 11
479.1246691694712
 21
18.61451054281684
 31
0.0
  0
TEXT
  5
695
330
739
100
AcDbEntity
  8
0
  6
ByBlock
100
AcDbText
 10
481.5175263123284
 20
18.14384114123624
 30
0.0
 40
0.75
  1
3"
  7
ROMANS
100
AcDbText
  0
SOLID
  5
698
330
739
100
AcDbEntity
  8
0
  6
ByBlock
100
AcDbTrace
 10
479.8746691694712
 20
18.73951054281684
 30
0.0
 11
479.8746691694712
 21
18.48951054281684
 31
0.0
 12
480.6246691694712
 22
18.61451054281684
 32
0.0
 13
480.6246691694712
 23
18.61451054281684
 33
0.0
  0
POINT
  5
69A
330
739
100
AcDbEntity
  8
DEFPOINTS
  6
ByBlock
100
AcDbPoint
 10
480.6246691694712
 20
21.83729643193254
 30
0.0
  0
POINT
  5
69B
330
739
100
AcDbEntity
  8
DEFPOINTS
  6
ByBlock
100
AcDbPoint
 10
480.6246691694712
 20
18.61451054281684
 30
0.0
  0
LINE
  5
6AA
330
739
100
AcDbEntity
  8
0
  6
ByBlock
100
AcDbLine
 10
480.6141791423587
 20
47.96229643193254
 30
0.0
 11
480.6141791423587
 21
50.4772201327258
 31
0.0
  0
LINE
  5
6AB
330
739
100
AcDbEntity
  8
0
  6
ByBlock
100
AcDbLine
 10
478.6246691694712
 20
47.83729643193254
 30
0.0
 11
478.6246691694712
 21
50.4772201327258
 31
0.0
  0
LINE
  5
6AC
330
739
100
AcDbEntity
  8
0
  6
ByBlock
100
AcDbLine
 10
481.3641791423586
 20
49.7272201327258
 30
0.0
 11
482.1141791423587
 21
49.7272201327258
 31
0.0
  0
LINE
  5
6AD
330
739
100
AcDbEntity
  8
0
  6
ByBlock
100
AcDbLine
 10
477.8746691694713
 20
49.7272201327258
 30
0.0
 11
477.1246691694712
 21
49.7272201327258
 31
0.0
  0
TEXT
  5
6AE
330
739
100
AcDbEntity
  8
0
  6
ByBlock
100
AcDbText
 10
479.0122812987721
 20
49.34100891431549
 30
0.0
 40
0.75
  1
2"
  7
ROMANS
100
AcDbText
  0
SOLID
  5
6B0
330
739
100
AcDbEntity
  8
0
  6
ByBlock
100
AcDbTrace
 10
481.3641791423586
 20
49.8522201327258
 30
0.0
 11
481.3641791423586
 21
49.60222013272581
 31
0.0
 12
480.6141791423587
 22
49.7272201327258
 32
0.0
 13
480.6141791423587
 23
49.7272201327258
 33
0.0
  0
SOLID
  5
6B1
330
739
100
AcDbEntity
  8
0
  6
ByBlock
100
AcDbTrace
 10
477.8746691694713
 20
49.8522201327258
 30
0.0
 11
477.8746691694713
 21
49.60222013272581
 31
0.0
 12
478.6246691694712
 22
49.7272201327258
 32
0.0
 13
478.6246691694712
 23
49.7272201327258
 33
0.0
  0
POINT
  5
6B2
330
739
100
AcDbEntity
  8
DEFPOINTS
  6
ByBlock
100
AcDbPoint
 10
480.6141791423587
 20
47.21229643193254
 30
0.0
  0
POINT
  5
6B3
330
739
100
AcDbEntity
  8
DEFPOINTS
  6
ByBlock
100
AcDbPoint
 10
478.6246691694712
 20
47.08729643193254
 30
0.0
  0
POINT
  5
6B4
330
739
100
AcDbEntity
  8
DEFPOINTS
  6
ByBlock
100
AcDbPoint
 10
478.6246691694712
 20
49.7272201327258
 30
0.0
  0
LINE
  5
6B5
330
739
100
AcDbEntity
  8
0
  6
ByBlock
100
AcDbLine
 10
487.2496691694713
 20
48.58729643193254
 30
0.0
 11
487.2496691694713
 21
50.4772201327258
 31
0.0
  0
LINE
  5
6B6
330
739
100
AcDbEntity
  8
0
  6
ByBlock
100
AcDbLine
 10
487.4996691694712
 20
48.58729643193255
 30
0.0
 11
487.4996691694712
 21
50.4772201327258
 31
0.0
  0
LINE
  5
6B7
330
739
100
AcDbEntity
  8
0
  6
ByBlock
100
AcDbLine
 10
486.4996691694712
 20
49.7272201327258
 30
0.0
 11
485.7496691694712
 21
49.7272201327258
 31
0.0
  0
LINE
  5
6B8
330
739
100
AcDbEntity
  8
0
  6
ByBlock
100
AcDbLine
 10
488.2496691694712
 20
49.7272201327258
 30
0.0
 11
488.9996691694712
 21
49.7272201327258
 31
0.0
  0
SOLID
  5
6B9
330
739
100
AcDbEntity
  8
0
  6
ByBlock
100
AcDbTrace
 10
486.4996691694712
 20
49.8522201327258
 30
0.0
 11
486.4996691694712
 21
49.60222013272581
 31
0.0
 12
487.2496691694713
 22
49.7272201327258
 32
0.0
 13
487.2496691694713
 23
49.7272201327258
 33
0.0
  0
SOLID
  5
6BA
330
739
100
AcDbEntity
  8
0
  6
ByBlock
100
AcDbTrace
 10
488.2496691694712
 20
49.8522201327258
 30
0.0
 11
488.2496691694712
 21
49.60222013272581
 31
0.0
 12
487.4996691694712
 22
49.7272201327258
 32
0.0
 13
487.4996691694712
 23
49.7272201327258
 33
0.0
  0
TEXT
  5
6BB
330
739
100
AcDbEntity
  8
0
  6
ByBlock
100
AcDbText
 10
489.713954883757
 20
49.3522201327258
 30
0.0
 40
0.75
  1
1/4"
  7
ROMANS
 72
     1
 11
491.1425263123284
 21
49.7272201327258
 31
0.0
100
AcDbText
 73
     2
  0
POINT
  5
6BC
330
739
100
AcDbEntity
  8
DEFPOINTS
  6
ByBlock
100
AcDbPoint
 10
487.2496691694713
 20
47.83729643193254
 30
0.0
  0
POINT
  5
6BD
330
739
100
AcDbEntity
  8
DEFPOINTS
  6
ByBlock
100
AcDbPoint
 10
487.4996691694712
 20
47.83729643193255
 30
0.0
  0
POINT
  5
6BE
330
739
100
AcDbEntity
  8
DEFPOINTS
  6
ByBlock
100
AcDbPoint
 10
487.4996691694712
 20
49.7272201327258
 30
0.0
  0
LINE
  5
F64
330
739
100
AcDbEntity
  8
0
100
AcDbLine
 10
468.7056129421264
 20
12.55084862116783
 30
0.0
 11
568.6925191921248
 21
12.55084862116783
 31
0.0
  0
LINE
  5
F65
330
739
100
AcDbEntity
  8
0
100
AcDbLine
 10
493.2458200111252
 20
8.80388239534956
 30
0.0
 11
548.695137942125
 21
8.80388239534956
 31
0.0
  0
LINE
  5
F66
330
739
100
AcDbEntity
  8
0
100
AcDbLine
 10
468.7056129421264
 20
6.930399282440461
 30
0.0
 11
568.6925191921248
 21
6.930399282440461
 31
0.0
  0
LINE
  5
F67
330
739
100
AcDbEntity
  8
0
100
AcDbLine
 10
493.2458200111252
 20
10.6773655082587
 30
0.0
 11
568.6925191921248
 21
10.6773655082587
 31
0.0
  0
LINE
  5
F68
330
739
100
AcDbEntity
  8
0
100
AcDbLine
 10
568.6925191921248
 20
78.92097178243922
 30
0.0
 11
468.7056129421264
 21
78.92097178243922
 31
0.0
  0
LINE
  5
F69
330
739
100
AcDbEntity
  8
0
100
AcDbLine
 10
468.7056129421264
 20
78.92097178243922
 30
0.0
 11
468.7056129421264
 21
6.930399282440461
 31
0.0
  0
TEXT
  5
F6A
330
739
100
AcDbEntity
  8
0
100
AcDbText
 10
474.116044958132
 20
8.223027371181643
 30
0.0
 40
0.5180247448059874
  1
Ph: (423) 586-2265 Fax: (423) 586-2091
  7
ROMANS
100
AcDbText
  0
TEXT
  5
F6B
330
739
100
AcDbEntity
  8
0
100
AcDbText
 10
473.8258843275359
 20
9.061734100867496
 30
0.0
 40
0.5180247448059874
  1
P.O. BOX 2279 Morristown, TN 37816-2279
  7
ROMANS
100
AcDbText
  0
ATTDEF
  5
F6C
330
739
100
AcDbEntity
  8
0
100
AcDbText
 10
469.1675880914224
 20
13.09430505464662
 30
0.0
 40
0.8180746874999861
  1

  7
ROMANS
100
AcDbAttributeDefinition
  3
SCALE
  2
SCALE
 70
     0
  0
POLYLINE
  5
F6D
330
739
100
AcDbEntity
  8
0
100
AcDb2dPolyline
 66
     1
 10
0.0
 20
0.0
 30
0.0
1001
ACAD
1000
ASC_BOUNDS
1002
{
1070
    19
1002
}
  0
VERTEX
  5
F6E
330
F6D
100
AcDbEntity
  8
0
100
AcDbVertex
100
AcDb2dVertex
 10
471.8930794621688
 20
9.273174327792872
 30
0.0
  0
VERTEX
  5
F6F
330
F6D
100
AcDbEntity
  8
0
100
AcDbVertex
100
AcDb2dVertex
 10
471.9759362714772
 20
9.315392582085976
 30
0.0
1001
ACAD
1000
ASC_BOUNDS
1002
{
1070
    19
1002
}
  0
VERTEX
  5
F70
330
F6D
100
AcDbEntity
  8
0
100
AcDbVertex
100
AcDb2dVertex
 10
472.5333423617505
 20
8.199974962359362
 30
0.0
1001
ACAD
1000
ASC_BOUNDS
1002
{
1070
    19
1002
}
  0
VERTEX
  5
F71
330
F6D
100
AcDbEntity
  8
0
100
AcDbVertex
100
AcDb2dVertex
 10
472.3542361176614
 20
8.201105070278828
 30
0.0
  0
VERTEX
  5
F72
330
F6D
100
AcDbEntity
  8
0
100
AcDbVertex
100
AcDb2dVertex
 10
471.8336299566738
 20
9.242882860362001
 30
0.0
  0
SEQEND
  5
F73
330
F6D
100
AcDbEntity
  8
0
  0
TEXT
  5
F74
330
739
100
AcDbEntity
  8
0
100
AcDbText
 10
471.9834997912192
 20
9.942814560819527
 30
0.0
 40
0.8467567979678589
  1
Precision Ladders, LLC
  7
STYLE1
100
AcDbText
  0
CIRCLE
  5
F75
330
739
100
AcDbEntity
  8
0
100
AcDbCircle
 10
471.3287764340724
 20
9.818668660272351
 30
0.0
 40
2.322162619921953
1001
ACAD
1000
ASC_BOUNDS
1002
{
1070
    19
1002
}
  0
INSERT
  5
F76
330
739
100
AcDbEntity
  8
0
100
AcDbBlockReference
  2
*X7
 10
478.2865543428624
 20
61.92503219998908
 30
0.0
 41
0.1878927126913936
 42
0.1878927126913936
 43
0.1878927126914065
1001
ACAD
1000
HATCH
1002
{
1070
    19
1000
ANSI31
1040
0.8843871093750001
1040
0.0
1002
}
  0
LWPOLYLINE
  5
F77
330
739
100
AcDbEntity
  8
0
100
AcDbPolyline
 90
        4
 70
     1
 43
0.0
 10
469.7874671153293
 20
11.00468205452223
 10
469.7874671153293
 20
11.17280266476129
 10
471.5779516143751
 20
11.17280266476129
 10
471.5779516143751
 20
11.00468205452223
1001
ACAD
1000
ASC_BOUNDS
1002
{
1070
    19
1005
0
1005
0
1002
}
  0
LINE
  5
F78
330
739
100
AcDbEntity
  8
0
100
AcDbLine
 10
469.8499421633491
 20
10.9865367177772
 30
0.0
 11
470.5941124719737
 21
9.526020252185432
 31
0.0
1001
ACAD
1000
ASC_BOUNDS
1002
{
1070
    19
1002
}
  0
LWPOLYLINE
  5
F79
330
739
100
AcDbEntity
  8
0
100
AcDbPolyline
 90
        4
 70
     0
 43
0.0
 10
469.8121013142333
 20
11.00394484598847
 10
470.6000822646171
 20
9.457445154627492
 10
470.5964871471634
 20
9.455613350790883
 10
469.8085061967796
 20
11.00211304215186
1001
ACAD
1000
ASC_BOUNDS
1002
{
1070
    19
1002
}
  0
LINE
  5
F7A
330
739
100
AcDbEntity
  8
0
100
AcDbLine
 10
469.8274726792631
 20
10.97508794379834
 30
0.0
 11
469.8499421633491
 21
10.9865367177772
 31
0.0
1001
ACAD
1000
ASC_BOUNDS
1002
{
1070
    19
1002
}
  0
LINE
  5
F7B
330
739
100
AcDbEntity
  8
0
100
AcDbLine
 10
469.8499421633491
 20
10.9865367177772
 30
0.0
 11
469.8855543918709
 21
11.00468205452223
 31
0.0
1001
ACAD
1000
ASC_BOUNDS
1002
{
1070
    19
1002
}
  0
LINE
  5
F7C
330
739
100
AcDbEntity
  8
0
100
AcDbLine
 10
469.8499421633491
 20
10.9865367177772
 30
0.0
 11
469.8957372592644
 21
10.8966587814331
 31
0.0
1001
ACAD
1000
ASC_BOUNDS
1002
{
1070
    19
1002
}
  0
LINE
  5
F7D
330
739
100
AcDbEntity
  8
0
100
AcDbLine
 10
470.5498444760447
 20
10.39810810756721
 30
0.0
 11
470.3765750176718
 21
10.04610044373099
 31
0.0
1001
ACAD
1000
ASC_BOUNDS
1002
{
1070
    19
1005
0
1002
}
  0
LWPOLYLINE
  5
F7E
330
739
100
AcDbEntity
  8
0
100
AcDbPolyline
 90
        2
 70
     0
 43
0.0
 10
470.5091972705756
 20
10.40036143155954
 10
470.3430035786273
 20
10.062728626584
1001
ACAD
1000
ASC_BOUNDS
1002
{
1070
    19
1005
0
1002
}
  0
LINE
  5
F7F
330
739
100
AcDbEntity
  8
0
100
AcDbLine
 10
470.1803317620129
 20
11.00468205452223
 30
0.0
 11
470.498903704635
 21
10.37944941317306
 31
0.0
1001
ACAD
1000
ASC_BOUNDS
1002
{
1070
    19
1002
}
  0
LINE
  5
F80
330
739
100
AcDbEntity
  8
0
100
AcDbLine
 10
470.1520288362192
 20
11.00468205452223
 30
0.0
 11
470.4849965391074
 21
10.35119614283972
 31
0.0
1001
ACAD
1000
ASC_BOUNDS
1002
{
1070
    19
1002
}
  0
LINE
  5
F81
330
739
100
AcDbEntity
  8
0
100
AcDbLine
 10
470.1229318328731
 20
10.80256591463764
 30
0.0
 11
470.4200964333125
 21
10.21934754795097
 31
0.0
1001
ACAD
1000
ASC_BOUNDS
1002
{
1070
    19
1002
}
  0
LINE
  5
F82
330
739
100
AcDbEntity
  8
0
100
AcDbLine
 10
470.6995622737498
 20
9.44284959081105
 30
0.0
 11
471.8336299566738
 21
9.242882860362001
 31
0.0
1001
ACAD
1000
ASC_BOUNDS
1002
{
1070
    19
1002
}
  0
POLYLINE
  5
F83
330
739
100
AcDbEntity
  8
0
100
AcDb2dPolyline
 66
     1
 10
0.0
 20
0.0
 30
0.0
1001
ACAD
1000
ASC_BOUNDS
1002
{
1070
    19
1002
}
  0
VERTEX
  5
F84
330
F83
100
AcDbEntity
  8
0
100
AcDbVertex
100
AcDb2dVertex
 10
470.726782646667
 20
9.557634712213854
 30
0.0
  0
VERTEX
  5
F85
330
F83
100
AcDbEntity
  8
0
100
AcDbVertex
100
AcDb2dVertex
 10
470.7364192045186
 20
9.598529154051462
 30
0.0
1001
ACAD
1000
ASC_BOUNDS
1002
{
1070
    19
1002
}
  0
VERTEX
  5
F86
330
F83
100
AcDbEntity
  8
0
100
AcDbVertex
100
AcDb2dVertex
 10
471.8655659722476
 20
9.399430113721038
 30
0.0
1001
ACAD
1000
ASC_BOUNDS
1002
{
1070
    19
1002
}
  0
VERTEX
  5
F87
330
F83
100
AcDbEntity
  8
0
100
AcDbVertex
100
AcDb2dVertex
 10
471.8457742023489
 20
9.30241277573819
 30
0.0
  0
SEQEND
  5
F88
330
F83
100
AcDbEntity
  8
0
  0
LINE
  5
F89
330
739
100
AcDbEntity
  8
0
100
AcDbLine
 10
470.5062351420358
 20
10.3095130376104
 30
0.0
 11
470.8318737473955
 21
9.670411289733181
 31
0.0
1001
ACAD
1000
ASC_BOUNDS
1002
{
1070
    19
1005
0
1002
}
  0
LWPOLYLINE
  5
F8A
330
739
100
AcDbEntity
  8
0
100
AcDbPolyline
 90
        2
 70
     0
 43
0.0
 10
470.5201423075632
 20
10.33776630794371
 10
470.8535932740867
 20
9.683331937974116
1001
ACAD
1000
ASC_BOUNDS
1002
{
1070
    19
1002
}
  0
LWPOLYLINE
  5
F8B
330
739
100
AcDbEntity
  8
0
100
AcDbPolyline
 90
        3
 70
     0
 43
0.0
 10
470.3433054079476
 20
10.02081892691187
 10
470.4037477293648
 20
10.05029861679564
 10
470.3909779061425
 20
10.07536080600518
1001
ACAD
1000
ASC_BOUNDS
1002
{
1070
    19
1002
}
  0
CIRCLE
  5
F8C
330
739
100
AcDbEntity
  8
0
100
AcDbCircle
 10
470.3672717106161
 20
10.06912996226422
 30
0.0
 40
0.006304522883964
1001
ACAD
1000
ASC_BOUNDS
1002
{
1070
    19
1002
}
  0
LINE
  5
F8D
330
739
100
AcDbEntity
  8
0
100
AcDbLine
 10
470.3642184987615
 20
10.10582805417519
 30
0.0
 11
470.312775344004
 21
10.08073755114129
 31
0.0
1001
ACAD
1000
ASC_BOUNDS
1002
{
1070
    19
1002
}
  0
LINE
  5
F8E
330
739
100
AcDbEntity
  8
0
100
AcDbLine
 10
470.3045692578912
 20
10.09326939108879
 30
0.0
 11
470.3503643538066
 21
10.00339145474467
 31
0.0
1001
ACAD
1000
ASC_BOUNDS
1002
{
1070
    19
1002
}
  0
LINE
  5
F8F
330
739
100
AcDbEntity
  8
0
100
AcDbLine
 10
470.3765485864332
 20
10.04606322775142
 30
0.0
 11
470.342938725152
 21
10.06261361170959
 31
0.0
1001
ACAD
1000
ASC_BOUNDS
1002
{
1070
    19
1002
}
  0
LWPOLYLINE
  5
F90
330
739
100
AcDbEntity
  8
0
100
AcDbPolyline
 90
        2
 70
     1
 43
0.0
 10
470.3735762335
 20
10.06912996226422
 42
-1.0
 10
470.3609671877321
 20
10.06912996226422
 42
-1.0
1001
ACAD
1000
ASC_BOUNDS
1002
{
1070
    19
1002
}
  0
LINE
  5
F91
330
739
100
AcDbEntity
  8
0
100
AcDbLine
 10
470.8537735978695
 20
9.68344028743391
 30
0.0
 11
470.8321574744188
 21
9.670452010116392
 31
0.0
1001
ACAD
1000
ASC_BOUNDS
1002
{
1070
    19
1002
}
  0
LINE
  5
F92
330
739
100
AcDbEntity
  8
0
100
AcDbLine
 10
470.6799445594443
 20
9.569753885134872
 30
0.0
 11
470.5711126366753
 21
9.514301250766678
 31
0.0
1001
ACAD
1000
ASC_BOUNDS
1002
{
1070
    19
1002
}
  0
POLYLINE
  5
F93
330
739
100
AcDbEntity
  8
0
100
AcDb2dPolyline
 66
     1
 10
0.0
 20
0.0
 30
0.0
1001
ACAD
1000
ASC_BOUNDS
1002
{
1070
    19
1002
}
  0
VERTEX
  5
F94
330
F93
100
AcDbEntity
  8
0
100
AcDbVertex
100
AcDb2dVertex
 10
470.6997272865615
 20
9.442820494600141
 30
0.0
  0
VERTEX
  5
F95
330
F93
100
AcDbEntity
  8
0
100
AcDbVertex
100
AcDb2dVertex
 10
470.7222448005131
 20
9.538377557484466
 30
0.0
1001
ACAD
1000
ASC_BOUNDS
1002
{
1070
    19
1002
}
  0
SEQEND
  5
F96
330
F93
100
AcDbEntity
  8
0
  0
LINE
  5
F97
330
739
100
AcDbEntity
  8
0
100
AcDbLine
 10
470.4413350362409
 20
10.17766444272159
 30
0.0
 11
470.6469166696535
 21
9.774187769246978
 31
0.0
1001
ACAD
1000
ASC_BOUNDS
1002
{
1070
    19
1002
}
  0
LINE
  5
F98
330
739
100
AcDbEntity
  8
0
100
AcDbLine
 10
470.6589684148839
 20
9.750534887448012
 30
0.0
 11
470.7364192045186
 21
9.598529154051462
 31
0.0
1001
ACAD
1000
ASC_BOUNDS
1002
{
1070
    19
1002
}
  0
LWPOLYLINE
  5
F99
330
739
100
AcDbEntity
  8
0
100
AcDbPolyline
 90
        4
 70
     0
 43
0.0
 10
470.7647585897201
 20
9.802132203265685
 10
470.5905686340643
 20
9.717174085291503
 10
470.5791198600855
 20
9.739643569377548
 10
470.751774262055
 20
9.82761538114822
1001
ACAD
1000
ASC_BOUNDS
1002
{
1070
    19
1005
0
1002
}
  0
LWPOLYLINE
  5
F9A
330
739
100
AcDbEntity
  8
0
100
AcDbPolyline
 90
        5
 70
     0
 43
0.0
 10
470.7364192045266
 20
9.598529154086435
 10
470.740959076971
 20
9.588254419799696
 10
470.7968942693392
 20
9.475249739487338
 10
470.7592260425685
 20
9.456604675364602
 10
470.711780370957
 20
9.56151649271176
1001
ACAD
1000
ASC_BOUNDS
1002
{
1070
    19
1002
}
  0
POLYLINE
  5
F9B
330
739
100
AcDbEntity
  8
0
100
AcDb2dPolyline
 66
     1
 10
0.0
 20
0.0
 30
0.0
 70
     1
1001
ACAD
1000
ASC_BOUNDS
1002
{
1070
    19
1002
}
  0
VERTEX
  5
F9C
330
F9B
100
AcDbEntity
  8
0
100
AcDbVertex
100
AcDb2dVertex
 10
470.5946769643375
 20
9.591312219673881
 30
0.0
1001
ACAD
1000
ASC_BOUNDS
1002
{
1070
    19
1002
}
  0
VERTEX
  5
F9D
330
F9B
100
AcDbEntity
  8
0
100
AcDbVertex
100
AcDb2dVertex
 10
470.6024707915195
 20
9.628742895676253
 30
0.0
  0
VERTEX
  5
F9E
330
F9B
100
AcDbEntity
  8
0
100
AcDbVertex
100
AcDb2dVertex
 10
470.6133208826759
 20
9.625834953384796
 30
0.0
  0
VERTEX
  5
F9F
330
F9B
100
AcDbEntity
  8
0
100
AcDbVertex
100
AcDb2dVertex
 10
470.7364192045266
 20
9.598529154086435
 30
0.0
  0
VERTEX
  5
FA0
330
F9B
100
AcDbEntity
  8
0
100
AcDbVertex
100
AcDb2dVertex
 10
470.7273172714272
 20
9.557496380136242
 30
0.0
  0
VERTEX
  5
FA1
330
F9B
100
AcDbEntity
  8
0
100
AcDbVertex
100
AcDb2dVertex
 10
470.6052468964007
 20
9.589081614956953
 30
0.0
  0
SEQEND
  5
FA2
330
F9B
100
AcDbEntity
  8
0
  0
LWPOLYLINE
  5
FA3
330
739
100
AcDbEntity
  8
0
100
AcDbPolyline
 90
        5
 70
     0
 43
0.0
 10
471.8336299566738
 20
9.242882860362001
 10
471.8286478838522
 20
9.252950608713888
 10
471.7678549077941
 20
9.363417877982911
 10
471.8046773308837
 20
9.383682203335609
 10
471.8566371299756
 20
9.280931240069634
1001
ACAD
1000
ASC_BOUNDS
1002
{
1070
    19
1002
}
  0
LINE
  5
FA4
330
739
100
AcDbEntity
  8
0
100
AcDbLine
 10
471.8420263583582
 20
9.284041207706508
 30
0.0
 11
471.8336299566738
 21
9.242882860362001
 31
0.0
1001
ACAD
1000
ASC_BOUNDS
1002
{
1070
    19
1002
}
  0
POLYLINE
  5
FA5
330
739
100
AcDbEntity
  8
0
100
AcDb2dPolyline
 66
     1
 10
0.0
 20
0.0
 30
0.0
 70
     1
1001
ACAD
1000
ASC_BOUNDS
1002
{
1070
    19
1002
}
  0
VERTEX
  5
FA6
330
FA5
100
AcDbEntity
  8
0
100
AcDbVertex
100
AcDb2dVertex
 10
471.9749246928761
 20
9.256252389810114
 30
0.0
1001
ACAD
1000
ASC_BOUNDS
1002
{
1070
    19
1002
}
  0
VERTEX
  5
FA7
330
FA5
100
AcDbEntity
  8
0
100
AcDbVertex
100
AcDb2dVertex
 10
471.9687647787406
 20
9.218518390472937
 30
0.0
  0
VERTEX
  5
FA8
330
FA5
100
AcDbEntity
  8
0
100
AcDbVertex
100
AcDb2dVertex
 10
471.9577985720516
 20
9.220952094919098
 30
0.0
  0
VERTEX
  5
FA9
330
FA5
100
AcDbEntity
  8
0
100
AcDbVertex
100
AcDb2dVertex
 10
471.8336299566738
 20
9.242882860362001
 30
0.0
  0
VERTEX
  5
FAA
330
FA5
100
AcDbEntity
  8
0
100
AcDbVertex
100
AcDb2dVertex
 10
471.8409402118214
 20
9.284272398821315
 30
0.0
  0
VERTEX
  5
FAB
330
FA5
100
AcDbEntity
  8
0
100
AcDbVertex
100
AcDb2dVertex
 10
471.9642678143575
 20
9.258021570825235
 30
0.0
  0
SEQEND
  5
FAC
330
FA5
100
AcDbEntity
  8
0
  0
LINE
  5
FAD
330
739
100
AcDbEntity
  8
0
100
AcDbLine
 10
471.8655659722476
 20
9.399430113721038
 30
0.0
 11
471.8457742023489
 21
9.30241277573819
 31
0.0
1001
ACAD
1000
ASC_BOUNDS
1002
{
1070
    19
1002
}
  0
LINE
  5
FAE
330
739
100
AcDbEntity
  8
0
100
AcDbLine
 10
471.8457742023489
 20
9.30241277573819
 30
0.0
 11
471.8566371299756
 21
9.280931240069634
 31
0.0
1001
ACAD
1000
ASC_BOUNDS
1002
{
1070
    19
1002
}
  0
LINE
  5
FAF
330
739
100
AcDbEntity
  8
0
100
AcDbLine
 10
471.8566371299756
 20
9.280931240069634
 30
0.0
 11
471.8930794621688
 21
9.273174327792872
 31
0.0
  0
LINE
  5
FB0
330
739
100
AcDbEntity
  8
0
100
AcDbLine
 10
471.8930794621688
 20
9.273174327792872
 30
0.0
 11
471.9759362714772
 21
9.315392582085976
 31
0.0
1001
ACAD
1000
ASC_BOUNDS
1002
{
1070
    19
1002
}
  0
LINE
  5
FB1
330
739
100
AcDbEntity
  8
0
100
AcDbLine
 10
470.0199485158483
 20
11.00468205452223
 30
0.0
 11
470.1120818013576
 21
10.823860300475
 31
0.0
1001
ACAD
1000
ASC_BOUNDS
1002
{
1070
    19
1002
}
  0
LWPOLYLINE
  5
FB2
330
739
100
AcDbEntity
  8
0
100
AcDbPolyline
 90
        4
 70
     0
 43
0.0
 10
470.2178719761938
 20
10.87545761629268
 10
470.0443595273703
 20
10.79082994047954
 10
470.0554144110767
 20
10.76816406994811
 10
470.2277894252746
 20
10.85599352653888
1001
ACAD
1000
ASC_BOUNDS
1002
{
1070
    19
1002
}
  0
LINE
  5
FB3
330
739
100
AcDbEntity
  8
0
100
AcDbLine
 10
470.7815181103365
 20
11.00468205452223
 30
0.0
 11
470.5662019841126
 21
10.61551645453565
 31
0.0
1001
ACAD
1000
ASC_BOUNDS
1002
{
1070
    19
1002
}
  0
LINE
  5
FB4
330
739
100
AcDbEntity
  8
0
100
AcDbLine
 10
470.7334837922162
 20
11.00468205452223
 30
0.0
 11
470.5730609830827
 21
10.71473146018977
 31
0.0
1001
ACAD
1000
ASC_BOUNDS
1002
{
1070
    19
1002
}
  0
CIRCLE
  5
FB5
330
739
100
AcDbEntity
  8
0
100
AcDbCircle
 10
470.531207282324
 20
10.40837542240346
 30
0.0
 40
0.006304522883964
1001
ACAD
1000
ASC_BOUNDS
1002
{
1070
    19
1002
}
  0
LWPOLYLINE
  5
FB6
330
739
100
AcDbEntity
  8
0
100
AcDbPolyline
 90
        2
 70
     1
 43
0.0
 10
470.537511805208
 20
10.40837542240346
 42
-1.0
 10
470.52490275944
 20
10.40837542240346
 42
-1.0
1001
ACAD
1000
ASC_BOUNDS
1002
{
1070
    19
1002
}
  0
LINE
  5
FB7
330
739
100
AcDbEntity
  8
0
100
AcDbLine
 10
470.5511270986836
 20
10.39745914769021
 30
0.0
 11
470.549525037186
 21
10.39745914769021
 31
0.0
  0
LINE
  5
FB8
330
739
100
AcDbEntity
  8
0
100
AcDbLine
 10
470.5931060439562
 20
11.00468205452223
 30
0.0
 11
470.5509267011495
 21
10.39456040946818
 31
0.0
1001
ACAD
1000
ASC_BOUNDS
1002
{
1070
    19
1005
0
1002
}
  0
LWPOLYLINE
  5
FB9
330
739
100
AcDbEntity
  8
0
100
AcDbPolyline
 90
        3
 70
     0
 43
0.0
 10
470.5509755731939
 20
11.00468205452223
 10
470.5089966279214
 20
10.39745914769021
 10
470.5510267804812
 20
10.39745914769021
1001
ACAD
1000
ASC_BOUNDS
1002
{
1070
    19
1005
0
1002
}
  0
TEXT
  5
FBA
330
739
100
AcDbEntity
  8
0
100
AcDbText
 10
476.4756062330357
 20
7.286916972054186
 30
0.0
 40
0.5957284565268857
  1
www.PrecisionLadders.com
  7
ROMANS
100
AcDbText
  0
LWPOLYLINE
  5
FBB
330
739
100
AcDbEntity
  8
0
100
AcDbPolyline
 90
        9
 70
     0
 43
0.0
 10
472.4746953823266
 20
8.177045591370756
 10
472.474774940127
 20
8.189654386147978
 10
472.4369485557954
 20
8.189893059549433
 10
472.411730966241
 20
8.190052175150384
 10
472.4116514084404
 20
8.17744338037319
 42
0.4142135623730939
 10
472.415827820766
 20
8.173213929513934
 10
472.4704659314673
 20
8.172869179045179
 42
0.4142135623730989
 10
472.4746953823266
 20
8.177045591370756
 42
-0.4142135623730944
 10
472.4704659314673
 20
8.172869179045179
1001
ACAD
1000
ASC_BOUNDS
1002
{
1070
    19
1002
}
  0
LINE
  5
FBC
330
739
100
AcDbEntity
  8
0
100
AcDbLine
 10
472.4553473015851
 20
8.200467088335301
 30
0.0
 11
472.4551980009286
 21
8.189777910897987
 31
0.0
1001
ACAD
1000
ASC_BOUNDS
1002
{
1070
    19
1002
}
  0
LINE
  5
FBD
330
739
100
AcDbEntity
  8
0
100
AcDbLine
 10
472.4322311778268
 20
8.200612944302875
 30
0.0
 11
472.4553473015851
 21
8.200467088335301
 31
0.0
1001
ACAD
1000
ASC_BOUNDS
1002
{
1070
    19
1002
}
  0
LINE
  5
FBE
330
739
100
AcDbEntity
  8
0
100
AcDbLine
 10
472.4321722321388
 20
8.191270880050623
 30
0.0
 11
472.4322311778268
 21
8.200612944302875
 31
0.0
1001
ACAD
1000
ASC_BOUNDS
1002
{
1070
    19
1002
}
  0
LINE
  5
FBF
330
739
100
AcDbEntity
  8
0
100
AcDbLine
 10
493.2458200111252
 20
6.930399282440461
 30
0.0
 11
493.2458200111252
 21
12.55084862116783
 31
0.0
  0
TEXT
  5
FC0
330
739
100
AcDbEntity
  8
0
100
AcDbText
 10
492.791485621245
 20
7.210307561987619
 30
0.0
 40
0.4019473631249932
  1
WORK ORDER: ( )
 50
90.0
 41
0.9
  7
ROMANS
100
AcDbText
  0
TEXT
  5
FC1
330
739
100
AcDbEntity
  8
0
100
AcDbText
 10
493.3958003705002
 20
8.20396095784956
 30
0.0
 40
0.4019473631249932
  1
CHECKED BY:
  7
ROMANS
100
AcDbText
  0
TEXT
  5
FC2
330
739
100
AcDbEntity
  8
0
100
AcDbText
 10
493.3958003705002
 20
11.95092718366783
 30
0.0
 40
0.4019473631249932
  1
DWG. CHECK
  7
ROMANS
100
AcDbText
  0
TEXT
  5
FC3
330
739
100
AcDbEntity
  8
0
100
AcDbText
 10
493.3958003705002
 20
10.0774440707587
 30
0.0
 40
0.4019473631249932
  1
BUILT BY:
  7
ROMANS
100
AcDbText
  0
ATTDEF
  5
FC4
330
739
100
AcDbEntity
  8
0
100
AcDbText
 10
492.8465984176633
 20
11.61950625948326
 30
0.0
 40
0.4538175758271982
  1

 50
90.0
  7
ROMANS
 72
     4
 11
492.6196896297497
 21
11.83560986702002
 31
0.0
100
AcDbAttributeDefinition
  3
WORK ORDER (X)
  2
X
 70
     0
  0
LINE
  5
FC5
330
739
100
AcDbEntity
  8
0
100
AcDbLine
 10
504.7008991921258
 20
6.930399282440461
 30
0.0
 11
504.7008991921258
 21
12.55084862116783
 31
0.0
  0
ATTDEF
  5
FC6
330
739
100
AcDbEntity
  8
0
100
AcDbText
 10
511.6232783385053
 20
7.243616098296058
 30
0.0
 40
0.6431993025299892
  1
JEB
  7
ROMANS
 72
     1
 11
512.6187058305161
 21
7.243616098296058
 31
0.0
100
AcDbAttributeDefinition
  3
WHO ARE YOU?
  2
DNH
 70
     0
  0
TEXT
  5
FC7
330
739
100
AcDbEntity
  8
0
100
AcDbText
 10
504.8508795515007
 20
8.20396095784956
 30
0.0
 40
0.4019473631249932
  1
DRAWN BY:
  7
ROMANS
100
AcDbText
  0
TEXT
  5
FC8
330
739
100
AcDbEntity
  8
0
100
AcDbText
 10
504.8508795515007
 20
10.0774440707587
 30
0.0
 40
0.4019473631249932
  1
PURCHASE ORDER
  7
ROMANS
100
AcDbText
  0
TEXT
  5
FC9
330
739
100
AcDbEntity
  8
0
100
AcDbText
 10
504.8508795515007
 20
11.95092718366783
 30
0.0
 40
0.4019473631249932
  1
ARCH'T OR ENG'R.
  7
ROMANS
100
AcDbText
  0
LINE
  5
FCA
330
739
100
AcDbEntity
  8
0
100
AcDbLine
 10
568.6925191921248
 20
6.930399282440461
 30
0.0
 11
568.6925191921248
 21
78.92097178243922
 31
0.0
  0
TEXT
  5
FCB
330
739
100
AcDbEntity
  8
0
100
AcDbText
 10
548.8959987081296
 20
9.92494307554584
 30
0.0
 40
0.4019473631249932
  1
SERIAL#
  7
ROMANS
100
AcDbText
  0
TEXT
  5
FCC
330
739
100
AcDbEntity
  8
0
100
AcDbText
 10
548.8451183015001
 20
11.95092718366783
 30
0.0
 40
0.4019473631249932
  1
PRECISION REP
  7
ROMANS
100
AcDbText
  0
LINE
  5
FCD
330
739
100
AcDbEntity
  8
0
100
AcDbLine
 10
520.6988041921256
 20
6.930399282440461
 30
0.0
 11
520.6988041921256
 21
12.55084862116783
 31
0.0
  0
LINE
  5
FCE
330
739
100
AcDbEntity
  8
0
100
AcDbLine
 10
526.6980185671254
 20
6.930399282440461
 30
0.0
 11
526.6980185671254
 21
10.6773655082587
 31
0.0
  0
ATTDEF
  5
FCF
330
739
100
AcDbEntity
  8
0
100
AcDbText
 10
521.0612109613788
 20
9.117342520700404
 30
0.0
 40
0.6431993025299892
  1

  7
ROMANS
 72
     1
 11
523.618693902391
 21
9.117342520700404
 31
0.0
100
AcDbAttributeDefinition
  3
WORK ORDER DATE?
  2
11/24/15
 70
     0
  0
TEXT
  5
FD0
330
739
100
AcDbEntity
  8
0
100
AcDbText
 10
520.8487845515005
 20
8.20396095784956
 30
0.0
 40
0.4019473631249932
  1
DATE
  7
ROMANS
100
AcDbText
  0
TEXT
  5
FD1
330
739
100
AcDbEntity
  8
0
100
AcDbText
 10
526.8479989265004
 20
8.20396095784956
 30
0.0
 40
0.4019473631249932
  1
MODEL#
  7
ROMANS
100
AcDbText
  0
TEXT
  5
FD2
330
739
100
AcDbEntity
  8
0
100
AcDbText
 10
520.8487845515005
 20
11.95092718366783
 30
0.0
 40
0.4019473631249932
  1
PROJECT
  7
ROMANS
100
AcDbText
  0
TEXT
  5
FD3
330
739
100
AcDbEntity
  8
0
100
AcDbText
 10
520.8487845515005
 20
10.0774440707587
 30
0.0
 40
0.4019473631249932
  1
DATE
  7
ROMANS
100
AcDbText
  0
TEXT
  5
FD4
330
739
100
AcDbEntity
  8
0
100
AcDbText
 10
526.8479989265004
 20
10.0774440707587
 30
0.0
 40
0.4019473631249932
  1
PURCHASER
  7
ROMANS
100
AcDbText
  0
LINE
  5
FD5
330
739
100
AcDbEntity
  8
0
100
AcDbLine
 10
548.695137942125
 20
6.930399282440461
 30
0.0
 11
548.695137942125
 21
12.55084862116783
 31
0.0
  0
LINE
  5
FD6
330
739
100
AcDbEntity
  8
0
100
AcDbLine
 10
544.6956616921251
 20
6.930399282440461
 30
0.0
 11
544.6956616921251
 21
8.80388239534956
 31
0.0
  0
TEXT
  5
FD7
330
739
100
AcDbEntity
  8
0
100
AcDbText
 10
544.8456420515001
 20
8.20396095784956
 30
0.0
 40
0.4019473631249932
  1
QTY.
  7
ROMANS
100
AcDbText
  0
ATTDEF
  5
FD8
330
739
100
AcDbEntity
  8
0
100
AcDbText
 10
565.1168476511197
 20
13.10055464263716
 30
0.0
 40
0.6369478387206924
  1

  7
ROMANS
 72
     4
 11
565.9812768608121
 21
13.41902856199751
 31
0.0
100
AcDbAttributeDefinition
  3
SAVED AS
  2
SAL
 70
     0
  0
LINE
  5
16BD
330
739
100
AcDbEntity
  8
0
 62
     7
100
AcDbLine
 10
527.9346832233914
 20
33.41722843789273
 30
0.0
 11
527.9346832233914
 21
34.20992593789274
 31
0.0
  0
LINE
  5
16BE
330
739
100
AcDbEntity
  8
0
 62
     7
100
AcDbLine
 10
527.9005057233912
 20
34.24410343789274
 30
0.0
 11
526.2990384695718
 21
34.24410343789274
 31
0.0
  0
LINE
  5
16BF
330
739
100
AcDbEntity
  8
0
 62
     7
100
AcDbLine
 10
526.2648609695721
 20
34.20992593789274
 30
0.0
 11
526.2648609695721
 21
31.48785343789274
 31
0.0
  0
LINE
  5
16C0
330
739
100
AcDbEntity
  8
0
 62
     7
100
AcDbLine
 10
527.8486882233915
 20
34.15810843789273
 30
0.0
 11
527.8486882233908
 21
25.05339037334996
 31
0.0
  0
LINE
  5
16C1
330
739
100
AcDbEntity
  8
0
 62
     7
100
AcDbLine
 10
553.7121912472677
 20
34.92830106779102
 30
0.0
 11
525.1362195964816
 21
34.92830106779107
 31
0.0
  0
LINE
  5
16C2
330
739
100
AcDbEntity
  8
0
 62
     7
100
AcDbLine
 10
524.7916883464815
 20
36.13443606779107
 30
0.0
 11
524.7916883464815
 21
32.89529106779106
 31
0.0
  0
LINE
  5
16C3
330
739
100
AcDbEntity
  8
0
 62
     7
100
AcDbLine
 10
524.8464378124536
 20
32.86111356779108
 30
0.0
 11
524.8258658464814
 21
32.86111356779104
 31
0.0
  0
LINE
  5
16C4
330
739
100
AcDbEntity
  8
0
 62
     7
100
AcDbLine
 10
524.8605945964816
 20
36.09970731779107
 30
0.0
 11
524.8605945964816
 21
32.95856172107332
 31
0.0
  0
LINE
  5
16C5
330
739
100
AcDbEntity
  8
0
 62
     7
100
AcDbLine
 10
559.9125906547974
 20
36.16861356779107
 30
0.0
 11
524.8258658464814
 21
36.16861356779107
 31
0.0
  0
LINE
  5
16C6
330
739
100
AcDbEntity
  8
0
 62
     7
100
AcDbLine
 10
553.7121912472677
 20
36.09970731779097
 30
0.0
 11
524.8605945964816
 21
36.09970731779107
 31
0.0
  0
LINE
  5
16C7
330
739
100
AcDbEntity
  8
0
 62
     7
100
AcDbLine
 10
524.8706049544676
 20
32.87112392577705
 30
0.0
 11
525.2503872096106
 21
33.25090618092013
 31
0.0
  0
LINE
  5
16C8
330
739
100
AcDbEntity
  8
0
 62
     7
100
AcDbLine
 10
524.8605945964816
 20
32.95856172107332
 30
0.0
 11
525.2016631329695
 21
33.29963025756129
 31
0.0
  0
LINE
  5
16C9
330
739
100
AcDbEntity
  8
0
 62
     7
100
AcDbLine
 10
525.2503872096106
 20
33.25090618092013
 30
0.0
 11
525.2016631329695
 21
33.29963025756129
 31
0.0
  0
LINE
  5
16CA
330
739
100
AcDbEntity
  8
0
 62
     7
100
AcDbLine
 10
553.7121912472677
 20
34.96247856779098
 30
0.0
 11
524.8947720964816
 21
34.96247856779107
 31
0.0
  0
LINE
  5
16CB
330
739
100
AcDbEntity
  8
0
 62
     7
100
AcDbLine
 10
524.9295008464814
 20
36.09970731779107
 30
0.0
 11
524.9295008464814
 21
35.03138481779107
 31
0.0
  0
LINE
  5
16CC
330
739
100
AcDbEntity
  8
0
 62
     7
100
AcDbLine
 10
525.9630945964818
 20
35.03138481779107
 30
0.0
 11
525.9630945964813
 21
34.96247856779107
 31
0.0
  0
LINE
  5
16CD
330
739
100
AcDbEntity
  8
0
 62
     7
100
AcDbLine
 10
525.9630945964818
 20
35.03138481779107
 30
0.0
 11
524.9295008464814
 21
35.03138481779107
 31
0.0
  0
LINE
  5
16CE
330
739
100
AcDbEntity
  8
0
 62
     7
100
AcDbLine
 10
526.5143445964816
 20
34.68795606779107
 30
0.0
 11
526.5143445964816
 21
34.92830106779107
 31
0.0
  0
LINE
  5
16CF
330
739
100
AcDbEntity
  8
0
 62
     7
100
AcDbLine
 10
527.6851995964817
 20
34.68795606779107
 30
0.0
 11
527.6851995964817
 21
34.92830106779107
 31
0.0
  0
LINE
  5
16D0
330
739
100
AcDbEntity
  8
0
 62
     7
100
AcDbLine
 10
527.6851995964817
 20
34.68795606779107
 30
0.0
 11
527.4691095964815
 21
34.68795606779107
 31
0.0
  0
LINE
  5
16D1
330
739
100
AcDbEntity
  8
0
 62
     7
100
AcDbLine
 10
527.6410995964815
 20
34.73205606779107
 30
0.0
 11
527.4691095964815
 21
34.73205606779107
 31
0.0
  0
LINE
  5
16D2
330
739
100
AcDbEntity
  8
0
 62
     7
100
AcDbLine
 10
526.5584445964816
 20
34.73205606779107
 30
0.0
 11
526.5584445964816
 21
34.88420106779106
 31
0.0
  0
LINE
  5
16D3
330
739
100
AcDbEntity
  8
0
 62
     7
100
AcDbLine
 10
527.6410995964815
 20
34.88420106779106
 30
0.0
 11
526.5584445964816
 21
34.88420106779106
 31
0.0
  0
LINE
  5
16D4
330
739
100
AcDbEntity
  8
0
 62
     7
100
AcDbLine
 10
527.6410995964815
 20
34.73205606779107
 30
0.0
 11
527.6410995964815
 21
34.88420106779106
 31
0.0
  0
LINE
  5
16D5
330
739
100
AcDbEntity
  8
0
 62
     7
100
AcDbLine
 10
526.7304345964815
 20
34.68795606779107
 30
0.0
 11
526.7304345964815
 21
34.73205606779107
 31
0.0
  0
LINE
  5
16D6
330
739
100
AcDbEntity
  8
0
 62
     7
100
AcDbLine
 10
527.4691095964815
 20
34.68795606779107
 30
0.0
 11
527.4691095964815
 21
34.73205606779107
 31
0.0
  0
LINE
  5
16D7
330
739
100
AcDbEntity
  8
0
 62
     7
100
AcDbLine
 10
526.7304345964815
 20
34.73205606779107
 30
0.0
 11
526.5584445964816
 21
34.73205606779107
 31
0.0
  0
LINE
  5
16D8
330
739
100
AcDbEntity
  8
0
 62
     7
100
AcDbLine
 10
526.7304345964815
 20
34.68795606779107
 30
0.0
 11
526.5143445964816
 21
34.68795606779107
 31
0.0
  0
LINE
  5
16D9
330
739
100
AcDbEntity
  8
0
 62
     7
100
AcDbLine
 10
526.6174283464815
 20
34.79208121126481
 30
0.0
 11
526.6174283464815
 21
34.8196437112648
 31
0.0
  0
LINE
  5
16DA
330
739
100
AcDbEntity
  8
0
 62
     7
100
AcDbLine
 10
527.5821158464816
 20
34.79208121126481
 30
0.0
 11
527.5821158464816
 21
34.8196437112648
 31
0.0
  0
LINE
  5
16DB
330
739
100
AcDbEntity
  8
0
 62
     7
100
AcDbLine
 10
527.5269908464816
 20
34.73695621126479
 30
0.0
 11
527.4552910875558
 21
34.73695621126479
 31
0.0
  0
LINE
  5
16DC
330
739
100
AcDbEntity
  8
0
 62
     7
100
AcDbLine
 10
527.5269908464816
 20
34.87476871126482
 30
0.0
 11
526.6725533464814
 21
34.87476871126482
 31
0.0
  0
ARC
  5
16DD
330
739
100
AcDbEntity
  8
0
 62
     7
100
AcDbCircle
 10
527.5269908464816
 20
34.8196437112648
 30
0.0
 40
0.055125
100
AcDbArc
 50
0.0000000000130021
 51
90.0
  0
ARC
  5
16DE
330
739
100
AcDbEntity
  8
0
 62
     7
100
AcDbCircle
 10
527.5269908464816
 20
34.79208121126481
 30
0.0
 40
0.055125
100
AcDbArc
 50
270.0
 51
0.0000000000097452
  0
ARC
  5
16DF
330
739
100
AcDbEntity
  8
0
 62
     7
100
AcDbCircle
 10
526.6725533464814
 20
34.79208121126481
 30
0.0
 40
0.055125
100
AcDbArc
 50
180.0000000000064
 51
270.0
  0
ARC
  5
16E0
330
739
100
AcDbEntity
  8
0
 62
     7
100
AcDbCircle
 10
526.6725533464814
 20
34.8196437112648
 30
0.0
 40
0.055125
100
AcDbArc
 50
90.0
 51
180.0000000000097
  0
ARC
  5
16E1
330
739
100
AcDbEntity
  8
0
 62
     7
100
AcDbCircle
 10
527.4443033464815
 20
34.63989633442305
 30
0.0
 40
0.0341775000000026
100
AcDbArc
 50
270.0
 51
90.0
  0
ARC
  5
16E2
330
739
100
AcDbEntity
  8
0
 62
     7
100
AcDbCircle
 10
526.7552408464815
 20
34.63989633442305
 30
0.0
 40
0.0341775000000026
100
AcDbArc
 50
89.99999999994766
 51
270.0
  0
ARC
  5
16E3
330
739
100
AcDbEntity
  8
0
 62
     7
100
AcDbCircle
 10
526.7377076627046
 20
34.70341133555879
 30
0.0
 40
0.0341775000000026
100
AcDbArc
 50
300.8641122770312
 51
101.0411065317936
  0
ARC
  5
16E4
330
739
100
AcDbEntity
  8
0
 62
     7
100
AcDbCircle
 10
527.4618365302587
 20
34.70341133555879
 30
0.0
 40
0.0341775000000026
100
AcDbArc
 50
78.95889346820644
 51
239.1358877229687
  0
LINE
  5
16E5
330
739
100
AcDbEntity
  8
0
 62
     7
100
AcDbLine
 10
526.7442531054073
 20
34.73695621126479
 30
0.0
 11
526.6725533464814
 21
34.73695621126481
 31
0.0
  0
ARC
  5
16E6
330
739
100
AcDbEntity
  8
0
 62
     7
100
AcDbCircle
 10
526.7275224221761
 20
34.49811596124928
 30
0.0
 40
0.1739501513217057
100
AcDbArc
 50
179.1186888543047
 51
311.2348949693248
  0
ARC
  5
16E7
330
739
100
AcDbEntity
  8
0
 62
     7
100
AcDbCircle
 10
526.5288505133724
 20
34.49369804521155
 30
0.0
 40
0.0257390855645585
100
AcDbArc
 50
15.99726795517699
 51
178.1707726646732
  0
ARC
  5
16E8
330
739
100
AcDbEntity
  8
0
 62
     7
100
AcDbCircle
 10
526.8013443722236
 20
34.49704002160423
 30
0.0
 40
0.2982304780721083
100
AcDbArc
 50
180.4842168429098
 51
235.5843600880104
  0
ARC
  5
16E9
330
739
100
AcDbEntity
  8
0
 62
     7
100
AcDbCircle
 10
527.1284006386792
 20
34.3760196256945
 30
0.0
 40
0.4362320809400778
100
AcDbArc
 50
90.43046509279765
 51
120.2033295266412
  0
ARC
  5
16EA
330
739
100
AcDbEntity
  8
0
 62
     7
100
AcDbCircle
 10
526.9181999676032
 20
34.74013085899336
 30
0.0
 40
0.0158766999857395
100
AcDbArc
 50
125.6554280719701
 51
279.10469340304
  0
ARC
  5
16EB
330
739
100
AcDbEntity
  8
0
 62
     7
100
AcDbCircle
 10
526.9877703641514
 20
34.62273478285374
 30
0.0
 40
0.1218344156887583
100
AcDbArc
 50
36.62458265118791
 51
123.3946965568084
  0
ARC
  5
16EC
330
739
100
AcDbEntity
  8
0
 62
     7
100
AcDbCircle
 10
526.9533512149457
 20
34.60632328297279
 30
0.0
 40
0.159418587517077
100
AcDbArc
 50
292.4928055282816
 51
33.97764420875275
  0
ARC
  5
16ED
330
739
100
AcDbEntity
  8
0
 62
     7
100
AcDbCircle
 10
527.0263278752556
 20
34.45222457402773
 30
0.0
 40
0.0137862676267549
100
AcDbArc
 50
150.4102054277241
 51
331.8071875424258
  0
LINE
  5
16EE
330
739
100
AcDbEntity
  8
0
 62
     7
100
AcDbLine
 10
527.8486882233912
 20
34.15810843789273
 30
0.0
 11
526.3508559695717
 21
34.15810843789273
 31
0.0
  0
LINE
  5
16EF
330
739
100
AcDbEntity
  8
0
 62
     7
100
AcDbLine
 10
527.8486882233912
 20
33.41722843789273
 30
0.0
 11
527.8486882233912
 21
34.15810843789273
 31
0.0
  0
LINE
  5
16F0
330
739
100
AcDbEntity
  8
0
 62
     7
100
AcDbLine
 10
526.3508559695717
 20
34.15810843789273
 30
0.0
 11
526.3508559695717
 21
31.5054727014707
 31
0.0
  0
LINE
  5
16F1
330
739
100
AcDbEntity
  8
0
 62
     7
100
AcDbLine
 10
527.9346832233914
 20
33.41722843789273
 30
0.0
 11
527.8486882233912
 21
33.41722843789273
 31
0.0
  0
LINE
  5
16F2
330
739
100
AcDbEntity
  8
0
 62
     7
100
AcDbLine
 10
527.7626932233913
 20
34.15810843789273
 30
0.0
 11
527.7626932233913
 21
25.12229662334996
 31
0.0
  0
ARC
  5
16F3
330
739
100
AcDbEntity
  8
0
 62
     7
100
AcDbCircle
 10
526.2990384695718
 20
34.20992593789274
 30
0.0
 40
0.0341775
100
AcDbArc
 50
90.0
 51
180.0
  0
ARC
  5
16F4
330
739
100
AcDbEntity
  8
0
 62
     7
100
AcDbCircle
 10
527.9005057233912
 20
34.20992593789274
 30
0.0
 40
0.0341775
100
AcDbArc
 50
0.0
 51
90.0
  0
ARC
  5
16F5
330
739
100
AcDbEntity
  8
0
 62
     7
100
AcDbCircle
 10
524.8464378124536
 20
32.89529106779106
 30
0.0
 40
0.0341775
100
AcDbArc
 50
270.0
 51
315.0000000000046
  0
ARC
  5
16F6
330
739
100
AcDbEntity
  8
0
 62
     7
100
AcDbCircle
 10
524.8258658464814
 20
32.89529106779106
 30
0.0
 40
0.0341775
100
AcDbArc
 50
180.0
 51
270.0
  0
ARC
  5
16F7
330
739
100
AcDbEntity
  8
0
 62
     7
100
AcDbCircle
 10
524.8258658464814
 20
36.13443606779107
 30
0.0
 40
0.0341775
100
AcDbArc
 50
90.0
 51
180.0
  0
ARC
  5
16F8
330
739
100
AcDbEntity
  8
0
 62
     7
100
AcDbCircle
 10
524.8947720964816
 20
34.99665606779107
 30
0.0
 40
0.0341775
100
AcDbArc
 50
180.0
 51
270.0
  0
LINE
  5
16F9
330
739
100
AcDbEntity
  8
0
 62
     7
100
AcDbLine
 10
525.1362195964816
 20
34.96247856779107
 30
0.0
 11
525.1362195964816
 21
34.92830106779107
 31
0.0
  0
LINE
  5
16FA
330
739
100
AcDbEntity
  8
0
 62
     7
100
AcDbLine
 10
527.8486882233912
 20
25.05339037334996
 30
0.0
 11
523.4386882233909
 21
25.05339037334996
 31
0.0
  0
LINE
  5
16FB
330
739
100
AcDbEntity
  8
0
 62
     7
100
AcDbLine
 10
523.4386882233909
 20
25.12229662334996
 30
0.0
 11
523.4386882233909
 21
25.05339037335018
 31
0.0
  0
LINE
  5
16FC
330
739
100
AcDbEntity
  8
0
 62
     7
100
AcDbLine
 10
527.7626932233913
 20
25.12229662334996
 30
0.0
 11
523.4386882233909
 21
25.12229662334996
 31
0.0
  0
LINE
  5
16FD
330
739
100
AcDbEntity
  8
0
 62
     7
100
AcDbLine
 10
526.2648609695721
 20
31.48785343789274
 30
0.0
 11
525.6943657587339
 21
30.91802886364598
 31
0.0
  0
LINE
  5
16FE
330
739
100
AcDbEntity
  8
0
 62
     7
100
AcDbLine
 10
526.330806819238
 20
31.45710999979833
 30
0.0
 11
525.7426716084
 21
30.8696661619736
 31
0.0
  0
ARC
  5
16FF
330
739
100
AcDbEntity
  8
0
 62
     7
100
AcDbCircle
 10
526.2825009695718
 20
31.5054727014707
 30
0.0
 40
0.068355
100
AcDbArc
 50
314.9663036261031
 51
0.0
  0
LINE
  5
1700
330
739
100
AcDbEntity
  8
0
 62
     7
100
AcDbLine
 10
525.6743166084
 20
30.8696661619736
 30
0.0
 11
525.6743166084
 21
29.53110243175331
 31
0.0
  0
LINE
  5
1701
330
739
100
AcDbEntity
  8
0
 62
     7
100
AcDbLine
 10
525.7426716084
 20
30.8696661619736
 30
0.0
 11
525.7426716084
 21
29.53110243175331
 31
0.0
  0
ARC
  5
1702
330
739
100
AcDbEntity
  8
0
 62
     7
100
AcDbCircle
 10
525.7426716084
 20
30.8696661619736
 30
0.0
 40
0.068355
100
AcDbArc
 50
134.966303626103
 51
180.0
  0
LINE
  5
1703
330
739
100
AcDbEntity
  8
0
 62
     7
100
AcDbLine
 10
527.8486882233915
 20
33.03796843789273
 30
0.0
 11
527.8486882233915
 21
31.21222843789273
 31
0.0
  0
LINE
  5
1704
330
739
100
AcDbEntity
  8
0
 62
     7
100
AcDbLine
 10
528.5815320964815
 20
32.86597843789271
 30
0.0
 11
527.9865007233913
 21
32.86597843789271
 31
0.0
  0
LINE
  5
1705
330
739
100
AcDbEntity
  8
0
 62
     7
100
AcDbLine
 10
529.2242780072329
 20
31.21222843789273
 30
0.0
 11
527.8486882233915
 21
31.21222843789273
 31
0.0
  0
LINE
  5
1706
330
739
100
AcDbEntity
  8
0
 62
     7
100
AcDbLine
 10
528.3999382233914
 20
33.14160343789274
 30
0.0
 11
528.3999382233914
 21
33.00379093789273
 31
0.0
  0
LINE
  5
1707
330
739
100
AcDbEntity
  8
0
 62
     7
100
AcDbLine
 10
528.3999382233914
 20
33.00379093789273
 30
0.0
 11
527.9865007233913
 21
33.00379093789273
 31
0.0
  0
LINE
  5
1708
330
739
100
AcDbEntity
  8
0
 62
     7
100
AcDbLine
 10
528.3999382233914
 20
33.14160343789274
 30
0.0
 11
527.9523232233914
 21
33.14160343789274
 31
0.0
  0
LINE
  5
1709
330
739
100
AcDbEntity
  8
0
 62
     7
100
AcDbLine
 10
527.9865007233913
 20
33.00379093789273
 30
0.0
 11
527.9865007233913
 21
32.86597843789271
 31
0.0
  0
LINE
  5
170A
330
739
100
AcDbEntity
  8
0
  6
Continuous
 62
     7
100
AcDbLine
 10
527.9865007233913
 20
32.86597843789271
 30
0.0
 11
527.9865007233913
 21
31.21222843789273
 31
0.0
  0
ARC
  5
170B
330
739
100
AcDbEntity
  8
0
 62
     7
100
AcDbCircle
 10
529.2242780072329
 20
32.03910343789271
 30
0.0
 40
0.8268749999999926
100
AcDbArc
 50
270.0
 51
17.98476505529385
  0
ARC
  5
170C
330
739
100
AcDbEntity
  8
0
 62
     7
100
AcDbCircle
 10
527.9523232233914
 20
33.03796843789273
 30
0.0
 40
0.103635
100
AcDbArc
 50
90.0
 51
180.0
  0
LINE
  5
170D
330
739
100
AcDbEntity
  8
0
 62
     7
100
AcDbLine
 10
529.5462195964814
 20
33.13673856779107
 30
0.0
 11
529.5462195964814
 21
32.99892606779107
 31
0.0
  0
LINE
  5
170E
330
739
100
AcDbEntity
  8
0
 62
     7
100
AcDbLine
 10
528.9949695964814
 20
33.13673856779107
 30
0.0
 11
528.9949695964814
 21
32.99892606779107
 31
0.0
  0
LINE
  5
170F
330
739
100
AcDbEntity
  8
0
  6
Continuous
 62
     7
100
AcDbLine
 10
530.7865320964813
 20
33.13673856779107
 30
0.0
 11
530.3050426527395
 21
33.13673856779106
 31
0.0
  0
CIRCLE
  5
1710
330
739
100
AcDbEntity
  8
0
 62
     7
100
AcDbCircle
 10
529.2705945964814
 20
32.03423856779107
 30
0.0
 40
0.20671875
  0
LINE
  5
1711
330
739
100
AcDbEntity
  8
0
  6
HIDDEN
 62
     7
100
AcDbLine
 10
529.9596941978193
 20
32.14827797821306
 30
0.0
 11
530.7865320964813
 21
34.51486356779107
 31
0.0
  0
ARC
  5
1712
330
739
100
AcDbEntity
  8
0
  6
HIDDEN
 62
     7
100
AcDbCircle
 10
529.2796447781174
 20
32.30605663020501
 30
0.0
 40
0.6981126816360535
100
AcDbArc
 50
180.0
 51
346.9378743534583
  0
LINE
  5
1713
330
739
100
AcDbEntity
  8
0
  6
HIDDEN
 62
     7
100
AcDbLine
 10
528.5815320964815
 20
34.79048856779107
 30
0.0
 11
528.5815320964815
 21
32.30605663020501
 31
0.0
  0
LINE
  5
1714
330
739
100
AcDbEntity
  8
0
 62
     7
100
AcDbLine
 10
530.2352820964816
 20
34.92830106779107
 30
0.0
 11
530.2352820964816
 21
34.79048856779107
 31
0.0
  0
LINE
  5
1715
330
739
100
AcDbEntity
  8
0
 62
     7
100
AcDbLine
 10
530.5109070964816
 20
34.92830106779107
 30
0.0
 11
530.5109070964816
 21
34.79048856779107
 31
0.0
  0
LINE
  5
1716
330
739
100
AcDbEntity
  8
0
 62
     7
100
AcDbLine
 10
529.1327820964814
 20
34.92830106779107
 30
0.0
 11
529.1327820964814
 21
34.79048856779107
 31
0.0
  0
LINE
  5
1717
330
739
100
AcDbEntity
  8
0
 62
     7
100
AcDbLine
 10
528.8571570964814
 20
34.92830106779107
 30
0.0
 11
528.8571570964814
 21
34.79048856779107
 31
0.0
  0
LINE
  5
1718
330
739
100
AcDbEntity
  8
0
 62
     7
100
AcDbLine
 10
530.7865320964813
 20
34.79048856779107
 30
0.0
 11
528.5815320964815
 21
34.79048856779107
 31
0.0
  0
LINE
  5
1719
330
739
100
AcDbEntity
  8
0
 62
     7
100
AcDbLine
 10
530.7865320964813
 20
34.92830106779107
 30
0.0
 11
530.7865320964813
 21
32.99892606779107
 31
0.0
  0
LINE
  5
171A
330
739
100
AcDbEntity
  8
0
 62
     7
100
AcDbLine
 10
530.7865320964813
 20
32.99892606779107
 30
0.0
 11
530.2568937083651
 21
32.99892606779107
 31
0.0
  0
LINE
  5
171B
330
739
100
AcDbEntity
  8
0
 62
     7
100
AcDbLine
 10
530.7865320964813
 20
34.92830106779107
 30
0.0
 11
528.5815320964815
 21
34.92830106779107
 31
0.0
  0
LINE
  5
171C
330
739
100
AcDbEntity
  8
0
 62
     7
100
AcDbLine
 10
530.5109070964816
 20
34.79048856779107
 30
0.0
 11
530.5109070964816
 21
34.65267606779106
 31
0.0
  0
LINE
  5
171D
330
739
100
AcDbEntity
  8
0
  6
HIDDEN
 62
     7
100
AcDbLine
 10
530.2352820964816
 20
34.79048856779107
 30
0.0
 11
530.2352820964816
 21
34.65267606779106
 31
0.0
  0
LINE
  5
171E
330
739
100
AcDbEntity
  8
0
  6
HIDDEN
 62
     7
100
AcDbLine
 10
529.1327820964814
 20
34.79048856779107
 30
0.0
 11
529.1327820964814
 21
34.65267606779106
 31
0.0
  0
LINE
  5
171F
330
739
100
AcDbEntity
  8
0
  6
HIDDEN
 62
     7
100
AcDbLine
 10
528.8571570964814
 20
34.79048856779107
 30
0.0
 11
528.8571570964814
 21
34.65267606779106
 31
0.0
  0
LINE
  5
1720
330
739
100
AcDbEntity
  8
0
  6
HIDDEN
 62
     7
100
AcDbLine
 10
530.7865320964813
 20
34.65267606779106
 30
0.0
 11
528.5815320964815
 21
34.65267606779106
 31
0.0
  0
LINE
  5
1721
330
739
100
AcDbEntity
  8
0
 62
     7
100
AcDbLine
 10
530.7865320964813
 20
34.79048856779107
 30
0.0
 11
530.7865320964813
 21
34.51486356779107
 31
0.0
  0
LINE
  5
1722
330
739
100
AcDbEntity
  8
0
 62
     7
100
AcDbLine
 10
530.7865320964813
 20
34.79048856779107
 30
0.0
 11
528.5815320964815
 21
34.79048856779107
 31
0.0
  0
ARC
  5
1723
330
739
100
AcDbEntity
  8
0
 62
     7
100
AcDbCircle
 10
526.748316790429
 20
34.46813425015329
 30
0.0
 40
0.1377587034669634
100
AcDbArc
 50
312.950682265913
 51
87.11897392314353
  0
ARC
  5
1724
330
739
100
AcDbEntity
  8
0
 62
     7
100
AcDbCircle
 10
527.093487130078
 20
34.57384462095595
 30
0.0
 40
0.352261242795525
100
AcDbArc
 50
292.9927220025604
 51
5.191485694701462
  0
LINE
  5
1725
330
739
100
AcDbEntity
  8
0
 62
     7
100
AcDbLine
 10
526.6327868286598
 20
34.25101203019104
 30
0.0
 11
527.2310853729863
 21
34.24956895624401
 31
0.0
  0
ARC
  5
1726
330
739
100
AcDbEntity
  8
0
 62
     7
100
AcDbCircle
 10
526.935708008224
 20
34.6897013260569
 30
0.0
 40
0.2647506002618817
100
AcDbArc
 50
292.8412261823677
 51
9.79678205718023
  0
INSERT
  5
1727
330
739
100
AcDbEntity
  8
0
 62
     7
100
AcDbBlockReference
  2
*X8
 10
627.6575257834101
 20
0.1072856010337073
 30
0.0
 41
-1.102499999999992
 42
1.102499999999999
 43
1.102499999999999
  0
ARC
  5
1728
330
739
100
AcDbEntity
  8
0
 62
     7
100
AcDbCircle
 10
527.1063639328422
 20
34.72322816779328
 30
0.0
 40
0.0909665339538238
100
AcDbArc
 50
7.276471127173676
 51
78.09895043888005
  0
LINE
  5
1729
330
739
100
AcDbEntity
  8
0
 62
     7
100
AcDbLine
 10
525.7226224580659
 20
29.48273973008094
 30
0.0
 11
525.3326006703855
 21
29.09317642632327
 31
0.0
  0
LINE
  5
172A
330
739
100
AcDbEntity
  8
0
 62
     7
100
AcDbLine
 10
525.6743166084
 20
29.53110243175331
 30
0.0
 11
525.2842948207194
 21
29.14153912799564
 31
0.0
  0
ARC
  5
172B
330
739
100
AcDbEntity
  8
0
 62
     7
100
AcDbCircle
 10
525.6743166084
 20
29.53110243175331
 30
0.0
 40
0.068355
100
AcDbArc
 50
314.9663036261031
 51
0.0
  0
LINE
  5
172C
330
739
100
AcDbEntity
  8
0
 62
     7
100
AcDbLine
 10
525.2842948207194
 20
29.14153912799565
 30
0.0
 11
525.3326006703855
 21
29.09317642632327
 31
0.0
  0
LINE
  5
172D
330
739
100
AcDbEntity
  8
0
 62
     7
100
AcDbLine
 10
528.5815320964815
 20
34.92830106779107
 30
0.0
 11
528.5815320964815
 21
34.79048856779107
 31
0.0
  0
LINE
  5
172E
330
739
100
AcDbEntity
  8
0
  6
Continuous
 62
     7
100
AcDbLine
 10
530.2568937083651
 20
32.99892606779107
 30
0.0
 11
528.5815320964815
 21
32.99892606779107
 31
0.0
  0
LINE
  5
172F
330
739
100
AcDbEntity
  8
0
  6
Continuous
 62
     7
100
AcDbLine
 10
528.5815320964815
 20
32.86597843789271
 30
0.0
 11
529.2242780072329
 21
32.86597843789271
 31
0.0
  0
ARC
  5
1730
330
739
100
AcDbEntity
  8
0
  6
Continuous
 62
     7
100
AcDbCircle
 10
529.2242780072329
 20
32.03910343789271
 30
0.0
 40
0.8268749999999926
100
AcDbArc
 50
17.98476505529385
 51
90.0
  0
LINE
  5
1731
330
739
100
AcDbEntity
  8
0
 62
     7
100
AcDbLine
 10
528.5815320964815
 20
32.99892606779107
 30
0.0
 11
528.5815320964815
 21
34.79048856779107
 31
0.0
  0
LINE
  5
1732
330
739
100
AcDbEntity
  8
0
 62
     7
100
AcDbLine
 10
556.3545905317073
 20
34.1581084378909
 30
0.0
 11
556.3545905317073
 21
33.41722843789273
 31
0.0
  0
LINE
  5
1733
330
739
100
AcDbEntity
  8
0
 62
     7
100
AcDbLine
 10
556.5265805317074
 20
25.12229662334996
 30
0.0
 11
560.850585531708
 21
25.12229662334996
 31
0.0
  0
LINE
  5
1734
330
739
100
AcDbEntity
  8
0
 62
     7
100
AcDbLine
 10
560.850585531708
 20
25.12229662334996
 30
0.0
 11
560.850585531708
 21
25.05339037335018
 31
0.0
  0
LINE
  5
1735
330
739
100
AcDbEntity
  8
0
 62
     7
100
AcDbLine
 10
556.4405855317074
 20
25.05339037334996
 30
0.0
 11
560.850585531708
 21
25.05339037334996
 31
0.0
  0
LINE
  5
1736
330
739
100
AcDbEntity
  8
0
 62
     7
100
AcDbLine
 10
556.5265805317074
 20
34.15810843789273
 30
0.0
 11
556.5265805317074
 21
25.12229662334996
 31
0.0
  0
LINE
  5
1737
330
739
100
AcDbEntity
  8
0
 62
     7
100
AcDbLine
 10
556.4405855317072
 20
34.15810843789273
 30
0.0
 11
556.4405855317079
 21
25.05339037334996
 31
0.0
  0
LINE
  5
1738
330
739
100
AcDbEntity
  8
0
 62
     7
100
AcDbLine
 10
556.4405855317074
 20
34.15810843789273
 30
0.0
 11
557.9384177855267
 21
34.15810843789273
 31
0.0
  0
LINE
  5
1739
330
739
100
AcDbEntity
  8
0
 62
     7
100
AcDbLine
 10
556.3545905317073
 20
33.41722843789273
 30
0.0
 11
556.3545905317073
 21
34.20992593789274
 31
0.0
  0
LINE
  5
173A
330
739
100
AcDbEntity
  8
0
 62
     7
100
AcDbLine
 10
556.3545905317073
 20
33.41722843789273
 30
0.0
 11
556.4405855317074
 21
33.41722843789273
 31
0.0
  0
ARC
  5
173B
330
739
100
AcDbEntity
  8
0
 62
     7
100
AcDbCircle
 10
556.3887680317073
 20
34.20992593789274
 30
0.0
 40
0.0341775
100
AcDbArc
 50
90.0
 51
180.0
  0
LINE
  5
173C
330
739
100
AcDbEntity
  8
0
 62
     7
100
AcDbLine
 10
556.3887680317073
 20
34.24410343789274
 30
0.0
 11
557.990235285527
 21
34.24410343789274
 31
0.0
  0
ARC
  5
173D
330
739
100
AcDbEntity
  8
0
 62
     7
100
AcDbCircle
 10
557.990235285527
 20
34.20992593789274
 30
0.0
 40
0.0341775
100
AcDbArc
 50
0.0
 51
90.0
  0
LINE
  5
173E
330
739
100
AcDbEntity
  8
0
 62
     7
100
AcDbLine
 10
558.0244127855269
 20
34.20992593789274
 30
0.0
 11
558.0244127855269
 21
31.48785343789274
 31
0.0
  0
LINE
  5
173F
330
739
100
AcDbEntity
  8
0
 62
     7
100
AcDbLine
 10
557.9384177855267
 20
34.15810843789273
 30
0.0
 11
557.9384177855267
 21
31.5054727014707
 31
0.0
  0
ARC
  5
1740
330
739
100
AcDbEntity
  8
0
 62
     7
100
AcDbCircle
 10
558.5466021466989
 20
30.8696661619736
 30
0.0
 40
0.068355
100
AcDbArc
 50
0.0
 51
45.03369637389686
  0
LINE
  5
1741
330
739
100
AcDbEntity
  8
0
 62
     7
100
AcDbLine
 10
558.5466021466989
 20
30.8696661619736
 30
0.0
 11
558.5466021466989
 21
29.53110243175331
 31
0.0
  0
LINE
  5
1742
330
739
100
AcDbEntity
  8
0
 62
     7
100
AcDbLine
 10
558.6149571466988
 20
30.8696661619736
 30
0.0
 11
558.6149571466988
 21
29.53110243175331
 31
0.0
  0
ARC
  5
1743
330
739
100
AcDbEntity
  8
0
 62
     7
100
AcDbCircle
 10
558.0067727855269
 20
31.5054727014707
 30
0.0
 40
0.068355
100
AcDbArc
 50
180.0
 51
225.0336963738968
  0
LINE
  5
1744
330
739
100
AcDbEntity
  8
0
 62
     7
100
AcDbLine
 10
557.9584669358609
 20
31.45710999979833
 30
0.0
 11
558.5466021466989
 21
30.8696661619736
 31
0.0
  0
LINE
  5
1745
330
739
100
AcDbEntity
  8
0
 62
     7
100
AcDbLine
 10
558.0244127855269
 20
31.48785343789274
 30
0.0
 11
558.5949079963647
 21
30.91802886364598
 31
0.0
  0
LINE
  5
1746
330
739
100
AcDbEntity
  8
0
 62
     7
100
AcDbLine
 10
559.004978934379
 20
29.14153912799565
 30
0.0
 11
558.9566730847131
 21
29.09317642632327
 31
0.0
  0
ARC
  5
1747
330
739
100
AcDbEntity
  8
0
 62
     7
100
AcDbCircle
 10
558.6149571466988
 20
29.53110243175331
 30
0.0
 40
0.068355
100
AcDbArc
 50
180.0
 51
225.0336963738968
  0
LINE
  5
1748
330
739
100
AcDbEntity
  8
0
 62
     7
100
AcDbLine
 10
558.6149571466988
 20
29.53110243175331
 30
0.0
 11
559.004978934379
 21
29.14153912799564
 31
0.0
  0
LINE
  5
1749
330
739
100
AcDbEntity
  8
0
 62
     7
100
AcDbLine
 10
558.5666512970329
 20
29.48273973008094
 30
0.0
 11
558.9566730847131
 21
29.09317642632327
 31
0.0
  0
LINE
  5
174A
330
739
100
AcDbEntity
  8
0
 62
     7
100
AcDbLine
 10
559.9467681547974
 20
36.13443606779107
 30
0.0
 11
559.9467681547974
 21
32.86111356779108
 31
0.0
  0
LINE
  5
174B
330
739
100
AcDbEntity
  8
0
  6
Continuous
 62
     7
100
AcDbLine
 10
559.8778619047975
 20
34.23923856779107
 30
0.0
 11
558.2588406547975
 21
34.23923856779107
 31
0.0
  0
LINE
  5
174C
330
739
100
AcDbEntity
  8
0
  6
Continuous
 62
     7
100
AcDbLine
 10
558.0244127855269
 20
34.23827786384386
 30
0.0
 11
558.9368241523893
 21
34.23827786384386
 31
0.0
  0
LINE
  5
174D
330
739
100
AcDbEntity
  8
0
 62
     7
100
AcDbLine
 10
558.0244127855269
 20
34.20992593789274
 30
0.0
 11
558.0244127855269
 21
34.23827786384388
 31
0.0
  0
CIRCLE
  5
174E
330
739
100
AcDbEntity
  8
0
  6
Continuous
 62
     7
100
AcDbCircle
 10
558.989100285527
 20
33.55017606779107
 30
0.0
 40
0.20671875
  0
ARC
  5
174F
330
739
100
AcDbEntity
  8
0
  6
Continuous
 62
     7
100
AcDbCircle
 10
558.9512318714477
 20
33.55017606779107
 30
0.0
 40
0.6890625
100
AcDbArc
 50
90.0
 51
270.0
  0
ARC
  5
1750
330
739
100
AcDbEntity
  8
0
 62
     7
100
AcDbCircle
 10
557.06032569812
 20
34.72322816779328
 30
0.0
 40
0.0909665339538238
100
AcDbArc
 50
101.9010495611199
 51
172.7235288728262
  0
INSERT
  5
1751
330
739
100
AcDbEntity
  8
0
 62
     7
100
AcDbBlockReference
  2
*X8
 10
456.5144181283952
 20
0.1072856010337073
 30
0.0
 41
1.102499999999992
 42
1.102499999999999
 43
1.102499999999999
  0
ARC
  5
1752
330
739
100
AcDbEntity
  8
0
 62
     7
100
AcDbCircle
 10
557.2309816227382
 20
34.6897013260569
 30
0.0
 40
0.2647506002618817
100
AcDbArc
 50
170.2032179428197
 51
247.1587738176323
  0
LINE
  5
1753
330
739
100
AcDbEntity
  8
0
 62
     7
100
AcDbLine
 10
557.5339028023022
 20
34.25101203019104
 30
0.0
 11
556.9356042579756
 21
34.24956895624401
 31
0.0
  0
ARC
  5
1754
330
739
100
AcDbEntity
  8
0
 62
     7
100
AcDbCircle
 10
557.0732025008842
 20
34.57384462095595
 30
0.0
 40
0.352261242795525
100
AcDbArc
 50
174.8085143052985
 51
247.0072779974383
  0
ARC
  5
1755
330
739
100
AcDbEntity
  8
0
 62
     7
100
AcDbCircle
 10
557.4183728405333
 20
34.46813425015329
 30
0.0
 40
0.1377587034669634
100
AcDbArc
 50
92.88102607685646
 51
227.0493177340869
  0
LINE
  5
1756
330
739
100
AcDbEntity
  8
0
 62
     7
100
AcDbLine
 10
559.6022369047975
 20
34.96247856779107
 30
0.0
 11
559.6022369047975
 21
34.92830106779107
 31
0.0
  0
ARC
  5
1757
330
739
100
AcDbEntity
  8
0
 62
     7
100
AcDbCircle
 10
559.8436844047974
 20
34.99665606779107
 30
0.0
 40
0.0341775
100
AcDbArc
 50
270.0
 51
0.0
  0
ARC
  5
1758
330
739
100
AcDbEntity
  8
0
 62
     7
100
AcDbCircle
 10
559.9125906547974
 20
36.13443606779107
 30
0.0
 40
0.0341775
100
AcDbArc
 50
0.0
 51
90.0
  0
ARC
  5
1759
330
739
100
AcDbEntity
  8
0
 62
     7
100
AcDbCircle
 10
557.1403617557066
 20
34.45222457402773
 30
0.0
 40
0.0137862676267549
100
AcDbArc
 50
208.192812457574
 51
29.58979457227585
  0
ARC
  5
175A
330
739
100
AcDbEntity
  8
0
 62
     7
100
AcDbCircle
 10
557.2133384160165
 20
34.60632328297279
 30
0.0
 40
0.159418587517077
100
AcDbArc
 50
146.0223557912472
 51
247.5071944717184
  0
ARC
  5
175B
330
739
100
AcDbEntity
  8
0
 62
     7
100
AcDbCircle
 10
557.1789192668107
 20
34.62273478285374
 30
0.0
 40
0.1218344156887583
100
AcDbArc
 50
56.60530344314843
 51
143.3754173488121
  0
ARC
  5
175C
330
739
100
AcDbEntity
  8
0
 62
     7
100
AcDbCircle
 10
557.2484896633588
 20
34.74013085899336
 30
0.0
 40
0.0158766999857395
100
AcDbArc
 50
260.89530659696
 51
54.34457192802982
  0
ARC
  5
175D
330
739
100
AcDbEntity
  8
0
 62
     7
100
AcDbCircle
 10
557.0382889922832
 20
34.3760196256945
 30
0.0
 40
0.4362320809400778
100
AcDbArc
 50
59.79667047335873
 51
89.56953490720236
  0
ARC
  5
175E
330
739
100
AcDbEntity
  8
0
 62
     7
100
AcDbCircle
 10
557.3653452587384
 20
34.49704002160423
 30
0.0
 40
0.2982304780721083
100
AcDbArc
 50
304.4156399119895
 51
359.5157831570901
  0
ARC
  5
175F
330
739
100
AcDbEntity
  8
0
 62
     7
100
AcDbCircle
 10
557.6378391175897
 20
34.49369804521155
 30
0.0
 40
0.0257390855645585
100
AcDbArc
 50
1.829227335326718
 51
164.0027320448226
  0
ARC
  5
1760
330
739
100
AcDbEntity
  8
0
 62
     7
100
AcDbCircle
 10
557.4391672087858
 20
34.49811596124928
 30
0.0
 40
0.1739501513217057
100
AcDbArc
 50
228.7651050306751
 51
0.8813111456952446
  0
LINE
  5
1761
330
739
100
AcDbEntity
  8
0
 62
     7
100
AcDbLine
 10
557.422436525555
 20
34.73695621126479
 30
0.0
 11
557.4941362844806
 21
34.73695621126481
 31
0.0
  0
ARC
  5
1762
330
739
100
AcDbEntity
  8
0
 62
     7
100
AcDbCircle
 10
556.7048531007035
 20
34.70341133555879
 30
0.0
 40
0.0341775000000026
100
AcDbArc
 50
300.8641122770312
 51
101.0411065317936
  0
ARC
  5
1763
330
739
100
AcDbEntity
  8
0
 62
     7
100
AcDbCircle
 10
557.4289819682578
 20
34.70341133555879
 30
0.0
 40
0.0341775000000026
100
AcDbArc
 50
78.95889346820644
 51
239.1358877229687
  0
ARC
  5
1764
330
739
100
AcDbEntity
  8
0
 62
     7
100
AcDbCircle
 10
557.4114487844806
 20
34.63989633442305
 30
0.0
 40
0.0341775000000026
100
AcDbArc
 50
270.0
 51
90.0
  0
ARC
  5
1765
330
739
100
AcDbEntity
  8
0
 62
     7
100
AcDbCircle
 10
556.7223862844805
 20
34.63989633442305
 30
0.0
 40
0.0341775000000026
100
AcDbArc
 50
90.0
 51
270.0
  0
ARC
  5
1766
330
739
100
AcDbEntity
  8
0
 62
     7
100
AcDbCircle
 10
557.4941362844806
 20
34.8196437112648
 30
0.0
 40
0.055125
100
AcDbArc
 50
359.9999999999901
 51
90.0
  0
ARC
  5
1767
330
739
100
AcDbEntity
  8
0
 62
     7
100
AcDbCircle
 10
557.4941362844806
 20
34.79208121126481
 30
0.0
 40
0.055125
100
AcDbArc
 50
270.0
 51
359.9999999999934
  0
ARC
  5
1768
330
739
100
AcDbEntity
  8
0
 62
     7
100
AcDbCircle
 10
556.6396987844807
 20
34.79208121126481
 30
0.0
 40
0.055125
100
AcDbArc
 50
179.9999999999901
 51
270.0
  0
ARC
  5
1769
330
739
100
AcDbEntity
  8
0
 62
     7
100
AcDbCircle
 10
556.6396987844807
 20
34.8196437112648
 30
0.0
 40
0.055125
100
AcDbArc
 50
90.0
 51
179.999999999987
  0
LINE
  5
176A
330
739
100
AcDbEntity
  8
0
 62
     7
100
AcDbLine
 10
556.6396987844807
 20
34.87476871126482
 30
0.0
 11
557.4941362844806
 21
34.87476871126482
 31
0.0
  0
LINE
  5
176B
330
739
100
AcDbEntity
  8
0
 62
     7
100
AcDbLine
 10
556.6396987844807
 20
34.73695621126479
 30
0.0
 11
556.7113985434064
 21
34.73695621126479
 31
0.0
  0
LINE
  5
176C
330
739
100
AcDbEntity
  8
0
 62
     7
100
AcDbLine
 10
556.5845737844804
 20
34.79208121126481
 30
0.0
 11
556.5845737844804
 21
34.8196437112648
 31
0.0
  0
LINE
  5
176D
330
739
100
AcDbEntity
  8
0
 62
     7
100
AcDbLine
 10
557.5492612844804
 20
34.79208121126481
 30
0.0
 11
557.5492612844804
 21
34.8196437112648
 31
0.0
  0
LINE
  5
176E
330
739
100
AcDbEntity
  8
0
 62
     7
100
AcDbLine
 10
557.4362550344805
 20
34.68795606779107
 30
0.0
 11
557.6523450344804
 21
34.68795606779107
 31
0.0
  0
LINE
  5
176F
330
739
100
AcDbEntity
  8
0
 62
     7
100
AcDbLine
 10
557.4362550344805
 20
34.73205606779107
 30
0.0
 11
557.6082450344806
 21
34.73205606779107
 31
0.0
  0
LINE
  5
1770
330
739
100
AcDbEntity
  8
0
 62
     7
100
AcDbLine
 10
556.6975800344807
 20
34.68795606779107
 30
0.0
 11
556.6975800344807
 21
34.73205606779107
 31
0.0
  0
LINE
  5
1771
330
739
100
AcDbEntity
  8
0
 62
     7
100
AcDbLine
 10
557.4362550344805
 20
34.68795606779107
 30
0.0
 11
557.4362550344805
 21
34.73205606779107
 31
0.0
  0
LINE
  5
1772
330
739
100
AcDbEntity
  8
0
 62
     7
100
AcDbLine
 10
556.5255900344807
 20
34.73205606779107
 30
0.0
 11
556.5255900344807
 21
34.88420106779106
 31
0.0
  0
LINE
  5
1773
330
739
100
AcDbEntity
  8
0
 62
     7
100
AcDbLine
 10
556.5255900344807
 20
34.88420106779106
 30
0.0
 11
557.6082450344806
 21
34.88420106779106
 31
0.0
  0
LINE
  5
1774
330
739
100
AcDbEntity
  8
0
 62
     7
100
AcDbLine
 10
557.6082450344806
 20
34.73205606779107
 30
0.0
 11
557.6082450344806
 21
34.88420106779106
 31
0.0
  0
LINE
  5
1775
330
739
100
AcDbEntity
  8
0
 62
     7
100
AcDbLine
 10
556.5255900344807
 20
34.73205606779107
 30
0.0
 11
556.6975800344807
 21
34.73205606779107
 31
0.0
  0
LINE
  5
1776
330
739
100
AcDbEntity
  8
0
 62
     7
100
AcDbLine
 10
556.4814900344806
 20
34.68795606779107
 30
0.0
 11
556.6975800344807
 21
34.68795606779107
 31
0.0
  0
LINE
  5
1777
330
739
100
AcDbEntity
  8
0
 62
     7
100
AcDbLine
 10
556.4814900344806
 20
34.68795606779107
 30
0.0
 11
556.4814900344806
 21
34.92830106779107
 31
0.0
  0
LINE
  5
1778
330
739
100
AcDbEntity
  8
0
 62
     7
100
AcDbLine
 10
557.6523450344804
 20
34.68795606779107
 30
0.0
 11
557.6523450344804
 21
34.92830106779107
 31
0.0
  0
LINE
  5
1779
330
739
100
AcDbEntity
  8
0
 62
     7
100
AcDbLine
 10
558.7753619047975
 20
35.03138481779107
 30
0.0
 11
559.8089556547974
 21
35.03138481779107
 31
0.0
  0
LINE
  5
177A
330
739
100
AcDbEntity
  8
0
 62
     7
100
AcDbLine
 10
558.7753619047975
 20
35.03138481779107
 30
0.0
 11
558.7753619047975
 21
34.96247856779107
 31
0.0
  0
LINE
  5
177B
330
739
100
AcDbEntity
  8
0
 62
     7
100
AcDbLine
 10
559.8089556547974
 20
36.09970731779107
 30
0.0
 11
559.8089556547974
 21
35.03138481779107
 31
0.0
  0
LINE
  5
177C
330
739
100
AcDbEntity
  8
0
 62
     7
100
AcDbLine
 10
553.7121912472677
 20
34.92830106779107
 30
0.0
 11
559.6022369047975
 21
34.92830106779107
 31
0.0
  0
LINE
  5
177D
330
739
100
AcDbEntity
  8
0
 62
     7
100
AcDbLine
 10
553.7121912472677
 20
34.96247856779107
 30
0.0
 11
559.8436844047974
 21
34.96247856779107
 31
0.0
  0
LINE
  5
177E
330
739
100
AcDbEntity
  8
0
 62
     7
100
AcDbLine
 10
553.7121912472677
 20
36.09970731779107
 30
0.0
 11
559.8778619047975
 21
36.09970731779107
 31
0.0
  0
LINE
  5
177F
330
739
100
AcDbEntity
  8
0
 62
     7
100
AcDbLine
 10
559.8778619047975
 20
36.09970731779107
 30
0.0
 11
559.8778619047975
 21
32.86111356779108
 31
0.0
  0
LINE
  5
1780
330
739
100
AcDbEntity
  8
0
 62
     7
100
AcDbLine
 10
558.0244127855269
 20
32.86111356779105
 30
0.0
 11
559.9467681547974
 21
32.86111356779108
 31
0.0
  0
LINE
  5
1781
330
739
100
AcDbEntity
  8
0
  6
Continuous
 62
     7
100
AcDbLine
 10
530.3050426527395
 20
33.13673856779106
 30
0.0
 11
528.5815320964815
 21
33.13673856779106
 31
0.0
  0
LINE
  5
1782
330
739
100
AcDbEntity
  8
0
  6
Continuous
 62
     7
100
AcDbLine
 10
530.7865320964813
 20
32.36892606779107
 30
0.0
 11
530.036784248369
 21
32.36892606779107
 31
0.0
  0
LINE
  5
1783
330
739
100
AcDbEntity
  8
0
 62
     7
100
AcDbLine
 10
530.7865320964813
 20
32.99892606779107
 30
0.0
 11
530.7865320964813
 21
32.36892606779107
 31
0.0
  0
LINE
  5
1784
330
739
100
AcDbEntity
  8
0
 62
     7
100
AcDbLine
 10
530.7997608188152
 20
32.81301597971263
 30
0.0
 11
531.4023972628149
 21
32.81301597971263
 31
0.0
  0
LINE
  5
1785
330
739
100
AcDbEntity
  8
0
 62
     7
100
AcDbLine
 10
530.7997608188152
 20
32.60301597971262
 30
0.0
 11
531.3214065280735
 21
32.60301597971262
 31
0.0
  0
ARC
  5
1786
330
739
100
AcDbEntity
  8
0
 62
     7
100
AcDbCircle
 10
532.5439198487624
 20
34.01430085708136
 30
0.0
 40
1.867153936972238
100
AcDbArc
 50
229.0995358549851
 51
310.6748851626459
  0
ARC
  5
1787
330
739
100
AcDbEntity
  8
0
 62
     7
100
AcDbCircle
 10
532.5439198487624
 20
34.01430085708136
 30
0.0
 40
1.657153936972239
100
AcDbArc
 50
226.4612317580231
 51
310.6748851626459
  0
ARC
  5
1788
330
739
100
AcDbEntity
  8
0
 62
     7
100
AcDbCircle
 10
533.708610033296
 20
32.69175093442598
 30
0.0
 40
0.1071448845178928
100
AcDbArc
 50
299.1912063852742
 51
142.1585639399891
  0
LINE
  5
1789
330
739
100
AcDbEntity
  8
0
 62
     7
100
AcDbLine
 10
556.4405855317074
 20
27.05797281944518
 30
0.0
 11
556.4405855317074
 21
25.05339037334996
 31
0.0
  0
LINE
  5
178A
330
739
100
AcDbEntity
  8
0
 62
     7
100
AcDbLine
 10
552.8428619047974
 20
34.92830106779107
 30
0.0
 11
555.3754619047975
 21
34.92830106779107
 31
0.0
  0
LINE
  5
178B
330
739
100
AcDbEntity
  8
0
 62
     7
100
AcDbLine
 10
555.3754619047975
 20
34.96247856779107
 30
0.0
 11
555.3754619047975
 21
36.09970731779107
 31
0.0
  0
LINE
  5
178C
330
739
100
AcDbEntity
  8
0
 62
     7
100
AcDbLine
 10
552.8428407170658
 20
34.96247856779107
 30
0.0
 11
552.8428407170658
 21
36.09970731779107
 31
0.0
  0
LINE
  5
178D
330
739
100
AcDbEntity
  8
0
 62
     7
100
AcDbLine
 10
528.5815320964815
 20
34.96247856779106
 30
0.0
 11
528.5815320964815
 21
36.09970731779106
 31
0.0
  0
LINE
  5
178E
330
739
100
AcDbEntity
  8
0
 62
     7
100
AcDbLine
 10
531.5238099955588
 20
34.96247856779106
 30
0.0
 11
531.5238099955588
 21
36.09970731779106
 31
0.0
  0
LINE
  5
178F
330
739
100
AcDbEntity
  8
0
 62
     7
100
AcDbLine
 10
550.7145912237879
 20
36.09970731779102
 30
0.0
 11
550.7145912237881
 21
34.96247856779099
 31
0.0
  0
LINE
  5
1790
330
739
100
AcDbEntity
  8
0
 62
     7
100
AcDbLine
 10
548.1945912237879
 20
36.09970731779101
 30
0.0
 11
548.1945912237882
 21
34.96247856779099
 31
0.0
  0
LINE
  5
1791
330
739
100
AcDbEntity
  8
0
 62
     7
100
AcDbLine
 10
545.6745912237879
 20
36.09970731779099
 30
0.0
 11
545.6745912237879
 21
34.96247856779097
 31
0.0
  0
LINE
  5
1792
330
739
100
AcDbEntity
  8
0
 62
     7
100
AcDbLine
 10
543.1545912237879
 20
36.09970731779097
 30
0.0
 11
543.1545912237879
 21
34.96247856779095
 31
0.0
  0
LINE
  5
1793
330
739
100
AcDbEntity
  8
0
 62
     7
100
AcDbLine
 10
540.6345912237878
 20
36.09970731779094
 30
0.0
 11
540.6345912237882
 21
34.96247856779092
 31
0.0
  0
LINE
  5
1794
330
739
100
AcDbEntity
  8
0
 62
     7
100
AcDbLine
 10
538.1145912237878
 20
36.09970731779092
 30
0.0
 11
538.1145912237879
 21
34.96247856779089
 31
0.0
  0
ARC
  5
1795
330
739
100
AcDbEntity
  8
0
 62
     7
100
AcDbCircle
 10
560.3050582056771
 20
35.56174749559801
 30
0.0
 40
0.726224697321557
100
AcDbArc
 50
135.0598512277404
 51
226.9116402490917
  0
ARC
  5
1796
330
739
100
AcDbEntity
  8
0
 62
     7
100
AcDbCircle
 10
558.8401516779449
 20
35.56174749559801
 30
0.0
 40
0.726224697321557
100
AcDbArc
 50
313.0883597509083
 51
44.94014877225954
  0
ARC
  5
1797
330
739
100
AcDbEntity
  8
0
 62
     7
100
AcDbCircle
 10
559.8682607773557
 20
35.56174749559801
 30
0.0
 40
0.726224697321557
100
AcDbArc
 50
135.0598512277404
 51
226.9116402490917
  0
ARC
  5
1798
330
739
100
AcDbEntity
  8
0
 62
     7
100
AcDbCircle
 10
558.4033542496236
 20
35.56174749559801
 30
0.0
 40
0.726224697321557
100
AcDbArc
 50
313.0883597509083
 51
44.94014877225954
  0
ARC
  5
1799
330
739
100
AcDbEntity
  8
0
 62
     7
100
AcDbCircle
 10
559.4314633490344
 20
35.56174749559801
 30
0.0
 40
0.726224697321557
100
AcDbArc
 50
135.0598512277404
 51
226.9116402490917
  0
ARC
  5
179A
330
739
100
AcDbEntity
  8
0
 62
     7
100
AcDbCircle
 10
557.9665568213024
 20
35.56174749559801
 30
0.0
 40
0.726224697321557
100
AcDbArc
 50
313.0883597509083
 51
44.94014877225954
  0
ARC
  5
179B
330
739
100
AcDbEntity
  8
0
 62
     7
100
AcDbCircle
 10
558.994665920713
 20
35.56174749559801
 30
0.0
 40
0.726224697321557
100
AcDbArc
 50
135.0598512277404
 51
226.9116402490917
  0
ARC
  5
179C
330
739
100
AcDbEntity
  8
0
 62
     7
100
AcDbCircle
 10
557.5297593929811
 20
35.56174749559801
 30
0.0
 40
0.726224697321557
100
AcDbArc
 50
313.0883597509083
 51
44.94014877225954
  0
ARC
  5
179D
330
739
100
AcDbEntity
  8
0
 62
     7
100
AcDbCircle
 10
558.5578684923919
 20
35.56174749559801
 30
0.0
 40
0.726224697321557
100
AcDbArc
 50
135.0598512277404
 51
226.9116402490917
  0
ARC
  5
179E
330
739
100
AcDbEntity
  8
0
 62
     7
100
AcDbCircle
 10
557.0929619646597
 20
35.56174749559801
 30
0.0
 40
0.726224697321557
100
AcDbArc
 50
313.0883597509083
 51
44.94014877225954
  0
ARC
  5
179F
330
739
100
AcDbEntity
  8
0
 62
     7
100
AcDbCircle
 10
558.1210710640704
 20
35.56174749559801
 30
0.0
 40
0.726224697321557
100
AcDbArc
 50
135.0598512277404
 51
226.9116402490917
  0
ARC
  5
17A0
330
739
100
AcDbEntity
  8
0
 62
     7
100
AcDbCircle
 10
556.6561645363383
 20
35.56174749559801
 30
0.0
 40
0.726224697321557
100
AcDbArc
 50
313.0883597509083
 51
44.94014877225954
  0
ARC
  5
17A1
330
739
100
AcDbEntity
  8
0
 62
     7
100
AcDbCircle
 10
557.6842736357491
 20
35.56174749559801
 30
0.0
 40
0.726224697321557
100
AcDbArc
 50
135.0598512277404
 51
226.9116402490917
  0
ARC
  5
17A2
330
739
100
AcDbEntity
  8
0
 62
     7
100
AcDbCircle
 10
556.2193671080169
 20
35.56174749559801
 30
0.0
 40
0.726224697321557
100
AcDbArc
 50
313.0883597509083
 51
44.94014877225954
  0
ARC
  5
17A3
330
739
100
AcDbEntity
  8
0
 62
     7
100
AcDbCircle
 10
557.2474762074279
 20
35.56174749559801
 30
0.0
 40
0.726224697321557
100
AcDbArc
 50
135.0598512277404
 51
226.9116402490917
  0
ARC
  5
17A4
330
739
100
AcDbEntity
  8
0
 62
     7
100
AcDbCircle
 10
555.7825696796956
 20
35.56174749559801
 30
0.0
 40
0.726224697321557
100
AcDbArc
 50
313.0883597509083
 51
44.94014877225954
  0
ARC
  5
17A5
330
739
100
AcDbEntity
  8
0
 62
     7
100
AcDbCircle
 10
556.8106787791064
 20
35.56174749559801
 30
0.0
 40
0.726224697321557
100
AcDbArc
 50
135.0598512277404
 51
226.9116402490917
  0
ARC
  5
17A6
330
739
100
AcDbEntity
  8
0
 62
     7
100
AcDbCircle
 10
555.3457722513744
 20
35.56174749559801
 30
0.0
 40
0.726224697321557
100
AcDbArc
 50
313.0883597509083
 51
44.94014877225954
  0
ARC
  5
17A7
330
739
100
AcDbEntity
  8
0
 62
     7
100
AcDbCircle
 10
556.3738813507852
 20
35.56174749559801
 30
0.0
 40
0.726224697321557
100
AcDbArc
 50
135.0598512277404
 51
226.9116402490917
  0
ARC
  5
17A8
330
739
100
AcDbEntity
  8
0
 62
     7
100
AcDbCircle
 10
554.9089748230531
 20
35.56174749559801
 30
0.0
 40
0.726224697321557
100
AcDbArc
 50
313.0883597509083
 51
44.94014877225954
  0
ARC
  5
17A9
330
739
100
AcDbEntity
  8
0
 62
     7
100
AcDbCircle
 10
555.9370839224636
 20
35.56174749559801
 30
0.0
 40
0.726224697321557
100
AcDbArc
 50
219.3448029026094
 51
226.9116402490917
  0
ARC
  5
17AA
330
739
100
AcDbEntity
  8
0
 62
     7
100
AcDbCircle
 10
555.9370839224636
 20
35.56174749559801
 30
0.0
 40
0.726224697321557
100
AcDbArc
 50
135.0598512277404
 51
140.6551970973905
  0
ARC
  5
17AB
330
739
100
AcDbEntity
  8
0
 62
     7
100
AcDbCircle
 10
553.356895266771
 20
35.58672561156075
 30
0.0
 40
0.726224697321557
100
AcDbArc
 50
135.0598512277404
 51
226.9116402490917
  0
ARC
  5
17AC
330
739
100
AcDbEntity
  8
0
 62
     7
100
AcDbCircle
 10
551.8919887390389
 20
35.58672561156075
 30
0.0
 40
0.726224697321557
100
AcDbArc
 50
313.0883597509083
 51
44.94014877225954
  0
ARC
  5
17AD
330
739
100
AcDbEntity
  8
0
 62
     7
100
AcDbCircle
 10
552.9200978384497
 20
35.58672561156075
 30
0.0
 40
0.726224697321557
100
AcDbArc
 50
135.0598512277404
 51
226.9116402490917
  0
ARC
  5
17AE
330
739
100
AcDbEntity
  8
0
 62
     7
100
AcDbCircle
 10
551.4551913107177
 20
35.58672561156075
 30
0.0
 40
0.726224697321557
100
AcDbArc
 50
313.0883597509083
 51
44.94014877225954
  0
ARC
  5
17AF
330
739
100
AcDbEntity
  8
0
 62
     7
100
AcDbCircle
 10
552.4833004101282
 20
35.58672561156075
 30
0.0
 40
0.726224697321557
100
AcDbArc
 50
135.0598512277404
 51
226.9116402490917
  0
ARC
  5
17B0
330
739
100
AcDbEntity
  8
0
 62
     7
100
AcDbCircle
 10
551.0183938823961
 20
35.58672561156075
 30
0.0
 40
0.726224697321557
100
AcDbArc
 50
313.0883597509083
 51
44.94014877225954
  0
ARC
  5
17B1
330
739
100
AcDbEntity
  8
0
 62
     7
100
AcDbCircle
 10
552.0465029818072
 20
35.58672561156075
 30
0.0
 40
0.726224697321557
100
AcDbArc
 50
135.0598512277404
 51
226.9116402490917
  0
ARC
  5
17B2
330
739
100
AcDbEntity
  8
0
 62
     7
100
AcDbCircle
 10
550.581596454075
 20
35.58672561156075
 30
0.0
 40
0.726224697321557
100
AcDbArc
 50
313.0883597509083
 51
44.94014877225954
  0
ARC
  5
17B3
330
739
100
AcDbEntity
  8
0
 62
     7
100
AcDbCircle
 10
551.6097055534857
 20
35.58672561156075
 30
0.0
 40
0.726224697321557
100
AcDbArc
 50
135.0598512277404
 51
226.9116402490917
  0
ARC
  5
17B4
330
739
100
AcDbEntity
  8
0
 62
     7
100
AcDbCircle
 10
550.1447990257538
 20
35.58672561156075
 30
0.0
 40
0.726224697321557
100
AcDbArc
 50
321.6832275174609
 51
38.31677248253907
  0
ARC
  5
17B5
330
739
100
AcDbEntity
  8
0
 62
     7
100
AcDbCircle
 10
548.7086457734933
 20
35.5867256115607
 30
0.0
 40
0.726224697321557
100
AcDbArc
 50
135.0598512277404
 51
226.9116402490917
  0
ARC
  5
17B6
330
739
100
AcDbEntity
  8
0
 62
     7
100
AcDbCircle
 10
547.2437392457611
 20
35.5867256115607
 30
0.0
 40
0.726224697321557
100
AcDbArc
 50
313.0883597509083
 51
44.94014877225954
  0
ARC
  5
17B7
330
739
100
AcDbEntity
  8
0
 62
     7
100
AcDbCircle
 10
546.80694181744
 20
35.5867256115607
 30
0.0
 40
0.726224697321557
100
AcDbArc
 50
313.0883597509083
 51
44.94014877225954
  0
ARC
  5
17B8
330
739
100
AcDbEntity
  8
0
 62
     7
100
AcDbCircle
 10
548.2718483451719
 20
35.5867256115607
 30
0.0
 40
0.726224697321557
100
AcDbArc
 50
135.0598512277404
 51
226.9116402490917
  0
ARC
  5
17B9
330
739
100
AcDbEntity
  8
0
 62
     7
100
AcDbCircle
 10
547.8350509168506
 20
35.5867256115607
 30
0.0
 40
0.726224697321557
100
AcDbArc
 50
135.0598512277404
 51
226.9116402490917
  0
ARC
  5
17BA
330
739
100
AcDbEntity
  8
0
 62
     7
100
AcDbCircle
 10
546.3701443891184
 20
35.5867256115607
 30
0.0
 40
0.726224697321557
100
AcDbArc
 50
313.0883597509083
 51
44.94014877225954
  0
ARC
  5
17BB
330
739
100
AcDbEntity
  8
0
 62
     7
100
AcDbCircle
 10
547.3982534885294
 20
35.5867256115607
 30
0.0
 40
0.726224697321557
100
AcDbArc
 50
135.0598512277404
 51
226.9116402490917
  0
ARC
  5
17BC
330
739
100
AcDbEntity
  8
0
 62
     7
100
AcDbCircle
 10
545.9333469607972
 20
35.5867256115607
 30
0.0
 40
0.726224697321557
100
AcDbArc
 50
313.0883597509083
 51
44.94014877225954
  0
ARC
  5
17BD
330
739
100
AcDbEntity
  8
0
 62
     7
100
AcDbCircle
 10
546.9614560602081
 20
35.5867256115607
 30
0.0
 40
0.726224697321557
100
AcDbArc
 50
135.0598512277404
 51
226.9116402490917
  0
ARC
  5
17BE
330
739
100
AcDbEntity
  8
0
 62
     7
100
AcDbCircle
 10
545.4965495324759
 20
35.5867256115607
 30
0.0
 40
0.726224697321557
100
AcDbArc
 50
313.0883597509083
 51
44.94014877225954
  0
ARC
  5
17BF
330
739
100
AcDbEntity
  8
0
 62
     7
100
AcDbCircle
 10
546.5246586318867
 20
35.5867256115607
 30
0.0
 40
0.726224697321557
100
AcDbArc
 50
135.0598512277404
 51
226.9116402490917
  0
ARC
  5
17C0
330
739
100
AcDbEntity
  8
0
 62
     7
100
AcDbCircle
 10
545.0597521041545
 20
35.5867256115607
 30
0.0
 40
0.726224697321557
100
AcDbArc
 50
327.8463332504722
 51
32.15366674952777
  0
ARC
  5
17C1
330
739
100
AcDbEntity
  8
0
 62
     7
100
AcDbCircle
 10
543.6686457734934
 20
35.58672561156065
 30
0.0
 40
0.726224697321557
100
AcDbArc
 50
135.0598512277404
 51
226.9116402490917
  0
ARC
  5
17C2
330
739
100
AcDbEntity
  8
0
 62
     7
100
AcDbCircle
 10
542.2037392457611
 20
35.58672561156065
 30
0.0
 40
0.726224697321557
100
AcDbArc
 50
313.0883597509083
 51
44.94014877225954
  0
ARC
  5
17C3
330
739
100
AcDbEntity
  8
0
 62
     7
100
AcDbCircle
 10
543.2318483451719
 20
35.58672561156065
 30
0.0
 40
0.726224697321557
100
AcDbArc
 50
135.0598512277404
 51
226.9116402490917
  0
ARC
  5
17C4
330
739
100
AcDbEntity
  8
0
 62
     7
100
AcDbCircle
 10
541.7669418174398
 20
35.58672561156065
 30
0.0
 40
0.726224697321557
100
AcDbArc
 50
313.0883597509083
 51
44.94014877225954
  0
ARC
  5
17C5
330
739
100
AcDbEntity
  8
0
 62
     7
100
AcDbCircle
 10
542.7950509168506
 20
35.58672561156065
 30
0.0
 40
0.726224697321557
100
AcDbArc
 50
135.0598512277404
 51
226.9116402490917
  0
ARC
  5
17C6
330
739
100
AcDbEntity
  8
0
 62
     7
100
AcDbCircle
 10
541.3301443891186
 20
35.58672561156065
 30
0.0
 40
0.726224697321557
100
AcDbArc
 50
313.0883597509083
 51
44.94014877225954
  0
ARC
  5
17C7
330
739
100
AcDbEntity
  8
0
 62
     7
100
AcDbCircle
 10
542.3582534885294
 20
35.58672561156065
 30
0.0
 40
0.726224697321557
100
AcDbArc
 50
135.0598512277404
 51
226.9116402490917
  0
ARC
  5
17C8
330
739
100
AcDbEntity
  8
0
 62
     7
100
AcDbCircle
 10
540.8933469607971
 20
35.58672561156065
 30
0.0
 40
0.726224697321557
100
AcDbArc
 50
313.0883597509083
 51
44.94014877225954
  0
ARC
  5
17C9
330
739
100
AcDbEntity
  8
0
 62
     7
100
AcDbCircle
 10
541.9214560602078
 20
35.58672561156065
 30
0.0
 40
0.726224697321557
100
AcDbArc
 50
135.0598512277404
 51
226.9116402490917
  0
ARC
  5
17CA
330
739
100
AcDbEntity
  8
0
 62
     7
100
AcDbCircle
 10
540.4565495324759
 20
35.58672561156065
 30
0.0
 40
0.726224697321557
100
AcDbArc
 50
313.0883597509083
 51
44.94014877225954
  0
ARC
  5
17CB
330
739
100
AcDbEntity
  8
0
 62
     7
100
AcDbCircle
 10
541.4846586318867
 20
35.58672561156065
 30
0.0
 40
0.726224697321557
100
AcDbArc
 50
135.0598512277404
 51
226.9116402490917
  0
ARC
  5
17CC
330
739
100
AcDbEntity
  8
0
 62
     7
100
AcDbCircle
 10
540.0197521041543
 20
35.58672561156065
 30
0.0
 40
0.726224697321557
100
AcDbArc
 50
327.8463332504722
 51
32.15366674952777
  0
ARC
  5
17CD
330
739
100
AcDbEntity
  8
0
 62
     7
100
AcDbCircle
 10
533.2325623908693
 20
35.5867256115606
 30
0.0
 40
0.726224697321557
100
AcDbArc
 50
313.0883597509083
 51
44.94014877225954
  0
ARC
  5
17CE
330
739
100
AcDbEntity
  8
0
 62
     7
100
AcDbCircle
 10
534.6974689186015
 20
35.5867256115606
 30
0.0
 40
0.726224697321557
100
AcDbArc
 50
135.0598512277404
 51
226.9116402490917
  0
ARC
  5
17CF
330
739
100
AcDbEntity
  8
0
 62
     7
100
AcDbCircle
 10
533.6693598191907
 20
35.5867256115606
 30
0.0
 40
0.726224697321557
100
AcDbArc
 50
313.0883597509083
 51
44.94014877225954
  0
ARC
  5
17D0
330
739
100
AcDbEntity
  8
0
 62
     7
100
AcDbCircle
 10
535.1342663469229
 20
35.5867256115606
 30
0.0
 40
0.726224697321557
100
AcDbArc
 50
135.0598512277404
 51
226.9116402490917
  0
ARC
  5
17D1
330
739
100
AcDbEntity
  8
0
 62
     7
100
AcDbCircle
 10
534.1061572475121
 20
35.5867256115606
 30
0.0
 40
0.726224697321557
100
AcDbArc
 50
313.0883597509083
 51
44.94014877225954
  0
ARC
  5
17D2
330
739
100
AcDbEntity
  8
0
 62
     7
100
AcDbCircle
 10
535.5710637752438
 20
35.5867256115606
 30
0.0
 40
0.726224697321557
100
AcDbArc
 50
135.0598512277404
 51
226.9116402490917
  0
ARC
  5
17D3
330
739
100
AcDbEntity
  8
0
 62
     7
100
AcDbCircle
 10
534.5429546758332
 20
35.5867256115606
 30
0.0
 40
0.726224697321557
100
AcDbArc
 50
313.0883597509083
 51
44.94014877225954
  0
ARC
  5
17D4
330
739
100
AcDbEntity
  8
0
 62
     7
100
AcDbCircle
 10
536.0078612035654
 20
35.5867256115606
 30
0.0
 40
0.726224697321557
100
AcDbArc
 50
135.0598512277404
 51
226.9116402490917
  0
ARC
  5
17D5
330
739
100
AcDbEntity
  8
0
 62
     7
100
AcDbCircle
 10
534.9797521041546
 20
35.5867256115606
 30
0.0
 40
0.726224697321557
100
AcDbArc
 50
313.0883597509083
 51
44.94014877225954
  0
ARC
  5
17D6
330
739
100
AcDbEntity
  8
0
 62
     7
100
AcDbCircle
 10
536.4446586318865
 20
35.5867256115606
 30
0.0
 40
0.726224697321557
100
AcDbArc
 50
135.0598512277404
 51
226.9116402490917
  0
ARC
  5
17D7
330
739
100
AcDbEntity
  8
0
 62
     7
100
AcDbCircle
 10
535.4165495324757
 20
35.5867256115606
 30
0.0
 40
0.726224697321557
100
AcDbArc
 50
313.0883597509083
 51
44.94014877225954
  0
ARC
  5
17D8
330
739
100
AcDbEntity
  8
0
 62
     7
100
AcDbCircle
 10
536.8814560602081
 20
35.5867256115606
 30
0.0
 40
0.726224697321557
100
AcDbArc
 50
135.0598512277404
 51
226.9116402490917
  0
ARC
  5
17D9
330
739
100
AcDbEntity
  8
0
 62
     7
100
AcDbCircle
 10
535.8533469607971
 20
35.5867256115606
 30
0.0
 40
0.726224697321557
100
AcDbArc
 50
313.0883597509083
 51
44.94014877225954
  0
ARC
  5
17DA
330
739
100
AcDbEntity
  8
0
 62
     7
100
AcDbCircle
 10
537.3182534885293
 20
35.5867256115606
 30
0.0
 40
0.726224697321557
100
AcDbArc
 50
135.0598512277404
 51
226.9116402490917
  0
ARC
  5
17DB
330
739
100
AcDbEntity
  8
0
 62
     7
100
AcDbCircle
 10
536.2901443891185
 20
35.5867256115606
 30
0.0
 40
0.726224697321557
100
AcDbArc
 50
313.0883597509083
 51
44.94014877225954
  0
ARC
  5
17DC
330
739
100
AcDbEntity
  8
0
 62
     7
100
AcDbCircle
 10
537.7550509168506
 20
35.5867256115606
 30
0.0
 40
0.726224697321557
100
AcDbArc
 50
135.0598512277404
 51
226.9116402490917
  0
ARC
  5
17DD
330
739
100
AcDbEntity
  8
0
 62
     7
100
AcDbCircle
 10
536.7269418174398
 20
35.5867256115606
 30
0.0
 40
0.726224697321557
100
AcDbArc
 50
313.0883597509083
 51
44.94014877225954
  0
ARC
  5
17DE
330
739
100
AcDbEntity
  8
0
 62
     7
100
AcDbCircle
 10
538.191848345172
 20
35.5867256115606
 30
0.0
 40
0.726224697321557
100
AcDbArc
 50
135.0598512277404
 51
226.9116402490917
  0
ARC
  5
17DF
330
739
100
AcDbEntity
  8
0
 62
     7
100
AcDbCircle
 10
537.1637392457612
 20
35.5867256115606
 30
0.0
 40
0.726224697321557
100
AcDbArc
 50
313.0883597509083
 51
44.94014877225954
  0
ARC
  5
17E0
330
739
100
AcDbEntity
  8
0
 62
     7
100
AcDbCircle
 10
538.6286457734934
 20
35.5867256115606
 30
0.0
 40
0.726224697321557
100
AcDbArc
 50
135.0598512277404
 51
224.9401487722529
  0
ARC
  5
17E1
330
739
100
AcDbEntity
  8
0
 62
     7
100
AcDbCircle
 10
534.2606714902801
 20
35.5867256115606
 30
0.0
 40
0.726224697321557
100
AcDbArc
 50
135.0598512277404
 51
226.9116402490917
  0
ARC
  5
17E2
330
739
100
AcDbEntity
  8
0
 62
     7
100
AcDbCircle
 10
532.795764962548
 20
35.5867256115606
 30
0.0
 40
0.726224697321557
100
AcDbArc
 50
313.0883597509083
 51
44.94014877225954
  0
ARC
  5
17E3
330
739
100
AcDbEntity
  8
0
 62
     7
100
AcDbCircle
 10
533.8238740619588
 20
35.5867256115606
 30
0.0
 40
0.726224697321557
100
AcDbArc
 50
135.0598512277404
 51
226.9116402490917
  0
ARC
  5
17E4
330
739
100
AcDbEntity
  8
0
 62
     7
100
AcDbCircle
 10
532.3589675342266
 20
35.5867256115606
 30
0.0
 40
0.726224697321557
100
AcDbArc
 50
313.0883597509083
 51
44.94014877225954
  0
ARC
  5
17E5
330
739
100
AcDbEntity
  8
0
 62
     7
100
AcDbCircle
 10
533.3870766336374
 20
35.5867256115606
 30
0.0
 40
0.726224697321557
100
AcDbArc
 50
135.0598512277404
 51
226.9116402490917
  0
ARC
  5
17E6
330
739
100
AcDbEntity
  8
0
 62
     7
100
AcDbCircle
 10
531.9221701059052
 20
35.5867256115606
 30
0.0
 40
0.726224697321557
100
AcDbArc
 50
313.0883597509083
 51
44.94014877225954
  0
ARC
  5
17E7
330
739
100
AcDbEntity
  8
0
 62
     7
100
AcDbCircle
 10
532.950279205316
 20
35.5867256115606
 30
0.0
 40
0.726224697321557
100
AcDbArc
 50
135.0598512277404
 51
226.9116402490917
  0
ARC
  5
17E8
330
739
100
AcDbEntity
  8
0
 62
     7
100
AcDbCircle
 10
531.4853726775841
 20
35.5867256115606
 30
0.0
 40
0.726224697321557
100
AcDbArc
 50
313.0883597509083
 51
44.94014877225954
  0
ARC
  5
17E9
330
739
100
AcDbEntity
  8
0
 62
     7
100
AcDbCircle
 10
532.5134817769948
 20
35.5867256115606
 30
0.0
 40
0.726224697321557
100
AcDbArc
 50
135.0598512277404
 51
226.9116402490917
  0
ARC
  5
17EA
330
739
100
AcDbEntity
  8
0
 62
     7
100
AcDbCircle
 10
531.0485752492625
 20
35.5867256115606
 30
0.0
 40
0.726224697321557
100
AcDbArc
 50
313.0883597509083
 51
44.94014877225954
  0
ARC
  5
17EB
330
739
100
AcDbEntity
  8
0
 62
     7
100
AcDbCircle
 10
532.0766843486733
 20
35.5867256115606
 30
0.0
 40
0.726224697321557
100
AcDbArc
 50
220.4211244942128
 51
226.9116402490917
  0
ARC
  5
17EC
330
739
100
AcDbEntity
  8
0
 62
     7
100
AcDbCircle
 10
532.0766843486733
 20
35.5867256115606
 30
0.0
 40
0.726224697321557
100
AcDbArc
 50
135.0598512277404
 51
139.5788755057872
  0
ARC
  5
17ED
330
739
100
AcDbEntity
  8
0
 62
     7
100
AcDbCircle
 10
529.095586646187
 20
35.58672561156074
 30
0.0
 40
0.726224697321557
100
AcDbArc
 50
135.0598512277404
 51
224.9401487722529
  0
ARC
  5
17EE
330
739
100
AcDbEntity
  8
0
 62
     7
100
AcDbCircle
 10
527.6306801184548
 20
35.58672561156074
 30
0.0
 40
0.726224697321557
100
AcDbArc
 50
313.0883597509083
 51
44.94014877225954
  0
ARC
  5
17EF
330
739
100
AcDbEntity
  8
0
 62
     7
100
AcDbCircle
 10
528.6587892178657
 20
35.58672561156074
 30
0.0
 40
0.726224697321557
100
AcDbArc
 50
135.0598512277404
 51
226.9116402490917
  0
ARC
  5
17F0
330
739
100
AcDbEntity
  8
0
 62
     7
100
AcDbCircle
 10
527.1938826901334
 20
35.58672561156074
 30
0.0
 40
0.726224697321557
100
AcDbArc
 50
313.0883597509083
 51
44.94014877225954
  0
ARC
  5
17F1
330
739
100
AcDbEntity
  8
0
 62
     7
100
AcDbCircle
 10
528.2219917895442
 20
35.58672561156074
 30
0.0
 40
0.726224697321557
100
AcDbArc
 50
135.0598512277404
 51
226.9116402490917
  0
ARC
  5
17F2
330
739
100
AcDbEntity
  8
0
 62
     7
100
AcDbCircle
 10
526.7570852618121
 20
35.58672561156074
 30
0.0
 40
0.726224697321557
100
AcDbArc
 50
313.0883597509083
 51
44.94014877225954
  0
ARC
  5
17F3
330
739
100
AcDbEntity
  8
0
 62
     7
100
AcDbCircle
 10
527.7851943612229
 20
35.58672561156074
 30
0.0
 40
0.726224697321557
100
AcDbArc
 50
135.0598512277404
 51
226.9116402490917
  0
ARC
  5
17F4
330
739
100
AcDbEntity
  8
0
 62
     7
100
AcDbCircle
 10
526.3202878334909
 20
35.58672561156074
 30
0.0
 40
0.726224697321557
100
AcDbArc
 50
313.0883597509083
 51
44.94014877225954
  0
ARC
  5
17F5
330
739
100
AcDbEntity
  8
0
 62
     7
100
AcDbCircle
 10
527.3483969329015
 20
35.58672561156074
 30
0.0
 40
0.726224697321557
100
AcDbArc
 50
135.0598512277404
 51
226.9116402490917
  0
ARC
  5
17F6
330
739
100
AcDbEntity
  8
0
 62
     7
100
AcDbCircle
 10
525.8834904051695
 20
35.58672561156074
 30
0.0
 40
0.726224697321557
100
AcDbArc
 50
313.0883597509083
 51
44.94014877225954
  0
ARC
  5
17F7
330
739
100
AcDbEntity
  8
0
 62
     7
100
AcDbCircle
 10
526.9115995045801
 20
35.58672561156074
 30
0.0
 40
0.726224697321557
100
AcDbArc
 50
135.0598512277404
 51
226.9116402490917
  0
ARC
  5
17F8
330
739
100
AcDbEntity
  8
0
 62
     7
100
AcDbCircle
 10
525.4466929768484
 20
35.58672561156074
 30
0.0
 40
0.726224697321557
100
AcDbArc
 50
313.0883597509083
 51
44.94014877225954
  0
ARC
  5
17F9
330
739
100
AcDbEntity
  8
0
 62
     7
100
AcDbCircle
 10
526.474802076259
 20
35.58672561156074
 30
0.0
 40
0.726224697321557
100
AcDbArc
 50
135.0598512277404
 51
224.9401487722529
  0
ARC
  5
17FA
330
739
100
AcDbEntity
  8
0
 62
     7
100
AcDbCircle
 10
525.0098955485269
 20
35.58672561156074
 30
0.0
 40
0.726224697321557
100
AcDbArc
 50
313.0883597509083
 51
44.94014877225954
  0
ARC
  5
17FB
330
739
100
AcDbEntity
  8
0
 62
     7
100
AcDbCircle
 10
526.0380046479376
 20
35.58672561156074
 30
0.0
 40
0.726224697321557
100
AcDbArc
 50
135.0598512277404
 51
226.9116402490917
  0
ARC
  5
17FC
330
739
100
AcDbEntity
  8
0
 62
     7
100
AcDbCircle
 10
524.5730981202057
 20
35.58672561156074
 30
0.0
 40
0.726224697321557
100
AcDbArc
 50
313.0883597509083
 51
44.94014877225954
  0
ARC
  5
17FD
330
739
100
AcDbEntity
  8
0
 62
     7
100
AcDbCircle
 10
525.6012072196165
 20
35.58672561156074
 30
0.0
 40
0.726224697321557
100
AcDbArc
 50
202.3423300736582
 51
226.9116402490917
  0
ARC
  5
17FE
330
739
100
AcDbEntity
  8
0
 62
     7
100
AcDbCircle
 10
525.6012072196165
 20
35.58672561156074
 30
0.0
 40
0.726224697321557
100
AcDbArc
 50
135.0598512277404
 51
157.6576699263416
  0
LINE
  5
17FF
330
739
100
AcDbEntity
  8
0
 62
     7
100
AcDbLine
 10
527.7626932233913
 20
32.16554239921516
 30
0.0
 11
527.0467139906154
 21
32.16554239921516
 31
0.0
  0
LINE
  5
1800
330
739
100
AcDbEntity
  8
0
 62
     7
100
AcDbLine
 10
527.0467139906154
 20
32.16554239921516
 30
0.0
 11
527.0467139906154
 21
25.12229662334996
 31
0.0
  0
LINE
  5
1801
330
739
100
AcDbEntity
  8
0
 62
     7
100
AcDbLine
 10
556.5355302887317
 20
32.16554239921516
 30
0.0
 11
557.2515095215078
 21
32.16554239921516
 31
0.0
  0
LINE
  5
1802
330
739
100
AcDbEntity
  8
0
 62
     7
100
AcDbLine
 10
557.2515095215078
 20
32.16554239921516
 30
0.0
 11
557.2515095215078
 21
25.12229662334996
 31
0.0
  0
LINE
  5
1803
330
739
100
AcDbEntity
  8
0
 62
     7
100
AcDbLine
 10
557.9384177855267
 20
33.80199373645577
 30
0.0
 11
557.7133510293258
 21
33.80199373645576
 31
0.0
  0
LINE
  5
1804
330
739
100
AcDbEntity
  8
0
 62
     7
100
AcDbLine
 10
557.9384177855267
 20
33.31978969007656
 30
0.0
 11
557.7133510293258
 21
33.31978969007656
 31
0.0
  0
LINE
  5
1805
330
739
100
AcDbEntity
  8
0
 62
     7
100
AcDbLine
 10
557.7133510293258
 20
33.80199373645576
 30
0.0
 11
557.7133510293258
 21
33.31978969007656
 31
0.0
  0
LINE
  5
1806
330
739
100
AcDbEntity
  8
0
 62
     7
100
AcDbLine
 10
529.8940320964816
 20
37.1032701057183
 30
0.0
 11
529.8940320964816
 21
36.37398144445039
 31
0.0
  0
LINE
  5
1807
330
739
100
AcDbEntity
  8
0
 62
     7
100
AcDbLine
 10
529.4740320964812
 20
37.1032701057183
 30
0.0
 11
529.4740320964812
 21
36.37398144445039
 31
0.0
  0
LINE
  5
1808
330
739
100
AcDbEntity
  8
0
 62
     7
100
AcDbLine
 10
529.8940320964816
 20
37.1032701057183
 30
0.0
 11
531.3089509668231
 21
37.1032701057183
 31
0.0
  0
LINE
  5
1809
330
739
100
AcDbEntity
  8
0
 62
     7
100
AcDbLine
 10
531.3089509668231
 20
37.31476183969566
 30
0.0
 11
527.9414672063437
 21
37.31476183969566
 31
0.0
  0
LINE
  5
180A
330
739
100
AcDbEntity
  8
0
 62
     7
100
AcDbLine
 10
529.4740320964812
 20
37.1032701057183
 30
0.0
 11
527.9414672063437
 21
37.1032701057183
 31
0.0
  0
ARC
  5
180B
330
739
100
AcDbEntity
  8
0
 62
     7
100
AcDbCircle
 10
531.3089509668231
 20
37.20901597270699
 30
0.0
 40
0.1057458669886824
100
AcDbArc
 50
270.0
 51
90.0
  0
ARC
  5
180C
330
739
100
AcDbEntity
  8
0
 62
     7
100
AcDbCircle
 10
527.9414672063437
 20
37.20901597270699
 30
0.0
 40
0.1057458669886884
100
AcDbArc
 50
90.0
 51
270.0
  0
LINE
  5
180D
330
739
100
AcDbEntity
  8
0
 62
     7
100
AcDbLine
 10
530.4940704299609
 20
36.25216203664006
 30
0.0
 11
527.6491673926861
 21
36.25216203664006
 31
0.0
  0
LINE
  5
180E
330
739
100
AcDbEntity
  8
0
 62
     7
100
AcDbLine
 10
530.4940704299609
 20
36.25216203664006
 30
0.0
 11
530.4940704299609
 21
36.16861356779107
 31
0.0
  0
LINE
  5
180F
330
739
100
AcDbEntity
  8
0
 62
     7
100
AcDbLine
 10
527.5126120468967
 20
36.69775210418374
 30
0.0
 11
527.5126120468967
 21
36.16861356779107
 31
0.0
  0
LINE
  5
1810
330
739
100
AcDbEntity
  8
0
 62
     7
100
AcDbLine
 10
527.5126120468967
 20
36.69775210418374
 30
0.0
 11
527.6491673926861
 21
36.69775210418374
 31
0.0
  0
LINE
  5
1811
330
739
100
AcDbEntity
  8
0
 62
     7
100
AcDbLine
 10
527.6491673926861
 20
36.69775210418374
 30
0.0
 11
527.6491673926861
 21
36.25216203664006
 31
0.0
  0
LINE
  5
1812
330
739
100
AcDbEntity
  8
0
 62
     7
100
AcDbLine
 10
527.7673784530325
 20
36.29947541397573
 30
0.0
 11
527.7673784530325
 21
36.68637277017779
 31
0.0
  0
LINE
  5
1813
330
739
100
AcDbEntity
  8
0
 62
     7
100
AcDbLine
 10
527.7673784530325
 20
36.68637277017779
 30
0.0
 11
527.9153134109708
 21
36.68637277017779
 31
0.0
  0
LINE
  5
1814
330
739
100
AcDbEntity
  8
0
 62
     7
100
AcDbLine
 10
527.9153134109708
 20
36.37398144445039
 30
0.0
 11
527.9153134109708
 21
36.68637277017779
 31
0.0
  0
LINE
  5
1815
330
739
100
AcDbEntity
  8
0
 62
     7
100
AcDbLine
 10
527.7673784530325
 20
36.29947541397573
 30
0.0
 11
530.4984853688162
 21
36.29947541397573
 31
0.0
  0
LINE
  5
1816
330
739
100
AcDbEntity
  8
0
 62
     7
100
AcDbLine
 10
527.9153134109708
 20
36.37398144445039
 30
0.0
 11
530.4984853688162
 21
36.37398144445039
 31
0.0
  0
LINE
  5
1817
330
739
100
AcDbEntity
  8
0
 62
     7
100
AcDbLine
 10
530.4984853688162
 20
36.37398144445039
 30
0.0
 11
530.4984853688162
 21
36.29947541397573
 31
0.0
  0
LINE
  5
1818
330
739
100
AcDbEntity
  8
0
 62
     7
100
AcDbLine
 10
529.8940320964816
 20
36.29947541397573
 30
0.0
 11
529.8940320964816
 21
36.25216203664006
 31
0.0
  0
LINE
  5
1819
330
739
100
AcDbEntity
  8
0
 62
     7
100
AcDbLine
 10
529.4740320964812
 20
36.29947541397573
 30
0.0
 11
529.4740320964812
 21
36.25216203664007
 31
0.0
  0
ARC
  5
181A
330
739
100
AcDbEntity
  8
0
 62
     7
100
AcDbCircle
 10
526.856540188305
 20
31.75770952917246
 30
0.0
 40
0.4499930276931244
100
AcDbArc
 50
305.745588597681
 51
65.00020635634283
  0
ARC
  5
181B
330
739
100
AcDbEntity
  8
0
 62
     7
100
AcDbCircle
 10
526.8565401883054
 20
30.9420437890871
 30
0.0
 40
0.4499930276931244
100
AcDbArc
 50
294.9997936436597
 51
54.25441140232057
  0
ARC
  5
181C
330
739
100
AcDbEntity
  8
0
 62
     7
100
AcDbCircle
 10
527.1500901721119
 20
31.34987665912979
 30
0.0
 40
0.0525
100
AcDbArc
 50
125.745588597681
 51
234.254411402319
  0
ARC
  5
181D
330
739
100
AcDbEntity
  8
0
 62
     7
100
AcDbCircle
 10
527.7496526093927
 20
30.9420437890871
 30
0.0
 40
0.4499930276931244
100
AcDbArc
 50
125.7455885976794
 51
245.0002063563403
  0
ARC
  5
181E
330
739
100
AcDbEntity
  8
0
 62
     7
100
AcDbCircle
 10
527.7496526093927
 20
31.75770952917246
 30
0.0
 40
0.4499930276931244
100
AcDbArc
 50
114.9997936436571
 51
234.254411402319
  0
ARC
  5
181F
330
739
100
AcDbEntity
  8
0
 62
     7
100
AcDbCircle
 10
527.4561026255859
 20
31.34987665912979
 30
0.0
 40
0.0525
100
AcDbArc
 50
305.745588597681
 51
54.254411402319
  0
ARC
  5
1820
330
739
100
AcDbEntity
  8
0
 62
     7
100
AcDbCircle
 10
527.3693050047723
 20
30.9420437890871
 30
0.0
 40
0.4499930276931244
100
AcDbArc
 50
294.9997936436597
 51
330.9515680248491
  0
ARC
  5
1821
330
739
100
AcDbEntity
  8
0
 62
     7
100
AcDbCircle
 10
527.6628549885788
 20
31.34987665912979
 30
0.0
 40
0.0525
100
AcDbArc
 50
125.745588597681
 51
234.254411402319
  0
ARC
  5
1822
330
739
100
AcDbEntity
  8
0
 62
     7
100
AcDbCircle
 10
527.3693050047723
 20
31.75770952917246
 30
0.0
 40
0.4499930276931244
100
AcDbArc
 50
305.745588597681
 51
330.95156802488
  0
ARC
  5
1823
330
739
100
AcDbEntity
  8
0
 62
     7
100
AcDbCircle
 10
527.3693050047723
 20
31.75770952917246
 30
0.0
 40
0.4499930276931244
100
AcDbArc
 50
29.04843197512
 51
65.00020635634283
  0
ARC
  5
1824
330
739
100
AcDbEntity
  8
0
 62
     7
100
AcDbCircle
 10
527.3693050047723
 20
30.9420437890871
 30
0.0
 40
0.4499930276931244
100
AcDbArc
 50
29.04843197515096
 51
54.25441140232057
  0
ARC
  5
1825
330
739
100
AcDbEntity
  8
0
 62
     7
100
AcDbCircle
 10
527.162573680627
 20
30.9420437890871
 30
0.0
 40
0.4499930276931244
100
AcDbArc
 50
294.9997936436597
 51
54.25441140232057
  0
ARC
  5
1826
330
739
100
AcDbEntity
  8
0
 62
     7
100
AcDbCircle
 10
527.162573680627
 20
31.75770952917246
 30
0.0
 40
0.4499930276931244
100
AcDbArc
 50
305.745588597681
 51
65.00020635634283
  0
ARC
  5
1827
330
739
100
AcDbEntity
  8
0
 62
     7
100
AcDbCircle
 10
527.4561236644338
 20
31.34987665912979
 30
0.0
 40
0.0525
100
AcDbArc
 50
125.745588597681
 51
234.254411402319
  0
ARC
  5
1828
330
739
100
AcDbEntity
  8
0
 62
     7
100
AcDbCircle
 10
527.51748927039
 20
30.9420437890871
 30
0.0
 40
0.4499930276931244
100
AcDbArc
 50
125.7455885976794
 51
245.0002063563403
  0
ARC
  5
1829
330
739
100
AcDbEntity
  8
0
 62
     7
100
AcDbCircle
 10
527.2239392865833
 20
31.34987665912979
 30
0.0
 40
0.0525
100
AcDbArc
 50
305.745588597681
 51
54.254411402319
  0
ARC
  5
182A
330
739
100
AcDbEntity
  8
0
 62
     7
100
AcDbCircle
 10
527.5174892703903
 20
31.75770952917246
 30
0.0
 40
0.4499930276931244
100
AcDbArc
 50
114.9997936436571
 51
234.254411402319
  0
ARC
  5
182B
330
739
100
AcDbEntity
  8
0
 62
     7
100
AcDbCircle
 10
527.5174892703903
 20
30.12637804900172
 30
0.0
 40
0.4499930276931244
100
AcDbArc
 50
114.9997936436571
 51
234.254411402319
  0
ARC
  5
182C
330
739
100
AcDbEntity
  8
0
 62
     7
100
AcDbCircle
 10
526.8565401883054
 20
30.12637804900172
 30
0.0
 40
0.4499930276931244
100
AcDbArc
 50
305.745588597681
 51
65.00020635634283
  0
ARC
  5
182D
330
739
100
AcDbEntity
  8
0
 62
     7
100
AcDbCircle
 10
527.749652609393
 20
30.12637804900172
 30
0.0
 40
0.4499930276931244
100
AcDbArc
 50
114.9997936436571
 51
234.254411402319
  0
ARC
  5
182E
330
739
100
AcDbEntity
  8
0
 62
     7
100
AcDbCircle
 10
527.162573680627
 20
30.12637804900172
 30
0.0
 40
0.4499930276931244
100
AcDbArc
 50
305.745588597681
 51
65.00020635634283
  0
ARC
  5
182F
330
739
100
AcDbEntity
  8
0
 62
     7
100
AcDbCircle
 10
527.3693050047723
 20
30.12637804900172
 30
0.0
 40
0.4499930276931244
100
AcDbArc
 50
29.04843197512
 51
65.00020635634283
  0
ARC
  5
1830
330
739
100
AcDbEntity
  8
0
 62
     7
100
AcDbCircle
 10
527.3693050047723
 20
30.12637804900172
 30
0.0
 40
0.4499930276931244
100
AcDbArc
 50
305.745588597681
 51
330.95156802488
  0
ARC
  5
1831
330
739
100
AcDbEntity
  8
0
 62
     7
100
AcDbCircle
 10
527.3693050047723
 20
29.31071230891637
 30
0.0
 40
0.4499930276931244
100
AcDbArc
 50
29.04843197515096
 51
54.25441140232057
  0
ARC
  5
1832
330
739
100
AcDbEntity
  8
0
 62
     7
100
AcDbCircle
 10
527.3693050047723
 20
29.31071230891637
 30
0.0
 40
0.4499930276931244
100
AcDbArc
 50
294.9997936436597
 51
330.9515680248491
  0
ARC
  5
1833
330
739
100
AcDbEntity
  8
0
 62
     7
100
AcDbCircle
 10
527.4561236644338
 20
29.71854517895906
 30
0.0
 40
0.0525
100
AcDbArc
 50
125.745588597681
 51
234.254411402319
  0
ARC
  5
1834
330
739
100
AcDbEntity
  8
0
 62
     7
100
AcDbCircle
 10
527.4561026255859
 20
29.71854517895906
 30
0.0
 40
0.0525
100
AcDbArc
 50
305.745588597681
 51
54.254411402319
  0
ARC
  5
1835
330
739
100
AcDbEntity
  8
0
 62
     7
100
AcDbCircle
 10
527.2239392865835
 20
29.71854517895906
 30
0.0
 40
0.0525
100
AcDbArc
 50
305.745588597681
 51
54.254411402319
  0
ARC
  5
1836
330
739
100
AcDbEntity
  8
0
 62
     7
100
AcDbCircle
 10
527.1500901721119
 20
29.71854517895906
 30
0.0
 40
0.0525
100
AcDbArc
 50
125.745588597681
 51
234.254411402319
  0
ARC
  5
1837
330
739
100
AcDbEntity
  8
0
 62
     7
100
AcDbCircle
 10
527.5174892703903
 20
29.31071230891637
 30
0.0
 40
0.4499930276931244
100
AcDbArc
 50
125.7455885976794
 51
245.0002063563403
  0
ARC
  5
1838
330
739
100
AcDbEntity
  8
0
 62
     7
100
AcDbCircle
 10
526.8565401883054
 20
29.31071230891637
 30
0.0
 40
0.4499930276931244
100
AcDbArc
 50
294.9997936436597
 51
54.25441140232057
  0
ARC
  5
1839
330
739
100
AcDbEntity
  8
0
 62
     7
100
AcDbCircle
 10
527.749652609393
 20
29.31071230891637
 30
0.0
 40
0.4499930276931244
100
AcDbArc
 50
125.7455885976794
 51
245.0002063563403
  0
ARC
  5
183A
330
739
100
AcDbEntity
  8
0
 62
     7
100
AcDbCircle
 10
527.162573680627
 20
29.31071230891637
 30
0.0
 40
0.4499930276931244
100
AcDbArc
 50
294.9997936436597
 51
54.25441140232057
  0
ARC
  5
183B
330
739
100
AcDbEntity
  8
0
 62
     7
100
AcDbCircle
 10
527.662854988579
 20
29.71854517895906
 30
0.0
 40
0.0525
100
AcDbArc
 50
125.745588597681
 51
234.254411402319
  0
ARC
  5
183C
330
739
100
AcDbEntity
  8
0
 62
     7
100
AcDbCircle
 10
527.6628549885792
 20
26.4558822186176
 30
0.0
 40
0.0525
100
AcDbArc
 50
125.745588597681
 51
234.254411402319
  0
ARC
  5
183D
330
739
100
AcDbEntity
  8
0
 62
     7
100
AcDbCircle
 10
527.1625736806272
 20
26.04804934857489
 30
0.0
 40
0.4499930276931244
100
AcDbArc
 50
294.9997936436597
 51
54.25441140232057
  0
ARC
  5
183E
330
739
100
AcDbEntity
  8
0
 62
     7
100
AcDbCircle
 10
527.749652609393
 20
26.04804934857489
 30
0.0
 40
0.4499930276931244
100
AcDbArc
 50
125.7455885976794
 51
245.0002063563403
  0
ARC
  5
183F
330
739
100
AcDbEntity
  8
0
 62
     7
100
AcDbCircle
 10
526.8565401883054
 20
26.04804934857489
 30
0.0
 40
0.4499930276931244
100
AcDbArc
 50
294.9997936436597
 51
54.25441140232057
  0
ARC
  5
1840
330
739
100
AcDbEntity
  8
0
 62
     7
100
AcDbCircle
 10
527.5174892703903
 20
26.04804934857489
 30
0.0
 40
0.4499930276931244
100
AcDbArc
 50
125.7455885976794
 51
245.0002063563403
  0
ARC
  5
1841
330
739
100
AcDbEntity
  8
0
 62
     7
100
AcDbCircle
 10
527.1500901721122
 20
26.4558822186176
 30
0.0
 40
0.0525
100
AcDbArc
 50
125.745588597681
 51
234.254411402319
  0
ARC
  5
1842
330
739
100
AcDbEntity
  8
0
 62
     7
100
AcDbCircle
 10
527.2239392865838
 20
26.4558822186176
 30
0.0
 40
0.0525
100
AcDbArc
 50
305.745588597681
 51
54.254411402319
  0
ARC
  5
1843
330
739
100
AcDbEntity
  8
0
 62
     7
100
AcDbCircle
 10
527.4561026255865
 20
26.4558822186176
 30
0.0
 40
0.0525
100
AcDbArc
 50
305.745588597681
 51
54.254411402319
  0
ARC
  5
1844
330
739
100
AcDbEntity
  8
0
 62
     7
100
AcDbCircle
 10
527.4561236644338
 20
26.4558822186176
 30
0.0
 40
0.0525
100
AcDbArc
 50
125.745588597681
 51
234.254411402319
  0
ARC
  5
1845
330
739
100
AcDbEntity
  8
0
 62
     7
100
AcDbCircle
 10
527.3693050047724
 20
26.04804934857489
 30
0.0
 40
0.4499930276931244
100
AcDbArc
 50
294.9997936436597
 51
330.9515680248491
  0
ARC
  5
1846
330
739
100
AcDbEntity
  8
0
 62
     7
100
AcDbCircle
 10
527.3693050047724
 20
26.04804934857489
 30
0.0
 40
0.4499930276931244
100
AcDbArc
 50
29.04843197515096
 51
54.25441140232057
  0
ARC
  5
1847
330
739
100
AcDbEntity
  8
0
 62
     7
100
AcDbCircle
 10
527.3693050047724
 20
26.86371508866026
 30
0.0
 40
0.4499930276931244
100
AcDbArc
 50
305.745588597681
 51
330.95156802488
  0
ARC
  5
1848
330
739
100
AcDbEntity
  8
0
 62
     7
100
AcDbCircle
 10
527.3693050047724
 20
26.86371508866026
 30
0.0
 40
0.4499930276931244
100
AcDbArc
 50
29.04843197512
 51
65.00020635634283
  0
ARC
  5
1849
330
739
100
AcDbEntity
  8
0
 62
     7
100
AcDbCircle
 10
527.1625736806272
 20
26.86371508866026
 30
0.0
 40
0.4499930276931244
100
AcDbArc
 50
305.745588597681
 51
65.00020635634283
  0
ARC
  5
184A
330
739
100
AcDbEntity
  8
0
 62
     7
100
AcDbCircle
 10
527.7496526093933
 20
26.86371508866026
 30
0.0
 40
0.4499930276931244
100
AcDbArc
 50
114.9997936436571
 51
234.254411402319
  0
ARC
  5
184B
330
739
100
AcDbEntity
  8
0
 62
     7
100
AcDbCircle
 10
526.8565401883054
 20
26.86371508866026
 30
0.0
 40
0.4499930276931244
100
AcDbArc
 50
305.745588597681
 51
65.00020635634283
  0
ARC
  5
184C
330
739
100
AcDbEntity
  8
0
 62
     7
100
AcDbCircle
 10
527.5174892703903
 20
26.86371508866026
 30
0.0
 40
0.4499930276931244
100
AcDbArc
 50
114.9997936436571
 51
234.254411402319
  0
ARC
  5
184D
330
739
100
AcDbEntity
  8
0
 62
     7
100
AcDbCircle
 10
527.2239392865835
 20
28.08721369878833
 30
0.0
 40
0.0525
100
AcDbArc
 50
305.745588597681
 51
54.254411402319
  0
ARC
  5
184E
330
739
100
AcDbEntity
  8
0
 62
     7
100
AcDbCircle
 10
527.5174892703903
 20
27.67938082874561
 30
0.0
 40
0.4499930276931244
100
AcDbArc
 50
125.7455885976794
 51
245.0002063563403
  0
ARC
  5
184F
330
739
100
AcDbEntity
  8
0
 62
     7
100
AcDbCircle
 10
527.4561236644338
 20
28.08721369878833
 30
0.0
 40
0.0525
100
AcDbArc
 50
125.745588597681
 51
234.254411402319
  0
ARC
  5
1850
330
739
100
AcDbEntity
  8
0
 62
     7
100
AcDbCircle
 10
527.1625736806272
 20
27.67938082874561
 30
0.0
 40
0.4499930276931244
100
AcDbArc
 50
294.9997936436597
 51
54.25441140232057
  0
ARC
  5
1851
330
739
100
AcDbEntity
  8
0
 62
     7
100
AcDbCircle
 10
527.3693050047723
 20
27.67938082874561
 30
0.0
 40
0.4499930276931244
100
AcDbArc
 50
29.04843197515096
 51
54.25441140232057
  0
ARC
  5
1852
330
739
100
AcDbEntity
  8
0
 62
     7
100
AcDbCircle
 10
527.3693050047723
 20
28.495046568831
 30
0.0
 40
0.4499930276931244
100
AcDbArc
 50
305.745588597681
 51
330.95156802488
  0
ARC
  5
1853
330
739
100
AcDbEntity
  8
0
 62
     7
100
AcDbCircle
 10
527.6628549885792
 20
28.08721369878833
 30
0.0
 40
0.0525
100
AcDbArc
 50
125.745588597681
 51
234.254411402319
  0
ARC
  5
1854
330
739
100
AcDbEntity
  8
0
 62
     7
100
AcDbCircle
 10
527.3693050047723
 20
27.67938082874561
 30
0.0
 40
0.4499930276931244
100
AcDbArc
 50
294.9997936436597
 51
330.9515680248491
  0
ARC
  5
1855
330
739
100
AcDbEntity
  8
0
 62
     7
100
AcDbCircle
 10
527.4561026255862
 20
28.08721369878833
 30
0.0
 40
0.0525
100
AcDbArc
 50
305.745588597681
 51
54.254411402319
  0
ARC
  5
1856
330
739
100
AcDbEntity
  8
0
 62
     7
100
AcDbCircle
 10
527.749652609393
 20
27.67938082874561
 30
0.0
 40
0.4499930276931244
100
AcDbArc
 50
125.7455885976794
 51
245.0002063563403
  0
ARC
  5
1857
330
739
100
AcDbEntity
  8
0
 62
     7
100
AcDbCircle
 10
527.1500901721122
 20
28.08721369878833
 30
0.0
 40
0.0525
100
AcDbArc
 50
125.745588597681
 51
234.254411402319
  0
ARC
  5
1858
330
739
100
AcDbEntity
  8
0
 62
     7
100
AcDbCircle
 10
526.8565401883054
 20
27.67938082874561
 30
0.0
 40
0.4499930276931244
100
AcDbArc
 50
294.9997936436597
 51
54.25441140232057
  0
ARC
  5
1859
330
739
100
AcDbEntity
  8
0
 62
     7
100
AcDbCircle
 10
527.3693050047723
 20
28.495046568831
 30
0.0
 40
0.4499930276931244
100
AcDbArc
 50
29.04843197512
 51
65.00020635634283
  0
ARC
  5
185A
330
739
100
AcDbEntity
  8
0
 62
     7
100
AcDbCircle
 10
527.1625736806272
 20
28.495046568831
 30
0.0
 40
0.4499930276931244
100
AcDbArc
 50
305.745588597681
 51
65.00020635634283
  0
ARC
  5
185B
330
739
100
AcDbEntity
  8
0
 62
     7
100
AcDbCircle
 10
527.749652609393
 20
28.495046568831
 30
0.0
 40
0.4499930276931244
100
AcDbArc
 50
114.9997936436571
 51
234.254411402319
  0
ARC
  5
185C
330
739
100
AcDbEntity
  8
0
 62
     7
100
AcDbCircle
 10
526.8565401883054
 20
28.495046568831
 30
0.0
 40
0.4499930276931244
100
AcDbArc
 50
305.745588597681
 51
65.00020635634283
  0
ARC
  5
185D
330
739
100
AcDbEntity
  8
0
 62
     7
100
AcDbCircle
 10
527.5174892703903
 20
28.495046568831
 30
0.0
 40
0.4499930276931244
100
AcDbArc
 50
114.9997936436571
 51
234.254411402319
  0
ARC
  5
185E
330
739
100
AcDbEntity
  8
0
 62
     7
100
AcDbCircle
 10
527.5901956250424
 20
25.1897736129329
 30
0.0
 40
0.4499930276931244
100
AcDbArc
 50
125.7455885976794
 51
188.6240979063962
  0
ARC
  5
185F
330
739
100
AcDbEntity
  8
0
 62
     7
100
AcDbCircle
 10
527.8223589640449
 20
25.1897736129329
 30
0.0
 40
0.4499930276931244
100
AcDbArc
 50
125.7455885976794
 51
188.6240979063962
  0
ARC
  5
1860
330
739
100
AcDbEntity
  8
0
 62
     7
100
AcDbCircle
 10
527.0898673259753
 20
25.1897736129329
 30
0.0
 40
0.4499930276931244
100
AcDbArc
 50
351.3759020936036
 51
54.25441140232057
  0
ARC
  5
1861
330
739
100
AcDbEntity
  8
0
 62
     7
100
AcDbCircle
 10
527.2965986501206
 20
25.1897736129329
 30
0.0
 40
0.4499930276931244
100
AcDbArc
 50
351.3759020936066
 51
54.25441140232057
  0
ARC
  5
1862
330
739
100
AcDbEntity
  8
0
 62
     7
100
AcDbCircle
 10
527.2965986501206
 20
25.1897736129329
 30
0.0
 40
0.4499930276931244
100
AcDbArc
 50
29.04843197515096
 51
54.25441140232057
  0
ARC
  5
1863
330
739
100
AcDbEntity
  8
0
 62
     7
100
AcDbCircle
 10
527.2966456412357
 20
25.5976064829756
 30
0.0
 40
0.0525
100
AcDbArc
 50
305.745588597681
 51
54.254411402319
  0
ARC
  5
1864
330
739
100
AcDbEntity
  8
0
 62
     7
100
AcDbCircle
 10
527.3834173097818
 20
25.5976064829756
 30
0.0
 40
0.0525
100
AcDbArc
 50
125.745588597681
 51
234.254411402319
  0
ARC
  5
1865
330
739
100
AcDbEntity
  8
0
 62
     7
100
AcDbCircle
 10
527.5288089802383
 20
25.5976064829756
 30
0.0
 40
0.0525
100
AcDbArc
 50
305.745588597681
 51
54.254411402319
  0
ARC
  5
1866
330
739
100
AcDbEntity
  8
0
 62
     7
100
AcDbCircle
 10
527.5901486339271
 20
25.5976064829756
 30
0.0
 40
0.0525
100
AcDbArc
 50
125.745588597681
 51
234.254411402319
  0
ARC
  5
1867
330
739
100
AcDbEntity
  8
0
 62
     7
100
AcDbCircle
 10
526.8565401883054
 20
25.23238360848953
 30
0.0
 40
0.4499930276931244
100
AcDbArc
 50
345.8393494280934
 51
65.00020635634283
  0
ARC
  5
1868
330
739
100
AcDbEntity
  8
0
 62
     7
100
AcDbCircle
 10
556.3453564864214
 20
31.75770952917246
 30
0.0
 40
0.4499930276931244
100
AcDbArc
 50
305.745588597681
 51
65.00020635634283
  0
ARC
  5
1869
330
739
100
AcDbEntity
  8
0
 62
     7
100
AcDbCircle
 10
556.3453564864214
 20
30.9420437890871
 30
0.0
 40
0.4499930276931244
100
AcDbArc
 50
294.9997936436597
 51
54.25441140232057
  0
ARC
  5
186A
330
739
100
AcDbEntity
  8
0
 62
     7
100
AcDbCircle
 10
556.6389064702282
 20
31.34987665912979
 30
0.0
 40
0.0525
100
AcDbArc
 50
125.745588597681
 51
234.254411402319
  0
ARC
  5
186B
330
739
100
AcDbEntity
  8
0
 62
     7
100
AcDbCircle
 10
557.2384689075092
 20
30.9420437890871
 30
0.0
 40
0.4499930276931244
100
AcDbArc
 50
125.7455885976794
 51
245.0002063563403
  0
ARC
  5
186C
330
739
100
AcDbEntity
  8
0
 62
     7
100
AcDbCircle
 10
557.2384689075092
 20
31.75770952917246
 30
0.0
 40
0.4499930276931244
100
AcDbArc
 50
114.9997936436571
 51
234.254411402319
  0
ARC
  5
186D
330
739
100
AcDbEntity
  8
0
 62
     7
100
AcDbCircle
 10
556.9449189237025
 20
31.34987665912979
 30
0.0
 40
0.0525
100
AcDbArc
 50
305.745588597681
 51
54.254411402319
  0
ARC
  5
186E
330
739
100
AcDbEntity
  8
0
 62
     7
100
AcDbCircle
 10
556.8581213028885
 20
30.9420437890871
 30
0.0
 40
0.4499930276931244
100
AcDbArc
 50
294.9997936436597
 51
330.9515680248491
  0
ARC
  5
186F
330
739
100
AcDbEntity
  8
0
 62
     7
100
AcDbCircle
 10
557.1516712866952
 20
31.34987665912979
 30
0.0
 40
0.0525
100
AcDbArc
 50
125.745588597681
 51
234.254411402319
  0
ARC
  5
1870
330
739
100
AcDbEntity
  8
0
 62
     7
100
AcDbCircle
 10
556.8581213028885
 20
31.75770952917246
 30
0.0
 40
0.4499930276931244
100
AcDbArc
 50
305.745588597681
 51
330.95156802488
  0
ARC
  5
1871
330
739
100
AcDbEntity
  8
0
 62
     7
100
AcDbCircle
 10
556.8581213028885
 20
31.75770952917246
 30
0.0
 40
0.4499930276931244
100
AcDbArc
 50
29.04843197512
 51
65.00020635634283
  0
ARC
  5
1872
330
739
100
AcDbEntity
  8
0
 62
     7
100
AcDbCircle
 10
556.8581213028885
 20
30.9420437890871
 30
0.0
 40
0.4499930276931244
100
AcDbArc
 50
29.04843197515096
 51
54.25441140232057
  0
ARC
  5
1873
330
739
100
AcDbEntity
  8
0
 62
     7
100
AcDbCircle
 10
556.6513899787432
 20
30.9420437890871
 30
0.0
 40
0.4499930276931244
100
AcDbArc
 50
294.9997936436597
 51
54.25441140232057
  0
ARC
  5
1874
330
739
100
AcDbEntity
  8
0
 62
     7
100
AcDbCircle
 10
556.6513899787432
 20
31.75770952917246
 30
0.0
 40
0.4499930276931244
100
AcDbArc
 50
305.745588597681
 51
65.00020635634283
  0
ARC
  5
1875
330
739
100
AcDbEntity
  8
0
 62
     7
100
AcDbCircle
 10
556.94493996255
 20
31.34987665912979
 30
0.0
 40
0.0525
100
AcDbArc
 50
125.745588597681
 51
234.254411402319
  0
ARC
  5
1876
330
739
100
AcDbEntity
  8
0
 62
     7
100
AcDbCircle
 10
557.0063055685063
 20
30.9420437890871
 30
0.0
 40
0.4499930276931244
100
AcDbArc
 50
125.7455885976794
 51
245.0002063563403
  0
ARC
  5
1877
330
739
100
AcDbEntity
  8
0
 62
     7
100
AcDbCircle
 10
556.7127555846998
 20
31.34987665912979
 30
0.0
 40
0.0525
100
AcDbArc
 50
305.745588597681
 51
54.254411402319
  0
ARC
  5
1878
330
739
100
AcDbEntity
  8
0
 62
     7
100
AcDbCircle
 10
557.0063055685063
 20
31.75770952917246
 30
0.0
 40
0.4499930276931244
100
AcDbArc
 50
114.9997936436571
 51
234.254411402319
  0
ARC
  5
1879
330
739
100
AcDbEntity
  8
0
 62
     7
100
AcDbCircle
 10
557.0063055685068
 20
30.12637804900172
 30
0.0
 40
0.4499930276931244
100
AcDbArc
 50
114.9997936436571
 51
234.254411402319
  0
ARC
  5
187A
330
739
100
AcDbEntity
  8
0
 62
     7
100
AcDbCircle
 10
556.3453564864214
 20
30.12637804900172
 30
0.0
 40
0.4499930276931244
100
AcDbArc
 50
305.745588597681
 51
65.00020635634283
  0
ARC
  5
187B
330
739
100
AcDbEntity
  8
0
 62
     7
100
AcDbCircle
 10
557.2384689075092
 20
30.12637804900172
 30
0.0
 40
0.4499930276931244
100
AcDbArc
 50
114.9997936436571
 51
234.254411402319
  0
ARC
  5
187C
330
739
100
AcDbEntity
  8
0
 62
     7
100
AcDbCircle
 10
556.6513899787432
 20
30.12637804900172
 30
0.0
 40
0.4499930276931244
100
AcDbArc
 50
305.745588597681
 51
65.00020635634283
  0
ARC
  5
187D
330
739
100
AcDbEntity
  8
0
 62
     7
100
AcDbCircle
 10
556.8581213028885
 20
30.12637804900172
 30
0.0
 40
0.4499930276931244
100
AcDbArc
 50
29.04843197512
 51
65.00020635634283
  0
ARC
  5
187E
330
739
100
AcDbEntity
  8
0
 62
     7
100
AcDbCircle
 10
556.8581213028885
 20
30.12637804900172
 30
0.0
 40
0.4499930276931244
100
AcDbArc
 50
305.745588597681
 51
330.95156802488
  0
ARC
  5
187F
330
739
100
AcDbEntity
  8
0
 62
     7
100
AcDbCircle
 10
556.8581213028887
 20
29.31071230891637
 30
0.0
 40
0.4499930276931244
100
AcDbArc
 50
29.04843197515096
 51
54.25441140232057
  0
ARC
  5
1880
330
739
100
AcDbEntity
  8
0
 62
     7
100
AcDbCircle
 10
556.8581213028887
 20
29.31071230891637
 30
0.0
 40
0.4499930276931244
100
AcDbArc
 50
294.9997936436597
 51
330.9515680248491
  0
ARC
  5
1881
330
739
100
AcDbEntity
  8
0
 62
     7
100
AcDbCircle
 10
556.9449399625503
 20
29.71854517895906
 30
0.0
 40
0.0525
100
AcDbArc
 50
125.745588597681
 51
234.254411402319
  0
ARC
  5
1882
330
739
100
AcDbEntity
  8
0
 62
     7
100
AcDbCircle
 10
556.9449189237025
 20
29.71854517895906
 30
0.0
 40
0.0525
100
AcDbArc
 50
305.745588597681
 51
54.254411402319
  0
ARC
  5
1883
330
739
100
AcDbEntity
  8
0
 62
     7
100
AcDbCircle
 10
556.7127555846998
 20
29.71854517895906
 30
0.0
 40
0.0525
100
AcDbArc
 50
305.745588597681
 51
54.254411402319
  0
ARC
  5
1884
330
739
100
AcDbEntity
  8
0
 62
     7
100
AcDbCircle
 10
556.6389064702284
 20
29.71854517895906
 30
0.0
 40
0.0525
100
AcDbArc
 50
125.745588597681
 51
234.254411402319
  0
ARC
  5
1885
330
739
100
AcDbEntity
  8
0
 62
     7
100
AcDbCircle
 10
557.0063055685063
 20
29.31071230891637
 30
0.0
 40
0.4499930276931244
100
AcDbArc
 50
125.7455885976794
 51
245.0002063563403
  0
ARC
  5
1886
330
739
100
AcDbEntity
  8
0
 62
     7
100
AcDbCircle
 10
556.3453564864216
 20
29.31071230891637
 30
0.0
 40
0.4499930276931244
100
AcDbArc
 50
294.9997936436597
 51
54.25441140232057
  0
ARC
  5
1887
330
739
100
AcDbEntity
  8
0
 62
     7
100
AcDbCircle
 10
557.2384689075092
 20
29.31071230891637
 30
0.0
 40
0.4499930276931244
100
AcDbArc
 50
125.7455885976794
 51
245.0002063563403
  0
ARC
  5
1888
330
739
100
AcDbEntity
  8
0
 62
     7
100
AcDbCircle
 10
556.6513899787432
 20
29.31071230891637
 30
0.0
 40
0.4499930276931244
100
AcDbArc
 50
294.9997936436597
 51
54.25441140232057
  0
ARC
  5
1889
330
739
100
AcDbEntity
  8
0
 62
     7
100
AcDbCircle
 10
557.1516712866955
 20
29.71854517895906
 30
0.0
 40
0.0525
100
AcDbArc
 50
125.745588597681
 51
234.254411402319
  0
ARC
  5
188A
330
739
100
AcDbEntity
  8
0
 62
     7
100
AcDbCircle
 10
557.1516712866958
 20
26.4558822186176
 30
0.0
 40
0.0525
100
AcDbArc
 50
125.745588597681
 51
234.254411402319
  0
ARC
  5
188B
330
739
100
AcDbEntity
  8
0
 62
     7
100
AcDbCircle
 10
556.6513899787437
 20
26.04804934857489
 30
0.0
 40
0.4499930276931244
100
AcDbArc
 50
294.9997936436597
 51
54.25441140232057
  0
ARC
  5
188C
330
739
100
AcDbEntity
  8
0
 62
     7
100
AcDbCircle
 10
557.2384689075092
 20
26.04804934857489
 30
0.0
 40
0.4499930276931244
100
AcDbArc
 50
125.7455885976794
 51
245.0002063563403
  0
ARC
  5
188D
330
739
100
AcDbEntity
  8
0
 62
     7
100
AcDbCircle
 10
556.3453564864219
 20
26.04804934857489
 30
0.0
 40
0.4499930276931244
100
AcDbArc
 50
294.9997936436597
 51
54.25441140232057
  0
ARC
  5
188E
330
739
100
AcDbEntity
  8
0
 62
     7
100
AcDbCircle
 10
557.0063055685068
 20
26.04804934857489
 30
0.0
 40
0.4499930276931244
100
AcDbArc
 50
125.7455885976794
 51
245.0002063563403
  0
ARC
  5
188F
330
739
100
AcDbEntity
  8
0
 62
     7
100
AcDbCircle
 10
556.6389064702287
 20
26.4558822186176
 30
0.0
 40
0.0525
100
AcDbArc
 50
125.745588597681
 51
234.254411402319
  0
ARC
  5
1890
330
739
100
AcDbEntity
  8
0
 62
     7
100
AcDbCircle
 10
556.7127555846998
 20
26.4558822186176
 30
0.0
 40
0.0525
100
AcDbArc
 50
305.745588597681
 51
54.254411402319
  0
ARC
  5
1891
330
739
100
AcDbEntity
  8
0
 62
     7
100
AcDbCircle
 10
556.9449189237027
 20
26.4558822186176
 30
0.0
 40
0.0525
100
AcDbArc
 50
305.745588597681
 51
54.254411402319
  0
ARC
  5
1892
330
739
100
AcDbEntity
  8
0
 62
     7
100
AcDbCircle
 10
556.9449399625503
 20
26.4558822186176
 30
0.0
 40
0.0525
100
AcDbArc
 50
125.745588597681
 51
234.254411402319
  0
ARC
  5
1893
330
739
100
AcDbEntity
  8
0
 62
     7
100
AcDbCircle
 10
556.858121302889
 20
26.04804934857489
 30
0.0
 40
0.4499930276931244
100
AcDbArc
 50
294.9997936436597
 51
330.9515680248491
  0
ARC
  5
1894
330
739
100
AcDbEntity
  8
0
 62
     7
100
AcDbCircle
 10
556.858121302889
 20
26.04804934857489
 30
0.0
 40
0.4499930276931244
100
AcDbArc
 50
29.04843197515096
 51
54.25441140232057
  0
ARC
  5
1895
330
739
100
AcDbEntity
  8
0
 62
     7
100
AcDbCircle
 10
556.8581213028887
 20
26.86371508866026
 30
0.0
 40
0.4499930276931244
100
AcDbArc
 50
305.745588597681
 51
330.95156802488
  0
ARC
  5
1896
330
739
100
AcDbEntity
  8
0
 62
     7
100
AcDbCircle
 10
556.8581213028887
 20
26.86371508866026
 30
0.0
 40
0.4499930276931244
100
AcDbArc
 50
29.04843197512
 51
65.00020635634283
  0
ARC
  5
1897
330
739
100
AcDbEntity
  8
0
 62
     7
100
AcDbCircle
 10
556.6513899787437
 20
26.86371508866026
 30
0.0
 40
0.4499930276931244
100
AcDbArc
 50
305.745588597681
 51
65.00020635634283
  0
ARC
  5
1898
330
739
100
AcDbEntity
  8
0
 62
     7
100
AcDbCircle
 10
557.2384689075092
 20
26.86371508866026
 30
0.0
 40
0.4499930276931244
100
AcDbArc
 50
114.9997936436571
 51
234.254411402319
  0
ARC
  5
1899
330
739
100
AcDbEntity
  8
0
 62
     7
100
AcDbCircle
 10
556.3453564864216
 20
26.86371508866026
 30
0.0
 40
0.4499930276931244
100
AcDbArc
 50
305.745588597681
 51
65.00020635634283
  0
ARC
  5
189A
330
739
100
AcDbEntity
  8
0
 62
     7
100
AcDbCircle
 10
557.0063055685068
 20
26.86371508866026
 30
0.0
 40
0.4499930276931244
100
AcDbArc
 50
114.9997936436571
 51
234.254411402319
  0
ARC
  5
189B
330
739
100
AcDbEntity
  8
0
 62
     7
100
AcDbCircle
 10
556.7127555846998
 20
28.08721369878833
 30
0.0
 40
0.0525
100
AcDbArc
 50
305.745588597681
 51
54.254411402319
  0
ARC
  5
189C
330
739
100
AcDbEntity
  8
0
 62
     7
100
AcDbCircle
 10
557.0063055685068
 20
27.67938082874561
 30
0.0
 40
0.4499930276931244
100
AcDbArc
 50
125.7455885976794
 51
245.0002063563403
  0
ARC
  5
189D
330
739
100
AcDbEntity
  8
0
 62
     7
100
AcDbCircle
 10
556.9449399625503
 20
28.08721369878833
 30
0.0
 40
0.0525
100
AcDbArc
 50
125.745588597681
 51
234.254411402319
  0
ARC
  5
189E
330
739
100
AcDbEntity
  8
0
 62
     7
100
AcDbCircle
 10
556.6513899787432
 20
27.67938082874561
 30
0.0
 40
0.4499930276931244
100
AcDbArc
 50
294.9997936436597
 51
54.25441140232057
  0
ARC
  5
189F
330
739
100
AcDbEntity
  8
0
 62
     7
100
AcDbCircle
 10
556.8581213028887
 20
27.67938082874561
 30
0.0
 40
0.4499930276931244
100
AcDbArc
 50
29.04843197515096
 51
54.25441140232057
  0
ARC
  5
18A0
330
739
100
AcDbEntity
  8
0
 62
     7
100
AcDbCircle
 10
556.8581213028887
 20
28.495046568831
 30
0.0
 40
0.4499930276931244
100
AcDbArc
 50
305.745588597681
 51
330.95156802488
  0
ARC
  5
18A1
330
739
100
AcDbEntity
  8
0
 62
     7
100
AcDbCircle
 10
557.1516712866955
 20
28.08721369878833
 30
0.0
 40
0.0525
100
AcDbArc
 50
125.745588597681
 51
234.254411402319
  0
ARC
  5
18A2
330
739
100
AcDbEntity
  8
0
 62
     7
100
AcDbCircle
 10
556.8581213028887
 20
27.67938082874561
 30
0.0
 40
0.4499930276931244
100
AcDbArc
 50
294.9997936436597
 51
330.9515680248491
  0
ARC
  5
18A3
330
739
100
AcDbEntity
  8
0
 62
     7
100
AcDbCircle
 10
556.9449189237027
 20
28.08721369878833
 30
0.0
 40
0.0525
100
AcDbArc
 50
305.745588597681
 51
54.254411402319
  0
ARC
  5
18A4
330
739
100
AcDbEntity
  8
0
 62
     7
100
AcDbCircle
 10
557.2384689075092
 20
27.67938082874561
 30
0.0
 40
0.4499930276931244
100
AcDbArc
 50
125.7455885976794
 51
245.0002063563403
  0
ARC
  5
18A5
330
739
100
AcDbEntity
  8
0
 62
     7
100
AcDbCircle
 10
556.6389064702284
 20
28.08721369878833
 30
0.0
 40
0.0525
100
AcDbArc
 50
125.745588597681
 51
234.254411402319
  0
ARC
  5
18A6
330
739
100
AcDbEntity
  8
0
 62
     7
100
AcDbCircle
 10
556.3453564864216
 20
27.67938082874561
 30
0.0
 40
0.4499930276931244
100
AcDbArc
 50
294.9997936436597
 51
54.25441140232057
  0
ARC
  5
18A7
330
739
100
AcDbEntity
  8
0
 62
     7
100
AcDbCircle
 10
556.8581213028887
 20
28.495046568831
 30
0.0
 40
0.4499930276931244
100
AcDbArc
 50
29.04843197512
 51
65.00020635634283
  0
ARC
  5
18A8
330
739
100
AcDbEntity
  8
0
 62
     7
100
AcDbCircle
 10
556.6513899787432
 20
28.495046568831
 30
0.0
 40
0.4499930276931244
100
AcDbArc
 50
305.745588597681
 51
65.00020635634283
  0
ARC
  5
18A9
330
739
100
AcDbEntity
  8
0
 62
     7
100
AcDbCircle
 10
557.2384689075092
 20
28.495046568831
 30
0.0
 40
0.4499930276931244
100
AcDbArc
 50
114.9997936436571
 51
234.254411402319
  0
ARC
  5
18AA
330
739
100
AcDbEntity
  8
0
 62
     7
100
AcDbCircle
 10
556.3453564864216
 20
28.495046568831
 30
0.0
 40
0.4499930276931244
100
AcDbArc
 50
305.745588597681
 51
65.00020635634283
  0
ARC
  5
18AB
330
739
100
AcDbEntity
  8
0
 62
     7
100
AcDbCircle
 10
557.0063055685068
 20
28.495046568831
 30
0.0
 40
0.4499930276931244
100
AcDbArc
 50
114.9997936436571
 51
234.254411402319
  0
ARC
  5
18AC
330
739
100
AcDbEntity
  8
0
 62
     7
100
AcDbCircle
 10
557.0790119231587
 20
25.1897736129329
 30
0.0
 40
0.4499930276931244
100
AcDbArc
 50
125.7455885976794
 51
188.6240979063962
  0
ARC
  5
18AD
330
739
100
AcDbEntity
  8
0
 62
     7
100
AcDbCircle
 10
557.3111752621614
 20
25.1897736129329
 30
0.0
 40
0.4499930276931244
100
AcDbArc
 50
125.7455885976794
 51
188.6240979063962
  0
ARC
  5
18AE
330
739
100
AcDbEntity
  8
0
 62
     7
100
AcDbCircle
 10
556.5786836240915
 20
25.1897736129329
 30
0.0
 40
0.4499930276931244
100
AcDbArc
 50
351.3759020936036
 51
54.25441140232057
  0
ARC
  5
18AF
330
739
100
AcDbEntity
  8
0
 62
     7
100
AcDbCircle
 10
556.7854149482371
 20
25.1897736129329
 30
0.0
 40
0.4499930276931244
100
AcDbArc
 50
351.3759020936066
 51
54.25441140232057
  0
ARC
  5
18B0
330
739
100
AcDbEntity
  8
0
 62
     7
100
AcDbCircle
 10
556.7854149482371
 20
25.1897736129329
 30
0.0
 40
0.4499930276931244
100
AcDbArc
 50
29.04843197515096
 51
54.25441140232057
  0
ARC
  5
18B1
330
739
100
AcDbEntity
  8
0
 62
     7
100
AcDbCircle
 10
556.785461939352
 20
25.5976064829756
 30
0.0
 40
0.0525
100
AcDbArc
 50
305.745588597681
 51
54.254411402319
  0
ARC
  5
18B2
330
739
100
AcDbEntity
  8
0
 62
     7
100
AcDbCircle
 10
556.8722336078983
 20
25.5976064829756
 30
0.0
 40
0.0525
100
AcDbArc
 50
125.745588597681
 51
234.254411402319
  0
ARC
  5
18B3
330
739
100
AcDbEntity
  8
0
 62
     7
100
AcDbCircle
 10
557.0176252783546
 20
25.5976064829756
 30
0.0
 40
0.0525
100
AcDbArc
 50
305.745588597681
 51
54.254411402319
  0
ARC
  5
18B4
330
739
100
AcDbEntity
  8
0
 62
     7
100
AcDbCircle
 10
557.0789649320436
 20
25.5976064829756
 30
0.0
 40
0.0525
100
AcDbArc
 50
125.745588597681
 51
234.254411402319
  0
ARC
  5
18B5
330
739
100
AcDbEntity
  8
0
 62
     7
100
AcDbCircle
 10
556.3453564864219
 20
25.23238360848953
 30
0.0
 40
0.4499930276931244
100
AcDbArc
 50
345.8393494280934
 51
65.00020635634283
  0
LINE
  5
18B6
330
739
100
AcDbEntity
  8
0
 62
     7
100
AcDbLine
 10
556.440585531707
 20
27.05797281944518
 30
0.0
 11
556.440585531707
 21
25.05339037334996
 31
0.0
  0
LINE
  5
18B7
330
739
100
AcDbEntity
  8
0
 62
     7
100
AcDbLine
 10
552.842861904797
 20
34.92830106779107
 30
0.0
 11
555.375461904797
 21
34.92830106779107
 31
0.0
  0
LINE
  5
18B8
330
739
100
AcDbEntity
  8
0
 62
     7
100
AcDbLine
 10
550.6963246447203
 20
30.08940097998652
 30
0.0
 11
539.3989495230905
 21
32.6320219077382
 31
0.0
  0
CIRCLE
  5
18B9
330
739
100
AcDbEntity
  8
0
  6
Continuous
 62
     7
100
AcDbCircle
 10
551.8217781884943
 20
29.82007479164368
 30
0.0
 40
0.199951171875
  0
LINE
  5
18BA
330
739
100
AcDbEntity
  8
0
 62
     7
100
AcDbLine
 10
538.696658703516
 20
32.24354099770819
 30
0.0
 11
552.2283270217899
 21
29.19806338162338
 31
0.0
  0
LINE
  5
18BB
330
739
100
AcDbEntity
  8
0
 62
     7
100
AcDbLine
 10
551.184511263101
 20
29.41695941012192
 30
0.0
 11
550.8918218332617
 21
28.11648152647823
 31
0.0
  0
LINE
  5
18BC
330
739
100
AcDbEntity
  8
0
 62
     7
100
AcDbLine
 10
552.4624785656612
 20
30.23844568853834
 30
0.0
 11
539.7160064191536
 21
33.1072047131602
 31
0.0
  0
CIRCLE
  5
18BD
330
739
100
AcDbEntity
  8
0
 62
     7
100
AcDbCircle
 10
551.5290887586547
 20
28.51959690799999
 30
0.0
 40
0.199951171875
  0
CIRCLE
  5
18BE
330
739
100
AcDbEntity
  8
0
 62
     7
100
AcDbCircle
 10
552.1144676183334
 20
31.12055267528737
 30
0.0
 40
0.199951171875
  0
LINE
  5
18BF
330
739
100
AcDbEntity
  8
0
 62
     7
100
AcDbLine
 10
552.5175829998554
 20
30.48328574989415
 30
0.0
 11
551.4772006929404
 21
30.71743729376562
 31
0.0
  0
LINE
  5
18C0
330
739
100
AcDbEntity
  8
0
 62
     7
100
AcDbLine
 10
551.125973377133
 20
29.15686383339318
 30
0.0
 11
552.166355684048
 21
28.92271228952174
 31
0.0
  0
LINE
  5
18C1
330
739
100
AcDbEntity
  8
0
 62
     7
100
AcDbLine
 10
551.9322041401767
 20
27.88232998260679
 30
0.0
 11
552.7517345437267
 21
31.52366805680911
 31
0.0
  0
LINE
  5
18C2
330
739
100
AcDbEntity
  8
0
 62
     7
100
AcDbLine
 10
550.8918218332617
 20
28.11648152647823
 30
0.0
 11
551.9322041401767
 21
27.88232998260679
 31
0.0
  0
LINE
  5
18C3
330
739
100
AcDbEntity
  8
0
 62
     7
100
AcDbLine
 10
551.7113522368117
 20
31.75781960068059
 30
0.0
 11
551.4186628069723
 21
30.45734171703688
 31
0.0
  0
LINE
  5
18C4
330
739
100
AcDbEntity
  8
0
 62
     7
100
AcDbLine
 10
552.7517345437267
 20
31.52366805680911
 30
0.0
 11
551.7113522368117
 21
31.75781960068059
 31
0.0
  0
LINE
  5
18C5
330
739
100
AcDbEntity
  8
0
 62
     7
100
AcDbLine
 10
539.3989869787308
 20
32.63218866332724
 30
0.0
 11
539.5054689976173
 21
33.1072047131602
 31
0.0
  0
ARC
  5
18C6
330
739
100
AcDbEntity
  8
0
 62
     7
100
AcDbCircle
 10
539.2038778405448
 20
32.67592532221389
 30
0.0
 40
0.199951171875
100
AcDbArc
 50
167.3651560327345
 51
347.3651560327346
  0
ARC
  5
18C7
330
739
100
AcDbEntity
  8
0
 62
     7
100
AcDbCircle
 10
538.7259276464999
 20
32.37358878607255
 30
0.0
 40
0.13330078125
100
AcDbArc
 50
167.316181862887
 51
257.3161818628745
  0
LINE
  5
18C8
330
739
100
AcDbEntity
  8
0
 62
     7
100
AcDbLine
 10
538.7544022903732
 20
33.1072047131602
 30
0.0
 11
538.5958798581355
 21
32.40285772905649
 31
0.0
  0
CIRCLE
  5
18C9
330
739
100
AcDbEntity
  8
0
 62
     7
100
AcDbCircle
 10
539.5075188291
 20
34.03046709799119
 30
0.0
 40
0.0653782547814739
  0
LINE
  5
18CA
330
739
100
AcDbEntity
  8
0
 62
     7
100
AcDbLine
 10
539.9169308667579
 20
33.78634471316021
 30
0.0
 11
549.8091766798518
 21
33.78634471316021
 31
0.0
  0
LINE
  5
18CB
330
739
100
AcDbEntity
  8
0
 62
     7
100
AcDbLine
 10
539.9361028942396
 20
34.2391047131602
 30
0.0
 11
549.5827966798517
 21
34.2391047131602
 31
0.0
  0
CIRCLE
  5
18CC
330
739
100
AcDbEntity
  8
0
 62
     7
100
AcDbCircle
 10
539.5075188291
 20
34.03046709799119
 30
0.0
 40
0.4766696501297048
  0
LINE
  5
18CD
330
739
100
AcDbEntity
  8
0
 62
     7
100
AcDbLine
 10
539.0088060867369
 20
32.71982875272803
 30
0.0
 11
538.6836866870874
 21
32.7930010941496
 31
0.0
  0
LINE
  5
18CE
330
739
100
AcDbEntity
  8
0
 62
     7
100
AcDbLine
 10
539.008768702359
 20
32.71966198110051
 30
0.0
 11
539.0956422564823
 21
33.1072047131602
 31
0.0
  0
ARC
  5
18CF
330
739
100
AcDbEntity
  8
0
 62
     7
100
AcDbCircle
 10
538.5778163191014
 20
33.55996471316018
 30
0.0
 40
0.45276
100
AcDbArc
 50
180.0
 51
270.0
  0
LINE
  5
18D0
330
739
100
AcDbEntity
  8
0
  6
HIDDEN
 62
     7
100
AcDbLine
 10
550.7145912237881
 20
34.8050547131602
 30
0.0
 11
538.1250563191015
 21
34.8050547131602
 31
0.0
  0
ARC
  5
18D1
330
739
100
AcDbEntity
  8
0
 62
     7
100
AcDbCircle
 10
539.0391018983975
 20
34.0127247131602
 30
0.0
 40
0.22638
100
AcDbArc
 50
90.0
 51
270.0
  0
LINE
  5
18D2
330
739
100
AcDbEntity
  8
0
 62
     7
100
AcDbLine
 10
539.0391018983975
 20
34.2391047131602
 30
0.0
 11
539.0789347639606
 21
34.2391047131602
 31
0.0
  0
LINE
  5
18D3
330
739
100
AcDbEntity
  8
0
 62
     7
100
AcDbLine
 10
539.0391018983975
 20
33.78634471316021
 30
0.0
 11
539.0981067914422
 21
33.78634471316021
 31
0.0
  0
LINE
  5
18D4
330
739
100
AcDbEntity
  8
0
 62
     7
100
AcDbLine
 10
538.1250563191015
 20
34.91824471316019
 30
0.0
 11
538.1250563191015
 21
33.55996471316018
 31
0.0
  0
LINE
  5
18D5
330
739
100
AcDbEntity
  8
0
 62
     7
100
AcDbLine
 10
538.5778163191014
 20
33.1072047131602
 30
0.0
 11
550.2618312237878
 21
33.1072047131602
 31
0.0
  0
ARC
  5
18D6
330
739
100
AcDbEntity
  8
0
 62
     7
100
AcDbCircle
 10
550.2618312237878
 20
33.55996471316018
 30
0.0
 40
0.45276
100
AcDbArc
 50
270.0
 51
0.0
  0
ARC
  5
18D7
330
739
100
AcDbEntity
  8
0
 62
     7
100
AcDbCircle
 10
549.8091766798518
 20
34.0127247131602
 30
0.0
 40
0.22638
100
AcDbArc
 50
270.0
 51
0.0
  0
ARC
  5
18D8
330
739
100
AcDbEntity
  8
0
 62
     7
100
AcDbCircle
 10
549.8091770107296
 20
34.3522947131602
 30
0.0
 40
0.22638
100
AcDbArc
 50
0.0
 51
180.0
  0
LINE
  5
18D9
330
739
100
AcDbEntity
  8
0
 62
     7
100
AcDbLine
 10
549.5827966798517
 20
34.35295247680631
 30
0.0
 11
549.5827966798517
 21
34.2391047131602
 31
0.0
  0
LINE
  5
18DA
330
739
100
AcDbEntity
  8
0
 62
     7
100
AcDbLine
 10
550.0355566798516
 20
34.35268176367455
 30
0.0
 11
550.0355566798516
 21
34.0127247131602
 31
0.0
  0
LINE
  5
18DB
330
739
100
AcDbEntity
  8
0
 62
     7
100
AcDbLine
 10
550.7145912237881
 20
33.55996471316018
 30
0.0
 11
550.7145912237881
 21
34.91824471316019
 31
0.0
  0
LINE
  5
18DC
330
739
100
AcDbEntity
  8
0
 62
     7
100
AcDbLine
 10
550.7145912237881
 20
34.91824471316019
 30
0.0
 11
538.1250563191015
 21
34.91824471316019
 31
0.0
  0
LINE
  5
1926
330
739
100
AcDbEntity
  8
0
 62
     7
100
AcDbLine
 10
556.4405855317063
 20
25.05339037334996
 30
0.0
 11
554.2539647474661
 21
25.05339037334996
 31
0.0
  0
POINT
  5
1927
330
739
100
AcDbEntity
  8
DEFPOINTS
  6
ByBlock
 62
     7
100
AcDbPoint
 10
554.941188422513
 20
25.05339037334996
 30
0.0
  0
LINE
  5
1928
330
739
100
AcDbEntity
  8
0
 62
     7
100
AcDbLine
 10
554.5729231117349
 20
31.60580699417867
 30
0.0
 11
555.9049972366667
 21
26.36409367146249
 31
0.0
  0
LINE
  5
1929
330
739
100
AcDbEntity
  8
0
 62
     7
100
AcDbLine
 10
553.3993737935199
 20
31.30757346157575
 30
0.0
 11
554.7314479184519
 21
26.06586013885959
 31
0.0
  0
LINE
  5
192A
330
739
100
AcDbEntity
  8
0
 62
     7
100
AcDbLine
 10
555.9407864953084
 20
25.80308892794666
 30
0.0
 11
554.2539647474661
 21
25.80308892794666
 31
0.0
  0
LINE
  5
192B
330
739
100
AcDbEntity
  8
0
  6
Continuous
 62
     7
100
AcDbLine
 10
554.7314479184519
 20
26.06586013885959
 30
0.0
 11
555.9049972366667
 21
26.36409367146249
 31
0.0
  0
LINE
  5
192C
330
739
100
AcDbEntity
  8
0
 62
     7
100
AcDbLine
 10
554.8329397897287
 20
26.09165222005425
 30
0.0
 11
554.9062722425274
 21
25.80308892794666
 31
0.0
  0
LINE
  5
192D
330
739
100
AcDbEntity
  8
0
 62
     7
100
AcDbLine
 10
556.2531608930574
 20
27.05258651894116
 30
0.0
 11
555.9407864953084
 21
25.80308892794666
 31
0.0
  0
LINE
  5
192E
330
739
100
AcDbEntity
  8
0
 62
     7
100
AcDbLine
 10
555.8035053653902
 20
26.33830159026782
 30
0.0
 11
555.939518705861
 21
25.80308892794666
 31
0.0
  0
LINE
  5
192F
330
739
100
AcDbEntity
  8
0
 62
     7
100
AcDbLine
 10
554.1914898679163
 20
25.74061404839694
 30
0.0
 11
554.1914898679163
 21
25.11586525289967
 31
0.0
  0
ARC
  5
1930
330
739
100
AcDbEntity
  8
0
 62
     7
100
AcDbCircle
 10
554.2539647474661
 20
25.11586525289967
 30
0.0
 40
0.0624748795497253
100
AcDbArc
 50
180.0
 51
270.0
  0
ARC
  5
1931
330
739
100
AcDbEntity
  8
0
 62
     7
100
AcDbCircle
 10
554.2539647474661
 20
25.74061404839694
 30
0.0
 40
0.0624748795497253
100
AcDbArc
 50
90.0
 51
180.0
  0
LINE
  5
1934
330
739
100
AcDbEntity
  8
0
 62
     7
100
AcDbLine
 10
556.2531608930574
 20
27.05258651894116
 30
0.0
 11
556.4405855317063
 21
27.05258651894116
 31
0.0
  0
ARC
  5
1937
330
739
100
AcDbEntity
  8
0
 62
     7
100
AcDbCircle
 10
554.9525539596483
 20
32.37808814833221
 30
0.0
 40
0.4257751828369059
100
AcDbArc
 50
244.9193328570933
 51
0.2847236284667192
  0
ARC
  5
1938
330
739
100
AcDbEntity
  8
0
 62
     7
100
AcDbCircle
 10
554.9573580653868
 20
32.37597232484453
 30
0.0
 40
0.3260626303609382
100
AcDbArc
 50
284.2587127193386
 51
104.2587127193386
  0
ARC
  5
1939
330
739
100
AcDbEntity
  8
0
 62
     7
100
AcDbCircle
 10
554.3447688394462
 20
31.57147225301803
 30
0.0
 40
0.9548977031998903
100
AcDbArc
 50
104.2587127193386
 51
181.5783292275043
  0
LINE
  5
193A
330
739
100
AcDbEntity
  8
0
 62
     7
100
AcDbLine
 10
553.3572147367997
 20
31.29685960045228
 30
0.0
 11
554.6212858215703
 21
31.6180973867311
 31
0.0
  0
LINE
  5
193B
330
739
100
AcDbEntity
  8
0
 62
     7
100
AcDbLine
 10
554.5192294806707
 20
31.83208220713061
 30
0.0
 11
553.3447268613351
 21
31.53360641256524
 31
0.0
  0
LINE
  5
193C
330
739
100
AcDbEntity
  8
0
 62
     7
100
AcDbLine
 10
553.3902334203869
 20
31.54517097287128
 30
0.0
 11
554.4737229216186
 21
31.82051764682457
 31
0.0
  0
LINE
  5
193D
330
739
100
AcDbEntity
  8
0
 62
     7
100
AcDbLine
 10
553.3113236244743
 20
31.47744118399093
 30
0.0
 11
553.3572147367997
 21
31.29685960045228
 31
0.0
  0
ARC
  5
193E
330
739
100
AcDbEntity
  8
0
 62
     7
100
AcDbCircle
 10
553.3561078571917
 20
31.48882217984768
 30
0.0
 40
0.0462077327597215
100
AcDbArc
 50
104.2587127193386
 51
194.2587127193262
  0
LINE
  5
193F
330
739
100
AcDbEntity
  8
0
 62
     7
100
AcDbLine
 10
554.4507773654559
 20
31.91080843859388
 30
0.0
 11
555.0376675119564
 21
32.05995455365191
 31
0.0
  0
LINE
  5
1940
330
739
100
AcDbEntity
  8
0
 62
     7
100
AcDbLine
 10
554.6212858215703
 20
31.6180973867311
 30
0.0
 11
554.5753947092448
 21
31.79867897026975
 31
0.0
  0
ARC
  5
1941
330
739
100
AcDbEntity
  8
0
 62
     7
100
AcDbCircle
 10
554.5306104765272
 20
31.78729797441302
 30
0.0
 40
0.0462077327597215
100
AcDbArc
 50
14.25871271932624
 51
104.2587127193386
  0
LINE
  5
1942
330
739
100
AcDbEntity
  8
0
 62
     7
100
AcDbLine
 10
554.4737229216186
 20
31.82051764682457
 30
0.0
 11
554.4507773654559
 21
31.91080843859388
 31
0.0
  0
LINE
  5
1943
330
739
100
AcDbEntity
  8
0
 62
     7
100
AcDbLine
 10
552.8525289656963
 20
34.5860428795197
 30
0.0
 11
554.3086078070166
 21
32.54753250167131
 31
0.0
  0
LINE
  5
1944
330
739
100
AcDbEntity
  8
0
 62
     7
100
AcDbLine
 10
555.3783238853252
 20
34.74390506199649
 30
0.0
 11
552.8525289656963
 21
34.74390506199649
 31
0.0
  0
LINE
  5
1945
330
739
100
AcDbEntity
  8
0
 62
     7
100
AcDbLine
 10
552.8525289656963
 20
34.5860428795197
 30
0.0
 11
552.8525289656963
 21
34.9017672444733
 31
0.0
  0
LINE
  5
1946
330
739
100
AcDbEntity
  8
0
 62
     7
100
AcDbLine
 10
555.3783238853252
 20
34.9017672444733
 30
0.0
 11
555.3783238853252
 21
32.37597232484482
 31
0.0
  0
LINE
  5
1947
330
739
100
AcDbEntity
  8
0
 62
     7
100
AcDbLine
 10
554.109576888778
 20
32.49695286865362
 30
0.0
 11
554.877048618817
 21
32.69199009603718
 31
0.0
  0
CIRCLE
  5
1948
330
739
100
AcDbEntity
  8
0
 62
     7
100
AcDbCircle
 10
554.9573580653868
 20
32.37597232484453
 30
0.0
 40
0.1578621824767969
  0
LINE
  5
195A
330
739
100
AcDbEntity
  8
0
 62
     7
100
AcDbLine
 10
529.7110889906153
 20
38.93986561278582
 30
0.0
 11
523.4161640816501
 21
38.93986561278582
 31
0.0
  0
LINE
  5
195B
330
739
100
AcDbEntity
  8
0
 62
     7
100
AcDbLine
 10
522.6811640816499
 20
26.43953312562021
 30
0.0
 11
522.6811640816499
 21
45.38892530170253
 31
0.0
  0
LINE
  5
195C
330
739
100
AcDbEntity
  8
0
 62
     7
100
AcDbLine
 10
524.15116408165
 20
26.43953312562021
 30
0.0
 11
524.15116408165
 21
38.38861561278582
 31
0.0
  0
LINE
  5
195D
330
739
100
AcDbEntity
  8
0
 62
     7
100
AcDbLine
 10
529.7110889906153
 20
38.38861561278582
 30
0.0
 11
523.4161640816501
 21
38.38861561278582
 31
0.0
  0
LINE
  5
195E
330
739
100
AcDbEntity
  8
0
 62
     7
100
AcDbLine
 10
524.15116408165
 20
38.93986561278582
 30
0.0
 11
524.15116408165
 21
44.92955030170253
 31
0.0
  0
ARC
  5
195F
330
739
100
AcDbEntity
  8
0
 62
     7
100
AcDbCircle
 10
523.4161640816501
 20
38.66424061278582
 30
0.0
 40
0.275625
100
AcDbArc
 50
90.0
 51
270.0
  0
LINE
  5
1960
330
739
100
AcDbEntity
  8
0
 62
     7
100
AcDbLine
 10
529.7110889906153
 20
45.94017530170252
 30
0.0
 11
529.7110889906153
 21
37.31476183969566
 31
0.0
  0
LINE
  5
1961
330
739
100
AcDbEntity
  8
0
 62
     7
100
AcDbLine
 10
529.8948389906154
 20
45.94017530170252
 30
0.0
 11
529.8948389906154
 21
37.31476183969566
 31
0.0
  0
ARC
  5
1962
330
739
100
AcDbEntity
  8
0
 62
     7
100
AcDbCircle
 10
523.4161640816501
 20
45.20517530170252
 30
0.0
 40
0.275625
100
AcDbArc
 50
90.0
 51
270.0
  0
LINE
  5
1963
330
739
100
AcDbEntity
  8
0
 62
     7
100
AcDbLine
 10
529.7110889906153
 20
44.92955030170253
 30
0.0
 11
523.4161640816501
 21
44.92955030170253
 31
0.0
  0
LINE
  5
1964
330
739
100
AcDbEntity
  8
0
 62
     7
100
AcDbLine
 10
529.7110889906153
 20
45.48080030170252
 30
0.0
 11
523.4161640816501
 21
45.48080030170252
 31
0.0
  0
ARC
  5
1965
330
739
100
AcDbEntity
  8
0
 62
     7
100
AcDbCircle
 10
523.59991408165
 20
45.38892530170253
 30
0.0
 40
0.55125
100
AcDbArc
 50
9.594068226859521
 51
90.0
  0
ARC
  5
1966
330
739
100
AcDbEntity
  8
0
 62
     7
100
AcDbCircle
 10
523.2324140816501
 20
45.38892530170253
 30
0.0
 40
0.55125
100
AcDbArc
 50
90.0
 51
180.0
  0
LINE
  5
1967
330
739
100
AcDbEntity
  8
0
 62
     7
100
AcDbLine
 10
523.59991408165
 20
45.94017530170252
 30
0.0
 11
523.2324140816501
 21
45.94017530170252
 31
0.0
  0
LINE
  5
1968
330
739
100
AcDbEntity
  8
0
 62
     7
100
AcDbLine
 10
529.7110889906153
 20
45.94017530170252
 30
0.0
 11
529.8948389906154
 21
45.94017530170252
 31
0.0
  0
LINE
  5
1969
330
739
100
AcDbEntity
  8
0
 62
     7
100
AcDbLine
 10
527.0467139906154
 20
28.64453312562021
 30
0.0
 11
524.15116408165
 21
28.64453312562022
 31
0.0
  0
LINE
  5
196A
330
739
100
AcDbEntity
  8
0
 62
     7
100
AcDbLine
 10
527.0467139906154
 20
26.43953312562021
 30
0.0
 11
524.8417139906153
 21
26.43953312562021
 31
0.0
  0
LINE
  5
196B
330
739
100
AcDbEntity
  8
0
 62
     7
100
AcDbLine
 10
524.8417139906153
 20
26.43953312562021
 30
0.0
 11
522.6811640816499
 21
26.43953312562021
 31
0.0
  0
TEXT
  5
19DF
330
739
100
AcDbEntity
  8
0
100
AcDbText
 10
533.4273031296604
 20
21.87434398824549
 30
0.0
 40
1.0
  1
HATCH NOT INCLUDED
  7
ROMANC
100
AcDbText
  0
ENDSEC
  0
SECTION
  2
OBJECTS
  0
DICTIONARY
  5
72D
330
0
100
AcDbDictionary
281
     1
  3
ACAD_COLOR
350
7FE
  3
ACAD_GROUP
350
72E
  3
ACAD_LAYOUT
350
77E
  3
ACAD_MATERIAL
350
7E9
  3
ACAD_MLINESTYLE
350
72F
  3
ACAD_PLOTSETTINGS
350
77F
  3
ACAD_PLOTSTYLENAME
350
77C
  3
ACAD_TABLESTYLE
350
7FF
  3
ACAD_VISUALSTYLE
350
7ED
  3
AcDbVariableDictionary
350
80F
  3
DWGPROPS
350
1A20
  0
DICTIONARY
  5
834
330
729
100
AcDbDictionary
280
     1
281
     1
  0
DICTIONARY
  5
B5A
330
723
100
AcDbDictionary
280
     1
281
     1
  3
ACAD_LAYERSTATES
360
B5B
  0
DICTIONARY
  5
7FE
102
{ACAD_REACTORS
330
72D
102
}
330
72D
100
AcDbDictionary
281
     1
  0
DICTIONARY
  5
72E
102
{ACAD_REACTORS
330
72D
102
}
330
72D
100
AcDbDictionary
281
     1
  0
DICTIONARY
  5
77E
102
{ACAD_REACTORS
330
72D
102
}
330
72D
100
AcDbDictionary
281
     1
  3
Layout1
350
781
  3
Model
350
780
  0
DICTIONARY
  5
7E9
102
{ACAD_REACTORS
330
72D
102
}
330
72D
100
AcDbDictionary
281
     1
  3
ByBlock
350
7EB
  3
ByLayer
350
7EA
  3
Global
350
7EC
  0
DICTIONARY
  5
72F
102
{ACAD_REACTORS
330
72D
102
}
330
72D
100
AcDbDictionary
281
     1
  3
STANDARD
350
73C
  0
DICTIONARY
  5
77F
102
{ACAD_REACTORS
330
72D
102
}
330
72D
100
AcDbDictionary
281
     1
  0
ACDBDICTIONARYWDFLT
  5
77C
102
{ACAD_REACTORS
330
72D
102
}
330
72D
100
AcDbDictionary
281
     1
  3
Normal
350
77D
100
AcDbDictionaryWithDefault
340
77D
  0
DICTIONARY
  5
7FF
102
{ACAD_REACTORS
330
72D
102
}
330
72D
100
AcDbDictionary
281
     1
  3
Standard
350
800
  0
DICTIONARY
  5
7ED
102
{ACAD_REACTORS
330
72D
102
}
330
72D
100
AcDbDictionary
281
     1
  3
2dWireframe
350
7F3
  3
3D Hidden
350
7F5
  3
3dWireframe
350
7F4
  3
Basic
350
7F2
  3
Brighten
350
7F9
  3
ColorChange
350
7FD
  3
Conceptual
350
7F6
  3
Dim
350
7F8
  3
Facepattern
350
7FC
  3
Flat
350
7EE
  3
FlatWithEdges
350
7EF
  3
Gouraud
350
7F0
  3
GouraudWithEdges
350
7F1
  3
Linepattern
350
7FB
  3
Realistic
350
7F7
  3
Thicken
350
7FA
  0
DICTIONARY
  5
80F
102
{ACAD_REACTORS
330
72D
102
}
330
72D
100
AcDbDictionary
281
     1
  3
CTABLESTYLE
350
810
  3
DIMASSOC
350
848
  3
INDEXCTL
350
847
  3
SORTENTS
350
846
  0
XRECORD
  5
1A20
102
{ACAD_REACTORS
330
72D
102
}
330
72D
100
AcDbXrecord
280
     1
  1
DWGPROPS COOKIE
  2

  3

  4

  6

  7

  8
Don.McKinney
  9

300
=
301
=
302
=
303
=
304
=
305
=
306
=
307
=
308
=
309
=
 40
0.3642723958333333
 41
2449329.703918635
 42
2457491.653734618
  1

 90
        0
  0
DICTIONARY
  5
B5B
102
{ACAD_REACTORS
330
B5A
102
}
330
B5A
100
AcDbDictionary
281
     1
  0
LAYOUT
  5
781
102
{ACAD_XDICTIONARY
360
1A23
102
}
102
{ACAD_REACTORS
330
77E
102
}
330
77E
100
AcDbPlotSettings
  1

  2
HP LaserJet 2100 Series PCL 6
  4

  6

 40
0.0
 41
0.0
 42
0.0
 43
0.0
 44
0.0
 45
0.0
 46
0.0
 47
0.0
 48
0.0
 49
0.0
140
0.0
141
0.0
142
1.0
143
1.0
 70
   688
 72
     0
 73
     0
 74
     5
  7
Erik.ctb
 75
    16
147
1.0
148
0.0
149
0.0
100
AcDbLayout
  1
Layout1
 70
     1
 71
     1
 10
0.0
 20
0.0
 11
12.0
 21
9.0
 12
0.0
 22
0.0
 32
0.0
 14
1.000000000000000E+20
 24
1.000000000000000E+20
 34
1.000000000000000E+20
 15
-1.000000000000000E+20
 25
-1.000000000000000E+20
 35
-1.000000000000000E+20
146
0.0
 13
0.0
 23
0.0
 33
0.0
 16
1.0
 26
0.0
 36
0.0
 17
0.0
 27
1.0
 37
0.0
 76
     0
330
736
  0
LAYOUT
  5
780
102
{ACAD_XDICTIONARY
360
1A21
102
}
102
{ACAD_REACTORS
330
77E
102
}
330
77E
100
AcDbPlotSettings
  1

  2
Acrobat Distiller
  4
Letter
  6

 40
3.174999952316284
 41
3.174999952316284
 42
3.175003051757812
 43
3.17498779296875
 44
215.8999938964844
 45
279.3999938964844
 46
0.0
 47
1.016
 48
0.0
 49
0.0
140
0.0
141
0.0
142
1.0
143
8.693872224029485
 70
 28340
 72
     0
 73
     3
 74
     1
  7
Erik.ctb
 75
     0
147
0.1150235446566656
148
-9363.04120682459
149
-182.8530178899971
100
AcDbLayout
  1
Model
 70
     1
 71
     0
 10
0.0
 20
0.0
 11
12.0
 21
9.0
 12
0.0
 22
0.0
 32
0.0
 14
0.0
 24
0.0
 34
0.0
 15
0.0
 25
0.0
 35
0.0
146
0.0
 13
0.0
 23
0.0
 33
0.0
 16
1.0
 26
0.0
 36
0.0
 17
0.0
 27
1.0
 37
0.0
 76
     0
330
739
331
7E7
  0
MATERIAL
  5
7EB
102
{ACAD_XDICTIONARY
360
1A27
102
}
102
{ACAD_REACTORS
330
7E9
102
}
330
7E9
100
AcDbMaterial
  1
ByBlock
  0
MATERIAL
  5
7EA
102
{ACAD_XDICTIONARY
360
1A25
102
}
102
{ACAD_REACTORS
330
7E9
102
}
330
7E9
100
AcDbMaterial
  1
ByLayer
  0
MATERIAL
  5
7EC
102
{ACAD_XDICTIONARY
360
1A29
102
}
102
{ACAD_REACTORS
330
7E9
102
}
330
7E9
100
AcDbMaterial
  1
Global
  0
MLINESTYLE
  5
73C
102
{ACAD_REACTORS
330
72F
102
}
330
72F
100
AcDbMlineStyle
  2
STANDARD
 70
     0
  3

 62
     0
 51
90.0
 52
90.0
 71
     2
 49
0.5
 62
   256
  6
BYLAYER
 49
-0.5
 62
   256
  6
BYLAYER
  0
ACDBPLACEHOLDER
  5
77D
102
{ACAD_REACTORS
330
77C
102
}
330
77C
  0
TABLESTYLE
  5
800
102
{ACAD_XDICTIONARY
360
1A2B
102
}
102
{ACAD_REACTORS
330
7FF
102
}
330
7FF
100
AcDbTableStyle
  3
Standard
 70
     0
 71
     0
 40
0.06
 41
0.06
280
     0
281
     0
  7
STANDARD
140
0.18
170
     2
 62
     0
 63
     7
283
     0
274
    -2
284
     1
 64
     0
275
    -2
285
     1
 65
     0
276
    -2
286
     1
 66
     0
277
    -2
287
     1
 67
     0
278
    -2
288
     1
 68
     0
279
    -2
289
     1
 69
     0
  7
STANDARD
140
0.25
170
     5
 62
     0
 63
     7
283
     0
274
    -2
284
     1
 64
     0
275
    -2
285
     1
 65
     0
276
    -2
286
     1
 66
     0
277
    -2
287
     1
 67
     0
278
    -2
288
     1
 68
     0
279
    -2
289
     1
 69
     0
  7
STANDARD
140
0.18
170
     5
 62
     0
 63
     7
283
     0
274
    -2
284
     1
 64
     0
275
    -2
285
     1
 65
     0
276
    -2
286
     1
 66
     0
277
    -2
287
     1
 67
     0
278
    -2
288
     1
 68
     0
279
    -2
289
     1
 69
     0
  0
VISUALSTYLE
  5
7F3
102
{ACAD_REACTORS
330
7ED
102
}
330
7ED
100
AcDbVisualStyle
  2
2dWireframe
 70
     4
 71
     0
 72
     2
 73
     0
 90
        0
 40
-0.6
 41
-30.0
 62
     5
 63
     7
 74
     1
 91
        4
 64
     7
 65
   257
 75
     1
175
     1
 42
1.0
 92
        0
 66
   257
 43
1.0
 76
     1
 77
     6
 78
     2
 67
     7
 79
     5
170
     0
171
     0
290
     0
174
     0
 93
        1
 44
0.0
173
     0
291
     0
 45
0.0
1001
ACAD
1000
AcDbSavedByObjectVersion
1070
     0
  0
VISUALSTYLE
  5
7F5
102
{ACAD_REACTORS
330
7ED
102
}
330
7ED
100
AcDbVisualStyle
  2
3D Hidden
 70
     6
 71
     1
 72
     2
 73
     2
 90
        0
 40
-0.6
 41
-30.0
 62
     5
 63
     7
 74
     2
 91
        2
 64
     7
 65
   257
 75
     2
175
     1
 42
40.0
 92
        0
 66
   257
 43
1.0
 76
     1
 77
     6
 78
     2
 67
     7
 79
     3
170
     0
171
     0
290
     0
174
     0
 93
        1
 44
0.0
173
     0
291
     0
 45
0.0
1001
ACAD
1000
AcDbSavedByObjectVersion
1070
     0
  0
VISUALSTYLE
  5
7F4
102
{ACAD_REACTORS
330
7ED
102
}
330
7ED
100
AcDbVisualStyle
  2
3dWireframe
 70
     5
 71
     0
 72
     2
 73
     0
 90
        0
 40
-0.6
 41
-30.0
 62
     5
 63
     7
 74
     1
 91
        4
 64
     7
 65
   257
 75
     1
175
     1
 42
1.0
 92
        0
 66
   257
 43
1.0
 76
     1
 77
     6
 78
     2
 67
     7
 79
     5
170
     0
171
     0
290
     0
174
     0
 93
        1
 44
0.0
173
     0
291
     0
 45
0.0
1001
ACAD
1000
AcDbSavedByObjectVersion
1070
     0
  0
VISUALSTYLE
  5
7F2
102
{ACAD_REACTORS
330
7ED
102
}
330
7ED
100
AcDbVisualStyle
  2
Basic
 70
     7
 71
     1
 72
     0
 73
     1
 90
        0
 40
-0.6
 41
-30.0
 62
     5
 63
     7
 74
     0
 91
        4
 64
     7
 65
   257
 75
     1
175
     1
 42
1.0
 92
        8
 66
     7
 43
1.0
 76
     1
 77
     6
 78
     2
 67
     7
 79
     5
170
     0
171
     0
290
     0
174
     0
 93
        1
 44
0.0
173
     0
291
     1
 45
0.0
1001
ACAD
1000
AcDbSavedByObjectVersion
1070
     0
  0
VISUALSTYLE
  5
7F9
102
{ACAD_REACTORS
330
7ED
102
}
330
7ED
100
AcDbVisualStyle
  2
Brighten
 70
    12
 71
     2
 72
     2
 73
     0
 90
        0
 40
-0.6
 41
-30.0
 62
     5
 63
     7
 74
     1
 91
        4
 64
     7
 65
   257
 75
     1
175
     1
 42
1.0
 92
        8
 66
     7
 43
1.0
 76
     1
 77
     6
 78
     2
 67
     7
 79
     5
170
     0
171
     0
290
     0
174
     0
 93
        1
 44
50.0
173
     0
291
     1
 45
0.0
1001
ACAD
1000
AcDbSavedByObjectVersion
1070
     0
  0
VISUALSTYLE
  5
7FD
102
{ACAD_REACTORS
330
7ED
102
}
330
7ED
100
AcDbVisualStyle
  2
ColorChange
 70
    16
 71
     2
 72
     2
 73
     3
 90
        0
 40
-0.6
 41
-30.0
 62
     5
 63
     8
 74
     1
 91
        4
 64
     7
 65
   257
 75
     1
175
     1
 42
1.0
 92
        8
 66
     8
 43
1.0
 76
     1
 77
     6
 78
     2
 67
     7
 79
     5
170
     0
171
     0
290
     0
174
     0
 93
        1
 44
0.0
173
     0
291
     1
 45
0.0
1001
ACAD
1000
AcDbSavedByObjectVersion
1070
     0
  0
VISUALSTYLE
  5
7F6
102
{ACAD_REACTORS
330
7ED
102
}
330
7ED
100
AcDbVisualStyle
  2
Conceptual
 70
     9
 71
     3
 72
     2
 73
     0
 90
        0
 40
-0.6
 41
-30.0
 62
     5
 63
     7
 74
     2
 91
        2
 64
     7
 65
   257
 75
     1
175
     1
 42
40.0
 92
        8
 66
     7
 43
1.0
 76
     1
 77
     6
 78
     2
 67
     7
 79
     3
170
     0
171
     0
290
     0
174
     0
 93
        1
 44
0.0
173
     0
291
     0
 45
0.0
1001
ACAD
1000
AcDbSavedByObjectVersion
1070
     0
  0
VISUALSTYLE
  5
7F8
102
{ACAD_REACTORS
330
7ED
102
}
330
7ED
100
AcDbVisualStyle
  2
Dim
 70
    11
 71
     2
 72
     2
 73
     0
 90
        0
 40
-0.6
 41
-30.0
 62
     5
 63
     7
 74
     1
 91
        4
 64
     7
 65
   257
 75
     1
175
     1
 42
1.0
 92
        8
 66
     7
 43
1.0
 76
     1
 77
     6
 78
     2
 67
     7
 79
     5
170
     0
171
     0
290
     0
174
     0
 93
        1
 44
-50.0
173
     0
291
     1
 45
0.0
1001
ACAD
1000
AcDbSavedByObjectVersion
1070
     0
  0
VISUALSTYLE
  5
7FC
102
{ACAD_REACTORS
330
7ED
102
}
330
7ED
100
AcDbVisualStyle
  2
Facepattern
 70
    15
 71
     2
 72
     2
 73
     0
 90
        0
 40
-0.6
 41
-30.0
 62
     5
 63
     7
 74
     1
 91
        4
 64
     7
 65
   257
 75
     1
175
     1
 42
1.0
 92
        8
 66
     7
 43
1.0
 76
     1
 77
     6
 78
     2
 67
     7
 79
     5
170
     0
171
     0
290
     0
174
     0
 93
        1
 44
0.0
173
     0
291
     1
 45
0.0
1001
ACAD
1000
AcDbSavedByObjectVersion
1070
     0
  0
VISUALSTYLE
  5
7EE
102
{ACAD_REACTORS
330
7ED
102
}
330
7ED
100
AcDbVisualStyle
  2
Flat
 70
     0
 71
     2
 72
     1
 73
     1
 90
        2
 40
-0.6
 41
30.0
 62
     5
 63
     7
 74
     0
 91
        4
 64
     7
 65
   257
 75
     1
175
     1
 42
1.0
 92
        8
 66
     7
 43
1.0
 76
     1
 77
     6
 78
     2
 67
     7
 79
     5
170
     0
171
     0
290
     0
174
     0
 93
       13
 44
0.0
173
     0
291
     1
 45
0.0
1001
ACAD
1000
AcDbSavedByObjectVersion
1070
     0
  0
VISUALSTYLE
  5
7EF
102
{ACAD_REACTORS
330
7ED
102
}
330
7ED
100
AcDbVisualStyle
  2
FlatWithEdges
 70
     1
 71
     2
 72
     1
 73
     1
 90
        2
 40
-0.6
 41
30.0
 62
     5
 63
     7
 74
     1
 91
        4
 64
     7
 65
   257
 75
     1
175
     1
 42
1.0
 92
        0
 66
   257
 43
1.0
 76
     1
 77
     6
 78
     2
 67
     7
 79
     5
170
     0
171
     0
290
     0
174
     0
 93
       13
 44
0.0
173
     0
291
     1
 45
0.0
1001
ACAD
1000
AcDbSavedByObjectVersion
1070
     0
  0
VISUALSTYLE
  5
7F0
102
{ACAD_REACTORS
330
7ED
102
}
330
7ED
100
AcDbVisualStyle
  2
Gouraud
 70
     2
 71
     2
 72
     2
 73
     1
 90
        2
 40
-0.6
 41
30.0
 62
     5
 63
     7
 74
     0
 91
        4
 64
     7
 65
   257
 75
     1
175
     1
 42
1.0
 92
        0
 66
     7
 43
1.0
 76
     1
 77
     6
 78
     2
 67
     7
 79
     5
170
     0
171
     0
290
     0
174
     0
 93
       13
 44
0.0
173
     0
291
     1
 45
0.0
1001
ACAD
1000
AcDbSavedByObjectVersion
1070
     0
  0
VISUALSTYLE
  5
7F1
102
{ACAD_REACTORS
330
7ED
102
}
330
7ED
100
AcDbVisualStyle
  2
GouraudWithEdges
 70
     3
 71
     2
 72
     2
 73
     1
 90
        2
 40
-0.6
 41
30.0
 62
     5
 63
     7
 74
     1
 91
        4
 64
     7
 65
   257
 75
     1
175
     1
 42
1.0
 92
        0
 66
   257
 43
1.0
 76
     1
 77
     6
 78
     2
 67
     7
 79
     5
170
     0
171
     0
290
     0
174
     0
 93
       13
 44
0.0
173
     0
291
     1
 45
0.0
1001
ACAD
1000
AcDbSavedByObjectVersion
1070
     0
  0
VISUALSTYLE
  5
7FB
102
{ACAD_REACTORS
330
7ED
102
}
330
7ED
100
AcDbVisualStyle
  2
Linepattern
 70
    14
 71
     2
 72
     2
 73
     0
 90
        0
 40
-0.6
 41
-30.0
 62
     5
 63
     7
 74
     1
 91
        4
 64
     7
 65
   257
 75
     7
175
     7
 42
1.0
 92
        8
 66
     7
 43
1.0
 76
     1
 77
     6
 78
     2
 67
     7
 79
     5
170
     0
171
     0
290
     0
174
     0
 93
        1
 44
0.0
173
     0
291
     1
 45
0.0
1001
ACAD
1000
AcDbSavedByObjectVersion
1070
     0
  0
VISUALSTYLE
  5
7F7
102
{ACAD_REACTORS
330
7ED
102
}
330
7ED
100
AcDbVisualStyle
  2
Realistic
 70
     8
 71
     2
 72
     2
 73
     0
 90
        0
 40
-0.6
 41
-30.0
 62
     5
 63
     7
 74
     1
 91
        0
 64
     7
 65
   257
 75
     1
175
     1
 42
1.0
 92
        8
 66
     8
 43
1.0
 76
     1
 77
     6
 78
     2
 67
     7
 79
     5
170
     0
171
     0
290
     0
174
     0
 93
       13
 44
0.0
173
     0
291
     0
 45
0.0
1001
ACAD
1000
AcDbSavedByObjectVersion
1070
     0
  0
VISUALSTYLE
  5
7FA
102
{ACAD_REACTORS
330
7ED
102
}
330
7ED
100
AcDbVisualStyle
  2
Thicken
 70
    13
 71
     2
 72
     2
 73
     0
 90
        0
 40
-0.6
 41
-30.0
 62
     5
 63
     7
 74
     1
 91
        4
 64
     7
 65
   257
 75
     1
175
     1
 42
1.0
 92
       12
 66
     7
 43
1.0
 76
     1
 77
     6
 78
     2
 67
     7
 79
     5
170
     0
171
     0
290
     0
174
     0
 93
        1
 44
0.0
173
     0
291
     1
 45
0.0
1001
ACAD
1000
AcDbSavedByObjectVersion
1070
     0
  0
DICTIONARYVAR
  5
810
102
{ACAD_REACTORS
330
80F
102
}
330
80F
100
DictionaryVariables
280
     0
  1
STANDARD
  0
DICTIONARYVAR
  5
848
102
{ACAD_REACTORS
330
80F
102
}
330
80F
100
DictionaryVariables
280
     0
  1
1
  0
DICTIONARYVAR
  5
847
102
{ACAD_REACTORS
330
80F
102
}
330
80F
100
DictionaryVariables
280
     0
  1
0
  0
DICTIONARYVAR
  5
846
102
{ACAD_REACTORS
330
80F
102
}
330
80F
100
DictionaryVariables
280
     0
  1
127
  0
DICTIONARY
  5
1A23
330
781
100
AcDbDictionary
280
     1
281
     1
  3
ACAD_XREC_ROUNDTRIP
360
1A24
  0
DICTIONARY
  5
1A21
330
780
100
AcDbDictionary
280
     1
281
     1
  3
ACAD_XREC_ROUNDTRIP
360
1A22
  0
DICTIONARY
  5
1A27
330
7EB
100
AcDbDictionary
280
     1
281
     1
  3
ACAD_XREC_ROUNDTRIP
360
1A28
  0
DICTIONARY
  5
1A25
330
7EA
100
AcDbDictionary
280
     1
281
     1
  3
ACAD_XREC_ROUNDTRIP
360
1A26
  0
DICTIONARY
  5
1A29
330
7EC
100
AcDbDictionary
280
     1
281
     1
  3
ACAD_XREC_ROUNDTRIP
360
1A2A
  0
DICTIONARY
  5
1A2B
330
800
100
AcDbDictionary
280
     1
281
     1
  3
ACAD_XREC_ROUNDTRIP
360
1A2C
  0
XRECORD
  5
1A24
102
{ACAD_REACTORS
330
1A23
102
}
330
1A23
100
AcDbXrecord
280
     1
102
SHADEPLOT
 70
     0
102
SHADEPLOTRESLEVEL
 70
     2
102
SHADEPLOTCUSTOMDPI
 70
   300
  0
XRECORD
  5
1A22
102
{ACAD_REACTORS
330
1A21
102
}
330
1A21
100
AcDbXrecord
280
     1
102
SHADEPLOT
 70
     0
102
SHADEPLOTRESLEVEL
 70
     2
102
SHADEPLOTCUSTOMDPI
 70
   300
  0
XRECORD
  5
1A28
102
{ACAD_REACTORS
330
1A27
102
}
330
1A27
100
AcDbXrecord
280
     1
102
MATERIAL
148
0.0
149
0.0
149
0.0
 93
        0
 94
       63
282
     0
 72
     1
 77
     1
171
     1
175
     1
179
     1
273
     0
  0
XRECORD
  5
1A26
102
{ACAD_REACTORS
330
1A25
102
}
330
1A25
100
AcDbXrecord
280
     1
102
MATERIAL
148
0.0
149
0.0
149
0.0
 93
        0
 94
       63
282
     0
 72
     1
 77
     1
171
     1
175
     1
179
     1
273
     0
  0
XRECORD
  5
1A2A
102
{ACAD_REACTORS
330
1A29
102
}
330
1A29
100
AcDbXrecord
280
     1
102
MATERIAL
148
0.0
149
0.0
149
0.0
 93
        0
 94
       63
282
     0
 72
     1
 77
     1
171
     1
175
     1
179
     1
273
     0
  0
XRECORD
  5
1A2C
102
{ACAD_REACTORS
330
1A2B
102
}
330
1A2B
100
AcDbXrecord
280
     1
102
ACAD_ROUNDTRIP_PRE2007_TABLESTYLE
 90
      512
 91
        0
  1

 92
      512
 93
        0
  2

 94
      512
 95
        0
  3

  0
ENDSEC
  0
EOF
