  0
SECTION
  2
HEADER
  9
$ACADVER
  1
AC1021
  9
$ACADMAINTVER
 70
     1
  9
$DWGCODEPAGE
  3
ANSI_1252
  9
$LASTSAVEDBY
  1
Don.McKinney
  9
$INSBASE
 10
0.0
 20
0.0
 30
0.0
  9
$EXTMIN
 10
327.2025836511555
 20
-18.06559356692173
 30
-0.0000000000000058
  9
$EXTMAX
 10
689.1253566148475
 20
244.4175048950916
 30
0.0000000000000104
  9
$LIMMIN
 10
0.0
 20
0.0
  9
$LIMMAX
 10
12.0
 20
9.0
  9
$ORTHOMODE
 70
     1
  9
$REGENMODE
 70
     1
  9
$FILLMODE
 70
     1
  9
$QTEXTMODE
 70
     0
  9
$MIRRTEXT
 70
     0
  9
$LTSCALE
 40
4.0
  9
$ATTMODE
 70
     1
  9
$TEXTSIZE
 40
2.210999999999999
  9
$TRACEWID
 40
0.05
  9
$TEXTSTYLE
  7
ROMANS
  9
$CLAYER
  8
0
  9
$CELTYPE
  6
BYLAYER
  9
$CECOLOR
 62
   256
  9
$CELTSCALE
 40
1.0
  9
$DISPSILH
 70
     0
  9
$DIMSCALE
 40
26.0
  9
$DIMASZ
 40
0.0625
  9
$DIMEXO
 40
0.0625
  9
$DIMDLI
 40
0.375
  9
$DIMRND
 40
0.0
  9
$DIMDLE
 40
0.0
  9
$DIMEXE
 40
0.0625
  9
$DIMTP
 40
0.0
  9
$DIMTM
 40
0.0
  9
$DIMTXT
 40
0.09375
  9
$DIMCEN
 40
0.0625
  9
$DIMTSZ
 40
0.0
  9
$DIMTOL
 70
     0
  9
$DIMLIM
 70
     0
  9
$DIMTIH
 70
     1
  9
$DIMTOH
 70
     1
  9
$DIMSE1
 70
     0
  9
$DIMSE2
 70
     0
  9
$DIMTAD
 70
     0
  9
$DIMZIN
 70
     3
  9
$DIMBLK
  1

  9
$DIMASO
 70
     1
  9
$DIMSHO
 70
     1
  9
$DIMPOST
  1

  9
$DIMAPOST
  1

  9
$DIMALT
 70
     0
  9
$DIMALTD
 70
     2
  9
$DIMALTF
 40
25.4
  9
$DIMLFAC
 40
1.0
  9
$DIMTOFL
 70
     0
  9
$DIMTVP
 40
0.0
  9
$DIMTIX
 70
     0
  9
$DIMSOXD
 70
     0
  9
$DIMSAH
 70
     0
  9
$DIMBLK1
  1

  9
$DIMBLK2
  1

  9
$DIMSTYLE
  2
STANDARD
  9
$DIMCLRD
 70
     0
  9
$DIMCLRE
 70
     0
  9
$DIMCLRT
 70
     0
  9
$DIMTFAC
 40
1.0
  9
$DIMGAP
 40
0.0625
  9
$DIMJUST
 70
     0
  9
$DIMSD1
 70
     0
  9
$DIMSD2
 70
     0
  9
$DIMTOLJ
 70
     1
  9
$DIMTZIN
 70
     3
  9
$DIMALTZ
 70
     0
  9
$DIMALTTZ
 70
     0
  9
$DIMUPT
 70
     0
  9
$DIMDEC
 70
     4
  9
$DIMTDEC
 70
     4
  9
$DIMALTU
 70
     2
  9
$DIMALTTD
 70
     2
  9
$DIMTXSTY
  7
ROMANS
  9
$DIMAUNIT
 70
     0
  9
$DIMADEC
 70
     0
  9
$DIMALTRND
 40
0.0
  9
$DIMAZIN
 70
     0
  9
$DIMDSEP
 70
    46
  9
$DIMATFIT
 70
     3
  9
$DIMFRAC
 70
     2
  9
$DIMLDRBLK
  1

  9
$DIMLUNIT
 70
     4
  9
$DIMLWD
 70
    -2
  9
$DIMLWE
 70
    -2
  9
$DIMTMOVE
 70
     2
  9
$DIMFXL
 40
1.0
  9
$DIMFXLON
 70
     0
  9
$DIMJOGANG
 40
0.7853981633974483
  9
$DIMTFILL
 70
     0
  9
$DIMTFILLCLR
 70
     0
  9
$DIMARCSYM
 70
     0
  9
$DIMLTYPE
  6

  9
$DIMLTEX1
  6

  9
$DIMLTEX2
  6

  9
$LUNITS
 70
     4
  9
$LUPREC
 70
     4
  9
$SKETCHINC
 40
0.1
  9
$FILLETRAD
 40
0.0
  9
$AUNITS
 70
     0
  9
$AUPREC
 70
     0
  9
$MENU
  1
acad
  9
$ELEVATION
 40
0.0
  9
$PELEVATION
 40
0.0
  9
$THICKNESS
 40
0.0
  9
$LIMCHECK
 70
     0
  9
$CHAMFERA
 40
0.0
  9
$CHAMFERB
 40
0.0
  9
$CHAMFERC
 40
0.0
  9
$CHAMFERD
 40
0.0
  9
$SKPOLY
 70
     0
  9
$TDCREATE
 40
2450687.337153472
  9
$TDUCREATE
 40
2450687.503820139
  9
$TDUPDATE
 40
2458618.345049792
  9
$TDUUPDATE
 40
2458618.511716458
  9
$TDINDWG
 40
0.2869307292
  9
$TDUSRTIMER
 40
0.2869307292
  9
$USRTIMER
 70
     1
  9
$ANGBASE
 50
0.0
  9
$ANGDIR
 70
     0
  9
$PDMODE
 70
    33
  9
$PDSIZE
 40
0.0
  9
$PLINEWID
 40
0.0
  9
$SPLFRAME
 70
     0
  9
$SPLINETYPE
 70
     6
  9
$SPLINESEGS
 70
     8
  9
$HANDSEED
  5
2BBD
  9
$SURFTAB1
 70
     6
  9
$SURFTAB2
 70
     6
  9
$SURFTYPE
 70
     6
  9
$SURFU
 70
     6
  9
$SURFV
 70
     6
  9
$UCSBASE
  2

  9
$UCSNAME
  2

  9
$UCSORG
 10
0.0
 20
0.0
 30
0.0
  9
$UCSXDIR
 10
1.0
 20
0.0
 30
0.0
  9
$UCSYDIR
 10
0.0
 20
1.0
 30
0.0
  9
$UCSORTHOREF
  2

  9
$UCSORTHOVIEW
 70
     0
  9
$UCSORGTOP
 10
0.0
 20
0.0
 30
0.0
  9
$UCSORGBOTTOM
 10
0.0
 20
0.0
 30
0.0
  9
$UCSORGLEFT
 10
0.0
 20
0.0
 30
0.0
  9
$UCSORGRIGHT
 10
0.0
 20
0.0
 30
0.0
  9
$UCSORGFRONT
 10
0.0
 20
0.0
 30
0.0
  9
$UCSORGBACK
 10
0.0
 20
0.0
 30
0.0
  9
$PUCSBASE
  2

  9
$PUCSNAME
  2

  9
$PUCSORG
 10
0.0
 20
0.0
 30
0.0
  9
$PUCSXDIR
 10
1.0
 20
0.0
 30
0.0
  9
$PUCSYDIR
 10
0.0
 20
1.0
 30
0.0
  9
$PUCSORTHOREF
  2

  9
$PUCSORTHOVIEW
 70
     0
  9
$PUCSORGTOP
 10
0.0
 20
0.0
 30
0.0
  9
$PUCSORGBOTTOM
 10
0.0
 20
0.0
 30
0.0
  9
$PUCSORGLEFT
 10
0.0
 20
0.0
 30
0.0
  9
$PUCSORGRIGHT
 10
0.0
 20
0.0
 30
0.0
  9
$PUCSORGFRONT
 10
0.0
 20
0.0
 30
0.0
  9
$PUCSORGBACK
 10
0.0
 20
0.0
 30
0.0
  9
$USERI1
 70
     0
  9
$USERI2
 70
     0
  9
$USERI3
 70
     0
  9
$USERI4
 70
     0
  9
$USERI5
 70
     0
  9
$USERR1
 40
0.0
  9
$USERR2
 40
0.0
  9
$USERR3
 40
0.0
  9
$USERR4
 40
0.0
  9
$USERR5
 40
0.0
  9
$WORLDVIEW
 70
     1
  9
$SHADEDGE
 70
     3
  9
$SHADEDIF
 70
    70
  9
$TILEMODE
 70
     1
  9
$MAXACTVP
 70
    16
  9
$PINSBASE
 10
0.0
 20
0.0
 30
0.0
  9
$PLIMCHECK
 70
     0
  9
$PEXTMIN
 10
1.000000000000000E+20
 20
1.000000000000000E+20
 30
1.000000000000000E+20
  9
$PEXTMAX
 10
-1.000000000000000E+20
 20
-1.000000000000000E+20
 30
-1.000000000000000E+20
  9
$PLIMMIN
 10
0.0
 20
0.0
  9
$PLIMMAX
 10
12.0
 20
9.0
  9
$UNITMODE
 70
     0
  9
$VISRETAIN
 70
     0
  9
$PLINEGEN
 70
     0
  9
$PSLTSCALE
 70
     1
  9
$TREEDEPTH
 70
  3020
  9
$CMLSTYLE
  2
STANDARD
  9
$CMLJUST
 70
     0
  9
$CMLSCALE
 40
1.0
  9
$PROXYGRAPHICS
 70
     1
  9
$MEASUREMENT
 70
     0
  9
$CELWEIGHT
370
    -1
  9
$ENDCAPS
280
     0
  9
$JOINSTYLE
280
     0
  9
$LWDISPLAY
290
     0
  9
$INSUNITS
 70
     0
  9
$HYPERLINKBASE
  1

  9
$STYLESHEET
  1
acad.ctb
  9
$XEDIT
290
     1
  9
$CEPSNTYPE
380
     0
  9
$PSTYLEMODE
290
     1
  9
$FINGERPRINTGUID
  2
{52B18CDE-7C4A-11D6-8737-0010B50CF566}
  9
$VERSIONGUID
  2
{D59A9BFE-4A6B-40C5-A59E-ACA9F3778D35}
  9
$EXTNAMES
290
     1
  9
$PSVPSCALE
 40
0.0
  9
$OLESTARTUP
290
     0
  9
$SORTENTS
280
   127
  9
$INDEXCTL
280
     0
  9
$HIDETEXT
280
     0
  9
$XCLIPFRAME
290
     0
  9
$HALOGAP
280
     0
  9
$OBSCOLOR
 70
   257
  9
$OBSLTYPE
280
     0
  9
$INTERSECTIONDISPLAY
280
     0
  9
$INTERSECTIONCOLOR
 70
   257
  9
$DIMASSOC
280
     1
  9
$PROJECTNAME
  1

  9
$CAMERADISPLAY
290
     0
  9
$LENSLENGTH
 40
50.0
  9
$CAMERAHEIGHT
 40
0.0
  9
$STEPSPERSEC
 40
2.0
  9
$STEPSIZE
 40
6.0
  9
$3DDWFPREC
 40
2.0
  9
$PSOLWIDTH
 40
0.25
  9
$PSOLHEIGHT
 40
4.0
  9
$LOFTANG1
 40
1.570796326794896
  9
$LOFTANG2
 40
1.570796326794896
  9
$LOFTMAG1
 40
0.0
  9
$LOFTMAG2
 40
0.0
  9
$LOFTPARAM
 70
     7
  9
$LOFTNORMALS
280
     1
  9
$LATITUDE
 40
37.795
  9
$LONGITUDE
 40
-122.394
  9
$NORTHDIRECTION
 40
0.0
  9
$TIMEZONE
 70
 -8000
  9
$LIGHTGLYPHDISPLAY
280
     1
  9
$TILEMODELIGHTSYNCH
280
     1
  9
$CMATERIAL
347
21A3
  9
$SOLIDHIST
280
     1
  9
$SHOWHIST
280
     1
  9
$DWFFRAME
280
     2
  9
$DGNFRAME
280
     0
  9
$REALWORLDSCALE
290
     1
  9
$INTERFERECOLOR
 62
     1
  9
$INTERFEREOBJVS
345
21B0
  9
$INTERFEREVPVS
346
21AD
  9
$CSHADOW
280
     0
  9
$SHADOWPLANELOCATION
 40
0.0
  0
ENDSEC
  0
SECTION
  2
CLASSES
  0
CLASS
  1
ACDBDICTIONARYWDFLT
  2
AcDbDictionaryWithDefault
  3
ObjectDBX Classes
 90
        0
 91
        1
280
     0
281
     0
  0
CLASS
  1
MATERIAL
  2
AcDbMaterial
  3
ObjectDBX Classes
 90
     1024
 91
        3
280
     0
281
     0
  0
CLASS
  1
VISUALSTYLE
  2
AcDbVisualStyle
  3
ObjectDBX Classes
 90
     4095
 91
       16
280
     0
281
     0
  0
CLASS
  1
TABLESTYLE
  2
AcDbTableStyle
  3
ObjectDBX Classes
 90
     4095
 91
        1
280
     0
281
     0
  0
CLASS
  1
SORTENTSTABLE
  2
AcDbSortentsTable
  3
ObjectDBX Classes
 90
        0
 91
        1
280
     0
281
     0
  0
CLASS
  1
DICTIONARYVAR
  2
AcDbDictionaryVar
  3
ObjectDBX Classes
 90
        0
 91
        4
280
     0
281
     0
  0
CLASS
  1
EXACXREFPANELOBJECT
  2
ExAcXREFPanelObject
  3
EXAC_ESW
 90
     1025
 91
        0
280
     0
281
     0
  0
CLASS
  1
NPOCOLLECTION
  2
AcDbImpNonPersistentObjectsCollection
  3
ObjectDBX Classes
 90
     1153
 91
        0
280
     0
281
     0
  0
CLASS
  1
EXACTERMXREFMAP
  2
ExAcTermXrefMap
  3
EXAC_SERVICE
 90
     1025
 91
        0
280
     0
281
     0
  0
ENDSEC
  0
SECTION
  2
TABLES
  0
TABLE
  2
VPORT
  5
41E
102
{ACAD_XDICTIONARY
360
2ABA
102
}
330
0
100
AcDbSymbolTable
 70
     1
  0
VPORT
  5
21A0
330
41E
100
AcDbSymbolTableRecord
100
AcDbViewportTableRecord
  2
*Active
 70
     0
 10
0.0
 20
0.0
 11
1.0
 21
1.0
 12
508.1609434679312
 22
113.3583516815018
 13
0.0
 23
0.0
 14
1.0
 24
1.0
 15
0.0
 25
0.0
 16
0.0
 26
0.0
 36
1.0
 17
0.0
 27
0.0
 37
0.0
 40
264.702183724883
 41
2.150421179302045
 42
50.0
 43
0.0
 44
0.0
 50
0.0
 51
0.0
 71
     0
 72
   100
 73
     1
 74
     0
 75
     0
 76
     0
 77
     0
 78
     2
281
     0
 65
     1
110
0.0
120
0.0
130
0.0
111
1.0
121
0.0
131
0.0
112
0.0
122
1.0
132
0.0
 79
     0
146
0.0
348
21AC
 60
     3
 61
     5
292
     1
282
     1
141
0.0
142
0.0
 63
   250
421
  3355443
  0
ENDTAB
  0
TABLE
  2
LTYPE
  5
41B
330
0
100
AcDbSymbolTable
 70
     2
  0
LTYPE
  5
428
330
41B
100
AcDbSymbolTableRecord
100
AcDbLinetypeTableRecord
  2
BYBLOCK
 70
     0
  3

 72
    65
 73
     0
 40
0.0
  0
LTYPE
  5
429
330
41B
100
AcDbSymbolTableRecord
100
AcDbLinetypeTableRecord
  2
BYLAYER
 70
     0
  3

 72
    65
 73
     0
 40
0.0
  0
LTYPE
  5
42A
330
41B
100
AcDbSymbolTableRecord
100
AcDbLinetypeTableRecord
  2
CONTINUOUS
 70
     0
  3
Solid line
 72
    65
 73
     0
 40
0.0
  0
LTYPE
  5
20E6
330
41B
100
AcDbSymbolTableRecord
100
AcDbLinetypeTableRecord
  2
HIDDEN
 70
     0
  3
Hidden __ __ __ __ __ __ __ __ __ __ __ __ __ _
 72
    65
 73
     2
 40
0.375
 49
0.25
 74
     0
 49
-0.125
 74
     0
  0
ENDTAB
  0
TABLE
  2
LAYER
  5
418
330
0
100
AcDbSymbolTable
 70
     2
  0
LAYER
  5
425
330
418
100
AcDbSymbolTableRecord
100
AcDbLayerTableRecord
  2
0
 70
     0
 62
     7
  6
CONTINUOUS
370
    -3
390
1079
347
21A5
  0
LAYER
  5
457
330
418
100
AcDbSymbolTableRecord
100
AcDbLayerTableRecord
  2
DEFPOINTS
 70
     0
 62
     7
  6
CONTINUOUS
290
     0
370
    -3
390
1079
347
21A5
  0
ENDTAB
  0
TABLE
  2
STYLE
  5
419
330
0
100
AcDbSymbolTable
 70
     7
  0
STYLE
  5
426
330
419
100
AcDbSymbolTableRecord
100
AcDbTextStyleTableRecord
  2
STANDARD
 70
     0
 40
0.0
 41
1.0
 50
0.0
 71
     0
 42
0.2
  3
txt
  4

  0
STYLE
  5
44C
330
419
100
AcDbSymbolTableRecord
100
AcDbTextStyleTableRecord
  2
ROMANS
 70
     0
 40
0.0
 41
1.0
 50
0.0
 71
     0
 42
2.210999999999999
  3
romans
  4

  0
STYLE
  5
44D
330
419
100
AcDbSymbolTableRecord
100
AcDbTextStyleTableRecord
  2
ROMANC
 70
     0
 40
1.914299999999999
 41
1.0
 50
0.0
 71
     0
 42
2.210999999999999
  3
romanc
  4

  0
STYLE
  5
C87
330
419
100
AcDbSymbolTableRecord
100
AcDbTextStyleTableRecord
  2
STYLE1
 70
     0
 40
0.0
 41
1.0
 50
0.0
 71
     0
 42
3.0954
  3
C:\Program Files\AutoCAD LT\romanc.shx
  4

  0
STYLE
  5
27BC
330
419
100
AcDbSymbolTableRecord
100
AcDbTextStyleTableRecord
  2
CAT_BORDER$0$ROMANS
 70
     0
 40
0.0
 41
1.0
 50
0.0
 71
     0
 42
1.768799999999999
  3
romans
  4

  0
STYLE
  5
27BD
330
419
100
AcDbSymbolTableRecord
100
AcDbTextStyleTableRecord
  2
CAT_BORDER$0$STYLE1
 70
     0
 40
0.0
 41
1.0
 50
0.0
 71
     0
 42
3.0954
  3
C:\Program Files\AutoCAD LT\romanc.shx
  4

  0
ENDTAB
  0
TABLE
  2
VIEW
  5
41C
330
0
100
AcDbSymbolTable
 70
     0
  0
ENDTAB
  0
TABLE
  2
UCS
  5
41D
330
0
100
AcDbSymbolTable
 70
     0
  0
ENDTAB
  0
TABLE
  2
APPID
  5
41F
330
0
100
AcDbSymbolTable
 70
     2
  0
APPID
  5
427
330
41F
100
AcDbSymbolTableRecord
100
AcDbRegAppTableRecord
  2
ACAD
 70
     0
  0
APPID
  5
2258
330
41F
100
AcDbSymbolTableRecord
100
AcDbRegAppTableRecord
  2
ACAD_PSEXT
 70
     0
  0
ENDTAB
  0
TABLE
  2
DIMSTYLE
  5
420
330
0
100
AcDbSymbolTable
 70
     3
100
AcDbDimStyleTable
 71
     2
340
456
340
12BC
  0
DIMSTYLE
105
456
102
{ACAD_REACTORS
330
1713
102
}
330
420
100
AcDbSymbolTableRecord
100
AcDbDimStyleTableRecord
  2
STANDARD
 70
     0
 40
28.0
 41
0.0625
 43
0.375
 44
0.0625
 78
     3
140
0.0804
141
0.0625
147
0.0625
276
     2
277
     4
279
     2
284
     3
340
44C
  0
DIMSTYLE
105
12BC
102
{ACAD_REACTORS
330
1295
330
129D
330
12A2
330
12A6
330
35F
330
35D
330
34D
330
35E
330
1314
330
1325
330
2CF
330
2CE
330
131C
330
1321
330
12BE
330
12BD
330
34F
330
358
330
12C9
330
2B20
102
}
330
420
100
AcDbSymbolTableRecord
100
AcDbDimStyleTableRecord
  2
STANDARD$0
 70
     0
 40
18.0
 41
0.0625
 43
0.375
 44
0.0625
 78
     3
140
0.0804
141
0.0625
147
0.0625
276
     2
277
     4
279
     2
340
44C
  0
ENDTAB
  0
TABLE
  2
BLOCK_RECORD
  5
417
330
0
100
AcDbSymbolTable
 70
    27
  0
BLOCK_RECORD
  5
42E
102
{ACAD_XDICTIONARY
360
21C7
102
}
330
417
100
AcDbSymbolTableRecord
100
AcDbBlockTableRecord
  2
*MODEL_SPACE
340
107C
 70
     0
280
     1
281
     0
  0
BLOCK_RECORD
  5
42B
330
417
100
AcDbSymbolTableRecord
100
AcDbBlockTableRecord
  2
*PAPER_SPACE
340
107D
 70
     0
280
     1
281
     0
  0
BLOCK_RECORD
  5
44B
330
417
100
AcDbSymbolTableRecord
100
AcDbBlockTableRecord
  2
LINETYPE
340
0
102
{BLKREFS
331
382
331
CA5
102
}
 70
     0
280
     1
281
     0
  0
BLOCK_RECORD
  5
1088
330
417
100
AcDbSymbolTableRecord
100
AcDbBlockTableRecord
  2
border-T
340
0
102
{BLKREFS
331
28BC
102
}
 70
     0
280
     1
281
     0
  0
BLOCK_RECORD
  5
125E
330
417
100
AcDbSymbolTableRecord
100
AcDbBlockTableRecord
  2
*D2
340
0
 70
     0
280
     1
281
     0
  0
BLOCK_RECORD
  5
126B
330
417
100
AcDbSymbolTableRecord
100
AcDbBlockTableRecord
  2
*D3
340
0
 70
     0
280
     1
281
     0
  0
BLOCK_RECORD
  5
1278
330
417
100
AcDbSymbolTableRecord
100
AcDbBlockTableRecord
  2
*D4
340
0
 70
     0
280
     1
281
     0
  0
BLOCK_RECORD
  5
1285
330
417
100
AcDbSymbolTableRecord
100
AcDbBlockTableRecord
  2
*D5
340
0
 70
     0
280
     1
281
     0
  0
BLOCK_RECORD
  5
1292
330
417
100
AcDbSymbolTableRecord
100
AcDbBlockTableRecord
  2
NEWBKT-C
340
0
 70
     0
280
     1
281
     0
  0
BLOCK_RECORD
  5
12CD
330
417
100
AcDbSymbolTableRecord
100
AcDbBlockTableRecord
  2
*D7
340
0
 70
     0
280
     1
281
     0
  0
BLOCK_RECORD
  5
12DA
330
417
100
AcDbSymbolTableRecord
100
AcDbBlockTableRecord
  2
*D8
340
0
 70
     0
280
     1
281
     0
  0
BLOCK_RECORD
  5
12E7
330
417
100
AcDbSymbolTableRecord
100
AcDbBlockTableRecord
  2
*D9
340
0
 70
     0
280
     1
281
     0
  0
BLOCK_RECORD
  5
1339
330
417
100
AcDbSymbolTableRecord
100
AcDbBlockTableRecord
  2
*D10
340
0
 70
     0
280
     1
281
     0
  0
BLOCK_RECORD
  5
1346
330
417
100
AcDbSymbolTableRecord
100
AcDbBlockTableRecord
  2
*D11
340
0
 70
     0
280
     1
281
     0
  0
BLOCK_RECORD
  5
1353
330
417
100
AcDbSymbolTableRecord
100
AcDbBlockTableRecord
  2
*D12
340
0
 70
     0
280
     1
281
     0
  0
BLOCK_RECORD
  5
1360
330
417
100
AcDbSymbolTableRecord
100
AcDbBlockTableRecord
  2
*D13
340
0
 70
     0
280
     1
281
     0
  0
BLOCK_RECORD
  5
1484
330
417
100
AcDbSymbolTableRecord
100
AcDbBlockTableRecord
  2
*D14
340
0
 70
     0
280
     1
281
     0
  0
BLOCK_RECORD
  5
1491
330
417
100
AcDbSymbolTableRecord
100
AcDbBlockTableRecord
  2
*D15
340
0
 70
     0
280
     1
281
     0
  0
BLOCK_RECORD
  5
149E
330
417
100
AcDbSymbolTableRecord
100
AcDbBlockTableRecord
  2
*D16
340
0
 70
     0
280
     1
281
     0
  0
BLOCK_RECORD
  5
14AA
330
417
100
AcDbSymbolTableRecord
100
AcDbBlockTableRecord
  2
*D17
340
0
 70
     0
280
     1
281
     0
  0
BLOCK_RECORD
  5
14CA
330
417
100
AcDbSymbolTableRecord
100
AcDbBlockTableRecord
  2
*D18
340
0
 70
     0
280
     1
281
     0
  0
BLOCK_RECORD
  5
14FE
330
417
100
AcDbSymbolTableRecord
100
AcDbBlockTableRecord
  2
*D19
340
0
 70
     0
280
     1
281
     0
  0
BLOCK_RECORD
  5
150B
330
417
100
AcDbSymbolTableRecord
100
AcDbBlockTableRecord
  2
*D20
340
0
 70
     0
280
     1
281
     0
  0
BLOCK_RECORD
  5
1518
330
417
100
AcDbSymbolTableRecord
100
AcDbBlockTableRecord
  2
*D21
340
0
 70
     0
280
     1
281
     0
  0
BLOCK_RECORD
  5
20E7
330
417
100
AcDbSymbolTableRecord
100
AcDbBlockTableRecord
  2
Ldr-trd
340
0
102
{BLKREFS
331
20EB
331
20EC
331
20ED
331
20EE
331
20EF
331
20F0
331
20F1
331
20F2
331
20F3
331
20F4
331
20F5
331
20F6
331
20F7
331
20F8
331
20F9
331
20FA
331
20FB
331
20FC
331
20FD
331
20FE
102
}
 70
     0
280
     1
281
     0
  0
BLOCK_RECORD
  5
227D
330
417
100
AcDbSymbolTableRecord
100
AcDbBlockTableRecord
  2
A$C18BE6784
340
0
 70
     0
280
     1
281
     0
  0
BLOCK_RECORD
  5
256F
330
417
100
AcDbSymbolTableRecord
100
AcDbBlockTableRecord
  2
*X24
340
0
102
{BLKREFS
331
2857
102
}
 70
     0
280
     1
281
     0
  0
BLOCK_RECORD
  5
2B21
330
417
100
AcDbSymbolTableRecord
100
AcDbBlockTableRecord
  2
*D25
340
0
 70
     0
280
     1
281
     0
  0
ENDTAB
  0
ENDSEC
  0
SECTION
  2
BLOCKS
  0
BLOCK
  5
45A
330
42E
100
AcDbEntity
  8
0
100
AcDbBlockBegin
  2
*MODEL_SPACE
 70
     0
 10
0.0
 20
0.0
 30
0.0
  3
*MODEL_SPACE
  1

  0
ENDBLK
  5
45B
330
42E
100
AcDbEntity
  8
0
100
AcDbBlockEnd
  0
BLOCK
  5
458
330
42B
100
AcDbEntity
 67
     1
  8
0
100
AcDbBlockBegin
  2
*PAPER_SPACE
 70
     0
 10
0.0
 20
0.0
 30
0.0
  3
*PAPER_SPACE
  1

  0
ENDBLK
  5
459
330
42B
100
AcDbEntity
 67
     1
  8
0
100
AcDbBlockEnd
  0
BLOCK
  5
210
330
44B
100
AcDbEntity
  8
0
100
AcDbBlockBegin
  2
LINETYPE
 70
     0
 10
0.0
 20
0.0
 30
0.0
  3
LINETYPE
  1

  0
ENDBLK
  5
211
330
44B
100
AcDbEntity
  8
0
100
AcDbBlockEnd
  0
BLOCK
  5
1097
330
1088
100
AcDbEntity
  8
0
100
AcDbBlockBegin
  2
border-T
 70
     2
 10
0.0
 20
0.0
 30
0.0
  3
border-T
  1

  0
ATTDEF
  5
1089
330
1088
100
AcDbEntity
  8
0
 62
     5
100
AcDbText
 10
1.270598029493498
 20
16.95296065185261
 30
0.0
 40
2.25
  1

  7
ROMANS
100
AcDbAttributeDefinition
  3
SCALE
  2
SCALE
 70
     0
280
     0
  0
ATTDEF
  5
108A
330
1088
100
AcDbEntity
  8
0
100
AcDbText
 10
267.5431072019895
 20
17.84606723821125
 30
0.0
 40
1.7518359375
  1

  7
ROMANS
 72
     4
 11
267.5431072019895
 21
17.84606723821125
 31
0.0
100
AcDbAttributeDefinition
  3
SAVED AS
  2
SAVEDAS
 70
     0
280
     0
  0
ATTDEF
  5
108B
330
1088
100
AcDbEntity
  8
0
 62
     5
100
AcDbText
 10
65.77232295450201
 20
13.4910955979239
 30
0.0
 40
1.248161764705882
  1

 50
90.0
  7
ROMANS
 72
     4
 11
65.77232295450201
 21
13.4910955979239
 31
0.0
100
AcDbAttributeDefinition
  3
WORK ORDER (X)
  2
X
 70
     0
280
     0
  0
ATTDEF
  5
108C
330
1088
100
AcDbEntity
  8
0
100
AcDbText
 10
120.7768196578975
 20
11.16830391662092
 30
0.0
 40
1.769029714285714
  1

  7
ROMANS
 72
     1
 11
120.7768196578975
 21
11.16830391662092
 31
0.0
100
AcDbAttributeDefinition
  3
ARCHITECT OR ENGINEER
  2
ARCHORENG
 70
     0
280
     0
  0
ATTDEF
  5
108D
330
1088
100
AcDbEntity
  8
0
100
AcDbText
 10
120.7768196578975
 20
6.014881478758579
 30
0.0
 40
1.769029714285714
  1

  7
ROMANS
 72
     1
 11
120.7768196578975
 21
6.014881478758579
 31
0.0
100
AcDbAttributeDefinition
  3
PURCHASE ORDER
  2
PURCHASEORDER
 70
     0
280
     0
  0
ATTDEF
  5
108E
330
1088
100
AcDbEntity
  8
0
100
AcDbText
 10
118.4602331272852
 20
0.8614590408961362
 30
0.0
 40
1.769029714285714
  1
JEB
  7
ROMANS
 72
     1
 11
120.7768196578975
 21
0.8614590408961362
 31
0.0
100
AcDbAttributeDefinition
  3
WHO ARE YOU?
  2
DRAWNBY
 70
     0
280
     0
  0
ATTDEF
  5
108F
330
1088
100
AcDbEntity
  8
0
100
AcDbText
 10
151.0307482293261
 20
6.014881478758579
 30
0.0
 40
1.769029714285714
  1

  7
ROMANS
 72
     1
 11
151.0307482293261
 21
6.014881478758579
 31
0.0
100
AcDbAttributeDefinition
  3
WORK ORDER DATE?
  2
DATE
 70
     0
280
     0
  0
ATTDEF
  5
1090
330
1088
100
AcDbEntity
  8
0
100
AcDbText
 10
151.0307482293261
 20
0.8614590408961362
 30
0.0
 40
1.769029714285714
  1

  7
ROMANS
 72
     1
 11
151.0307482293261
 21
0.8614590408961362
 31
0.0
100
AcDbAttributeDefinition
  3
WHAT IS TODAY'S DATE?
  2
DATE
 70
     0
280
     0
  0
ATTDEF
  5
1091
330
1088
100
AcDbEntity
  8
0
100
AcDbText
 10
181.2846768007546
 20
11.16830391662092
 30
0.0
 40
1.769029714285714
  1

  7
ROMANS
 72
     1
 11
181.2846768007546
 21
11.16830391662092
 31
0.0
100
AcDbAttributeDefinition
  3
PROJECT
  2
PROJECT
 70
     0
280
     0
  0
ATTDEF
  5
1092
330
1088
100
AcDbEntity
  8
0
100
AcDbText
 10
189.535748229326
 20
6.014881478758579
 30
0.0
 40
1.769029714285714
  1

  7
ROMANS
 72
     1
 11
189.535748229326
 21
6.014881478758579
 31
0.0
100
AcDbAttributeDefinition
  3
PURCHASER
  2
PURCHASER
 70
     0
280
     0
  0
ATTDEF
  5
1093
330
1088
100
AcDbEntity
  8
0
100
AcDbText
 10
184.0350339436118
 20
0.8614590408962374
 30
0.0
 40
1.769029714285714
  1

  7
ROMANS
 72
     1
 11
184.0350339436118
 21
0.8614590408962374
 31
0.0
100
AcDbAttributeDefinition
  3
MODEL #
  2
MODEL
 70
     0
280
     0
  0
ATTDEF
  5
1094
330
1088
100
AcDbEntity
  8
0
100
AcDbText
 10
213.5729266783056
 20
0.8614590408961362
 30
0.0
 40
1.769029714285714
  1
1
  7
ROMANS
 72
     1
 11
214.2889625150403
 21
0.8614590408961362
 31
0.0
100
AcDbAttributeDefinition
  3
QUANTITY
  2
QTY
 70
     0
280
     0
  0
ATTDEF
  5
1095
330
1088
100
AcDbEntity
  8
0
100
AcDbText
 10
247.2932482293261
 20
11.16763472788734
 30
0.0
 40
1.769029714285714
  1

  7
ROMANS
 72
     1
 11
247.2932482293261
 21
11.16763472788734
 31
0.0
100
AcDbAttributeDefinition
  3
PRECISION REP
  2
REP
 70
     0
280
     0
  0
ATTDEF
  5
1096
330
1088
100
AcDbEntity
  8
0
100
AcDbText
 10
247.3274175489777
 20
3.153238685427304
 30
0.0
 40
3.455136160714285
  1

  7
ROMANS
 72
     1
 11
247.3274175489777
 21
3.153238685427304
 31
0.0
100
AcDbAttributeDefinition
  3
SERIAL #
  2
L010000
 70
     0
280
     0
  0
ENDBLK
  5
1098
330
1088
100
AcDbEntity
  8
0
100
AcDbBlockEnd
  0
BLOCK
  5
1269
330
125E
100
AcDbEntity
  8
0
100
AcDbBlockBegin
  2
*D2
 70
     1
 10
0.0
 20
0.0
 30
0.0
  3
*D2
  1

  0
LINE
  5
125F
330
125E
100
AcDbEntity
  8
0
 62
     0
370
    -2
100
AcDbLine
 10
143.4908392324766
 20
55.65919151270844
 30
0.0
 11
146.7048467760861
 21
57.51479963318884
 31
0.0
  0
LINE
  5
1260
330
125E
100
AcDbEntity
  8
0
 62
     0
370
    -2
100
AcDbLine
 10
159.4556603157637
 20
46.44189776270847
 30
0.0
 11
162.6696678593732
 21
48.29750588318887
 31
0.0
  0
LINE
  5
1261
330
125E
100
AcDbEntity
  8
0
 62
     0
370
    -2
100
AcDbLine
 10
146.5541253553436
 20
56.30278058035051
 30
0.0
 11
149.7038914516232
 21
54.48426227677909
 31
0.0
  0
LINE
  5
1262
330
125E
100
AcDbEntity
  8
0
 62
     0
370
    -2
100
AcDbLine
 10
160.5703892801157
 20
48.21048683035054
 30
0.0
 11
157.420623183836
 21
50.02900513392195
 31
0.0
  0
SOLID
  5
1263
330
125E
100
AcDbEntity
  8
0
 62
     0
100
AcDbTrace
 10
146.6478753553436
 20
56.46516034356009
 30
0.0
 11
146.4603753553436
 21
56.14040081714093
 31
0.0
 12
145.5798467760861
 22
56.86528058035051
 32
0.0
 13
145.5798467760861
 23
56.86528058035051
 33
0.0
  0
SOLID
  5
1264
330
125E
100
AcDbEntity
  8
0
 62
     0
100
AcDbTrace
 10
160.6641392801157
 20
48.37286659356013
 30
0.0
 11
160.4766392801157
 21
48.04810706714096
 31
0.0
 12
161.5446678593732
 22
47.64798683035055
 32
0.0
 13
161.5446678593732
 23
47.64798683035055
 33
0.0
  0
MTEXT
  5
1265
330
125E
100
AcDbEntity
  8
0
 62
     0
100
AcDbMText
 10
153.5622573177296
 20
52.25663370535054
 30
0.0
 40
1.4472
 41
0.0
 46
0.0
 71
     5
 72
     1
  1
\A1;8-1/2"
  7
ROMANS
 73
     1
 44
1.0
  0
POINT
  5
1266
330
125E
100
AcDbEntity
  8
DEFPOINTS
 62
     0
100
AcDbPoint
 10
142.3658392324766
 20
55.00967245987011
 30
0.0
  0
POINT
  5
1267
330
125E
100
AcDbEntity
  8
DEFPOINTS
 62
     0
100
AcDbPoint
 10
158.3306603157637
 20
45.79237870987014
 30
0.0
  0
POINT
  5
1268
330
125E
100
AcDbEntity
  8
DEFPOINTS
 62
     0
100
AcDbPoint
 10
161.5446678593732
 20
47.64798683035055
 30
0.0
  0
ENDBLK
  5
126A
330
125E
100
AcDbEntity
  8
0
100
AcDbBlockEnd
  0
BLOCK
  5
1276
330
126B
100
AcDbEntity
  8
0
100
AcDbBlockBegin
  2
*D3
 70
     1
 10
0.0
 20
0.0
 30
0.0
  3
*D3
  1

  0
LINE
  5
126C
330
126B
100
AcDbEntity
  8
0
 62
     0
370
    -2
100
AcDbLine
 10
135.3225358133794
 20
42.59566247919347
 30
0.0
 11
135.3225358133794
 21
40.65562540495402
 31
0.0
  0
LINE
  5
126D
330
126B
100
AcDbEntity
  8
0
 62
     0
370
    -2
100
AcDbLine
 10
134.8529822521063
 20
42.86675935419347
 30
0.0
 11
134.8529822521063
 21
40.92672227995403
 31
0.0
  0
LINE
  5
126E
330
126B
100
AcDbEntity
  8
0
 62
     0
370
    -2
100
AcDbLine
 10
136.2968143926369
 20
41.39216351063065
 30
0.0
 11
137.2710929718944
 21
40.82966351063062
 31
0.0
  0
LINE
  5
126F
330
126B
100
AcDbEntity
  8
0
 62
     0
370
    -2
100
AcDbLine
 10
133.8787036728488
 20
42.78826038563071
 30
0.0
 11
132.9044250935913
 21
43.35076038563073
 31
0.0
  0
MTEXT
  5
1270
330
126B
100
AcDbEntity
  8
0
 62
     0
100
AcDbMText
 10
130.3463461189406
 20
43.50894689503458
 30
0.0
 40
1.4472
 41
0.0
 46
0.0
 71
     5
 72
     1
  1
\A1;1/4"
  7
ROMANS
 73
     1
 44
1.0
  0
SOLID
  5
1271
330
126B
100
AcDbEntity
  8
0
 62
     0
100
AcDbTrace
 10
136.3905643926369
 20
41.55454327384023
 30
0.0
 11
136.2030643926369
 21
41.22978374742107
 31
0.0
 12
135.3225358133794
 22
41.95466351063068
 32
0.0
 13
135.3225358133794
 23
41.95466351063068
 33
0.0
  0
SOLID
  5
1272
330
126B
100
AcDbEntity
  8
0
 62
     0
100
AcDbTrace
 10
133.9724536728488
 20
42.95064014884029
 30
0.0
 11
133.7849536728488
 21
42.62588062242113
 31
0.0
 12
134.8529822521063
 22
42.22576038563068
 32
0.0
 13
134.8529822521063
 23
42.22576038563068
 33
0.0
  0
POINT
  5
1273
330
126B
100
AcDbEntity
  8
DEFPOINTS
 62
     0
100
AcDbPoint
 10
135.3225358133795
 20
43.89470058487013
 30
0.0
  0
POINT
  5
1274
330
126B
100
AcDbEntity
  8
DEFPOINTS
 62
     0
100
AcDbPoint
 10
134.8529822521063
 20
44.16579745987013
 30
0.0
  0
POINT
  5
1275
330
126B
100
AcDbEntity
  8
DEFPOINTS
 62
     0
100
AcDbPoint
 10
134.8529822521063
 20
42.22576038563068
 30
0.0
  0
ENDBLK
  5
1277
330
126B
100
AcDbEntity
  8
0
100
AcDbBlockEnd
  0
BLOCK
  5
1283
330
1278
100
AcDbEntity
  8
0
100
AcDbBlockBegin
  2
*D4
 70
     1
 10
0.0
 20
0.0
 30
0.0
  3
*D4
  1

  0
LINE
  5
1279
330
1278
100
AcDbEntity
  8
0
 62
     0
370
    -2
100
AcDbLine
 10
141.2408392324767
 20
55.65919151270843
 30
0.0
 11
139.2544978268227
 21
56.80600625796522
 31
0.0
  0
LINE
  5
127A
330
1278
100
AcDbEntity
  8
0
 62
     0
370
    -2
100
AcDbLine
 10
133.7279822521063
 20
51.32164151270846
 30
0.0
 11
131.7416408464524
 21
52.46845625796524
 31
0.0
  0
LINE
  5
127B
330
1278
100
AcDbEntity
  8
0
 62
     0
370
    -2
100
AcDbLine
 10
141.3537764060802
 20
56.71898720512689
 30
0.0
 11
142.3280549853377
 21
57.28148720512688
 31
0.0
  0
LINE
  5
127C
330
1278
100
AcDbEntity
  8
0
 62
     0
370
    -2
100
AcDbLine
 10
131.8923622671949
 20
51.25643720512691
 30
0.0
 11
130.9180836879374
 21
50.69393720512691
 31
0.0
  0
MTEXT
  5
127D
330
1278
100
AcDbEntity
  8
0
 62
     0
100
AcDbMText
 10
135.2863305183877
 20
54.28614125172661
 30
0.0
 40
1.4472
 41
0.0
 46
0.0
 71
     5
 72
     1
  1
\A1;4-1/2"
  7
ROMANS
 73
     1
 44
1.0
  0
SOLID
  5
127E
330
1278
100
AcDbEntity
  8
0
 62
     0
100
AcDbTrace
 10
141.2600264060802
 20
56.88136696833646
 30
0.0
 11
141.4475264060802
 21
56.5566074419173
 31
0.0
 12
140.3794978268227
 22
56.15648720512687
 32
0.0
 13
140.3794978268227
 23
56.15648720512687
 33
0.0
  0
SOLID
  5
127F
330
1278
100
AcDbEntity
  8
0
 62
     0
100
AcDbTrace
 10
131.7986122671949
 20
51.41881696833649
 30
0.0
 11
131.9861122671949
 21
51.09405744191732
 31
0.0
 12
132.8666408464524
 22
51.8189372051269
 32
0.0
 13
132.8666408464524
 23
51.8189372051269
 33
0.0
  0
POINT
  5
1280
330
1278
100
AcDbEntity
  8
DEFPOINTS
 62
     0
100
AcDbPoint
 10
142.3658392324766
 20
55.00967245987009
 30
0.0
  0
POINT
  5
1281
330
1278
100
AcDbEntity
  8
DEFPOINTS
 62
     0
100
AcDbPoint
 10
134.8529822521063
 20
50.67212245987012
 30
0.0
  0
POINT
  5
1282
330
1278
100
AcDbEntity
  8
DEFPOINTS
 62
     0
100
AcDbPoint
 10
132.8666408464524
 20
51.8189372051269
 30
0.0
  0
ENDBLK
  5
1284
330
1278
100
AcDbEntity
  8
0
100
AcDbBlockEnd
  0
BLOCK
  5
1290
330
1285
100
AcDbEntity
  8
0
 62
     7
100
AcDbBlockBegin
  2
*D5
 70
     1
 10
0.0
 20
0.0
 30
0.0
  3
*D5
  1

  0
LINE
  5
1286
330
1285
100
AcDbEntity
  8
0
 62
     0
370
    -2
100
AcDbLine
 10
159.4556603157637
 20
46.44189776270846
 30
0.0
 11
162.6696678593732
 21
48.29750588318885
 31
0.0
  0
LINE
  5
1287
330
1285
100
AcDbEntity
  8
0
 62
     0
370
    -2
100
AcDbLine
 10
159.4556603157637
 20
39.93557276270846
 30
0.0
 11
162.6696678593732
 21
41.79118088318885
 31
0.0
  0
LINE
  5
1288
330
1285
100
AcDbEntity
  8
0
 62
     0
370
    -2
100
AcDbLine
 10
161.5446678593732
 20
48.77298683035053
 30
0.0
 11
161.5446678593732
 21
49.89798683035052
 31
0.0
  0
LINE
  5
1289
330
1285
100
AcDbEntity
  8
0
 62
     0
370
    -2
100
AcDbLine
 10
161.5446678593732
 20
40.01666183035052
 30
0.0
 11
161.5446678593732
 21
38.89166183035052
 31
0.0
  0
MTEXT
  5
128A
330
1285
100
AcDbEntity
  8
0
 62
     0
100
AcDbMText
 10
161.9184358716045
 20
43.96342964808081
 30
0.0
 40
1.4472
 41
0.0
 46
0.0
 71
     5
 72
     1
  1
\A1;3"
  7
ROMANS
 73
     1
 44
1.0
  0
SOLID
  5
128B
330
1285
100
AcDbEntity
  8
0
 62
     0
100
AcDbTrace
 10
161.3571678593732
 20
48.77298683035053
 30
0.0
 11
161.7321678593732
 21
48.77298683035053
 31
0.0
 12
161.5446678593732
 22
47.64798683035052
 32
0.0
 13
161.5446678593732
 23
47.64798683035052
 33
0.0
  0
SOLID
  5
128C
330
1285
100
AcDbEntity
  8
0
 62
     0
100
AcDbTrace
 10
161.3571678593732
 20
40.01666183035052
 30
0.0
 11
161.7321678593732
 21
40.01666183035052
 31
0.0
 12
161.5446678593732
 22
41.14166183035051
 32
0.0
 13
161.5446678593732
 23
41.14166183035051
 33
0.0
  0
POINT
  5
128D
330
1285
100
AcDbEntity
  8
DEFPOINTS
 62
     0
100
AcDbPoint
 10
158.3306603157637
 20
45.79237870987014
 30
0.0
  0
POINT
  5
128E
330
1285
100
AcDbEntity
  8
DEFPOINTS
 62
     0
100
AcDbPoint
 10
158.3306603157637
 20
39.28605370987013
 30
0.0
  0
POINT
  5
128F
330
1285
100
AcDbEntity
  8
DEFPOINTS
 62
     0
100
AcDbPoint
 10
161.5446678593732
 20
41.14166183035051
 30
0.0
  0
ENDBLK
  5
1291
330
1285
100
AcDbEntity
  8
0
 62
     7
100
AcDbBlockEnd
  0
BLOCK
  5
12BA
330
1292
100
AcDbEntity
  8
0
 62
     7
100
AcDbBlockBegin
  2
NEWBKT-C
 70
     0
 10
0.0
 20
0.0
 30
0.0
  3
NEWBKT-C
  1

  0
LINE
  5
1293
330
1292
100
AcDbEntity
  8
0
 62
     7
100
AcDbLine
 10
-39.40031931969298
 20
36.15604266011621
 30
0.0
 11
-32.35701590059577
 21
40.22249578511616
 31
0.0
  0
LINE
  5
1294
330
1292
100
AcDbEntity
  8
0
 62
     7
100
AcDbLine
 10
-39.86987288096609
 20
36.42713953511621
 30
0.0
 11
-32.35701590059577
 21
40.76468953511617
 31
0.0
  0
DIMENSION
  5
1295
330
1292
100
AcDbEntity
  8
0
 62
     7
100
AcDbDimension
  2
*D4
 10
-41.85621428662005
 20
37.57395428037297
 30
0.0
 11
-39.43652461468474
 21
40.04115832697268
 31
0.0
 12
-174.7228551330725
 22
-14.24498292475394
 32
0.0
 70
   129
  1
4-1/2"
 71
     5
 42
8.675099999999929
 73
     0
 74
     0
 75
     0
  3
STANDARD$0
100
AcDbAlignedDimension
 13
-32.3570159005958
 23
40.76468953511616
 33
0.0
 14
-39.86987288096612
 24
36.4271395351162
 34
0.0
  0
TEXT
  5
1296
330
1292
100
AcDbEntity
  8
0
 62
     7
100
AcDbText
 10
-38.62979902755895
 20
23.60824149392302
 30
0.0
 40
1.09603692
  1
%%C9/16"
  7
ROMANS
 72
     2
 11
-32.73207655327323
 21
24.15625995392302
 31
0.0
100
AcDbText
 73
     2
  0
LINE
  5
1297
330
1292
100
AcDbEntity
  8
0
 62
     7
100
AcDbLine
 10
-39.40031931969298
 20
29.64971766011622
 30
0.0
 11
-32.35701590059577
 21
33.71617078511618
 31
0.0
  0
LEADER
  5
1298
330
1292
100
AcDbEntity
  8
0
 62
     7
100
AcDbLeader
  3
STANDARD
 73
     0
 40
1.4472
 41
1.4472
 76
     3
 10
-35.67776426924317
 20
34.62078583355693
 30
0.0
 10
-30.40543120343418
 20
24.2482308223235
 30
0.0
 10
-34.73685448573085
 20
24.2482308223235
 30
0.0
340
1299
213
0.0
223
-0.6300796045167207
233
0.0
1001
ACAD
1000
DSTYLE
1002
{
1070
   147
1040
0.0625
1070
    77
1070
     0
1002
}
  0
MTEXT
  5
1299
102
{ACAD_REACTORS
330
1298
102
}
330
1292
100
AcDbEntity
  8
0
 62
     7
100
AcDbMText
 10
-35.86185448573085
 20
24.87831042684022
 30
0.0
 40
1.4472
 41
0.0
 46
0.0
 71
     9
 72
     1
  1
 
  7
ROMANS
 73
     1
 44
1.0
  0
TEXT
  5
129A
330
1292
100
AcDbEntity
  8
0
 62
     5
100
AcDbText
 10
-39.55500425680043
 20
18.90448522029914
 30
0.0
 40
1.8267282
  1
BRACKET DETAIL
  7
ROMANS
 72
     1
 11
-28.246686828229
 21
18.90448522029914
 31
0.0
100
AcDbText
  0
LINE
  5
129B
330
1292
100
AcDbEntity
  8
0
 62
     7
100
AcDbLine
 10
-39.40031931969298
 20
29.64971766011622
 30
0.0
 11
-39.40031931969298
 21
36.15604266011621
 31
0.0
  0
LINE
  5
129C
330
1292
100
AcDbEntity
  8
0
 62
     7
100
AcDbLine
 10
-39.86987288096609
 20
29.92081453511621
 30
0.0
 11
-39.86987288096609
 21
36.42713953511621
 31
0.0
  0
DIMENSION
  5
129D
330
1292
100
AcDbEntity
  8
0
 62
     7
100
AcDbDimension
  2
*D3
 10
-39.86987288096614
 20
27.98077746087675
 30
0.0
 11
-44.37650901413189
 21
29.26396397028064
 31
0.0
 12
-174.7228551330725
 22
-14.24498292475394
 32
0.0
 70
   129
  1
1/4"
 71
     5
 42
0.5421937499999956
 73
     0
 74
     0
 75
     0
  3
STANDARD$0
100
AcDbAlignedDimension
 13
-39.40031931969298
 23
29.6497176601162
 33
0.0
 14
-39.86987288096612
 24
29.92081453511621
 34
0.0
  0
LINE
  5
129E
330
1292
100
AcDbEntity
  8
0
 62
     7
100
AcDbLine
 10
-39.40031931969298
 20
29.64971766011622
 30
0.0
 11
-39.86987288096609
 21
29.92081453511621
 31
0.0
  0
LINE
  5
129F
330
1292
100
AcDbEntity
  8
0
 62
     7
100
AcDbLine
 10
-39.40031931969298
 20
36.15604266011621
 30
0.0
 11
-39.86987288096609
 21
36.42713953511621
 31
0.0
  0
LWPOLYLINE
  5
12A0
330
1292
100
AcDbEntity
  8
0
 62
     7
100
AcDbPolyline
 90
        7
 70
     0
 43
0.0
 10
-36.57603567343614
 20
34.46975284652791
 42
0.0283695723264663
 10
-36.52084540123616
 20
34.49757098331179
 42
0.0723410840577375
 10
-36.32792984393791
 20
34.64979131365574
 42
0.0587518675353654
 10
-36.14731783051627
 20
34.89188270855694
 42
0.0587518675353444
 10
-36.02796653920498
 20
35.16934299785935
 42
0.0723410840576672
 10
-35.99259764480379
 20
35.4125229364368
 42
0.0283695723264929
 10
-35.99610156776302
 20
35.47422818259565
 42
0.1568512196709102
  0
LWPOLYLINE
  5
12A1
330
1292
100
AcDbEntity
  8
0
 62
     7
100
AcDbPolyline
 90
       16
 70
     1
 43
0.0
 10
-36.4248194106828
 20
35.05209832056663
 42
0.0587518675353646
 10
-36.54417070199412
 20
34.77463803126421
 42
0.0723410840576763
 10
-36.57953959639531
 20
34.53145809268678
 42
0.106617054391126
 10
-36.53107959841106
 20
34.3067794802983
 42
0.1568512196706424
 10
-36.4248194106828
 20
34.18947334654722
 42
0.1568512196706761
 10
-36.27009922497041
 20
34.15610239143923
 42
0.1066170543910004
 10
-36.051291839963
 20
34.22647410831179
 42
0.0723410840577375
 10
-35.85837628266475
 20
34.37869443865576
 42
0.0587518675353654
 10
-35.67776426924317
 20
34.62078583355693
 42
0.0587518675353444
 10
-35.55841297793185
 20
34.89824612285933
 42
0.0723410840576672
 10
-35.52304408353069
 20
35.14142606143678
 42
0.1066170543911832
 10
-35.57150408151489
 20
35.36610467382515
 42
0.1568512196709102
 10
-35.67776426924317
 20
35.48341080757636
 42
0.1568512196706761
 10
-35.83248445495559
 20
35.51678176268432
 42
0.1066170543910004
 10
-36.051291839963
 20
35.44641004581179
 42
0.0723410840577166
 10
-36.24420739726114
 20
35.29418971546788
 42
0.0587518675353862
  0
DIMENSION
  5
12A2
330
1292
100
AcDbEntity
  8
0
 62
     7
100
AcDbDimension
  2
*D5
 10
-13.17818727369928
 20
26.89667890559658
 30
0.0
 11
-12.80441926146792
 21
29.71844672332688
 31
0.0
 12
-174.7228551330725
 22
-14.24498292475394
 32
0.0
 70
   129
  1
3"
 71
     5
 42
6.506325000000003
 73
     0
 74
     0
 75
     0
  3
STANDARD$0
100
AcDbAlignedDimension
 13
-16.3921948173087
 23
31.5473957851162
 33
0.0
 14
-16.3921948173087
 24
25.0410707851162
 34
0.0
  0
LINE
  5
12A3
330
1292
100
AcDbEntity
  8
0
 62
     7
100
AcDbLine
 10
-16.86174837858184
 20
31.27629891011619
 30
0.0
 11
-32.35701590059577
 21
40.22249578511616
 31
0.0
  0
LINE
  5
12A4
330
1292
100
AcDbEntity
  8
0
 62
     7
100
AcDbLine
 10
-16.3921948173087
 20
31.5473957851162
 30
0.0
 11
-32.35701590059577
 21
40.76468953511617
 31
0.0
  0
LINE
  5
12A5
330
1292
100
AcDbEntity
  8
0
 62
     7
100
AcDbLine
 10
-16.86174837858184
 20
24.7699739101162
 30
0.0
 11
-32.35701590059577
 21
33.71617078511618
 31
0.0
  0
DIMENSION
  5
12A6
330
1292
100
AcDbEntity
  8
0
 62
     7
100
AcDbDimension
  2
*D2
 10
-13.17818727369928
 20
33.40300390559661
 30
0.0
 11
-21.16059781534284
 21
38.0116507805966
 31
0.0
 12
-174.7228551330725
 22
-14.24498292475394
 32
0.0
 70
     1
  1
8-1/2"
 71
     5
 42
18.4345875
 73
     0
 74
     0
 75
     0
  3
STANDARD$0
100
AcDbAlignedDimension
 13
-32.3570159005958
 23
40.76468953511617
 33
0.0
 14
-16.3921948173087
 24
31.54739578511621
 34
0.0
  0
LINE
  5
12A7
330
1292
100
AcDbEntity
  8
0
 62
     7
100
AcDbLine
 10
-16.3921948173087
 20
25.0410707851162
 30
0.0
 11
-16.3921948173087
 21
31.5473957851162
 31
0.0
  0
LINE
  5
12A8
330
1292
100
AcDbEntity
  8
0
 62
     7
100
AcDbLine
 10
-16.86174837858184
 20
24.7699739101162
 30
0.0
 11
-16.86174837858184
 21
31.27629891011619
 31
0.0
  0
LINE
  5
12A9
330
1292
100
AcDbEntity
  8
0
 62
     7
100
AcDbLine
 10
-16.86174837858184
 20
24.7699739101162
 30
0.0
 11
-16.3921948173087
 21
25.0410707851162
 31
0.0
  0
LINE
  5
12AA
330
1292
100
AcDbEntity
  8
0
 62
     7
100
AcDbLine
 10
-16.86174837858184
 20
31.27629891011619
 30
0.0
 11
-16.3921948173087
 21
31.5473957851162
 31
0.0
  0
LINE
  5
12AB
330
1292
100
AcDbEntity
  8
0
 62
     7
100
AcDbLine
 10
-32.35701590059577
 20
40.22249578511616
 30
0.0
 11
-32.35701590059577
 21
33.71617078511618
 31
0.0
  0
LINE
  5
12AC
330
1292
100
AcDbEntity
  8
0
 62
     7
100
AcDbLine
 10
-77.29163092573151
 20
20.83356115786182
 30
0.0
 11
-77.29163092573151
 21
23.83356115786182
 31
0.0
  0
LINE
  5
12AD
330
1292
100
AcDbEntity
  8
0
 62
     7
100
AcDbLine
 10
-74.10413092573151
 20
20.83356115786181
 30
0.0
 11
-77.29163092573151
 21
20.83356115786182
 31
0.0
  0
LINE
  5
12AE
330
1292
100
AcDbEntity
  8
0
 62
     7
100
AcDbLine
 10
-74.10413092573151
 20
23.83356115786181
 30
0.0
 11
-77.29163092573151
 21
23.83356115786182
 31
0.0
  0
CIRCLE
  5
12AF
330
1292
100
AcDbEntity
  8
0
 62
     7
100
AcDbCircle
 10
-75.04163092573151
 20
22.33356115786182
 30
0.0
 40
0.28125
  0
LINE
  5
12B0
330
1292
100
AcDbEntity
  8
0
 62
     7
100
AcDbLine
 10
-72.79163092573151
 20
20.83356115786181
 30
0.0
 11
-72.79163092573151
 21
23.83356115786181
 31
0.0
  0
LINE
  5
12B1
330
1292
100
AcDbEntity
  8
0
 62
     7
100
AcDbLine
 10
-72.79163092573151
 20
20.83356115786181
 30
0.0
 11
-73.04163092573151
 21
20.83356115786181
 31
0.0
  0
LINE
  5
12B2
330
1292
100
AcDbEntity
  8
0
 62
     7
100
AcDbLine
 10
-72.79163092573151
 20
23.83356115786181
 30
0.0
 11
-73.04163092573151
 21
23.83356115786181
 31
0.0
  0
LINE
  5
12B3
330
1292
100
AcDbEntity
  8
0
 62
     7
100
AcDbLine
 10
-93.29163092573152
 20
20.83356115786181
 30
0.0
 11
-93.29163092573152
 21
23.83356115786181
 31
0.0
  0
LINE
  5
12B4
330
1292
100
AcDbEntity
  8
0
 62
     7
100
AcDbLine
 10
-88.79163092573151
 20
20.83356115786182
 30
0.0
 11
-88.79163092573151
 21
23.83356115786182
 31
0.0
  0
LINE
  5
12B5
330
1292
100
AcDbEntity
  8
0
 62
     7
100
AcDbLine
 10
-91.9791309257315
 20
20.83356115786181
 30
0.0
 11
-88.79163092573151
 21
20.83356115786182
 31
0.0
  0
LINE
  5
12B6
330
1292
100
AcDbEntity
  8
0
 62
     7
100
AcDbLine
 10
-93.29163092573152
 20
20.83356115786181
 30
0.0
 11
-93.04163092573151
 21
20.83356115786181
 31
0.0
  0
CIRCLE
  5
12B7
330
1292
100
AcDbEntity
  8
0
 62
     7
100
AcDbCircle
 10
-91.0416309257315
 20
22.33356115786182
 30
0.0
 40
0.28125
  0
LINE
  5
12B8
330
1292
100
AcDbEntity
  8
0
 62
     7
100
AcDbLine
 10
-91.9791309257315
 20
23.83356115786181
 30
0.0
 11
-88.79163092573151
 21
23.83356115786182
 31
0.0
  0
LINE
  5
12B9
330
1292
100
AcDbEntity
  8
0
 62
     7
100
AcDbLine
 10
-93.29163092573152
 20
23.83356115786181
 30
0.0
 11
-93.04163092573151
 21
23.83356115786181
 31
0.0
  0
ENDBLK
  5
12BB
330
1292
100
AcDbEntity
  8
0
 62
     7
100
AcDbBlockEnd
  0
BLOCK
  5
12D8
330
12CD
100
AcDbEntity
  8
0
100
AcDbBlockBegin
  2
*D7
 70
     1
 10
0.0
 20
0.0
 30
0.0
  3
*D7
  1

  0
LINE
  5
2A15
330
12CD
100
AcDbEntity
  8
0
 62
     0
370
    -2
100
AcDbLine
 10
650.8187769308282
 20
209.7961999957686
 30
0.0
 11
650.8187769308282
 21
218.5591521460318
 31
0.0
  0
LINE
  5
2A16
330
12CD
100
AcDbEntity
  8
0
 62
     0
370
    -2
100
AcDbLine
 10
600.7550205123712
 20
209.7961999957686
 30
0.0
 11
600.7550205123712
 21
218.5591521460318
 31
0.0
  0
LINE
  5
2A17
330
12CD
100
AcDbEntity
  8
0
 62
     0
370
    -2
100
AcDbLine
 10
649.1937769308282
 20
216.9341521460318
 30
0.0
 11
635.3627915787426
 21
216.9341521460318
 31
0.0
  0
LINE
  5
2A18
330
12CD
100
AcDbEntity
  8
0
 62
     0
370
    -2
100
AcDbLine
 10
602.3800205123713
 20
216.9341521460318
 30
0.0
 11
616.2110058644568
 21
216.9341521460318
 31
0.0
  0
SOLID
  5
2A19
330
12CD
100
AcDbEntity
  8
0
 62
     0
100
AcDbTrace
 10
649.1937769308282
 20
217.2049854793652
 30
0.0
 11
649.1937769308282
 21
216.6633188126985
 31
0.0
 12
650.8187769308282
 22
216.9341521460318
 32
0.0
 13
650.8187769308282
 23
216.9341521460318
 33
0.0
  0
SOLID
  5
2A1A
330
12CD
100
AcDbEntity
  8
0
 62
     0
100
AcDbTrace
 10
602.3800205123713
 20
217.2049854793652
 30
0.0
 11
602.3800205123713
 21
216.6633188126985
 31
0.0
 12
600.7550205123712
 22
216.9341521460318
 32
0.0
 13
600.7550205123712
 23
216.9341521460318
 33
0.0
  0
MTEXT
  5
2A1B
330
12CD
100
AcDbEntity
  8
0
 62
     0
100
AcDbMText
 10
625.7868987215998
 20
216.9341521460318
 30
0.0
 40
2.4375
 41
0.0
 46
0.0
 71
     5
 72
     1
  1
\A1;22-1/8"
  7
ROMANS
 73
     1
 44
1.0
  0
POINT
  5
2A1C
330
12CD
100
AcDbEntity
  8
DEFPOINTS
 62
     0
100
AcDbPoint
 10
650.8187769308282
 20
208.1711999957686
 30
0.0
  0
POINT
  5
2A1D
330
12CD
100
AcDbEntity
  8
DEFPOINTS
 62
     0
100
AcDbPoint
 10
600.7550205123712
 20
208.1711999957686
 30
0.0
  0
POINT
  5
2A1E
330
12CD
100
AcDbEntity
  8
DEFPOINTS
 62
     0
100
AcDbPoint
 10
600.7550205123712
 20
216.9341521460318
 30
0.0
  0
ENDBLK
  5
12D9
330
12CD
100
AcDbEntity
  8
0
100
AcDbBlockEnd
  0
BLOCK
  5
12E5
330
12DA
100
AcDbEntity
  8
0
100
AcDbBlockBegin
  2
*D8
 70
     1
 10
0.0
 20
0.0
 30
0.0
  3
*D8
  1

  0
LINE
  5
2A1F
330
12DA
100
AcDbEntity
  8
0
 62
     0
370
    -2
100
AcDbLine
 10
653.3219647517512
 20
181.1292159679366
 30
0.0
 11
653.3219647517512
 21
172.2451519916613
 31
0.0
  0
LINE
  5
2A20
330
12DA
100
AcDbEntity
  8
0
 62
     0
370
    -2
100
AcDbLine
 10
598.2518326914482
 20
181.1292159679366
 30
0.0
 11
598.2518326914482
 21
172.2451519916613
 31
0.0
  0
LINE
  5
2A21
330
12DA
100
AcDbEntity
  8
0
 62
     0
370
    -2
100
AcDbLine
 10
651.6969647517512
 20
173.8701519916613
 30
0.0
 11
630.2556487215997
 21
173.8701519916613
 31
0.0
  0
LINE
  5
2A22
330
12DA
100
AcDbEntity
  8
0
 62
     0
370
    -2
100
AcDbLine
 10
599.8768326914483
 20
173.8701519916613
 30
0.0
 11
621.3181487215997
 21
173.8701519916613
 31
0.0
  0
SOLID
  5
2A23
330
12DA
100
AcDbEntity
  8
0
 62
     0
100
AcDbTrace
 10
651.6969647517512
 20
174.1409853249947
 30
0.0
 11
651.6969647517512
 21
173.599318658328
 31
0.0
 12
653.3219647517512
 22
173.8701519916613
 32
0.0
 13
653.3219647517512
 23
173.8701519916613
 33
0.0
  0
SOLID
  5
2A24
330
12DA
100
AcDbEntity
  8
0
 62
     0
100
AcDbTrace
 10
599.8768326914483
 20
174.1409853249947
 30
0.0
 11
599.8768326914483
 21
173.599318658328
 31
0.0
 12
598.2518326914482
 22
173.8701519916613
 32
0.0
 13
598.2518326914482
 23
173.8701519916613
 33
0.0
  0
MTEXT
  5
2A25
330
12DA
100
AcDbEntity
  8
0
 62
     0
100
AcDbMText
 10
625.7868987215998
 20
173.8701519916613
 30
0.0
 40
2.4375
 41
0.0
 46
0.0
 71
     5
 72
     1
  1
\A1;24"
  7
ROMANS
 73
     1
 44
1.0
  0
POINT
  5
2A26
330
12DA
100
AcDbEntity
  8
DEFPOINTS
 62
     0
100
AcDbPoint
 10
653.3219647517512
 20
182.7542159679365
 30
0.0
  0
POINT
  5
2A27
330
12DA
100
AcDbEntity
  8
DEFPOINTS
 62
     0
100
AcDbPoint
 10
598.2518326914482
 20
182.7542159679365
 30
0.0
  0
POINT
  5
2A28
330
12DA
100
AcDbEntity
  8
DEFPOINTS
 62
     0
100
AcDbPoint
 10
598.2518326914482
 20
173.8701519916613
 30
0.0
  0
ENDBLK
  5
12E6
330
12DA
100
AcDbEntity
  8
0
100
AcDbBlockEnd
  0
BLOCK
  5
12F2
330
12E7
100
AcDbEntity
  8
0
100
AcDbBlockBegin
  2
*D9
 70
     1
 10
0.0
 20
0.0
 30
0.0
  3
*D9
  1

  0
LINE
  5
2A29
330
12E7
100
AcDbEntity
  8
0
 62
     0
370
    -2
100
AcDbLine
 10
657.8352583912774
 20
186.6052741539717
 30
0.0
 11
671.6833407134849
 21
186.6052741539717
 31
0.0
  0
LINE
  5
2A2A
330
12E7
100
AcDbEntity
  8
0
 62
     0
370
    -2
100
AcDbLine
 10
658.9905758470877
 20
208.9414116329756
 30
0.0
 11
671.6833407134849
 21
208.9414116329756
 31
0.0
  0
LINE
  5
2A2B
330
12E7
100
AcDbEntity
  8
0
 62
     0
370
    -2
100
AcDbLine
 10
670.058340713485
 20
188.2302741539717
 30
0.0
 11
670.058340713485
 21
194.2912000363307
 31
0.0
  0
LINE
  5
2A2C
330
12E7
100
AcDbEntity
  8
0
 62
     0
370
    -2
100
AcDbLine
 10
670.058340713485
 20
207.3164116329756
 30
0.0
 11
670.058340713485
 21
201.2554857506165
 31
0.0
  0
SOLID
  5
2A2D
330
12E7
100
AcDbEntity
  8
0
 62
     0
100
AcDbTrace
 10
669.7875073801516
 20
188.2302741539717
 30
0.0
 11
670.3291740468183
 21
188.2302741539717
 31
0.0
 12
670.058340713485
 22
186.6052741539717
 32
0.0
 13
670.058340713485
 23
186.6052741539717
 33
0.0
  0
SOLID
  5
2A2E
330
12E7
100
AcDbEntity
  8
0
 62
     0
100
AcDbTrace
 10
669.7875073801516
 20
207.3164116329756
 30
0.0
 11
670.3291740468183
 21
207.3164116329756
 31
0.0
 12
670.058340713485
 22
208.9414116329756
 32
0.0
 13
670.058340713485
 23
208.9414116329756
 33
0.0
  0
MTEXT
  5
2A2F
330
12E7
100
AcDbEntity
  8
0
 62
     0
100
AcDbMText
 10
670.058340713485
 20
197.7733428934737
 30
0.0
 40
2.4375
 41
0.0
 46
0.0
 71
     5
 72
     1
  1
\A1;7-1/4"
  7
ROMANS
 73
     1
 44
1.0
  0
POINT
  5
2A30
330
12E7
100
AcDbEntity
  8
DEFPOINTS
 62
     0
100
AcDbPoint
 10
656.2102583912774
 20
186.6052741539717
 30
0.0
  0
POINT
  5
2A31
330
12E7
100
AcDbEntity
  8
DEFPOINTS
 62
     0
100
AcDbPoint
 10
657.3655758470877
 20
208.9414116329756
 30
0.0
  0
POINT
  5
2A32
330
12E7
100
AcDbEntity
  8
DEFPOINTS
 62
     0
100
AcDbPoint
 10
670.058340713485
 20
208.9414116329756
 30
0.0
  0
ENDBLK
  5
12F3
330
12E7
100
AcDbEntity
  8
0
100
AcDbBlockEnd
  0
BLOCK
  5
1344
330
1339
100
AcDbEntity
  8
0
100
AcDbBlockBegin
  2
*D10
 70
     1
 10
0.0
 20
0.0
 30
0.0
  3
*D10
  1

  0
LINE
  5
2A83
330
1339
100
AcDbEntity
  8
0
 62
     0
370
    -2
100
AcDbLine
 10
628.7123248934141
 20
126.0559532379151
 30
0.0
 11
624.4797882786869
 21
128.4996093917828
 31
0.0
  0
LINE
  5
2A84
330
1339
100
AcDbEntity
  8
0
 62
     0
370
    -2
100
AcDbLine
 10
612.7037766347338
 20
116.8134135914308
 30
0.0
 11
608.4712400200064
 21
119.2570697452985
 31
0.0
  0
LINE
  5
2A85
330
1339
100
AcDbEntity
  8
0
 62
     0
370
    -2
100
AcDbLine
 10
624.6974969975371
 20
126.7489152043497
 30
0.0
 11
624.3375362516541
 21
126.5410917708164
 31
0.0
  0
LINE
  5
2A86
330
1339
100
AcDbEntity
  8
0
 62
     0
370
    -2
100
AcDbLine
 10
611.5035313011561
 20
119.1313755578654
 30
0.0
 11
612.2750395560853
 21
119.5768060565307
 31
0.0
  0
MTEXT
  5
2A87
330
1339
100
AcDbEntity
  8
0
 62
     0
100
AcDbMText
 10
616.961296199946
 20
123.0589489136735
 30
0.0
 40
2.4375
 41
0.0
 46
0.0
 71
     5
 72
     1
  1
\A1;4-1/2"
  7
ROMANS
 73
     1
 44
1.0
  0
SOLID
  5
2A88
330
1339
100
AcDbEntity
  8
0
 62
     0
100
AcDbTrace
 10
624.5620803308705
 20
126.983463751208
 30
0.0
 11
624.8329136642039
 21
126.5143666574914
 31
0.0
 12
626.1047882786868
 22
127.5614152043497
 32
0.0
 13
626.1047882786868
 23
127.5614152043497
 33
0.0
  0
SOLID
  5
2A89
330
1339
100
AcDbEntity
  8
0
 62
     0
100
AcDbTrace
 10
611.3681146344895
 20
119.3659241047237
 30
0.0
 11
611.6389479678227
 21
118.8968270110071
 31
0.0
 12
610.0962400200065
 22
118.3188755578654
 32
0.0
 13
610.0962400200065
 23
118.3188755578654
 33
0.0
  0
POINT
  5
2A8A
330
1339
100
AcDbEntity
  8
DEFPOINTS
 62
     0
100
AcDbPoint
 10
630.3373248934141
 20
125.117759050482
 30
0.0
  0
POINT
  5
2A8B
330
1339
100
AcDbEntity
  8
DEFPOINTS
 62
     0
100
AcDbPoint
 10
614.3287766347338
 20
115.8752194039977
 30
0.0
  0
POINT
  5
2A8C
330
1339
100
AcDbEntity
  8
DEFPOINTS
 62
     0
100
AcDbPoint
 10
610.0962400200065
 20
118.3188755578654
 30
0.0
  0
ENDBLK
  5
1345
330
1339
100
AcDbEntity
  8
0
100
AcDbBlockEnd
  0
BLOCK
  5
1351
330
1346
100
AcDbEntity
  8
0
100
AcDbBlockBegin
  2
*D11
 70
     1
 10
0.0
 20
0.0
 30
0.0
  3
*D11
  1

  0
LINE
  5
2A8D
330
1346
100
AcDbEntity
  8
0
 62
     0
370
    -2
100
AcDbLine
 10
615.3293109009012
 20
99.5573628314996
 30
0.0
 11
615.3293109009012
 21
95.42349242670722
 31
0.0
  0
LINE
  5
2A8E
330
1346
100
AcDbEntity
  8
0
 62
     0
370
    -2
100
AcDbLine
 10
614.3287766347336
 20
100.1350215594049
 30
0.0
 11
614.3287766347335
 21
96.00115115461253
 31
0.0
  0
LINE
  5
2A8F
330
1346
100
AcDbEntity
  8
0
 62
     0
370
    -2
100
AcDbLine
 10
616.7366021820509
 20
96.48738080157341
 30
0.0
 11
618.1438934632005
 21
95.67488080157337
 31
0.0
  0
LINE
  5
2A90
330
1346
100
AcDbEntity
  8
0
 62
     0
370
    -2
100
AcDbLine
 10
612.9214853535838
 20
98.69003952947881
 30
0.0
 11
611.5141940724342
 21
99.50253952947887
 31
0.0
  0
MTEXT
  5
2A91
330
1346
100
AcDbEntity
  8
0
 62
     0
100
AcDbMText
 10
604.7259448211376
 20
100.6117794084422
 30
0.0
 40
2.4375
 41
0.0
 46
0.0
 71
     5
 72
     1
  1
\A1;1/4"
  7
ROMANS
 73
     1
 44
1.0
  0
SOLID
  5
2A92
330
1346
100
AcDbEntity
  8
0
 62
     0
100
AcDbTrace
 10
616.8720188487175
 20
96.72192934843174
 30
0.0
 11
616.6011855153842
 21
96.25283225471514
 31
0.0
 12
615.3293109009012
 22
97.29988080157344
 32
0.0
 13
615.3293109009012
 23
97.29988080157344
 33
0.0
  0
SOLID
  5
2A93
330
1346
100
AcDbEntity
  8
0
 62
     0
100
AcDbTrace
 10
613.0569020202504
 20
98.92458807633714
 30
0.0
 11
612.7860686869172
 21
98.45549098262054
 31
0.0
 12
614.3287766347335
 22
97.87753952947879
 32
0.0
 13
614.3287766347335
 23
97.87753952947879
 33
0.0
  0
POINT
  5
2A94
330
1346
100
AcDbEntity
  8
DEFPOINTS
 62
     0
100
AcDbPoint
 10
615.3293109009013
 20
101.4337512063659
 30
0.0
  0
POINT
  5
2A95
330
1346
100
AcDbEntity
  8
DEFPOINTS
 62
     0
100
AcDbPoint
 10
614.3287766347336
 20
102.0114099342712
 30
0.0
  0
POINT
  5
2A96
330
1346
100
AcDbEntity
  8
DEFPOINTS
 62
     0
100
AcDbPoint
 10
614.3287766347335
 20
97.87753952947879
 30
0.0
  0
ENDBLK
  5
1352
330
1346
100
AcDbEntity
  8
0
100
AcDbBlockEnd
  0
BLOCK
  5
135E
330
1353
100
AcDbEntity
  8
0
100
AcDbBlockBegin
  2
*D12
 70
     1
 10
0.0
 20
0.0
 30
0.0
  3
*D12
  1

  0
LINE
  5
2A97
330
1353
100
AcDbEntity
  8
0
 62
     0
370
    -2
100
AcDbLine
 10
665.9804899431104
 20
106.4155564891359
 30
0.0
 11
672.828962501562
 21
110.3695239642956
 31
0.0
  0
LINE
  5
2A98
330
1353
100
AcDbEntity
  8
0
 62
     0
370
    -2
100
AcDbLine
 10
665.9804899431104
 20
92.55174701940935
 30
0.0
 11
672.828962501562
 21
96.50571449456906
 31
0.0
  0
LINE
  5
2A99
330
1353
100
AcDbEntity
  8
0
 62
     0
370
    -2
100
AcDbLine
 10
671.203962501562
 20
107.8063297768625
 30
0.0
 11
671.203962501562
 21
104.656093347457
 31
0.0
  0
LINE
  5
2A9A
330
1353
100
AcDbEntity
  8
0
 62
     0
370
    -2
100
AcDbLine
 10
671.203962501562
 20
97.19252030713596
 30
0.0
 11
671.203962501562
 21
98.50430763317131
 31
0.0
  0
MTEXT
  5
2A9B
330
1353
100
AcDbEntity
  8
0
 62
     0
100
AcDbMText
 10
672.0003949741871
 20
101.5802004903142
 30
0.0
 40
2.4375
 41
0.0
 46
0.0
 71
     5
 72
     1
  1
\A1;3"
  7
ROMANS
 73
     1
 44
1.0
  0
SOLID
  5
2A9C
330
1353
100
AcDbEntity
  8
0
 62
     0
100
AcDbTrace
 10
670.9331291682286
 20
107.8063297768625
 30
0.0
 11
671.4747958348953
 21
107.8063297768625
 31
0.0
 12
671.203962501562
 22
109.4313297768625
 32
0.0
 13
671.203962501562
 23
109.4313297768625
 33
0.0
  0
SOLID
  5
2A9D
330
1353
100
AcDbEntity
  8
0
 62
     0
100
AcDbTrace
 10
670.9331291682286
 20
97.19252030713596
 30
0.0
 11
671.4747958348953
 21
97.19252030713596
 31
0.0
 12
671.203962501562
 22
95.56752030713594
 32
0.0
 13
671.203962501562
 23
95.56752030713594
 33
0.0
  0
POINT
  5
2A9E
330
1353
100
AcDbEntity
  8
DEFPOINTS
 62
     0
100
AcDbPoint
 10
664.3554899431104
 20
105.4773623017028
 30
0.0
  0
POINT
  5
2A9F
330
1353
100
AcDbEntity
  8
DEFPOINTS
 62
     0
100
AcDbPoint
 10
664.3554899431104
 20
91.61355283197622
 30
0.0
  0
POINT
  5
2AA0
330
1353
100
AcDbEntity
  8
DEFPOINTS
 62
     0
100
AcDbPoint
 10
671.203962501562
 20
95.56752030713594
 30
0.0
  0
ENDBLK
  5
135F
330
1353
100
AcDbEntity
  8
0
100
AcDbBlockEnd
  0
BLOCK
  5
136B
330
1360
100
AcDbEntity
  8
0
100
AcDbBlockBegin
  2
*D13
 70
     1
 10
0.0
 20
0.0
 30
0.0
  3
*D13
  1

  0
LINE
  5
2AA1
330
1360
100
AcDbEntity
  8
0
 62
     0
370
    -2
100
AcDbLine
 10
631.9623248934141
 20
126.0559532379152
 30
0.0
 11
638.8107974518651
 21
130.0099207130749
 31
0.0
  0
LINE
  5
2AA2
330
1360
100
AcDbEntity
  8
0
 62
     0
370
    -2
100
AcDbLine
 10
665.9804899431103
 20
106.415556489136
 30
0.0
 11
672.8289625015613
 21
110.3695239642957
 31
0.0
  0
LINE
  5
2AA3
330
1360
100
AcDbEntity
  8
0
 62
     0
370
    -2
100
AcDbLine
 10
638.5930887330148
 20
128.2592265256417
 30
0.0
 11
648.1636316289288
 21
122.7336710083949
 31
0.0
  0
LINE
  5
2AA4
330
1360
100
AcDbEntity
  8
0
 62
     0
370
    -2
100
AcDbLine
 10
669.7966712204117
 20
110.2438297768624
 30
0.0
 11
660.2261283244977
 21
115.7693852941092
 31
0.0
  0
SOLID
  5
2AA5
330
1360
100
AcDbEntity
  8
0
 62
     0
100
AcDbTrace
 10
638.7285053996816
 20
128.4937750725
 30
0.0
 11
638.4576720663481
 21
128.0246779787834
 31
0.0
 12
637.1857974518652
 22
129.0717265256416
 32
0.0
 13
637.1857974518652
 23
129.0717265256416
 33
0.0
  0
SOLID
  5
2AA6
330
1360
100
AcDbEntity
  8
0
 62
     0
100
AcDbTrace
 10
669.9320878870783
 20
110.4783783237208
 30
0.0
 11
669.661254553745
 21
110.0092812300042
 31
0.0
 12
671.2039625015613
 22
109.4313297768624
 32
0.0
 13
671.2039625015613
 23
109.4313297768624
 33
0.0
  0
MTEXT
  5
2AA7
330
1360
100
AcDbEntity
  8
0
 62
     0
100
AcDbMText
 10
654.1948799767133
 20
119.2515281512521
 30
0.0
 40
2.4375
 41
0.0
 46
0.0
 71
     5
 72
     1
  1
\A1;8-1/2"
  7
ROMANS
 73
     1
 44
1.0
  0
POINT
  5
2AA8
330
1360
100
AcDbEntity
  8
DEFPOINTS
 62
     0
100
AcDbPoint
 10
630.3373248934142
 20
125.1177590504819
 30
0.0
  0
POINT
  5
2AA9
330
1360
100
AcDbEntity
  8
DEFPOINTS
 62
     0
100
AcDbPoint
 10
664.3554899431104
 20
105.4773623017028
 30
0.0
  0
POINT
  5
2AAA
330
1360
100
AcDbEntity
  8
DEFPOINTS
 62
     0
100
AcDbPoint
 10
671.2039625015613
 20
109.4313297768624
 30
0.0
  0
ENDBLK
  5
136C
330
1360
100
AcDbEntity
  8
0
100
AcDbBlockEnd
  0
BLOCK
  5
148F
330
1484
100
AcDbEntity
  8
0
100
AcDbBlockBegin
  2
*D14
 70
     1
 10
0.0
 20
0.0
 30
0.0
  3
*D14
  1

  0
LINE
  5
2A79
330
1484
100
AcDbEntity
  8
0
 62
     0
370
    -2
100
AcDbLine
 10
452.2371520129987
 20
90.66548194243834
 30
0.0
 11
463.7633712230809
 21
90.66548194243834
 31
0.0
  0
LINE
  5
2A7A
330
1484
100
AcDbEntity
  8
0
 62
     0
370
    -2
100
AcDbLine
 10
452.2371520129987
 20
138.6654819424383
 30
0.0
 11
463.7633712230809
 21
138.6654819424383
 31
0.0
  0
LINE
  5
2A7B
330
1484
100
AcDbEntity
  8
0
 62
     0
370
    -2
100
AcDbLine
 10
462.1383712230809
 20
92.29048194243834
 30
0.0
 11
462.1383712230809
 21
111.5895890852955
 31
0.0
  0
LINE
  5
2A7C
330
1484
100
AcDbEntity
  8
0
 62
     0
370
    -2
100
AcDbLine
 10
462.138371223081
 20
137.0404819424383
 30
0.0
 11
462.1383712230809
 21
117.7413747995812
 31
0.0
  0
SOLID
  5
2A7D
330
1484
100
AcDbEntity
  8
0
 62
     0
100
AcDbTrace
 10
461.8675378897476
 20
92.29048194243834
 30
0.0
 11
462.4092045564142
 21
92.29048194243834
 31
0.0
 12
462.1383712230809
 22
90.66548194243834
 32
0.0
 13
462.1383712230809
 23
90.66548194243834
 33
0.0
  0
SOLID
  5
2A7E
330
1484
100
AcDbEntity
  8
0
 62
     0
100
AcDbTrace
 10
461.8675378897476
 20
137.0404819424383
 30
0.0
 11
462.4092045564142
 21
137.0404819424383
 31
0.0
 12
462.138371223081
 22
138.6654819424383
 32
0.0
 13
462.138371223081
 23
138.6654819424383
 33
0.0
  0
MTEXT
  5
2A7F
330
1484
100
AcDbEntity
  8
0
 62
     0
100
AcDbMText
 10
462.1383712230809
 20
114.6654819424384
 30
0.0
 40
2.4375
 41
0.0
 46
0.0
 71
     5
 72
     1
  1
\A1;4'-0"
  7
ROMANS
 73
     1
 44
1.0
  0
POINT
  5
2A80
330
1484
100
AcDbEntity
  8
DEFPOINTS
 62
     0
100
AcDbPoint
 10
450.6121520129987
 20
90.66548194243834
 30
0.0
  0
POINT
  5
2A81
330
1484
100
AcDbEntity
  8
DEFPOINTS
 62
     0
100
AcDbPoint
 10
450.6121520129987
 20
138.6654819424383
 30
0.0
  0
POINT
  5
2A82
330
1484
100
AcDbEntity
  8
DEFPOINTS
 62
     0
100
AcDbPoint
 10
462.138371223081
 20
138.6654819424383
 30
0.0
  0
ENDBLK
  5
1490
330
1484
100
AcDbEntity
  8
0
100
AcDbBlockEnd
  0
BLOCK
  5
149C
330
1491
100
AcDbEntity
  8
0
100
AcDbBlockBegin
  2
*D15
 70
     1
 10
0.0
 20
0.0
 30
0.0
  3
*D15
  1

  0
LINE
  5
2A47
330
1491
100
AcDbEntity
  8
0
 62
     0
370
    -2
100
AcDbLine
 10
354.1956693486135
 20
151.6654819424383
 30
0.0
 11
341.3142770977712
 21
151.6654819424383
 31
0.0
  0
LINE
  5
2A48
330
1491
100
AcDbEntity
  8
0
 62
     0
370
    -2
100
AcDbLine
 10
353.1331693486135
 20
193.6654819424383
 30
0.0
 11
341.3142770977712
 21
193.6654819424383
 31
0.0
  0
LINE
  5
2A49
330
1491
100
AcDbEntity
  8
0
 62
     0
370
    -2
100
AcDbLine
 10
342.9392770977713
 20
153.2904819424383
 30
0.0
 11
342.9392770977713
 21
169.5895890852954
 31
0.0
  0
LINE
  5
2A4A
330
1491
100
AcDbEntity
  8
0
 62
     0
370
    -2
100
AcDbLine
 10
342.9392770977713
 20
192.0404819424383
 30
0.0
 11
342.9392770977713
 21
175.7413747995812
 31
0.0
  0
SOLID
  5
2A4B
330
1491
100
AcDbEntity
  8
0
 62
     0
100
AcDbTrace
 10
342.6684437644379
 20
153.2904819424383
 30
0.0
 11
343.2101104311046
 21
153.2904819424383
 31
0.0
 12
342.9392770977713
 22
151.6654819424383
 32
0.0
 13
342.9392770977713
 23
151.6654819424383
 33
0.0
  0
SOLID
  5
2A4C
330
1491
100
AcDbEntity
  8
0
 62
     0
100
AcDbTrace
 10
342.6684437644379
 20
192.0404819424383
 30
0.0
 11
343.2101104311046
 21
192.0404819424383
 31
0.0
 12
342.9392770977713
 22
193.6654819424383
 32
0.0
 13
342.9392770977713
 23
193.6654819424383
 33
0.0
  0
MTEXT
  5
2A4D
330
1491
100
AcDbEntity
  8
0
 62
     0
100
AcDbMText
 10
342.9392770977712
 20
172.6654819424384
 30
0.0
 40
2.4375
 41
0.0
 46
0.0
 71
     5
 72
     1
  1
\A1;42"
  7
ROMANS
 73
     1
 44
1.0
  0
POINT
  5
2A4E
330
1491
100
AcDbEntity
  8
DEFPOINTS
 62
     0
100
AcDbPoint
 10
355.8206693486135
 20
151.6654819424383
 30
0.0
  0
POINT
  5
2A4F
330
1491
100
AcDbEntity
  8
DEFPOINTS
 62
     0
100
AcDbPoint
 10
354.7581693486135
 20
193.6654819424383
 30
0.0
  0
POINT
  5
2A50
330
1491
100
AcDbEntity
  8
DEFPOINTS
 62
     0
100
AcDbPoint
 10
342.9392770977713
 20
193.6654819424383
 30
0.0
  0
ENDBLK
  5
149D
330
1491
100
AcDbEntity
  8
0
100
AcDbBlockEnd
  0
BLOCK
  5
14A8
330
149E
100
AcDbEntity
  8
0
100
AcDbBlockBegin
  2
*D16
 70
     1
 10
0.0
 20
0.0
 30
0.0
  3
*D16
  1

  0
LINE
  5
2A65
330
149E
100
AcDbEntity
  8
0
 62
     0
370
    -2
100
AcDbLine
 10
354.7581693486135
 20
122.0404819424383
 30
0.0
 11
354.7581693486135
 21
116.9840607570935
 31
0.0
  0
LINE
  5
2A66
330
149E
100
AcDbEntity
  8
0
 62
     0
370
    -2
100
AcDbLine
 10
380.8831693486135
 20
122.0404819424383
 30
0.0
 11
380.8831693486135
 21
116.9840607570935
 31
0.0
  0
LINE
  5
2A67
330
149E
100
AcDbEntity
  8
0
 62
     0
370
    -2
100
AcDbLine
 10
356.3831693486136
 20
118.6090607570935
 30
0.0
 11
358.2447764914707
 21
118.6090607570935
 31
0.0
  0
LINE
  5
2A68
330
149E
100
AcDbEntity
  8
0
 62
     0
370
    -2
100
AcDbLine
 10
379.2581693486135
 20
118.6090607570935
 30
0.0
 11
377.3965622057564
 21
118.6090607570935
 31
0.0
  0
SOLID
  5
2A69
330
149E
100
AcDbEntity
  8
0
 62
     0
100
AcDbTrace
 10
356.3831693486136
 20
118.8798940904269
 30
0.0
 11
356.3831693486136
 21
118.3382274237602
 31
0.0
 12
354.7581693486135
 22
118.6090607570935
 32
0.0
 13
354.7581693486135
 23
118.6090607570935
 33
0.0
  0
SOLID
  5
2A6A
330
149E
100
AcDbEntity
  8
0
 62
     0
100
AcDbTrace
 10
379.2581693486135
 20
118.8798940904269
 30
0.0
 11
379.2581693486135
 21
118.3382274237602
 31
0.0
 12
380.8831693486135
 22
118.6090607570935
 32
0.0
 13
380.8831693486135
 23
118.6090607570935
 33
0.0
  0
MTEXT
  5
2A6B
330
149E
100
AcDbEntity
  8
0
 62
     0
100
AcDbMText
 10
367.8206693486135
 20
118.6090607570935
 30
0.0
 40
2.4375
 41
0.0
 46
0.0
 71
     5
 72
     1
  1
\A1;26-1/8"
  7
ROMANS
 73
     1
 44
1.0
  0
POINT
  5
2A6C
330
149E
100
AcDbEntity
  8
DEFPOINTS
 62
     0
100
AcDbPoint
 10
354.7581693486135
 20
123.6654819424383
 30
0.0
  0
POINT
  5
2A6D
330
149E
100
AcDbEntity
  8
DEFPOINTS
 62
     0
100
AcDbPoint
 10
380.8831693486135
 20
123.6654819424383
 30
0.0
  0
POINT
  5
2A6E
330
149E
100
AcDbEntity
  8
DEFPOINTS
 62
     0
100
AcDbPoint
 10
380.8831693486135
 20
118.6090607570935
 30
0.0
  0
ENDBLK
  5
14A9
330
149E
100
AcDbEntity
  8
0
100
AcDbBlockEnd
  0
BLOCK
  5
14B5
330
14AA
100
AcDbEntity
  8
0
100
AcDbBlockBegin
  2
*D17
 70
     1
 10
0.0
 20
0.0
 30
0.0
  3
*D17
  1

  0
LINE
  5
2A6F
330
14AA
100
AcDbEntity
  8
0
 62
     0
370
    -2
100
AcDbLine
 10
449.7371520129987
 20
151.6654819424383
 30
0.0
 11
463.7633712230809
 21
151.6654819424383
 31
0.0
  0
LINE
  5
2A70
330
14AA
100
AcDbEntity
  8
0
 62
     0
370
    -2
100
AcDbLine
 10
452.2371520129987
 20
138.6654819424383
 30
0.0
 11
463.7633712230809
 21
138.6654819424383
 31
0.0
  0
LINE
  5
2A71
330
14AA
100
AcDbEntity
  8
0
 62
     0
370
    -2
100
AcDbLine
 10
462.138371223081
 20
150.0404819424383
 30
0.0
 11
462.138371223081
 21
148.2781908985232
 31
0.0
  0
LINE
  5
2A72
330
14AA
100
AcDbEntity
  8
0
 62
     0
370
    -2
100
AcDbLine
 10
462.138371223081
 20
140.2904819424383
 30
0.0
 11
462.138371223081
 21
142.1264051842375
 31
0.0
  0
MTEXT
  5
2A73
330
14AA
100
AcDbEntity
  8
0
 62
     0
100
AcDbMText
 10
462.450458609892
 20
145.2022980413804
 30
0.0
 40
2.4375
 41
0.0
 46
0.0
 71
     5
 72
     1
  1
\A1;13"
  7
ROMANS
 73
     1
 44
1.0
  0
SOLID
  5
2A74
330
14AA
100
AcDbEntity
  8
0
 62
     0
100
AcDbTrace
 10
461.8675378897476
 20
150.0404819424383
 30
0.0
 11
462.4092045564142
 21
150.0404819424383
 31
0.0
 12
462.138371223081
 22
151.6654819424383
 32
0.0
 13
462.138371223081
 23
151.6654819424383
 33
0.0
  0
SOLID
  5
2A75
330
14AA
100
AcDbEntity
  8
0
 62
     0
100
AcDbTrace
 10
461.8675378897476
 20
140.2904819424383
 30
0.0
 11
462.4092045564142
 21
140.2904819424383
 31
0.0
 12
462.138371223081
 22
138.6654819424383
 32
0.0
 13
462.138371223081
 23
138.6654819424383
 33
0.0
  0
POINT
  5
2A76
330
14AA
100
AcDbEntity
  8
DEFPOINTS
 62
     0
100
AcDbPoint
 10
448.1121520129987
 20
151.6654819424383
 30
0.0
  0
POINT
  5
2A77
330
14AA
100
AcDbEntity
  8
DEFPOINTS
 62
     0
100
AcDbPoint
 10
450.6121520129987
 20
138.6654819424383
 30
0.0
  0
POINT
  5
2A78
330
14AA
100
AcDbEntity
  8
DEFPOINTS
 62
     0
100
AcDbPoint
 10
462.138371223081
 20
138.6654819424383
 30
0.0
  0
ENDBLK
  5
14B6
330
14AA
100
AcDbEntity
  8
0
100
AcDbBlockEnd
  0
BLOCK
  5
14D4
330
14CA
100
AcDbEntity
  8
0
100
AcDbBlockBegin
  2
*D18
 70
     1
 10
0.0
 20
0.0
 30
0.0
  3
*D18
  1

  0
LINE
  5
2A3D
330
14CA
100
AcDbEntity
  8
0
 62
     0
370
    -2
100
AcDbLine
 10
542.8914333306405
 20
44.04048194243834
 30
0.0
 11
542.8914333306405
 21
40.36743239401326
 31
0.0
  0
LINE
  5
2A3E
330
14CA
100
AcDbEntity
  8
0
 62
     0
370
    -2
100
AcDbLine
 10
516.7664333306405
 20
44.04048194243834
 30
0.0
 11
516.7664333306405
 21
40.36743239401326
 31
0.0
  0
LINE
  5
2A3F
330
14CA
100
AcDbEntity
  8
0
 62
     0
370
    -2
100
AcDbLine
 10
541.2664333306405
 20
41.99243239401326
 30
0.0
 11
539.4048261877834
 21
41.99243239401326
 31
0.0
  0
LINE
  5
2A40
330
14CA
100
AcDbEntity
  8
0
 62
     0
370
    -2
100
AcDbLine
 10
518.3914333306405
 20
41.99243239401326
 30
0.0
 11
520.2530404734976
 21
41.99243239401326
 31
0.0
  0
SOLID
  5
2A41
330
14CA
100
AcDbEntity
  8
0
 62
     0
100
AcDbTrace
 10
541.2664333306405
 20
42.26326572734659
 30
0.0
 11
541.2664333306405
 21
41.72159906067992
 31
0.0
 12
542.8914333306405
 22
41.99243239401326
 32
0.0
 13
542.8914333306405
 23
41.99243239401326
 33
0.0
  0
SOLID
  5
2A42
330
14CA
100
AcDbEntity
  8
0
 62
     0
100
AcDbTrace
 10
518.3914333306405
 20
42.26326572734659
 30
0.0
 11
518.3914333306405
 21
41.72159906067992
 31
0.0
 12
516.7664333306405
 22
41.99243239401326
 32
0.0
 13
516.7664333306405
 23
41.99243239401326
 33
0.0
  0
MTEXT
  5
2A43
330
14CA
100
AcDbEntity
  8
0
 62
     0
100
AcDbMText
 10
529.8289333306406
 20
41.99243239401326
 30
0.0
 40
2.4375
 41
0.0
 46
0.0
 71
     5
 72
     1
  1
\A1;26-1/8"
  7
ROMANS
 73
     1
 44
1.0
  0
POINT
  5
2A44
330
14CA
100
AcDbEntity
  8
DEFPOINTS
 62
     0
100
AcDbPoint
 10
542.8914333306405
 20
45.66548194243835
 30
0.0
  0
POINT
  5
2A45
330
14CA
100
AcDbEntity
  8
DEFPOINTS
 62
     0
100
AcDbPoint
 10
516.7664333306405
 20
45.66548194243835
 30
0.0
  0
POINT
  5
2A46
330
14CA
100
AcDbEntity
  8
DEFPOINTS
 62
     0
100
AcDbPoint
 10
516.7664333306405
 20
41.99243239401326
 30
0.0
  0
ENDBLK
  5
14D5
330
14CA
100
AcDbEntity
  8
0
100
AcDbBlockEnd
  0
BLOCK
  5
1509
330
14FE
100
AcDbEntity
  8
0
100
AcDbBlockBegin
  2
*D19
 70
     1
 10
0.0
 20
0.0
 30
0.0
  3
*D19
  1

  0
LINE
  5
2A51
330
14FE
100
AcDbEntity
  8
0
 62
     0
370
    -2
100
AcDbLine
 10
543.4539333306405
 20
151.6654819424383
 30
0.0
 11
569.7450440032064
 21
151.6654819424383
 31
0.0
  0
LINE
  5
2A52
330
14FE
100
AcDbEntity
  8
0
 62
     0
370
    -2
100
AcDbLine
 10
544.5164333306405
 20
193.6654819424383
 30
0.0
 11
569.7450440032064
 21
193.6654819424383
 31
0.0
  0
LINE
  5
2A53
330
14FE
100
AcDbEntity
  8
0
 62
     0
370
    -2
100
AcDbLine
 10
568.1200440032064
 20
153.2904819424383
 30
0.0
 11
568.1200440032064
 21
169.5895890852954
 31
0.0
  0
LINE
  5
2A54
330
14FE
100
AcDbEntity
  8
0
 62
     0
370
    -2
100
AcDbLine
 10
568.1200440032064
 20
192.0404819424383
 30
0.0
 11
568.1200440032064
 21
175.7413747995812
 31
0.0
  0
SOLID
  5
2A55
330
14FE
100
AcDbEntity
  8
0
 62
     0
100
AcDbTrace
 10
567.8492106698731
 20
153.2904819424383
 30
0.0
 11
568.3908773365398
 21
153.2904819424383
 31
0.0
 12
568.1200440032064
 22
151.6654819424383
 32
0.0
 13
568.1200440032064
 23
151.6654819424383
 33
0.0
  0
SOLID
  5
2A56
330
14FE
100
AcDbEntity
  8
0
 62
     0
100
AcDbTrace
 10
567.8492106698731
 20
192.0404819424383
 30
0.0
 11
568.3908773365398
 21
192.0404819424383
 31
0.0
 12
568.1200440032064
 22
193.6654819424383
 32
0.0
 13
568.1200440032064
 23
193.6654819424383
 33
0.0
  0
MTEXT
  5
2A57
330
14FE
100
AcDbEntity
  8
0
 62
     0
100
AcDbMText
 10
568.1200440032064
 20
172.6654819424384
 30
0.0
 40
2.4375
 41
0.0
 46
0.0
 71
     5
 72
     1
  1
\A1;42"
  7
ROMANS
 73
     1
 44
1.0
  0
POINT
  5
2A58
330
14FE
100
AcDbEntity
  8
DEFPOINTS
 62
     0
100
AcDbPoint
 10
541.8289333306405
 20
151.6654819424383
 30
0.0
  0
POINT
  5
2A59
330
14FE
100
AcDbEntity
  8
DEFPOINTS
 62
     0
100
AcDbPoint
 10
542.8914333306405
 20
193.6654819424383
 30
0.0
  0
POINT
  5
2A5A
330
14FE
100
AcDbEntity
  8
DEFPOINTS
 62
     0
100
AcDbPoint
 10
568.1200440032064
 20
193.6654819424383
 30
0.0
  0
ENDBLK
  5
150A
330
14FE
100
AcDbEntity
  8
0
100
AcDbBlockEnd
  0
BLOCK
  5
1516
330
150B
100
AcDbEntity
  8
0
100
AcDbBlockBegin
  2
*D20
 70
     1
 10
0.0
 20
0.0
 30
0.0
  3
*D20
  1

  0
LINE
  5
2A5B
330
150B
100
AcDbEntity
  8
0
 62
     0
370
    -2
100
AcDbLine
 10
543.4539333306405
 20
151.6654819424383
 30
0.0
 11
552.6310761181719
 21
151.6654819424383
 31
0.0
  0
LINE
  5
2A5C
330
150B
100
AcDbEntity
  8
0
 62
     0
370
    -2
100
AcDbLine
 10
544.5164333306405
 20
145.6654819424383
 30
0.0
 11
552.6310761181719
 21
145.6654819424383
 31
0.0
  0
LINE
  5
2A5D
330
150B
100
AcDbEntity
  8
0
 62
     0
370
    -2
100
AcDbLine
 10
551.0060761181718
 20
153.2904819424383
 30
0.0
 11
551.0060761181718
 21
154.9154819424383
 31
0.0
  0
LINE
  5
2A5E
330
150B
100
AcDbEntity
  8
0
 62
     0
370
    -2
100
AcDbLine
 10
551.0060761181718
 20
144.0404819424383
 30
0.0
 11
551.0060761181718
 21
142.4154819424383
 31
0.0
  0
MTEXT
  5
2A5F
330
150B
100
AcDbEntity
  8
0
 62
     0
100
AcDbMText
 10
551.8887096468262
 20
148.5147312534816
 30
0.0
 40
2.4375
 41
0.0
 46
0.0
 71
     5
 72
     1
  1
\A1;6"
  7
ROMANS
 73
     1
 44
1.0
  0
SOLID
  5
2A60
330
150B
100
AcDbEntity
  8
0
 62
     0
100
AcDbTrace
 10
550.7352427848385
 20
153.2904819424383
 30
0.0
 11
551.2769094515053
 21
153.2904819424383
 31
0.0
 12
551.0060761181718
 22
151.6654819424383
 32
0.0
 13
551.0060761181718
 23
151.6654819424383
 33
0.0
  0
SOLID
  5
2A61
330
150B
100
AcDbEntity
  8
0
 62
     0
100
AcDbTrace
 10
550.7352427848385
 20
144.0404819424383
 30
0.0
 11
551.2769094515053
 21
144.0404819424383
 31
0.0
 12
551.0060761181718
 22
145.6654819424383
 32
0.0
 13
551.0060761181718
 23
145.6654819424383
 33
0.0
  0
POINT
  5
2A62
330
150B
100
AcDbEntity
  8
DEFPOINTS
 62
     0
100
AcDbPoint
 10
541.8289333306405
 20
151.6654819424383
 30
0.0
  0
POINT
  5
2A63
330
150B
100
AcDbEntity
  8
DEFPOINTS
 62
     0
100
AcDbPoint
 10
542.8914333306405
 20
145.6654819424383
 30
0.0
  0
POINT
  5
2A64
330
150B
100
AcDbEntity
  8
DEFPOINTS
 62
     0
100
AcDbPoint
 10
551.0060761181718
 20
145.6654819424383
 30
0.0
  0
ENDBLK
  5
1517
330
150B
100
AcDbEntity
  8
0
100
AcDbBlockEnd
  0
BLOCK
  5
1523
330
1518
100
AcDbEntity
  8
0
100
AcDbBlockBegin
  2
*D21
 70
     1
 10
0.0
 20
0.0
 30
0.0
  3
*D21
  1

  0
LINE
  5
2A33
330
1518
100
AcDbEntity
  8
0
 62
     0
370
    -2
100
AcDbLine
 10
543.4539333306405
 20
115.6654819424383
 30
0.0
 11
554.1959450977149
 21
115.6654819424383
 31
0.0
  0
LINE
  5
2A34
330
1518
100
AcDbEntity
  8
0
 62
     0
370
    -2
100
AcDbLine
 10
543.4539333306405
 20
127.6654819424383
 30
0.0
 11
554.1959450977149
 21
127.6654819424383
 31
0.0
  0
LINE
  5
2A35
330
1518
100
AcDbEntity
  8
0
 62
     0
370
    -2
100
AcDbLine
 10
552.5709450977148
 20
117.2904819424383
 30
0.0
 11
552.5709450977148
 21
118.0133915047318
 31
0.0
  0
LINE
  5
2A36
330
1518
100
AcDbEntity
  8
0
 62
     0
370
    -2
100
AcDbLine
 10
552.5709450977148
 20
126.0404819424383
 30
0.0
 11
552.5709450977148
 21
124.1651772190175
 31
0.0
  0
MTEXT
  5
2A37
330
1518
100
AcDbEntity
  8
0
 62
     0
100
AcDbMText
 10
552.6109564624205
 20
121.0892843618747
 30
0.0
 40
2.4375
 41
0.0
 46
0.0
 71
     5
 72
     1
  1
\A1;12" TYP
  7
ROMANS
 73
     1
 44
1.0
  0
SOLID
  5
2A38
330
1518
100
AcDbEntity
  8
0
 62
     0
100
AcDbTrace
 10
552.3001117643815
 20
117.2904819424383
 30
0.0
 11
552.8417784310483
 21
117.2904819424383
 31
0.0
 12
552.5709450977148
 22
115.6654819424383
 32
0.0
 13
552.5709450977148
 23
115.6654819424383
 33
0.0
  0
SOLID
  5
2A39
330
1518
100
AcDbEntity
  8
0
 62
     0
100
AcDbTrace
 10
552.3001117643815
 20
126.0404819424383
 30
0.0
 11
552.8417784310483
 21
126.0404819424383
 31
0.0
 12
552.5709450977148
 22
127.6654819424383
 32
0.0
 13
552.5709450977148
 23
127.6654819424383
 33
0.0
  0
POINT
  5
2A3A
330
1518
100
AcDbEntity
  8
DEFPOINTS
 62
     0
100
AcDbPoint
 10
541.8289333306405
 20
115.6654819424383
 30
0.0
  0
POINT
  5
2A3B
330
1518
100
AcDbEntity
  8
DEFPOINTS
 62
     0
100
AcDbPoint
 10
541.8289333306405
 20
127.6654819424383
 30
0.0
  0
POINT
  5
2A3C
330
1518
100
AcDbEntity
  8
DEFPOINTS
 62
     0
100
AcDbPoint
 10
552.5709450977148
 20
127.6654819424383
 30
0.0
  0
ENDBLK
  5
1524
330
1518
100
AcDbEntity
  8
0
100
AcDbBlockEnd
  0
BLOCK
  5
20E9
330
20E7
100
AcDbEntity
  8
0
100
AcDbBlockBegin
  2
Ldr-trd
 70
     0
 10
0.0
 20
0.0
 30
0.0
  3
Ldr-trd
  1

  0
LWPOLYLINE
  5
20E8
330
20E7
100
AcDbEntity
  8
0
  6
HIDDEN
100
AcDbPolyline
 90
        8
 70
     1
 43
0.0
 10
-0.75
 20
-0.75
 10
-1.125
 20
-0.75
 10
-1.125
 20
0.0
 10
1.125
 20
0.0000000000000284
 10
1.125
 20
-0.7499999999999716
 10
0.75
 20
-0.75
 10
0.75
 20
-0.21132790639885
 10
-0.75
 20
-0.21132790639885
  0
ENDBLK
  5
20EA
330
20E7
100
AcDbEntity
  8
0
100
AcDbBlockEnd
  0
BLOCK
  5
2286
330
227D
100
AcDbEntity
  8
0
100
AcDbBlockBegin
  2
A$C18BE6784
 70
     0
 10
0.0
 20
0.0
 30
0.0
  3
A$C18BE6784
  1

  0
TEXT
  5
227E
330
227D
100
AcDbEntity
  8
0
100
AcDbText
 10
267.3989518020214
 20
2.365031260050264
 30
0.0
 40
1.865531249999999
  1
LADDER RATED AT 1,500 LBS
  7
ROMANS
100
AcDbText
  0
TEXT
  5
227F
330
227D
100
AcDbEntity
  8
0
100
AcDbText
 10
157.4599557717698
 20
3.733688985078996
 30
0.0
 40
1.865531249999999
  1
INDIVIDUAL TREAD TESTED AT 
  7
ROMANS
100
AcDbText
  0
TEXT
  5
2280
330
227D
100
AcDbEntity
  8
0
100
AcDbText
 10
157.4599557717698
 20
0.8084108701939074
 30
0.0
 40
1.865531249999999
  1
3,000 LBS WITHOUT FAIL
  7
ROMANS
100
AcDbText
  0
TEXT
  5
2281
330
227D
100
AcDbEntity
  8
0
100
AcDbText
 10
19.61029261654752
 20
3.57139650926978
 30
0.0
 40
1.865531249999999
  1
LADDERS MANUFACTURED BY PRECISION LADDERS, LLC
  7
ROMANS
100
AcDbText
  0
TEXT
  5
2282
330
227D
100
AcDbEntity
  8
0
100
AcDbText
 10
19.61029261654752
 20
0.5510125806983723
 30
0.0
 40
1.865531249999999
  1
COMPLY WITH OSHA 1910.27 AND ANSI 14.3
  7
ROMANS
100
AcDbText
  0
LINE
  5
2283
330
227D
100
AcDbEntity
  8
0
 62
     1
100
AcDbLine
 10
332.7500000879587
 20
6.722102322563517
 30
0.0
 11
0.0000000879585826
 21
6.722102322563497
 31
0.0
  0
LINE
  5
2284
330
227D
100
AcDbEntity
  8
0
 62
     1
100
AcDbLine
 10
115.7230586583978
 20
6.7221023225635
 30
0.0
 11
115.7230586583978
 21
-0.0000002677630775
 31
0.0
  0
LINE
  5
2285
330
227D
100
AcDbEntity
  8
0
 62
     1
100
AcDbLine
 10
234.021150333826
 20
6.7221023225635
 30
0.0
 11
234.021150333826
 21
-0.0000002677630775
 31
0.0
  0
ENDBLK
  5
2287
330
227D
100
AcDbEntity
  8
0
100
AcDbBlockEnd
  0
BLOCK
  5
2570
330
256F
100
AcDbEntity
  8
0
100
AcDbBlockBegin
  2
*X24
 70
     1
 10
0.0
 20
0.0
 30
0.0
  3
*X24
  1

  0
LINE
  5
2571
330
256F
100
AcDbEntity
  8
0
 62
     0
100
AcDbLine
 10
-39.38783740946116
 20
-279.4947837961181
 30
0.0
 11
-38.65407559127778
 21
-278.7610219779348
 31
0.0
  0
LINE
  5
2572
330
256F
100
AcDbEntity
  8
0
 62
     0
100
AcDbLine
 10
-39.50054631068232
 20
-279.4749101758668
 30
0.0
 11
-38.76678449249896
 21
-278.7411483576835
 31
0.0
  0
LINE
  5
2573
330
256F
100
AcDbEntity
  8
0
 62
     0
100
AcDbLine
 10
-39.61325521190351
 20
-279.4550365556156
 30
0.0
 11
-38.87949339372014
 21
-278.7212747374322
 31
0.0
  0
LINE
  5
2574
330
256F
100
AcDbEntity
  8
0
 62
     0
100
AcDbLine
 10
-39.7259641131247
 20
-279.4351629353642
 30
0.0
 11
-38.99220229494132
 21
-278.7014011171809
 31
0.0
  0
LINE
  5
2575
330
256F
100
AcDbEntity
  8
0
 62
     0
100
AcDbLine
 10
-39.83867301434587
 20
-279.415289315113
 30
0.0
 11
-39.1049111961625
 21
-278.6815274969296
 31
0.0
  0
LINE
  5
2576
330
256F
100
AcDbEntity
  8
0
 62
     0
100
AcDbLine
 10
-39.95138191556705
 20
-279.3954156948617
 30
0.0
 11
-39.21762009738368
 21
-278.6616538766783
 31
0.0
  0
LINE
  5
2577
330
256F
100
AcDbEntity
  8
0
 62
     0
100
AcDbLine
 10
-40.06409081678821
 20
-279.3755420746104
 30
0.0
 11
-39.33032899860484
 21
-278.641780256427
 31
0.0
  0
LINE
  5
2578
330
256F
100
AcDbEntity
  8
0
 62
     0
100
AcDbLine
 10
-40.1767997180094
 20
-279.3556684543591
 30
0.0
 11
-40.06372011526283
 21
-279.2425888516125
 31
0.0
  0
LINE
  5
2579
330
256F
100
AcDbEntity
  8
0
 62
     0
100
AcDbLine
 10
-39.89688315430998
 20
-279.0757518906596
 30
0.0
 11
-39.44303789982602
 21
-278.6219066361756
 31
0.0
  0
LINE
  5
257A
330
256F
100
AcDbEntity
  8
0
 62
     0
100
AcDbLine
 10
-40.06372011526283
 20
-279.2425888516125
 30
0.0
 11
-39.89688315430998
 21
-279.0757518906597
 31
0.0
  0
LINE
  5
257B
330
256F
100
AcDbEntity
  8
0
 62
     0
100
AcDbLine
 10
-40.28950861923056
 20
-279.3357948341077
 30
0.0
 11
-40.10500766087813
 21
-279.1512938757553
 31
0.0
  0
LINE
  5
257C
330
256F
100
AcDbEntity
  8
0
 62
     0
100
AcDbLine
 10
-39.94078059974761
 20
-278.9870668146248
 30
0.0
 11
-39.5557468010472
 21
-278.6020330159244
 31
0.0
  0
LINE
  5
257D
330
256F
100
AcDbEntity
  8
0
 62
     0
100
AcDbLine
 10
-40.10500766087811
 20
-279.1512938757553
 30
0.0
 11
-39.9407805997476
 21
-278.9870668146248
 31
0.0
  0
LINE
  5
257E
330
256F
100
AcDbEntity
  8
0
 62
     0
100
AcDbLine
 10
-40.36990717715883
 20
-279.2836108705636
 30
0.0
 11
-40.1462952064934
 21
-279.0599988998982
 31
0.0
  0
LINE
  5
257F
330
256F
100
AcDbEntity
  8
0
 62
     0
100
AcDbLine
 10
-39.98467804518519
 20
-278.8983817385899
 30
0.0
 11
-39.66845570226838
 21
-278.5821593956731
 31
0.0
  0
LINE
  5
2580
330
256F
100
AcDbEntity
  8
0
 62
     0
100
AcDbLine
 10
-40.14629520649338
 20
-279.0599988998981
 30
0.0
 11
-39.98467804518524
 21
-278.89838173859
 31
0.0
  0
LINE
  5
2581
330
256F
100
AcDbEntity
  8
0
 62
     0
100
AcDbLine
 10
-40.32903303677044
 20
-279.1101542087027
 30
0.0
 11
-40.18758275210868
 21
-278.968703924041
 31
0.0
  0
LINE
  5
2582
330
256F
100
AcDbEntity
  8
0
 62
     0
100
AcDbLine
 10
-40.02857549062279
 20
-278.8096966625551
 30
0.0
 11
-39.78116460348956
 21
-278.5622857754218
 31
0.0
  0
LINE
  5
2583
330
256F
100
AcDbEntity
  8
0
 62
     0
100
AcDbLine
 10
-40.18758275210866
 20
-278.9687039240409
 30
0.0
 11
-40.02857549062286
 21
-278.8096966625551
 31
0.0
  0
LINE
  5
2584
330
256F
100
AcDbEntity
  8
0
 62
     0
100
AcDbLine
 10
-40.28815889638206
 20
-278.9366975468419
 30
0.0
 11
-40.22887029772395
 21
-278.8774089481838
 31
0.0
  0
LINE
  5
2585
330
256F
100
AcDbEntity
  8
0
 62
     0
100
AcDbLine
 10
-40.07247293606041
 20
-278.7210115865202
 30
0.0
 11
-39.89387350471074
 21
-278.5424121551705
 31
0.0
  0
LINE
  5
2586
330
256F
100
AcDbEntity
  8
0
 62
     0
100
AcDbLine
 10
-40.22887029772394
 20
-278.8774089481837
 30
0.0
 11
-40.07247293606049
 21
-278.7210115865203
 31
0.0
  0
LINE
  5
2587
330
256F
100
AcDbEntity
  8
0
 62
     0
100
AcDbLine
 10
-40.27015784333923
 20
-278.7861139723266
 30
0.0
 11
-40.11637038149812
 21
-278.6323265104854
 31
0.0
  0
LINE
  5
2588
330
256F
100
AcDbEntity
  8
0
 62
     0
100
AcDbLine
 10
-40.116370381498
 20
-278.6323265104853
 30
0.0
 11
-40.00658240593192
 21
-278.5225385349192
 31
0.0
  0
LINE
  5
2589
330
256F
100
AcDbEntity
  8
0
 62
     0
100
AcDbLine
 10
-40.31144538895452
 20
-278.6948189964694
 30
0.0
 11
-40.30692854477254
 21
-278.6903021522874
 31
0.0
  0
LINE
  5
258A
330
256F
100
AcDbEntity
  8
0
 62
     0
100
AcDbLine
 10
-39.69215944246978
 20
-278.0755330499846
 30
0.0
 11
-39.59237083622737
 21
-277.9757444437422
 31
0.0
  0
LINE
  5
258B
330
256F
100
AcDbEntity
  8
0
 62
     0
100
AcDbLine
 10
-40.30692854477248
 20
-278.6903021522873
 30
0.0
 11
-40.20641061560525
 21
-278.5897842231201
 31
0.0
  0
LINE
  5
258C
330
256F
100
AcDbEntity
  8
0
 62
     0
100
AcDbLine
 10
-40.16017812122486
 20
-278.5435517287397
 30
0.0
 11
-40.11929130715309
 21
-278.5026649146679
 31
0.0
  0
LINE
  5
258D
330
256F
100
AcDbEntity
  8
0
 62
     0
100
AcDbLine
 10
-40.20466276288202
 20
-278.5880363703969
 30
0.0
 11
-40.16017812122502
 21
-278.5435517287398
 31
0.0
  0
LINE
  5
258E
330
256F
100
AcDbEntity
  8
0
 62
     0
100
AcDbLine
 10
-40.41225758634928
 20
-278.6630486723916
 30
0.0
 11
-40.23018407840633
 21
-278.4809751644487
 31
0.0
  0
LINE
  5
258F
330
256F
100
AcDbEntity
  8
0
 62
     0
100
AcDbLine
 10
-39.73691136690469
 20
-277.987702452947
 30
0.0
 11
-39.6371227606623
 21
-277.8879138467047
 31
0.0
  0
LINE
  5
2590
330
256F
100
AcDbEntity
  8
0
 62
     0
100
AcDbLine
 10
-40.23018407840633
 20
-278.4809751644486
 30
0.0
 11
-40.20259152936932
 21
-278.4533826154117
 31
0.0
  0
LINE
  5
2591
330
256F
100
AcDbEntity
  8
0
 62
     0
100
AcDbLine
 10
-40.57051962558798
 20
-278.6887281901577
 30
0.0
 11
-40.51758662792604
 21
-278.6357951924959
 31
0.0
  0
LINE
  5
2592
330
256F
100
AcDbEntity
  8
0
 62
     0
100
AcDbLine
 10
-39.78166329133961
 20
-277.8998718559094
 30
0.0
 11
-39.68187468509722
 21
-277.8000832496671
 31
0.0
  0
LINE
  5
2593
330
256F
100
AcDbEntity
  8
0
 62
     0
100
AcDbLine
 10
-40.51758662792603
 20
-278.6357951924959
 30
0.0
 11
-40.33869630383812
 21
-278.456904868408
 31
0.0
  0
LINE
  5
2594
330
256F
100
AcDbEntity
  8
0
 62
     0
100
AcDbLine
 10
-40.33869630383812
 20
-278.456904868408
 30
0.0
 11
-40.24734345380425
 21
-278.3655520183742
 31
0.0
  0
LINE
  5
2595
330
256F
100
AcDbEntity
  8
0
 62
     0
100
AcDbLine
 10
-40.84083440815077
 20
-278.8264604512481
 30
0.0
 11
-40.62291566950281
 21
-278.6085417126002
 31
0.0
  0
LINE
  5
2596
330
256F
100
AcDbEntity
  8
0
 62
     0
100
AcDbLine
 10
-39.82641521577454
 20
-277.812041258872
 30
0.0
 11
-39.72662660953214
 21
-277.7122526526295
 31
0.0
  0
LINE
  5
2597
330
256F
100
AcDbEntity
  8
0
 62
     0
100
AcDbLine
 10
-40.62291566950278
 20
-278.6085417126002
 30
0.0
 11
-40.44720852926992
 21
-278.4328345723673
 31
0.0
  0
LINE
  5
2598
330
256F
100
AcDbEntity
  8
0
 62
     0
100
AcDbLine
 10
-40.44720852926991
 20
-278.4328345723673
 30
0.0
 11
-40.29209537823916
 21
-278.2777214213366
 31
0.0
  0
LINE
  5
2599
330
256F
100
AcDbEntity
  8
0
 62
     0
100
AcDbLine
 10
-41.07098574326527
 20
-278.9240292648902
 30
0.0
 11
-40.96884180887604
 21
-278.821885330501
 31
0.0
  0
LINE
  5
259A
330
256F
100
AcDbEntity
  8
0
 62
     0
100
AcDbLine
 10
-39.87116714020946
 20
-277.7242106618344
 30
0.0
 11
-39.77137853396706
 21
-277.624422055592
 31
0.0
  0
LINE
  5
259B
330
256F
100
AcDbEntity
  8
0
 62
     0
100
AcDbLine
 10
-40.96884180887601
 20
-278.8218853305009
 30
0.0
 11
-40.72824471107957
 21
-278.5812882327045
 31
0.0
  0
LINE
  5
259C
330
256F
100
AcDbEntity
  8
0
 62
     0
100
AcDbLine
 10
-40.55572075470169
 20
-278.4087642763266
 30
0.0
 11
-40.33684730267409
 21
-278.189890824299
 31
0.0
  0
LINE
  5
259D
330
256F
100
AcDbEntity
  8
0
 62
     0
100
AcDbLine
 10
-40.72824471107958
 20
-278.5812882327045
 30
0.0
 11
-40.55572075470172
 21
-278.4087642763266
 31
0.0
  0
LINE
  5
259E
330
256F
100
AcDbEntity
  8
0
 62
     0
100
AcDbLine
 10
-41.11573766770019
 20
-278.8361986678526
 30
0.0
 11
-41.01359373331094
 21
-278.7340547334634
 31
0.0
  0
LINE
  5
259F
330
256F
100
AcDbEntity
  8
0
 62
     0
100
AcDbLine
 10
-39.91591906464438
 20
-277.6363800647968
 30
0.0
 11
-39.81613045840198
 21
-277.5365914585544
 31
0.0
  0
LINE
  5
25A0
330
256F
100
AcDbEntity
  8
0
 62
     0
100
AcDbLine
 10
-41.01359373331097
 20
-278.7340547334634
 30
0.0
 11
-40.83357375265634
 21
-278.5540347528088
 31
0.0
  0
LINE
  5
25A1
330
256F
100
AcDbEntity
  8
0
 62
     0
100
AcDbLine
 10
-40.66423298013347
 20
-278.3846939802859
 30
0.0
 11
-40.38159922710902
 21
-278.1020602272615
 31
0.0
  0
LINE
  5
25A2
330
256F
100
AcDbEntity
  8
0
 62
     0
100
AcDbLine
 10
-40.83357375265634
 20
-278.5540347528088
 30
0.0
 11
-40.66423298013349
 21
-278.384693980286
 31
0.0
  0
LINE
  5
25A3
330
256F
100
AcDbEntity
  8
0
 62
     0
100
AcDbLine
 10
-41.16048959213512
 20
-278.7483680708151
 30
0.0
 11
-41.05834565774588
 21
-278.6462241364259
 31
0.0
  0
LINE
  5
25A4
330
256F
100
AcDbEntity
  8
0
 62
     0
100
AcDbLine
 10
-39.96067098907931
 20
-277.5485494677593
 30
0.0
 11
-39.86088238283691
 21
-277.4487608615169
 31
0.0
  0
LINE
  5
25A5
330
256F
100
AcDbEntity
  8
0
 62
     0
100
AcDbLine
 10
-41.05834565774586
 20
-278.6462241364258
 30
0.0
 11
-40.93646758632097
 21
-278.524346065001
 31
0.0
  0
LINE
  5
25A6
330
256F
100
AcDbEntity
  8
0
 62
     0
100
AcDbLine
 10
-40.77274520556526
 20
-278.3606236842452
 30
0.0
 11
-40.42635115154395
 21
-278.0142296302239
 31
0.0
  0
LINE
  5
25A7
330
256F
100
AcDbEntity
  8
0
 62
     0
100
AcDbLine
 10
-40.93646758632099
 20
-278.524346065001
 30
0.0
 11
-40.77274520556528
 21
-278.3606236842453
 31
0.0
  0
LINE
  5
25A8
330
256F
100
AcDbEntity
  8
0
 62
     0
100
AcDbLine
 10
-41.20524151657004
 20
-278.6605374737775
 30
0.0
 11
-41.10309758218079
 21
-278.5583935393883
 31
0.0
  0
LINE
  5
25A9
330
256F
100
AcDbEntity
  8
0
 62
     0
100
AcDbLine
 10
-40.00542291351423
 20
-277.4607188707217
 30
0.0
 11
-39.90563430727183
 21
-277.3609302644794
 31
0.0
  0
LINE
  5
25AA
330
256F
100
AcDbEntity
  8
0
 62
     0
100
AcDbLine
 10
-41.10309758218081
 20
-278.5583935393883
 30
0.0
 11
-40.90160135388338
 21
-278.3568973110909
 31
0.0
  0
LINE
  5
25AB
330
256F
100
AcDbEntity
  8
0
 62
     0
100
AcDbLine
 10
-40.87969543086212
 20
-278.3349913880696
 30
0.0
 11
-40.47110307597886
 21
-277.9263990331864
 31
0.0
  0
LINE
  5
25AC
330
256F
100
AcDbEntity
  8
0
 62
     0
100
AcDbLine
 10
-40.9016013538834
 20
-278.3568973110909
 30
0.0
 11
-40.87969543086214
 21
-278.3349913880696
 31
0.0
  0
LINE
  5
25AD
330
256F
100
AcDbEntity
  8
0
 62
     0
100
AcDbLine
 10
-41.24999344100497
 20
-278.57270687674
 30
0.0
 11
-41.14784950661573
 21
-278.4705629423507
 31
0.0
  0
LINE
  5
25AE
330
256F
100
AcDbEntity
  8
0
 62
     0
100
AcDbLine
 10
-40.05017483794916
 20
-277.3728882736842
 30
0.0
 11
-39.95038623170675
 21
-277.2730996674417
 31
0.0
  0
LINE
  5
25AF
330
256F
100
AcDbEntity
  8
0
 62
     0
100
AcDbLine
 10
-41.14784950661571
 20
-278.4705629423507
 30
0.0
 11
-40.51585500041379
 21
-277.8385684361488
 31
0.0
  0
LINE
  5
25B0
330
256F
100
AcDbEntity
  8
0
 62
     0
100
AcDbLine
 10
-40.13520989857035
 20
-277.4579233343053
 30
0.0
 11
-40.05017483794913
 21
-277.3728882736842
 31
0.0
  0
LINE
  5
25B1
330
256F
100
AcDbEntity
  8
0
 62
     0
100
AcDbLine
 10
-41.29474536543989
 20
-278.4848762797024
 30
0.0
 11
-41.19260143105066
 21
-278.3827323453132
 31
0.0
  0
LINE
  5
25B2
330
256F
100
AcDbEntity
  8
0
 62
     0
100
AcDbLine
 10
-40.09492676238408
 20
-277.2850576766466
 30
0.0
 11
-39.99513815614167
 21
-277.1852690704042
 31
0.0
  0
LINE
  5
25B3
330
256F
100
AcDbEntity
  8
0
 62
     0
100
AcDbLine
 10
-41.19260143105065
 20
-278.3827323453131
 30
0.0
 11
-40.56060692484869
 21
-277.7507378391113
 31
0.0
  0
LINE
  5
25B4
330
256F
100
AcDbEntity
  8
0
 62
     0
100
AcDbLine
 10
-40.39402495983168
 20
-277.5841558740942
 30
0.0
 11
-40.09492676238404
 21
-277.2850576766466
 31
0.0
  0
LINE
  5
25B5
330
256F
100
AcDbEntity
  8
0
 62
     0
100
AcDbLine
 10
-41.3394972898748
 20
-278.3970456826649
 30
0.0
 11
-41.23735335548558
 21
-278.2949017482756
 31
0.0
  0
LINE
  5
25B6
330
256F
100
AcDbEntity
  8
0
 62
     0
100
AcDbLine
 10
-40.13967868681899
 20
-277.197227079609
 30
0.0
 11
-40.0398900805766
 21
-277.0974384733666
 31
0.0
  0
LINE
  5
25B7
330
256F
100
AcDbEntity
  8
0
 62
     0
100
AcDbLine
 10
-41.23735335548557
 20
-278.2949017482756
 30
0.0
 11
-40.65284002109301
 21
-277.7103884138831
 31
0.0
  0
LINE
  5
25B8
330
256F
100
AcDbEntity
  8
0
 62
     0
100
AcDbLine
 10
-40.65284002109302
 20
-277.710388413883
 30
0.0
 11
-40.33209807941335
 21
-277.3896464722034
 31
0.0
  0
LINE
  5
25B9
330
256F
100
AcDbEntity
  8
0
 62
     0
100
AcDbLine
 10
-41.38424921430973
 20
-278.3092150856273
 30
0.0
 11
-41.28210527992051
 21
-278.2070711512381
 31
0.0
  0
LINE
  5
25BA
330
256F
100
AcDbEntity
  8
0
 62
     0
100
AcDbLine
 10
-40.18443061125393
 20
-277.1093964825715
 30
0.0
 11
-40.08464200501151
 21
-277.0096078763291
 31
0.0
  0
LINE
  5
25BB
330
256F
100
AcDbEntity
  8
0
 62
     0
100
AcDbLine
 10
-41.2821052799205
 20
-278.2070711512381
 30
0.0
 11
-40.91165508235433
 21
-277.8366209536719
 31
0.0
  0
LINE
  5
25BC
330
256F
100
AcDbEntity
  8
0
 62
     0
100
AcDbLine
 10
-40.91165508235427
 20
-277.8366209536719
 30
0.0
 11
-40.60241286197611
 21
-277.5273787332937
 31
0.0
  0
LINE
  5
25BD
330
256F
100
AcDbEntity
  8
0
 62
     0
100
AcDbLine
 10
-41.42900113874467
 20
-278.2213844885897
 30
0.0
 11
-41.32685720435543
 21
-278.1192405542005
 31
0.0
  0
LINE
  5
25BE
330
256F
100
AcDbEntity
  8
0
 62
     0
100
AcDbLine
 10
-40.22918253568884
 20
-277.0215658855339
 30
0.0
 11
-40.12939392944644
 21
-276.9217772792915
 31
0.0
  0
LINE
  5
25BF
330
256F
100
AcDbEntity
  8
0
 62
     0
100
AcDbLine
 10
-41.32685720435541
 20
-278.1192405542005
 30
0.0
 11
-40.99595323982196
 21
-277.788336589667
 31
0.0
  0
LINE
  5
25C0
330
256F
100
AcDbEntity
  8
0
 62
     0
100
AcDbLine
 10
-40.87272764453877
 20
-277.6651109943838
 30
0.0
 11
-40.69486269815346
 21
-277.4872460479985
 31
0.0
  0
LINE
  5
25C1
330
256F
100
AcDbEntity
  8
0
 62
     0
100
AcDbLine
 10
-40.99595323982194
 20
-277.788336589667
 30
0.0
 11
-40.87272764453897
 21
-277.665110994384
 31
0.0
  0
LINE
  5
25C2
330
256F
100
AcDbEntity
  8
0
 62
     0
100
AcDbLine
 10
-41.47375306317957
 20
-278.1335538915521
 30
0.0
 11
-41.37160912879036
 21
-278.031409957163
 31
0.0
  0
LINE
  5
25C3
330
256F
100
AcDbEntity
  8
0
 62
     0
100
AcDbLine
 10
-40.27393446012377
 20
-276.9337352884964
 30
0.0
 11
-40.17414585388136
 21
-276.833946682254
 31
0.0
  0
LINE
  5
25C4
330
256F
100
AcDbEntity
  8
0
 62
     0
100
AcDbLine
 10
-41.37160912879035
 20
-278.0314099571629
 30
0.0
 11
-40.73961462258838
 21
-277.399415450961
 31
0.0
  0
LINE
  5
25C5
330
256F
100
AcDbEntity
  8
0
 62
     0
100
AcDbLine
 10
-41.51850498761451
 20
-278.0457232945146
 30
0.0
 11
-41.41636105322528
 21
-277.9435793601255
 31
0.0
  0
LINE
  5
25C6
330
256F
100
AcDbEntity
  8
0
 62
     0
100
AcDbLine
 10
-40.3186863845587
 20
-276.8459046914588
 30
0.0
 11
-40.21889777831629
 21
-276.7461160852164
 31
0.0
  0
LINE
  5
25C7
330
256F
100
AcDbEntity
  8
0
 62
     0
100
AcDbLine
 10
-41.41636105322527
 20
-277.9435793601254
 30
0.0
 11
-40.78436654702331
 21
-277.3115848539234
 31
0.0
  0
LINE
  5
25C8
330
256F
100
AcDbEntity
  8
0
 62
     0
100
AcDbLine
 10
-41.56325691204942
 20
-277.9578926974771
 30
0.0
 11
-41.46111297766021
 21
-277.8557487630879
 31
0.0
  0
LINE
  5
25C9
330
256F
100
AcDbEntity
  8
0
 62
     0
100
AcDbLine
 10
-40.36343830899361
 20
-276.7580740944213
 30
0.0
 11
-40.2636497027512
 21
-276.6582854881789
 31
0.0
  0
LINE
  5
25CA
330
256F
100
AcDbEntity
  8
0
 62
     0
100
AcDbLine
 10
-41.4611129776602
 20
-277.8557487630878
 30
0.0
 11
-40.82911847145823
 21
-277.2237542568859
 31
0.0
  0
LINE
  5
25CB
330
256F
100
AcDbEntity
  8
0
 62
     0
100
AcDbLine
 10
-41.60800883648435
 20
-277.8700621004395
 30
0.0
 11
-41.50586490209513
 21
-277.7679181660503
 31
0.0
  0
LINE
  5
25CC
330
256F
100
AcDbEntity
  8
0
 62
     0
100
AcDbLine
 10
-40.40819023342854
 20
-276.6702434973837
 30
0.0
 11
-40.30840162718615
 21
-276.5704548911414
 31
0.0
  0
LINE
  5
25CD
330
256F
100
AcDbEntity
  8
0
 62
     0
100
AcDbLine
 10
-41.50586490209512
 20
-277.7679181660503
 30
0.0
 11
-40.87387039589315
 21
-277.1359236598483
 31
0.0
  0
LINE
  5
25CE
330
256F
100
AcDbEntity
  8
0
 62
     0
100
AcDbLine
 10
-41.65276076091928
 20
-277.782231503402
 30
0.0
 11
-41.55061682653006
 21
-277.6800875690128
 31
0.0
  0
LINE
  5
25CF
330
256F
100
AcDbEntity
  8
0
 62
     0
100
AcDbLine
 10
-40.45294215786347
 20
-276.5824129003462
 30
0.0
 11
-40.35315355162107
 21
-276.4826242941037
 31
0.0
  0
LINE
  5
25D0
330
256F
100
AcDbEntity
  8
0
 62
     0
100
AcDbLine
 10
-41.55061682653004
 20
-277.6800875690128
 30
0.0
 11
-40.91862232032808
 21
-277.0480930628108
 31
0.0
  0
LINE
  5
25D1
330
256F
100
AcDbEntity
  8
0
 62
     0
100
AcDbLine
 10
-41.6975126853542
 20
-277.6944009063644
 30
0.0
 11
-41.59536875096497
 21
-277.5922569719752
 31
0.0
  0
LINE
  5
25D2
330
256F
100
AcDbEntity
  8
0
 62
     0
100
AcDbLine
 10
-40.49769408229838
 20
-276.4945823033086
 30
0.0
 11
-40.39790547605599
 21
-276.3947936970662
 31
0.0
  0
LINE
  5
25D3
330
256F
100
AcDbEntity
  8
0
 62
     0
100
AcDbLine
 10
-41.59536875096496
 20
-277.5922569719751
 30
0.0
 11
-40.963374244763
 21
-276.9602624657732
 31
0.0
  0
LINE
  5
25D4
330
256F
100
AcDbEntity
  8
0
 62
     0
100
AcDbLine
 10
-41.74226460978912
 20
-277.6065703093268
 30
0.0
 11
-41.6401206753999
 21
-277.5044263749377
 31
0.0
  0
LINE
  5
25D5
330
256F
100
AcDbEntity
  8
0
 62
     0
100
AcDbLine
 10
-40.54244600673332
 20
-276.4067517062711
 30
0.0
 11
-40.44265740049091
 21
-276.3069631000287
 31
0.0
  0
LINE
  5
25D6
330
256F
100
AcDbEntity
  8
0
 62
     0
100
AcDbLine
 10
-41.64012067539989
 20
-277.5044263749376
 30
0.0
 11
-41.00812616919793
 21
-276.8724318687357
 31
0.0
  0
LINE
  5
25D7
330
256F
100
AcDbEntity
  8
0
 62
     0
100
AcDbLine
 10
-41.78701653422404
 20
-277.5187397122893
 30
0.0
 11
-41.68487259983481
 21
-277.4165957779001
 31
0.0
  0
LINE
  5
25D8
330
256F
100
AcDbEntity
  8
0
 62
     0
100
AcDbLine
 10
-40.58719793116824
 20
-276.3189211092335
 30
0.0
 11
-40.48740932492584
 21
-276.2191325029911
 31
0.0
  0
LINE
  5
25D9
330
256F
100
AcDbEntity
  8
0
 62
     0
100
AcDbLine
 10
-41.68487259983482
 20
-277.4165957779001
 30
0.0
 11
-41.05287809363285
 21
-276.7846012716981
 31
0.0
  0
LINE
  5
25DA
330
256F
100
AcDbEntity
  8
0
 62
     0
100
AcDbLine
 10
-41.83176845865896
 20
-277.4309091152518
 30
0.0
 11
-41.72962452426975
 21
-277.3287651808626
 31
0.0
  0
LINE
  5
25DB
330
256F
100
AcDbEntity
  8
0
 62
     0
100
AcDbLine
 10
-40.63194985560315
 20
-276.2310905121959
 30
0.0
 11
-40.53216124936076
 21
-276.1313019059535
 31
0.0
  0
LINE
  5
25DC
330
256F
100
AcDbEntity
  8
0
 62
     0
100
AcDbLine
 10
-41.72962452426975
 20
-277.3287651808625
 30
0.0
 11
-41.09763001806778
 21
-276.6967706746606
 31
0.0
  0
LINE
  5
25DD
330
256F
100
AcDbEntity
  8
0
 62
     0
100
AcDbLine
 10
-41.8765203830939
 20
-277.3430785182142
 30
0.0
 11
-41.77437644870467
 21
-277.240934583825
 31
0.0
  0
LINE
  5
25DE
330
256F
100
AcDbEntity
  8
0
 62
     0
100
AcDbLine
 10
-40.67670178003808
 20
-276.1432599151584
 30
0.0
 11
-40.57691317379568
 21
-276.043471308916
 31
0.0
  0
LINE
  5
25DF
330
256F
100
AcDbEntity
  8
0
 62
     0
100
AcDbLine
 10
-41.77437644870467
 20
-277.240934583825
 30
0.0
 11
-41.1423819425027
 21
-276.608940077623
 31
0.0
  0
LINE
  5
25E0
330
256F
100
AcDbEntity
  8
0
 62
     0
100
AcDbLine
 10
-41.92127230752881
 20
-277.2552479211766
 30
0.0
 11
-41.8191283731396
 21
-277.1531039867875
 31
0.0
  0
LINE
  5
25E1
330
256F
100
AcDbEntity
  8
0
 62
     0
100
AcDbLine
 10
-40.72145370447301
 20
-276.0554293181209
 30
0.0
 11
-40.6216650982306
 21
-275.9556407118785
 31
0.0
  0
LINE
  5
25E2
330
256F
100
AcDbEntity
  8
0
 62
     0
100
AcDbLine
 10
-41.81912837313959
 20
-277.1531039867874
 30
0.0
 11
-41.18713386693762
 21
-276.5211094805855
 31
0.0
  0
LINE
  5
25E3
330
256F
100
AcDbEntity
  8
0
 62
     0
100
AcDbLine
 10
-41.96602423196374
 20
-277.1674173241391
 30
0.0
 11
-41.86388029757452
 21
-277.0652733897499
 31
0.0
  0
LINE
  5
25E4
330
256F
100
AcDbEntity
  8
0
 62
     0
100
AcDbLine
 10
-35.8061910555824
 20
-271.0075841477578
 30
0.0
 11
-35.70443277119299
 21
-270.9058258633683
 31
0.0
  0
LINE
  5
25E5
330
256F
100
AcDbEntity
  8
0
 62
     0
100
AcDbLine
 10
-41.86388029757451
 20
-277.0652733897498
 30
0.0
 11
-41.23188579137255
 21
-276.4332788835479
 31
0.0
  0
LINE
  5
25E6
330
256F
100
AcDbEntity
  8
0
 62
     0
100
AcDbLine
 10
-40.76620562890794
 20
-275.9675987210833
 30
0.0
 11
-40.66641702266553
 21
-275.8678101148409
 31
0.0
  0
LINE
  5
25E7
330
256F
100
AcDbEntity
  8
0
 62
     0
100
AcDbLine
 10
-42.01077615639866
 20
-277.0795867271015
 30
0.0
 11
-41.90863222200944
 21
-276.9774427927123
 31
0.0
  0
LINE
  5
25E8
330
256F
100
AcDbEntity
  8
0
 62
     0
100
AcDbLine
 10
-35.93877357705487
 20
-271.0075841477578
 30
0.0
 11
-35.70443277119299
 21
-270.7732433418959
 31
0.0
  0
LINE
  5
25E9
330
256F
100
AcDbEntity
  8
0
 62
     0
100
AcDbLine
 10
-41.90863222200944
 20
-276.9774427927123
 30
0.0
 11
-41.27663771580747
 21
-276.3454482865104
 31
0.0
  0
LINE
  5
25EA
330
256F
100
AcDbEntity
  8
0
 62
     0
100
AcDbLine
 10
-40.81095755334286
 20
-275.8797681240458
 30
0.0
 11
-40.71116894710044
 21
-275.7799795178034
 31
0.0
  0
LINE
  5
25EB
330
256F
100
AcDbEntity
  8
0
 62
     0
100
AcDbLine
 10
-42.05552808083359
 20
-276.991756130064
 30
0.0
 11
-41.95338414644437
 21
-276.8896121956748
 31
0.0
  0
LINE
  5
25EC
330
256F
100
AcDbEntity
  8
0
 62
     0
100
AcDbLine
 10
-36.07135609852736
 20
-271.0075841477578
 30
0.0
 11
-35.70443277119299
 21
-270.6406608204234
 31
0.0
  0
LINE
  5
25ED
330
256F
100
AcDbEntity
  8
0
 62
     0
100
AcDbLine
 10
-41.95338414644437
 20
-276.8896121956748
 30
0.0
 11
-41.32138964024239
 21
-276.2576176894728
 31
0.0
  0
LINE
  5
25EE
330
256F
100
AcDbEntity
  8
0
 62
     0
100
AcDbLine
 10
-40.85570947777777
 20
-275.7919375270082
 30
0.0
 11
-40.75592087153537
 21
-275.6921489207658
 31
0.0
  0
LINE
  5
25EF
330
256F
100
AcDbEntity
  8
0
 62
     0
100
AcDbLine
 10
-42.10028000526851
 20
-276.9039255330264
 30
0.0
 11
-41.99813607087929
 21
-276.8017815986373
 31
0.0
  0
LINE
  5
25F0
330
256F
100
AcDbEntity
  8
0
 62
     0
100
AcDbLine
 10
-36.20393861999985
 20
-271.0075841477578
 30
0.0
 11
-35.70443277119299
 21
-270.5080782989509
 31
0.0
  0
LINE
  5
25F1
330
256F
100
AcDbEntity
  8
0
 62
     0
100
AcDbLine
 10
-41.99813607087929
 20
-276.8017815986372
 30
0.0
 11
-41.36614156467731
 21
-276.1697870924352
 31
0.0
  0
LINE
  5
25F2
330
256F
100
AcDbEntity
  8
0
 62
     0
100
AcDbLine
 10
-40.90046140221271
 20
-275.7041069299706
 30
0.0
 11
-40.80067279597029
 21
-275.6043183237283
 31
0.0
  0
LINE
  5
25F3
330
256F
100
AcDbEntity
  8
0
 62
     0
100
AcDbLine
 10
-42.14503192970343
 20
-276.8160949359889
 30
0.0
 11
-42.04288799531422
 21
-276.7139510015997
 31
0.0
  0
LINE
  5
25F4
330
256F
100
AcDbEntity
  8
0
 62
     0
100
AcDbLine
 10
-36.33652114147233
 20
-271.0075841477578
 30
0.0
 11
-35.70443277119299
 21
-270.3754957774785
 31
0.0
  0
LINE
  5
25F5
330
256F
100
AcDbEntity
  8
0
 62
     0
100
AcDbLine
 10
-42.04288799531422
 20
-276.7139510015996
 30
0.0
 11
-41.41089348911224
 21
-276.0819564953977
 31
0.0
  0
LINE
  5
25F6
330
256F
100
AcDbEntity
  8
0
 62
     0
100
AcDbLine
 10
-40.94521332664762
 20
-275.6162763329331
 30
0.0
 11
-40.84542472040522
 21
-275.5164877266907
 31
0.0
  0
LINE
  5
25F7
330
256F
100
AcDbEntity
  8
0
 62
     0
100
AcDbLine
 10
-42.18978385413836
 20
-276.7282643389513
 30
0.0
 11
-42.08763991974914
 21
-276.6261204045621
 31
0.0
  0
LINE
  5
25F8
330
256F
100
AcDbEntity
  8
0
 62
     0
100
AcDbLine
 10
-36.46910366294478
 20
-271.0075841477578
 30
0.0
 11
-35.70443277119299
 21
-270.242913256006
 31
0.0
  0
LINE
  5
25F9
330
256F
100
AcDbEntity
  8
0
 62
     0
100
AcDbLine
 10
-42.08763991974914
 20
-276.6261204045621
 30
0.0
 11
-41.45564541354717
 21
-275.9941258983601
 31
0.0
  0
LINE
  5
25FA
330
256F
100
AcDbEntity
  8
0
 62
     0
100
AcDbLine
 10
-40.98996525108254
 20
-275.5284457358955
 30
0.0
 11
-40.89017664484013
 21
-275.4286571296531
 31
0.0
  0
LINE
  5
25FB
330
256F
100
AcDbEntity
  8
0
 62
     0
100
AcDbLine
 10
-42.23453577857329
 20
-276.6404337419138
 30
0.0
 11
-42.13239184418406
 21
-276.5382898075245
 31
0.0
  0
LINE
  5
25FC
330
256F
100
AcDbEntity
  8
0
 62
     0
100
AcDbLine
 10
-36.60168618441726
 20
-271.0075841477578
 30
0.0
 11
-35.7069169949642
 21
-270.1128149583047
 31
0.0
  0
LINE
  5
25FD
330
256F
100
AcDbEntity
  8
0
 62
     0
100
AcDbLine
 10
-42.13239184418408
 20
-276.5382898075245
 30
0.0
 11
-41.50039733798208
 21
-275.9062953013226
 31
0.0
  0
LINE
  5
25FE
330
256F
100
AcDbEntity
  8
0
 62
     0
100
AcDbLine
 10
-41.03471717551747
 20
-275.4406151388579
 30
0.0
 11
-40.93492856927506
 21
-275.3408265326156
 31
0.0
  0
LINE
  5
25FF
330
256F
100
AcDbEntity
  8
0
 62
     0
100
AcDbLine
 10
-42.2792877030082
 20
-276.5526031448762
 30
0.0
 11
-42.17714376861898
 21
-276.450459210487
 31
0.0
  0
LINE
  5
2600
330
256F
100
AcDbEntity
  8
0
 62
     0
100
AcDbLine
 10
-36.73426870588975
 20
-271.0075841477578
 30
0.0
 11
-35.83949951643669
 21
-270.1128149583047
 31
0.0
  0
LINE
  5
2601
330
256F
100
AcDbEntity
  8
0
 62
     0
100
AcDbLine
 10
-42.17714376861898
 20
-276.450459210487
 30
0.0
 11
-41.54514926241701
 21
-275.818464704285
 31
0.0
  0
LINE
  5
2602
330
256F
100
AcDbEntity
  8
0
 62
     0
100
AcDbLine
 10
-41.0794690999524
 20
-275.3527845418204
 30
0.0
 11
-40.97968049370998
 21
-275.2529959355781
 31
0.0
  0
LINE
  5
2603
330
256F
100
AcDbEntity
  8
0
 62
     0
100
AcDbLine
 10
-42.32403962744313
 20
-276.4647725478386
 30
0.0
 11
-42.22189569305391
 21
-276.3626286134495
 31
0.0
  0
LINE
  5
2604
330
256F
100
AcDbEntity
  8
0
 62
     0
100
AcDbLine
 10
-36.86685122736224
 20
-271.0075841477578
 30
0.0
 11
-35.97208203790917
 21
-270.1128149583047
 31
0.0
  0
LINE
  5
2605
330
256F
100
AcDbEntity
  8
0
 62
     0
100
AcDbLine
 10
-42.22189569305391
 20
-276.3626286134494
 30
0.0
 11
-41.58990118685194
 21
-275.7306341072474
 31
0.0
  0
LINE
  5
2606
330
256F
100
AcDbEntity
  8
0
 62
     0
100
AcDbLine
 10
-41.12422102438733
 20
-275.2649539447828
 30
0.0
 11
-41.02443241814492
 21
-275.1651653385405
 31
0.0
  0
LINE
  5
2607
330
256F
100
AcDbEntity
  8
0
 62
     0
100
AcDbLine
 10
-42.36879155187804
 20
-276.3769419508011
 30
0.0
 11
-42.2684645752521
 21
-276.2766149741751
 31
0.0
  0
LINE
  5
2608
330
256F
100
AcDbEntity
  8
0
 62
     0
100
AcDbLine
 10
-36.99943374883472
 20
-271.0075841477578
 30
0.0
 11
-36.10466455938166
 21
-270.1128149583047
 31
0.0
  0
LINE
  5
2609
330
256F
100
AcDbEntity
  8
0
 62
     0
100
AcDbLine
 10
-42.26664761748884
 20
-276.2747980164119
 30
0.0
 11
-42.19792528481469
 21
-276.2060756837377
 31
0.0
  0
LINE
  5
260A
330
256F
100
AcDbEntity
  8
0
 62
     0
100
AcDbLine
 10
-41.16897294882225
 20
-275.1771233477454
 30
0.0
 11
-41.06918434257984
 21
-275.0773347415029
 31
0.0
  0
LINE
  5
260B
330
256F
100
AcDbEntity
  8
0
 62
     0
100
AcDbLine
 10
-42.1979252848146
 20
-276.2060756837377
 30
0.0
 11
-42.10043854447298
 21
-276.108588943396
 31
0.0
  0
LINE
  5
260C
330
256F
100
AcDbEntity
  8
0
 62
     0
100
AcDbLine
 10
-41.99598251496389
 20
-276.004132913887
 30
0.0
 11
-41.63465311128686
 21
-275.6428035102099
 31
0.0
  0
LINE
  5
260D
330
256F
100
AcDbEntity
  8
0
 62
     0
100
AcDbLine
 10
-42.10043854447292
 20
-276.1085889433959
 30
0.0
 11
-42.09566753742882
 21
-276.1038179363519
 31
0.0
  0
LINE
  5
260E
330
256F
100
AcDbEntity
  8
0
 62
     0
100
AcDbLine
 10
-42.09566753742871
 20
-276.1038179363518
 30
0.0
 11
-41.99598251496389
 21
-276.004132913887
 31
0.0
  0
LINE
  5
260F
330
256F
100
AcDbEntity
  8
0
 62
     0
100
AcDbLine
 10
-42.41354347631298
 20
-276.2891113537635
 30
0.0
 11
-42.31321649968703
 21
-276.1887843771376
 31
0.0
  0
LINE
  5
2610
330
256F
100
AcDbEntity
  8
0
 62
     0
100
AcDbLine
 10
-37.13201627030717
 20
-271.0075841477578
 30
0.0
 11
-36.23724708085414
 21
-270.1128149583047
 31
0.0
  0
LINE
  5
2611
330
256F
100
AcDbEntity
  8
0
 62
     0
100
AcDbLine
 10
-42.31139954192374
 20
-276.1869674193743
 30
0.0
 11
-42.1892754338011
 21
-276.0648433112517
 31
0.0
  0
LINE
  5
2612
330
256F
100
AcDbEntity
  8
0
 62
     0
100
AcDbLine
 10
-41.21372487325716
 20
-275.0892927507078
 30
0.0
 11
-41.11393626701477
 21
-274.9895041444653
 31
0.0
  0
LINE
  5
2613
330
256F
100
AcDbEntity
  8
0
 62
     0
100
AcDbLine
 10
-42.18927543380108
 20
-276.0648433112517
 30
0.0
 11
-42.14458912338753
 21
-276.0201570008381
 31
0.0
  0
LINE
  5
2614
330
256F
100
AcDbEntity
  8
0
 62
     0
100
AcDbLine
 10
-41.96714156490001
 20
-275.8427094423506
 30
0.0
 11
-41.67940503572178
 21
-275.5549729131724
 31
0.0
  0
LINE
  5
2615
330
256F
100
AcDbEntity
  8
0
 62
     0
100
AcDbLine
 10
-42.11450619999326
 20
-275.9900740774438
 30
0.0
 11
-41.96714156489998
 21
-275.8427094423506
 31
0.0
  0
LINE
  5
2616
330
256F
100
AcDbEntity
  8
0
 62
     0
100
AcDbLine
 10
-42.4582954007479
 20
-276.201280756726
 30
0.0
 11
-42.35796842412195
 21
-276.1009537801001
 31
0.0
  0
LINE
  5
2617
330
256F
100
AcDbEntity
  8
0
 62
     0
100
AcDbLine
 10
-37.26459879177965
 20
-271.0075841477578
 30
0.0
 11
-36.36982960232659
 21
-270.1128149583047
 31
0.0
  0
LINE
  5
2618
330
256F
100
AcDbEntity
  8
0
 62
     0
100
AcDbLine
 10
-42.35615146635868
 20
-276.0991368223368
 30
0.0
 11
-42.27628628029851
 21
-276.0192716362766
 31
0.0
  0
LINE
  5
2619
330
256F
100
AcDbEntity
  8
0
 62
     0
100
AcDbLine
 10
-41.2584767976921
 20
-275.0014621536702
 30
0.0
 11
-41.15868819144969
 21
-274.9016735474278
 31
0.0
  0
LINE
  5
261A
330
256F
100
AcDbEntity
  8
0
 62
     0
100
AcDbLine
 10
-42.27628628029848
 20
-276.0192716362765
 30
0.0
 11
-41.83861559237119
 21
-275.5816009483493
 31
0.0
  0
LINE
  5
261B
330
256F
100
AcDbEntity
  8
0
 62
     0
100
AcDbLine
 10
-41.83861559237118
 20
-275.5816009483492
 30
0.0
 11
-41.72415696015671
 21
-275.4671423161348
 31
0.0
  0
LINE
  5
261C
330
256F
100
AcDbEntity
  8
0
 62
     0
100
AcDbLine
 10
-42.50304732518282
 20
-276.1134501596885
 30
0.0
 11
-42.40272034855689
 21
-276.0131231830625
 31
0.0
  0
LINE
  5
261D
330
256F
100
AcDbEntity
  8
0
 62
     0
100
AcDbLine
 10
-37.39718131325214
 20
-271.0075841477578
 30
0.0
 11
-36.50241212379908
 21
-270.1128149583047
 31
0.0
  0
LINE
  5
261E
330
256F
100
AcDbEntity
  8
0
 62
     0
100
AcDbLine
 10
-42.4009033907936
 20
-276.0113062252992
 30
0.0
 11
-42.19714334742477
 21
-275.8075461819304
 31
0.0
  0
LINE
  5
261F
330
256F
100
AcDbEntity
  8
0
 62
     0
100
AcDbLine
 10
-41.30322872212701
 20
-274.9136315566326
 30
0.0
 11
-41.20344011588461
 21
-274.8138429503903
 31
0.0
  0
LINE
  5
2620
330
256F
100
AcDbEntity
  8
0
 62
     0
100
AcDbLine
 10
-42.19714334742469
 20
-275.8075461819303
 30
0.0
 11
-42.14776030776967
 21
-275.7581631422754
 31
0.0
  0
LINE
  5
2621
330
256F
100
AcDbEntity
  8
0
 62
     0
100
AcDbLine
 10
-42.14776030776969
 20
-275.7581631422754
 30
0.0
 11
-41.71008961984234
 21
-275.320492454348
 31
0.0
  0
LINE
  5
2622
330
256F
100
AcDbEntity
  8
0
 62
     0
100
AcDbLine
 10
-42.54779924961775
 20
-276.0256195626509
 30
0.0
 11
-42.44747227299181
 21
-275.925292586025
 31
0.0
  0
LINE
  5
2623
330
256F
100
AcDbEntity
  8
0
 62
     0
100
AcDbLine
 10
-37.52976383472462
 20
-271.0075841477578
 30
0.0
 11
-36.63499464527156
 21
-270.1128149583047
 31
0.0
  0
LINE
  5
2624
330
256F
100
AcDbEntity
  8
0
 62
     0
100
AcDbLine
 10
-42.44565531522854
 20
-275.9234756282617
 30
0.0
 11
-42.01923433524084
 21
-275.497054648274
 31
0.0
  0
LINE
  5
2625
330
256F
100
AcDbEntity
  8
0
 62
     0
100
AcDbLine
 10
-41.34798064656194
 20
-274.8258009595951
 30
0.0
 11
-41.24819204031953
 21
-274.7260123533527
 31
0.0
  0
LINE
  5
2626
330
256F
100
AcDbEntity
  8
0
 62
     0
100
AcDbLine
 10
-42.01923433524087
 20
-275.497054648274
 30
0.0
 11
-41.58156364731355
 21
-275.0593839603467
 31
0.0
  0
LINE
  5
2627
330
256F
100
AcDbEntity
  8
0
 62
     0
100
AcDbLine
 10
-42.59255117405266
 20
-275.9377889656133
 30
0.0
 11
-42.49040723966347
 21
-275.8356450312241
 31
0.0
  0
LINE
  5
2628
330
256F
100
AcDbEntity
  8
0
 62
     0
100
AcDbLine
 10
-37.6623463561971
 20
-271.0075841477578
 30
0.0
 11
-36.76757716674404
 21
-270.1128149583047
 31
0.0
  0
LINE
  5
2629
330
256F
100
AcDbEntity
  8
0
 62
     0
100
AcDbLine
 10
-42.49040723966347
 20
-275.8356450312241
 30
0.0
 11
-41.89070836271205
 21
-275.2359461542728
 31
0.0
  0
LINE
  5
262A
330
256F
100
AcDbEntity
  8
0
 62
     0
100
AcDbLine
 10
-41.39273257099687
 20
-274.7379703625575
 30
0.0
 11
-41.29294396475446
 21
-274.6381817563151
 31
0.0
  0
LINE
  5
262B
330
256F
100
AcDbEntity
  8
0
 62
     0
100
AcDbLine
 10
-41.89070836271203
 20
-275.2359461542727
 30
0.0
 11
-41.45303767478471
 21
-274.7982754663454
 31
0.0
  0
LINE
  5
262C
330
256F
100
AcDbEntity
  8
0
 62
     0
100
AcDbLine
 10
-42.63730309848759
 20
-275.8499583685758
 30
0.0
 11
-42.53515916409838
 21
-275.7478144341866
 31
0.0
  0
LINE
  5
262D
330
256F
100
AcDbEntity
  8
0
 62
     0
100
AcDbLine
 10
-37.79492887766956
 20
-271.0075841477578
 30
0.0
 11
-36.90015968821653
 21
-270.1128149583047
 31
0.0
  0
LINE
  5
262E
330
256F
100
AcDbEntity
  8
0
 62
     0
100
AcDbLine
 10
-42.53515916409839
 20
-275.7478144341866
 30
0.0
 11
-41.90316465789641
 21
-275.1158199279846
 31
0.0
  0
LINE
  5
262F
330
256F
100
AcDbEntity
  8
0
 62
     0
100
AcDbLine
 10
-41.76218239018321
 20
-274.9748376602715
 30
0.0
 11
-41.32451170225591
 21
-274.5371669723441
 31
0.0
  0
LINE
  5
2630
330
256F
100
AcDbEntity
  8
0
 62
     0
100
AcDbLine
 10
-42.68205502292253
 20
-275.7621277715383
 30
0.0
 11
-42.57991108853331
 21
-275.6599838371491
 31
0.0
  0
LINE
  5
2631
330
256F
100
AcDbEntity
  8
0
 62
     0
100
AcDbLine
 10
-37.92751139914204
 20
-271.0075841477578
 30
0.0
 11
-37.03274220968898
 21
-270.1128149583047
 31
0.0
  0
LINE
  5
2632
330
256F
100
AcDbEntity
  8
0
 62
     0
100
AcDbLine
 10
-42.57991108853332
 20
-275.659983837149
 30
0.0
 11
-41.94791658233133
 21
-275.027989330947
 31
0.0
  0
LINE
  5
2633
330
256F
100
AcDbEntity
  8
0
 62
     0
100
AcDbLine
 10
-41.63365641765442
 20
-274.7137291662701
 30
0.0
 11
-41.19598572972707
 21
-274.2760584783428
 31
0.0
  0
LINE
  5
2634
330
256F
100
AcDbEntity
  8
0
 62
     0
100
AcDbLine
 10
-42.72680694735743
 20
-275.6742971745007
 30
0.0
 11
-42.62466301296824
 21
-275.5721532401115
 31
0.0
  0
LINE
  5
2635
330
256F
100
AcDbEntity
  8
0
 62
     0
100
AcDbLine
 10
-38.06009392061452
 20
-271.0075841477578
 30
0.0
 11
-37.16532473116146
 21
-270.1128149583047
 31
0.0
  0
LINE
  5
2636
330
256F
100
AcDbEntity
  8
0
 62
     0
100
AcDbLine
 10
-42.62466301296824
 20
-275.5721532401115
 30
0.0
 11
-41.99266850676624
 21
-274.9401587339095
 31
0.0
  0
LINE
  5
2637
330
256F
100
AcDbEntity
  8
0
 62
     0
100
AcDbLine
 10
-41.24320808781802
 20
-274.1906983149613
 30
0.0
 11
-41.16028905131896
 21
-274.1077792784622
 31
0.0
  0
LINE
  5
2638
330
256F
100
AcDbEntity
  8
0
 62
     0
100
AcDbLine
 10
-41.52698834430164
 20
-274.4744785714449
 30
0.0
 11
-41.50513044512558
 21
-274.4526206722688
 31
0.0
  0
LINE
  5
2639
330
256F
100
AcDbEntity
  8
0
 62
     0
100
AcDbLine
 10
-41.2918472873847
 20
-274.2393375145279
 30
0.0
 11
-41.26594175883485
 21
-274.2134319859781
 31
0.0
  0
LINE
  5
263A
330
256F
100
AcDbEntity
  8
0
 62
     0
100
AcDbLine
 10
-41.50513044512556
 20
-274.4526206722688
 30
0.0
 11
-41.29184728738475
 21
-274.239337514528
 31
0.0
  0
LINE
  5
263B
330
256F
100
AcDbEntity
  8
0
 62
     0
100
AcDbLine
 10
-42.77155887179236
 20
-275.5864665774631
 30
0.0
 11
-42.66941493740316
 21
-275.484322643074
 31
0.0
  0
LINE
  5
263C
330
256F
100
AcDbEntity
  8
0
 62
     0
100
AcDbLine
 10
-38.192676442087
 20
-271.0075841477578
 30
0.0
 11
-37.29790725263395
 21
-270.1128149583047
 31
0.0
  0
LINE
  5
263D
330
256F
100
AcDbEntity
  8
0
 62
     0
100
AcDbLine
 10
-42.66941493740316
 20
-275.484322643074
 30
0.0
 11
-42.03742043120118
 21
-274.8523281368719
 31
0.0
  0
LINE
  5
263E
330
256F
100
AcDbEntity
  8
0
 62
     0
100
AcDbLine
 10
-41.39132135807054
 20
-274.2062290637413
 30
0.0
 11
-41.15044255176923
 21
-273.96535025744
 31
0.0
  0
LINE
  5
263F
330
256F
100
AcDbEntity
  8
0
 62
     0
100
AcDbLine
 10
-41.57174026873658
 20
-274.3866479744074
 30
0.0
 11
-41.47195166249413
 21
-274.2868593681649
 31
0.0
  0
LINE
  5
2640
330
256F
100
AcDbEntity
  8
0
 62
     0
100
AcDbLine
 10
-42.81631079622728
 20
-275.4986359804255
 30
0.0
 11
-42.71416686183809
 21
-275.3964920460364
 31
0.0
  0
LINE
  5
2641
330
256F
100
AcDbEntity
  8
0
 62
     0
100
AcDbLine
 10
-38.32525896355949
 20
-271.0075841477578
 30
0.0
 11
-37.43048977410643
 21
-270.1128149583047
 31
0.0
  0
LINE
  5
2642
330
256F
100
AcDbEntity
  8
0
 62
     0
100
AcDbLine
 10
-42.71416686183809
 20
-275.3964920460364
 30
0.0
 11
-42.0821723556361
 21
-274.7644975398344
 31
0.0
  0
LINE
  5
2643
330
256F
100
AcDbEntity
  8
0
 62
     0
100
AcDbLine
 10
-41.3814748585208
 20
-274.0638000427191
 30
0.0
 11
-41.1405960522195
 21
-273.8229212364178
 31
0.0
  0
LINE
  5
2644
330
256F
100
AcDbEntity
  8
0
 62
     0
100
AcDbLine
 10
-41.6164921931715
 20
-274.2988173773698
 30
0.0
 11
-41.51670358692905
 21
-274.1990287711273
 31
0.0
  0
LINE
  5
2645
330
256F
100
AcDbEntity
  8
0
 62
     0
100
AcDbLine
 10
-42.86106272066221
 20
-275.410805383388
 30
0.0
 11
-42.75891878627302
 21
-275.3086614489988
 31
0.0
  0
LINE
  5
2646
330
256F
100
AcDbEntity
  8
0
 62
     0
100
AcDbLine
 10
-38.45784148503194
 20
-271.0075841477578
 30
0.0
 11
-37.56307229557891
 21
-270.1128149583047
 31
0.0
  0
LINE
  5
2647
330
256F
100
AcDbEntity
  8
0
 62
     0
100
AcDbLine
 10
-42.75891878627301
 20
-275.3086614489988
 30
0.0
 11
-42.12692428007102
 21
-274.6766669427968
 31
0.0
  0
LINE
  5
2648
330
256F
100
AcDbEntity
  8
0
 62
     0
100
AcDbLine
 10
-41.37162835897107
 20
-273.9213710216969
 30
0.0
 11
-41.13074955266977
 21
-273.6804922153956
 31
0.0
  0
LINE
  5
2649
330
256F
100
AcDbEntity
  8
0
 62
     0
100
AcDbLine
 10
-41.66124411760642
 20
-274.2109867803322
 30
0.0
 11
-41.56145551136398
 21
-274.1111981740898
 31
0.0
  0
LINE
  5
264A
330
256F
100
AcDbEntity
  8
0
 62
     0
100
AcDbLine
 10
-42.90581464509713
 20
-275.3229747863504
 30
0.0
 11
-42.80367071070794
 21
-275.2208308519613
 31
0.0
  0
LINE
  5
264B
330
256F
100
AcDbEntity
  8
0
 62
     0
100
AcDbLine
 10
-38.59042400650442
 20
-271.0075841477578
 30
0.0
 11
-37.69565481705136
 21
-270.1128149583047
 31
0.0
  0
LINE
  5
264C
330
256F
100
AcDbEntity
  8
0
 62
     0
100
AcDbLine
 10
-42.80367071070794
 20
-275.2208308519613
 30
0.0
 11
-42.17167620450595
 21
-274.5888363457593
 31
0.0
  0
LINE
  5
264D
330
256F
100
AcDbEntity
  8
0
 62
     0
100
AcDbLine
 10
-41.36178185942134
 20
-273.7789420006746
 30
0.0
 11
-41.12090305312004
 21
-273.5380631943733
 31
0.0
  0
LINE
  5
264E
330
256F
100
AcDbEntity
  8
0
 62
     0
100
AcDbLine
 10
-41.70599604204134
 20
-274.1231561832947
 30
0.0
 11
-41.60620743579889
 21
-274.0233675770522
 31
0.0
  0
LINE
  5
264F
330
256F
100
AcDbEntity
  8
0
 62
     0
100
AcDbLine
 10
-42.95056656953206
 20
-275.2351441893129
 30
0.0
 11
-42.84842263514287
 21
-275.1330002549237
 31
0.0
  0
LINE
  5
2650
330
256F
100
AcDbEntity
  8
0
 62
     0
100
AcDbLine
 10
-38.72300652797691
 20
-271.0075841477578
 30
0.0
 11
-37.82823733852385
 21
-270.1128149583047
 31
0.0
  0
LINE
  5
2651
330
256F
100
AcDbEntity
  8
0
 62
     0
100
AcDbLine
 10
-42.84842263514287
 20
-275.1330002549237
 30
0.0
 11
-42.21642812894087
 21
-274.5010057487217
 31
0.0
  0
LINE
  5
2652
330
256F
100
AcDbEntity
  8
0
 62
     0
100
AcDbLine
 10
-41.35193535987162
 20
-273.6365129796524
 30
0.0
 11
-41.11105655357031
 21
-273.3956341733511
 31
0.0
  0
LINE
  5
2653
330
256F
100
AcDbEntity
  8
0
 62
     0
100
AcDbLine
 10
-41.75074796647627
 20
-274.0353255862571
 30
0.0
 11
-41.65095936023383
 21
-273.9355369800147
 31
0.0
  0
LINE
  5
2654
330
256F
100
AcDbEntity
  8
0
 62
     0
100
AcDbLine
 10
-42.99531849396698
 20
-275.1473135922753
 30
0.0
 11
-42.89317455957778
 21
-275.0451696578862
 31
0.0
  0
LINE
  5
2655
330
256F
100
AcDbEntity
  8
0
 62
     0
100
AcDbLine
 10
-38.85558904944939
 20
-271.0075841477578
 30
0.0
 11
-37.96081985999633
 21
-270.1128149583047
 31
0.0
  0
LINE
  5
2656
330
256F
100
AcDbEntity
  8
0
 62
     0
100
AcDbLine
 10
-42.89317455957778
 20
-275.0451696578862
 30
0.0
 11
-42.2611800533758
 21
-274.4131751516842
 31
0.0
  0
LINE
  5
2657
330
256F
100
AcDbEntity
  8
0
 62
     0
100
AcDbLine
 10
-41.34208886032189
 20
-273.4940839586302
 30
0.0
 11
-41.10121005402058
 21
-273.2532051523289
 31
0.0
  0
LINE
  5
2658
330
256F
100
AcDbEntity
  8
0
 62
     0
100
AcDbLine
 10
-41.79549989091119
 20
-273.9474949892195
 30
0.0
 11
-41.69571128466874
 21
-273.8477063829771
 31
0.0
  0
LINE
  5
2659
330
256F
100
AcDbEntity
  8
0
 62
     0
100
AcDbLine
 10
-43.0400704184019
 20
-275.0594829952378
 30
0.0
 11
-42.93792648401271
 21
-274.9573390608487
 31
0.0
  0
LINE
  5
265A
330
256F
100
AcDbEntity
  8
0
 62
     0
100
AcDbLine
 10
-38.98817157092188
 20
-271.0075841477578
 30
0.0
 11
-38.09340238146882
 21
-270.1128149583047
 31
0.0
  0
LINE
  5
265B
330
256F
100
AcDbEntity
  8
0
 62
     0
100
AcDbLine
 10
-42.93792648401271
 20
-274.9573390608486
 30
0.0
 11
-42.30593197781072
 21
-274.3253445546466
 31
0.0
  0
LINE
  5
265C
330
256F
100
AcDbEntity
  8
0
 62
     0
100
AcDbLine
 10
-41.33224236077215
 20
-273.351654937608
 30
0.0
 11
-41.09136355447085
 21
-273.1107761313067
 31
0.0
  0
LINE
  5
265D
330
256F
100
AcDbEntity
  8
0
 62
     0
100
AcDbLine
 10
-41.84025181534611
 20
-273.859664392182
 30
0.0
 11
-41.74046320910367
 21
-273.7598757859395
 31
0.0
  0
LINE
  5
265E
330
256F
100
AcDbEntity
  8
0
 62
     0
100
AcDbLine
 10
-43.08482234283682
 20
-274.9716523982002
 30
0.0
 11
-42.98267840844763
 21
-274.8695084638111
 31
0.0
  0
LINE
  5
265F
330
256F
100
AcDbEntity
  8
0
 62
     0
100
AcDbLine
 10
-39.12075409239436
 20
-271.0075841477578
 30
0.0
 11
-38.2259849029413
 21
-270.1128149583047
 31
0.0
  0
LINE
  5
2660
330
256F
100
AcDbEntity
  8
0
 62
     0
100
AcDbLine
 10
-42.98267840844764
 20
-274.8695084638111
 30
0.0
 11
-42.35068390224564
 21
-274.2375139576091
 31
0.0
  0
LINE
  5
2661
330
256F
100
AcDbEntity
  8
0
 62
     0
100
AcDbLine
 10
-41.08151705492112
 20
-272.9683471102845
 30
0.0
 11
-40.96181643366968
 21
-272.848646489033
 31
0.0
  0
LINE
  5
2662
330
256F
100
AcDbEntity
  8
0
 62
     0
100
AcDbLine
 10
-41.88500373978103
 20
-273.7718337951445
 30
0.0
 11
-41.78521513353859
 21
-273.672045188902
 31
0.0
  0
LINE
  5
2663
330
256F
100
AcDbEntity
  8
0
 62
     0
100
AcDbLine
 10
-41.32239586122242
 20
-273.2092259165858
 30
0.0
 11
-41.08151705492112
 21
-272.9683471102845
 31
0.0
  0
LINE
  5
2664
330
256F
100
AcDbEntity
  8
0
 62
     0
100
AcDbLine
 10
-43.12957426727176
 20
-274.8838218011627
 30
0.0
 11
-43.02743033288257
 21
-274.7816778667736
 31
0.0
  0
LINE
  5
2665
330
256F
100
AcDbEntity
  8
0
 62
     0
100
AcDbLine
 10
-39.25333661386681
 20
-271.0075841477578
 30
0.0
 11
-38.35856742441375
 21
-270.1128149583047
 31
0.0
  0
LINE
  5
2666
330
256F
100
AcDbEntity
  8
0
 62
     0
100
AcDbLine
 10
-43.02743033288256
 20
-274.7816778667735
 30
0.0
 11
-42.39543582668058
 21
-274.1496833605715
 31
0.0
  0
LINE
  5
2667
330
256F
100
AcDbEntity
  8
0
 62
     0
100
AcDbLine
 10
-41.07167055537138
 20
-272.8259180892623
 30
0.0
 11
-40.79761027123158
 21
-272.5518578051226
 31
0.0
  0
LINE
  5
2668
330
256F
100
AcDbEntity
  8
0
 62
     0
100
AcDbLine
 10
-41.92975566421597
 20
-273.6840031981069
 30
0.0
 11
-41.82996705797352
 21
-273.5842145918645
 31
0.0
  0
LINE
  5
2669
330
256F
100
AcDbEntity
  8
0
 62
     0
100
AcDbLine
 10
-41.3125493616727
 20
-273.0667968955636
 30
0.0
 11
-41.07167055537138
 21
-272.8259180892623
 31
0.0
  0
LINE
  5
266A
330
256F
100
AcDbEntity
  8
0
 62
     0
100
AcDbLine
 10
-43.17432619170667
 20
-274.7959912041251
 30
0.0
 11
-43.07218225731747
 21
-274.693847269736
 31
0.0
  0
LINE
  5
266B
330
256F
100
AcDbEntity
  8
0
 62
     0
100
AcDbLine
 10
-39.3859191353393
 20
-271.0075841477578
 30
0.0
 11
-38.49114994588624
 21
-270.1128149583047
 31
0.0
  0
LINE
  5
266C
330
256F
100
AcDbEntity
  8
0
 62
     0
100
AcDbLine
 10
-43.07218225731748
 20
-274.693847269736
 30
0.0
 11
-42.44018775111549
 21
-274.0618527635339
 31
0.0
  0
LINE
  5
266D
330
256F
100
AcDbEntity
  8
0
 62
     0
100
AcDbLine
 10
-41.06182405582166
 20
-272.6834890682401
 30
0.0
 11
-40.63340410879347
 21
-272.2550691212119
 31
0.0
  0
LINE
  5
266E
330
256F
100
AcDbEntity
  8
0
 62
     0
100
AcDbLine
 10
-41.97450758865088
 20
-273.5961726010693
 30
0.0
 11
-41.87471898240843
 21
-273.4963839948269
 31
0.0
  0
LINE
  5
266F
330
256F
100
AcDbEntity
  8
0
 62
     0
100
AcDbLine
 10
-41.30270286212296
 20
-272.9243678745414
 30
0.0
 11
-41.06182405582166
 21
-272.6834890682401
 31
0.0
  0
LINE
  5
2670
330
256F
100
AcDbEntity
  8
0
 62
     0
100
AcDbLine
 10
-43.2190781161416
 20
-274.7081606070876
 30
0.0
 11
-43.11693418175241
 21
-274.6060166726984
 31
0.0
  0
LINE
  5
2671
330
256F
100
AcDbEntity
  8
0
 62
     0
100
AcDbLine
 10
-39.51850165681178
 20
-271.0075841477578
 30
0.0
 11
-38.62373246735872
 21
-270.1128149583047
 31
0.0
  0
LINE
  5
2672
330
256F
100
AcDbEntity
  8
0
 62
     0
100
AcDbLine
 10
-43.11693418175241
 20
-274.6060166726984
 30
0.0
 11
-42.48493967555043
 21
-273.9740221664964
 31
0.0
  0
LINE
  5
2673
330
256F
100
AcDbEntity
  8
0
 62
     0
100
AcDbLine
 10
-41.04147028864789
 20
-272.5305527795939
 30
0.0
 11
-40.46919794635537
 21
-271.9582804373014
 31
0.0
  0
LINE
  5
2674
330
256F
100
AcDbEntity
  8
0
 62
     0
100
AcDbLine
 10
-42.0192595130858
 20
-273.5083420040318
 30
0.0
 11
-41.91947090684336
 21
-273.4085533977893
 31
0.0
  0
LINE
  5
2675
330
256F
100
AcDbEntity
  8
0
 62
     0
100
AcDbLine
 10
-41.29285636257323
 20
-272.7819388535192
 30
0.0
 11
-41.05197755627193
 21
-272.5410600472179
 31
0.0
  0
LINE
  5
2676
330
256F
100
AcDbEntity
  8
0
 62
     0
100
AcDbLine
 10
-43.26383004057651
 20
-274.62033001005
 30
0.0
 11
-43.16168610618734
 21
-274.5181860756609
 31
0.0
  0
LINE
  5
2677
330
256F
100
AcDbEntity
  8
0
 62
     0
100
AcDbLine
 10
-39.65108417828427
 20
-271.0075841477578
 30
0.0
 11
-38.7563149888312
 21
-270.1128149583047
 31
0.0
  0
LINE
  5
2678
330
256F
100
AcDbEntity
  8
0
 62
     0
100
AcDbLine
 10
-43.16168610618732
 20
-274.5181860756608
 30
0.0
 11
-42.52969159998534
 21
-273.8861915694589
 31
0.0
  0
LINE
  5
2679
330
256F
100
AcDbEntity
  8
0
 62
     0
100
AcDbLine
 10
-40.87726412620977
 20
-272.2337640956832
 30
0.0
 11
-40.30499178391731
 21
-271.6614917533908
 31
0.0
  0
LINE
  5
267A
330
256F
100
AcDbEntity
  8
0
 62
     0
100
AcDbLine
 10
-42.06401143752072
 20
-273.4205114069942
 30
0.0
 11
-41.96422283127828
 21
-273.3207228007517
 31
0.0
  0
LINE
  5
267B
330
256F
100
AcDbEntity
  8
0
 62
     0
100
AcDbLine
 10
-41.2830098630235
 20
-272.639509832497
 30
0.0
 11
-41.04213105672219
 21
-272.3986310261957
 31
0.0
  0
LINE
  5
267C
330
256F
100
AcDbEntity
  8
0
 62
     0
100
AcDbLine
 10
-43.30858196501145
 20
-274.5324994130124
 30
0.0
 11
-43.20643803062226
 21
-274.4303554786233
 31
0.0
  0
LINE
  5
267D
330
256F
100
AcDbEntity
  8
0
 62
     0
100
AcDbLine
 10
-39.78366669975674
 20
-271.0075841477578
 30
0.0
 11
-38.88889751030369
 21
-270.1128149583047
 31
0.0
  0
LINE
  5
267E
330
256F
100
AcDbEntity
  8
0
 62
     0
100
AcDbLine
 10
-43.20643803062226
 20
-274.4303554786232
 30
0.0
 11
-42.57444352442026
 21
-273.7983609724213
 31
0.0
  0
LINE
  5
267F
330
256F
100
AcDbEntity
  8
0
 62
     0
100
AcDbLine
 10
-40.71305796377171
 20
-271.9369754117727
 30
0.0
 11
-40.14078562147921
 21
-271.3647030694802
 31
0.0
  0
LINE
  5
2680
330
256F
100
AcDbEntity
  8
0
 62
     0
100
AcDbLine
 10
-42.10876336195565
 20
-273.3326808099567
 30
0.0
 11
-42.00897475571321
 21
-273.2328922037142
 31
0.0
  0
LINE
  5
2681
330
256F
100
AcDbEntity
  8
0
 62
     0
100
AcDbLine
 10
-41.27316336347377
 20
-272.4970808114748
 30
0.0
 11
-41.03228455717245
 21
-272.2562020051735
 31
0.0
  0
LINE
  5
2682
330
256F
100
AcDbEntity
  8
0
 62
     0
100
AcDbLine
 10
-43.35333388944637
 20
-274.4446688159749
 30
0.0
 11
-43.25118995505717
 21
-274.3425248815857
 31
0.0
  0
LINE
  5
2683
330
256F
100
AcDbEntity
  8
0
 62
     0
100
AcDbLine
 10
-39.9162492212292
 20
-271.0075841477578
 30
0.0
 11
-39.02148003177617
 21
-270.1128149583047
 31
0.0
  0
LINE
  5
2684
330
256F
100
AcDbEntity
  8
0
 62
     0
100
AcDbLine
 10
-43.25118995505718
 20
-274.3425248815857
 30
0.0
 11
-42.61919544885519
 21
-273.7105303753837
 31
0.0
  0
LINE
  5
2685
330
256F
100
AcDbEntity
  8
0
 62
     0
100
AcDbLine
 10
-40.5488518013336
 20
-271.6401867278622
 30
0.0
 11
-39.97657945904111
 21
-271.0679143855696
 31
0.0
  0
LINE
  5
2686
330
256F
100
AcDbEntity
  8
0
 62
     0
100
AcDbLine
 10
-42.15351528639057
 20
-273.2448502129191
 30
0.0
 11
-42.05372668014815
 21
-273.1450616066767
 31
0.0
  0
LINE
  5
2687
330
256F
100
AcDbEntity
  8
0
 62
     0
100
AcDbLine
 10
-41.26331686392403
 20
-272.3546517904526
 30
0.0
 11
-41.02243805762273
 21
-272.1137729841512
 31
0.0
  0
LINE
  5
2688
330
256F
100
AcDbEntity
  8
0
 62
     0
100
AcDbLine
 10
-43.39808581388129
 20
-274.3568382189374
 30
0.0
 11
-43.29594187949211
 21
-274.2546942845482
 31
0.0
  0
LINE
  5
2689
330
256F
100
AcDbEntity
  8
0
 62
     0
100
AcDbLine
 10
-40.04883174270166
 20
-271.0075841477577
 30
0.0
 11
-39.15406255324862
 21
-270.1128149583047
 31
0.0
  0
LINE
  5
268A
330
256F
100
AcDbEntity
  8
0
 62
     0
100
AcDbLine
 10
-43.29594187949211
 20
-274.2546942845482
 30
0.0
 11
-42.66394737329011
 21
-273.6226997783461
 31
0.0
  0
LINE
  5
268B
330
256F
100
AcDbEntity
  8
0
 62
     0
100
AcDbLine
 10
-40.38464563889553
 20
-271.3433980439516
 30
0.0
 11
-40.04883174270168
 21
-271.0075841477578
 31
0.0
  0
LINE
  5
268C
330
256F
100
AcDbEntity
  8
0
 62
     0
100
AcDbLine
 10
-42.19826721082549
 20
-273.1570196158815
 30
0.0
 11
-42.09847860458307
 21
-273.0572310096391
 31
0.0
  0
LINE
  5
268D
330
256F
100
AcDbEntity
  8
0
 62
     0
100
AcDbLine
 10
-41.25347036437431
 20
-272.2122227694304
 30
0.0
 11
-41.01259155807299
 21
-271.971343963129
 31
0.0
  0
LINE
  5
268E
330
256F
100
AcDbEntity
  8
0
 62
     0
100
AcDbLine
 10
-43.44283773831622
 20
-274.2690076218998
 30
0.0
 11
-43.34069380392703
 21
-274.1668636875106
 31
0.0
  0
LINE
  5
268F
330
256F
100
AcDbEntity
  8
0
 62
     0
100
AcDbLine
 10
-40.18141426417416
 20
-271.0075841477577
 30
0.0
 11
-39.28664507472111
 21
-270.1128149583047
 31
0.0
  0
LINE
  5
2690
330
256F
100
AcDbEntity
  8
0
 62
     0
100
AcDbLine
 10
-43.34069380392703
 20
-274.1668636875106
 30
0.0
 11
-42.70869929772504
 21
-273.5348691813086
 31
0.0
  0
LINE
  5
2691
330
256F
100
AcDbEntity
  8
0
 62
     0
100
AcDbLine
 10
-40.22043947645742
 20
-271.046609360041
 30
0.0
 11
-40.18141426417416
 21
-271.0075841477578
 31
0.0
  0
LINE
  5
2692
330
256F
100
AcDbEntity
  8
0
 62
     0
100
AcDbLine
 10
-42.24301913526041
 20
-273.069189018844
 30
0.0
 11
-42.14323052901799
 21
-272.9694004126015
 31
0.0
  0
LINE
  5
2693
330
256F
100
AcDbEntity
  8
0
 62
     0
100
AcDbLine
 10
-41.24362386482458
 20
-272.0697937484081
 30
0.0
 11
-41.00274505852326
 21
-271.8289149421068
 31
0.0
  0
LINE
  5
2694
330
256F
100
AcDbEntity
  8
0
 62
     0
100
AcDbLine
 10
-43.48758966275113
 20
-274.1811770248623
 30
0.0
 11
-43.38544572836195
 21
-274.0790330904731
 31
0.0
  0
LINE
  5
2695
330
256F
100
AcDbEntity
  8
0
 62
     0
100
AcDbLine
 10
-40.31399678564665
 20
-271.0075841477578
 30
0.0
 11
-39.41922759619359
 21
-270.1128149583047
 31
0.0
  0
LINE
  5
2696
330
256F
100
AcDbEntity
  8
0
 62
     0
100
AcDbLine
 10
-43.38544572836195
 20
-274.0790330904731
 30
0.0
 11
-42.75345122215997
 21
-273.447038584271
 31
0.0
  0
LINE
  5
2697
330
256F
100
AcDbEntity
  8
0
 62
     0
100
AcDbLine
 10
-41.23377736527484
 20
-271.9273647273859
 30
0.0
 11
-40.99289855897352
 21
-271.6864859210846
 31
0.0
  0
LINE
  5
2698
330
256F
100
AcDbEntity
  8
0
 62
     0
100
AcDbLine
 10
-42.28777105969533
 20
-272.9813584218064
 30
0.0
 11
-42.18798245345292
 21
-272.881569815564
 31
0.0
  0
LINE
  5
2699
330
256F
100
AcDbEntity
  8
0
 62
     0
100
AcDbLine
 10
-43.53234158718605
 20
-274.0933464278247
 30
0.0
 11
-43.43019765279687
 21
-273.9912024934355
 31
0.0
  0
LINE
  5
269A
330
256F
100
AcDbEntity
  8
0
 62
     0
100
AcDbLine
 10
-40.44657930711912
 20
-271.0075841477578
 30
0.0
 11
-39.55181011766607
 21
-270.1128149583047
 31
0.0
  0
LINE
  5
269B
330
256F
100
AcDbEntity
  8
0
 62
     0
100
AcDbLine
 10
-43.43019765279688
 20
-273.9912024934355
 30
0.0
 11
-42.79820314659487
 21
-273.3592079872335
 31
0.0
  0
LINE
  5
269C
330
256F
100
AcDbEntity
  8
0
 62
     0
100
AcDbLine
 10
-41.22393086572511
 20
-271.7849357063637
 30
0.0
 11
-40.9830520594238
 21
-271.5440569000624
 31
0.0
  0
LINE
  5
269D
330
256F
100
AcDbEntity
  8
0
 62
     0
100
AcDbLine
 10
-42.33252298413026
 20
-272.8935278247689
 30
0.0
 11
-42.23273437788784
 21
-272.7937392185264
 31
0.0
  0
LINE
  5
269E
330
256F
100
AcDbEntity
  8
0
 62
     0
100
AcDbLine
 10
-43.57709351162099
 20
-274.0055158307872
 30
0.0
 11
-43.4749495772318
 21
-273.903371896398
 31
0.0
  0
LINE
  5
269F
330
256F
100
AcDbEntity
  8
0
 62
     0
100
AcDbLine
 10
-40.57916182859158
 20
-271.0075841477578
 30
0.0
 11
-39.68439263913856
 21
-270.1128149583047
 31
0.0
  0
LINE
  5
26A0
330
256F
100
AcDbEntity
  8
0
 62
     0
100
AcDbLine
 10
-43.4749495772318
 20
-273.903371896398
 30
0.0
 11
-42.84295507102982
 21
-273.2713773901959
 31
0.0
  0
LINE
  5
26A1
330
256F
100
AcDbEntity
  8
0
 62
     0
100
AcDbLine
 10
-41.21408436617539
 20
-271.6425066853415
 30
0.0
 11
-40.97320555987406
 21
-271.4016278790402
 31
0.0
  0
LINE
  5
26A2
330
256F
100
AcDbEntity
  8
0
 62
     0
100
AcDbLine
 10
-42.37727490856518
 20
-272.8056972277314
 30
0.0
 11
-42.27748630232276
 21
-272.705908621489
 31
0.0
  0
LINE
  5
26A3
330
256F
100
AcDbEntity
  8
0
 62
     0
100
AcDbLine
 10
-43.6218454360559
 20
-273.9176852337496
 30
0.0
 11
-43.51970150166672
 21
-273.8155412993604
 31
0.0
  0
LINE
  5
26A4
330
256F
100
AcDbEntity
  8
0
 62
     0
100
AcDbLine
 10
-40.71174435006406
 20
-271.0075841477578
 30
0.0
 11
-39.81697516061101
 21
-270.1128149583047
 31
0.0
  0
LINE
  5
26A5
330
256F
100
AcDbEntity
  8
0
 62
     0
100
AcDbLine
 10
-43.51970150166672
 20
-273.8155412993604
 30
0.0
 11
-42.88770699546473
 21
-273.1835467931584
 31
0.0
  0
LINE
  5
26A6
330
256F
100
AcDbEntity
  8
0
 62
     0
100
AcDbLine
 10
-41.20423786662565
 20
-271.5000776643193
 30
0.0
 11
-40.96335906032432
 21
-271.259198858018
 31
0.0
  0
LINE
  5
26A7
330
256F
100
AcDbEntity
  8
0
 62
     0
100
AcDbLine
 10
-42.4220268330001
 20
-272.7178666306938
 30
0.0
 11
-42.32223822675769
 21
-272.6180780244514
 31
0.0
  0
LINE
  5
26A8
330
256F
100
AcDbEntity
  8
0
 62
     0
100
AcDbLine
 10
-43.66659736049083
 20
-273.829854636712
 30
0.0
 11
-43.56445342610165
 21
-273.7277107023229
 31
0.0
  0
LINE
  5
26A9
330
256F
100
AcDbEntity
  8
0
 62
     0
100
AcDbLine
 10
-40.84432687153655
 20
-271.0075841477578
 30
0.0
 11
-39.94955768208349
 21
-270.1128149583047
 31
0.0
  0
LINE
  5
26AA
330
256F
100
AcDbEntity
  8
0
 62
     0
100
AcDbLine
 10
-43.56445342610164
 20
-273.7277107023228
 30
0.0
 11
-42.93245891989965
 21
-273.0957161961208
 31
0.0
  0
LINE
  5
26AB
330
256F
100
AcDbEntity
  8
0
 62
     0
100
AcDbLine
 10
-41.19439136707593
 20
-271.3576486432971
 30
0.0
 11
-40.95351256077459
 21
-271.1167698369958
 31
0.0
  0
LINE
  5
26AC
330
256F
100
AcDbEntity
  8
0
 62
     0
100
AcDbLine
 10
-42.46677875743502
 20
-272.6300360336562
 30
0.0
 11
-42.36699015119261
 21
-272.5302474274138
 31
0.0
  0
LINE
  5
26AD
330
256F
100
AcDbEntity
  8
0
 62
     0
100
AcDbLine
 10
-43.71134928492576
 20
-273.7420240396744
 30
0.0
 11
-43.60920535053657
 21
-273.6398801052853
 31
0.0
  0
LINE
  5
26AE
330
256F
100
AcDbEntity
  8
0
 62
     0
100
AcDbLine
 10
-40.97690939300903
 20
-271.0075841477578
 30
0.0
 11
-40.08214020355597
 21
-270.1128149583047
 31
0.0
  0
LINE
  5
26AF
330
256F
100
AcDbEntity
  8
0
 62
     0
100
AcDbLine
 10
-43.60920535053657
 20
-273.6398801052853
 30
0.0
 11
-42.97721084433458
 21
-273.0078855990833
 31
0.0
  0
LINE
  5
26B0
330
256F
100
AcDbEntity
  8
0
 62
     0
100
AcDbLine
 10
-41.1845448675262
 20
-271.2152196222749
 30
0.0
 11
-40.97690939300904
 21
-271.0075841477578
 31
0.0
  0
LINE
  5
26B1
330
256F
100
AcDbEntity
  8
0
 62
     0
100
AcDbLine
 10
-42.51153068186996
 20
-272.5422054366187
 30
0.0
 11
-42.41174207562753
 21
-272.4424168303762
 31
0.0
  0
LINE
  5
26B2
330
256F
100
AcDbEntity
  8
0
 62
     0
100
AcDbLine
 10
-43.75610120936068
 20
-273.6541934426369
 30
0.0
 11
-43.65395727497149
 21
-273.5520495082478
 31
0.0
  0
LINE
  5
26B3
330
256F
100
AcDbEntity
  8
0
 62
     0
100
AcDbLine
 10
-41.10949191448152
 20
-271.0075841477578
 30
0.0
 11
-40.21472272502846
 21
-270.1128149583047
 31
0.0
  0
LINE
  5
26B4
330
256F
100
AcDbEntity
  8
0
 62
     0
100
AcDbLine
 10
-43.65395727497149
 20
-273.5520495082478
 30
0.0
 11
-43.02196276876951
 21
-272.9200550020458
 31
0.0
  0
LINE
  5
26B5
330
256F
100
AcDbEntity
  8
0
 62
     0
100
AcDbLine
 10
-41.17469836797646
 20
-271.0727906012527
 30
0.0
 11
-41.10949191448153
 21
-271.0075841477578
 31
0.0
  0
LINE
  5
26B6
330
256F
100
AcDbEntity
  8
0
 62
     0
100
AcDbLine
 10
-42.55628260630487
 20
-272.4543748395811
 30
0.0
 11
-42.45649400006246
 21
-272.3545862333387
 31
0.0
  0
LINE
  5
26B7
330
256F
100
AcDbEntity
  8
0
 62
     0
100
AcDbLine
 10
-43.8008531337956
 20
-273.5663628455994
 30
0.0
 11
-43.69870919940642
 21
-273.4642189112102
 31
0.0
  0
LINE
  5
26B8
330
256F
100
AcDbEntity
  8
0
 62
     0
100
AcDbLine
 10
-41.242074435954
 20
-271.0075841477578
 30
0.0
 11
-40.34730524650094
 21
-270.1128149583047
 31
0.0
  0
LINE
  5
26B9
330
256F
100
AcDbEntity
  8
0
 62
     0
100
AcDbLine
 10
-43.69870919940643
 20
-273.4642189112102
 30
0.0
 11
-43.06671469320444
 21
-272.8322244050082
 31
0.0
  0
LINE
  5
26BA
330
256F
100
AcDbEntity
  8
0
 62
     0
100
AcDbLine
 10
-42.6010345307398
 20
-272.3665442425436
 30
0.0
 11
-42.50124592449738
 21
-272.2667556363012
 31
0.0
  0
LINE
  5
26BB
330
256F
100
AcDbEntity
  8
0
 62
     0
100
AcDbLine
 10
-43.84560505823052
 20
-273.4785322485618
 30
0.0
 11
-43.74346112384134
 21
-273.3763883141727
 31
0.0
  0
LINE
  5
26BC
330
256F
100
AcDbEntity
  8
0
 62
     0
100
AcDbLine
 10
-41.37465695742645
 20
-271.0075841477578
 30
0.0
 11
-40.47988776797339
 21
-270.1128149583047
 31
0.0
  0
LINE
  5
26BD
330
256F
100
AcDbEntity
  8
0
 62
     0
100
AcDbLine
 10
-43.74346112384134
 20
-273.3763883141726
 30
0.0
 11
-43.11146661763936
 21
-272.7443938079706
 31
0.0
  0
LINE
  5
26BE
330
256F
100
AcDbEntity
  8
0
 62
     0
100
AcDbLine
 10
-42.64578645517471
 20
-272.278713645506
 30
0.0
 11
-42.5459978489323
 21
-272.1789250392636
 31
0.0
  0
LINE
  5
26BF
330
256F
100
AcDbEntity
  8
0
 62
     0
100
AcDbLine
 10
-43.89035698266545
 20
-273.3907016515242
 30
0.0
 11
-43.78821304827627
 21
-273.2885577171351
 31
0.0
  0
LINE
  5
26C0
330
256F
100
AcDbEntity
  8
0
 62
     0
100
AcDbLine
 10
-41.50723947889893
 20
-271.0075841477578
 30
0.0
 11
-40.61247028944587
 21
-270.1128149583047
 31
0.0
  0
LINE
  5
26C1
330
256F
100
AcDbEntity
  8
0
 62
     0
100
AcDbLine
 10
-43.78821304827627
 20
-273.2885577171351
 30
0.0
 11
-43.15621854207427
 21
-272.6565632109331
 31
0.0
  0
LINE
  5
26C2
330
256F
100
AcDbEntity
  8
0
 62
     0
100
AcDbLine
 10
-42.69053837960965
 20
-272.1908830484685
 30
0.0
 11
-42.59074977336722
 21
-272.0910944422261
 31
0.0
  0
LINE
  5
26C3
330
256F
100
AcDbEntity
  8
0
 62
     0
100
AcDbLine
 10
-43.93510890710039
 20
-273.3028710544867
 30
0.0
 11
-43.83296497271119
 21
-273.2007271200976
 31
0.0
  0
LINE
  5
26C4
330
256F
100
AcDbEntity
  8
0
 62
     0
100
AcDbLine
 10
-41.63982200037142
 20
-271.0075841477578
 30
0.0
 11
-40.74505281091837
 21
-270.1128149583047
 31
0.0
  0
LINE
  5
26C5
330
256F
100
AcDbEntity
  8
0
 62
     0
100
AcDbLine
 10
-43.83296497271119
 20
-273.2007271200975
 30
0.0
 11
-43.2009704665092
 21
-272.5687326138955
 31
0.0
  0
LINE
  5
26C6
330
256F
100
AcDbEntity
  8
0
 62
     0
100
AcDbLine
 10
-42.73529030404456
 20
-272.1030524514309
 30
0.0
 11
-42.63550169780215
 21
-272.0032638451885
 31
0.0
  0
LINE
  5
26C7
330
256F
100
AcDbEntity
  8
0
 62
     0
100
AcDbLine
 10
-43.97986083153529
 20
-273.2150404574491
 30
0.0
 11
-43.87771689714611
 21
-273.11289652306
 31
0.0
  0
LINE
  5
26C8
330
256F
100
AcDbEntity
  8
0
 62
     0
100
AcDbLine
 10
-41.7724045218439
 20
-271.0075841477578
 30
0.0
 11
-40.87763533239084
 21
-270.1128149583047
 31
0.0
  0
LINE
  5
26C9
330
256F
100
AcDbEntity
  8
0
 62
     0
100
AcDbLine
 10
-43.87771689714612
 20
-273.11289652306
 30
0.0
 11
-43.24572239094412
 21
-272.480902016858
 31
0.0
  0
LINE
  5
26CA
330
256F
100
AcDbEntity
  8
0
 62
     0
100
AcDbLine
 10
-42.78004222847949
 20
-272.0152218543934
 30
0.0
 11
-42.68025362223707
 21
-271.9154332481509
 31
0.0
  0
LINE
  5
26CB
330
256F
100
AcDbEntity
  8
0
 62
     0
100
AcDbLine
 10
-44.02461275597022
 20
-273.1272098604116
 30
0.0
 11
-43.92246882158103
 21
-273.0250659260224
 31
0.0
  0
LINE
  5
26CC
330
256F
100
AcDbEntity
  8
0
 62
     0
100
AcDbLine
 10
-41.90498704331639
 20
-271.0075841477578
 30
0.0
 11
-41.01021785386333
 21
-270.1128149583047
 31
0.0
  0
LINE
  5
26CD
330
256F
100
AcDbEntity
  8
0
 62
     0
100
AcDbLine
 10
-43.92246882158103
 20
-273.0250659260224
 30
0.0
 11
-43.29047431537905
 21
-272.3930714198204
 31
0.0
  0
LINE
  5
26CE
330
256F
100
AcDbEntity
  8
0
 62
     0
100
AcDbLine
 10
-42.8247941529144
 20
-271.9273912573558
 30
0.0
 11
-42.72500554667199
 21
-271.8276026511134
 31
0.0
  0
LINE
  5
26CF
330
256F
100
AcDbEntity
  8
0
 62
     0
100
AcDbLine
 10
-44.06936468040514
 20
-273.0393792633741
 30
0.0
 11
-43.96722074601596
 21
-272.9372353289849
 31
0.0
  0
LINE
  5
26D0
330
256F
100
AcDbEntity
  8
0
 62
     0
100
AcDbLine
 10
-42.03756956478883
 20
-271.0075841477578
 30
0.0
 11
-41.14280037533577
 21
-270.1128149583047
 31
0.0
  0
LINE
  5
26D1
330
256F
100
AcDbEntity
  8
0
 62
     0
100
AcDbLine
 10
-43.96722074601596
 20
-272.9372353289849
 30
0.0
 11
-43.33522623981397
 21
-272.3052408227829
 31
0.0
  0
LINE
  5
26D2
330
256F
100
AcDbEntity
  8
0
 62
     0
100
AcDbLine
 10
-42.86954607734934
 20
-271.8395606603182
 30
0.0
 11
-42.76975747110692
 21
-271.7397720540759
 31
0.0
  0
LINE
  5
26D3
330
256F
100
AcDbEntity
  8
0
 62
     0
100
AcDbLine
 10
-44.11411660484007
 20
-272.9515486663365
 30
0.0
 11
-44.01197267045088
 21
-272.8494047319474
 31
0.0
  0
LINE
  5
26D4
330
256F
100
AcDbEntity
  8
0
 62
     0
100
AcDbLine
 10
-42.17015208626132
 20
-271.0075841477578
 30
0.0
 11
-41.27538289680827
 21
-270.1128149583047
 31
0.0
  0
LINE
  5
26D5
330
256F
100
AcDbEntity
  8
0
 62
     0
100
AcDbLine
 10
-44.01197267045089
 20
-272.8494047319474
 30
0.0
 11
-43.3799781642489
 21
-272.2174102257453
 31
0.0
  0
LINE
  5
26D6
330
256F
100
AcDbEntity
  8
0
 62
     0
100
AcDbLine
 10
-42.91429800178426
 20
-271.7517300632807
 30
0.0
 11
-42.81450939554184
 21
-271.6519414570383
 31
0.0
  0
LINE
  5
26D7
330
256F
100
AcDbEntity
  8
0
 62
     0
100
AcDbLine
 10
-43.03552049306387
 20
-271.8729525545603
 30
0.0
 11
-42.91429800178426
 21
-271.7517300632807
 31
0.0
  0
LINE
  5
26D8
330
256F
100
AcDbEntity
  8
0
 62
     0
100
AcDbLine
 10
-44.15886852927499
 20
-272.8637180692989
 30
0.0
 11
-44.0567245948858
 21
-272.7615741349098
 31
0.0
  0
LINE
  5
26D9
330
256F
100
AcDbEntity
  8
0
 62
     0
100
AcDbLine
 10
-42.30273460773381
 20
-271.0075841477578
 30
0.0
 11
-41.40796541828075
 21
-270.1128149583047
 31
0.0
  0
LINE
  5
26DA
330
256F
100
AcDbEntity
  8
0
 62
     0
100
AcDbLine
 10
-44.05672459488581
 20
-272.7615741349098
 30
0.0
 11
-43.42473008868381
 21
-272.1295796287078
 31
0.0
  0
LINE
  5
26DB
330
256F
100
AcDbEntity
  8
0
 62
     0
100
AcDbLine
 10
-42.95904992621917
 20
-271.6638994662432
 30
0.0
 11
-42.85926131997678
 21
-271.5641108600007
 31
0.0
  0
LINE
  5
26DC
330
256F
100
AcDbEntity
  8
0
 62
     0
100
AcDbLine
 10
-43.30583527562661
 20
-272.0106848156506
 30
0.0
 11
-43.03567928394395
 21
-271.7405288239679
 31
0.0
  0
LINE
  5
26DD
330
256F
100
AcDbEntity
  8
0
 62
     0
100
AcDbLine
 10
-44.20362045370992
 20
-272.7758874722614
 30
0.0
 11
-44.10147651932073
 21
-272.6737435378722
 31
0.0
  0
LINE
  5
26DE
330
256F
100
AcDbEntity
  8
0
 62
     0
100
AcDbLine
 10
-42.43531712920629
 20
-271.0075841477578
 30
0.0
 11
-41.54054793975324
 21
-270.1128149583047
 31
0.0
  0
LINE
  5
26DF
330
256F
100
AcDbEntity
  8
0
 62
     0
100
AcDbLine
 10
-44.10147651932073
 20
-272.6737435378722
 30
0.0
 11
-43.57615005818931
 21
-272.1484170767408
 31
0.0
  0
LINE
  5
26E0
330
256F
100
AcDbEntity
  8
0
 62
     0
100
AcDbLine
 10
-43.00380185065409
 20
-271.5760688692056
 30
0.0
 11
-42.9040132444117
 21
-271.4762802629631
 31
0.0
  0
LINE
  5
26E1
330
256F
100
AcDbEntity
  8
0
 62
     0
100
AcDbLine
 10
-43.57615005818945
 20
-272.1484170767408
 30
0.0
 11
-43.29449434520518
 21
-271.8667613637567
 31
0.0
  0
LINE
  5
26E2
330
256F
100
AcDbEntity
  8
0
 62
     0
100
AcDbLine
 10
-44.24837237814484
 20
-272.6880568752238
 30
0.0
 11
-44.14622844375565
 21
-272.5859129408347
 31
0.0
  0
LINE
  5
26E3
330
256F
100
AcDbEntity
  8
0
 62
     0
100
AcDbLine
 10
-42.56789965067877
 20
-271.0075841477578
 30
0.0
 11
-41.67313046122571
 21
-270.1128149583047
 31
0.0
  0
LINE
  5
26E4
330
256F
100
AcDbEntity
  8
0
 62
     0
100
AcDbLine
 10
-44.14622844375567
 20
-272.5859129408347
 30
0.0
 11
-43.81389900091518
 21
-272.2535834979942
 31
0.0
  0
LINE
  5
26E5
330
256F
100
AcDbEntity
  8
0
 62
     0
100
AcDbLine
 10
-43.04855377508903
 20
-271.488238272168
 30
0.0
 11
-42.94876516884662
 21
-271.3884496659257
 31
0.0
  0
LINE
  5
26E6
330
256F
100
AcDbEntity
  8
0
 62
     0
100
AcDbLine
 10
-43.81389900091516
 20
-272.2535834979942
 30
0.0
 11
-43.5533094064665
 21
-271.9929939035455
 31
0.0
  0
LINE
  5
26E7
330
256F
100
AcDbEntity
  8
0
 62
     0
100
AcDbLine
 10
-43.55330940646641
 20
-271.9929939035454
 30
0.0
 11
-43.51423393755367
 21
-271.9539184346327
 31
0.0
  0
LINE
  5
26E8
330
256F
100
AcDbEntity
  8
0
 62
     0
100
AcDbLine
 10
-44.29312430257975
 20
-272.6002262781863
 30
0.0
 11
-44.19098036819057
 21
-272.4980823437971
 31
0.0
  0
LINE
  5
26E9
330
256F
100
AcDbEntity
  8
0
 62
     0
100
AcDbLine
 10
-42.70048217215122
 20
-271.0075841477578
 30
0.0
 11
-41.80571298269817
 21
-270.1128149583047
 31
0.0
  0
LINE
  5
26EA
330
256F
100
AcDbEntity
  8
0
 62
     0
100
AcDbLine
 10
-44.19098036819058
 20
-272.4980823437971
 30
0.0
 11
-43.85736435006013
 21
-272.1644663256667
 31
0.0
  0
LINE
  5
26EB
330
256F
100
AcDbEntity
  8
0
 62
     0
100
AcDbLine
 10
-43.09330569952394
 20
-271.4004076751304
 30
0.0
 11
-42.99351709328155
 21
-271.3006190688881
 31
0.0
  0
LINE
  5
26EC
330
256F
100
AcDbEntity
  8
0
 62
     0
100
AcDbLine
 10
-43.85736435006017
 20
-272.1644663256666
 30
0.0
 11
-43.81212446772781
 21
-272.1192264433343
 31
0.0
  0
LINE
  5
26ED
330
256F
100
AcDbEntity
  8
0
 62
     0
100
AcDbLine
 10
-43.81212446772774
 20
-272.1192264433343
 30
0.0
 11
-43.5589858619886
 21
-271.8660878375951
 31
0.0
  0
LINE
  5
26EE
330
256F
100
AcDbEntity
  8
0
 62
     0
100
AcDbLine
 10
-44.33787622701468
 20
-272.5123956811487
 30
0.0
 11
-44.23573229262551
 21
-272.4102517467596
 31
0.0
  0
LINE
  5
26EF
330
256F
100
AcDbEntity
  8
0
 62
     0
100
AcDbLine
 10
-42.83306469362371
 20
-271.0075841477578
 30
0.0
 11
-41.93829550417065
 21
-270.1128149583047
 31
0.0
  0
LINE
  5
26F0
330
256F
100
AcDbEntity
  8
0
 62
     0
100
AcDbLine
 10
-44.23573229262551
 20
-272.4102517467596
 30
0.0
 11
-43.60373778642352
 21
-271.7782572405575
 31
0.0
  0
LINE
  5
26F1
330
256F
100
AcDbEntity
  8
0
 62
     0
100
AcDbLine
 10
-43.13805762395886
 20
-271.3125770780929
 30
0.0
 11
-43.03826901771647
 21
-271.2127884718505
 31
0.0
  0
LINE
  5
26F2
330
256F
100
AcDbEntity
  8
0
 62
     0
100
AcDbLine
 10
-44.38262815144962
 20
-272.4245650841112
 30
0.0
 11
-44.28048421706043
 21
-272.3224211497221
 31
0.0
  0
LINE
  5
26F3
330
256F
100
AcDbEntity
  8
0
 62
     0
100
AcDbLine
 10
-42.9656472150962
 20
-271.0075841477578
 30
0.0
 11
-42.07087802564314
 21
-270.1128149583047
 31
0.0
  0
LINE
  5
26F4
330
256F
100
AcDbEntity
  8
0
 62
     0
100
AcDbLine
 10
-44.28048421706043
 20
-272.322421149722
 30
0.0
 11
-43.64848971085844
 21
-271.69042664352
 31
0.0
  0
LINE
  5
26F5
330
256F
100
AcDbEntity
  8
0
 62
     0
100
AcDbLine
 10
-43.18280954839378
 20
-271.2247464810554
 30
0.0
 11
-43.08302094215139
 21
-271.1249578748129
 31
0.0
  0
LINE
  5
26F6
330
256F
100
AcDbEntity
  8
0
 62
     0
100
AcDbLine
 10
-44.42738007588452
 20
-272.3367344870736
 30
0.0
 11
-44.32523614149536
 21
-272.2345905526844
 31
0.0
  0
LINE
  5
26F7
330
256F
100
AcDbEntity
  8
0
 62
     0
100
AcDbLine
 10
-43.09822973656867
 20
-271.0075841477578
 30
0.0
 11
-42.20346054711562
 21
-270.1128149583047
 31
0.0
  0
LINE
  5
26F8
330
256F
100
AcDbEntity
  8
0
 62
     0
100
AcDbLine
 10
-44.32523614149537
 20
-272.2345905526844
 30
0.0
 11
-43.69324163529338
 21
-271.6025960464825
 31
0.0
  0
LINE
  5
26F9
330
256F
100
AcDbEntity
  8
0
 62
     0
100
AcDbLine
 10
-43.22756147282872
 20
-271.1369158840178
 30
0.0
 11
-43.12777286658632
 21
-271.0371272777754
 31
0.0
  0
LINE
  5
26FA
330
256F
100
AcDbEntity
  8
0
 62
     0
100
AcDbLine
 10
-44.47213200031946
 20
-272.2489038900361
 30
0.0
 11
-44.36998806593027
 21
-272.1467599556469
 31
0.0
  0
LINE
  5
26FB
330
256F
100
AcDbEntity
  8
0
 62
     0
100
AcDbLine
 10
-43.23081225804116
 20
-271.0075841477578
 30
0.0
 11
-42.3360430685881
 21
-270.1128149583047
 31
0.0
  0
LINE
  5
26FC
330
256F
100
AcDbEntity
  8
0
 62
     0
100
AcDbLine
 10
-44.36998806593028
 20
-272.1467599556469
 30
0.0
 11
-43.7379935597283
 21
-271.5147654494449
 31
0.0
  0
LINE
  5
26FD
330
256F
100
AcDbEntity
  8
0
 62
     0
100
AcDbLine
 10
-43.27231339726363
 20
-271.0490852869802
 30
0.0
 11
-43.23081225804115
 21
-271.0075841477578
 31
0.0
  0
LINE
  5
26FE
330
256F
100
AcDbEntity
  8
0
 62
     0
100
AcDbLine
 10
-44.51688392475437
 20
-272.1610732929985
 30
0.0
 11
-44.41473999036521
 21
-272.0589293586094
 31
0.0
  0
LINE
  5
26FF
330
256F
100
AcDbEntity
  8
0
 62
     0
100
AcDbLine
 10
-43.36339477951361
 20
-271.0075841477578
 30
0.0
 11
-42.46862559006059
 21
-270.1128149583047
 31
0.0
  0
LINE
  5
2700
330
256F
100
AcDbEntity
  8
0
 62
     0
100
AcDbLine
 10
-44.4147399903652
 20
-272.0589293586093
 30
0.0
 11
-43.78274548416323
 21
-271.4269348524073
 31
0.0
  0
LINE
  5
2701
330
256F
100
AcDbEntity
  8
0
 62
     0
100
AcDbLine
 10
-44.5616358491893
 20
-272.0732426959609
 30
0.0
 11
-44.45949191480012
 21
-271.9710987615718
 31
0.0
  0
LINE
  5
2702
330
256F
100
AcDbEntity
  8
0
 62
     0
100
AcDbLine
 10
-43.4959773009861
 20
-271.0075841477578
 30
0.0
 11
-42.60120811153304
 21
-270.1128149583047
 31
0.0
  0
LINE
  5
2703
330
256F
100
AcDbEntity
  8
0
 62
     0
100
AcDbLine
 10
-44.45949191480013
 20
-271.9710987615718
 30
0.0
 11
-43.82749740859814
 21
-271.3391042553698
 31
0.0
  0
LINE
  5
2704
330
256F
100
AcDbEntity
  8
0
 62
     0
100
AcDbLine
 10
-44.60638777362423
 20
-271.9854120989233
 30
0.0
 11
-44.50424383923505
 21
-271.8832681645342
 31
0.0
  0
LINE
  5
2705
330
256F
100
AcDbEntity
  8
0
 62
     0
100
AcDbLine
 10
-43.62855982245858
 20
-271.0075841477578
 30
0.0
 11
-42.73379063300552
 21
-270.1128149583047
 31
0.0
  0
LINE
  5
2706
330
256F
100
AcDbEntity
  8
0
 62
     0
100
AcDbLine
 10
-44.50424383923506
 20
-271.8832681645342
 30
0.0
 11
-43.87224933303307
 21
-271.2512736583323
 31
0.0
  0
LINE
  5
2707
330
256F
100
AcDbEntity
  8
0
 62
     0
100
AcDbLine
 10
-44.65113969805915
 20
-271.8975815018858
 30
0.0
 11
-44.54899576366996
 21
-271.7954375674967
 31
0.0
  0
LINE
  5
2708
330
256F
100
AcDbEntity
  8
0
 62
     0
100
AcDbLine
 10
-43.76114234393106
 20
-271.0075841477578
 30
0.0
 11
-42.86637315447801
 21
-270.1128149583047
 31
0.0
  0
LINE
  5
2709
330
256F
100
AcDbEntity
  8
0
 62
     0
100
AcDbLine
 10
-44.54899576366997
 20
-271.7954375674967
 30
0.0
 11
-43.91700125746799
 21
-271.1634430612947
 31
0.0
  0
LINE
  5
270A
330
256F
100
AcDbEntity
  8
0
 62
     0
100
AcDbLine
 10
-44.69589162249408
 20
-271.8097509048483
 30
0.0
 11
-44.5937476881049
 21
-271.7076069704591
 31
0.0
  0
LINE
  5
270B
330
256F
100
AcDbEntity
  8
0
 62
     0
100
AcDbLine
 10
-43.89372486540355
 20
-271.0075841477578
 30
0.0
 11
-42.99895567595049
 21
-270.1128149583047
 31
0.0
  0
LINE
  5
270C
330
256F
100
AcDbEntity
  8
0
 62
     0
100
AcDbLine
 10
-44.59374768810491
 20
-271.7076069704591
 30
0.0
 11
-43.96175318190293
 21
-271.0756124642572
 31
0.0
  0
LINE
  5
270D
330
256F
100
AcDbEntity
  8
0
 62
     0
100
AcDbLine
 10
-44.74064354692899
 20
-271.7219203078107
 30
0.0
 11
-44.63849961253981
 21
-271.6197763734216
 31
0.0
  0
LINE
  5
270E
330
256F
100
AcDbEntity
  8
0
 62
     0
100
AcDbLine
 10
-44.02630738687596
 20
-271.0075841477577
 30
0.0
 11
-43.13153819742297
 21
-270.1128149583047
 31
0.0
  0
LINE
  5
270F
330
256F
100
AcDbEntity
  8
0
 62
     0
100
AcDbLine
 10
-44.63849961253983
 20
-271.6197763734216
 30
0.0
 11
-44.02630738687603
 21
-271.0075841477578
 31
0.0
  0
LINE
  5
2710
330
256F
100
AcDbEntity
  8
0
 62
     0
100
AcDbLine
 10
-44.78539547136391
 20
-271.6340897107732
 30
0.0
 11
-44.68325153697474
 21
-271.5319457763841
 31
0.0
  0
LINE
  5
2711
330
256F
100
AcDbEntity
  8
0
 62
     0
100
AcDbLine
 10
-44.15888990834845
 20
-271.0075841477577
 30
0.0
 11
-43.26412071889542
 21
-270.1128149583047
 31
0.0
  0
LINE
  5
2712
330
256F
100
AcDbEntity
  8
0
 62
     0
100
AcDbLine
 10
-44.68325153697477
 20
-271.531945776384
 30
0.0
 11
-44.15888990834848
 21
-271.0075841477578
 31
0.0
  0
LINE
  5
2713
330
256F
100
AcDbEntity
  8
0
 62
     0
100
AcDbLine
 10
-44.83014739579885
 20
-271.5462591137356
 30
0.0
 11
-44.72800346140967
 21
-271.4441151793465
 31
0.0
  0
LINE
  5
2714
330
256F
100
AcDbEntity
  8
0
 62
     0
100
AcDbLine
 10
-44.29147242982091
 20
-271.0075841477577
 30
0.0
 11
-43.39670324036791
 21
-270.1128149583047
 31
0.0
  0
LINE
  5
2715
330
256F
100
AcDbEntity
  8
0
 62
     0
100
AcDbLine
 10
-44.72800346140968
 20
-271.4441151793465
 30
0.0
 11
-44.29147242982097
 21
-271.0075841477578
 31
0.0
  0
LINE
  5
2716
330
256F
100
AcDbEntity
  8
0
 62
     0
100
AcDbLine
 10
-44.87489932023376
 20
-271.4584285166981
 30
0.0
 11
-44.7727553858446
 21
-271.3562845823089
 31
0.0
  0
LINE
  5
2717
330
256F
100
AcDbEntity
  8
0
 62
     0
100
AcDbLine
 10
-44.42405495129341
 20
-271.0075841477577
 30
0.0
 11
-43.5292857618404
 21
-270.1128149583047
 31
0.0
  0
LINE
  5
2718
330
256F
100
AcDbEntity
  8
0
 62
     0
100
AcDbLine
 10
-44.77275538584461
 20
-271.3562845823089
 30
0.0
 11
-44.42405495129345
 21
-271.0075841477578
 31
0.0
  0
LINE
  5
2719
330
256F
100
AcDbEntity
  8
0
 62
     0
100
AcDbLine
 10
-44.91965124466869
 20
-271.3705979196606
 30
0.0
 11
-44.81750731027952
 21
-271.2684539852714
 31
0.0
  0
LINE
  5
271A
330
256F
100
AcDbEntity
  8
0
 62
     0
100
AcDbLine
 10
-44.55663747276587
 20
-271.0075841477577
 30
0.0
 11
-43.66186828331287
 21
-270.1128149583047
 31
0.0
  0
LINE
  5
271B
330
256F
100
AcDbEntity
  8
0
 62
     0
100
AcDbLine
 10
-44.81750731027953
 20
-271.2684539852714
 30
0.0
 11
-44.55663747276593
 21
-271.0075841477578
 31
0.0
  0
LINE
  5
271C
330
256F
100
AcDbEntity
  8
0
 62
     0
100
AcDbLine
 10
-44.96440316910361
 20
-271.282767322623
 30
0.0
 11
-44.86225923471444
 21
-271.1806233882338
 31
0.0
  0
LINE
  5
271D
330
256F
100
AcDbEntity
  8
0
 62
     0
100
AcDbLine
 10
-44.68921999423836
 20
-271.0075841477577
 30
0.0
 11
-43.79445080478536
 21
-270.1128149583047
 31
0.0
  0
LINE
  5
271E
330
256F
100
AcDbEntity
  8
0
 62
     0
100
AcDbLine
 10
-44.86225923471446
 20
-271.1806233882338
 30
0.0
 11
-44.68921999423842
 21
-271.0075841477578
 31
0.0
  0
LINE
  5
271F
330
256F
100
AcDbEntity
  8
0
 62
     0
100
AcDbLine
 10
-45.00915509353854
 20
-271.1949367255854
 30
0.0
 11
-44.93619626528839
 21
-271.1219778973352
 31
0.0
  0
LINE
  5
2720
330
256F
100
AcDbEntity
  8
0
 62
     0
100
AcDbLine
 10
-44.82180251571087
 20
-271.0075841477578
 30
0.0
 11
-43.92703332625781
 21
-270.1128149583047
 31
0.0
  0
LINE
  5
2721
330
256F
100
AcDbEntity
  8
0
 62
     0
100
AcDbLine
 10
-44.95438503718335
 20
-271.0075841477578
 30
0.0
 11
-44.0596158477303
 21
-270.1128149583047
 31
0.0
  0
LINE
  5
2722
330
256F
100
AcDbEntity
  8
0
 62
     0
100
AcDbLine
 10
-45.08696755865584
 20
-271.0075841477578
 30
0.0
 11
-44.19219836920278
 21
-270.1128149583047
 31
0.0
  0
LINE
  5
2723
330
256F
100
AcDbEntity
  8
0
 62
     0
100
AcDbLine
 10
-45.21955008012832
 20
-271.0075841477578
 30
0.0
 11
-44.32478089067527
 21
-270.1128149583047
 31
0.0
  0
LINE
  5
2724
330
256F
100
AcDbEntity
  8
0
 62
     0
100
AcDbLine
 10
-45.23372463886881
 20
-270.8891761850257
 30
0.0
 11
-44.45736341214774
 21
-270.1128149583047
 31
0.0
  0
LINE
  5
2725
330
256F
100
AcDbEntity
  8
0
 62
     0
100
AcDbLine
 10
-45.23372463886881
 20
-270.7565936635533
 30
0.0
 11
-44.5899459336202
 21
-270.1128149583047
 31
0.0
  0
LINE
  5
2726
330
256F
100
AcDbEntity
  8
0
 62
     0
100
AcDbLine
 10
-45.23372463886881
 20
-270.6240111420808
 30
0.0
 11
-44.72252845509268
 21
-270.1128149583047
 31
0.0
  0
LINE
  5
2727
330
256F
100
AcDbEntity
  8
0
 62
     0
100
AcDbLine
 10
-45.23372463886881
 20
-270.4914286206083
 30
0.0
 11
-44.85511097656517
 21
-270.1128149583047
 31
0.0
  0
LINE
  5
2728
330
256F
100
AcDbEntity
  8
0
 62
     0
100
AcDbLine
 10
-45.2337246388688
 20
-270.3588460991359
 30
0.0
 11
-44.98769349803765
 21
-270.1128149583047
 31
0.0
  0
LINE
  5
2729
330
256F
100
AcDbEntity
  8
0
 62
     0
100
AcDbLine
 10
-45.2337246388688
 20
-270.2262635776634
 30
0.0
 11
-45.12027601951014
 21
-270.1128149583047
 31
0.0
  0
LINE
  5
272A
330
256F
100
AcDbEntity
  8
0
 62
     0
100
AcDbLine
 10
-39.27512850824
 20
-279.5146574163695
 30
0.0
 11
-38.5413666900566
 21
-278.7808955981861
 31
0.0
  0
LINE
  5
272B
330
256F
100
AcDbEntity
  8
0
 62
     0
100
AcDbLine
 10
-39.16241960701883
 20
-279.5345310366208
 30
0.0
 11
-38.42865778883542
 21
-278.8007692184374
 31
0.0
  0
LINE
  5
272C
330
256F
100
AcDbEntity
  8
0
 62
     0
100
AcDbLine
 10
-39.04971070579762
 20
-279.5544046568721
 30
0.0
 11
-38.31594888761424
 21
-278.8206428386887
 31
0.0
  0
LINE
  5
272D
330
256F
100
AcDbEntity
  8
0
 62
     0
100
AcDbLine
 10
-38.93700180457646
 20
-279.5742782771234
 30
0.0
 11
-38.20323998639308
 21
-278.84051645894
 31
0.0
  0
LINE
  5
272E
330
256F
100
AcDbEntity
  8
0
 62
     0
100
AcDbLine
 10
-38.82429290335529
 20
-279.5941518973747
 30
0.0
 11
-38.0905310851719
 21
-278.8603900791913
 31
0.0
  0
LINE
  5
272F
330
256F
100
AcDbEntity
  8
0
 62
     0
100
AcDbLine
 10
-38.71158400213412
 20
-279.614025517626
 30
0.0
 11
-37.97782218395072
 21
-278.8802636994426
 31
0.0
  0
LINE
  5
2730
330
256F
100
AcDbEntity
  8
0
 62
     0
100
AcDbLine
 10
-38.59887510091292
 20
-279.6338991378773
 30
0.0
 11
-37.86511328272954
 21
-278.9001373196939
 31
0.0
  0
LINE
  5
2731
330
256F
100
AcDbEntity
  8
0
 62
     0
100
AcDbLine
 10
-38.48616619969174
 20
-279.6537727581286
 30
0.0
 11
-37.75240438150836
 21
-278.9200109399452
 31
0.0
  0
LINE
  5
2732
330
256F
100
AcDbEntity
  8
0
 62
     0
100
AcDbLine
 10
-38.37345729847058
 20
-279.6736463783799
 30
0.0
 11
-37.63969548028717
 21
-278.9398845601965
 31
0.0
  0
LINE
  5
2733
330
256F
100
AcDbEntity
  8
0
 62
     0
100
AcDbLine
 10
-38.26074839724942
 20
-279.6935199986312
 30
0.0
 11
-37.526986579066
 21
-278.9597581804478
 31
0.0
  0
LINE
  5
2734
330
256F
100
AcDbEntity
  8
0
 62
     0
100
AcDbLine
 10
-38.14803949602821
 20
-279.7133936188825
 30
0.0
 11
-37.41427767784482
 21
-278.9796318006991
 31
0.0
  0
LINE
  5
2735
330
256F
100
AcDbEntity
  8
0
 62
     0
100
AcDbLine
 10
-38.03533059480704
 20
-279.7332672391338
 30
0.0
 11
-37.30156877662363
 21
-278.9995054209504
 31
0.0
  0
LINE
  5
2736
330
256F
100
AcDbEntity
  8
0
 62
     0
100
AcDbLine
 10
-37.92262169358588
 20
-279.7531408593851
 30
0.0
 11
-37.18885987540245
 21
-279.0193790412017
 31
0.0
  0
LINE
  5
2737
330
256F
100
AcDbEntity
  8
0
 62
     0
100
AcDbLine
 10
-37.80991279236471
 20
-279.7730144796364
 30
0.0
 11
-37.07615097418127
 21
-279.039252661453
 31
0.0
  0
LINE
  5
2738
330
256F
100
AcDbEntity
  8
0
 62
     0
100
AcDbLine
 10
-37.6972038911435
 20
-279.7928880998877
 30
0.0
 11
-36.96344207296009
 21
-279.0591262817043
 31
0.0
  0
LINE
  5
2739
330
256F
100
AcDbEntity
  8
0
 62
     0
100
AcDbLine
 10
-37.58449498992233
 20
-279.812761720139
 30
0.0
 11
-36.85073317173891
 21
-279.0789999019556
 31
0.0
  0
LINE
  5
273A
330
256F
100
AcDbEntity
  8
0
 62
     0
100
AcDbLine
 10
-37.47178608870117
 20
-279.8326353403903
 30
0.0
 11
-36.73802427051778
 21
-279.0988735222069
 31
0.0
  0
LINE
  5
273B
330
256F
100
AcDbEntity
  8
0
 62
     0
100
AcDbLine
 10
-37.35907718748001
 20
-279.8525089606416
 30
0.0
 11
-36.62531536929659
 21
-279.1187471424582
 31
0.0
  0
LINE
  5
273C
330
256F
100
AcDbEntity
  8
0
 62
     0
100
AcDbLine
 10
-37.24636828625879
 20
-279.8723825808929
 30
0.0
 11
-36.51260646807542
 21
-279.1386207627095
 31
0.0
  0
LINE
  5
273D
330
256F
100
AcDbEntity
  8
0
 62
     0
100
AcDbLine
 10
-37.13365938503763
 20
-279.8922562011442
 30
0.0
 11
-36.39989756685424
 21
-279.1584943829608
 31
0.0
  0
LINE
  5
273E
330
256F
100
AcDbEntity
  8
0
 62
     0
100
AcDbLine
 10
-37.02095048381647
 20
-279.9121298213955
 30
0.0
 11
-36.28718866563306
 21
-279.1783680032121
 31
0.0
  0
LINE
  5
273F
330
256F
100
AcDbEntity
  8
0
 62
     0
100
AcDbLine
 10
-36.9082415825953
 20
-279.9320034416468
 30
0.0
 11
-36.17447976441188
 21
-279.1982416234634
 31
0.0
  0
LINE
  5
2740
330
256F
100
AcDbEntity
  8
0
 62
     0
100
AcDbLine
 10
-36.79553268137409
 20
-279.9518770618981
 30
0.0
 11
-36.0617708631907
 21
-279.2181152437147
 31
0.0
  0
LINE
  5
2741
330
256F
100
AcDbEntity
  8
0
 62
     0
100
AcDbLine
 10
-36.68282378015292
 20
-279.9717506821494
 30
0.0
 11
-35.94906196196951
 21
-279.237988863966
 31
0.0
  0
LINE
  5
2742
330
256F
100
AcDbEntity
  8
0
 62
     0
100
AcDbLine
 10
-36.57011487893175
 20
-279.9916243024007
 30
0.0
 11
-35.83635306074833
 21
-279.2578624842173
 31
0.0
  0
LINE
  5
2743
330
256F
100
AcDbEntity
  8
0
 62
     0
100
AcDbLine
 10
-36.45740597771059
 20
-280.011497922652
 30
0.0
 11
-35.72364415952716
 21
-279.2777361044686
 31
0.0
  0
LINE
  5
2744
330
256F
100
AcDbEntity
  8
0
 62
     0
100
AcDbLine
 10
-36.34469707648938
 20
-280.0313715429033
 30
0.0
 11
-35.61093525830597
 21
-279.2976097247199
 31
0.0
  0
LINE
  5
2745
330
256F
100
AcDbEntity
  8
0
 62
     0
100
AcDbLine
 10
-36.23198817526822
 20
-280.0512451631546
 30
0.0
 11
-35.49822635708479
 21
-279.3174833449712
 31
0.0
  0
LINE
  5
2746
330
256F
100
AcDbEntity
  8
0
 62
     0
100
AcDbLine
 10
-36.11927927404706
 20
-280.0711187834059
 30
0.0
 11
-35.38551745586361
 21
-279.3373569652225
 31
0.0
  0
LINE
  5
2747
330
256F
100
AcDbEntity
  8
0
 62
     0
100
AcDbLine
 10
-36.00657037282589
 20
-280.0909924036572
 30
0.0
 11
-35.27280855464243
 21
-279.3572305854738
 31
0.0
  0
LINE
  5
2748
330
256F
100
AcDbEntity
  8
0
 62
     0
100
AcDbLine
 10
-35.89386147160467
 20
-280.1108660239085
 30
0.0
 11
-35.16009965342125
 21
-279.3771042057251
 31
0.0
  0
LINE
  5
2749
330
256F
100
AcDbEntity
  8
0
 62
     0
100
AcDbLine
 10
-35.78115257038351
 20
-280.1307396441598
 30
0.0
 11
-35.04739075220007
 21
-279.3969778259764
 31
0.0
  0
LINE
  5
274A
330
256F
100
AcDbEntity
  8
0
 62
     0
100
AcDbLine
 10
-35.66844366916234
 20
-280.1506132644111
 30
0.0
 11
-34.93468185097889
 21
-279.4168514462277
 31
0.0
  0
LINE
  5
274B
330
256F
100
AcDbEntity
  8
0
 62
     0
100
AcDbLine
 10
-35.55573476794118
 20
-280.1704868846624
 30
0.0
 11
-34.82197294975771
 21
-279.436725066479
 31
0.0
  0
LINE
  5
274C
330
256F
100
AcDbEntity
  8
0
 62
     0
100
AcDbLine
 10
-35.44302586671997
 20
-280.1903605049137
 30
0.0
 11
-34.70926404853658
 21
-279.4565986867303
 31
0.0
  0
LINE
  5
274D
330
256F
100
AcDbEntity
  8
0
 62
     0
100
AcDbLine
 10
-35.3303169654988
 20
-280.210234125165
 30
0.0
 11
-34.59655514731539
 21
-279.4764723069816
 31
0.0
  0
LINE
  5
274E
330
256F
100
AcDbEntity
  8
0
 62
     0
100
AcDbLine
 10
-35.21760806427764
 20
-280.2301077454163
 30
0.0
 11
-34.48384624609421
 21
-279.496345927233
 31
0.0
  0
LINE
  5
274F
330
256F
100
AcDbEntity
  8
0
 62
     0
100
AcDbLine
 10
-35.10489916305647
 20
-280.2499813656676
 30
0.0
 11
-34.65961316436878
 21
-279.80469536698
 31
0.0
  0
LINE
  5
2750
330
256F
100
AcDbEntity
  8
0
 62
     0
100
AcDbLine
 10
-34.49507239555112
 20
-279.6401545981623
 30
0.0
 11
-34.37113734487303
 21
-279.5162195474842
 31
0.0
  0
LINE
  5
2751
330
256F
100
AcDbEntity
  8
0
 62
     0
100
AcDbLine
 10
-34.65961316436874
 20
-279.8046953669799
 30
0.0
 11
-34.49507239555113
 21
-279.6401545981623
 31
0.0
  0
LINE
  5
2752
330
256F
100
AcDbEntity
  8
0
 62
     0
100
AcDbLine
 10
-34.99219026183526
 20
-280.2698549859189
 30
0.0
 11
-34.61254978408334
 21
-279.890214508167
 31
0.0
  0
LINE
  5
2753
330
256F
100
AcDbEntity
  8
0
 62
     0
100
AcDbLine
 10
-34.4505443932725
 20
-279.7282091173562
 30
0.0
 11
-34.25842844365185
 21
-279.5360931677355
 31
0.0
  0
LINE
  5
2754
330
256F
100
AcDbEntity
  8
0
 62
     0
100
AcDbLine
 10
-34.61254978408327
 20
-279.8902145081669
 30
0.0
 11
-34.45054439327251
 21
-279.7282091173562
 31
0.0
  0
LINE
  5
2755
330
256F
100
AcDbEntity
  8
0
 62
     0
100
AcDbLine
 10
-34.8794813606141
 20
-280.2897286061702
 30
0.0
 11
-34.56548640379791
 21
-279.975733649354
 31
0.0
  0
LINE
  5
2756
330
256F
100
AcDbEntity
  8
0
 62
     0
100
AcDbLine
 10
-34.40601639099387
 20
-279.81626363655
 30
0.0
 11
-34.18212969867614
 21
-279.5923769442322
 31
0.0
  0
LINE
  5
2757
330
256F
100
AcDbEntity
  8
0
 62
     0
100
AcDbLine
 10
-34.5654864037978
 20
-279.975733649354
 30
0.0
 11
-34.4060163909939
 21
-279.81626363655
 31
0.0
  0
LINE
  5
2758
330
256F
100
AcDbEntity
  8
0
 62
     0
100
AcDbLine
 10
-34.76677245939293
 20
-280.3096022264215
 30
0.0
 11
-34.51842302351247
 21
-280.0612527905411
 31
0.0
  0
LINE
  5
2759
330
256F
100
AcDbEntity
  8
0
 62
     0
100
AcDbLine
 10
-34.36148838871525
 20
-279.9043181557439
 30
0.0
 11
-34.21610863625688
 21
-279.7589384032855
 31
0.0
  0
LINE
  5
275A
330
256F
100
AcDbEntity
  8
0
 62
     0
100
AcDbLine
 10
-34.51842302351233
 20
-280.0612527905409
 30
0.0
 11
-34.36148838871528
 21
-279.9043181557439
 31
0.0
  0
LINE
  5
275B
330
256F
100
AcDbEntity
  8
0
 62
     0
100
AcDbLine
 10
-34.65406355817177
 20
-280.3294758466728
 30
0.0
 11
-34.47135964322703
 21
-280.1467719317281
 31
0.0
  0
LINE
  5
275C
330
256F
100
AcDbEntity
  8
0
 62
     0
100
AcDbLine
 10
-34.31696038643663
 20
-279.9923726749377
 30
0.0
 11
-34.25008757383762
 21
-279.9254998623387
 31
0.0
  0
LINE
  5
275D
330
256F
100
AcDbEntity
  8
0
 62
     0
100
AcDbLine
 10
-34.47135964322686
 20
-280.1467719317279
 30
0.0
 11
-34.31696038643667
 21
-279.9923726749378
 31
0.0
  0
LINE
  5
275E
330
256F
100
AcDbEntity
  8
0
 62
     0
100
AcDbLine
 10
-34.54135465695056
 20
-280.3493494669242
 30
0.0
 11
-34.4242962629416
 21
-280.2322910729151
 31
0.0
  0
LINE
  5
275F
330
256F
100
AcDbEntity
  8
0
 62
     0
100
AcDbLine
 10
-34.42429626294139
 20
-280.232291072915
 30
0.0
 11
-34.27243238415805
 21
-280.0804271941316
 31
0.0
  0
LINE
  5
2760
330
256F
100
AcDbEntity
  8
0
 62
     0
100
AcDbLine
 10
-34.42864575572939
 20
-280.3692230871754
 30
0.0
 11
-34.37723288265617
 21
-280.3178102141022
 31
0.0
  0
LINE
  5
2761
330
256F
100
AcDbEntity
  8
0
 62
     0
100
AcDbLine
 10
-34.23763487951733
 20
-280.1782122109634
 30
0.0
 11
-34.22790438187941
 21
-280.1684817133254
 31
0.0
  0
LINE
  5
2762
330
256F
100
AcDbEntity
  8
0
 62
     0
100
AcDbLine
 10
-34.37723288265592
 20
-280.317810214102
 30
0.0
 11
-34.32222178119469
 21
-280.2627991126407
 31
0.0
  0
LINE
  5
2763
330
256F
100
AcDbEntity
  8
0
 62
     0
100
AcDbLine
 10
-34.3180454489991
 20
-280.2586227804452
 30
0.0
 11
-34.23763487951734
 21
-280.1782122109634
 31
0.0
  0
LINE
  5
2764
330
256F
100
AcDbEntity
  8
0
 62
     0
100
AcDbLine
 10
-34.33279649784393
 20
-280.4059563507625
 30
0.0
 11
-34.31594377963411
 21
-280.3891036325526
 31
0.0
  0
LINE
  5
2765
330
256F
100
AcDbEntity
  8
0
 62
     0
100
AcDbLine
 10
-34.31594377963405
 20
-280.3891036325526
 30
0.0
 11
-34.12832042519916
 21
-280.2014802781177
 31
0.0
  0
LINE
  5
2766
330
256F
100
AcDbEntity
  8
0
 62
     0
100
AcDbLine
 10
-34.2886183190611
 20
-280.4943606934521
 30
0.0
 11
-34.20326302751831
 21
-280.4090054019093
 31
0.0
  0
LINE
  5
2767
330
256F
100
AcDbEntity
  8
0
 62
     0
100
AcDbLine
 10
-34.01900597088106
 20
-280.224748345272
 30
0.0
 11
-34.00684354492805
 21
-280.2125859193191
 31
0.0
  0
LINE
  5
2768
330
256F
100
AcDbEntity
  8
0
 62
     0
100
AcDbLine
 10
-34.20326302751827
 20
-280.4090054019093
 30
0.0
 11
-34.01900597088101
 21
-280.224748345272
 31
0.0
  0
LINE
  5
2769
330
256F
100
AcDbEntity
  8
0
 62
     0
100
AcDbLine
 10
-34.24444014027825
 20
-280.5827650361417
 30
0.0
 11
-34.09058227540249
 21
-280.4289071712659
 31
0.0
  0
LINE
  5
276A
330
256F
100
AcDbEntity
  8
0
 62
     0
100
AcDbLine
 10
-33.90969151656292
 20
-280.2480164124263
 30
0.0
 11
-33.73652476279732
 21
-280.0748496586608
 31
0.0
  0
LINE
  5
276B
330
256F
100
AcDbEntity
  8
0
 62
     0
100
AcDbLine
 10
-34.09058227540246
 20
-280.4289071712659
 30
0.0
 11
-33.90969151656286
 21
-280.2480164124263
 31
0.0
  0
LINE
  5
276C
330
256F
100
AcDbEntity
  8
0
 62
     0
100
AcDbLine
 10
-34.20026196149541
 20
-280.6711693788314
 30
0.0
 11
-33.9779015232867
 21
-280.4488089406227
 31
0.0
  0
LINE
  5
276D
330
256F
100
AcDbEntity
  8
0
 62
     0
100
AcDbLine
 10
-33.80037706224471
 20
-280.2712844795807
 30
0.0
 11
-33.56665993146914
 21
-280.0375673488051
 31
0.0
  0
LINE
  5
276E
330
256F
100
AcDbEntity
  8
0
 62
     0
100
AcDbLine
 10
-33.97790152328667
 20
-280.4488089406226
 30
0.0
 11
-33.80037706224476
 21
-280.2712844795808
 31
0.0
  0
LINE
  5
276F
330
256F
100
AcDbEntity
  8
0
 62
     0
100
AcDbLine
 10
-34.15608378271257
 20
-280.759573721521
 30
0.0
 11
-33.86522077117088
 21
-280.4687107099793
 31
0.0
  0
LINE
  5
2770
330
256F
100
AcDbEntity
  8
0
 62
     0
100
AcDbLine
 10
-33.69106260792654
 20
-280.294552546735
 30
0.0
 11
-33.52248175268631
 21
-280.1259716914947
 31
0.0
  0
LINE
  5
2771
330
256F
100
AcDbEntity
  8
0
 62
     0
100
AcDbLine
 10
-33.86522077117085
 20
-280.4687107099793
 30
0.0
 11
-33.69106260792662
 21
-280.2945525467351
 31
0.0
  0
LINE
  5
2772
330
256F
100
AcDbEntity
  8
0
 62
     0
100
AcDbLine
 10
-34.11190560392971
 20
-280.8479780642106
 30
0.0
 11
-33.75254001905505
 21
-280.488612479336
 31
0.0
  0
LINE
  5
2773
330
256F
100
AcDbEntity
  8
0
 62
     0
100
AcDbLine
 10
-33.59453372366715
 20
-280.330606183948
 30
0.0
 11
-33.47830357390347
 21
-280.2143760341844
 31
0.0
  0
LINE
  5
2774
330
256F
100
AcDbEntity
  8
0
 62
     0
100
AcDbLine
 10
-33.75254001905507
 20
-280.4886124793359
 30
0.0
 11
-33.59453372366719
 21
-280.3306061839481
 31
0.0
  0
LINE
  5
2775
330
256F
100
AcDbEntity
  8
0
 62
     0
100
AcDbLine
 10
-34.06772742514688
 20
-280.9363824069003
 30
0.0
 11
-33.64145204273529
 21
-280.5101070244887
 31
0.0
  0
LINE
  5
2776
330
256F
100
AcDbEntity
  8
0
 62
     0
100
AcDbLine
 10
-33.62039977625162
 20
-280.489054758005
 30
0.0
 11
-33.43412539512061
 21
-280.302780376874
 31
0.0
  0
LINE
  5
2777
330
256F
100
AcDbEntity
  8
0
 62
     0
100
AcDbLine
 10
-33.64145204273528
 20
-280.5101070244887
 30
0.0
 11
-33.62039977625164
 21
-280.489054758005
 31
0.0
  0
LINE
  5
2778
330
256F
100
AcDbEntity
  8
0
 62
     0
100
AcDbLine
 10
-34.02354924636404
 20
-281.0247867495899
 30
0.0
 11
-33.38994721633778
 21
-280.3911847195636
 31
0.0
  0
LINE
  5
2779
330
256F
100
AcDbEntity
  8
0
 62
     0
100
AcDbLine
 10
-33.97937106758119
 20
-281.1131910922795
 30
0.0
 11
-33.34576903755494
 21
-280.4795890622533
 31
0.0
  0
LINE
  5
277A
330
256F
100
AcDbEntity
  8
0
 62
     0
100
AcDbLine
 10
-33.93519288879836
 20
-281.2015954349691
 30
0.0
 11
-33.30159085877209
 21
-280.567993404943
 31
0.0
  0
LINE
  5
277B
330
256F
100
AcDbEntity
  8
0
 62
     0
100
AcDbLine
 10
-33.89101471001551
 20
-281.2899997776588
 30
0.0
 11
-33.25741267998925
 21
-280.6563977476325
 31
0.0
  0
LINE
  5
277C
330
256F
100
AcDbEntity
  8
0
 62
     0
100
AcDbLine
 10
-33.84683653123266
 20
-281.3784041203485
 30
0.0
 11
-33.21323450120642
 21
-280.7448020903222
 31
0.0
  0
LINE
  5
277D
330
256F
100
AcDbEntity
  8
0
 62
     0
100
AcDbLine
 10
-33.80265835244982
 20
-281.4668084630381
 30
0.0
 11
-33.16905632242356
 21
-280.8332064330118
 31
0.0
  0
LINE
  5
277E
330
256F
100
AcDbEntity
  8
0
 62
     0
100
AcDbLine
 10
-33.75848017366698
 20
-281.5552128057277
 30
0.0
 11
-33.12487814364072
 21
-280.9216107757015
 31
0.0
  0
LINE
  5
277F
330
256F
100
AcDbEntity
  8
0
 62
     0
100
AcDbLine
 10
-33.71430199488414
 20
-281.6436171484174
 30
0.0
 11
-33.08069996485789
 21
-281.010015118391
 31
0.0
  0
LINE
  5
2780
330
256F
100
AcDbEntity
  8
0
 62
     0
100
AcDbLine
 10
-33.6701238161013
 20
-281.732021491107
 30
0.0
 11
-33.03652178607503
 21
-281.0984194610807
 31
0.0
  0
LINE
  5
2781
330
256F
100
AcDbEntity
  8
0
 62
     0
100
AcDbLine
 10
-33.62594563731845
 20
-281.8204258337966
 30
0.0
 11
-32.9923436072922
 21
-281.1868238037704
 31
0.0
  0
LINE
  5
2782
330
256F
100
AcDbEntity
  8
0
 62
     0
100
AcDbLine
 10
-33.58176745853561
 20
-281.9088301764862
 30
0.0
 11
-32.94816542850937
 21
-281.2752281464601
 31
0.0
  0
LINE
  5
2783
330
256F
100
AcDbEntity
  8
0
 62
     0
100
AcDbLine
 10
-33.53758927975277
 20
-281.9972345191759
 30
0.0
 11
-32.90398724972653
 21
-281.3636324891497
 31
0.0
  0
LINE
  5
2784
330
256F
100
AcDbEntity
  8
0
 62
     0
100
AcDbLine
 10
-33.49341110096992
 20
-282.0856388618656
 30
0.0
 11
-32.85980907094367
 21
-281.4520368318393
 31
0.0
  0
LINE
  5
2785
330
256F
100
AcDbEntity
  8
0
 62
     0
100
AcDbLine
 10
-33.44923292218708
 20
-282.1740432045552
 30
0.0
 11
-32.81563089216084
 21
-281.5404411745289
 31
0.0
  0
LINE
  5
2786
330
256F
100
AcDbEntity
  8
0
 62
     0
100
AcDbLine
 10
-33.40505474340423
 20
-282.2624475472448
 30
0.0
 11
-32.771452713378
 21
-281.6288455172186
 31
0.0
  0
LINE
  5
2787
330
256F
100
AcDbEntity
  8
0
 62
     0
100
AcDbLine
 10
-33.36087656462139
 20
-282.3508518899345
 30
0.0
 11
-32.72727453459515
 21
-281.7172498599082
 31
0.0
  0
LINE
  5
2788
330
256F
100
AcDbEntity
  8
0
 62
     0
100
AcDbLine
 10
-33.31669838583855
 20
-282.4392562326241
 30
0.0
 11
-32.68309635581231
 21
-281.8056542025978
 31
0.0
  0
LINE
  5
2789
330
256F
100
AcDbEntity
  8
0
 62
     0
100
AcDbLine
 10
-33.27252020705571
 20
-282.5276605753137
 30
0.0
 11
-32.63891817702948
 21
-281.8940585452875
 31
0.0
  0
LINE
  5
278A
330
256F
100
AcDbEntity
  8
0
 62
     0
100
AcDbLine
 10
-33.22834202827287
 20
-282.6160649180033
 30
0.0
 11
-32.59473999824662
 21
-281.9824628879771
 31
0.0
  0
LINE
  5
278B
330
256F
100
AcDbEntity
  8
0
 62
     0
100
AcDbLine
 10
-33.18416384949003
 20
-282.704469260693
 30
0.0
 11
-32.55056181946378
 21
-282.0708672306667
 31
0.0
  0
LINE
  5
278C
330
256F
100
AcDbEntity
  8
0
 62
     0
100
AcDbLine
 10
-33.13998567070718
 20
-282.7928736033826
 30
0.0
 11
-32.50638364068095
 21
-282.1592715733564
 31
0.0
  0
LINE
  5
278D
330
256F
100
AcDbEntity
  8
0
 62
     0
100
AcDbLine
 10
-33.09580749192433
 20
-282.8812779460723
 30
0.0
 11
-32.46220546189811
 21
-282.247675916046
 31
0.0
  0
LINE
  5
278E
330
256F
100
AcDbEntity
  8
0
 62
     0
100
AcDbLine
 10
-33.0516293131415
 20
-282.9696822887619
 30
0.0
 11
-32.41802728311526
 21
-282.3360802587357
 31
0.0
  0
LINE
  5
278F
330
256F
100
AcDbEntity
  8
0
 62
     0
100
AcDbLine
 10
-33.00745113435866
 20
-283.0580866314516
 30
0.0
 11
-32.37384910433242
 21
-282.4244846014253
 31
0.0
  0
LINE
  5
2790
330
256F
100
AcDbEntity
  8
0
 62
     0
100
AcDbLine
 10
-32.96327295557581
 20
-283.1464909741411
 30
0.0
 11
-32.32967092554959
 21
-282.5128889441149
 31
0.0
  0
LINE
  5
2791
330
256F
100
AcDbEntity
  8
0
 62
     0
100
AcDbLine
 10
-32.91909477679296
 20
-283.2348953168308
 30
0.0
 11
-32.28549274676673
 21
-282.6012932868045
 31
0.0
  0
LINE
  5
2792
330
256F
100
AcDbEntity
  8
0
 62
     0
100
AcDbLine
 10
-32.87491659801013
 20
-283.3232996595204
 30
0.0
 11
-32.24131456798389
 21
-282.6896976294942
 31
0.0
  0
LINE
  5
2793
330
256F
100
AcDbEntity
  8
0
 62
     0
100
AcDbLine
 10
-32.83073841922728
 20
-283.4117040022101
 30
0.0
 11
-32.19713638920106
 21
-282.7781019721838
 31
0.0
  0
LINE
  5
2794
330
256F
100
AcDbEntity
  8
0
 62
     0
100
AcDbLine
 10
-32.78656024044444
 20
-283.5001083448997
 30
0.0
 11
-32.1529582104182
 21
-282.8665063148735
 31
0.0
  0
LINE
  5
2795
330
256F
100
AcDbEntity
  8
0
 62
     0
100
AcDbLine
 10
-32.7423820616616
 20
-283.5885126875893
 30
0.0
 11
-32.10878003163537
 21
-282.9549106575631
 31
0.0
  0
LINE
  5
2796
330
256F
100
AcDbEntity
  8
0
 62
     0
100
AcDbLine
 10
-32.69820388287876
 20
-283.6769170302789
 30
0.0
 11
-32.06460185285254
 21
-283.0433150002527
 31
0.0
  0
LINE
  5
2797
330
256F
100
AcDbEntity
  8
0
 62
     0
100
AcDbLine
 10
-32.65402570409591
 20
-283.7653213729686
 30
0.0
 11
-32.0204236740697
 21
-283.1317193429424
 31
0.0
  0
LINE
  5
2798
330
256F
100
AcDbEntity
  8
0
 62
     0
100
AcDbLine
 10
-32.60984752531307
 20
-283.8537257156582
 30
0.0
 11
-31.97624549528684
 21
-283.220123685632
 31
0.0
  0
LINE
  5
2799
330
256F
100
AcDbEntity
  8
0
 62
     0
100
AcDbLine
 10
-32.56566934653022
 20
-283.9421300583479
 30
0.0
 11
-31.93206731650401
 21
-283.3085280283216
 31
0.0
  0
LINE
  5
279A
330
256F
100
AcDbEntity
  8
0
 62
     0
100
AcDbLine
 10
-32.52149116774738
 20
-284.0305344010375
 30
0.0
 11
-31.88788913772117
 21
-283.3969323710113
 31
0.0
  0
LINE
  5
279B
330
256F
100
AcDbEntity
  8
0
 62
     0
100
AcDbLine
 10
-32.47731298896454
 20
-284.1189387437271
 30
0.0
 11
-31.84371095893832
 21
-283.4853367137009
 31
0.0
  0
LINE
  5
279C
330
256F
100
AcDbEntity
  8
0
 62
     0
100
AcDbLine
 10
-32.43313481018169
 20
-284.2073430864168
 30
0.0
 11
-31.79953278015548
 21
-283.5737410563906
 31
0.0
  0
LINE
  5
279D
330
256F
100
AcDbEntity
  8
0
 62
     0
100
AcDbLine
 10
-32.38895663139885
 20
-284.2957474291064
 30
0.0
 11
-31.75535460137264
 21
-283.6621453990801
 31
0.0
  0
LINE
  5
279E
330
256F
100
AcDbEntity
  8
0
 62
     0
100
AcDbLine
 10
-32.34477845261601
 20
-284.384151771796
 30
0.0
 11
-31.71117642258979
 21
-283.7505497417698
 31
0.0
  0
LINE
  5
279F
330
256F
100
AcDbEntity
  8
0
 62
     0
100
AcDbLine
 10
-32.30060027383317
 20
-284.4725561144857
 30
0.0
 11
-31.66699824380695
 21
-283.8389540844595
 31
0.0
  0
LINE
  5
27A0
330
256F
100
AcDbEntity
  8
0
 62
     0
100
AcDbLine
 10
-32.25642209505032
 20
-284.5609604571753
 30
0.0
 11
-31.62282006502412
 21
-283.9273584271491
 31
0.0
  0
LINE
  5
27A1
330
256F
100
AcDbEntity
  8
0
 62
     0
100
AcDbLine
 10
-32.21224391626749
 20
-284.649364799865
 30
0.0
 11
-31.57864188624126
 21
-284.0157627698387
 31
0.0
  0
LINE
  5
27A2
330
256F
100
AcDbEntity
  8
0
 62
     0
100
AcDbLine
 10
-32.16806573748464
 20
-284.7377691425545
 30
0.0
 11
-31.53446370745843
 21
-284.1041671125284
 31
0.0
  0
LINE
  5
27A3
330
256F
100
AcDbEntity
  8
0
 62
     0
100
AcDbLine
 10
-32.1238875587018
 20
-284.8261734852442
 30
0.0
 11
-31.49028552867559
 21
-284.192571455218
 31
0.0
  0
LINE
  5
27A4
330
256F
100
AcDbEntity
  8
0
 62
     0
100
AcDbLine
 10
-32.07970937991895
 20
-284.9145778279338
 30
0.0
 11
-31.44610734989275
 21
-284.2809757979077
 31
0.0
  0
LINE
  5
27A5
330
256F
100
AcDbEntity
  8
0
 62
     0
100
AcDbLine
 10
-32.03553120113612
 20
-285.0029821706235
 30
0.0
 11
-31.4019291711099
 21
-284.3693801405972
 31
0.0
  0
LINE
  5
27A6
330
256F
100
AcDbEntity
  8
0
 62
     0
100
AcDbLine
 10
-31.99135302235327
 20
-285.0913865133131
 30
0.0
 11
-31.35775099232706
 21
-284.4577844832869
 31
0.0
  0
LINE
  5
27A7
330
256F
100
AcDbEntity
  8
0
 62
     0
100
AcDbLine
 10
-31.94717484357042
 20
-285.1797908560028
 30
0.0
 11
-31.31357281354423
 21
-284.5461888259766
 31
0.0
  0
LINE
  5
27A8
330
256F
100
AcDbEntity
  8
0
 62
     0
100
AcDbLine
 10
-31.90299666478758
 20
-285.2681951986924
 30
0.0
 11
-31.26939463476138
 21
-284.6345931686662
 31
0.0
  0
LINE
  5
27A9
330
256F
100
AcDbEntity
  8
0
 62
     0
100
AcDbLine
 10
-31.85881848600474
 20
-285.356599541382
 30
0.0
 11
-31.22521645597854
 21
-284.7229975113558
 31
0.0
  0
LINE
  5
27AA
330
256F
100
AcDbEntity
  8
0
 62
     0
100
AcDbLine
 10
-31.8146403072219
 20
-285.4450038840717
 30
0.0
 11
-31.1810382771957
 21
-284.8114018540455
 31
0.0
  0
LINE
  5
27AB
330
256F
100
AcDbEntity
  8
0
 62
     0
100
AcDbLine
 10
-31.77046212843906
 20
-285.5334082267613
 30
0.0
 11
-31.13686009841285
 21
-284.8998061967351
 31
0.0
  0
LINE
  5
27AC
330
256F
100
AcDbEntity
  8
0
 62
     0
100
AcDbLine
 10
-31.72628394965622
 20
-285.6218125694509
 30
0.0
 11
-31.09268191963001
 21
-284.9882105394248
 31
0.0
  0
LINE
  5
27AD
330
256F
100
AcDbEntity
  8
0
 62
     0
100
AcDbLine
 10
-31.68210577087337
 20
-285.7102169121406
 30
0.0
 11
-31.04850374084718
 21
-285.0766148821143
 31
0.0
  0
LINE
  5
27AE
330
256F
100
AcDbEntity
  8
0
 62
     0
100
AcDbLine
 10
-31.63792759209052
 20
-285.7986212548302
 30
0.0
 11
-31.00432556206434
 21
-285.165019224804
 31
0.0
  0
LINE
  5
27AF
330
256F
100
AcDbEntity
  8
0
 62
     0
100
AcDbLine
 10
-31.59374941330769
 20
-285.8870255975199
 30
0.0
 11
-30.96014738328149
 21
-285.2534235674937
 31
0.0
  0
LINE
  5
27B0
330
256F
100
AcDbEntity
  8
0
 62
     0
100
AcDbLine
 10
-31.50332316272872
 20
-285.9291818684134
 30
0.0
 11
-30.91596920449865
 21
-285.3418279101833
 31
0.0
  0
LINE
  5
27B1
330
256F
100
AcDbEntity
  8
0
 62
     0
100
AcDbLine
 10
-31.37157195278595
 20
-285.9300131799431
 30
0.0
 11
-30.87179102571581
 21
-285.4302322528729
 31
0.0
  0
LINE
  5
27B2
330
256F
100
AcDbEntity
  8
0
 62
     0
100
AcDbLine
 10
-31.23982074284319
 20
-285.9308444914728
 30
0.0
 11
-30.82761284693296
 21
-285.5186365955626
 31
0.0
  0
LINE
  5
27B3
330
256F
100
AcDbEntity
  8
0
 62
     0
100
AcDbLine
 10
-31.25232952633624
 20
-286.0759357964383
 30
0.0
 11
-31.16460760049095
 21
-285.988213870593
 31
0.0
  0
LINE
  5
27B4
330
256F
100
AcDbEntity
  8
0
 62
     0
100
AcDbLine
 10
-31.10806953290039
 20
-285.9316758030024
 30
0.0
 11
-30.78343466815012
 21
-285.6070409382521
 31
0.0
  0
LINE
  5
27B5
330
256F
100
AcDbEntity
  8
0
 62
     0
100
AcDbLine
 10
-31.15811563536502
 20
-285.981721905467
 30
0.0
 11
-31.10806953290039
 21
-285.9316758030025
 31
0.0
  0
LINE
  5
27B6
330
256F
100
AcDbEntity
  8
0
 62
     0
100
AcDbLine
 10
-31.12177404626793
 20
-286.0779628378424
 30
0.0
 11
-31.0328563905482
 21
-285.9890451821227
 31
0.0
  0
LINE
  5
27B7
330
256F
100
AcDbEntity
  8
0
 62
     0
100
AcDbLine
 10
-30.97631832295762
 20
-285.9325071145322
 30
0.0
 11
-30.73925648936729
 21
-285.6954452809418
 31
0.0
  0
LINE
  5
27B8
330
256F
100
AcDbEntity
  8
0
 62
     0
100
AcDbLine
 10
-30.99002283632514
 20
-286.0787941493721
 30
0.0
 11
-30.93156545569635
 21
-286.0203367687433
 31
0.0
  0
LINE
  5
27B9
330
256F
100
AcDbEntity
  8
0
 62
     0
100
AcDbLine
 10
-30.84456711301486
 20
-285.9333384260619
 30
0.0
 11
-30.69507831058443
 21
-285.7838496236314
 31
0.0
  0
LINE
  5
27BA
330
256F
100
AcDbEntity
  8
0
 62
     0
100
AcDbLine
 10
-30.7128159030721
 20
-285.9341697375916
 30
0.0
 11
-30.6509001318016
 21
-285.8722539663211
 31
0.0
  0
ENDBLK
  5
27BB
330
256F
100
AcDbEntity
  8
0
100
AcDbBlockEnd
  0
BLOCK
  5
2B2C
330
2B21
100
AcDbEntity
  8
0
100
AcDbBlockBegin
  2
*D25
 70
     1
 10
0.0
 20
0.0
 30
0.0
  3
*D25
  1

  0
LINE
  5
2B74
330
2B21
100
AcDbEntity
  8
0
 62
     0
370
    -2
100
AcDbLine
 10
450.6121520129987
 20
195.2904819424383
 30
0.0
 11
450.6121520129987
 21
201.5297834075857
 31
0.0
  0
LINE
  5
2B75
330
2B21
100
AcDbEntity
  8
0
 62
     0
370
    -2
100
AcDbLine
 10
424.1121520129987
 20
195.2904819424384
 30
0.0
 11
424.1121520129987
 21
201.5297834075857
 31
0.0
  0
LINE
  5
2B76
330
2B21
100
AcDbEntity
  8
0
 62
     0
370
    -2
100
AcDbLine
 10
448.9871520129987
 20
199.9047834075857
 30
0.0
 11
446.9380448701416
 21
199.9047834075857
 31
0.0
  0
LINE
  5
2B77
330
2B21
100
AcDbEntity
  8
0
 62
     0
370
    -2
100
AcDbLine
 10
425.7371520129987
 20
199.9047834075857
 30
0.0
 11
427.7862591558558
 21
199.9047834075857
 31
0.0
  0
SOLID
  5
2B78
330
2B21
100
AcDbEntity
  8
0
 62
     0
100
AcDbTrace
 10
448.9871520129987
 20
200.175616740919
 30
0.0
 11
448.9871520129987
 21
199.6339500742523
 31
0.0
 12
450.6121520129987
 22
199.9047834075857
 32
0.0
 13
450.6121520129987
 23
199.9047834075857
 33
0.0
  0
SOLID
  5
2B79
330
2B21
100
AcDbEntity
  8
0
 62
     0
100
AcDbTrace
 10
425.7371520129987
 20
200.175616740919
 30
0.0
 11
425.7371520129987
 21
199.6339500742523
 31
0.0
 12
424.1121520129987
 22
199.9047834075857
 32
0.0
 13
424.1121520129987
 23
199.9047834075857
 33
0.0
  0
MTEXT
  5
2B7A
330
2B21
100
AcDbEntity
  8
0
 62
     0
100
AcDbMText
 10
437.3621520129987
 20
199.9047834075857
 30
0.0
 40
2.4375
 41
0.0
 46
0.0
 71
     5
 72
     1
  1
\A1;24" MIN.\PX + 17"
  7
ROMANS
 73
     1
 44
1.0
  0
POINT
  5
2B7B
330
2B21
100
AcDbEntity
  8
DEFPOINTS
 62
     0
100
AcDbPoint
 10
450.6121520129987
 20
193.6654819424383
 30
0.0
  0
POINT
  5
2B7C
330
2B21
100
AcDbEntity
  8
DEFPOINTS
 62
     0
100
AcDbPoint
 10
424.1121520129987
 20
193.6654819424384
 30
0.0
  0
POINT
  5
2B7D
330
2B21
100
AcDbEntity
  8
DEFPOINTS
 62
     0
100
AcDbPoint
 10
424.1121520129987
 20
199.9047834075857
 30
0.0
  0
ENDBLK
  5
2B2D
330
2B21
100
AcDbEntity
  8
0
100
AcDbBlockEnd
  0
ENDSEC
  0
SECTION
  2
ENTITIES
  0
LINE
  5
247
330
42E
100
AcDbEntity
  8
0
 62
     7
100
AcDbLine
 10
517.8289333306405
 20
45.66548194243833
 30
0.0
 11
517.8289333306405
 21
193.6654819424383
 31
0.0
  0
LINE
  5
248
330
42E
100
AcDbEntity
  8
0
 62
     7
100
AcDbLine
 10
541.8289333306405
 20
45.66548194243833
 30
0.0
 11
541.8289333306405
 21
193.6654819424383
 31
0.0
  0
LINE
  5
249
330
42E
100
AcDbEntity
  8
0
 62
     7
100
AcDbLine
 10
542.8914333306405
 20
45.66548194243833
 30
0.0
 11
542.8914333306405
 21
193.6654819424383
 31
0.0
  0
LINE
  5
24A
330
42E
100
AcDbEntity
  8
0
 62
     7
100
AcDbLine
 10
516.7664333306405
 20
45.66548194243833
 30
0.0
 11
516.7664333306405
 21
193.6654819424383
 31
0.0
  0
LINE
  5
24B
330
42E
100
AcDbEntity
  8
0
 62
     7
100
AcDbLine
 10
516.7664333306405
 20
45.66548194243833
 30
0.0
 11
517.8289333306405
 21
45.66548194243833
 31
0.0
  0
LINE
  5
24C
330
42E
100
AcDbEntity
  8
0
 62
     7
100
AcDbLine
 10
542.8914333306405
 20
45.66548194243833
 30
0.0
 11
541.8289333306405
 21
45.66548194243833
 31
0.0
  0
LINE
  5
24D
330
42E
100
AcDbEntity
  8
0
 62
     7
100
AcDbLine
 10
541.8289333306405
 20
139.6654819424383
 30
0.0
 11
517.8289333306405
 21
139.6654819424383
 31
0.0
  0
LINE
  5
24E
330
42E
100
AcDbEntity
  8
0
 62
     7
100
AcDbLine
 10
541.8289333306405
 20
138.9154819424383
 30
0.0
 11
517.8289333306405
 21
138.9154819424383
 31
0.0
  0
LINE
  5
24F
330
42E
100
AcDbEntity
  8
0
 62
     7
100
AcDbLine
 10
541.8289333306405
 20
126.9154819424383
 30
0.0
 11
517.8289333306405
 21
126.9154819424383
 31
0.0
  0
LINE
  5
250
330
42E
100
AcDbEntity
  8
0
 62
     7
100
AcDbLine
 10
541.8289333306405
 20
127.6654819424383
 30
0.0
 11
517.8289333306405
 21
127.6654819424383
 31
0.0
  0
LINE
  5
251
330
42E
100
AcDbEntity
  8
0
 62
     7
100
AcDbLine
 10
541.8289333306405
 20
114.9154819424383
 30
0.0
 11
517.8289333306405
 21
114.9154819424383
 31
0.0
  0
LINE
  5
252
330
42E
100
AcDbEntity
  8
0
 62
     7
100
AcDbLine
 10
541.8289333306405
 20
115.6654819424383
 30
0.0
 11
517.8289333306405
 21
115.6654819424383
 31
0.0
  0
LINE
  5
253
330
42E
100
AcDbEntity
  8
0
 62
     7
100
AcDbLine
 10
541.8289333306405
 20
102.9154819424383
 30
0.0
 11
517.8289333306405
 21
102.9154819424383
 31
0.0
  0
LINE
  5
254
330
42E
100
AcDbEntity
  8
0
 62
     7
100
AcDbLine
 10
541.8289333306405
 20
103.6654819424383
 30
0.0
 11
517.8289333306405
 21
103.6654819424383
 31
0.0
  0
LINE
  5
255
330
42E
100
AcDbEntity
  8
0
 62
     7
100
AcDbLine
 10
541.8289333306405
 20
90.91548194243831
 30
0.0
 11
517.8289333306405
 21
90.91548194243831
 31
0.0
  0
LINE
  5
256
330
42E
100
AcDbEntity
  8
0
 62
     7
100
AcDbLine
 10
541.8289333306405
 20
91.6654819424383
 30
0.0
 11
517.8289333306405
 21
91.6654819424383
 31
0.0
  0
LINE
  5
257
330
42E
100
AcDbEntity
  8
0
 62
     7
100
AcDbLine
 10
541.8289333306405
 20
78.91548194243831
 30
0.0
 11
517.8289333306405
 21
78.91548194243831
 31
0.0
  0
LINE
  5
258
330
42E
100
AcDbEntity
  8
0
 62
     7
100
AcDbLine
 10
541.8289333306405
 20
79.66548194243831
 30
0.0
 11
517.8289333306405
 21
79.66548194243831
 31
0.0
  0
LINE
  5
266
330
42E
100
AcDbEntity
  8
0
 62
     7
100
AcDbLine
 10
450.6121520129987
 20
45.66548194243833
 30
0.0
 11
450.6121520129987
 21
193.6654819424383
 31
0.0
  0
LINE
  5
267
330
42E
100
AcDbEntity
  8
0
 62
     7
100
AcDbLine
 10
442.1121520129987
 20
138.6654819424383
 30
0.0
 11
450.6121520129987
 21
138.6654819424383
 31
0.0
  0
LINE
  5
268
330
42E
100
AcDbEntity
  8
0
 62
     7
100
AcDbLine
 10
442.1121520129987
 20
135.6654819424383
 30
0.0
 11
450.6121520129987
 21
135.6654819424383
 31
0.0
  0
LINE
  5
275
330
42E
100
AcDbEntity
  8
0
 62
     7
100
AcDbLine
 10
448.1121520129987
 20
138.6654819424383
 30
0.0
 11
448.1121520129987
 21
191.1654819424383
 31
0.0
  0
LINE
  5
276
330
42E
100
AcDbEntity
  8
0
 62
     7
100
AcDbLine
 10
448.1121520129987
 20
45.66548194243833
 30
0.0
 11
448.1121520129987
 21
51.6654819424383
 31
0.0
  0
TEXT
  5
2C5
330
42E
100
AcDbEntity
  8
0
 62
     0
100
AcDbText
 10
371.0150968704861
 20
232.8538790060035
 30
0.0
 40
5.384318707968749
  1
FIXED LADDER WITH PARAPET PLATFORM & ROOFSIDE RETURN
  7
ROMANC
100
AcDbText
  0
DIMENSION
  5
2CE
330
42E
100
AcDbEntity
  8
0
 62
     7
100
AcDbDimension
  2
*D21
 10
552.5709450977148
 20
127.6654819424383
 30
0.0
 11
552.6109564624205
 21
121.0892843618747
 31
0.0
 70
   160
  1
12" TYP
 71
     5
 42
12.0
 73
     0
 74
     0
 75
     0
  3
STANDARD$0
100
AcDbAlignedDimension
 13
541.8289333306405
 23
115.6654819424383
 33
0.0
 14
541.8289333306405
 24
127.6654819424383
 34
0.0
 50
90.0
100
AcDbRotatedDimension
1001
ACAD
1000
DSTYLE
1002
{
1070
    40
1040
26.0
1070
   140
1040
0.09375
1002
}
  0
DIMENSION
  5
2CF
330
42E
100
AcDbEntity
  8
0
 62
     7
100
AcDbDimension
  2
*D18
 10
516.7664333306405
 20
41.99243239401326
 30
0.0
 11
529.8289333306406
 21
41.99243239401326
 31
0.0
 70
    32
  1
26-1/8"
 71
     5
 42
26.125
 73
     0
 74
     0
 75
     0
  3
STANDARD$0
100
AcDbAlignedDimension
 13
542.8914333306405
 23
45.66548194243835
 33
0.0
 14
516.7664333306405
 24
45.66548194243835
 34
0.0
100
AcDbRotatedDimension
1001
ACAD
1000
DSTYLE
1002
{
1070
    40
1040
26.0
1070
   140
1040
0.09375
1002
}
  0
TEXT
  5
2D0
330
42E
100
AcDbEntity
  8
0
 62
     0
100
AcDbText
 10
620.5696672220449
 20
23.01233740811904
 30
0.0
 40
4.1877721875
  1
FACTORY FINISH
  7
ROMANS
 72
     1
 11
645.7960092086521
 21
23.01233740811904
 31
0.0
100
AcDbText
  0
TEXT
  5
2D1
330
42E
100
AcDbEntity
  8
0
 62
     0
100
AcDbText
 10
609.7313139653485
 20
16.2321348188333
 30
0.0
 40
4.1877721875
  1
%%OALUMINUM-MILL FINISH
  7
ROMANS
 72
     1
 11
645.7960092086521
 21
16.2321348188333
 31
0.0
100
AcDbText
  0
TEXT
  5
2D2
330
42E
100
AcDbEntity
  8
0
 62
     0
100
AcDbText
 10
616.0377361931745
 20
70.59245094213605
 30
0.0
 40
4.1877721875
  1
BRACKET DETAIL
  7
ROMANS
 72
     1
 11
641.9620402110316
 21
70.59245094213605
 31
0.0
100
AcDbText
  0
TEXT
  5
2D3
330
42E
100
AcDbEntity
  8
0
 62
     0
100
AcDbText
 10
619.8600141154843
 20
158.2425487353122
 30
0.0
 40
4.1877721875
  1
PLAN
  7
ROMANS
 72
     1
 11
627.6373053208414
 21
158.2425487353122
 31
0.0
100
AcDbText
  0
TEXT
  5
2D4
330
42E
100
AcDbEntity
  8
0
 62
     7
100
AcDbText
 10
455.8167582946107
 20
191.7719700816186
 30
0.0
 40
2.210999999999999
  1
2-1/2" ALUMINUM
  7
ROMANS
 72
     1
 11
471.5569725803249
 21
191.7719700816186
 31
0.0
100
AcDbText
  0
TEXT
  5
2D5
330
42E
100
AcDbEntity
  8
0
 62
     7
100
AcDbText
 10
455.9746868660393
 20
188.1922557959043
 30
0.0
 40
2.210999999999999
  1
CHANNEL SIDERAIL
  7
ROMANS
 72
     1
 11
471.5569725803249
 21
188.1922557959043
 31
0.0
100
AcDbText
  0
TEXT
  5
2D6
330
42E
100
AcDbEntity
  8
0
 62
     7
100
AcDbText
 10
462.6076868660392
 20
184.6125415101901
 30
0.0
 40
2.210999999999999
  1
(6005-T5)
  7
ROMANS
 72
     1
 11
471.5569725803249
 21
184.6125415101901
 31
0.0
100
AcDbText
  0
TEXT
  5
2D7
330
42E
100
AcDbEntity
  8
0
 62
     7
100
AcDbText
 10
478.9679191138557
 20
79.51589843802159
 30
0.0
 40
2.210999999999999
  1
2-1/4" SERRATED
  7
ROMANS
 72
     1
 11
494.6554905424271
 21
79.51589843802159
 31
0.0
100
AcDbText
  0
TEXT
  5
2D8
330
42E
100
AcDbEntity
  8
0
 62
     7
100
AcDbText
 10
480.8630619709985
 20
75.9361841523073
 30
0.0
 40
2.210999999999999
  1
ALUMINUM RUNG
  7
ROMANS
 72
     1
 11
494.6554905424271
 21
75.9361841523073
 31
0.0
100
AcDbText
  0
TEXT
  5
2D9
330
42E
100
AcDbEntity
  8
0
 62
     7
100
AcDbText
 10
485.7062048281413
 20
72.35646986659301
 30
0.0
 40
2.210999999999999
  1
(6005-T5)
  7
ROMANS
 72
     1
 11
494.6554905424271
 21
72.35646986659301
 31
0.0
100
AcDbText
  0
LINE
  5
2DA
330
42E
100
AcDbEntity
  8
0
 62
     7
100
AcDbLine
 10
519.4528088275701
 20
73.35406235511442
 30
0.0
 11
504.356336524041
 21
73.35406235511442
 31
0.0
  0
LINE
  5
2DB
330
42E
100
AcDbEntity
  8
0
 62
     7
100
AcDbLine
 10
522.7973093916038
 20
69.52190591278236
 30
0.0
 11
519.4528088275701
 21
73.35406235511442
 31
0.0
  0
SOLID
  5
2DC
330
42E
100
AcDbEntity
  8
0
 62
     7
100
AcDbTrace
 10
522.5486816049214
 20
69.30491691838537
 30
0.0
 11
523.0459371782862
 21
69.7388949071794
 31
0.0
 12
524.0992433579858
 22
68.03013919268815
 32
0.0
 13
524.0992433579858
 23
68.03013919268815
 33
0.0
  0
LINE
  5
2DD
330
42E
100
AcDbEntity
  8
0
 62
     7
100
AcDbLine
 10
455.2585865434145
 20
185.5666820731355
 30
0.0
 11
461.4489160935602
 21
185.5666820731355
 31
0.0
  0
LINE
  5
2DE
330
42E
100
AcDbEntity
  8
0
 62
     7
100
AcDbLine
 10
451.9140859793808
 20
181.7345256308034
 30
0.0
 11
455.2585865434145
 21
185.5666820731355
 31
0.0
  0
SOLID
  5
2DF
330
42E
100
AcDbEntity
  8
0
 62
     7
100
AcDbTrace
 10
452.1627137660631
 20
181.5175366364064
 30
0.0
 11
451.6654581926984
 21
181.9515146252005
 31
0.0
 12
450.6121520129987
 22
180.2427589107092
 32
0.0
 13
450.6121520129987
 23
180.2427589107092
 33
0.0
  0
LINE
  5
2E0
330
42E
100
AcDbEntity
  8
0
 62
     7
100
AcDbLine
 10
541.8289333306405
 20
150.9154819424383
 30
0.0
 11
517.8289333306405
 21
150.9154819424383
 31
0.0
  0
LINE
  5
2E1
330
42E
100
AcDbEntity
  8
0
 62
     7
100
AcDbLine
 10
541.8289333306405
 20
151.6654819424383
 30
0.0
 11
517.8289333306405
 21
151.6654819424383
 31
0.0
  0
LINE
  5
2E4
330
42E
100
AcDbEntity
  8
0
 62
     7
100
AcDbLine
 10
426.6121520129988
 20
151.6654819424383
 30
0.0
 11
448.1121520129987
 21
151.6654819424383
 31
0.0
  0
LINE
  5
2E5
330
42E
100
AcDbEntity
  8
0
 62
     7
100
AcDbLine
 10
426.6121520129988
 20
149.1654819424383
 30
0.0
 11
448.1121520129987
 21
149.1654819424383
 31
0.0
  0
LINE
  5
2E7
330
42E
100
AcDbEntity
  8
0
 62
     7
100
AcDbLine
 10
424.1121520129987
 20
123.6654819424383
 30
0.0
 11
424.1121520129987
 21
193.6654819424384
 31
0.0
  0
LINE
  5
2E8
330
42E
100
AcDbEntity
  8
0
 62
     7
100
AcDbLine
 10
432.6121520129987
 20
131.4986913096162
 30
0.0
 11
424.1121520129987
 21
131.4986913096162
 31
0.0
  0
LINE
  5
2E9
330
42E
100
AcDbEntity
  8
0
 62
     7
100
AcDbLine
 10
432.6121520129987
 20
134.4986913096162
 30
0.0
 11
424.1121520129987
 21
134.4986913096162
 31
0.0
  0
LINE
  5
2EA
330
42E
100
AcDbEntity
  8
0
 62
     7
100
AcDbLine
 10
426.6121520129988
 20
134.4986913096162
 30
0.0
 11
426.6121520129988
 21
191.1654819424383
 31
0.0
  0
LINE
  5
2EB
330
42E
100
AcDbEntity
  8
0
 62
     7
100
AcDbLine
 10
426.6121520129988
 20
123.6654819424383
 30
0.0
 11
424.1121520129987
 21
123.6654819424383
 31
0.0
  0
LINE
  5
2EC
330
42E
100
AcDbEntity
  8
0
 62
     7
100
AcDbLine
 10
424.1121520129987
 20
193.6654819424384
 30
0.0
 11
450.6121520129987
 21
193.6654819424383
 31
0.0
  0
LINE
  5
2ED
330
42E
100
AcDbEntity
  8
0
 62
     7
100
AcDbLine
 10
426.6121520129988
 20
191.1654819424383
 30
0.0
 11
448.1121520129987
 21
191.1654819424383
 31
0.0
  0
LINE
  5
2EE
330
42E
100
AcDbEntity
  8
0
 62
     7
100
AcDbLine
 10
448.1121520129987
 20
191.1654819424383
 30
0.0
 11
450.6121520129987
 21
193.6654819424383
 31
0.0
  0
LINE
  5
2EF
330
42E
100
AcDbEntity
  8
0
 62
     7
100
AcDbLine
 10
426.6121520129988
 20
191.1654819424383
 30
0.0
 11
424.1121520129987
 21
193.6654819424384
 31
0.0
  0
LINE
  5
2F0
330
42E
100
AcDbEntity
  8
0
 62
     7
100
AcDbLine
 10
426.6121520129988
 20
172.6654819424383
 30
0.0
 11
448.1121520129987
 21
172.6654819424383
 31
0.0
  0
LINE
  5
2F1
330
42E
100
AcDbEntity
  8
0
 62
     7
100
AcDbLine
 10
426.6121520129988
 20
170.1654819424383
 30
0.0
 11
448.1121520129987
 21
170.1654819424383
 31
0.0
  0
LINE
  5
2F2
330
42E
100
AcDbEntity
  8
0
 62
     7
100
AcDbLine
 10
516.7664333306405
 20
193.6654819424383
 30
0.0
 11
517.8289333306405
 21
193.6654819424383
 31
0.0
  0
LINE
  5
2F3
330
42E
100
AcDbEntity
  8
0
 62
     7
100
AcDbLine
 10
541.8289333306405
 20
193.6654819424383
 30
0.0
 11
542.8914333306405
 21
193.6654819424383
 31
0.0
  0
LINE
  5
2F4
330
42E
100
AcDbEntity
  8
0
 62
     7
100
AcDbLine
 10
380.8831693486135
 20
123.6654819424383
 30
0.0
 11
380.8831693486135
 21
193.6654819424383
 31
0.0
  0
LINE
  5
2F5
330
42E
100
AcDbEntity
  8
0
 62
     7
100
AcDbLine
 10
379.8206693486136
 20
123.6654819424383
 30
0.0
 11
379.8206693486136
 21
193.6654819424383
 31
0.0
  0
LINE
  5
2F6
330
42E
100
AcDbEntity
  8
0
 62
     7
100
AcDbLine
 10
354.7581693486135
 20
123.6654819424383
 30
0.0
 11
354.7581693486135
 21
193.6654819424383
 31
0.0
  0
LINE
  5
2F7
330
42E
100
AcDbEntity
  8
0
 62
     7
100
AcDbLine
 10
355.8206693486135
 20
123.6654819424383
 30
0.0
 11
355.8206693486135
 21
193.6654819424383
 31
0.0
  0
LINE
  5
2F8
330
42E
100
AcDbEntity
  8
0
 62
     7
100
AcDbLine
 10
379.8206693486136
 20
139.6654819424383
 30
0.0
 11
355.8206693486135
 21
139.6654819424383
 31
0.0
  0
LINE
  5
2F9
330
42E
100
AcDbEntity
  8
0
 62
     7
100
AcDbLine
 10
379.8206693486136
 20
138.9154819424383
 30
0.0
 11
355.8206693486135
 21
138.9154819424383
 31
0.0
  0
LINE
  5
306
330
42E
100
AcDbEntity
  8
0
 62
     7
100
AcDbLine
 10
379.8206693486136
 20
150.9154819424383
 30
0.0
 11
355.8206693486135
 21
150.9154819424383
 31
0.0
  0
LINE
  5
307
330
42E
100
AcDbEntity
  8
0
 62
     7
100
AcDbLine
 10
379.8206693486136
 20
151.6654819424383
 30
0.0
 11
355.8206693486135
 21
151.6654819424383
 31
0.0
  0
LINE
  5
308
330
42E
100
AcDbEntity
  8
0
 62
     7
100
AcDbLine
 10
354.7581693486135
 20
193.6654819424383
 30
0.0
 11
355.8206693486135
 21
193.6654819424383
 31
0.0
  0
LINE
  5
309
330
42E
100
AcDbEntity
  8
0
 62
     7
100
AcDbLine
 10
379.8206693486136
 20
193.6654819424383
 30
0.0
 11
380.8831693486135
 21
193.6654819424383
 31
0.0
  0
LINE
  5
30A
330
42E
100
AcDbEntity
  8
0
 62
     7
100
AcDbLine
 10
380.8831693486135
 20
123.6654819424383
 30
0.0
 11
379.8206693486136
 21
123.6654819424383
 31
0.0
  0
LINE
  5
30B
330
42E
100
AcDbEntity
  8
0
 62
     7
100
AcDbLine
 10
355.8206693486135
 20
123.6654819424383
 30
0.0
 11
354.7581693486135
 21
123.6654819424383
 31
0.0
  0
LINE
  5
30E
330
42E
100
AcDbEntity
  8
0
 62
     7
100
AcDbLine
 10
379.8206693486136
 20
127.6654819424383
 30
0.0
 11
355.8206693486135
 21
127.6654819424383
 31
0.0
  0
LINE
  5
30F
330
42E
100
AcDbEntity
  8
0
 62
     7
100
AcDbLine
 10
379.8206693486136
 20
126.9154819424383
 30
0.0
 11
355.8206693486135
 21
126.9154819424383
 31
0.0
  0
LINE
  5
31E
330
42E
100
AcDbEntity
  8
0
 62
     7
100
AcDbLine
 10
426.6121520129988
 20
123.6654819424383
 30
0.0
 11
426.6121520129988
 21
131.4986913096162
 31
0.0
  0
LINE
  5
31F
330
42E
100
AcDbEntity
  8
0
 62
     7
100
AcDbLine
 10
442.1121520129987
 20
87.6654819424383
 30
0.0
 11
450.6121520129987
 21
87.6654819424383
 31
0.0
  0
LINE
  5
320
330
42E
100
AcDbEntity
  8
0
 62
     7
100
AcDbLine
 10
442.1121520129987
 20
90.6654819424383
 30
0.0
 11
450.6121520129987
 21
90.6654819424383
 31
0.0
  0
LINE
  5
33B
330
42E
100
AcDbEntity
  8
0
 62
     7
100
AcDbLine
 10
442.1121520129988
 20
54.66548194243831
 30
0.0
 11
450.6121520129987
 21
54.66548194243831
 31
0.0
  0
LINE
  5
33C
330
42E
100
AcDbEntity
  8
0
 62
     7
100
AcDbLine
 10
442.1121520129988
 20
51.6654819424383
 30
0.0
 11
450.6121520129987
 21
51.6654819424383
 31
0.0
  0
LINE
  5
349
330
42E
100
AcDbEntity
  8
0
 62
     7
100
AcDbLine
 10
448.1121520129987
 20
90.66548194243834
 30
0.0
 11
448.1121520129987
 21
135.6654819424383
 31
0.0
  0
LINE
  5
34A
330
42E
100
AcDbEntity
  8
0
 62
     7
100
AcDbLine
 10
448.1121520129987
 20
54.66548194243831
 30
0.0
 11
448.1121520129987
 21
87.66548194243833
 31
0.0
  0
DIMENSION
  5
34D
330
42E
100
AcDbEntity
  8
0
 62
     7
100
AcDbDimension
  2
*D15
 10
342.9392770977713
 20
193.6654819424383
 30
0.0
 11
342.9392770977712
 21
172.6654819424384
 31
0.0
 70
    32
  1
42"
 71
     5
 42
42.0
 73
     0
 74
     0
 75
     0
  3
STANDARD$0
100
AcDbAlignedDimension
 13
355.8206693486135
 23
151.6654819424383
 33
0.0
 14
354.7581693486135
 24
193.6654819424383
 34
0.0
 50
90.0
100
AcDbRotatedDimension
1001
ACAD
1000
DSTYLE
1002
{
1070
    40
1040
26.0
1070
   140
1040
0.09375
1002
}
  0
DIMENSION
  5
34F
330
42E
100
AcDbEntity
  8
0
 62
     7
100
AcDbDimension
  2
*D19
 10
568.1200440032064
 20
193.6654819424383
 30
0.0
 11
568.1200440032064
 21
172.6654819424384
 31
0.0
 70
    32
  1
42"
 71
     5
 42
42.0
 73
     0
 74
     0
 75
     0
  3
STANDARD$0
100
AcDbAlignedDimension
 13
541.8289333306405
 23
151.6654819424383
 33
0.0
 14
542.8914333306405
 24
193.6654819424383
 34
0.0
 50
90.0
100
AcDbRotatedDimension
1001
ACAD
1000
DSTYLE
1002
{
1070
    40
1040
26.0
1070
   140
1040
0.09375
1002
}
  0
SOLID
  5
352
330
42E
100
AcDbEntity
  8
0
 62
     7
100
AcDbTrace
 10
441.4118269458777
 20
153.2944337502911
 30
0.0
 11
440.812656163131
 21
153.6315548310658
 31
0.0
 12
440.1008783121802
 22
151.6654819424383
 32
0.0
 13
440.1008783121802
 23
151.6654819424383
 33
0.0
  0
LINE
  5
353
330
42E
100
AcDbEntity
  8
0
 62
     7
100
AcDbLine
 10
441.1122415545043
 20
153.4629942906785
 30
0.0
 11
444.5193949060897
 21
159.518583386194
 31
0.0
  0
LINE
  5
354
330
42E
100
AcDbEntity
  8
0
 62
     7
100
AcDbLine
 10
444.5193949060897
 20
159.518583386194
 30
0.0
 11
455.7219322402203
 21
159.518583386194
 31
0.0
  0
TEXT
  5
355
330
42E
100
AcDbEntity
  8
0
 62
     7
100
AcDbText
 10
456.7539796236757
 20
158.6570811457893
 30
0.0
 40
2.210999999999999
  1
PLATFORM
  7
ROMANS
100
AcDbText
  0
LINE
  5
357
330
42E
100
AcDbEntity
  8
0
 62
     0
100
AcDbLine
 10
495.6373748590561
 20
145.6654819424383
 30
0.0
 11
516.7664333306405
 21
145.6654819424383
 31
0.0
  0
DIMENSION
  5
358
330
42E
100
AcDbEntity
  8
0
 62
     7
100
AcDbDimension
  2
*D20
 10
551.0060761181718
 20
145.6654819424383
 30
0.0
 11
551.8887096468262
 21
148.5147312534816
 31
0.0
 70
   160
 71
     5
 42
6.0
 73
     0
 74
     0
 75
     0
  3
STANDARD$0
100
AcDbAlignedDimension
 13
541.8289333306405
 23
151.6654819424383
 33
0.0
 14
542.8914333306405
 24
145.6654819424383
 34
0.0
 50
90.0
100
AcDbRotatedDimension
1001
ACAD
1000
DSTYLE
1002
{
1070
    40
1040
26.0
1070
   140
1040
0.09375
1002
}
  0
LINE
  5
359
330
42E
100
AcDbEntity
  8
0
 62
     0
100
AcDbLine
 10
517.8289333306405
 20
145.6654819424383
 30
0.0
 11
541.8289333306405
 21
145.6654819424383
 31
0.0
  0
LINE
  5
35A
330
42E
100
AcDbEntity
  8
0
 62
     0
100
AcDbLine
 10
542.8914333306405
 20
145.6654819424383
 30
0.0
 11
551.0060761181718
 21
145.6654819424383
 31
0.0
  0
TEXT
  5
35B
330
42E
100
AcDbEntity
  8
0
 62
     7
100
AcDbText
 10
496.4921152363599
 20
150.2269933946602
 30
0.0
 40
2.210999999999999
  1
PARAPET
  7
ROMANS
100
AcDbText
  0
TEXT
  5
35C
330
42E
100
AcDbEntity
  8
0
 62
     7
100
AcDbText
 10
498.971051663846
 20
146.6472791089459
 30
0.0
 40
2.210999999999999
  1
LEVEL
  7
ROMANS
100
AcDbText
  0
DIMENSION
  5
35D
330
42E
100
AcDbEntity
  8
0
 62
     7
100
AcDbDimension
  2
*D16
 10
380.8831693486135
 20
118.6090607570935
 30
0.0
 11
367.8206693486135
 21
118.6090607570935
 31
0.0
 70
    32
  1
26-1/8"
 71
     5
 42
26.125
 73
     0
 74
     0
 75
     0
  3
STANDARD$0
100
AcDbAlignedDimension
 13
354.7581693486135
 23
123.6654819424383
 33
0.0
 14
380.8831693486135
 24
123.6654819424383
 34
0.0
100
AcDbRotatedDimension
1001
ACAD
1000
DSTYLE
1002
{
1070
    40
1040
26.0
1070
   140
1040
0.09375
1002
}
  0
DIMENSION
  5
35E
330
42E
100
AcDbEntity
  8
0
 62
     7
100
AcDbDimension
  2
*D17
 10
462.138371223081
 20
138.6654819424383
 30
0.0
 11
462.450458609892
 21
145.2022980413804
 31
0.0
 70
   160
  1
13"
 71
     5
 42
13.0
 73
     0
 74
     0
 75
     0
  3
STANDARD$0
100
AcDbAlignedDimension
 13
448.1121520129987
 23
151.6654819424383
 33
0.0
 14
450.6121520129987
 24
138.6654819424383
 34
0.0
 50
90.0
100
AcDbRotatedDimension
1001
ACAD
1000
DSTYLE
1002
{
1070
    40
1040
26.0
1070
   140
1040
0.09375
1002
}
  0
DIMENSION
  5
35F
330
42E
100
AcDbEntity
  8
0
 62
     7
100
AcDbDimension
  2
*D14
 10
462.138371223081
 20
138.6654819424383
 30
0.0
 11
462.1383712230809
 21
114.6654819424384
 31
0.0
 70
    32
 71
     5
 42
48.00000000000001
 73
     0
 74
     0
 75
     0
  3
STANDARD$0
100
AcDbAlignedDimension
 13
450.6121520129987
 23
90.66548194243834
 33
0.0
 14
450.6121520129987
 24
138.6654819424383
 34
0.0
 50
90.0
100
AcDbRotatedDimension
1001
ACAD
1000
DSTYLE
1002
{
1070
    40
1040
26.0
1070
   140
1040
0.09375
1002
}
  0
TEXT
  5
361
330
42E
100
AcDbEntity
  8
0
 62
     7
100
AcDbText
 10
597.2664060264287
 20
151.9445630594
 30
0.0
 40
2.512663312499999
  1
(PARAPET PLATFORM & RETURN
  7
ROMANS
100
AcDbText
  0
TEXT
  5
362
330
42E
100
AcDbEntity
  8
0
 62
     7
100
AcDbText
 10
595.2602504629482
 20
147.8764415058286
 30
0.0
 40
2.512663312499999
  1
LADDER ARE OMITTED FOR CLARITY)
  7
ROMANS
100
AcDbText
  0
TEXT
  5
363
330
42E
100
AcDbEntity
  8
0
 62
     7
100
AcDbText
 10
621.3048717789553
 20
54.28660758177927
 30
0.0
 40
2.512663312499999
  1
NOTE:
  7
ROMANS
100
AcDbText
  0
TEXT
  5
364
330
42E
100
AcDbEntity
  8
0
 62
     7
100
AcDbText
 10
621.3048717789553
 20
50.21848602820784
 30
0.0
 40
2.512663312499999
  1
ALL BOLTS/FASTENERS
  7
ROMANS
100
AcDbText
  0
TEXT
  5
365
330
42E
100
AcDbEntity
  8
0
 62
     7
100
AcDbText
 10
621.3048717789553
 20
46.1503644746364
 30
0.0
 40
2.512663312499999
  1
NECESSARY TO ANCHOR
  7
ROMANS
100
AcDbText
  0
TEXT
  5
366
330
42E
100
AcDbEntity
  8
0
 62
     7
100
AcDbText
 10
621.3048717789553
 20
42.08224292106498
 30
0.0
 40
2.512663312499999
  1
LADDER ARE BY OTHERS.
  7
ROMANS
100
AcDbText
  0
TEXT
  5
367
330
42E
100
AcDbEntity
  8
0
 62
     7
100
AcDbText
 10
352.2143329579087
 20
95.59270379711803
 30
0.0
 40
2.210999999999999
  1
ASSEMBLY
  7
ROMANS
 72
     4
 11
360.4792615293373
 21
96.69820379711802
 31
0.0
100
AcDbText
  0
TEXT
  5
368
330
42E
100
AcDbEntity
  8
0
 62
     7
100
AcDbText
 10
344.2126186721944
 20
102.7521323685466
 30
0.0
 40
2.210999999999999
  1
BRACKETS TO SHIP
  7
ROMANS
 72
     4
 11
360.4792615293373
 21
103.8576323685466
 31
0.0
100
AcDbText
  0
TEXT
  5
369
330
42E
100
AcDbEntity
  8
0
 62
     7
100
AcDbText
 10
345.3707615293373
 20
99.17241808283236
 30
0.0
 40
2.210999999999999
  1
LOOSE FOR FIELD
  7
ROMANS
 72
     4
 11
360.4792615293373
 21
100.2779180828323
 31
0.0
100
AcDbText
  0
TEXT
  5
36A
330
42E
100
AcDbEntity
  8
0
 62
     7
100
AcDbText
 10
339.0267481753073
 20
100.6990609399752
 30
0.0
 40
4.421999999999999
  1
*
  7
ROMANS
 72
     4
 11
340.7113196038787
 21
103.8576323685466
 31
0.0
100
AcDbText
  0
TEXT
  5
36B
330
42E
100
AcDbEntity
  8
0
 62
     7
100
AcDbText
 10
419.987353643812
 20
129.8401198810448
 30
0.0
 40
4.421999999999999
  1
*
  7
ROMANS
 72
     4
 11
421.6719250723834
 21
132.9986913096162
 31
0.0
100
AcDbText
  0
INSERT
  5
382
330
42E
100
AcDbEntity
  8
0
100
AcDbBlockReference
  2
LINETYPE
 10
0.0
 20
0.0
 30
0.0
  0
LWPOLYLINE
  5
45F
330
42E
100
AcDbEntity
  8
0
 62
     0
100
AcDbPolyline
 90
        6
 70
     0
 43
0.0
 10
413.5558255270088
 20
123.6654819424383
 10
432.6121520129987
 20
123.6654819424383
 10
432.6121520129987
 20
145.6654819424383
 10
442.1121520129987
 20
145.6654819424383
 10
442.1121520129987
 20
45.66548194243833
 10
466.1121520129987
 20
45.66548194243833
  0
INSERT
  5
CA5
330
42E
100
AcDbEntity
  8
0
100
AcDbBlockReference
  2
LINETYPE
 10
-66.41192909052074
 20
-15.64940763666294
 30
0.0
  0
DIMENSION
  5
12BD
330
42E
100
AcDbEntity
  8
0
 62
     7
100
AcDbDimension
  2
*D7
 10
600.7550205123712
 20
216.9341521460318
 30
0.0
 11
625.7868987215998
 21
216.9341521460318
 31
0.0
 70
    32
  1
22-1/8"
 71
     5
 42
50.06375641845693
 73
     0
 74
     0
 75
     0
  3
STANDARD$0
100
AcDbAlignedDimension
 13
650.8187769308282
 23
208.1711999957686
 33
0.0
 14
600.7550205123712
 24
208.1711999957686
 34
0.0
100
AcDbRotatedDimension
1001
ACAD
1000
DSTYLE
1002
{
1070
    40
1040
26.0
1070
   140
1040
0.09375
1002
}
  0
DIMENSION
  5
12BE
330
42E
100
AcDbEntity
  8
0
 62
     7
100
AcDbDimension
  2
*D8
 10
598.2518326914482
 20
173.8701519916613
 30
0.0
 11
625.7868987215998
 21
173.8701519916613
 31
0.0
 70
    32
  1
24"
 71
     5
 42
55.07013206030297
 73
     0
 74
     0
 75
     0
  3
STANDARD$0
100
AcDbAlignedDimension
 13
653.3219647517512
 23
182.7542159679365
 33
0.0
 14
598.2518326914482
 24
182.7542159679365
 34
0.0
100
AcDbRotatedDimension
1001
ACAD
1000
DSTYLE
1002
{
1070
    40
1040
26.0
1070
   140
1040
0.09375
1002
}
  0
LINE
  5
12BF
330
42E
100
AcDbEntity
  8
0
 62
     7
100
AcDbLine
 10
656.2102583912774
 20
184.2946392423506
 30
0.0
 11
595.363539051922
 21
184.2946392423506
 31
0.0
  0
LINE
  5
12C0
330
42E
100
AcDbEntity
  8
0
 62
     7
100
AcDbLine
 10
656.2102583912774
 20
185.4499566981611
 30
0.0
 11
595.363539051922
 21
185.4499566981611
 31
0.0
  0
LINE
  5
12C1
330
42E
100
AcDbEntity
  8
0
 62
     7
100
AcDbLine
 10
656.2102583912774
 20
188.9159090655928
 30
0.0
 11
595.363539051922
 21
188.9159090655928
 31
0.0
  0
LINE
  5
12C2
330
42E
100
AcDbEntity
  8
0
 62
     7
100
AcDbLine
 10
656.2102583912774
 20
187.7605916097822
 30
0.0
 11
595.363539051922
 21
187.7605916097822
 31
0.0
  0
LINE
  5
12C3
330
42E
100
AcDbEntity
  8
0
 62
     7
100
AcDbLine
 10
656.2102583912774
 20
186.6052741539717
 30
0.0
 11
595.363539051922
 21
186.6052741539717
 31
0.0
  0
LINE
  5
12C4
330
42E
100
AcDbEntity
  8
0
 62
     7
100
AcDbLine
 10
653.3219647517512
 20
183.1393217865401
 30
0.0
 11
598.2518326914482
 21
183.1393217865401
 31
0.0
  0
LINE
  5
12C5
330
42E
100
AcDbEntity
  8
0
 62
     7
100
AcDbLine
 10
598.2518326914482
 20
190.0712265214033
 30
0.0
 11
653.3219647517512
 21
190.0712265214033
 31
0.0
  0
LWPOLYLINE
  5
12C6
330
42E
100
AcDbEntity
  8
0
 62
     7
100
AcDbPolyline
 90
        6
 70
     1
 43
0.0
 10
594.9784332333185
 20
182.7542159679365
 10
594.2082215961114
 20
182.7542159679365
 10
594.2082215961114
 20
208.9414116329756
 10
606.5316077914241
 20
208.9414116329756
 10
606.5316077914241
 20
208.1711999957686
 10
594.9784332333185
 20
208.1711999957686
  0
LWPOLYLINE
  5
12C7
330
42E
100
AcDbEntity
  8
0
 62
     7
100
AcDbPolyline
 90
        8
 70
     0
 43
0.0
 10
594.9784332333185
 20
182.7542159679365
 10
598.2518326914482
 20
182.7542159679365
 10
598.2518326914482
 20
183.1393217865401
 10
595.363539051922
 20
183.1393217865401
 10
595.363539051922
 20
190.0712265214033
 10
598.2518326914482
 20
190.0712265214033
 10
598.2518326914482
 20
190.4563323400069
 10
594.9784332333185
 20
190.4563323400069
  0
LWPOLYLINE
  5
12C8
330
42E
100
AcDbEntity
  8
0
 62
     7
100
AcDbPolyline
 90
        6
 70
     1
 43
0.0
 10
657.3655758470877
 20
182.7542159679365
 10
656.5953642098808
 20
182.7542159679365
 10
656.5953642098808
 20
208.1711999957686
 10
645.0421896517755
 20
208.1711999957686
 10
645.0421896517755
 20
208.9414116329756
 10
657.3655758470877
 20
208.9414116329756
  0
DIMENSION
  5
12C9
330
42E
100
AcDbEntity
  8
0
 62
     7
100
AcDbDimension
  2
*D9
 10
670.058340713485
 20
208.9414116329756
 30
0.0
 11
670.058340713485
 21
197.7733428934737
 31
0.0
 70
    32
  1
7-1/4"
 71
     5
 42
22.33613747900387
 73
     0
 74
     0
 75
     0
  3
STANDARD$0
100
AcDbAlignedDimension
 13
656.2102583912774
 23
186.6052741539717
 33
0.0
 14
657.3655758470877
 24
208.9414116329756
 34
0.0
 50
90.0
100
AcDbRotatedDimension
1001
ACAD
1000
DSTYLE
1002
{
1070
    40
1040
26.0
1070
   140
1040
0.09375
1002
}
  0
LWPOLYLINE
  5
12CB
330
42E
100
AcDbEntity
  8
0
 62
     7
100
AcDbPolyline
 90
        8
 70
     0
 43
0.0
 10
656.595364209881
 20
182.7542159679365
 10
653.3219647517512
 20
182.7542159679365
 10
653.3219647517512
 20
183.1393217865401
 10
656.2102583912774
 20
183.1393217865401
 10
656.2102583912774
 20
190.0712265214033
 10
653.3219647517512
 20
190.0712265214033
 10
653.3219647517512
 20
190.4563323400069
 10
656.595364209881
 20
190.4563323400069
  0
LINE
  5
1312
330
42E
100
AcDbEntity
  8
0
 62
     7
100
AcDbLine
 10
615.3293109009013
 20
115.2975606760924
 30
0.0
 11
630.3373248934142
 21
123.9624415946714
 31
0.0
  0
LINE
  5
1313
330
42E
100
AcDbEntity
  8
0
 62
     7
100
AcDbLine
 10
614.3287766347338
 20
115.8752194039977
 30
0.0
 11
630.3373248934142
 21
125.117759050482
 31
0.0
  0
DIMENSION
  5
1314
330
42E
100
AcDbEntity
  8
0
 62
     7
100
AcDbDimension
  2
*D10
 10
610.0962400200065
 20
118.3188755578654
 30
0.0
 11
616.961296199946
 21
123.0589489136735
 31
0.0
 70
   161
  1
4-1/2"
 71
     5
 42
18.48507929296852
 73
     0
 74
     0
 75
     0
  3
STANDARD$0
100
AcDbAlignedDimension
 13
630.3373248934142
 23
125.117759050482
 33
0.0
 14
614.3287766347338
 24
115.8752194039977
 34
0.0
1001
ACAD
1000
DSTYLE
1002
{
1070
    40
1040
26.0
1070
   140
1040
0.09375
1002
}
  0
TEXT
  5
1315
330
42E
100
AcDbEntity
  8
0
 62
     7
100
AcDbText
 10
614.0275013840639
 20
86.08408343247024
 30
0.0
 40
2.62738994893418
  1
%%C9/16"
  7
ROMANS
 72
     2
 11
628.1653615854716
 21
87.39777840693733
 31
0.0
100
AcDbText
 73
     2
  0
LINE
  5
1316
330
42E
100
AcDbEntity
  8
0
 62
     7
100
AcDbLine
 10
615.3293109009013
 20
101.4337512063658
 30
0.0
 11
630.3373248934142
 21
110.0986321249449
 31
0.0
  0
MTEXT
  5
1318
330
42E
100
AcDbEntity
  8
0
 62
     7
100
AcDbMText
 10
245.2090892264453
 20
18.00618896570573
 30
0.0
 40
1.4472
 41
0.0
 46
0.0
 71
     4
 72
     1
  1
 
  7
ROMANS
 73
     1
 44
1.0
  0
LINE
  5
131A
330
42E
100
AcDbEntity
  8
0
 62
     7
100
AcDbLine
 10
615.3293109009013
 20
101.4337512063658
 30
0.0
 11
615.3293109009013
 21
115.2975606760924
 31
0.0
  0
LINE
  5
131B
330
42E
100
AcDbEntity
  8
0
 62
     7
100
AcDbLine
 10
614.3287766347338
 20
102.0114099342712
 30
0.0
 11
614.3287766347338
 21
115.8752194039977
 31
0.0
  0
DIMENSION
  5
131C
330
42E
100
AcDbEntity
  8
0
 62
     7
100
AcDbDimension
  2
*D11
 10
614.3287766347335
 20
97.87753952947879
 30
0.0
 11
604.7259448211376
 21
100.6117794084422
 31
0.0
 70
   161
  1
1/4"
 71
     5
 42
1.155317455810632
 73
     0
 74
     0
 75
     0
  3
STANDARD$0
100
AcDbAlignedDimension
 13
615.3293109009013
 23
101.4337512063659
 33
0.0
 14
614.3287766347338
 24
102.0114099342712
 34
0.0
1001
ACAD
1000
DSTYLE
1002
{
1070
    40
1040
26.0
1070
   140
1040
0.09375
1002
}
  0
LINE
  5
131D
330
42E
100
AcDbEntity
  8
0
 62
     7
100
AcDbLine
 10
615.3293109009013
 20
101.4337512063658
 30
0.0
 11
614.3287766347338
 21
102.0114099342712
 31
0.0
  0
LINE
  5
131E
330
42E
100
AcDbEntity
  8
0
 62
     7
100
AcDbLine
 10
615.3293109009013
 20
115.2975606760924
 30
0.0
 11
614.3287766347338
 21
115.8752194039977
 31
0.0
  0
LWPOLYLINE
  5
131F
330
42E
100
AcDbEntity
  8
0
 62
     7
100
AcDbPolyline
 90
        7
 70
     0
 43
0.0
 10
621.3473518626069
 20
111.7043800885366
 42
0.0283695723264663
 10
621.4649524156632
 20
111.7636555394516
 42
0.0723410840577375
 10
621.8760208037514
 20
112.088009711324
 42
0.0587518675353654
 10
622.2608725506319
 20
112.6038629730609
 42
0.0587518675353444
 10
622.515188706481
 20
113.1950809934186
 42
0.0723410840576672
 10
622.5905534651017
 20
113.7132537461319
 42
0.0283695723264929
 10
622.5830872348868
 20
113.8447365380351
 42
0.1568512196709102
  0
LWPOLYLINE
  5
1320
330
42E
100
AcDbEntity
  8
0
 62
     7
100
AcDbPolyline
 90
       16
 70
     1
 43
0.0
 10
621.6695665468621
 20
112.9452536535108
 42
0.0587518675353646
 10
621.4152503910128
 20
112.354035633153
 42
0.0723410840576763
 10
621.339885632392
 20
111.8358628804398
 42
0.106617054391126
 10
621.4431451804407
 20
111.3571131293781
 42
0.1568512196706424
 10
621.6695665468621
 20
111.1071548368004
 42
0.1568512196706761
 10
621.9992474613318
 20
111.0360473278088
 42
0.1066170543910004
 10
622.4654866818307
 20
111.1859968115464
 42
0.0723410840577375
 10
622.876555069919
 20
111.5103509834187
 42
0.0587518675353654
 10
623.2614068167992
 20
112.0262042451556
 42
0.0587518675353444
 10
623.5157229726485
 20
112.6174222655133
 42
0.0723410840576672
 10
623.5910877312691
 20
113.1355950182266
 42
0.1066170543911832
 10
623.4878281832208
 20
113.6143447692881
 42
0.1568512196709102
 10
623.2614068167992
 20
113.864303061866
 42
0.1568512196706761
 10
622.9317259023292
 20
113.9354105708575
 42
0.1066170543910004
 10
622.4654866818307
 20
113.7854610871201
 42
0.0723410840577166
 10
622.0544182937425
 20
113.4611069152478
 42
0.0587518675353862
  0
DIMENSION
  5
1321
330
42E
100
AcDbEntity
  8
0
 62
     7
100
AcDbDimension
  2
*D12
 10
671.203962501562
 20
95.56752030713594
 30
0.0
 11
672.0003949741871
 21
101.5802004903142
 31
0.0
 70
   161
  1
3"
 71
     5
 42
13.86380946972657
 73
     0
 74
     0
 75
     0
  3
STANDARD$0
100
AcDbAlignedDimension
 13
664.3554899431104
 23
105.4773623017028
 33
0.0
 14
664.3554899431104
 24
91.61355283197622
 34
0.0
1001
ACAD
1000
DSTYLE
1002
{
1070
    40
1040
26.0
1070
   140
1040
0.09375
1002
}
  0
LINE
  5
1322
330
42E
100
AcDbEntity
  8
0
 62
     7
100
AcDbLine
 10
663.3549556769431
 20
104.8997035737974
 30
0.0
 11
630.3373248934142
 21
123.9624415946714
 31
0.0
  0
LINE
  5
1323
330
42E
100
AcDbEntity
  8
0
 62
     7
100
AcDbLine
 10
664.3554899431105
 20
105.4773623017028
 30
0.0
 11
630.3373248934142
 21
125.117759050482
 31
0.0
  0
LINE
  5
1324
330
42E
100
AcDbEntity
  8
0
 62
     7
100
AcDbLine
 10
663.3549556769431
 20
91.03589410407092
 30
0.0
 11
630.3373248934142
 21
110.0986321249449
 31
0.0
  0
DIMENSION
  5
1325
330
42E
100
AcDbEntity
  8
0
 62
     7
100
AcDbDimension
  2
*D13
 10
671.2039625015613
 20
109.4313297768624
 30
0.0
 11
654.1948799767133
 21
119.2515281512521
 31
0.0
 70
    33
  1
8-1/2"
 71
     5
 42
39.28079349755842
 73
     0
 74
     0
 75
     0
  3
STANDARD$0
100
AcDbAlignedDimension
 13
630.3373248934142
 23
125.117759050482
 33
0.0
 14
664.3554899431104
 24
105.4773623017028
 34
0.0
1001
ACAD
1000
DSTYLE
1002
{
1070
    40
1040
26.0
1070
   140
1040
0.09375
1002
}
  0
LINE
  5
1326
330
42E
100
AcDbEntity
  8
0
 62
     7
100
AcDbLine
 10
664.3554899431105
 20
91.61355283197622
 30
0.0
 11
664.3554899431105
 21
105.4773623017028
 31
0.0
  0
LINE
  5
1327
330
42E
100
AcDbEntity
  8
0
 62
     7
100
AcDbLine
 10
663.3549556769431
 20
91.03589410407092
 30
0.0
 11
663.3549556769431
 21
104.8997035737974
 31
0.0
  0
LINE
  5
1328
330
42E
100
AcDbEntity
  8
0
 62
     7
100
AcDbLine
 10
663.3549556769431
 20
91.03589410407092
 30
0.0
 11
664.3554899431105
 21
91.61355283197622
 31
0.0
  0
LINE
  5
1329
330
42E
100
AcDbEntity
  8
0
 62
     7
100
AcDbLine
 10
663.3549556769431
 20
104.8997035737974
 30
0.0
 11
664.3554899431105
 21
105.4773623017028
 31
0.0
  0
LINE
  5
132A
330
42E
100
AcDbEntity
  8
0
 62
     7
100
AcDbLine
 10
630.3373248934142
 20
123.9624415946714
 30
0.0
 11
630.3373248934142
 21
110.0986321249449
 31
0.0
  0
LINE
  5
1332
330
42E
100
AcDbEntity
  8
0
 62
     7
100
AcDbLine
 10
516.5164333306405
 20
51.6654819424383
 30
0.0
 11
516.5164333306405
 21
54.66548194243831
 31
0.0
  0
LINE
  5
1333
330
42E
100
AcDbEntity
  8
0
 62
     7
100
AcDbLine
 10
521.0164333306405
 20
51.6654819424383
 30
0.0
 11
521.0164333306405
 21
54.66548194243831
 31
0.0
  0
LINE
  5
1334
330
42E
100
AcDbEntity
  8
0
 62
     7
100
AcDbLine
 10
517.8289333306405
 20
51.6654819424383
 30
0.0
 11
521.0164333306405
 21
51.6654819424383
 31
0.0
  0
LINE
  5
1335
330
42E
100
AcDbEntity
  8
0
 62
     7
100
AcDbLine
 10
516.5164333306405
 20
51.6654819424383
 30
0.0
 11
516.7664333306405
 21
51.6654819424383
 31
0.0
  0
CIRCLE
  5
1336
330
42E
100
AcDbEntity
  8
0
 62
     7
100
AcDbCircle
 10
518.7664333306405
 20
53.1654819424383
 30
0.0
 40
0.28125
  0
LINE
  5
1337
330
42E
100
AcDbEntity
  8
0
 62
     7
100
AcDbLine
 10
517.8289333306405
 20
54.66548194243831
 30
0.0
 11
521.0164333306405
 21
54.66548194243831
 31
0.0
  0
LINE
  5
1338
330
42E
100
AcDbEntity
  8
0
 62
     7
100
AcDbLine
 10
516.5164333306405
 20
54.66548194243831
 30
0.0
 11
516.7664333306405
 21
54.66548194243831
 31
0.0
  0
LINE
  5
1435
330
42E
100
AcDbEntity
  8
0
 62
     7
100
AcDbLine
 10
538.6414333306405
 20
51.6654819424383
 30
0.0
 11
538.6414333306405
 21
54.66548194243831
 31
0.0
  0
LINE
  5
1436
330
42E
100
AcDbEntity
  8
0
 62
     7
100
AcDbLine
 10
543.1414333306405
 20
51.6654819424383
 30
0.0
 11
543.1414333306405
 21
54.66548194243831
 31
0.0
  0
LINE
  5
1437
330
42E
100
AcDbEntity
  8
0
 62
     7
100
AcDbLine
 10
541.8289333306405
 20
51.6654819424383
 30
0.0
 11
538.6414333306405
 21
51.6654819424383
 31
0.0
  0
LINE
  5
1438
330
42E
100
AcDbEntity
  8
0
 62
     7
100
AcDbLine
 10
543.1414333306405
 20
51.6654819424383
 30
0.0
 11
542.8914333306405
 21
51.6654819424383
 31
0.0
  0
LINE
  5
1439
330
42E
100
AcDbEntity
  8
0
 62
     7
100
AcDbLine
 10
541.8289333306405
 20
54.66548194243831
 30
0.0
 11
538.6414333306405
 21
54.66548194243831
 31
0.0
  0
CIRCLE
  5
143A
330
42E
100
AcDbEntity
  8
0
 62
     7
100
AcDbCircle
 10
540.8914333306405
 20
53.1654819424383
 30
0.0
 40
0.28125
  0
LINE
  5
143B
330
42E
100
AcDbEntity
  8
0
 62
     7
100
AcDbLine
 10
543.1414333306405
 20
54.66548194243831
 30
0.0
 11
542.8914333306405
 21
54.66548194243831
 31
0.0
  0
LINE
  5
144A
330
42E
100
AcDbEntity
  8
0
 62
     7
100
AcDbLine
 10
517.8289333306405
 20
90.66548194243834
 30
0.0
 11
521.0164333306405
 21
90.66548194243834
 31
0.0
  0
LINE
  5
144B
330
42E
100
AcDbEntity
  8
0
 62
     7
100
AcDbLine
 10
517.8289333306405
 20
87.66548194243833
 30
0.0
 11
521.0164333306405
 21
87.66548194243833
 31
0.0
  0
LINE
  5
144C
330
42E
100
AcDbEntity
  8
0
 62
     7
100
AcDbLine
 10
516.5164333306405
 20
90.66548194243834
 30
0.0
 11
516.7664333306405
 21
90.66548194243834
 31
0.0
  0
CIRCLE
  5
144D
330
42E
100
AcDbEntity
  8
0
 62
     7
100
AcDbCircle
 10
518.7664333306405
 20
89.16548194243834
 30
0.0
 40
0.28125
  0
LINE
  5
144E
330
42E
100
AcDbEntity
  8
0
 62
     7
100
AcDbLine
 10
516.5164333306405
 20
87.66548194243833
 30
0.0
 11
516.7664333306405
 21
87.66548194243833
 31
0.0
  0
LINE
  5
144F
330
42E
100
AcDbEntity
  8
0
 62
     7
100
AcDbLine
 10
516.5164333306405
 20
87.66548194243833
 30
0.0
 11
516.5164333306405
 21
90.66548194243834
 31
0.0
  0
LINE
  5
1450
330
42E
100
AcDbEntity
  8
0
 62
     7
100
AcDbLine
 10
521.0164333306405
 20
87.66548194243833
 30
0.0
 11
521.0164333306405
 21
90.66548194243834
 31
0.0
  0
LINE
  5
1451
330
42E
100
AcDbEntity
  8
0
 62
     7
100
AcDbLine
 10
541.8289333306405
 20
90.66548194243834
 30
0.0
 11
538.6414333306405
 21
90.66548194243834
 31
0.0
  0
LINE
  5
1452
330
42E
100
AcDbEntity
  8
0
 62
     7
100
AcDbLine
 10
541.8289333306405
 20
87.66548194243833
 30
0.0
 11
538.6414333306405
 21
87.66548194243833
 31
0.0
  0
LINE
  5
1453
330
42E
100
AcDbEntity
  8
0
 62
     7
100
AcDbLine
 10
538.6414333306405
 20
87.66548194243833
 30
0.0
 11
538.6414333306405
 21
90.66548194243834
 31
0.0
  0
CIRCLE
  5
1454
330
42E
100
AcDbEntity
  8
0
 62
     7
100
AcDbCircle
 10
540.8914333306405
 20
89.16548194243834
 30
0.0
 40
0.28125
  0
LINE
  5
1455
330
42E
100
AcDbEntity
  8
0
 62
     7
100
AcDbLine
 10
543.1414333306405
 20
90.66548194243834
 30
0.0
 11
542.8914333306405
 21
90.66548194243834
 31
0.0
  0
LINE
  5
1456
330
42E
100
AcDbEntity
  8
0
 62
     7
100
AcDbLine
 10
543.1414333306405
 20
87.66548194243833
 30
0.0
 11
542.8914333306405
 21
87.66548194243833
 31
0.0
  0
LINE
  5
1457
330
42E
100
AcDbEntity
  8
0
 62
     7
100
AcDbLine
 10
543.1414333306405
 20
87.66548194243833
 30
0.0
 11
543.1414333306405
 21
90.66548194243834
 31
0.0
  0
LINE
  5
1458
330
42E
100
AcDbEntity
  8
0
 62
     7
100
AcDbLine
 10
521.0164333306405
 20
135.6654819424383
 30
0.0
 11
521.0164333306405
 21
138.6654819424383
 31
0.0
  0
LINE
  5
1459
330
42E
100
AcDbEntity
  8
0
 62
     7
100
AcDbLine
 10
516.5164333306405
 20
135.6654819424383
 30
0.0
 11
516.5164333306405
 21
138.6654819424383
 31
0.0
  0
CIRCLE
  5
145A
330
42E
100
AcDbEntity
  8
0
 62
     7
100
AcDbCircle
 10
518.7664333306405
 20
137.1654819424383
 30
0.0
 40
0.28125
  0
LINE
  5
145B
330
42E
100
AcDbEntity
  8
0
 62
     7
100
AcDbLine
 10
517.8289333306405
 20
135.6654819424383
 30
0.0
 11
521.0164333306405
 21
135.6654819424383
 31
0.0
  0
LINE
  5
145C
330
42E
100
AcDbEntity
  8
0
 62
     7
100
AcDbLine
 10
516.5164333306405
 20
135.6654819424383
 30
0.0
 11
516.7664333306405
 21
135.6654819424383
 31
0.0
  0
LINE
  5
145D
330
42E
100
AcDbEntity
  8
0
 62
     7
100
AcDbLine
 10
517.8289333306405
 20
138.6654819424383
 30
0.0
 11
521.0164333306405
 21
138.6654819424383
 31
0.0
  0
LINE
  5
145E
330
42E
100
AcDbEntity
  8
0
 62
     7
100
AcDbLine
 10
516.5164333306405
 20
138.6654819424383
 30
0.0
 11
516.7664333306405
 21
138.6654819424383
 31
0.0
  0
LINE
  5
145F
330
42E
100
AcDbEntity
  8
0
 62
     7
100
AcDbLine
 10
543.1414333306405
 20
135.6654819424383
 30
0.0
 11
543.1414333306405
 21
138.6654819424383
 31
0.0
  0
CIRCLE
  5
1460
330
42E
100
AcDbEntity
  8
0
 62
     7
100
AcDbCircle
 10
540.8914333306405
 20
137.1654819424383
 30
0.0
 40
0.28125
  0
LINE
  5
1461
330
42E
100
AcDbEntity
  8
0
 62
     7
100
AcDbLine
 10
538.6414333306405
 20
135.6654819424383
 30
0.0
 11
538.6414333306405
 21
138.6654819424383
 31
0.0
  0
LINE
  5
1462
330
42E
100
AcDbEntity
  8
0
 62
     7
100
AcDbLine
 10
541.8289333306405
 20
135.6654819424383
 30
0.0
 11
538.6414333306405
 21
135.6654819424383
 31
0.0
  0
LINE
  5
1463
330
42E
100
AcDbEntity
  8
0
 62
     7
100
AcDbLine
 10
543.1414333306405
 20
135.6654819424383
 30
0.0
 11
542.8914333306405
 21
135.6654819424383
 31
0.0
  0
LINE
  5
1464
330
42E
100
AcDbEntity
  8
0
 62
     7
100
AcDbLine
 10
541.8289333306405
 20
138.6654819424383
 30
0.0
 11
538.6414333306405
 21
138.6654819424383
 31
0.0
  0
LINE
  5
1465
330
42E
100
AcDbEntity
  8
0
 62
     7
100
AcDbLine
 10
543.1414333306405
 20
138.6654819424383
 30
0.0
 11
542.8914333306405
 21
138.6654819424383
 31
0.0
  0
LEADER
  5
1713
330
42E
100
AcDbEntity
  8
0
100
AcDbLeader
  3
STANDARD
 73
     0
 40
2.8125
 41
2.8125
 76
     3
 10
622.1839356890719
 20
110.8298071513228
 30
0.0
 10
634.2038235689553
 20
87.12647775195753
 30
0.0
 10
629.2231108546603
 20
87.12647775195753
 30
0.0
340
1714
213
-0.9267358368270041
223
12.29136531540734
233
0.0
1001
ACAD
1000
DSTYLE
1002
{
1070
    40
1040
26.0
1070
   140
1040
0.09375
1002
}
  0
MTEXT
  5
1714
102
{ACAD_REACTORS
330
1713
102
}
330
42E
100
AcDbEntity
  8
0
100
AcDbMText
 10
218.3385546955674
 20
76.03381043635727
 30
0.0
 40
2.8125
 41
0.0
 46
0.0
 71
     9
 72
     1
  1
\A1; 
  7
ROMANS
 73
     1
 44
1.0
  0
LINE
  5
1B5D
330
42E
100
AcDbEntity
  8
0
 62
     7
100
AcDbLine
 10
359.0081693486135
 20
131.4986913096162
 30
0.0
 11
359.0081693486135
 21
134.4986913096162
 31
0.0
  0
LINE
  5
1B5E
330
42E
100
AcDbEntity
  8
0
 62
     7
100
AcDbLine
 10
354.5081693486135
 20
131.4986913096162
 30
0.0
 11
354.5081693486135
 21
134.4986913096162
 31
0.0
  0
LINE
  5
1B5F
330
42E
100
AcDbEntity
  8
0
 62
     7
100
AcDbLine
 10
355.8206693486135
 20
131.4986913096162
 30
0.0
 11
359.0081693486135
 21
131.4986913096162
 31
0.0
  0
CIRCLE
  5
1B60
330
42E
100
AcDbEntity
  8
0
 62
     7
100
AcDbCircle
 10
356.7581693486135
 20
132.9986913096162
 30
0.0
 40
0.28125
  0
LINE
  5
1B61
330
42E
100
AcDbEntity
  8
0
 62
     7
100
AcDbLine
 10
354.5081693486135
 20
131.4986913096162
 30
0.0
 11
354.7581693486135
 21
131.4986913096162
 31
0.0
  0
LINE
  5
1B62
330
42E
100
AcDbEntity
  8
0
 62
     7
100
AcDbLine
 10
355.8206693486135
 20
134.4986913096162
 30
0.0
 11
359.0081693486135
 21
134.4986913096162
 31
0.0
  0
LINE
  5
1B63
330
42E
100
AcDbEntity
  8
0
 62
     7
100
AcDbLine
 10
354.5081693486135
 20
134.4986913096162
 30
0.0
 11
354.7581693486135
 21
134.4986913096162
 31
0.0
  0
LINE
  5
1B64
330
42E
100
AcDbEntity
  8
0
 62
     7
100
AcDbLine
 10
381.1331693486135
 20
131.4986913096162
 30
0.0
 11
381.1331693486135
 21
134.4986913096162
 31
0.0
  0
LINE
  5
1B65
330
42E
100
AcDbEntity
  8
0
 62
     7
100
AcDbLine
 10
376.6331693486135
 20
131.4986913096162
 30
0.0
 11
376.6331693486135
 21
134.4986913096162
 31
0.0
  0
CIRCLE
  5
1B66
330
42E
100
AcDbEntity
  8
0
 62
     7
100
AcDbCircle
 10
378.8831693486135
 20
132.9986913096162
 30
0.0
 40
0.28125
  0
LINE
  5
1B67
330
42E
100
AcDbEntity
  8
0
 62
     7
100
AcDbLine
 10
379.8206693486136
 20
131.4986913096162
 30
0.0
 11
376.6331693486135
 21
131.4986913096162
 31
0.0
  0
LINE
  5
1B68
330
42E
100
AcDbEntity
  8
0
 62
     7
100
AcDbLine
 10
381.1331693486135
 20
131.4986913096162
 30
0.0
 11
380.8831693486135
 21
131.4986913096162
 31
0.0
  0
LINE
  5
1B69
330
42E
100
AcDbEntity
  8
0
 62
     7
100
AcDbLine
 10
379.8206693486136
 20
134.4986913096162
 30
0.0
 11
376.6331693486135
 21
134.4986913096162
 31
0.0
  0
LINE
  5
1B6A
330
42E
100
AcDbEntity
  8
0
 62
     7
100
AcDbLine
 10
381.1331693486135
 20
134.4986913096162
 30
0.0
 11
380.8831693486135
 21
134.4986913096162
 31
0.0
  0
LINE
  5
2067
330
42E
100
AcDbEntity
  8
0
 62
     7
100
AcDbLine
 10
541.8289333306405
 20
55.6654819424383
 30
0.0
 11
517.8289333306405
 21
55.6654819424383
 31
0.0
  0
LINE
  5
2068
330
42E
100
AcDbEntity
  8
0
 62
     7
100
AcDbLine
 10
541.8289333306405
 20
54.9154819424383
 30
0.0
 11
517.8289333306405
 21
54.9154819424383
 31
0.0
  0
LINE
  5
2069
330
42E
100
AcDbEntity
  8
0
 62
     7
100
AcDbLine
 10
541.8289333306405
 20
67.66548194243831
 30
0.0
 11
517.8289333306405
 21
67.66548194243831
 31
0.0
  0
LINE
  5
206A
330
42E
100
AcDbEntity
  8
0
 62
     7
100
AcDbLine
 10
541.8289333306405
 20
66.9154819424383
 30
0.0
 11
517.8289333306405
 21
66.9154819424383
 31
0.0
  0
INSERT
  5
20EB
330
42E
100
AcDbEntity
  8
0
100
AcDbBlockReference
  2
Ldr-trd
 10
449.3724705970262
 20
151.6654819424383
 30
0.0
  0
INSERT
  5
20EC
330
42E
100
AcDbEntity
  8
0
100
AcDbBlockReference
  2
Ldr-trd
 10
449.3724705970262
 20
139.6654819424383
 30
0.0
  0
INSERT
  5
20ED
330
42E
100
AcDbEntity
  8
0
100
AcDbBlockReference
  2
Ldr-trd
 10
449.3724705970262
 20
127.6654819424383
 30
0.0
  0
INSERT
  5
20EE
330
42E
100
AcDbEntity
  8
0
100
AcDbBlockReference
  2
Ldr-trd
 10
449.3724705970262
 20
115.6654819424383
 30
0.0
  0
INSERT
  5
20EF
330
42E
100
AcDbEntity
  8
0
100
AcDbBlockReference
  2
Ldr-trd
 10
449.3724705970262
 20
103.6654819424383
 30
0.0
  0
INSERT
  5
20F0
330
42E
100
AcDbEntity
  8
0
100
AcDbBlockReference
  2
Ldr-trd
 10
449.3724705970262
 20
91.66548194243834
 30
0.0
  0
INSERT
  5
20F1
330
42E
100
AcDbEntity
  8
0
100
AcDbBlockReference
  2
Ldr-trd
 10
449.3724705970262
 20
79.66548194243833
 30
0.0
  0
INSERT
  5
20F2
330
42E
100
AcDbEntity
  8
0
100
AcDbBlockReference
  2
Ldr-trd
 10
449.3724705970262
 20
67.66548194243833
 30
0.0
  0
INSERT
  5
20F3
330
42E
100
AcDbEntity
  8
0
100
AcDbBlockReference
  2
Ldr-trd
 10
449.3724705970262
 20
55.66548194243833
 30
0.0
  0
INSERT
  5
20F4
330
42E
100
AcDbEntity
  8
0
100
AcDbBlockReference
  2
Ldr-trd
 10
425.3518334289712
 20
151.6654819424383
 30
0.0
 41
-1.0
  0
INSERT
  5
20F5
330
42E
100
AcDbEntity
  8
0
100
AcDbBlockReference
  2
Ldr-trd
 10
425.3518334289712
 20
139.6654819424383
 30
0.0
 41
-1.0
  0
INSERT
  5
20F6
330
42E
100
AcDbEntity
  8
0
100
AcDbBlockReference
  2
Ldr-trd
 10
425.3518334289712
 20
127.6654819424383
 30
0.0
 41
-1.0
  0
INSERT
  5
20F7
330
42E
100
AcDbEntity
  8
0
100
AcDbBlockReference
  2
Ldr-trd
 10
427.8581369290447
 20
151.6654819424383
 30
0.0
 41
-1.0
  0
INSERT
  5
20F8
330
42E
100
AcDbEntity
  8
0
100
AcDbBlockReference
  2
Ldr-trd
 10
431.1989555244013
 20
151.6654819424383
 30
0.0
 41
-1.0
  0
INSERT
  5
20F9
330
42E
100
AcDbEntity
  8
0
100
AcDbBlockReference
  2
Ldr-trd
 10
433.7052590244748
 20
151.6654819424383
 30
0.0
 41
-1.0
  0
INSERT
  5
20FA
330
42E
100
AcDbEntity
  8
0
100
AcDbBlockReference
  2
Ldr-trd
 10
436.2115625245483
 20
151.6654819424383
 30
0.0
 41
-1.0
  0
INSERT
  5
20FB
330
42E
100
AcDbEntity
  8
0
100
AcDbBlockReference
  2
Ldr-trd
 10
438.7178660246217
 20
151.6654819424383
 30
0.0
 41
-1.0
  0
INSERT
  5
20FC
330
42E
100
AcDbEntity
  8
0
100
AcDbBlockReference
  2
Ldr-trd
 10
441.2241695246952
 20
151.6654819424383
 30
0.0
 41
-1.0
  0
INSERT
  5
20FD
330
42E
100
AcDbEntity
  8
0
100
AcDbBlockReference
  2
Ldr-trd
 10
443.7304730247686
 20
151.6654819424383
 30
0.0
 41
-1.0
  0
INSERT
  5
20FE
330
42E
100
AcDbEntity
  8
0
100
AcDbBlockReference
  2
Ldr-trd
 10
446.8885084360472
 20
151.6654819424383
 30
0.0
 41
-1.0
  0
LINE
  5
21C0
330
42E
100
AcDbEntity
  8
0
100
AcDbLine
 10
452.2371520129987
 20
54.66548194243831
 30
0.0
 11
463.7633712230809
 21
54.6654819424383
 31
0.0
  0
LINE
  5
21C1
330
42E
100
AcDbEntity
  8
0
100
AcDbLine
 10
452.2371520129986
 20
45.66548194243833
 30
0.0
 11
463.7633712230809
 21
45.66548194243832
 31
0.0
  0
LINE
  5
21C2
330
42E
100
AcDbEntity
  8
0
100
AcDbLine
 10
462.138371223081
 20
56.29048194243829
 30
0.0
 11
462.138371223081
 21
57.9154819424383
 31
0.0
  0
LINE
  5
21C3
330
42E
100
AcDbEntity
  8
0
100
AcDbLine
 10
462.138371223081
 20
44.04048194243832
 30
0.0
 11
462.138371223081
 21
42.41548194243832
 31
0.0
  0
SOLID
  5
21C5
330
42E
100
AcDbEntity
  8
0
100
AcDbTrace
 10
461.8675378897476
 20
56.29048194243829
 30
0.0
 11
462.4092045564142
 21
56.29048194243829
 31
0.0
 12
462.138371223081
 22
54.6654819424383
 32
0.0
 13
462.138371223081
 23
54.6654819424383
 33
0.0
  0
SOLID
  5
21C6
330
42E
100
AcDbEntity
  8
0
100
AcDbTrace
 10
461.8675378897476
 20
44.04048194243832
 30
0.0
 11
462.4092045564142
 21
44.04048194243832
 31
0.0
 12
462.138371223081
 22
45.66548194243832
 32
0.0
 13
462.138371223081
 23
45.66548194243832
 33
0.0
  0
LINE
  5
21C9
330
42E
100
AcDbEntity
  8
0
 62
     7
100
AcDbLine
 10
354.1956693486135
 20
151.6654819424383
 30
0.0
 11
341.3142770977712
 21
151.6654819424383
 31
0.0
  0
LINE
  5
21CA
330
42E
100
AcDbEntity
  8
0
 62
     7
100
AcDbLine
 10
353.1331693486135
 20
123.6654819424383
 30
0.0
 11
341.3142770977712
 21
123.6654819424383
 31
0.0
  0
LINE
  5
21CB
330
42E
100
AcDbEntity
  8
0
 62
     7
100
AcDbLine
 10
342.9392770977712
 20
150.0404819424383
 30
0.0
 11
342.9392770977712
 21
140.7413747995811
 31
0.0
  0
LINE
  5
21CC
330
42E
100
AcDbEntity
  8
0
 62
     7
100
AcDbLine
 10
342.9392770977712
 20
125.2904819424383
 30
0.0
 11
342.9392770977712
 21
134.5895890852954
 31
0.0
  0
SOLID
  5
21CD
330
42E
100
AcDbEntity
  8
0
 62
     7
100
AcDbTrace
 10
342.6684437644379
 20
150.0404819424383
 30
0.0
 11
343.2101104311045
 21
150.0404819424383
 31
0.0
 12
342.9392770977712
 22
151.6654819424383
 32
0.0
 13
342.9392770977712
 23
151.6654819424383
 33
0.0
  0
SOLID
  5
21CE
330
42E
100
AcDbEntity
  8
0
 62
     7
100
AcDbTrace
 10
342.6684437644378
 20
125.2904819424383
 30
0.0
 11
343.2101104311045
 21
125.2904819424383
 31
0.0
 12
342.9392770977712
 22
123.6654819424383
 32
0.0
 13
342.9392770977712
 23
123.6654819424383
 33
0.0
  0
MTEXT
  5
21CF
330
42E
100
AcDbEntity
  8
0
 62
     7
100
AcDbMText
 10
342.9392770977712
 20
137.6654819424383
 30
0.0
 40
2.4375
 41
0.0
 46
0.0
 71
     5
 72
     1
  1
\A1;AS REQ'D
  7
ROMANS
 73
     1
 44
1.0
  0
LINE
  5
21D0
330
42E
100
AcDbEntity
  8
0
 62
     7
100
AcDbLine
 10
544.6409373750428
 20
45.66548194243835
 30
0.0
 11
569.7450440032064
 21
45.66548194243835
 31
0.0
  0
LINE
  5
21D1
330
42E
100
AcDbEntity
  8
0
 62
     7
100
AcDbLine
 10
545.3289333306405
 20
151.6654819424383
 30
0.0
 11
569.7450440032064
 21
151.6654819424383
 31
0.0
  0
LINE
  5
21D2
330
42E
100
AcDbEntity
  8
0
 62
     7
100
AcDbLine
 10
568.1200440032064
 20
47.29048194243834
 30
0.0
 11
568.1200440032064
 21
88.31477895163022
 31
0.0
  0
LINE
  5
21D3
330
42E
100
AcDbEntity
  8
0
 62
     7
100
AcDbLine
 10
568.1200440032064
 20
150.0404819424383
 30
0.0
 11
568.1200440032064
 21
101.7413747995812
 31
0.0
  0
SOLID
  5
21D4
330
42E
100
AcDbEntity
  8
0
 62
     7
100
AcDbTrace
 10
567.8492106698731
 20
47.29048194243834
 30
0.0
 11
568.3908773365398
 21
47.29048194243834
 31
0.0
 12
568.1200440032064
 22
45.66548194243835
 32
0.0
 13
568.1200440032064
 23
45.66548194243835
 33
0.0
  0
SOLID
  5
21D5
330
42E
100
AcDbEntity
  8
0
 62
     7
100
AcDbTrace
 10
567.8492106698731
 20
150.0404819424383
 30
0.0
 11
568.3908773365398
 21
150.0404819424383
 31
0.0
 12
568.1200440032064
 22
151.6654819424383
 32
0.0
 13
568.1200440032064
 23
151.6654819424383
 33
0.0
  0
LINE
  5
21D7
330
42E
100
AcDbEntity
  8
0
100
AcDbLine
 10
442.1121520129987
 20
122.0404819424383
 30
0.0
 11
442.1121520129987
 21
117.8286931128233
 31
0.0
  0
LINE
  5
21D8
330
42E
100
AcDbEntity
  8
0
100
AcDbLine
 10
432.6121520129987
 20
122.0404819424383
 30
0.0
 11
432.6121520129987
 21
117.8286931128233
 31
0.0
  0
LINE
  5
21D9
330
42E
100
AcDbEntity
  8
0
100
AcDbLine
 10
440.4871520129987
 20
119.4536931128233
 30
0.0
 11
434.2371520129987
 21
119.4536931128233
 31
0.0
  0
MTEXT
  5
21DA
330
42E
100
AcDbEntity
  8
0
100
AcDbMText
 10
437.2907949884709
 20
121.8114402738747
 30
0.0
 40
2.4375
 41
0.0
 46
0.0
 71
     5
 72
     1
  1
\A1;x
  7
ROMANS
 73
     1
 44
1.0
  0
SOLID
  5
21DB
330
42E
100
AcDbEntity
  8
0
100
AcDbTrace
 10
440.4871520129987
 20
119.7245264461566
 30
0.0
 11
440.4871520129987
 21
119.18285977949
 31
0.0
 12
442.1121520129987
 22
119.4536931128233
 32
0.0
 13
442.1121520129987
 23
119.4536931128233
 33
0.0
  0
SOLID
  5
21DC
330
42E
100
AcDbEntity
  8
0
100
AcDbTrace
 10
434.2371520129987
 20
119.7245264461566
 30
0.0
 11
434.2371520129987
 21
119.18285977949
 31
0.0
 12
432.6121520129987
 22
119.4536931128233
 32
0.0
 13
432.6121520129987
 23
119.4536931128233
 33
0.0
  0
LINE
  5
21EF
330
42E
100
AcDbEntity
  8
0
100
AcDbLine
 10
560.0707045045013
 20
96.31477895163023
 30
0.0
 11
575.5658518647184
 21
96.31477895163023
 31
0.0
  0
TEXT
  5
21F0
330
42E
100
AcDbEntity
  8
0
 62
     7
100
AcDbText
 10
560.4578049138388
 20
89.17045012040706
 30
0.0
 40
1.768799999999999
  1
24 FT MAX
  7
ROMANS
100
AcDbText
  0
LINE
  5
21F2
330
42E
100
AcDbEntity
  8
0
100
AcDbLine
 10
560.0707045045013
 20
88.31477895163022
 30
0.0
 11
575.5658518647184
 21
88.31477895163022
 31
0.0
  0
LINE
  5
21F3
330
42E
100
AcDbEntity
  8
0
100
AcDbLine
 10
560.0707045045013
 20
92.32773454071656
 30
0.0
 11
560.0707045045013
 21
88.31477895163022
 31
0.0
  0
LINE
  5
21F4
330
42E
100
AcDbEntity
  8
0
100
AcDbLine
 10
560.0707045045013
 20
88.31477895163022
 30
0.0
 11
575.5658518647184
 21
88.31477895163022
 31
0.0
  0
LINE
  5
21F8
330
42E
100
AcDbEntity
  8
0
100
AcDbLine
 10
575.5658518647184
 20
101.7413747995812
 30
0.0
 11
560.0707045045013
 21
101.7413747995812
 31
0.0
  0
LINE
  5
21F9
330
42E
100
AcDbEntity
  8
0
100
AcDbLine
 10
560.0707045045013
 20
101.7413747995812
 30
0.0
 11
560.0707045045013
 21
92.32773454071656
 31
0.0
  0
TEXT
  5
21FA
330
42E
100
AcDbEntity
  8
0
 62
     7
100
AcDbText
 10
560.4578049138388
 20
93.01213889240955
 30
0.0
 40
1.768799999999999
  1
WALL + 6"
  7
ROMANS
100
AcDbText
  0
LINE
  5
21FE
330
42E
100
AcDbEntity
  8
0
 62
     7
100
AcDbLine
 10
400.0815175501688
 20
140.9685526689265
 30
0.0
 11
400.0815175501688
 21
98.09604137402033
 31
0.0
  0
LINE
  5
2201
330
42E
100
AcDbEntity
  8
0
100
AcDbLine
 10
392.0321780514638
 20
92.66944552606934
 30
0.0
 11
407.5273254116808
 21
92.66944552606934
 31
0.0
  0
LINE
  5
2202
330
42E
100
AcDbEntity
  8
0
100
AcDbLine
 10
392.0321780514638
 20
84.66944552606936
 30
0.0
 11
407.5273254116808
 21
84.66944552606936
 31
0.0
  0
TEXT
  5
2203
330
42E
100
AcDbEntity
  8
0
 62
     7
100
AcDbText
 10
395.3506321789191
 20
86.23692147162074
 30
0.0
 40
1.768799999999999
  1
HEIGHT
  7
ROMANS
100
AcDbText
  0
LINE
  5
2204
330
42E
100
AcDbEntity
  8
0
100
AcDbLine
 10
407.5273254116808
 20
88.6824011151557
 30
0.0
 11
407.5273254116808
 21
98.09604137402033
 31
0.0
  0
LINE
  5
2205
330
42E
100
AcDbEntity
  8
0
100
AcDbLine
 10
407.5273254116808
 20
98.09604137402033
 30
0.0
 11
392.0321780514638
 21
98.09604137402033
 31
0.0
  0
LINE
  5
2206
330
42E
100
AcDbEntity
  8
0
100
AcDbLine
 10
392.0321780514638
 20
98.09604137402033
 30
0.0
 11
392.0321780514638
 21
88.6824011151557
 31
0.0
  0
LINE
  5
2207
330
42E
100
AcDbEntity
  8
0
100
AcDbLine
 10
392.0321780514638
 20
88.6824011151557
 30
0.0
 11
392.0321780514638
 21
84.66944552606936
 31
0.0
  0
LINE
  5
2208
330
42E
100
AcDbEntity
  8
0
100
AcDbLine
 10
392.0321780514638
 20
84.66944552606936
 30
0.0
 11
407.5273254116808
 21
84.66944552606936
 31
0.0
  0
LINE
  5
2209
330
42E
100
AcDbEntity
  8
0
100
AcDbLine
 10
407.5273254116808
 20
84.66944552606936
 30
0.0
 11
407.5273254116808
 21
88.6824011151557
 31
0.0
  0
TEXT
  5
220A
330
42E
100
AcDbEntity
  8
0
 62
     7
100
AcDbText
 10
396.6704605534237
 20
89.36680546684868
 30
0.0
 40
1.768799999999999
  1
WALL
  7
ROMANS
100
AcDbText
  0
LINE
  5
220F
330
42E
100
AcDbEntity
  8
0
100
AcDbLine
 10
403.9559773014579
 20
135.6896294449602
 30
0.0
 11
419.4511246616749
 21
135.6896294449602
 31
0.0
  0
LINE
  5
2210
330
42E
100
AcDbEntity
  8
0
100
AcDbLine
 10
403.9559773014579
 20
127.6896294449602
 30
0.0
 11
419.4511246616749
 21
127.6896294449602
 31
0.0
  0
TEXT
  5
2211
330
42E
100
AcDbEntity
  8
0
 62
     7
100
AcDbText
 10
406.9604254841278
 20
129.7258978278748
 30
0.0
 40
1.768799999999999
  1
HEIGHT
  7
ROMANS
100
AcDbText
  0
LINE
  5
2212
330
42E
100
AcDbEntity
  8
0
100
AcDbLine
 10
419.4511246616749
 20
131.7025850340465
 30
0.0
 11
419.4511246616749
 21
141.1162252929111
 31
0.0
  0
LINE
  5
2213
330
42E
100
AcDbEntity
  8
0
100
AcDbLine
 10
419.4511246616749
 20
141.1162252929111
 30
0.0
 11
403.9559773014579
 21
141.1162252929111
 31
0.0
  0
LINE
  5
2214
330
42E
100
AcDbEntity
  8
0
100
AcDbLine
 10
403.9559773014579
 20
141.1162252929111
 30
0.0
 11
403.9559773014579
 21
131.7025850340465
 31
0.0
  0
LINE
  5
2215
330
42E
100
AcDbEntity
  8
0
100
AcDbLine
 10
403.9559773014579
 20
131.7025850340465
 30
0.0
 11
403.9559773014579
 21
127.6896294449602
 31
0.0
  0
LINE
  5
2216
330
42E
100
AcDbEntity
  8
0
100
AcDbLine
 10
403.9559773014579
 20
127.6896294449602
 30
0.0
 11
419.4511246616749
 21
127.6896294449602
 31
0.0
  0
LINE
  5
2217
330
42E
100
AcDbEntity
  8
0
100
AcDbLine
 10
419.4511246616749
 20
127.6896294449602
 30
0.0
 11
419.4511246616749
 21
131.7025850340465
 31
0.0
  0
TEXT
  5
2218
330
42E
100
AcDbEntity
  8
0
 62
     7
100
AcDbText
 10
406.2998631467876
 20
132.7424136099239
 30
0.0
 40
1.768799999999999
  1
PARAPET
  7
ROMANS
100
AcDbText
  0
LINE
  5
2227
330
42E
100
AcDbEntity
  8
0
100
AcDbLine
 10
430.9871520129987
 20
145.6654819424383
 30
0.0
 11
410.3803168001629
 21
145.6654819424383
 31
0.0
  0
LINE
  5
2228
330
42E
100
AcDbEntity
  8
0
100
AcDbLine
 10
411.9308255270088
 20
123.6654819424383
 30
0.0
 11
410.3803168001629
 21
123.6654819424383
 31
0.0
  0
LINE
  5
2229
330
42E
100
AcDbEntity
  8
0
100
AcDbLine
 10
412.0053168001629
 20
144.0404819424383
 30
0.0
 11
412.0053168001629
 21
141.1162252929111
 31
0.0
  0
LINE
  5
222A
330
42E
100
AcDbEntity
  8
0
100
AcDbLine
 10
412.0053168001629
 20
125.2904819424383
 30
0.0
 11
412.0053168001629
 21
127.6896294449602
 31
0.0
  0
SOLID
  5
222B
330
42E
100
AcDbEntity
  8
0
100
AcDbTrace
 10
411.7344834668296
 20
144.0404819424383
 30
0.0
 11
412.2761501334962
 21
144.0404819424383
 31
0.0
 12
412.0053168001629
 22
145.6654819424383
 32
0.0
 13
412.0053168001629
 23
145.6654819424383
 33
0.0
  0
SOLID
  5
222C
330
42E
100
AcDbEntity
  8
0
100
AcDbTrace
 10
411.7344834668296
 20
125.2904819424383
 30
0.0
 11
412.2761501334962
 21
125.2904819424383
 31
0.0
 12
412.0053168001629
 22
123.6654819424383
 32
0.0
 13
412.0053168001629
 23
123.6654819424383
 33
0.0
  0
LINE
  5
223D
330
42E
100
AcDbEntity
  8
0
100
AcDbLine
 10
430.9871520129987
 20
145.6654819424383
 30
0.0
 11
398.4565175501689
 21
145.6654819424383
 31
0.0
  0
LINE
  5
223E
330
42E
100
AcDbEntity
  8
0
100
AcDbLine
 10
440.4871520129987
 20
45.66548194243834
 30
0.0
 11
398.4565175501689
 21
45.66548194243835
 31
0.0
  0
LINE
  5
223F
330
42E
100
AcDbEntity
  8
0
100
AcDbLine
 10
400.0815175501688
 20
144.0404819424383
 30
0.0
 11
400.0815175501688
 21
98.7413747995812
 31
0.0
  0
LINE
  5
2240
330
42E
100
AcDbEntity
  8
0
100
AcDbLine
 10
400.0815175501688
 20
47.29048194243834
 30
0.0
 11
400.0815175501688
 21
84.66944552606936
 31
0.0
  0
SOLID
  5
2241
330
42E
100
AcDbEntity
  8
0
100
AcDbTrace
 10
399.8106842168356
 20
144.0404819424383
 30
0.0
 11
400.3523508835022
 21
144.0404819424383
 31
0.0
 12
400.0815175501688
 22
145.6654819424383
 32
0.0
 13
400.0815175501688
 23
145.6654819424383
 33
0.0
  0
SOLID
  5
2242
330
42E
100
AcDbEntity
  8
0
100
AcDbTrace
 10
399.8106842168355
 20
47.29048194243834
 30
0.0
 11
400.3523508835021
 21
47.29048194243834
 31
0.0
 12
400.0815175501688
 22
45.66548194243835
 32
0.0
 13
400.0815175501688
 23
45.66548194243835
 33
0.0
  0
TEXT
  5
284C
330
42E
100
AcDbEntity
  8
0
 62
     7
100
AcDbText
 10
346.8092394731318
 20
-13.37539305932041
 30
0.0
 40
1.874798961935951
  1
Ph: (423) 586-2265 Fax: (423) 586-2091
  7
CAT_BORDER$0$ROMANS
100
AcDbText
  0
TEXT
  5
284D
330
42E
100
AcDbEntity
  8
0
 62
     7
100
AcDbText
 10
345.759110392445
 20
-10.34000426380515
 30
0.0
 40
1.874798961935951
  1
P.O. BOX 2279 Morristown, TN 37816-2279
  7
CAT_BORDER$0$ROMANS
100
AcDbText
  0
POLYLINE
  5
284E
330
42E
100
AcDbEntity
  8
0
 62
     7
100
AcDb2dPolyline
 66
     1
 10
0.0
 20
0.0
 30
0.0
1001
ACAD
1000
ASC_BOUNDS
1002
{
1070
    19
1002
}
  0
VERTEX
  5
284F
330
284E
100
AcDbEntity
  8
0
 62
     7
100
AcDbVertex
100
AcDb2dVertex
 10
338.764038069071
 20
-9.574774567876865
 30
0.0
  0
VERTEX
  5
2850
330
284E
100
AcDbEntity
  8
0
 62
     7
100
AcDbVertex
100
AcDb2dVertex
 10
339.0639076441024
 20
-9.421981211734978
 30
0.0
1001
ACAD
1000
ASC_BOUNDS
1002
{
1070
    19
1002
}
  0
VERTEX
  5
2851
330
284E
100
AcDbEntity
  8
0
 62
     7
100
AcDbVertex
100
AcDb2dVertex
 10
341.0812328199734
 20
-13.45882272665471
 30
0.0
1001
ACAD
1000
ASC_BOUNDS
1002
{
1070
    19
1002
}
  0
VERTEX
  5
2852
330
284E
100
AcDbEntity
  8
0
 62
     7
100
AcDbVertex
100
AcDb2dVertex
 10
340.4330240155462
 20
-13.45473271903345
 30
0.0
  0
VERTEX
  5
2853
330
284E
100
AcDbEntity
  8
0
 62
     7
100
AcDbVertex
100
AcDb2dVertex
 10
338.5488825725295
 20
-9.684403330333303
 30
0.0
  0
SEQEND
  5
2854
330
284E
100
AcDbEntity
  8
0
 62
     7
  0
TEXT
  5
2855
330
42E
100
AcDbEntity
  8
0
 62
     7
100
AcDbText
 10
339.0912810062887
 20
-7.151259424369373
 30
0.0
 40
3.064523040182006
  1
Precision Ladders, LLC
  7
CAT_BORDER$0$STYLE1
100
AcDbText
  0
CIRCLE
  5
2856
330
42E
100
AcDbEntity
  8
0
100
AcDbCircle
 10
336.7217519777208
 20
-7.600559593537202
 30
0.0
 40
8.404208704174298
1001
ACAD
1000
ASC_BOUNDS
1002
{
1070
    19
1002
}
  0
INSERT
  5
2857
330
42E
100
AcDbEntity
  8
0
100
AcDbBlockReference
  2
*X24
 10
361.9028556442379
 20
180.979150650044
 30
0.0
 41
0.6800081776809677
 42
0.6800081776809877
 43
0.6800081776809894
1001
ACAD
1000
HATCH
1002
{
1070
    19
1000
ANSI31
1040
0.8843871093750001
1040
0.0
1002
}
  0
LWPOLYLINE
  5
2858
330
42E
100
AcDbEntity
  8
0
 62
     7
100
AcDbPolyline
 90
        4
 70
     1
 43
0.0
 10
331.143552982837
 20
-3.308222784000057
 10
331.143552982837
 20
-2.699772418034873
 10
337.6235493803655
 20
-2.699772418034873
 10
337.6235493803655
 20
-3.308222784000057
1001
ACAD
1000
ASC_BOUNDS
1002
{
1070
    19
1005
0
1005
0
1002
}
  0
LINE
  5
2859
330
42E
100
AcDbEntity
  8
0
 62
     7
100
AcDbLine
 10
331.3696583114895
 20
-3.373893118930364
 30
0.0
 11
334.0629074971738
 21
-8.659692264697618
 31
0.0
1001
ACAD
1000
ASC_BOUNDS
1002
{
1070
    19
1002
}
  0
LWPOLYLINE
  5
285A
330
42E
100
AcDbEntity
  8
0
 62
     7
100
AcDbPolyline
 90
        4
 70
     0
 43
0.0
 10
331.2327073543157
 20
-3.3108908376166
 10
334.0845129535983
 20
-8.907874466427024
 10
334.071501755701
 20
-8.914504002884065
 10
331.2196961564184
 20
-3.317520374073697
1001
ACAD
1000
ASC_BOUNDS
1002
{
1070
    19
1002
}
  0
LINE
  5
285B
330
42E
100
AcDbEntity
  8
0
 62
     7
100
AcDbLine
 10
331.2883383246316
 20
-3.415327721787083
 30
0.0
 11
331.3696583114895
 21
-3.373893118930364
 31
0.0
1001
ACAD
1000
ASC_BOUNDS
1002
{
1070
    19
1002
}
  0
LINE
  5
285C
330
42E
100
AcDbEntity
  8
0
 62
     7
100
AcDbLine
 10
331.3696583114895
 20
-3.373893118930364
 30
0.0
 11
331.4985436007238
 21
-3.308222784000057
 31
0.0
1001
ACAD
1000
ASC_BOUNDS
1002
{
1070
    19
1002
}
  0
LINE
  5
285D
330
42E
100
AcDbEntity
  8
0
 62
     7
100
AcDbLine
 10
331.3696583114895
 20
-3.373893118930364
 30
0.0
 11
331.5353967229163
 21
-3.699173066362165
 31
0.0
1001
ACAD
1000
ASC_BOUNDS
1002
{
1070
    19
1002
}
  0
LINE
  5
285E
330
42E
100
AcDbEntity
  8
0
 62
     7
100
AcDbLine
 10
333.9026958593187
 20
-5.5034928314079
 30
0.0
 11
333.2756111419387
 21
-6.777454373536158
 31
0.0
1001
ACAD
1000
ASC_BOUNDS
1002
{
1070
    19
1005
0
1002
}
  0
LWPOLYLINE
  5
285F
330
42E
100
AcDbEntity
  8
0
 62
     7
100
AcDbPolyline
 90
        2
 70
     0
 43
0.0
 10
333.7555883333113
 20
-5.49533775865499
 10
333.1541117353903
 20
-6.71727481596821
1001
ACAD
1000
ASC_BOUNDS
1002
{
1070
    19
1005
0
1002
}
  0
LINE
  5
2860
330
42E
100
AcDbEntity
  8
0
 62
     7
100
AcDbLine
 10
332.5653812626033
 20
-3.308222784000057
 30
0.0
 11
333.718334578672
 21
-5.571021074473502
 31
0.0
1001
ACAD
1000
ASC_BOUNDS
1002
{
1070
    19
1002
}
  0
LINE
  5
2861
330
42E
100
AcDbEntity
  8
0
 62
     7
100
AcDbLine
 10
332.4629492911001
 20
-3.308222784000057
 30
0.0
 11
333.6680027368906
 21
-5.673273336403692
 31
0.0
1001
ACAD
1000
ASC_BOUNDS
1002
{
1070
    19
1002
}
  0
LINE
  5
2862
330
42E
100
AcDbEntity
  8
0
 62
     7
100
AcDbLine
 10
332.3576434496019
 20
-4.039707395585637
 30
0.0
 11
333.4331208085777
 21
-6.150450558744184
 31
0.0
1001
ACAD
1000
ASC_BOUNDS
1002
{
1070
    19
1002
}
  0
LINE
  5
2863
330
42E
100
AcDbEntity
  8
0
 62
     7
100
AcDbLine
 10
334.4445440519688
 20
-8.960697711197354
 30
0.0
 11
338.5488825725295
 21
-9.684403330333303
 31
0.0
1001
ACAD
1000
ASC_BOUNDS
1002
{
1070
    19
1002
}
  0
POLYLINE
  5
2864
330
42E
100
AcDbEntity
  8
0
 62
     7
100
AcDb2dPolyline
 66
     1
 10
0.0
 20
0.0
 30
0.0
1001
ACAD
1000
ASC_BOUNDS
1002
{
1070
    19
1002
}
  0
VERTEX
  5
2865
330
2864
100
AcDbEntity
  8
0
 62
     7
100
AcDbVertex
100
AcDb2dVertex
 10
334.5430581237387
 20
-8.545275419869721
 30
0.0
  0
VERTEX
  5
2866
330
2864
100
AcDbEntity
  8
0
 62
     7
100
AcDbVertex
100
AcDb2dVertex
 10
334.5779340806076
 20
-8.397273113271825
 30
0.0
1001
ACAD
1000
ASC_BOUNDS
1002
{
1070
    19
1002
}
  0
VERTEX
  5
2867
330
2864
100
AcDbEntity
  8
0
 62
     7
100
AcDbVertex
100
AcDb2dVertex
 10
338.6644631687201
 20
-9.117838448956108
 30
0.0
1001
ACAD
1000
ASC_BOUNDS
1002
{
1070
    19
1002
}
  0
VERTEX
  5
2868
330
2864
100
AcDbEntity
  8
0
 62
     7
100
AcDbVertex
100
AcDb2dVertex
 10
338.5928341779568
 20
-9.468956819967868
 30
0.0
  0
SEQEND
  5
2869
330
2864
100
AcDbEntity
  8
0
 62
     7
  0
LINE
  5
286A
330
42E
100
AcDbEntity
  8
0
 62
     7
100
AcDbLine
 10
333.7448680046644
 20
-5.824129918444926
 30
0.0
 11
334.9233964927649
 21
-8.137122310228029
 31
0.0
1001
ACAD
1000
ASC_BOUNDS
1002
{
1070
    19
1005
0
1002
}
  0
LWPOLYLINE
  5
286B
330
42E
100
AcDbEntity
  8
0
 62
     7
100
AcDbPolyline
 90
        2
 70
     0
 43
0.0
 10
333.7951998464457
 20
-5.721877656514793
 10
335.0020022862185
 20
-8.090360802882093
1001
ACAD
1000
ASC_BOUNDS
1002
{
1070
    19
1002
}
  0
LWPOLYLINE
  5
286C
330
42E
100
AcDbEntity
  8
0
 62
     7
100
AcDbPolyline
 90
        3
 70
     0
 43
0.0
 10
333.1552040949771
 20
-6.868951472784576
 10
333.3739527215363
 20
-6.762260638907596
 10
333.3277370695596
 20
-6.67155731481931
1001
ACAD
1000
ASC_BOUNDS
1002
{
1070
    19
1002
}
  0
CIRCLE
  5
286D
330
42E
100
AcDbEntity
  8
0
 62
     7
100
AcDbCircle
 10
333.2419412630659
 20
-6.694107549136575
 30
0.0
 40
0.0228168887236918
1001
ACAD
1000
ASC_BOUNDS
1002
{
1070
    19
1002
}
  0
LINE
  5
286E
330
42E
100
AcDbEntity
  8
0
 62
     7
100
AcDbLine
 10
333.2308912920504
 20
-6.561292378993544
 30
0.0
 11
333.0447118206925
 21
-6.652098174496657
 31
0.0
1001
ACAD
1000
ASC_BOUNDS
1002
{
1070
    19
1002
}
  0
LINE
  5
286F
330
42E
100
AcDbEntity
  8
0
 62
     7
100
AcDbLine
 10
333.0150129271939
 20
-6.606743814960235
 30
0.0
 11
333.1807513386207
 21
-6.932023762392036
 31
0.0
1001
ACAD
1000
ASC_BOUNDS
1002
{
1070
    19
1002
}
  0
LINE
  5
2870
330
42E
100
AcDbEntity
  8
0
 62
     7
100
AcDbLine
 10
333.2755154838467
 20
-6.777589063009147
 30
0.0
 11
333.1538770222236
 21
-6.717691069765495
 31
0.0
1001
ACAD
1000
ASC_BOUNDS
1002
{
1070
    19
1002
}
  0
LWPOLYLINE
  5
2871
330
42E
100
AcDbEntity
  8
0
 62
     1
100
AcDbPolyline
 90
        2
 70
     1
 43
0.0
 10
333.2647581517896
 20
-6.694107549136575
 42
-1.0
 10
333.2191243743422
 20
-6.694107549136575
 42
-1.0
1001
ACAD
1000
ASC_BOUNDS
1002
{
1070
    19
1002
}
  0
LINE
  5
2872
330
42E
100
AcDbEntity
  8
0
 62
     7
100
AcDbLine
 10
335.0026549014542
 20
-8.089968672087561
 30
0.0
 11
334.9244233377834
 21
-8.136974937862264
 31
0.0
1001
ACAD
1000
ASC_BOUNDS
1002
{
1070
    19
1002
}
  0
LINE
  5
2873
330
42E
100
AcDbEntity
  8
0
 62
     7
100
AcDbLine
 10
334.3735449910464
 20
-8.501414556002394
 30
0.0
 11
333.9796681002634
 21
-8.702104855823963
 31
0.0
1001
ACAD
1000
ASC_BOUNDS
1002
{
1070
    19
1002
}
  0
POLYLINE
  5
2874
330
42E
100
AcDbEntity
  8
0
 62
     7
100
AcDb2dPolyline
 66
     1
 10
0.0
 20
0.0
 30
0.0
1001
ACAD
1000
ASC_BOUNDS
1002
{
1070
    19
1002
}
  0
VERTEX
  5
2875
330
2874
100
AcDbEntity
  8
0
 62
     7
100
AcDbVertex
100
AcDb2dVertex
 10
334.4451412548072
 20
-8.960803014170874
 30
0.0
  0
VERTEX
  5
2876
330
2874
100
AcDbEntity
  8
0
 62
     7
100
AcDbVertex
100
AcDb2dVertex
 10
334.5266350679986
 20
-8.61496956876614
 30
0.0
1001
ACAD
1000
ASC_BOUNDS
1002
{
1070
    19
1002
}
  0
SEQEND
  5
2877
330
2874
100
AcDbEntity
  8
0
 62
     7
  0
LINE
  5
2878
330
42E
100
AcDbEntity
  8
0
 62
     7
100
AcDbLine
 10
333.5099860763514
 20
-6.301307140785535
 30
0.0
 11
334.2540127599793
 21
-7.761541726449756
 31
0.0
1001
ACAD
1000
ASC_BOUNDS
1002
{
1070
    19
1002
}
  0
LINE
  5
2879
330
42E
100
AcDbEntity
  8
0
 62
     7
100
AcDbLine
 10
334.2976295942601
 20
-7.847144583626203
 30
0.0
 11
334.5779340806076
 21
-8.397273113271825
 31
0.0
1001
ACAD
1000
ASC_BOUNDS
1002
{
1070
    19
1002
}
  0
LWPOLYLINE
  5
287A
330
42E
100
AcDbEntity
  8
0
 62
     7
100
AcDbPolyline
 90
        4
 70
     0
 43
0.0
 10
334.6804980034519
 20
-7.660407183331004
 10
334.0500818866207
 20
-7.967881667866814
 10
334.008647283764
 20
-7.88656168100881
 10
334.6335060319831
 20
-7.568180246451925
1001
ACAD
1000
ASC_BOUNDS
1002
{
1070
    19
1005
0
1002
}
  0
LWPOLYLINE
  5
287B
330
42E
100
AcDbEntity
  8
0
 62
     7
100
AcDbPolyline
 90
        5
 70
     0
 43
0.0
 10
334.5779340806366
 20
-8.397273113145221
 10
334.5943644697858
 20
-8.434458713578601
 10
334.7968012098048
 20
-8.84343735691131
 10
334.6604749953606
 20
-8.910916270250853
 10
334.4887629357003
 20
-8.531226751112344
1001
ACAD
1000
ASC_BOUNDS
1002
{
1070
    19
1002
}
  0
POLYLINE
  5
287C
330
42E
100
AcDbEntity
  8
0
 62
     7
100
AcDb2dPolyline
 66
     1
 10
0.0
 20
0.0
 30
0.0
 70
     1
1001
ACAD
1000
ASC_BOUNDS
1002
{
1070
    19
1002
}
  0
VERTEX
  5
287D
330
287C
100
AcDbEntity
  8
0
 62
     7
100
AcDbVertex
100
AcDb2dVertex
 10
334.0649504684957
 20
-8.423392137922915
 30
0.0
1001
ACAD
1000
ASC_BOUNDS
1002
{
1070
    19
1002
}
  0
VERTEX
  5
287E
330
287C
100
AcDbEntity
  8
0
 62
     7
100
AcDbVertex
100
AcDb2dVertex
 10
334.0931573432765
 20
-8.287925650622037
 30
0.0
  0
VERTEX
  5
287F
330
287C
100
AcDbEntity
  8
0
 62
     7
100
AcDbVertex
100
AcDb2dVertex
 10
334.1324252350927
 20
-8.298449872184892
 30
0.0
  0
VERTEX
  5
2880
330
287C
100
AcDbEntity
  8
0
 62
     7
100
AcDbVertex
100
AcDb2dVertex
 10
334.5779340806366
 20
-8.397273113145221
 30
0.0
  0
VERTEX
  5
2881
330
287C
100
AcDbEntity
  8
0
 62
     7
100
AcDbVertex
100
AcDb2dVertex
 10
334.5449930003164
 20
-8.545776061659774
 30
0.0
  0
VERTEX
  5
2882
330
287C
100
AcDbEntity
  8
0
 62
     7
100
AcDbVertex
100
AcDb2dVertex
 10
334.1032044280961
 20
-8.43146498666174
 30
0.0
  0
SEQEND
  5
2883
330
287C
100
AcDbEntity
  8
0
 62
     7
  0
LWPOLYLINE
  5
2884
330
42E
100
AcDbEntity
  8
0
 62
     7
100
AcDbPolyline
 90
        5
 70
     0
 43
0.0
 10
338.5488825725295
 20
-9.684403330333303
 10
338.530851802672
 20
-9.647966838933314
 10
338.3108341113364
 20
-9.248171416359312
 10
338.4440992521944
 20
-9.174832185914228
 10
338.6321485266285
 20
-9.546701292941381
1001
ACAD
1000
ASC_BOUNDS
1002
{
1070
    19
1002
}
  0
LINE
  5
2885
330
42E
100
AcDbEntity
  8
0
 62
     7
100
AcDbLine
 10
338.5792702428477
 20
-9.535445915363972
 30
0.0
 11
338.5488825725295
 21
-9.684403330333303
 31
0.0
1001
ACAD
1000
ASC_BOUNDS
1002
{
1070
    19
1002
}
  0
POLYLINE
  5
2886
330
42E
100
AcDbEntity
  8
0
 62
     7
100
AcDb2dPolyline
 66
     1
 10
0.0
 20
0.0
 30
0.0
 70
     1
1001
ACAD
1000
ASC_BOUNDS
1002
{
1070
    19
1002
}
  0
VERTEX
  5
2887
330
2886
100
AcDbEntity
  8
0
 62
     7
100
AcDbVertex
100
AcDb2dVertex
 10
339.0602466095085
 20
-9.636017263485758
 30
0.0
1001
ACAD
1000
ASC_BOUNDS
1002
{
1070
    19
1002
}
  0
VERTEX
  5
2888
330
2886
100
AcDbEntity
  8
0
 62
     7
100
AcDbVertex
100
AcDb2dVertex
 10
339.0379530786635
 20
-9.772581517406695
 30
0.0
  0
VERTEX
  5
2889
330
2886
100
AcDbEntity
  8
0
 62
     7
100
AcDbVertex
100
AcDb2dVertex
 10
338.9982649496254
 20
-9.763773624318453
 30
0.0
  0
VERTEX
  5
288A
330
2886
100
AcDbEntity
  8
0
 62
     7
100
AcDbVertex
100
AcDb2dVertex
 10
338.5488825725295
 20
-9.684403330333303
 30
0.0
  0
VERTEX
  5
288B
330
2886
100
AcDbEntity
  8
0
 62
     7
100
AcDbVertex
100
AcDb2dVertex
 10
338.5753393371912
 20
-9.53460920463466
 30
0.0
  0
VERTEX
  5
288C
330
2886
100
AcDbEntity
  8
0
 62
     7
100
AcDbVertex
100
AcDb2dVertex
 10
339.0216779793717
 20
-9.629614367168818
 30
0.0
  0
SEQEND
  5
288D
330
2886
100
AcDbEntity
  8
0
 62
     7
  0
LINE
  5
288E
330
42E
100
AcDbEntity
  8
0
 62
     1
100
AcDbLine
 10
338.6644631687201
 20
-9.117838448956108
 30
0.0
 11
338.5928341779568
 21
-9.468956819967868
 31
0.0
1001
ACAD
1000
ASC_BOUNDS
1002
{
1070
    19
1002
}
  0
LINE
  5
288F
330
42E
100
AcDbEntity
  8
0
 62
     1
100
AcDbLine
 10
338.5928341779568
 20
-9.468956819967868
 30
0.0
 11
338.6321485266285
 21
-9.546701292941381
 31
0.0
1001
ACAD
1000
ASC_BOUNDS
1002
{
1070
    19
1002
}
  0
LINE
  5
2890
330
42E
100
AcDbEntity
  8
0
 62
     1
100
AcDbLine
 10
338.6321485266285
 20
-9.546701292941381
 30
0.0
 11
338.7640380690712
 21
-9.574774567876865
 31
0.0
  0
LINE
  5
2891
330
42E
100
AcDbEntity
  8
0
 62
     1
100
AcDbLine
 10
338.7640380690712
 20
-9.574774567876865
 30
0.0
 11
339.0639076441024
 21
-9.421981211734978
 31
0.0
1001
ACAD
1000
ASC_BOUNDS
1002
{
1070
    19
1002
}
  0
LINE
  5
2892
330
42E
100
AcDbEntity
  8
0
 62
     7
100
AcDbLine
 10
331.9849334240855
 20
-3.308222784000057
 30
0.0
 11
332.3183757736345
 21
-3.962640242205001
 31
0.0
1001
ACAD
1000
ASC_BOUNDS
1002
{
1070
    19
1002
}
  0
LWPOLYLINE
  5
2893
330
42E
100
AcDbEntity
  8
0
 62
     7
100
AcDbPolyline
 90
        4
 70
     0
 43
0.0
 10
332.7012441828263
 20
-3.775902841909803
 10
332.0732800513847
 20
-4.0821814132644
 10
332.1132891140885
 20
-4.164212148224054
 10
332.7371367216058
 20
-3.846345915587863
1001
ACAD
1000
ASC_BOUNDS
1002
{
1070
    19
1002
}
  0
LINE
  5
2894
330
42E
100
AcDbEntity
  8
0
 62
     7
100
AcDbLine
 10
334.7411528894765
 20
-3.308222784000057
 30
0.0
 11
333.9618958096167
 21
-4.716663732413183
 31
0.0
1001
ACAD
1000
ASC_BOUNDS
1002
{
1070
    19
1002
}
  0
LINE
  5
2895
330
42E
100
AcDbEntity
  8
0
 62
     7
100
AcDbLine
 10
334.5673104415005
 20
-3.308222784000057
 30
0.0
 11
333.9867194194499
 21
-4.357591716117077
 31
0.0
1001
ACAD
1000
ASC_BOUNDS
1002
{
1070
    19
1002
}
  0
CIRCLE
  5
2896
330
42E
100
AcDbEntity
  8
0
 62
     7
100
AcDbCircle
 10
333.8352454299883
 20
-5.466334082931403
 30
0.0
 40
0.0228168887236918
1001
ACAD
1000
ASC_BOUNDS
1002
{
1070
    19
1002
}
  0
LWPOLYLINE
  5
2897
330
42E
100
AcDbEntity
  8
0
 62
     1
100
AcDbPolyline
 90
        2
 70
     1
 43
0.0
 10
333.858062318712
 20
-5.466334082931403
 42
-1.0
 10
333.8124285412646
 20
-5.466334082931403
 42
-1.0
1001
ACAD
1000
ASC_BOUNDS
1002
{
1070
    19
1002
}
  0
LINE
  5
2898
330
42E
100
AcDbEntity
  8
0
 62
     1
100
AcDbLine
 10
333.9073378375566
 20
-5.505841501651852
 30
0.0
 11
333.9015397685205
 21
-5.505841501651852
 31
0.0
  0
LINE
  5
2899
330
42E
100
AcDbEntity
  8
0
 62
     7
100
AcDbLine
 10
334.0592651032117
 20
-3.308222784000057
 30
0.0
 11
333.906612572803
 21
-5.516332412489663
 31
0.0
1001
ACAD
1000
ASC_BOUNDS
1002
{
1070
    19
1005
0
1002
}
  0
LWPOLYLINE
  5
289A
330
42E
100
AcDbEntity
  8
0
 62
     7
100
AcDbPolyline
 90
        3
 70
     0
 43
0.0
 10
333.9067894470913
 20
-3.308222784000057
 10
333.7548621814363
 20
-5.505841501651852
 10
333.9069747729275
 20
-5.505841501651852
1001
ACAD
1000
ASC_BOUNDS
1002
{
1070
    19
1005
0
1002
}
  0
TEXT
  5
289B
330
42E
100
AcDbEntity
  8
0
 62
     7
100
AcDbText
 10
355.3487987763663
 20
-16.76329840966983
 30
0.0
 40
2.156018806226345
  1
www.PrecisionLadders.com
  7
CAT_BORDER$0$ROMANS
100
AcDbText
  0
LWPOLYLINE
  5
289C
330
42E
100
AcDbEntity
  8
0
 62
     7
100
AcDbPolyline
 90
        9
 70
     0
 43
0.0
 10
340.8689817697155
 20
-13.54180710405814
 10
340.8692696997482
 20
-13.49617423497876
 10
340.7323710925101
 20
-13.49531044488034
 10
340.6411053543515
 20
-13.49473458481483
 10
340.6408174243186
 20
-13.54036745389409
 42
0.4142135623730939
 10
340.6559324040009
 20
-13.5556743869316
 10
340.853674836678
 20
-13.55692208374034
 42
0.4142135623730989
 10
340.8689817697155
 20
-13.54180710405814
 42
-0.4142135623730944
 10
340.853674836678
 20
-13.55692208374034
1001
ACAD
1000
ASC_BOUNDS
1002
{
1070
    19
1002
}
  0
LINE
  5
289D
330
42E
100
AcDbEntity
  8
0
 62
     7
100
AcDbLine
 10
340.7989585477492
 20
-13.45704165870746
 30
0.0
 11
340.7984182092449
 21
-13.49572718283423
 31
0.0
1001
ACAD
1000
ASC_BOUNDS
1002
{
1070
    19
1002
}
  0
LINE
  5
289E
330
42E
100
AcDbEntity
  8
0
 62
     7
100
AcDbLine
 10
340.7152982877704
 20
-13.45651378698068
 30
0.0
 11
340.7989585477492
 21
-13.45704165870746
 31
0.0
1001
ACAD
1000
ASC_BOUNDS
1002
{
1070
    19
1002
}
  0
LINE
  5
289F
330
42E
100
AcDbEntity
  8
0
 62
     7
100
AcDbLine
 10
340.7150849556547
 20
-13.49032393319095
 30
0.0
 11
340.7152982877704
 21
-13.45651378698068
 31
0.0
1001
ACAD
1000
ASC_BOUNDS
1002
{
1070
    19
1002
}
  0
TEXT
  5
28A0
330
42E
100
AcDbEntity
  8
0
100
AcDbText
 10
414.3980894652568
 20
-17.04055783387184
 30
0.0
 40
1.4546998125
  1
WORK ORDER: ( )
 50
90.0
 41
0.9
  7
CAT_BORDER$0$ROMANS
100
AcDbText
  0
TEXT
  5
28A1
330
42E
100
AcDbEntity
  8
0
100
AcDbText
 10
416.5851831821998
 20
-13.44439689027864
 30
0.0
 40
1.4546998125
  1
CHECKED BY:
  7
CAT_BORDER$0$ROMANS
100
AcDbText
  0
TEXT
  5
28A2
330
42E
100
AcDbEntity
  8
0
100
AcDbText
 10
416.5851831821998
 20
0.1163614731159701
 30
0.0
 40
1.4546998125
  1
DWG. CHECK
  7
CAT_BORDER$0$ROMANS
100
AcDbText
  0
TEXT
  5
28A3
330
42E
100
AcDbEntity
  8
0
100
AcDbText
 10
416.5851831821998
 20
-6.664017708581335
 30
0.0
 40
1.4546998125
  1
BUILT BY:
  7
CAT_BORDER$0$ROMANS
100
AcDbText
  0
TEXT
  5
28A4
330
42E
100
AcDbEntity
  8
0
100
AcDbText
 10
458.042605385993
 20
-13.44439689027864
 30
0.0
 40
1.4546998125
  1
DRAWN BY:
  7
CAT_BORDER$0$ROMANS
100
AcDbText
  0
TEXT
  5
28A5
330
42E
100
AcDbEntity
  8
0
100
AcDbText
 10
458.042605385993
 20
-6.664017708581335
 30
0.0
 40
1.4546998125
  1
PURCHASE ORDER
  7
CAT_BORDER$0$ROMANS
100
AcDbText
  0
TEXT
  5
28A6
330
42E
100
AcDbEntity
  8
0
100
AcDbText
 10
458.042605385993
 20
0.1163614731159701
 30
0.0
 40
1.4546998125
  1
ARCH'T OR ENG'R.
  7
CAT_BORDER$0$ROMANS
100
AcDbText
  0
TEXT
  5
28A7
330
42E
100
AcDbEntity
  8
0
100
AcDbText
 10
617.4476231986446
 20
-7.215938655188566
 30
0.0
 40
1.4546998125
  1
SERIAL#
  7
CAT_BORDER$0$ROMANS
100
AcDbText
  0
TEXT
  5
28A8
330
42E
100
AcDbEntity
  8
0
100
AcDbText
 10
617.2634803859931
 20
0.1163614731159701
 30
0.0
 40
1.4546998125
  1
PRECISION REP
  7
CAT_BORDER$0$ROMANS
100
AcDbText
  0
TEXT
  5
28A9
330
42E
100
AcDbEntity
  8
0
100
AcDbText
 10
515.9411053859931
 20
-13.44439689027864
 30
0.0
 40
1.4546998125
  1
DATE
  7
CAT_BORDER$0$ROMANS
100
AcDbText
  0
TEXT
  5
28AA
330
42E
100
AcDbEntity
  8
0
100
AcDbText
 10
537.6530428859931
 20
-13.44439689027864
 30
0.0
 40
1.4546998125
  1
MODEL#
  7
CAT_BORDER$0$ROMANS
100
AcDbText
  0
TEXT
  5
28AB
330
42E
100
AcDbEntity
  8
0
100
AcDbText
 10
515.9411053859931
 20
0.1163614731159701
 30
0.0
 40
1.4546998125
  1
PROJECT
  7
CAT_BORDER$0$ROMANS
100
AcDbText
  0
TEXT
  5
28AC
330
42E
100
AcDbEntity
  8
0
100
AcDbText
 10
515.9411053859931
 20
-6.664017708581335
 30
0.0
 40
1.4546998125
  1
REVISION
  7
CAT_BORDER$0$ROMANS
100
AcDbText
  0
TEXT
  5
28AD
330
42E
100
AcDbEntity
  8
0
100
AcDbText
 10
537.6530428859931
 20
-6.664017708581335
 30
0.0
 40
1.4546998125
  1
PURCHASER
  7
CAT_BORDER$0$ROMANS
100
AcDbText
  0
TEXT
  5
28AE
330
42E
100
AcDbEntity
  8
0
100
AcDbText
 10
602.7888553859932
 20
-13.44439689027864
 30
0.0
 40
1.4546998125
  1
QTY.
  7
CAT_BORDER$0$ROMANS
100
AcDbText
  0
LINE
  5
28AF
330
42E
100
AcDbEntity
  8
0
100
AcDbLine
 10
416.0423847446999
 20
-11.27320314027861
 30
0.0
 11
616.720681948493
 21
-11.27320314027861
 31
0.0
  0
LINE
  5
28B0
330
42E
100
AcDbEntity
  8
0
100
AcDbLine
 10
689.093806948493
 20
-18.05358232197592
 30
0.0
 11
689.093806948493
 21
244.4054887612033
 31
0.0
  0
LINE
  5
28B1
330
42E
100
AcDbEntity
  8
0
100
AcDbLine
 10
689.093806948493
 20
244.4054887612033
 30
0.0
 11
327.228181948493
 21
244.4054887612033
 31
0.0
  0
LINE
  5
28B2
330
42E
100
AcDbEntity
  8
0
100
AcDbLine
 10
327.228181948493
 20
244.4054887612033
 30
0.0
 11
327.228181948493
 21
-18.05358232197592
 31
0.0
  0
LINE
  5
28B3
330
42E
100
AcDbEntity
  8
0
100
AcDbLine
 10
327.228181948493
 20
-18.05358232197592
 30
0.0
 11
689.093806948493
 21
-18.05358232197592
 31
0.0
  0
LINE
  5
28B4
330
42E
100
AcDbEntity
  8
0
100
AcDbLine
 10
416.0423847446999
 20
-18.05358232197592
 30
0.0
 11
416.0423847446999
 21
2.287555223115951
 31
0.0
  0
LINE
  5
28B5
330
42E
100
AcDbEntity
  8
0
100
AcDbLine
 10
457.499806948493
 20
-18.05358232197592
 30
0.0
 11
457.499806948493
 21
2.287555223115951
 31
0.0
  0
LINE
  5
28B6
330
42E
100
AcDbEntity
  8
0
100
AcDbLine
 10
515.398306948493
 20
-18.05358232197592
 30
0.0
 11
515.398306948493
 21
2.287555223115951
 31
0.0
  0
LINE
  5
28B7
330
42E
100
AcDbEntity
  8
0
100
AcDbLine
 10
537.1102444484932
 20
-18.05358232197592
 30
0.0
 11
537.1102444484932
 21
-4.492823958581357
 31
0.0
  0
LINE
  5
28B8
330
42E
100
AcDbEntity
  8
0
100
AcDbLine
 10
616.720681948493
 20
-18.05358232197592
 30
0.0
 11
616.720681948493
 21
2.287555223115951
 31
0.0
  0
LINE
  5
28B9
330
42E
100
AcDbEntity
  8
0
100
AcDbLine
 10
602.246056948493
 20
-18.05358232197592
 30
0.0
 11
602.246056948493
 21
-11.27320314027861
 31
0.0
  0
LINE
  5
28BA
330
42E
100
AcDbEntity
  8
0
100
AcDbLine
 10
327.228181948493
 20
2.287555223115951
 30
0.0
 11
689.093806948493
 21
2.287555223115951
 31
0.0
  0
LINE
  5
28BB
330
42E
100
AcDbEntity
  8
0
100
AcDbLine
 10
416.0423847446999
 20
-4.492823958581357
 30
0.0
 11
689.093806948493
 21
-4.492823958581357
 31
0.0
  0
INSERT
  5
28BC
330
42E
100
AcDbEntity
  8
0
100
AcDbBlockReference
 66
     1
  2
border-T
 10
327.228181948493
 20
-18.05358232197592
 30
0.0
 41
1.315874999999977
 42
1.315875
 43
1.315875
  0
ATTRIB
  5
28BD
330
28BC
100
AcDbEntity
  8
0
 62
     5
100
AcDbText
 10
328.9001301305527
 20
4.254394775780646
 30
0.0
 40
2.960718749999999
  1

  7
ROMANS
100
AcDbAttribute
  2
SCALE
 70
     0
280
     0
  0
ATTRIB
  5
28BE
330
28BC
100
AcDbEntity
  8
0
100
AcDbText
 10
673.6831322889992
 20
11.57720977307773
 30
0.0
 40
2.305197114257812
  1
FL-06
  7
ROMANS
 72
     4
 11
679.281468137911
 21
12.72980833020664
 31
0.0
100
AcDbAttribute
  2
SAVEDAS
 70
     0
280
     0
  0
ATTRIB
  5
28BF
330
28BC
100
AcDbEntity
  8
0
 62
     5
100
AcDbText
 10
413.7763374162484
 20
-0.3009869020578086
 30
0.0
 40
1.642424862132352
  1

 50
90.0
  7
ROMANS
 72
     4
 11
413.7763374162484
 21
-0.3009869020578086
 31
0.0
100
AcDbAttribute
  2
X
 70
     0
280
     0
  0
ATTRIB
  5
28C0
330
28BC
100
AcDbEntity
  8
0
100
AcDbText
 10
486.1553795158289
 20
-3.357490405692356
 30
0.0
 40
2.327821975285714
  1

  7
ROMANS
 72
     1
 11
486.1553795158289
 21
-3.357490405692356
 31
0.0
100
AcDbAttribute
  2
ARCHORENG
 70
     0
280
     0
  0
ATTRIB
  5
28C1
330
28BC
100
AcDbEntity
  8
0
100
AcDbText
 10
486.1553795158289
 20
-10.13875015611447
 30
0.0
 40
2.327821975285714
  1

  7
ROMANS
 72
     1
 11
486.1553795158289
 21
-10.13875015611447
 31
0.0
100
AcDbAttribute
  2
PURCHASEORDER
 70
     0
280
     0
  0
ATTRIB
  5
28C2
330
28BC
100
AcDbEntity
  8
0
100
AcDbText
 10
482.5527978874105
 20
-16.92000990653671
 30
0.0
 40
2.327821975285714
  1
DNH
  7
ROMANS
 72
     1
 11
486.1553795158289
 21
-16.92000990653671
 31
0.0
100
AcDbAttribute
  2
DRAWNBY
 70
     0
280
     0
  0
ATTRIB
  5
28C3
330
28BC
100
AcDbEntity
  8
0
100
AcDbText
 10
525.9657677747576
 20
-10.13875015611447
 30
0.0
 40
2.327821975285714
  1

  7
ROMANS
 72
     1
 11
525.9657677747576
 21
-10.13875015611447
 31
0.0
100
AcDbAttribute
  2
REV
 70
     0
280
     0
  0
ATTRIB
  5
28C4
330
28BC
100
AcDbEntity
  8
0
100
AcDbText
 10
519.1485748471351
 20
-16.92000990653671
 30
0.0
 40
2.327821975285714
  1
4/4/19
  7
ROMANS
 72
     1
 11
525.9657677747576
 21
-16.92000990653671
 31
0.0
100
AcDbAttribute
  2
DATE
 70
     0
280
     0
  0
ATTRIB
  5
28C5
330
28BC
100
AcDbEntity
  8
0
100
AcDbText
 10
565.7761560336861
 20
-3.357490405692356
 30
0.0
 40
2.327821975285714
  1

  7
ROMANS
 72
     1
 11
565.7761560336861
 21
-3.357490405692356
 31
0.0
100
AcDbAttribute
  2
PROJECT
 70
     0
280
     0
  0
ATTRIB
  5
28C6
330
28BC
100
AcDbEntity
  8
0
100
AcDbText
 10
576.6335346497575
 20
-10.13875015611447
 30
0.0
 40
2.327821975285714
  1

  7
ROMANS
 72
     1
 11
576.6335346497575
 21
-10.13875015611447
 31
0.0
100
AcDbAttribute
  2
PURCHASER
 70
     0
280
     0
  0
ATTRIB
  5
28C7
330
28BC
100
AcDbEntity
  8
0
100
AcDbText
 10
566.0143979416044
 20
-16.92000990653659
 30
0.0
 40
2.327821975285714
  1
FL-
  7
ROMANS
 72
     1
 11
569.3952822390432
 21
-16.92000990653659
 31
0.0
100
AcDbAttribute
  2
MODEL
 70
     0
280
     0
  0
ATTRIB
  5
28C8
330
28BC
100
AcDbEntity
  8
0
100
AcDbText
 10
609.2056704979717
 20
-16.92000990653671
 30
0.0
 40
2.327821975285714
  1

  7
ROMANS
 72
     1
 11
609.2056704979717
 21
-16.92000990653671
 31
0.0
100
AcDbAttribute
  2
QTY
 70
     0
280
     0
  0
ATTRIB
  5
28C9
330
28BC
100
AcDbEntity
  8
0
100
AcDbText
 10
652.6351849622575
 20
-3.358370974417158
 30
0.0
 40
2.327821975285714
  1

  7
ROMANS
 72
     1
 11
652.6351849622575
 21
-3.358370974417158
 31
0.0
100
AcDbAttribute
  2
REP
 70
     0
280
     0
  0
ATTRIB
  5
28CA
330
28BC
100
AcDbEntity
  8
0
100
AcDbText
 10
652.6801475157541
 20
-13.90431436678928
 30
0.0
 40
4.54652729547991
  1

  7
ROMANS
 72
     1
 11
652.6801475157541
 21
-13.90431436678928
 31
0.0
100
AcDbAttribute
  2
L010000
 70
     0
280
     0
  0
SEQEND
  5
28CB
330
28BC
100
AcDbEntity
  8
0
  0
TEXT
  5
28CC
330
42E
100
AcDbEntity
  8
0
100
AcDbText
 10
574.2271275823583
 20
4.859527009612962
 30
0.0
 40
2.028765234374999
  1
LADDER RATED AT 1,500 LBS
  7
ROMANS
100
AcDbText
  0
TEXT
  5
28CF
330
42E
100
AcDbEntity
  8
0
100
AcDbText
 10
370.6870912117985
 20
6.171449218139185
 30
0.0
 40
2.028765234374999
  1
LADDERS MANUFACTURED BY PRECISION LADDERS, LLC
  7
ROMANS
100
AcDbText
  0
TEXT
  5
28D0
330
42E
100
AcDbEntity
  8
0
100
AcDbText
 10
370.6870912117985
 20
2.886781695817775
 30
0.0
 40
2.028765234374999
  1
COMPLY WITH OSHA 1910 SUBPART D AND ANSI 14.3
  7
ROMANS
100
AcDbText
  0
LINE
  5
28D1
330
42E
100
AcDbEntity
  8
0
100
AcDbLine
 10
689.093806948493
 20
9.59784179009612
 30
0.0
 11
327.228181948493
 21
9.597841790096104
 31
0.0
  0
LINE
  5
28D2
330
42E
100
AcDbEntity
  8
0
100
AcDbLine
 10
508.160994448493
 20
9.597841790096106
 30
0.0
 11
508.160994448493
 21
2.287555223115953
 31
0.0
  0
LINE
  5
29EC
330
42E
100
AcDbEntity
  8
0
100
AcDbLine
 10
575.5658518647184
 20
88.31477895163022
 30
0.0
 11
575.5658518647184
 21
101.7413747995812
 31
0.0
  0
LINE
  5
2AB3
330
42E
100
AcDbEntity
  8
0
100
AcDbLine
 10
422.2320700193346
 20
108.1733435864883
 30
0.0
 11
437.7272173795517
 21
108.1733435864883
 31
0.0
  0
LINE
  5
2AB4
330
42E
100
AcDbEntity
  8
0
100
AcDbLine
 10
437.7272173795517
 20
108.1733435864883
 30
0.0
 11
437.7272173795517
 21
113.5999394344393
 31
0.0
  0
LINE
  5
2AB5
330
42E
100
AcDbEntity
  8
0
100
AcDbLine
 10
437.7272173795517
 20
113.5999394344393
 30
0.0
 11
422.2320700193346
 21
113.5999394344393
 31
0.0
  0
LINE
  5
2AB6
330
42E
100
AcDbEntity
  8
0
100
AcDbLine
 10
422.2320700193346
 20
113.5999394344393
 30
0.0
 11
422.2320700193346
 21
108.1733435864883
 31
0.0
  0
MTEXT
  5
2AB7
330
42E
100
AcDbEntity
  8
0
100
AcDbMText
 10
425.7673124803561
 20
111.0944392841725
 30
0.0
 40
2.4375
 41
0.0
 46
0.0
 71
     5
 72
     1
  1
\A1;x=
  7
ROMANS
 73
     1
 44
1.0
  0
MTEXT
  5
2AB8
330
42E
100
AcDbEntity
  8
0
 62
     7
100
AcDbMText
 10
463.285311629421
 20
50.14001536762487
 30
0.0
 40
2.4375
 41
0.0
 46
0.0
 71
     5
 72
     1
  1
\A1;AS REQ'D
  7
ROMANS
 73
     1
 44
1.0
  0
TEXT
  5
2B1F
330
42E
100
AcDbEntity
  8
0
100
AcDbText
 10
330.0661929337187
 20
13.7681079504146
 30
0.0
 40
2.028765234374999
  1
NOTE: FALL ARREST SYSTEM REQUIRED ON LADDERS EXCEEDING 24'-0" (SEE DETAIL FLH-09-FAS)
  7
ROMANS
100
AcDbText
  0
DIMENSION
  5
2B20
330
42E
100
AcDbEntity
  8
0
100
AcDbDimension
  2
*D25
 10
424.1121520129987
 20
199.9047834075857
 30
0.0
 11
437.3621520129987
 21
199.9047834075857
 31
0.0
 70
    32
  1
24" MIN.\PX + 17"
 71
     5
 42
26.5
 73
     0
 74
     0
 75
     0
  3
STANDARD$0
100
AcDbAlignedDimension
 13
450.6121520129987
 23
193.6654819424383
 33
0.0
 14
424.1121520129987
 24
193.6654819424384
 34
0.0
100
AcDbRotatedDimension
1001
ACAD
1000
DSTYLE
1002
{
1070
    40
1040
26.0
1070
   140
1040
0.09375
1002
}
  0
TEXT
  5
2B38
330
42E
100
AcDbEntity
  8
0
 62
     7
100
AcDbText
 10
340.6437757812946
 20
81.42719176850862
 30
0.0
 40
2.210999999999999
  1
MAY REQUIRE EXTENDED
  7
ROMANS
 72
     4
 11
361.2797757812946
 21
82.42740605422291
 31
0.0
100
AcDbText
  0
TEXT
  5
2B39
330
42E
100
AcDbEntity
  8
0
 62
     7
100
AcDbText
 10
340.8348853357038
 20
77.74219176850866
 30
0.0
 40
2.210999999999999
  1
BRACKETS ON RETURN SIDE
  7
ROMANS
 72
     4
 11
364.7873853357037
 21
78.84769176850865
 31
0.0
100
AcDbText
  0
TEXT
  5
2B3A
330
42E
100
AcDbEntity
  8
0
 62
     7
100
AcDbText
 10
336.8299915249494
 20
79.26883462565148
 30
0.0
 40
4.421999999999999
  1
*
  7
ROMANS
 72
     4
 11
338.5145629535208
 21
82.42740605422291
 31
0.0
100
AcDbText
  0
ENDSEC
  0
SECTION
  2
OBJECTS
  0
DICTIONARY
  5
422
330
0
100
AcDbDictionary
281
     1
  3
ACAD_COLOR
350
21B7
  3
ACAD_GROUP
350
423
  3
ACAD_LAYOUT
350
107A
  3
ACAD_MATERIAL
350
21A2
  3
ACAD_MLINESTYLE
350
424
  3
ACAD_PLOTSETTINGS
350
107B
  3
ACAD_PLOTSTYLENAME
350
1078
  3
ACAD_TABLESTYLE
350
21B8
  3
ACAD_VISUALSTYLE
350
21A6
  3
AcDbVariableDictionary
350
21FB
  0
DICTIONARY
  5
2ABA
330
41E
100
AcDbDictionary
280
     1
281
     1
  0
DICTIONARY
  5
21C7
330
42E
100
AcDbDictionary
280
     1
281
     1
  3
ACAD_SORTENTS
360
21C8
  0
DICTIONARY
  5
21B7
102
{ACAD_REACTORS
330
422
102
}
330
422
100
AcDbDictionary
281
     1
  0
DICTIONARY
  5
423
102
{ACAD_REACTORS
330
422
102
}
330
422
100
AcDbDictionary
281
     1
  0
DICTIONARY
  5
107A
102
{ACAD_REACTORS
330
422
102
}
330
422
100
AcDbDictionary
281
     1
  3
Layout1
350
107D
  3
Model
350
107C
  0
DICTIONARY
  5
21A2
102
{ACAD_REACTORS
330
422
102
}
330
422
100
AcDbDictionary
281
     1
  3
ByBlock
350
21A4
  3
ByLayer
350
21A3
  3
Global
350
21A5
  0
DICTIONARY
  5
424
102
{ACAD_REACTORS
330
422
102
}
330
422
100
AcDbDictionary
281
     1
  3
STANDARD
350
431
  0
DICTIONARY
  5
107B
102
{ACAD_REACTORS
330
422
102
}
330
422
100
AcDbDictionary
281
     1
  0
ACDBDICTIONARYWDFLT
  5
1078
102
{ACAD_REACTORS
330
422
102
}
330
422
100
AcDbDictionary
281
     1
  3
Normal
350
1079
100
AcDbDictionaryWithDefault
340
1079
  0
DICTIONARY
  5
21B8
102
{ACAD_REACTORS
330
422
102
}
330
422
100
AcDbDictionary
281
     1
  3
Standard
350
21B9
  0
DICTIONARY
  5
21A6
102
{ACAD_REACTORS
330
422
102
}
330
422
100
AcDbDictionary
281
     1
  3
2dWireframe
350
21AC
  3
3D Hidden
350
21AE
  3
3dWireframe
350
21AD
  3
Basic
350
21AB
  3
Brighten
350
21B2
  3
ColorChange
350
21B6
  3
Conceptual
350
21AF
  3
Dim
350
21B1
  3
Facepattern
350
21B5
  3
Flat
350
21A7
  3
FlatWithEdges
350
21A8
  3
Gouraud
350
21A9
  3
GouraudWithEdges
350
21AA
  3
Linepattern
350
21B4
  3
Realistic
350
21B0
  3
Thicken
350
21B3
  0
DICTIONARY
  5
21FB
102
{ACAD_REACTORS
330
422
102
}
330
422
100
AcDbDictionary
281
     1
  3
CTABLESTYLE
350
21FC
  3
DIMASSOC
350
2ACE
  3
INDEXCTL
350
2ACD
  3
SORTENTS
350
2ACC
  0
SORTENTSTABLE
  5
21C8
102
{ACAD_REACTORS
330
21C7
102
}
330
21C7
100
AcDbSortentsTable
330
42E
331
2242
  5
2242
331
2203
  5
2203
331
20ED
  5
21D2
331
21CC
  5
2069
331
2213
  5
2214
331
20F5
  5
21DA
331
1450
  5
1450
331
34F
  5
34F
331
CA5
  5
CA5
331
1312
  5
1312
331
1458
  5
1458
331
2E0
  5
2E0
331
357
  5
357
331
2E8
  5
2E8
331
2F0
  5
2F0
331
1460
  5
1460
331
20FD
  5
21E2
331
1B5E
  5
20ED
331
21D4
  5
1B5F
331
1B66
  5
20F6
331
21DC
  5
21CF
331
222B
  5
222C
331
2F8
  5
2F8
331
21F4
  5
21F8
331
35F
  5
35F
331
131A
  5
131A
331
1322
  5
1322
331
367
  5
367
331
308
  5
308
331
12C3
  5
12C3
331
12CB
  5
12CB
331
132A
  5
132A
331
1439
  5
1439
331
1332
  5
1332
331
24A
  5
24A
331
2D1
  5
2D1
331
2D9
  5
2D9
331
252
  5
252
331
2204
  5
2204
331
21C5
  5
21C2
331
20EE
  5
21D3
331
21CD
  5
206A
331
320
  5
320
331
2214
  5
2215
331
20F6
  5
21DB
331
1451
  5
1451
331
1313
  5
1313
331
1459
  5
1459
331
2E1
  5
2E1
331
2E9
  5
2E9
331
2F1
  5
2F1
331
1461
  5
1461
331
20FE
  5
21E3
331
1B5F
  5
20EE
331
21D5
  5
1B60
331
1B67
  5
20F7
331
358
  5
358
331
222C
  5
222E
331
2F9
  5
2F9
331
2067
  5
21C4
331
131B
  5
131B
331
1323
  5
1323
331
309
  5
309
331
368
  5
368
331
12C4
  5
12C4
331
1333
  5
1333
331
143A
  5
143A
331
24B
  5
24B
331
2D2
  5
2D2
331
253
  5
253
331
2DA
  5
2DA
331
2205
  5
2205
331
21C6
  5
21C3
331
20EF
  5
21D4
331
21CE
  5
209E
331
2215
  5
2216
331
20F7
  5
21DC
331
45F
  5
45F
331
144A
  5
144A
331
349
  5
349
331
1452
  5
1452
331
1314
  5
1314
331
145A
  5
145A
331
2EA
  5
2EA
331
2F2
  5
2F2
331
1462
  5
1462
331
1B60
  5
20EF
331
1B68
  5
20F8
331
359
  5
359
331
131C
  5
131C
331
223D
  5
223D
331
361
  5
361
331
12BD
  5
12BD
331
369
  5
369
331
30A
  5
30A
331
12C5
  5
12C5
331
1324
  5
1324
331
143B
  5
143B
331
1334
  5
1334
331
2D3
  5
2D3
331
24C
  5
24C
331
254
  5
254
331
2DB
  5
2DB
331
2068
  5
21C5
331
21FE
  5
21FE
331
2206
  5
2206
331
20F0
  5
21D5
331
21CF
  5
20EB
331
2216
  5
2217
331
144B
  5
144B
331
34A
  5
34A
331
1453
  5
1453
331
352
  5
352
331
1315
  5
1315
331
145B
  5
145B
331
2EB
  5
2EB
331
2F3
  5
2F3
331
1463
  5
1463
331
20F8
  5
21DD
331
1B61
  5
20F0
331
21D7
  5
21CA
331
1B69
  5
20F9
331
21EF
  5
21EF
331
35A
  5
35A
331
223E
  5
223E
331
362
  5
362
331
12BE
  5
12BE
331
131D
  5
131D
331
1325
  5
1325
331
30B
  5
30B
331
36A
  5
36A
331
12C6
  5
12C6
331
382
  5
382
331
1335
  5
1335
331
24D
  5
24D
331
2D4
  5
2D4
331
2DC
  5
2DC
331
255
  5
255
331
2069
  5
21C6
331
21C0
  5
20FB
331
2207
  5
2207
331
220F
  5
2210
331
20F1
  5
21D6
331
2217
  5
2218
331
33B
  5
33B
331
144C
  5
144C
331
1454
  5
1454
331
353
  5
353
331
1316
  5
1316
331
145C
  5
145C
331
2E4
  5
2E4
331
2EC
  5
2EC
331
2F4
  5
2F4
331
275
  5
275
331
21D0
  5
1995
331
1464
  5
1464
331
20F9
  5
21DE
331
21D8
  5
21CB
331
1B62
  5
20F1
331
2227
  5
2228
331
1B6A
  5
20FA
331
21F0
  5
21F1
331
35B
  5
35B
331
131E
  5
131E
331
223F
  5
223F
331
363
  5
363
331
12BF
  5
12BF
331
36B
  5
36B
331
12C7
  5
12C7
331
1326
  5
1326
331
1435
  5
1435
331
1336
  5
1336
331
2C5
  5
2C5
331
2D5
  5
2D5
331
24E
  5
24E
331
2DD
  5
2DD
331
256
  5
256
331
21F8
  5
21F5
331
206A
  5
21C9
331
21C1
  5
20FC
331
1713
  5
1713
331
21C9
  5
1F7D
331
2208
  5
2208
331
2210
  5
2211
331
20F2
  5
21D7
331
33C
  5
33C
331
144D
  5
144D
331
1455
  5
1455
331
354
  5
354
331
145D
  5
145D
331
2E5
  5
2E5
331
266
  5
266
331
2ED
  5
2ED
331
2F5
  5
2F5
331
276
  5
276
331
2218
  5
2227
331
20FA
  5
21DF
331
1465
  5
1465
331
21D1
  5
1B0F
331
1B63
  5
20F2
331
21D9
  5
21CC
331
2228
  5
2229
331
35C
  5
35C
331
364
  5
364
331
12C0
  5
12C0
331
131F
  5
131F
331
1327
  5
1327
331
12C8
  5
12C8
331
1436
  5
1436
331
1337
  5
1337
331
247
  5
247
331
2CE
  5
2CE
331
24F
  5
24F
331
2D6
  5
2D6
331
2DE
  5
2DE
331
257
  5
257
331
21F9
  5
21F6
331
2240
  5
2240
331
2201
  5
2201
331
21C2
  5
20FD
331
2209
  5
2209
331
20EB
  5
21D0
331
1714
  5
1714
331
21CA
  5
2067
331
2211
  5
2212
331
20F3
  5
21D8
331
144E
  5
144E
331
34D
  5
34D
331
1456
  5
1456
331
355
  5
355
331
145E
  5
145E
331
267
  5
267
331
2EE
  5
2EE
331
2F6
  5
2F6
331
20FB
  5
21E0
331
21D2
  5
1B5D
331
1B64
  5
20F4
331
21DA
  5
21CD
331
2229
  5
222A
331
35D
  5
35D
331
1318
  5
1318
331
21F2
  5
21F0
331
1320
  5
1320
331
365
  5
365
331
306
  5
306
331
12C1
  5
12C1
331
30E
  5
30E
331
12C9
  5
12C9
331
1328
  5
1328
331
31E
  5
31E
331
1437
  5
1437
331
248
  5
248
331
2CF
  5
2CF
331
250
  5
250
331
2D7
  5
2D7
331
2DF
  5
2DF
331
2241
  5
2241
331
21FA
  5
21FA
331
2202
  5
2202
331
21C3
  5
20FE
331
220A
  5
220A
331
20EC
  5
21D1
331
21CB
  5
2068
331
1338
  5
1338
331
2212
  5
2213
331
20F4
  5
21D9
331
144F
  5
144F
331
1457
  5
1457
331
258
  5
258
331
145F
  5
145F
331
2E7
  5
2E7
331
2EF
  5
2EF
331
268
  5
268
331
2F7
  5
2F7
331
20FC
  5
21E1
331
1B5D
  5
20EC
331
21D3
  5
1B5E
331
1B65
  5
20F5
331
21DB
  5
21CE
331
222A
  5
222B
331
21F3
  5
21F7
331
35E
  5
35E
331
1321
  5
1321
331
366
  5
366
331
307
  5
307
331
12C2
  5
12C2
331
30F
  5
30F
331
1329
  5
1329
331
31F
  5
31F
331
1438
  5
1438
331
249
  5
249
331
2D0
  5
2D0
331
251
  5
251
331
2D8
  5
2D8
  0
LAYOUT
  5
107D
102
{ACAD_REACTORS
330
107A
102
}
330
107A
100
AcDbPlotSettings
  1

  2
HP LaserJet 2100 Series PCL 6
  4

  6

 40
0.0
 41
0.0
 42
0.0
 43
0.0
 44
0.0
 45
0.0
 46
0.0
 47
0.0
 48
0.0
 49
0.0
140
0.0
141
0.0
142
1.0
143
1.0
 70
   688
 72
     0
 73
     0
 74
     5
  7
Erik.ctb
 75
    16
147
1.0
 76
     0
 77
     2
 78
   300
148
0.0
149
0.0
100
AcDbLayout
  1
Layout1
 70
     1
 71
     1
 10
0.0
 20
0.0
 11
12.0
 21
9.0
 12
0.0
 22
0.0
 32
0.0
 14
1.000000000000000E+20
 24
1.000000000000000E+20
 34
1.000000000000000E+20
 15
-1.000000000000000E+20
 25
-1.000000000000000E+20
 35
-1.000000000000000E+20
146
0.0
 13
0.0
 23
0.0
 33
0.0
 16
1.0
 26
0.0
 36
0.0
 17
0.0
 27
1.0
 37
0.0
 76
     0
330
42B
  0
LAYOUT
  5
107C
102
{ACAD_REACTORS
330
107A
102
}
330
107A
100
AcDbPlotSettings
  1

  2
PDF Pro 10
  4
Letter
  6

 40
3.174999952316284
 41
3.174999952316284
 42
3.175003051757812
 43
3.17498779296875
 44
215.8999938964844
 45
279.3999938964844
 46
5.760762295382351
 47
0.0
 48
0.0
 49
0.0
140
0.0
141
0.0
142
1.0
143
33.66723393585025
 70
  3764
 72
     0
 73
     1
 74
     1
  7
acad.ctb
 75
     0
147
0.0297024698228968
 76
     0
 77
     2
 78
   300
148
-8310.945624739348
149
458.866076599812
100
AcDbLayout
  1
Model
 70
     1
 71
     0
 10
0.0
 20
0.0
 11
12.0
 21
9.0
 12
0.0
 22
0.0
 32
0.0
 14
0.0
 24
0.0
 34
0.0
 15
0.0
 25
0.0
 35
0.0
146
0.0
 13
0.0
 23
0.0
 33
0.0
 16
1.0
 26
0.0
 36
0.0
 17
0.0
 27
1.0
 37
0.0
 76
     0
330
42E
331
21A0
1001
ACAD_PSEXT
1000
PDF Pro 10
1000
Visage PDF
1000
VSP1:
1000

1070
     0
  0
MATERIAL
  5
21A4
102
{ACAD_REACTORS
330
21A2
102
}
330
21A2
100
AcDbMaterial
  1
ByBlock
  0
MATERIAL
  5
21A3
102
{ACAD_REACTORS
330
21A2
102
}
330
21A2
100
AcDbMaterial
  1
ByLayer
  0
MATERIAL
  5
21A5
102
{ACAD_REACTORS
330
21A2
102
}
330
21A2
100
AcDbMaterial
  1
Global
  0
MLINESTYLE
  5
431
102
{ACAD_REACTORS
330
424
102
}
330
424
100
AcDbMlineStyle
  2
STANDARD
 70
     0
  3

 62
     0
 51
90.0
 52
90.0
 71
     2
 49
0.5
 62
   256
  6
BYLAYER
 49
-0.5
 62
   256
  6
BYLAYER
  0
ACDBPLACEHOLDER
  5
1079
102
{ACAD_REACTORS
330
1078
102
}
330
1078
  0
TABLESTYLE
  5
21B9
102
{ACAD_REACTORS
330
21B8
102
}
330
21B8
100
AcDbTableStyle
  3
Standard
 70
     0
 71
     0
 40
0.06
 41
0.06
280
     0
281
     0
  7
STANDARD
140
0.18
170
     2
 62
     0
 63
     7
283
     0
 90
      512
 91
        0
  1

274
    -2
284
     1
 64
     0
275
    -2
285
     1
 65
     0
276
    -2
286
     1
 66
     0
277
    -2
287
     1
 67
     0
278
    -2
288
     1
 68
     0
279
    -2
289
     1
 69
     0
  7
STANDARD
140
0.25
170
     5
 62
     0
 63
     7
283
     0
 90
      512
 91
        0
  1

274
    -2
284
     1
 64
     0
275
    -2
285
     1
 65
     0
276
    -2
286
     1
 66
     0
277
    -2
287
     1
 67
     0
278
    -2
288
     1
 68
     0
279
    -2
289
     1
 69
     0
  7
STANDARD
140
0.18
170
     5
 62
     0
 63
     7
283
     0
 90
      512
 91
        0
  1

274
    -2
284
     1
 64
     0
275
    -2
285
     1
 65
     0
276
    -2
286
     1
 66
     0
277
    -2
287
     1
 67
     0
278
    -2
288
     1
 68
     0
279
    -2
289
     1
 69
     0
  0
VISUALSTYLE
  5
21AC
102
{ACAD_REACTORS
330
21A6
102
}
330
21A6
100
AcDbVisualStyle
  2
2dWireframe
 70
     4
 71
     0
 72
     2
 73
     0
 90
        0
 40
-0.6
 41
-30.0
 62
     5
 63
     7
 74
     1
 91
        4
 64
     7
 65
   257
 75
     1
175
     1
 42
1.0
 92
        0
 66
   257
 43
1.0
 76
     1
 77
     6
 78
     2
 67
     7
 79
     5
170
     0
171
     0
290
     0
174
     0
 93
        1
 44
0.0
173
     0
291
     0
 45
0.0
  0
VISUALSTYLE
  5
21AE
102
{ACAD_REACTORS
330
21A6
102
}
330
21A6
100
AcDbVisualStyle
  2
3D Hidden
 70
     6
 71
     1
 72
     2
 73
     2
 90
        0
 40
-0.6
 41
-30.0
 62
     5
 63
     7
 74
     2
 91
        2
 64
     7
 65
   257
 75
     2
175
     1
 42
40.0
 92
        0
 66
   257
 43
1.0
 76
     1
 77
     6
 78
     2
 67
     7
 79
     3
170
     0
171
     0
290
     0
174
     0
 93
        1
 44
0.0
173
     0
291
     0
 45
0.0
  0
VISUALSTYLE
  5
21AD
102
{ACAD_REACTORS
330
21A6
102
}
330
21A6
100
AcDbVisualStyle
  2
3dWireframe
 70
     5
 71
     0
 72
     2
 73
     0
 90
        0
 40
-0.6
 41
-30.0
 62
     5
 63
     7
 74
     1
 91
        4
 64
     7
 65
   257
 75
     1
175
     1
 42
1.0
 92
        0
 66
   257
 43
1.0
 76
     1
 77
     6
 78
     2
 67
     7
 79
     5
170
     0
171
     0
290
     0
174
     0
 93
        1
 44
0.0
173
     0
291
     0
 45
0.0
  0
VISUALSTYLE
  5
21AB
102
{ACAD_REACTORS
330
21A6
102
}
330
21A6
100
AcDbVisualStyle
  2
Basic
 70
     7
 71
     1
 72
     0
 73
     1
 90
        0
 40
-0.6
 41
-30.0
 62
     5
 63
     7
 74
     0
 91
        4
 64
     7
 65
   257
 75
     1
175
     1
 42
1.0
 92
        8
 66
     7
 43
1.0
 76
     1
 77
     6
 78
     2
 67
     7
 79
     5
170
     0
171
     0
290
     0
174
     0
 93
        1
 44
0.0
173
     0
291
     1
 45
0.0
  0
VISUALSTYLE
  5
21B2
102
{ACAD_REACTORS
330
21A6
102
}
330
21A6
100
AcDbVisualStyle
  2
Brighten
 70
    12
 71
     2
 72
     2
 73
     0
 90
        0
 40
-0.6
 41
-30.0
 62
     5
 63
     7
 74
     1
 91
        4
 64
     7
 65
   257
 75
     1
175
     1
 42
1.0
 92
        8
 66
     7
 43
1.0
 76
     1
 77
     6
 78
     2
 67
     7
 79
     5
170
     0
171
     0
290
     0
174
     0
 93
        1
 44
50.0
173
     0
291
     1
 45
0.0
  0
VISUALSTYLE
  5
21B6
102
{ACAD_REACTORS
330
21A6
102
}
330
21A6
100
AcDbVisualStyle
  2
ColorChange
 70
    16
 71
     2
 72
     2
 73
     3
 90
        0
 40
-0.6
 41
-30.0
 62
     5
 63
     8
 74
     1
 91
        4
 64
     7
 65
   257
 75
     1
175
     1
 42
1.0
 92
        8
 66
     8
 43
1.0
 76
     1
 77
     6
 78
     2
 67
     7
 79
     5
170
     0
171
     0
290
     0
174
     0
 93
        1
 44
0.0
173
     0
291
     1
 45
0.0
  0
VISUALSTYLE
  5
21AF
102
{ACAD_REACTORS
330
21A6
102
}
330
21A6
100
AcDbVisualStyle
  2
Conceptual
 70
     9
 71
     3
 72
     2
 73
     0
 90
        0
 40
-0.6
 41
-30.0
 62
     5
 63
     7
 74
     2
 91
        2
 64
     7
 65
   257
 75
     1
175
     1
 42
40.0
 92
        8
 66
     7
 43
1.0
 76
     1
 77
     6
 78
     2
 67
     7
 79
     3
170
     0
171
     0
290
     0
174
     0
 93
        1
 44
0.0
173
     0
291
     0
 45
0.0
  0
VISUALSTYLE
  5
21B1
102
{ACAD_REACTORS
330
21A6
102
}
330
21A6
100
AcDbVisualStyle
  2
Dim
 70
    11
 71
     2
 72
     2
 73
     0
 90
        0
 40
-0.6
 41
-30.0
 62
     5
 63
     7
 74
     1
 91
        4
 64
     7
 65
   257
 75
     1
175
     1
 42
1.0
 92
        8
 66
     7
 43
1.0
 76
     1
 77
     6
 78
     2
 67
     7
 79
     5
170
     0
171
     0
290
     0
174
     0
 93
        1
 44
-50.0
173
     0
291
     1
 45
0.0
  0
VISUALSTYLE
  5
21B5
102
{ACAD_REACTORS
330
21A6
102
}
330
21A6
100
AcDbVisualStyle
  2
Facepattern
 70
    15
 71
     2
 72
     2
 73
     0
 90
        0
 40
-0.6
 41
-30.0
 62
     5
 63
     7
 74
     1
 91
        4
 64
     7
 65
   257
 75
     1
175
     1
 42
1.0
 92
        8
 66
     7
 43
1.0
 76
     1
 77
     6
 78
     2
 67
     7
 79
     5
170
     0
171
     0
290
     0
174
     0
 93
        1
 44
0.0
173
     0
291
     1
 45
0.0
  0
VISUALSTYLE
  5
21A7
102
{ACAD_REACTORS
330
21A6
102
}
330
21A6
100
AcDbVisualStyle
  2
Flat
 70
     0
 71
     2
 72
     1
 73
     1
 90
        2
 40
-0.6
 41
30.0
 62
     5
 63
     7
 74
     0
 91
        4
 64
     7
 65
   257
 75
     1
175
     1
 42
1.0
 92
        8
 66
     7
 43
1.0
 76
     1
 77
     6
 78
     2
 67
     7
 79
     5
170
     0
171
     0
290
     0
174
     0
 93
       13
 44
0.0
173
     0
291
     1
 45
0.0
  0
VISUALSTYLE
  5
21A8
102
{ACAD_REACTORS
330
21A6
102
}
330
21A6
100
AcDbVisualStyle
  2
FlatWithEdges
 70
     1
 71
     2
 72
     1
 73
     1
 90
        2
 40
-0.6
 41
30.0
 62
     5
 63
     7
 74
     1
 91
        4
 64
     7
 65
   257
 75
     1
175
     1
 42
1.0
 92
        0
 66
   257
 43
1.0
 76
     1
 77
     6
 78
     2
 67
     7
 79
     5
170
     0
171
     0
290
     0
174
     0
 93
       13
 44
0.0
173
     0
291
     1
 45
0.0
  0
VISUALSTYLE
  5
21A9
102
{ACAD_REACTORS
330
21A6
102
}
330
21A6
100
AcDbVisualStyle
  2
Gouraud
 70
     2
 71
     2
 72
     2
 73
     1
 90
        2
 40
-0.6
 41
30.0
 62
     5
 63
     7
 74
     0
 91
        4
 64
     7
 65
   257
 75
     1
175
     1
 42
1.0
 92
        0
 66
     7
 43
1.0
 76
     1
 77
     6
 78
     2
 67
     7
 79
     5
170
     0
171
     0
290
     0
174
     0
 93
       13
 44
0.0
173
     0
291
     1
 45
0.0
  0
VISUALSTYLE
  5
21AA
102
{ACAD_REACTORS
330
21A6
102
}
330
21A6
100
AcDbVisualStyle
  2
GouraudWithEdges
 70
     3
 71
     2
 72
     2
 73
     1
 90
        2
 40
-0.6
 41
30.0
 62
     5
 63
     7
 74
     1
 91
        4
 64
     7
 65
   257
 75
     1
175
     1
 42
1.0
 92
        0
 66
   257
 43
1.0
 76
     1
 77
     6
 78
     2
 67
     7
 79
     5
170
     0
171
     0
290
     0
174
     0
 93
       13
 44
0.0
173
     0
291
     1
 45
0.0
  0
VISUALSTYLE
  5
21B4
102
{ACAD_REACTORS
330
21A6
102
}
330
21A6
100
AcDbVisualStyle
  2
Linepattern
 70
    14
 71
     2
 72
     2
 73
     0
 90
        0
 40
-0.6
 41
-30.0
 62
     5
 63
     7
 74
     1
 91
        4
 64
     7
 65
   257
 75
     7
175
     7
 42
1.0
 92
        8
 66
     7
 43
1.0
 76
     1
 77
     6
 78
     2
 67
     7
 79
     5
170
     0
171
     0
290
     0
174
     0
 93
        1
 44
0.0
173
     0
291
     1
 45
0.0
  0
VISUALSTYLE
  5
21B0
102
{ACAD_REACTORS
330
21A6
102
}
330
21A6
100
AcDbVisualStyle
  2
Realistic
 70
     8
 71
     2
 72
     2
 73
     0
 90
        0
 40
-0.6
 41
-30.0
 62
     5
 63
     7
 74
     1
 91
        0
 64
     7
 65
   257
 75
     1
175
     1
 42
1.0
 92
        8
 66
     8
 43
1.0
 76
     1
 77
     6
 78
     2
 67
     7
 79
     5
170
     0
171
     0
290
     0
174
     0
 93
       13
 44
0.0
173
     0
291
     0
 45
0.0
  0
VISUALSTYLE
  5
21B3
102
{ACAD_REACTORS
330
21A6
102
}
330
21A6
100
AcDbVisualStyle
  2
Thicken
 70
    13
 71
     2
 72
     2
 73
     0
 90
        0
 40
-0.6
 41
-30.0
 62
     5
 63
     7
 74
     1
 91
        4
 64
     7
 65
   257
 75
     1
175
     1
 42
1.0
 92
       12
 66
     7
 43
1.0
 76
     1
 77
     6
 78
     2
 67
     7
 79
     5
170
     0
171
     0
290
     0
174
     0
 93
        1
 44
0.0
173
     0
291
     1
 45
0.0
  0
DICTIONARYVAR
  5
21FC
102
{ACAD_REACTORS
330
21FB
102
}
330
21FB
100
DictionaryVariables
280
     0
  1
STANDARD
  0
DICTIONARYVAR
  5
2ACE
102
{ACAD_REACTORS
330
21FB
102
}
330
21FB
100
DictionaryVariables
280
     0
  1
1
  0
DICTIONARYVAR
  5
2ACD
102
{ACAD_REACTORS
330
21FB
102
}
330
21FB
100
DictionaryVariables
280
     0
  1
0
  0
DICTIONARYVAR
  5
2ACC
102
{ACAD_REACTORS
330
21FB
102
}
330
21FB
100
DictionaryVariables
280
     0
  1
127
  0
ENDSEC
  0
EOF
