  0
SECTION
  2
HEADER
  9
$ACADVER
  1
AC1015
  9
$ACADMAINTVER
 70
    20
  9
$DWGCODEPAGE
  3
ANSI_1252
  9
$INSBASE
 10
0.0
 20
0.0
 30
0.0
  9
$EXTMIN
 10
-20.22132217912514
 20
-13.75713369304763
 30
0.0
  9
$EXTMAX
 10
254.7786778208805
 20
184.2428663069602
 30
0.0
  9
$LIMMIN
 10
0.0
 20
0.0
  9
$LIMMAX
 10
12.0
 20
9.0
  9
$ORTHOMODE
 70
     1
  9
$REGENMODE
 70
     1
  9
$FILLMODE
 70
     1
  9
$QTEXTMODE
 70
     0
  9
$MIRRTEXT
 70
     0
  9
$LTSCALE
 40
4.0
  9
$ATTMODE
 70
     1
  9
$TEXTSIZE
 40
1.768799999999999
  9
$TRACEWID
 40
0.05
  9
$TEXTSTYLE
  7
ROMANS
  9
$CLAYER
  8
0
  9
$CELTYPE
  6
BYLAYER
  9
$CECOLOR
 62
   256
  9
$CELTSCALE
 40
1.0
  9
$DISPSILH
 70
     0
  9
$DIMSCALE
 40
22.0
  9
$DIMASZ
 40
0.0625
  9
$DIMEXO
 40
0.0625
  9
$DIMDLI
 40
0.375
  9
$DIMRND
 40
0.0
  9
$DIMDLE
 40
0.0
  9
$DIMEXE
 40
0.0625
  9
$DIMTP
 40
0.0
  9
$DIMTM
 40
0.0
  9
$DIMTXT
 40
0.0804
  9
$DIMCEN
 40
0.0625
  9
$DIMTSZ
 40
0.0
  9
$DIMTOL
 70
     0
  9
$DIMLIM
 70
     0
  9
$DIMTIH
 70
     1
  9
$DIMTOH
 70
     1
  9
$DIMSE1
 70
     0
  9
$DIMSE2
 70
     0
  9
$DIMTAD
 70
     0
  9
$DIMZIN
 70
     3
  9
$DIMBLK
  1

  9
$DIMASO
 70
     1
  9
$DIMSHO
 70
     1
  9
$DIMPOST
  1

  9
$DIMAPOST
  1

  9
$DIMALT
 70
     0
  9
$DIMALTD
 70
     2
  9
$DIMALTF
 40
25.4
  9
$DIMLFAC
 40
1.0
  9
$DIMTOFL
 70
     0
  9
$DIMTVP
 40
0.0
  9
$DIMTIX
 70
     0
  9
$DIMSOXD
 70
     0
  9
$DIMSAH
 70
     0
  9
$DIMBLK1
  1

  9
$DIMBLK2
  1

  9
$DIMSTYLE
  2
STANDARD
  9
$DIMCLRD
 70
     0
  9
$DIMCLRE
 70
     0
  9
$DIMCLRT
 70
     0
  9
$DIMTFAC
 40
1.0
  9
$DIMGAP
 40
0.0625
  9
$DIMJUST
 70
     0
  9
$DIMSD1
 70
     0
  9
$DIMSD2
 70
     0
  9
$DIMTOLJ
 70
     1
  9
$DIMTZIN
 70
     0
  9
$DIMALTZ
 70
     0
  9
$DIMALTTZ
 70
     0
  9
$DIMUPT
 70
     0
  9
$DIMDEC
 70
     4
  9
$DIMTDEC
 70
     4
  9
$DIMALTU
 70
     2
  9
$DIMALTTD
 70
     2
  9
$DIMTXSTY
  7
ROMANS
  9
$DIMAUNIT
 70
     0
  9
$DIMADEC
 70
     0
  9
$DIMALTRND
 40
0.0
  9
$DIMAZIN
 70
     0
  9
$DIMDSEP
 70
    46
  9
$DIMATFIT
 70
     3
  9
$DIMFRAC
 70
     2
  9
$DIMLDRBLK
  1

  9
$DIMLUNIT
 70
     4
  9
$DIMLWD
 70
    -2
  9
$DIMLWE
 70
    -2
  9
$DIMTMOVE
 70
     2
  9
$LUNITS
 70
     4
  9
$LUPREC
 70
     4
  9
$SKETCHINC
 40
0.1
  9
$FILLETRAD
 40
0.0
  9
$AUNITS
 70
     0
  9
$AUPREC
 70
     0
  9
$MENU
  1
acad
  9
$ELEVATION
 40
0.0
  9
$PELEVATION
 40
0.0
  9
$THICKNESS
 40
0.0
  9
$LIMCHECK
 70
     0
  9
$CHAMFERA
 40
0.0
  9
$CHAMFERB
 40
0.0
  9
$CHAMFERC
 40
0.0
  9
$CHAMFERD
 40
0.0
  9
$SKPOLY
 70
     0
  9
$TDCREATE
 40
2450857.457151736
  9
$TDUCREATE
 40
2450857.623818403
  9
$TDUPDATE
 40
2459458.663506274
  9
$TDUUPDATE
 40
2459458.830172940
  9
$TDINDWG
 40
0.2940112847
  9
$TDUSRTIMER
 40
0.2940112847
  9
$USRTIMER
 70
     1
  9
$ANGBASE
 50
0.0
  9
$ANGDIR
 70
     0
  9
$PDMODE
 70
    33
  9
$PDSIZE
 40
0.0
  9
$PLINEWID
 40
0.0
  9
$SPLFRAME
 70
     0
  9
$SPLINETYPE
 70
     6
  9
$SPLINESEGS
 70
     8
  9
$HANDSEED
  5
2902
  9
$SURFTAB1
 70
     6
  9
$SURFTAB2
 70
     6
  9
$SURFTYPE
 70
     6
  9
$SURFU
 70
     6
  9
$SURFV
 70
     6
  9
$UCSBASE
  2

  9
$UCSNAME
  2

  9
$UCSORG
 10
-0.0000000000000071
 20
-0.0000000000000284
 30
0.0
  9
$UCSXDIR
 10
1.0
 20
0.0
 30
0.0
  9
$UCSYDIR
 10
0.0
 20
1.0
 30
0.0
  9
$UCSORTHOREF
  2

  9
$UCSORTHOVIEW
 70
     0
  9
$UCSORGTOP
 10
0.0
 20
0.0
 30
0.0
  9
$UCSORGBOTTOM
 10
0.0
 20
0.0
 30
0.0
  9
$UCSORGLEFT
 10
0.0
 20
0.0
 30
0.0
  9
$UCSORGRIGHT
 10
0.0
 20
0.0
 30
0.0
  9
$UCSORGFRONT
 10
0.0
 20
0.0
 30
0.0
  9
$UCSORGBACK
 10
0.0
 20
0.0
 30
0.0
  9
$PUCSBASE
  2

  9
$PUCSNAME
  2

  9
$PUCSORG
 10
0.0
 20
0.0
 30
0.0
  9
$PUCSXDIR
 10
1.0
 20
0.0
 30
0.0
  9
$PUCSYDIR
 10
0.0
 20
1.0
 30
0.0
  9
$PUCSORTHOREF
  2

  9
$PUCSORTHOVIEW
 70
     0
  9
$PUCSORGTOP
 10
0.0
 20
0.0
 30
0.0
  9
$PUCSORGBOTTOM
 10
0.0
 20
0.0
 30
0.0
  9
$PUCSORGLEFT
 10
0.0
 20
0.0
 30
0.0
  9
$PUCSORGRIGHT
 10
0.0
 20
0.0
 30
0.0
  9
$PUCSORGFRONT
 10
0.0
 20
0.0
 30
0.0
  9
$PUCSORGBACK
 10
0.0
 20
0.0
 30
0.0
  9
$USERI1
 70
     0
  9
$USERI2
 70
     0
  9
$USERI3
 70
     0
  9
$USERI4
 70
     0
  9
$USERI5
 70
     0
  9
$USERR1
 40
0.0
  9
$USERR2
 40
0.0
  9
$USERR3
 40
0.0
  9
$USERR4
 40
0.0
  9
$USERR5
 40
0.0
  9
$WORLDVIEW
 70
     1
  9
$SHADEDGE
 70
     3
  9
$SHADEDIF
 70
    70
  9
$TILEMODE
 70
     1
  9
$MAXACTVP
 70
    16
  9
$PINSBASE
 10
0.0
 20
0.0
 30
0.0
  9
$PLIMCHECK
 70
     0
  9
$PEXTMIN
 10
1.000000000000000E+20
 20
1.000000000000000E+20
 30
1.000000000000000E+20
  9
$PEXTMAX
 10
-1.000000000000000E+20
 20
-1.000000000000000E+20
 30
-1.000000000000000E+20
  9
$PLIMMIN
 10
0.0
 20
0.0
  9
$PLIMMAX
 10
12.0
 20
9.0
  9
$UNITMODE
 70
     0
  9
$VISRETAIN
 70
     0
  9
$PLINEGEN
 70
     0
  9
$PSLTSCALE
 70
     1
  9
$TREEDEPTH
 70
  3020
  9
$CMLSTYLE
  2
STANDARD
  9
$CMLJUST
 70
     0
  9
$CMLSCALE
 40
1.0
  9
$PROXYGRAPHICS
 70
     1
  9
$MEASUREMENT
 70
     0
  9
$CELWEIGHT
370
    -1
  9
$ENDCAPS
280
     0
  9
$JOINSTYLE
280
     0
  9
$LWDISPLAY
290
     0
  9
$INSUNITS
 70
     0
  9
$HYPERLINKBASE
  1

  9
$STYLESHEET
  1
acad.ctb
  9
$XEDIT
290
     1
  9
$CEPSNTYPE
380
     0
  9
$PSTYLEMODE
290
     1
  9
$FINGERPRINTGUID
  2
{6CEC13D7-5E6F-11D6-8735-0010B50CF566}
  9
$VERSIONGUID
  2
{1CBE3162-F6D8-4CD1-AF3D-EDD65C6A0105}
  9
$EXTNAMES
290
     1
  9
$PSVPSCALE
 40
0.0
  9
$OLESTARTUP
290
     0
  0
ENDSEC
  0
SECTION
  2
CLASSES
  0
CLASS
  1
ACDBDICTIONARYWDFLT
  2
AcDbDictionaryWithDefault
  3
ObjectDBX Classes
 90
        0
280
     0
281
     0
  0
CLASS
  1
ACDBPLACEHOLDER
  2
AcDbPlaceHolder
  3
ObjectDBX Classes
 90
        0
280
     0
281
     0
  0
CLASS
  1
LAYOUT
  2
AcDbLayout
  3
ObjectDBX Classes
 90
        0
280
     0
281
     0
  0
CLASS
  1
MATERIAL
  2
AcDbMaterial
  3
ObjectDBX Classes
 90
     1024
280
     0
281
     0
  0
CLASS
  1
VISUALSTYLE
  2
AcDbVisualStyle
  3
ObjectDBX Classes
 90
     4095
280
     0
281
     0
  0
CLASS
  1
TABLESTYLE
  2
AcDbTableStyle
  3
ObjectDBX Classes
 90
     4095
280
     0
281
     0
  0
CLASS
  1
DICTIONARYVAR
  2
AcDbDictionaryVar
  3
ObjectDBX Classes
 90
        0
280
     0
281
     0
  0
CLASS
  1
SORTENTSTABLE
  2
AcDbSortentsTable
  3
ObjectDBX Classes
 90
        0
280
     0
281
     0
  0
CLASS
  1
EXACXREFPANELOBJECT
  2
ExAcXREFPanelObject
  3
EXAC_ESW
 90
     1025
280
     0
281
     0
  0
CLASS
  1
NPOCOLLECTION
  2
AcDbImpNonPersistentObjectsCollection
  3
ObjectDBX Classes
 90
     1153
280
     0
281
     0
  0
ENDSEC
  0
SECTION
  2
TABLES
  0
TABLE
  2
VPORT
  5
10A4
102
{ACAD_XDICTIONARY
360
27DD
102
}
330
0
100
AcDbSymbolTable
 70
     1
  0
VPORT
  5
26EE
330
10A4
100
AcDbSymbolTableRecord
100
AcDbViewportTableRecord
  2
*Active
 70
     0
 10
0.0
 20
0.0
 11
1.0
 21
1.0
 12
117.2786912678047
 22
85.24287598874346
 13
0.0
 23
0.0
 14
1.0
 24
1.0
 15
0.0
 25
0.0
 16
0.0
 26
0.0
 36
1.0
 17
0.0
 27
0.0
 37
0.0
 40
199.4352627618578
 41
2.153388822829964
 42
50.0
 43
0.0
 44
0.0
 50
0.0
 51
0.0
 71
     0
 72
   100
 73
     1
 74
     0
 75
     0
 76
     0
 77
     0
 78
     2
281
     0
 65
     1
110
-0.0000000000000071
120
-0.0000000000000284
130
0.0
111
1.0
121
0.0
131
0.0
112
0.0
122
1.0
132
0.0
 79
     0
146
0.0
  0
ENDTAB
  0
TABLE
  2
LTYPE
  5
10A1
330
0
100
AcDbSymbolTable
 70
     4
  0
LTYPE
  5
10AE
330
10A1
100
AcDbSymbolTableRecord
100
AcDbLinetypeTableRecord
  2
BYBLOCK
 70
     0
  3

 72
    65
 73
     0
 40
0.0
  0
LTYPE
  5
10AF
330
10A1
100
AcDbSymbolTableRecord
100
AcDbLinetypeTableRecord
  2
BYLAYER
 70
     0
  3

 72
    65
 73
     0
 40
0.0
  0
LTYPE
  5
10B0
330
10A1
100
AcDbSymbolTableRecord
100
AcDbLinetypeTableRecord
  2
CONTINUOUS
 70
     0
  3
Solid line
 72
    65
 73
     0
 40
0.0
  0
LTYPE
  5
10E3
330
10A1
100
AcDbSymbolTableRecord
100
AcDbLinetypeTableRecord
  2
HIDDEN
 70
     0
  3
__ __ __ __ __ __ __ __ __ __ __ __ __ __ __ __
 72
    65
 73
     2
 40
0.375
 49
0.25
 74
     0
 49
-0.125
 74
     0
  0
LTYPE
  5
10E4
330
10A1
100
AcDbSymbolTableRecord
100
AcDbLinetypeTableRecord
  2
CENTER
 70
     0
  3
____ _ ____ _ ____ _ ____ _ ____ _ ____ _ ____ 
 72
    65
 73
     4
 40
2.0
 49
1.25
 74
     0
 49
-0.25
 74
     0
 49
0.25
 74
     0
 49
-0.25
 74
     0
  0
LTYPE
  5
10E7
330
10A1
100
AcDbSymbolTableRecord
100
AcDbLinetypeTableRecord
  2
PHANTOM
 70
     0
  3
______  __  __  ______  __  __  ______  __  __ 
 72
    65
 73
     6
 40
2.5
 49
1.25
 74
     0
 49
-0.25
 74
     0
 49
0.25
 74
     0
 49
-0.25
 74
     0
 49
0.25
 74
     0
 49
-0.25
 74
     0
  0
ENDTAB
  0
TABLE
  2
LAYER
  5
109E
102
{ACAD_XDICTIONARY
360
271F
102
}
330
0
100
AcDbSymbolTable
 70
     3
  0
LAYER
  5
10AB
330
109E
100
AcDbSymbolTableRecord
100
AcDbLayerTableRecord
  2
0
 70
     0
 62
     7
  6
CONTINUOUS
370
    -3
390
268A
  0
LAYER
  5
10EC
330
109E
100
AcDbSymbolTableRecord
100
AcDbLayerTableRecord
  2
DEFPOINTS
 70
     0
 62
     7
  6
CONTINUOUS
290
     0
370
    -3
390
268A
  0
LAYER
  5
26D7
330
109E
100
AcDbSymbolTableRecord
100
AcDbLayerTableRecord
  2
Work Order
 70
     0
 62
     5
  6
CONTINUOUS
370
    -3
390
268A
  0
ENDTAB
  0
TABLE
  2
STYLE
  5
109F
330
0
100
AcDbSymbolTable
 70
     4
  0
STYLE
  5
10AC
330
109F
100
AcDbSymbolTableRecord
100
AcDbTextStyleTableRecord
  2
STANDARD
 70
     0
 40
0.0
 41
1.0
 50
0.0
 71
     0
 42
0.2
  3
txt
  4

  0
STYLE
  5
10E1
330
109F
100
AcDbSymbolTableRecord
100
AcDbTextStyleTableRecord
  2
ROMANS
 70
     0
 40
0.0
 41
1.0
 50
0.0
 71
     0
 42
1.768799999999999
  3
romans
  4

  0
STYLE
  5
10E2
330
109F
100
AcDbSymbolTableRecord
100
AcDbTextStyleTableRecord
  2
ROMANC
 70
     0
 40
1.5314
 41
1.0
 50
0.0
 71
     0
 42
1.768799999999999
  3
romanc
  4

  0
STYLE
  5
205C
330
109F
100
AcDbSymbolTableRecord
100
AcDbTextStyleTableRecord
  2
STYLE1
 70
     0
 40
0.0
 41
1.0
 50
0.0
 71
     0
 42
3.0954
  3
C:\Program Files\AutoCAD LT\romanc.shx
  4

  0
ENDTAB
  0
TABLE
  2
VIEW
  5
10A2
330
0
100
AcDbSymbolTable
 70
     0
  0
ENDTAB
  0
TABLE
  2
UCS
  5
10A3
330
0
100
AcDbSymbolTable
 70
     0
  0
ENDTAB
  0
TABLE
  2
APPID
  5
10A5
330
0
100
AcDbSymbolTable
 70
     2
  0
APPID
  5
10AD
330
10A5
100
AcDbSymbolTableRecord
100
AcDbRegAppTableRecord
  2
ACAD
 70
     0
  0
APPID
  5
2717
330
10A5
100
AcDbSymbolTableRecord
100
AcDbRegAppTableRecord
  2
ACAD_PSEXT
 70
     0
  0
ENDTAB
  0
TABLE
  2
DIMSTYLE
  5
10A6
330
0
100
AcDbSymbolTable
 70
     3
100
AcDbDimStyleTable
 71
     1
340
10EA
  0
DIMSTYLE
105
10EA
102
{ACAD_REACTORS
330
D2C
102
}
330
10A6
100
AcDbSymbolTableRecord
100
AcDbDimStyleTableRecord
  2
STANDARD
 70
     0
 40
22.0
 41
0.0625
 43
0.375
 44
0.0625
 78
     3
140
0.0804
141
0.0625
147
0.0625
276
     2
277
     4
279
     2
340
10E1
  0
DIMSTYLE
105
1327
330
10A6
100
AcDbSymbolTableRecord
100
AcDbDimStyleTableRecord
  2
STANDARD$2
 70
     0
 40
22.0
 41
0.0625
 43
0.375
 44
0.0625
 78
     3
140
0.0804
141
0.0625
147
0.0625
271
     0
272
     0
276
     2
277
     4
279
     2
340
10E1
  0
DIMSTYLE
105
2765
102
{ACAD_REACTORS
330
2784
330
27FC
330
2814
330
2822
330
28BF
102
}
330
10A6
100
AcDbSymbolTableRecord
100
AcDbDimStyleTableRecord
  2
STANDARD$0
 70
     0
 40
24.0
 41
0.0625
 43
0.375
 44
0.0625
 78
     3
140
0.0804
141
0.0625
147
0.0625
276
     2
277
     4
279
     2
340
10E1
  0
ENDTAB
  0
TABLE
  2
BLOCK_RECORD
  5
109D
330
0
100
AcDbSymbolTable
 70
    20
  0
BLOCK_RECORD
  5
10B4
102
{ACAD_XDICTIONARY
360
2749
102
}
330
109D
100
AcDbSymbolTableRecord
100
AcDbBlockTableRecord
  2
*MODEL_SPACE
340
268D
  0
BLOCK_RECORD
  5
10B1
330
109D
100
AcDbSymbolTableRecord
100
AcDbBlockTableRecord
  2
*PAPER_SPACE
340
268E
  0
BLOCK_RECORD
  5
10BA
330
109D
100
AcDbSymbolTableRecord
100
AcDbBlockTableRecord
  2
*D0
340
0
  0
BLOCK_RECORD
  5
10BB
330
109D
100
AcDbSymbolTableRecord
100
AcDbBlockTableRecord
  2
*D1
340
0
  0
BLOCK_RECORD
  5
10BC
330
109D
100
AcDbSymbolTableRecord
100
AcDbBlockTableRecord
  2
*D2
340
0
  0
BLOCK_RECORD
  5
10BD
330
109D
100
AcDbSymbolTableRecord
100
AcDbBlockTableRecord
  2
*D3
340
0
  0
BLOCK_RECORD
  5
10BE
330
109D
100
AcDbSymbolTableRecord
100
AcDbBlockTableRecord
  2
*D4
340
0
  0
BLOCK_RECORD
  5
10BF
330
109D
100
AcDbSymbolTableRecord
100
AcDbBlockTableRecord
  2
*D5
340
0
  0
BLOCK_RECORD
  5
10C0
330
109D
100
AcDbSymbolTableRecord
100
AcDbBlockTableRecord
  2
*D6
340
0
  0
BLOCK_RECORD
  5
10C1
330
109D
100
AcDbSymbolTableRecord
100
AcDbBlockTableRecord
  2
*D7
340
0
  0
BLOCK_RECORD
  5
10C5
330
109D
100
AcDbSymbolTableRecord
100
AcDbBlockTableRecord
  2
*D8
340
0
  0
BLOCK_RECORD
  5
10C6
330
109D
100
AcDbSymbolTableRecord
100
AcDbBlockTableRecord
  2
*D9
340
0
  0
BLOCK_RECORD
  5
10CD
330
109D
100
AcDbSymbolTableRecord
100
AcDbBlockTableRecord
  2
LINETYPE
340
0
102
{BLKREFS
331
D23
331
D34
331
EEE
331
EF4
331
207A
102
}
  0
BLOCK_RECORD
  5
1B87
330
109D
100
AcDbSymbolTableRecord
100
AcDbBlockTableRecord
  2
*D11
340
0
  0
BLOCK_RECORD
  5
2184
330
109D
100
AcDbSymbolTableRecord
100
AcDbBlockTableRecord
  2
*X12
340
0
102
{BLKREFS
331
23E4
102
}
  0
BLOCK_RECORD
  5
23D1
330
109D
100
AcDbSymbolTableRecord
100
AcDbBlockTableRecord
  2
BORDER
340
0
102
{BLKREFS
331
2490
102
}
  0
BLOCK_RECORD
  5
2766
102
{ACAD_XDICTIONARY
360
276D
102
}
330
109D
100
AcDbSymbolTableRecord
100
AcDbBlockTableRecord
  2
A$C7EC6243C
340
0
  0
BLOCK_RECORD
  5
2785
330
109D
100
AcDbSymbolTableRecord
100
AcDbBlockTableRecord
  2
*D15
340
0
  0
BLOCK_RECORD
  5
27FD
330
109D
100
AcDbSymbolTableRecord
100
AcDbBlockTableRecord
  2
*D16
340
0
  0
BLOCK_RECORD
  5
2815
330
109D
100
AcDbSymbolTableRecord
100
AcDbBlockTableRecord
  2
*D17
340
0
  0
BLOCK_RECORD
  5
2823
330
109D
100
AcDbSymbolTableRecord
100
AcDbBlockTableRecord
  2
*D18
340
0
  0
BLOCK_RECORD
  5
28C0
330
109D
100
AcDbSymbolTableRecord
100
AcDbBlockTableRecord
  2
*D19
340
0
  0
ENDTAB
  0
ENDSEC
  0
SECTION
  2
BLOCKS
  0
BLOCK
  5
10EF
330
10B4
100
AcDbEntity
  8
0
100
AcDbBlockBegin
  2
*MODEL_SPACE
 70
     0
 10
0.0
 20
0.0
 30
0.0
  3
*MODEL_SPACE
  1

  0
ENDBLK
  5
10F0
330
10B4
100
AcDbEntity
  8
0
100
AcDbBlockEnd
  0
BLOCK
  5
10ED
330
10B1
100
AcDbEntity
 67
     1
  8
0
100
AcDbBlockBegin
  2
*PAPER_SPACE
 70
     0
 10
0.0
 20
0.0
 30
0.0
  3
*PAPER_SPACE
  1

  0
ENDBLK
  5
10EE
330
10B1
100
AcDbEntity
 67
     1
  8
0
100
AcDbBlockEnd
  0
BLOCK
  5
133
330
10BA
100
AcDbEntity
  8
0
100
AcDbBlockBegin
  2
*D0
 70
     1
 10
0.0
 20
0.0
 30
0.0
  3
*D0
  1

  0
LINE
  5
134
330
10BA
100
AcDbEntity
  8
0
  6
ByBlock
 62
     0
100
AcDbLine
 10
24.64994438702031
 20
155.3253603633654
 30
0.0
 11
24.64994438702031
 21
150.9240525441493
 31
0.0
  0
LINE
  5
135
330
10BA
100
AcDbEntity
  8
0
  6
ByBlock
 62
     0
100
AcDbLine
 10
-1.350055612979691
 20
155.3253603633654
 30
0.0
 11
-1.350055612979691
 21
150.9240525441493
 31
0.0
  0
LINE
  5
136
330
10BA
100
AcDbEntity
  8
0
  6
ByBlock
 62
     0
100
AcDbLine
 10
23.27494438702031
 20
152.2990525441493
 30
0.0
 11
14.92008724416316
 21
152.2990525441493
 31
0.0
  0
LINE
  5
137
330
10BA
100
AcDbEntity
  8
0
  6
ByBlock
 62
     0
100
AcDbLine
 10
0.0249443870203088
 20
152.2990525441493
 30
0.0
 11
8.379801529877454
 21
152.2990525441493
 31
0.0
  0
SOLID
  5
138
330
10BA
100
AcDbEntity
  8
0
  6
ByBlock
 62
     0
100
AcDbTrace
 10
23.27494438702031
 20
152.528219210816
 30
0.0
 11
23.27494438702031
 21
152.0698858774827
 31
0.0
 12
24.64994438702031
 22
152.2990525441493
 32
0.0
 13
24.64994438702031
 23
152.2990525441493
 33
0.0
  0
SOLID
  5
139
330
10BA
100
AcDbEntity
  8
0
  6
ByBlock
 62
     0
100
AcDbTrace
 10
0.0249443870203088
 20
152.528219210816
 30
0.0
 11
0.0249443870203088
 21
152.0698858774827
 31
0.0
 12
-1.350055612979691
 22
152.2990525441493
 32
0.0
 13
-1.350055612979691
 23
152.2990525441493
 33
0.0
  0
TEXT
  5
13A
330
10BA
100
AcDbEntity
  8
0
  6
ByBlock
 62
     0
100
AcDbText
 10
9.333658672734596
 20
151.4146525441493
 30
0.0
 40
1.768799999999999
  1
26"
  7
ROMANS
 72
     1
 11
11.64994438702031
 21
152.2990525441493
 31
0.0
100
AcDbText
 73
     2
  0
POINT
  5
13B
330
10BA
100
AcDbEntity
  8
DEFPOINTS
  6
ByBlock
 62
     0
100
AcDbPoint
 10
24.64994438702031
 20
156.7003603633654
 30
0.0
  0
POINT
  5
13C
330
10BA
100
AcDbEntity
  8
DEFPOINTS
  6
ByBlock
 62
     0
100
AcDbPoint
 10
-1.350055612979691
 20
156.7003603633654
 30
0.0
  0
POINT
  5
13D
330
10BA
100
AcDbEntity
  8
DEFPOINTS
  6
ByBlock
 62
     0
100
AcDbPoint
 10
-1.350055612979691
 20
152.2990525441493
 30
0.0
  0
ENDBLK
  5
13E
330
10BA
100
AcDbEntity
  8
0
100
AcDbBlockEnd
  0
BLOCK
  5
13F
330
10BB
100
AcDbEntity
  8
0
100
AcDbBlockBegin
  2
*D1
 70
     1
 10
0.0
 20
0.0
 30
0.0
  3
*D1
  1

  0
LINE
  5
140
330
10BB
100
AcDbEntity
  8
0
  6
ByBlock
 62
     0
100
AcDbLine
 10
234.1993769133897
 20
56.94941617678468
 30
0.0
 11
244.5995185220583
 21
56.94941617678468
 31
0.0
  0
LINE
  5
141
330
10BB
100
AcDbEntity
  8
0
  6
ByBlock
 62
     0
100
AcDbLine
 10
237.7660550598506
 20
64.82441617678468
 30
0.0
 11
244.5995185220583
 21
64.82441617678468
 31
0.0
  0
LINE
  5
142
330
10BB
100
AcDbEntity
  8
0
  6
ByBlock
 62
     0
100
AcDbLine
 10
243.2245185220583
 20
55.57441617678468
 30
0.0
 11
243.2245185220583
 21
54.19941617678468
 31
0.0
  0
LINE
  5
143
330
10BB
100
AcDbEntity
  8
0
  6
ByBlock
 62
     0
100
AcDbLine
 10
243.2245185220583
 20
66.19941617678468
 30
0.0
 11
243.2245185220583
 21
67.57441617678468
 31
0.0
  0
SOLID
  5
144
330
10BB
100
AcDbEntity
  8
0
  6
ByBlock
 62
     0
100
AcDbTrace
 10
242.9953518553916
 20
55.57441617678468
 30
0.0
 11
243.4536851887249
 21
55.57441617678468
 31
0.0
 12
243.2245185220583
 22
56.94941617678468
 32
0.0
 13
243.2245185220583
 23
56.94941617678468
 33
0.0
  0
SOLID
  5
145
330
10BB
100
AcDbEntity
  8
0
  6
ByBlock
 62
     0
100
AcDbTrace
 10
242.9953518553916
 20
66.19941617678468
 30
0.0
 11
243.4536851887249
 21
66.19941617678468
 31
0.0
 12
243.2245185220583
 22
64.82441617678468
 32
0.0
 13
243.2245185220583
 23
64.82441617678468
 33
0.0
  0
TEXT
  5
146
330
10BB
100
AcDbEntity
  8
0
  6
ByBlock
 62
     0
100
AcDbText
 10
237.9181185220583
 20
60.00251617678468
 30
0.0
 40
1.768799999999999
  1
1-1/8"
  7
ROMANS
 72
     1
 11
243.2245185220583
 21
60.88691617678468
 31
0.0
100
AcDbText
 73
     2
  0
POINT
  5
147
330
10BB
100
AcDbEntity
  8
DEFPOINTS
  6
ByBlock
 62
     0
100
AcDbPoint
 10
232.8243769133897
 20
56.94941617678468
 30
0.0
  0
POINT
  5
148
330
10BB
100
AcDbEntity
  8
DEFPOINTS
  6
ByBlock
 62
     0
100
AcDbPoint
 10
236.3910550598506
 20
64.82441617678468
 30
0.0
  0
POINT
  5
149
330
10BB
100
AcDbEntity
  8
DEFPOINTS
  6
ByBlock
 62
     0
100
AcDbPoint
 10
243.2245185220583
 20
64.82441617678468
 30
0.0
  0
ENDBLK
  5
14A
330
10BB
100
AcDbEntity
  8
0
100
AcDbBlockEnd
  0
BLOCK
  5
14B
330
10BC
100
AcDbEntity
  8
0
100
AcDbBlockBegin
  2
*D2
 70
     1
 10
0.0
 20
0.0
 30
0.0
  3
*D2
  1

  0
LINE
  5
14C
330
10BC
100
AcDbEntity
  8
0
  6
ByBlock
 62
     0
100
AcDbLine
 10
201.201888280017
 20
53.82441617678468
 30
0.0
 11
201.201888280017
 21
48.40298049971472
 31
0.0
  0
LINE
  5
14D
330
10BC
100
AcDbEntity
  8
0
  6
ByBlock
 62
     0
100
AcDbLine
 10
229.2018882800174
 20
53.82441617678468
 30
0.0
 11
229.2018882800174
 21
48.40298049971472
 31
0.0
  0
LINE
  5
14E
330
10BC
100
AcDbEntity
  8
0
  6
ByBlock
 62
     0
100
AcDbLine
 10
202.576888280017
 20
49.77798049971472
 30
0.0
 11
212.7740311371601
 21
49.77798049971472
 31
0.0
  0
LINE
  5
14F
330
10BC
100
AcDbEntity
  8
0
  6
ByBlock
 62
     0
100
AcDbLine
 10
227.8268882800174
 20
49.77798049971472
 30
0.0
 11
217.6297454228743
 21
49.77798049971472
 31
0.0
  0
SOLID
  5
150
330
10BC
100
AcDbEntity
  8
0
  6
ByBlock
 62
     0
100
AcDbTrace
 10
202.576888280017
 20
50.00714716638138
 30
0.0
 11
202.576888280017
 21
49.54881383304805
 31
0.0
 12
201.201888280017
 22
49.77798049971472
 32
0.0
 13
201.201888280017
 23
49.77798049971472
 33
0.0
  0
SOLID
  5
151
330
10BC
100
AcDbEntity
  8
0
  6
ByBlock
 62
     0
100
AcDbTrace
 10
227.8268882800174
 20
50.00714716638138
 30
0.0
 11
227.8268882800174
 21
49.54881383304805
 31
0.0
 12
229.2018882800174
 22
49.77798049971472
 32
0.0
 13
229.2018882800174
 23
49.77798049971472
 33
0.0
  0
TEXT
  5
152
330
10BC
100
AcDbEntity
  8
0
  6
ByBlock
 62
     0
100
AcDbText
 10
213.7278882800172
 20
48.89358049971471
 30
0.0
 40
1.768799999999999
  1
4"
  7
ROMANS
 72
     1
 11
215.2018882800172
 21
49.77798049971472
 31
0.0
100
AcDbText
 73
     2
  0
POINT
  5
153
330
10BC
100
AcDbEntity
  8
DEFPOINTS
  6
ByBlock
 62
     0
100
AcDbPoint
 10
201.201888280017
 20
55.19941617678468
 30
0.0
  0
POINT
  5
154
330
10BC
100
AcDbEntity
  8
DEFPOINTS
  6
ByBlock
 62
     0
100
AcDbPoint
 10
229.2018882800174
 20
55.19941617678468
 30
0.0
  0
POINT
  5
155
330
10BC
100
AcDbEntity
  8
DEFPOINTS
  6
ByBlock
 62
     0
100
AcDbPoint
 10
229.2018882800174
 20
49.77798049971472
 30
0.0
  0
ENDBLK
  5
156
330
10BC
100
AcDbEntity
  8
0
100
AcDbBlockEnd
  0
BLOCK
  5
157
330
10BD
100
AcDbEntity
  8
0
100
AcDbBlockBegin
  2
*D3
 70
     1
 10
0.0
 20
0.0
 30
0.0
  3
*D3
  1

  0
LINE
  5
158
330
10BD
100
AcDbEntity
  8
0
  6
ByBlock
 62
     0
100
AcDbLine
 10
236.8285550598506
 20
65.76191617678468
 30
0.0
 11
236.8285550598506
 21
73.05900344984546
 31
0.0
  0
LINE
  5
159
330
10BD
100
AcDbEntity
  8
0
  6
ByBlock
 62
     0
100
AcDbLine
 10
200.233275163448
 20
65.96053702042074
 30
0.0
 11
200.233275163448
 21
73.05900344984546
 31
0.0
  0
LINE
  5
15A
330
10BD
100
AcDbEntity
  8
0
  6
ByBlock
 62
     0
100
AcDbLine
 10
235.4535550598507
 20
71.68400344984546
 30
0.0
 11
225.5071151116494
 21
71.68400344984546
 31
0.0
  0
LINE
  5
15B
330
10BD
100
AcDbEntity
  8
0
  6
ByBlock
 62
     0
100
AcDbLine
 10
201.608275163448
 20
71.68400344984546
 30
0.0
 11
211.5547151116493
 21
71.68400344984546
 31
0.0
  0
SOLID
  5
15C
330
10BD
100
AcDbEntity
  8
0
  6
ByBlock
 62
     0
100
AcDbTrace
 10
235.4535550598507
 20
71.91317011651213
 30
0.0
 11
235.4535550598507
 21
71.45483678317879
 31
0.0
 12
236.8285550598506
 22
71.68400344984546
 32
0.0
 13
236.8285550598506
 23
71.68400344984546
 33
0.0
  0
SOLID
  5
15D
330
10BD
100
AcDbEntity
  8
0
  6
ByBlock
 62
     0
100
AcDbTrace
 10
201.608275163448
 20
71.91317011651213
 30
0.0
 11
201.608275163448
 21
71.45483678317879
 31
0.0
 12
200.233275163448
 22
71.68400344984546
 32
0.0
 13
200.233275163448
 23
71.68400344984546
 33
0.0
  0
TEXT
  5
15E
330
10BD
100
AcDbEntity
  8
0
  6
ByBlock
 62
     0
100
AcDbText
 10
212.5085722545065
 20
70.79960344984546
 30
0.0
 40
1.768799999999999
  1
5-3/16"
  7
ROMANS
 72
     1
 11
218.5309151116493
 21
71.68400344984546
 31
0.0
100
AcDbText
 73
     2
  0
POINT
  5
15F
330
10BD
100
AcDbEntity
  8
DEFPOINTS
  6
ByBlock
 62
     0
100
AcDbPoint
 10
236.8285550598506
 20
64.38691617678468
 30
0.0
  0
POINT
  5
160
330
10BD
100
AcDbEntity
  8
DEFPOINTS
  6
ByBlock
 62
     0
100
AcDbPoint
 10
200.233275163448
 20
64.58553702042074
 30
0.0
  0
POINT
  5
161
330
10BD
100
AcDbEntity
  8
DEFPOINTS
  6
ByBlock
 62
     0
100
AcDbPoint
 10
200.233275163448
 20
71.68400344984546
 30
0.0
  0
ENDBLK
  5
162
330
10BD
100
AcDbEntity
  8
0
100
AcDbBlockEnd
  0
BLOCK
  5
163
330
10BE
100
AcDbEntity
  8
0
100
AcDbBlockBegin
  2
*D4
 70
     1
 10
0.0
 20
0.0
 30
0.0
  3
*D4
  1

  0
LINE
  5
164
330
10BE
100
AcDbEntity
  8
0
  6
ByBlock
 62
     0
100
AcDbLine
 10
203.1205329216021
 20
133.1509447712578
 30
0.0
 11
194.6388134771826
 21
128.2540217668314
 31
0.0
  0
LINE
  5
165
330
10BE
100
AcDbEntity
  8
0
  6
ByBlock
 62
     0
100
AcDbLine
 10
203.1205329216021
 20
143.1509447712578
 30
0.0
 11
194.6388134771826
 21
138.2540217668314
 31
0.0
  0
LINE
  5
166
330
10BE
100
AcDbEntity
  8
0
  6
ByBlock
 62
     0
100
AcDbLine
 10
196.0138134771826
 20
127.6728783869671
 30
0.0
 11
196.0138134771826
 21
126.2978783869671
 31
0.0
  0
LINE
  5
167
330
10BE
100
AcDbEntity
  8
0
  6
ByBlock
 62
     0
100
AcDbLine
 10
196.0138134771826
 20
140.4228783869671
 30
0.0
 11
196.0138134771826
 21
141.7978783869671
 31
0.0
  0
SOLID
  5
168
330
10BE
100
AcDbEntity
  8
0
  6
ByBlock
 62
     0
100
AcDbTrace
 10
195.7846468105159
 20
127.6728783869671
 30
0.0
 11
196.2429801438492
 21
127.6728783869671
 31
0.0
 12
196.0138134771826
 22
129.0478783869671
 32
0.0
 13
196.0138134771826
 23
129.0478783869671
 33
0.0
  0
SOLID
  5
169
330
10BE
100
AcDbEntity
  8
0
  6
ByBlock
 62
     0
100
AcDbTrace
 10
195.7846468105159
 20
140.4228783869671
 30
0.0
 11
196.2429801438492
 21
140.4228783869671
 31
0.0
 12
196.0138134771826
 22
139.0478783869671
 32
0.0
 13
196.0138134771826
 23
139.0478783869671
 33
0.0
  0
TEXT
  5
16A
330
10BE
100
AcDbEntity
  8
0
  6
ByBlock
 62
     0
100
AcDbText
 10
190.8337563343254
 20
133.1634783869671
 30
0.0
 40
1.768799999999999
  1
2-1/2"
  7
ROMANS
 72
     1
 11
196.0138134771826
 21
134.0478783869671
 31
0.0
100
AcDbText
 73
     2
  0
POINT
  5
16B
330
10BE
100
AcDbEntity
  8
DEFPOINTS
  6
ByBlock
 62
     0
100
AcDbPoint
 10
204.495532921602
 20
133.9448013913935
 30
0.0
  0
POINT
  5
16C
330
10BE
100
AcDbEntity
  8
DEFPOINTS
  6
ByBlock
 62
     0
100
AcDbPoint
 10
204.495532921602
 20
143.9448013913936
 30
0.0
  0
POINT
  5
16D
330
10BE
100
AcDbEntity
  8
DEFPOINTS
  6
ByBlock
 62
     0
100
AcDbPoint
 10
196.0138134771826
 20
139.0478783869671
 30
0.0
  0
ENDBLK
  5
16E
330
10BE
100
AcDbEntity
  8
0
100
AcDbBlockEnd
  0
BLOCK
  5
16F
330
10BF
100
AcDbEntity
  8
0
100
AcDbBlockBegin
  2
*D5
 70
     1
 10
0.0
 20
0.0
 30
0.0
  3
*D5
  1

  0
LINE
  5
170
330
10BF
100
AcDbEntity
  8
0
  6
ByBlock
 62
     0
100
AcDbLine
 10
199.8729376574104
 20
148.8636580115293
 30
0.0
 11
195.696959534675
 21
151.2746601048206
 31
0.0
  0
LINE
  5
171
330
10BF
100
AcDbEntity
  8
0
  6
ByBlock
 62
     0
100
AcDbLine
 10
206.8011408876859
 20
152.8636580115293
 30
0.0
 11
202.6251627649504
 21
155.2746601048206
 31
0.0
  0
LINE
  5
172
330
10BF
100
AcDbEntity
  8
0
  6
ByBlock
 62
     0
100
AcDbLine
 10
195.8811746044714
 20
149.7933034846849
 30
0.0
 11
194.6903896742677
 21
149.1058034846849
 31
0.0
  0
LINE
  5
173
330
10BF
100
AcDbEntity
  8
0
  6
ByBlock
 62
     0
100
AcDbLine
 10
205.1909476951541
 20
155.1683034846848
 30
0.0
 11
206.3817326253577
 21
155.8558034846848
 31
0.0
  0
SOLID
  5
174
330
10BF
100
AcDbEntity
  8
0
  6
ByBlock
 62
     0
100
AcDbTrace
 10
195.766591271138
 20
149.9917676397188
 30
0.0
 11
195.9957579378047
 21
149.5948393296509
 31
0.0
 12
197.071959534675
 22
150.4808034846849
 32
0.0
 13
197.071959534675
 23
150.4808034846849
 33
0.0
  0
SOLID
  5
175
330
10BF
100
AcDbEntity
  8
0
  6
ByBlock
 62
     0
100
AcDbTrace
 10
205.0763643618207
 20
155.3667676397188
 30
0.0
 11
205.3055310284874
 21
154.9698393296509
 31
0.0
 12
204.0001627649504
 22
154.4808034846848
 32
0.0
 13
204.0001627649504
 23
154.4808034846848
 33
0.0
  0
TEXT
  5
176
330
10BF
100
AcDbEntity
  8
0
  6
ByBlock
 62
     0
100
AcDbText
 10
199.0620611498127
 20
151.5964034846848
 30
0.0
 40
1.768799999999999
  1
2"
  7
ROMANS
 72
     1
 11
200.5360611498127
 21
152.4808034846848
 31
0.0
100
AcDbText
 73
     2
  0
POINT
  5
177
330
10BF
100
AcDbEntity
  8
DEFPOINTS
  6
ByBlock
 62
     0
100
AcDbPoint
 10
201.2479376574104
 20
148.0698013913936
 30
0.0
  0
POINT
  5
178
330
10BF
100
AcDbEntity
  8
DEFPOINTS
  6
ByBlock
 62
     0
100
AcDbPoint
 10
208.1761408876858
 20
152.0698013913936
 30
0.0
  0
POINT
  5
179
330
10BF
100
AcDbEntity
  8
DEFPOINTS
  6
ByBlock
 62
     0
100
AcDbPoint
 10
204.0001627649504
 20
154.4808034846848
 30
0.0
  0
ENDBLK
  5
17A
330
10BF
100
AcDbEntity
  8
0
100
AcDbBlockEnd
  0
BLOCK
  5
17B
330
10C0
100
AcDbEntity
  8
0
100
AcDbBlockBegin
  2
*D6
 70
     1
 10
0.0
 20
0.0
 30
0.0
  3
*D6
  1

  0
LINE
  5
17C
330
10C0
100
AcDbEntity
  8
0
  6
ByBlock
 62
     0
100
AcDbLine
 10
226.0056235595901
 20
143.3636580115293
 30
0.0
 11
235.0098644688789
 21
148.5622589243554
 31
0.0
  0
LINE
  5
17D
330
10C0
100
AcDbEntity
  8
0
  6
ByBlock
 62
     0
100
AcDbLine
 10
209.5511408876858
 20
152.8636580115293
 30
0.0
 11
218.5553817969745
 21
158.0622589243554
 31
0.0
  0
LINE
  5
17E
330
10C0
100
AcDbEntity
  8
0
  6
ByBlock
 62
     0
100
AcDbLine
 10
232.4440795386753
 20
148.4559023042197
 30
0.0
 11
229.3210187275478
 21
150.2590023042197
 31
0.0
  0
LINE
  5
17F
330
10C0
100
AcDbEntity
  8
0
  6
ByBlock
 62
     0
100
AcDbLine
 10
218.3711667271782
 20
156.5809023042197
 30
0.0
 11
221.4942275383056
 21
154.7778023042196
 31
0.0
  0
SOLID
  5
180
330
10C0
100
AcDbEntity
  8
0
  6
ByBlock
 62
     0
100
AcDbTrace
 10
232.5586628720086
 20
148.6543664592536
 30
0.0
 11
232.329496205342
 21
148.2574381491857
 31
0.0
 12
233.6348644688789
 22
147.7684023042197
 32
0.0
 13
233.6348644688789
 23
147.7684023042197
 33
0.0
  0
SOLID
  5
181
330
10C0
100
AcDbEntity
  8
0
  6
ByBlock
 62
     0
100
AcDbTrace
 10
218.4857500605115
 20
156.7793664592536
 30
0.0
 11
218.2565833938448
 21
156.3824381491857
 31
0.0
 12
217.1803817969745
 22
157.2684023042197
 32
0.0
 13
217.1803817969745
 23
157.2684023042197
 33
0.0
  0
TEXT
  5
182
330
10C0
100
AcDbEntity
  8
0
  6
ByBlock
 62
     0
100
AcDbText
 10
220.2275659900696
 20
151.6340023042197
 30
0.0
 40
1.768799999999999
  1
4-3/4"
  7
ROMANS
 72
     1
 11
225.4076231329267
 21
152.5184023042197
 31
0.0
100
AcDbText
 73
     2
  0
POINT
  5
183
330
10C0
100
AcDbEntity
  8
DEFPOINTS
  6
ByBlock
 62
     0
100
AcDbPoint
 10
224.6306235595902
 20
142.5698013913936
 30
0.0
  0
POINT
  5
184
330
10C0
100
AcDbEntity
  8
DEFPOINTS
  6
ByBlock
 62
     0
100
AcDbPoint
 10
208.1761408876858
 20
152.0698013913936
 30
0.0
  0
POINT
  5
185
330
10C0
100
AcDbEntity
  8
DEFPOINTS
  6
ByBlock
 62
     0
100
AcDbPoint
 10
217.1803817969745
 20
157.2684023042197
 30
0.0
  0
ENDBLK
  5
186
330
10C0
100
AcDbEntity
  8
0
100
AcDbBlockEnd
  0
BLOCK
  5
187
330
10C1
100
AcDbEntity
  8
0
100
AcDbBlockBegin
  2
*D7
 70
     1
 10
0.0
 20
0.0
 30
0.0
  3
*D7
  1

  0
LINE
  5
188
330
10C1
100
AcDbEntity
  8
0
  6
ByBlock
 62
     0
100
AcDbLine
 10
226.0056235595901
 20
123.3636580115293
 30
0.0
 11
235.0098644688789
 21
128.5622589243554
 31
0.0
  0
LINE
  5
189
330
10C1
100
AcDbEntity
  8
0
  6
ByBlock
 62
     0
100
AcDbLine
 10
226.0056235595901
 20
143.3636580115293
 30
0.0
 11
235.0098644688789
 21
148.5622589243554
 31
0.0
  0
LINE
  5
18A
330
10C1
100
AcDbEntity
  8
0
  6
ByBlock
 62
     0
100
AcDbLine
 10
233.6348644688789
 20
129.1434023042197
 30
0.0
 11
233.6348644688789
 21
135.5090023042197
 31
0.0
  0
LINE
  5
18B
330
10C1
100
AcDbEntity
  8
0
  6
ByBlock
 62
     0
100
AcDbLine
 10
233.6348644688789
 20
146.3934023042197
 30
0.0
 11
233.6348644688789
 21
140.0278023042197
 31
0.0
  0
SOLID
  5
18C
330
10C1
100
AcDbEntity
  8
0
  6
ByBlock
 62
     0
100
AcDbTrace
 10
233.4056978022123
 20
129.1434023042197
 30
0.0
 11
233.8640311355456
 21
129.1434023042197
 31
0.0
 12
233.6348644688789
 22
127.7684023042197
 32
0.0
 13
233.6348644688789
 23
127.7684023042197
 33
0.0
  0
SOLID
  5
18D
330
10C1
100
AcDbEntity
  8
0
  6
ByBlock
 62
     0
100
AcDbTrace
 10
233.4056978022123
 20
146.3934023042197
 30
0.0
 11
233.8640311355456
 21
146.3934023042197
 31
0.0
 12
233.6348644688789
 22
147.7684023042197
 32
0.0
 13
233.6348644688789
 23
147.7684023042197
 33
0.0
  0
TEXT
  5
18E
330
10C1
100
AcDbEntity
  8
0
  6
ByBlock
 62
     0
100
AcDbText
 10
232.160864468879
 20
136.8840023042197
 30
0.0
 40
1.768799999999999
  1
5"
  7
ROMANS
 72
     1
 11
233.6348644688789
 21
137.7684023042197
 31
0.0
100
AcDbText
 73
     2
  0
POINT
  5
18F
330
10C1
100
AcDbEntity
  8
DEFPOINTS
  6
ByBlock
 62
     0
100
AcDbPoint
 10
224.6306235595902
 20
122.5698013913935
 30
0.0
  0
POINT
  5
190
330
10C1
100
AcDbEntity
  8
DEFPOINTS
  6
ByBlock
 62
     0
100
AcDbPoint
 10
224.6306235595902
 20
142.5698013913936
 30
0.0
  0
POINT
  5
191
330
10C1
100
AcDbEntity
  8
DEFPOINTS
  6
ByBlock
 62
     0
100
AcDbPoint
 10
233.6348644688789
 20
147.7684023042197
 30
0.0
  0
ENDBLK
  5
192
330
10C1
100
AcDbEntity
  8
0
100
AcDbBlockEnd
  0
BLOCK
  5
1B7
330
10C5
100
AcDbEntity
  8
0
100
AcDbBlockBegin
  2
*D8
 70
     1
 10
0.0
 20
0.0
 30
0.0
  3
*D8
  1

  0
LINE
  5
1B8
330
10C5
100
AcDbEntity
  8
0
  6
ByBlock
 62
     0
100
AcDbLine
 10
223.7645981558058
 20
120.4820881511221
 30
0.0
 11
223.7645981558058
 21
116.3993979494574
 31
0.0
  0
LINE
  5
1B9
330
10C5
100
AcDbEntity
  8
0
  6
ByBlock
 62
     0
100
AcDbLine
 10
224.6306235595902
 20
120.9820881511221
 30
0.0
 11
224.6306235595902
 21
116.8993979494574
 31
0.0
  0
LINE
  5
1BA
330
10C5
100
AcDbEntity
  8
0
  6
ByBlock
 62
     0
100
AcDbLine
 10
222.5738132256022
 20
117.2996111897289
 30
0.0
 11
221.3830282953987
 21
116.6121111897289
 31
0.0
  0
LINE
  5
1BB
330
10C5
100
AcDbEntity
  8
0
  6
ByBlock
 62
     0
100
AcDbLine
 10
225.8214084897939
 20
119.1746111897289
 30
0.0
 11
227.0121934199975
 21
119.8621111897289
 31
0.0
  0
LINE
  5
1BC
330
10C5
100
AcDbEntity
  8
0
  6
ByBlock
 62
     0
100
AcDbLine
 10
227.0121934199975
 20
119.8621111897289
 30
0.0
 11
228.3871934199975
 21
119.8621111897289
 31
0.0
  0
SOLID
  5
1BD
330
10C5
100
AcDbEntity
  8
0
  6
ByBlock
 62
     0
100
AcDbTrace
 10
222.4592298922689
 20
117.4980753447628
 30
0.0
 11
222.6883965589356
 21
117.101147034695
 31
0.0
 12
223.7645981558058
 22
117.9871111897289
 32
0.0
 13
223.7645981558058
 23
117.9871111897289
 33
0.0
  0
SOLID
  5
1BE
330
10C5
100
AcDbEntity
  8
0
  6
ByBlock
 62
     0
100
AcDbTrace
 10
225.7068251564605
 20
119.3730753447628
 30
0.0
 11
225.9359918231272
 21
118.976147034695
 31
0.0
 12
224.6306235595902
 22
118.4871111897289
 32
0.0
 13
224.6306235595902
 23
118.4871111897289
 33
0.0
  0
TEXT
  5
1BF
330
10C5
100
AcDbEntity
  8
0
  6
ByBlock
 62
     0
100
AcDbText
 10
229.0883648485689
 20
118.9777111897289
 30
0.0
 40
1.768799999999999
  1
1/4"
  7
ROMANS
 72
     1
 11
232.4575077057117
 21
119.8621111897289
 31
0.0
100
AcDbText
 73
     2
  0
POINT
  5
1C0
330
10C5
100
AcDbEntity
  8
DEFPOINTS
  6
ByBlock
 62
     0
100
AcDbPoint
 10
223.7645981558058
 20
122.0698013913936
 30
0.0
  0
POINT
  5
1C1
330
10C5
100
AcDbEntity
  8
DEFPOINTS
  6
ByBlock
 62
     0
100
AcDbPoint
 10
224.6306235595902
 20
122.5698013913936
 30
0.0
  0
POINT
  5
1C2
330
10C5
100
AcDbEntity
  8
DEFPOINTS
  6
ByBlock
 62
     0
100
AcDbPoint
 10
224.6306235595902
 20
118.4871111897289
 30
0.0
  0
ENDBLK
  5
1C3
330
10C5
100
AcDbEntity
  8
0
100
AcDbBlockEnd
  0
BLOCK
  5
1C4
330
10C6
100
AcDbEntity
  8
0
100
AcDbBlockBegin
  2
*D9
 70
     1
 10
0.0
 20
0.0
 30
0.0
  3
*D9
  1

  0
LINE
  5
1C5
330
10C6
100
AcDbEntity
  8
0
  6
ByBlock
 62
     0
100
AcDbLine
 10
70.6317948147995
 20
117.3291518872195
 30
0.0
 11
74.01309779558822
 21
117.3291518872195
 31
0.0
  0
LINE
  5
1C6
330
10C6
100
AcDbEntity
  8
0
  6
ByBlock
 62
     0
100
AcDbLine
 10
69.63179481479951
 20
119.8291518872196
 30
0.0
 11
74.01309779558822
 21
119.8291518872196
 31
0.0
  0
LINE
  5
1C7
330
10C6
100
AcDbEntity
  8
0
  6
ByBlock
 62
     0
100
AcDbLine
 10
72.63809779558823
 20
115.9541518872196
 30
0.0
 11
72.63809779558823
 21
114.5791518872196
 31
0.0
  0
LINE
  5
1C8
330
10C6
100
AcDbEntity
  8
0
  6
ByBlock
 62
     0
100
AcDbLine
 10
72.63809779558823
 20
121.2041518872196
 30
0.0
 11
72.63809779558823
 21
122.5791518872195
 31
0.0
  0
LINE
  5
1C9
330
10C6
100
AcDbEntity
  8
0
  6
ByBlock
 62
     0
100
AcDbLine
 10
72.63809779558823
 20
122.5791518872195
 30
0.0
 11
74.01309779558822
 21
122.5791518872195
 31
0.0
  0
SOLID
  5
1CA
330
10C6
100
AcDbEntity
  8
0
  6
ByBlock
 62
     0
100
AcDbTrace
 10
72.40893112892155
 20
115.9541518872196
 30
0.0
 11
72.8672644622549
 21
115.9541518872196
 31
0.0
 12
72.63809779558823
 22
117.3291518872195
 32
0.0
 13
72.63809779558823
 23
117.3291518872195
 33
0.0
  0
SOLID
  5
1CB
330
10C6
100
AcDbEntity
  8
0
  6
ByBlock
 62
     0
100
AcDbTrace
 10
72.40893112892155
 20
121.2041518872196
 30
0.0
 11
72.8672644622549
 21
121.2041518872196
 31
0.0
 12
72.63809779558823
 22
119.8291518872196
 32
0.0
 13
72.63809779558823
 23
119.8291518872196
 33
0.0
  0
TEXT
  5
1CC
330
10C6
100
AcDbEntity
  8
0
  6
ByBlock
 62
     0
100
AcDbText
 10
74.96695493844537
 20
121.6947518872196
 30
0.0
 40
1.768799999999999
  1
2-1/2"
  7
ROMANS
 72
     1
 11
80.14701208130251
 21
122.5791518872195
 31
0.0
100
AcDbText
 73
     2
  0
POINT
  5
1CD
330
10C6
100
AcDbEntity
  8
DEFPOINTS
  6
ByBlock
 62
     0
100
AcDbPoint
 10
69.2567948147995
 20
117.3291518872195
 30
0.0
  0
POINT
  5
1CE
330
10C6
100
AcDbEntity
  8
DEFPOINTS
  6
ByBlock
 62
     0
100
AcDbPoint
 10
68.25679481479951
 20
119.8291518872196
 30
0.0
  0
POINT
  5
1CF
330
10C6
100
AcDbEntity
  8
DEFPOINTS
  6
ByBlock
 62
     0
100
AcDbPoint
 10
72.63809779558823
 20
119.8291518872196
 30
0.0
  0
ENDBLK
  5
1D0
330
10C6
100
AcDbEntity
  8
0
100
AcDbBlockEnd
  0
BLOCK
  5
22B
330
10CD
100
AcDbEntity
  8
0
100
AcDbBlockBegin
  2
LINETYPE
 70
     0
 10
0.0
 20
0.0
 30
0.0
  3
LINETYPE
  1

  0
ENDBLK
  5
22C
330
10CD
100
AcDbEntity
  8
0
100
AcDbBlockEnd
  0
BLOCK
  5
1B88
330
1B87
100
AcDbEntity
  8
0
100
AcDbBlockBegin
  2
*D11
 70
     1
 10
0.0
 20
0.0
 30
0.0
  3
*D11
  1

  0
LINE
  5
1B89
330
1B87
100
AcDbEntity
  8
0
  6
ByBlock
 62
     0
100
AcDbLine
 10
163.4149139321551
 20
125.8452619539418
 30
0.0
 11
176.3125257828865
 21
125.8452619539418
 31
0.0
  0
LINE
  5
1B8A
330
1B87
100
AcDbEntity
  8
0
  6
ByBlock
 62
     0
100
AcDbLine
 10
163.1149139321551
 20
167.8452619539418
 30
0.0
 11
176.3125257828865
 21
167.8452619539418
 31
0.0
  0
LINE
  5
1B8B
330
1B87
100
AcDbEntity
  8
0
  6
ByBlock
 62
     0
100
AcDbLine
 10
174.9375257828865
 20
127.2202619539418
 30
0.0
 11
174.9375257828865
 21
144.4174048110847
 31
0.0
  0
LINE
  5
1B8C
330
1B87
100
AcDbEntity
  8
0
  6
ByBlock
 62
     0
100
AcDbLine
 10
174.9375257828865
 20
166.4702619539418
 30
0.0
 11
174.9375257828865
 21
149.2731190967989
 31
0.0
  0
SOLID
  5
1B8D
330
1B87
100
AcDbEntity
  8
0
  6
ByBlock
 62
     0
100
AcDbTrace
 10
174.7083591162198
 20
127.2202619539418
 30
0.0
 11
175.1666924495531
 21
127.2202619539418
 31
0.0
 12
174.9375257828865
 22
125.8452619539418
 32
0.0
 13
174.9375257828865
 23
125.8452619539418
 33
0.0
  0
SOLID
  5
1B8E
330
1B87
100
AcDbEntity
  8
0
  6
ByBlock
 62
     0
100
AcDbTrace
 10
174.7083591162198
 20
166.4702619539418
 30
0.0
 11
175.1666924495531
 21
166.4702619539418
 31
0.0
 12
174.9375257828865
 22
167.8452619539418
 32
0.0
 13
174.9375257828865
 23
167.8452619539418
 33
0.0
  0
MTEXT
  5
1B8F
330
1B87
100
AcDbEntity
  8
0
  6
ByBlock
 62
     0
100
AcDbMText
 10
174.9375257828865
 20
146.8452619539418
 30
0.0
 40
1.768799999999999
 41
0.0
 71
     5
 72
     5
  1
\A1;42"
  7
ROMANS
 73
     1
 44
1.0
1001
ACAD
1000
MTEXTBEGIN
1070
    73
1070
     1
1070
    44
1040
1.0
1070
    74
1070
     0
1000
MTEXTEND
  0
POINT
  5
1B90
330
1B87
100
AcDbEntity
  8
DEFPOINTS
  6
ByBlock
 62
     0
100
AcDbPoint
 10
162.0399139321551
 20
125.8452619539418
 30
0.0
  0
POINT
  5
1B91
330
1B87
100
AcDbEntity
  8
DEFPOINTS
  6
ByBlock
 62
     0
100
AcDbPoint
 10
161.7399139321551
 20
167.8452619539418
 30
0.0
  0
POINT
  5
1B92
330
1B87
100
AcDbEntity
  8
DEFPOINTS
  6
ByBlock
 62
     0
100
AcDbPoint
 10
174.9375257828865
 20
167.8452619539418
 30
0.0
  0
ENDBLK
  5
1B93
330
1B87
100
AcDbEntity
  8
0
100
AcDbBlockEnd
  0
BLOCK
  5
23CF
330
2184
100
AcDbEntity
  8
0
100
AcDbBlockBegin
  2
*X12
 70
     1
 10
0.0
 20
0.0
 30
0.0
  3
*X12
  1

  0
LINE
  5
2185
330
2184
100
AcDbEntity
  8
0
 62
     0
100
AcDbLine
 10
-39.38783740946116
 20
-279.4947837961181
 30
0.0
 11
-38.65407559127778
 21
-278.7610219779348
 31
0.0
  0
LINE
  5
2186
330
2184
100
AcDbEntity
  8
0
 62
     0
100
AcDbLine
 10
-39.50054631068232
 20
-279.4749101758668
 30
0.0
 11
-38.76678449249896
 21
-278.7411483576835
 31
0.0
  0
LINE
  5
2187
330
2184
100
AcDbEntity
  8
0
 62
     0
100
AcDbLine
 10
-39.61325521190351
 20
-279.4550365556156
 30
0.0
 11
-38.87949339372014
 21
-278.7212747374322
 31
0.0
  0
LINE
  5
2188
330
2184
100
AcDbEntity
  8
0
 62
     0
100
AcDbLine
 10
-39.7259641131247
 20
-279.4351629353642
 30
0.0
 11
-38.99220229494132
 21
-278.7014011171809
 31
0.0
  0
LINE
  5
2189
330
2184
100
AcDbEntity
  8
0
 62
     0
100
AcDbLine
 10
-39.83867301434587
 20
-279.415289315113
 30
0.0
 11
-39.1049111961625
 21
-278.6815274969296
 31
0.0
  0
LINE
  5
218A
330
2184
100
AcDbEntity
  8
0
 62
     0
100
AcDbLine
 10
-39.95138191556705
 20
-279.3954156948617
 30
0.0
 11
-39.21762009738368
 21
-278.6616538766783
 31
0.0
  0
LINE
  5
218B
330
2184
100
AcDbEntity
  8
0
 62
     0
100
AcDbLine
 10
-40.06409081678821
 20
-279.3755420746104
 30
0.0
 11
-39.33032899860484
 21
-278.641780256427
 31
0.0
  0
LINE
  5
218C
330
2184
100
AcDbEntity
  8
0
 62
     0
100
AcDbLine
 10
-40.1767997180094
 20
-279.3556684543591
 30
0.0
 11
-40.06372011526283
 21
-279.2425888516125
 31
0.0
  0
LINE
  5
218D
330
2184
100
AcDbEntity
  8
0
 62
     0
100
AcDbLine
 10
-39.89688315430998
 20
-279.0757518906596
 30
0.0
 11
-39.44303789982602
 21
-278.6219066361756
 31
0.0
  0
LINE
  5
218E
330
2184
100
AcDbEntity
  8
0
 62
     0
100
AcDbLine
 10
-40.06372011526283
 20
-279.2425888516125
 30
0.0
 11
-39.89688315430998
 21
-279.0757518906597
 31
0.0
  0
LINE
  5
218F
330
2184
100
AcDbEntity
  8
0
 62
     0
100
AcDbLine
 10
-40.28950861923056
 20
-279.3357948341077
 30
0.0
 11
-40.10500766087813
 21
-279.1512938757553
 31
0.0
  0
LINE
  5
2190
330
2184
100
AcDbEntity
  8
0
 62
     0
100
AcDbLine
 10
-39.94078059974761
 20
-278.9870668146248
 30
0.0
 11
-39.5557468010472
 21
-278.6020330159244
 31
0.0
  0
LINE
  5
2191
330
2184
100
AcDbEntity
  8
0
 62
     0
100
AcDbLine
 10
-40.10500766087811
 20
-279.1512938757553
 30
0.0
 11
-39.9407805997476
 21
-278.9870668146248
 31
0.0
  0
LINE
  5
2192
330
2184
100
AcDbEntity
  8
0
 62
     0
100
AcDbLine
 10
-40.36990717715883
 20
-279.2836108705636
 30
0.0
 11
-40.1462952064934
 21
-279.0599988998982
 31
0.0
  0
LINE
  5
2193
330
2184
100
AcDbEntity
  8
0
 62
     0
100
AcDbLine
 10
-39.98467804518519
 20
-278.8983817385899
 30
0.0
 11
-39.66845570226838
 21
-278.5821593956731
 31
0.0
  0
LINE
  5
2194
330
2184
100
AcDbEntity
  8
0
 62
     0
100
AcDbLine
 10
-40.14629520649338
 20
-279.0599988998981
 30
0.0
 11
-39.98467804518524
 21
-278.89838173859
 31
0.0
  0
LINE
  5
2195
330
2184
100
AcDbEntity
  8
0
 62
     0
100
AcDbLine
 10
-40.32903303677044
 20
-279.1101542087027
 30
0.0
 11
-40.18758275210868
 21
-278.968703924041
 31
0.0
  0
LINE
  5
2196
330
2184
100
AcDbEntity
  8
0
 62
     0
100
AcDbLine
 10
-40.02857549062279
 20
-278.8096966625551
 30
0.0
 11
-39.78116460348956
 21
-278.5622857754218
 31
0.0
  0
LINE
  5
2197
330
2184
100
AcDbEntity
  8
0
 62
     0
100
AcDbLine
 10
-40.18758275210866
 20
-278.9687039240409
 30
0.0
 11
-40.02857549062286
 21
-278.8096966625551
 31
0.0
  0
LINE
  5
2198
330
2184
100
AcDbEntity
  8
0
 62
     0
100
AcDbLine
 10
-40.28815889638206
 20
-278.9366975468419
 30
0.0
 11
-40.22887029772395
 21
-278.8774089481838
 31
0.0
  0
LINE
  5
2199
330
2184
100
AcDbEntity
  8
0
 62
     0
100
AcDbLine
 10
-40.07247293606041
 20
-278.7210115865202
 30
0.0
 11
-39.89387350471074
 21
-278.5424121551705
 31
0.0
  0
LINE
  5
219A
330
2184
100
AcDbEntity
  8
0
 62
     0
100
AcDbLine
 10
-40.22887029772394
 20
-278.8774089481837
 30
0.0
 11
-40.07247293606049
 21
-278.7210115865203
 31
0.0
  0
LINE
  5
219B
330
2184
100
AcDbEntity
  8
0
 62
     0
100
AcDbLine
 10
-40.27015784333923
 20
-278.7861139723266
 30
0.0
 11
-40.11637038149812
 21
-278.6323265104854
 31
0.0
  0
LINE
  5
219C
330
2184
100
AcDbEntity
  8
0
 62
     0
100
AcDbLine
 10
-40.116370381498
 20
-278.6323265104853
 30
0.0
 11
-40.00658240593192
 21
-278.5225385349192
 31
0.0
  0
LINE
  5
219D
330
2184
100
AcDbEntity
  8
0
 62
     0
100
AcDbLine
 10
-40.31144538895452
 20
-278.6948189964694
 30
0.0
 11
-40.30692854477254
 21
-278.6903021522874
 31
0.0
  0
LINE
  5
219E
330
2184
100
AcDbEntity
  8
0
 62
     0
100
AcDbLine
 10
-39.69215944246978
 20
-278.0755330499846
 30
0.0
 11
-39.59237083622737
 21
-277.9757444437422
 31
0.0
  0
LINE
  5
219F
330
2184
100
AcDbEntity
  8
0
 62
     0
100
AcDbLine
 10
-40.30692854477248
 20
-278.6903021522873
 30
0.0
 11
-40.20641061560525
 21
-278.5897842231201
 31
0.0
  0
LINE
  5
21A0
330
2184
100
AcDbEntity
  8
0
 62
     0
100
AcDbLine
 10
-40.16017812122486
 20
-278.5435517287397
 30
0.0
 11
-40.11929130715309
 21
-278.5026649146679
 31
0.0
  0
LINE
  5
21A1
330
2184
100
AcDbEntity
  8
0
 62
     0
100
AcDbLine
 10
-40.20466276288202
 20
-278.5880363703969
 30
0.0
 11
-40.16017812122502
 21
-278.5435517287398
 31
0.0
  0
LINE
  5
21A2
330
2184
100
AcDbEntity
  8
0
 62
     0
100
AcDbLine
 10
-40.41225758634928
 20
-278.6630486723916
 30
0.0
 11
-40.23018407840633
 21
-278.4809751644487
 31
0.0
  0
LINE
  5
21A3
330
2184
100
AcDbEntity
  8
0
 62
     0
100
AcDbLine
 10
-39.73691136690469
 20
-277.987702452947
 30
0.0
 11
-39.6371227606623
 21
-277.8879138467047
 31
0.0
  0
LINE
  5
21A4
330
2184
100
AcDbEntity
  8
0
 62
     0
100
AcDbLine
 10
-40.23018407840633
 20
-278.4809751644486
 30
0.0
 11
-40.20259152936932
 21
-278.4533826154117
 31
0.0
  0
LINE
  5
21A5
330
2184
100
AcDbEntity
  8
0
 62
     0
100
AcDbLine
 10
-40.57051962558798
 20
-278.6887281901577
 30
0.0
 11
-40.51758662792604
 21
-278.6357951924959
 31
0.0
  0
LINE
  5
21A6
330
2184
100
AcDbEntity
  8
0
 62
     0
100
AcDbLine
 10
-39.78166329133961
 20
-277.8998718559094
 30
0.0
 11
-39.68187468509722
 21
-277.8000832496671
 31
0.0
  0
LINE
  5
21A7
330
2184
100
AcDbEntity
  8
0
 62
     0
100
AcDbLine
 10
-40.51758662792603
 20
-278.6357951924959
 30
0.0
 11
-40.33869630383812
 21
-278.456904868408
 31
0.0
  0
LINE
  5
21A8
330
2184
100
AcDbEntity
  8
0
 62
     0
100
AcDbLine
 10
-40.33869630383812
 20
-278.456904868408
 30
0.0
 11
-40.24734345380425
 21
-278.3655520183742
 31
0.0
  0
LINE
  5
21A9
330
2184
100
AcDbEntity
  8
0
 62
     0
100
AcDbLine
 10
-40.84083440815077
 20
-278.8264604512481
 30
0.0
 11
-40.62291566950281
 21
-278.6085417126002
 31
0.0
  0
LINE
  5
21AA
330
2184
100
AcDbEntity
  8
0
 62
     0
100
AcDbLine
 10
-39.82641521577454
 20
-277.812041258872
 30
0.0
 11
-39.72662660953214
 21
-277.7122526526295
 31
0.0
  0
LINE
  5
21AB
330
2184
100
AcDbEntity
  8
0
 62
     0
100
AcDbLine
 10
-40.62291566950278
 20
-278.6085417126002
 30
0.0
 11
-40.44720852926992
 21
-278.4328345723673
 31
0.0
  0
LINE
  5
21AC
330
2184
100
AcDbEntity
  8
0
 62
     0
100
AcDbLine
 10
-40.44720852926991
 20
-278.4328345723673
 30
0.0
 11
-40.29209537823916
 21
-278.2777214213366
 31
0.0
  0
LINE
  5
21AD
330
2184
100
AcDbEntity
  8
0
 62
     0
100
AcDbLine
 10
-41.07098574326527
 20
-278.9240292648902
 30
0.0
 11
-40.96884180887604
 21
-278.821885330501
 31
0.0
  0
LINE
  5
21AE
330
2184
100
AcDbEntity
  8
0
 62
     0
100
AcDbLine
 10
-39.87116714020946
 20
-277.7242106618344
 30
0.0
 11
-39.77137853396706
 21
-277.624422055592
 31
0.0
  0
LINE
  5
21AF
330
2184
100
AcDbEntity
  8
0
 62
     0
100
AcDbLine
 10
-40.96884180887601
 20
-278.8218853305009
 30
0.0
 11
-40.72824471107957
 21
-278.5812882327045
 31
0.0
  0
LINE
  5
21B0
330
2184
100
AcDbEntity
  8
0
 62
     0
100
AcDbLine
 10
-40.55572075470169
 20
-278.4087642763266
 30
0.0
 11
-40.33684730267409
 21
-278.189890824299
 31
0.0
  0
LINE
  5
21B1
330
2184
100
AcDbEntity
  8
0
 62
     0
100
AcDbLine
 10
-40.72824471107958
 20
-278.5812882327045
 30
0.0
 11
-40.55572075470172
 21
-278.4087642763266
 31
0.0
  0
LINE
  5
21B2
330
2184
100
AcDbEntity
  8
0
 62
     0
100
AcDbLine
 10
-41.11573766770019
 20
-278.8361986678526
 30
0.0
 11
-41.01359373331094
 21
-278.7340547334634
 31
0.0
  0
LINE
  5
21B3
330
2184
100
AcDbEntity
  8
0
 62
     0
100
AcDbLine
 10
-39.91591906464438
 20
-277.6363800647968
 30
0.0
 11
-39.81613045840198
 21
-277.5365914585544
 31
0.0
  0
LINE
  5
21B4
330
2184
100
AcDbEntity
  8
0
 62
     0
100
AcDbLine
 10
-41.01359373331097
 20
-278.7340547334634
 30
0.0
 11
-40.83357375265634
 21
-278.5540347528088
 31
0.0
  0
LINE
  5
21B5
330
2184
100
AcDbEntity
  8
0
 62
     0
100
AcDbLine
 10
-40.66423298013347
 20
-278.3846939802859
 30
0.0
 11
-40.38159922710902
 21
-278.1020602272615
 31
0.0
  0
LINE
  5
21B6
330
2184
100
AcDbEntity
  8
0
 62
     0
100
AcDbLine
 10
-40.83357375265634
 20
-278.5540347528088
 30
0.0
 11
-40.66423298013349
 21
-278.384693980286
 31
0.0
  0
LINE
  5
21B7
330
2184
100
AcDbEntity
  8
0
 62
     0
100
AcDbLine
 10
-41.16048959213512
 20
-278.7483680708151
 30
0.0
 11
-41.05834565774588
 21
-278.6462241364259
 31
0.0
  0
LINE
  5
21B8
330
2184
100
AcDbEntity
  8
0
 62
     0
100
AcDbLine
 10
-39.96067098907931
 20
-277.5485494677593
 30
0.0
 11
-39.86088238283691
 21
-277.4487608615169
 31
0.0
  0
LINE
  5
21B9
330
2184
100
AcDbEntity
  8
0
 62
     0
100
AcDbLine
 10
-41.05834565774586
 20
-278.6462241364258
 30
0.0
 11
-40.93646758632097
 21
-278.524346065001
 31
0.0
  0
LINE
  5
21BA
330
2184
100
AcDbEntity
  8
0
 62
     0
100
AcDbLine
 10
-40.77274520556526
 20
-278.3606236842452
 30
0.0
 11
-40.42635115154395
 21
-278.0142296302239
 31
0.0
  0
LINE
  5
21BB
330
2184
100
AcDbEntity
  8
0
 62
     0
100
AcDbLine
 10
-40.93646758632099
 20
-278.524346065001
 30
0.0
 11
-40.77274520556528
 21
-278.3606236842453
 31
0.0
  0
LINE
  5
21BC
330
2184
100
AcDbEntity
  8
0
 62
     0
100
AcDbLine
 10
-41.20524151657004
 20
-278.6605374737775
 30
0.0
 11
-41.10309758218079
 21
-278.5583935393883
 31
0.0
  0
LINE
  5
21BD
330
2184
100
AcDbEntity
  8
0
 62
     0
100
AcDbLine
 10
-40.00542291351423
 20
-277.4607188707217
 30
0.0
 11
-39.90563430727183
 21
-277.3609302644794
 31
0.0
  0
LINE
  5
21BE
330
2184
100
AcDbEntity
  8
0
 62
     0
100
AcDbLine
 10
-41.10309758218081
 20
-278.5583935393883
 30
0.0
 11
-40.90160135388338
 21
-278.3568973110909
 31
0.0
  0
LINE
  5
21BF
330
2184
100
AcDbEntity
  8
0
 62
     0
100
AcDbLine
 10
-40.87969543086212
 20
-278.3349913880696
 30
0.0
 11
-40.47110307597886
 21
-277.9263990331864
 31
0.0
  0
LINE
  5
21C0
330
2184
100
AcDbEntity
  8
0
 62
     0
100
AcDbLine
 10
-40.9016013538834
 20
-278.3568973110909
 30
0.0
 11
-40.87969543086214
 21
-278.3349913880696
 31
0.0
  0
LINE
  5
21C1
330
2184
100
AcDbEntity
  8
0
 62
     0
100
AcDbLine
 10
-41.24999344100497
 20
-278.57270687674
 30
0.0
 11
-41.14784950661573
 21
-278.4705629423507
 31
0.0
  0
LINE
  5
21C2
330
2184
100
AcDbEntity
  8
0
 62
     0
100
AcDbLine
 10
-40.05017483794916
 20
-277.3728882736842
 30
0.0
 11
-39.95038623170675
 21
-277.2730996674417
 31
0.0
  0
LINE
  5
21C3
330
2184
100
AcDbEntity
  8
0
 62
     0
100
AcDbLine
 10
-41.14784950661571
 20
-278.4705629423507
 30
0.0
 11
-40.51585500041379
 21
-277.8385684361488
 31
0.0
  0
LINE
  5
21C4
330
2184
100
AcDbEntity
  8
0
 62
     0
100
AcDbLine
 10
-40.13520989857035
 20
-277.4579233343053
 30
0.0
 11
-40.05017483794913
 21
-277.3728882736842
 31
0.0
  0
LINE
  5
21C5
330
2184
100
AcDbEntity
  8
0
 62
     0
100
AcDbLine
 10
-41.29474536543989
 20
-278.4848762797024
 30
0.0
 11
-41.19260143105066
 21
-278.3827323453132
 31
0.0
  0
LINE
  5
21C6
330
2184
100
AcDbEntity
  8
0
 62
     0
100
AcDbLine
 10
-40.09492676238408
 20
-277.2850576766466
 30
0.0
 11
-39.99513815614167
 21
-277.1852690704042
 31
0.0
  0
LINE
  5
21C7
330
2184
100
AcDbEntity
  8
0
 62
     0
100
AcDbLine
 10
-41.19260143105065
 20
-278.3827323453131
 30
0.0
 11
-40.56060692484869
 21
-277.7507378391113
 31
0.0
  0
LINE
  5
21C8
330
2184
100
AcDbEntity
  8
0
 62
     0
100
AcDbLine
 10
-40.39402495983168
 20
-277.5841558740942
 30
0.0
 11
-40.09492676238404
 21
-277.2850576766466
 31
0.0
  0
LINE
  5
21C9
330
2184
100
AcDbEntity
  8
0
 62
     0
100
AcDbLine
 10
-41.3394972898748
 20
-278.3970456826649
 30
0.0
 11
-41.23735335548558
 21
-278.2949017482756
 31
0.0
  0
LINE
  5
21CA
330
2184
100
AcDbEntity
  8
0
 62
     0
100
AcDbLine
 10
-40.13967868681899
 20
-277.197227079609
 30
0.0
 11
-40.0398900805766
 21
-277.0974384733666
 31
0.0
  0
LINE
  5
21CB
330
2184
100
AcDbEntity
  8
0
 62
     0
100
AcDbLine
 10
-41.23735335548557
 20
-278.2949017482756
 30
0.0
 11
-40.65284002109301
 21
-277.7103884138831
 31
0.0
  0
LINE
  5
21CC
330
2184
100
AcDbEntity
  8
0
 62
     0
100
AcDbLine
 10
-40.65284002109302
 20
-277.710388413883
 30
0.0
 11
-40.33209807941335
 21
-277.3896464722034
 31
0.0
  0
LINE
  5
21CD
330
2184
100
AcDbEntity
  8
0
 62
     0
100
AcDbLine
 10
-41.38424921430973
 20
-278.3092150856273
 30
0.0
 11
-41.28210527992051
 21
-278.2070711512381
 31
0.0
  0
LINE
  5
21CE
330
2184
100
AcDbEntity
  8
0
 62
     0
100
AcDbLine
 10
-40.18443061125393
 20
-277.1093964825715
 30
0.0
 11
-40.08464200501151
 21
-277.0096078763291
 31
0.0
  0
LINE
  5
21CF
330
2184
100
AcDbEntity
  8
0
 62
     0
100
AcDbLine
 10
-41.2821052799205
 20
-278.2070711512381
 30
0.0
 11
-40.91165508235433
 21
-277.8366209536719
 31
0.0
  0
LINE
  5
21D0
330
2184
100
AcDbEntity
  8
0
 62
     0
100
AcDbLine
 10
-40.91165508235427
 20
-277.8366209536719
 30
0.0
 11
-40.60241286197611
 21
-277.5273787332937
 31
0.0
  0
LINE
  5
21D1
330
2184
100
AcDbEntity
  8
0
 62
     0
100
AcDbLine
 10
-41.42900113874467
 20
-278.2213844885897
 30
0.0
 11
-41.32685720435543
 21
-278.1192405542005
 31
0.0
  0
LINE
  5
21D2
330
2184
100
AcDbEntity
  8
0
 62
     0
100
AcDbLine
 10
-40.22918253568884
 20
-277.0215658855339
 30
0.0
 11
-40.12939392944644
 21
-276.9217772792915
 31
0.0
  0
LINE
  5
21D3
330
2184
100
AcDbEntity
  8
0
 62
     0
100
AcDbLine
 10
-41.32685720435541
 20
-278.1192405542005
 30
0.0
 11
-40.99595323982196
 21
-277.788336589667
 31
0.0
  0
LINE
  5
21D4
330
2184
100
AcDbEntity
  8
0
 62
     0
100
AcDbLine
 10
-40.87272764453877
 20
-277.6651109943838
 30
0.0
 11
-40.69486269815346
 21
-277.4872460479985
 31
0.0
  0
LINE
  5
21D5
330
2184
100
AcDbEntity
  8
0
 62
     0
100
AcDbLine
 10
-40.99595323982194
 20
-277.788336589667
 30
0.0
 11
-40.87272764453897
 21
-277.665110994384
 31
0.0
  0
LINE
  5
21D6
330
2184
100
AcDbEntity
  8
0
 62
     0
100
AcDbLine
 10
-41.47375306317957
 20
-278.1335538915521
 30
0.0
 11
-41.37160912879036
 21
-278.031409957163
 31
0.0
  0
LINE
  5
21D7
330
2184
100
AcDbEntity
  8
0
 62
     0
100
AcDbLine
 10
-40.27393446012377
 20
-276.9337352884964
 30
0.0
 11
-40.17414585388136
 21
-276.833946682254
 31
0.0
  0
LINE
  5
21D8
330
2184
100
AcDbEntity
  8
0
 62
     0
100
AcDbLine
 10
-41.37160912879035
 20
-278.0314099571629
 30
0.0
 11
-40.73961462258838
 21
-277.399415450961
 31
0.0
  0
LINE
  5
21D9
330
2184
100
AcDbEntity
  8
0
 62
     0
100
AcDbLine
 10
-41.51850498761451
 20
-278.0457232945146
 30
0.0
 11
-41.41636105322528
 21
-277.9435793601255
 31
0.0
  0
LINE
  5
21DA
330
2184
100
AcDbEntity
  8
0
 62
     0
100
AcDbLine
 10
-40.3186863845587
 20
-276.8459046914588
 30
0.0
 11
-40.21889777831629
 21
-276.7461160852164
 31
0.0
  0
LINE
  5
21DB
330
2184
100
AcDbEntity
  8
0
 62
     0
100
AcDbLine
 10
-41.41636105322527
 20
-277.9435793601254
 30
0.0
 11
-40.78436654702331
 21
-277.3115848539234
 31
0.0
  0
LINE
  5
21DC
330
2184
100
AcDbEntity
  8
0
 62
     0
100
AcDbLine
 10
-41.56325691204942
 20
-277.9578926974771
 30
0.0
 11
-41.46111297766021
 21
-277.8557487630879
 31
0.0
  0
LINE
  5
21DD
330
2184
100
AcDbEntity
  8
0
 62
     0
100
AcDbLine
 10
-40.36343830899361
 20
-276.7580740944213
 30
0.0
 11
-40.2636497027512
 21
-276.6582854881789
 31
0.0
  0
LINE
  5
21DE
330
2184
100
AcDbEntity
  8
0
 62
     0
100
AcDbLine
 10
-41.4611129776602
 20
-277.8557487630878
 30
0.0
 11
-40.82911847145823
 21
-277.2237542568859
 31
0.0
  0
LINE
  5
21DF
330
2184
100
AcDbEntity
  8
0
 62
     0
100
AcDbLine
 10
-41.60800883648435
 20
-277.8700621004395
 30
0.0
 11
-41.50586490209513
 21
-277.7679181660503
 31
0.0
  0
LINE
  5
21E0
330
2184
100
AcDbEntity
  8
0
 62
     0
100
AcDbLine
 10
-40.40819023342854
 20
-276.6702434973837
 30
0.0
 11
-40.30840162718615
 21
-276.5704548911414
 31
0.0
  0
LINE
  5
21E1
330
2184
100
AcDbEntity
  8
0
 62
     0
100
AcDbLine
 10
-41.50586490209512
 20
-277.7679181660503
 30
0.0
 11
-40.87387039589315
 21
-277.1359236598483
 31
0.0
  0
LINE
  5
21E2
330
2184
100
AcDbEntity
  8
0
 62
     0
100
AcDbLine
 10
-41.65276076091928
 20
-277.782231503402
 30
0.0
 11
-41.55061682653006
 21
-277.6800875690128
 31
0.0
  0
LINE
  5
21E3
330
2184
100
AcDbEntity
  8
0
 62
     0
100
AcDbLine
 10
-40.45294215786347
 20
-276.5824129003462
 30
0.0
 11
-40.35315355162107
 21
-276.4826242941037
 31
0.0
  0
LINE
  5
21E4
330
2184
100
AcDbEntity
  8
0
 62
     0
100
AcDbLine
 10
-41.55061682653004
 20
-277.6800875690128
 30
0.0
 11
-40.91862232032808
 21
-277.0480930628108
 31
0.0
  0
LINE
  5
21E5
330
2184
100
AcDbEntity
  8
0
 62
     0
100
AcDbLine
 10
-41.6975126853542
 20
-277.6944009063644
 30
0.0
 11
-41.59536875096497
 21
-277.5922569719752
 31
0.0
  0
LINE
  5
21E6
330
2184
100
AcDbEntity
  8
0
 62
     0
100
AcDbLine
 10
-40.49769408229838
 20
-276.4945823033086
 30
0.0
 11
-40.39790547605599
 21
-276.3947936970662
 31
0.0
  0
LINE
  5
21E7
330
2184
100
AcDbEntity
  8
0
 62
     0
100
AcDbLine
 10
-41.59536875096496
 20
-277.5922569719751
 30
0.0
 11
-40.963374244763
 21
-276.9602624657732
 31
0.0
  0
LINE
  5
21E8
330
2184
100
AcDbEntity
  8
0
 62
     0
100
AcDbLine
 10
-41.74226460978912
 20
-277.6065703093268
 30
0.0
 11
-41.6401206753999
 21
-277.5044263749377
 31
0.0
  0
LINE
  5
21E9
330
2184
100
AcDbEntity
  8
0
 62
     0
100
AcDbLine
 10
-40.54244600673332
 20
-276.4067517062711
 30
0.0
 11
-40.44265740049091
 21
-276.3069631000287
 31
0.0
  0
LINE
  5
21EA
330
2184
100
AcDbEntity
  8
0
 62
     0
100
AcDbLine
 10
-41.64012067539989
 20
-277.5044263749376
 30
0.0
 11
-41.00812616919793
 21
-276.8724318687357
 31
0.0
  0
LINE
  5
21EB
330
2184
100
AcDbEntity
  8
0
 62
     0
100
AcDbLine
 10
-41.78701653422404
 20
-277.5187397122893
 30
0.0
 11
-41.68487259983481
 21
-277.4165957779001
 31
0.0
  0
LINE
  5
21EC
330
2184
100
AcDbEntity
  8
0
 62
     0
100
AcDbLine
 10
-40.58719793116824
 20
-276.3189211092335
 30
0.0
 11
-40.48740932492584
 21
-276.2191325029911
 31
0.0
  0
LINE
  5
21ED
330
2184
100
AcDbEntity
  8
0
 62
     0
100
AcDbLine
 10
-41.68487259983482
 20
-277.4165957779001
 30
0.0
 11
-41.05287809363285
 21
-276.7846012716981
 31
0.0
  0
LINE
  5
21EE
330
2184
100
AcDbEntity
  8
0
 62
     0
100
AcDbLine
 10
-41.83176845865896
 20
-277.4309091152518
 30
0.0
 11
-41.72962452426975
 21
-277.3287651808626
 31
0.0
  0
LINE
  5
21EF
330
2184
100
AcDbEntity
  8
0
 62
     0
100
AcDbLine
 10
-40.63194985560315
 20
-276.2310905121959
 30
0.0
 11
-40.53216124936076
 21
-276.1313019059535
 31
0.0
  0
LINE
  5
21F0
330
2184
100
AcDbEntity
  8
0
 62
     0
100
AcDbLine
 10
-41.72962452426975
 20
-277.3287651808625
 30
0.0
 11
-41.09763001806778
 21
-276.6967706746606
 31
0.0
  0
LINE
  5
21F1
330
2184
100
AcDbEntity
  8
0
 62
     0
100
AcDbLine
 10
-41.8765203830939
 20
-277.3430785182142
 30
0.0
 11
-41.77437644870467
 21
-277.240934583825
 31
0.0
  0
LINE
  5
21F2
330
2184
100
AcDbEntity
  8
0
 62
     0
100
AcDbLine
 10
-40.67670178003808
 20
-276.1432599151584
 30
0.0
 11
-40.57691317379568
 21
-276.043471308916
 31
0.0
  0
LINE
  5
21F3
330
2184
100
AcDbEntity
  8
0
 62
     0
100
AcDbLine
 10
-41.77437644870467
 20
-277.240934583825
 30
0.0
 11
-41.1423819425027
 21
-276.608940077623
 31
0.0
  0
LINE
  5
21F4
330
2184
100
AcDbEntity
  8
0
 62
     0
100
AcDbLine
 10
-41.92127230752881
 20
-277.2552479211766
 30
0.0
 11
-41.8191283731396
 21
-277.1531039867875
 31
0.0
  0
LINE
  5
21F5
330
2184
100
AcDbEntity
  8
0
 62
     0
100
AcDbLine
 10
-40.72145370447301
 20
-276.0554293181209
 30
0.0
 11
-40.6216650982306
 21
-275.9556407118785
 31
0.0
  0
LINE
  5
21F6
330
2184
100
AcDbEntity
  8
0
 62
     0
100
AcDbLine
 10
-41.81912837313959
 20
-277.1531039867874
 30
0.0
 11
-41.18713386693762
 21
-276.5211094805855
 31
0.0
  0
LINE
  5
21F7
330
2184
100
AcDbEntity
  8
0
 62
     0
100
AcDbLine
 10
-41.96602423196374
 20
-277.1674173241391
 30
0.0
 11
-41.86388029757452
 21
-277.0652733897499
 31
0.0
  0
LINE
  5
21F8
330
2184
100
AcDbEntity
  8
0
 62
     0
100
AcDbLine
 10
-35.8061910555824
 20
-271.0075841477578
 30
0.0
 11
-35.70443277119299
 21
-270.9058258633683
 31
0.0
  0
LINE
  5
21F9
330
2184
100
AcDbEntity
  8
0
 62
     0
100
AcDbLine
 10
-41.86388029757451
 20
-277.0652733897498
 30
0.0
 11
-41.23188579137255
 21
-276.4332788835479
 31
0.0
  0
LINE
  5
21FA
330
2184
100
AcDbEntity
  8
0
 62
     0
100
AcDbLine
 10
-40.76620562890794
 20
-275.9675987210833
 30
0.0
 11
-40.66641702266553
 21
-275.8678101148409
 31
0.0
  0
LINE
  5
21FB
330
2184
100
AcDbEntity
  8
0
 62
     0
100
AcDbLine
 10
-42.01077615639866
 20
-277.0795867271015
 30
0.0
 11
-41.90863222200944
 21
-276.9774427927123
 31
0.0
  0
LINE
  5
21FC
330
2184
100
AcDbEntity
  8
0
 62
     0
100
AcDbLine
 10
-35.93877357705487
 20
-271.0075841477578
 30
0.0
 11
-35.70443277119299
 21
-270.7732433418959
 31
0.0
  0
LINE
  5
21FD
330
2184
100
AcDbEntity
  8
0
 62
     0
100
AcDbLine
 10
-41.90863222200944
 20
-276.9774427927123
 30
0.0
 11
-41.27663771580747
 21
-276.3454482865104
 31
0.0
  0
LINE
  5
21FE
330
2184
100
AcDbEntity
  8
0
 62
     0
100
AcDbLine
 10
-40.81095755334286
 20
-275.8797681240458
 30
0.0
 11
-40.71116894710044
 21
-275.7799795178034
 31
0.0
  0
LINE
  5
21FF
330
2184
100
AcDbEntity
  8
0
 62
     0
100
AcDbLine
 10
-42.05552808083359
 20
-276.991756130064
 30
0.0
 11
-41.95338414644437
 21
-276.8896121956748
 31
0.0
  0
LINE
  5
2200
330
2184
100
AcDbEntity
  8
0
 62
     0
100
AcDbLine
 10
-36.07135609852736
 20
-271.0075841477578
 30
0.0
 11
-35.70443277119299
 21
-270.6406608204234
 31
0.0
  0
LINE
  5
2201
330
2184
100
AcDbEntity
  8
0
 62
     0
100
AcDbLine
 10
-41.95338414644437
 20
-276.8896121956748
 30
0.0
 11
-41.32138964024239
 21
-276.2576176894728
 31
0.0
  0
LINE
  5
2202
330
2184
100
AcDbEntity
  8
0
 62
     0
100
AcDbLine
 10
-40.85570947777777
 20
-275.7919375270082
 30
0.0
 11
-40.75592087153537
 21
-275.6921489207658
 31
0.0
  0
LINE
  5
2203
330
2184
100
AcDbEntity
  8
0
 62
     0
100
AcDbLine
 10
-42.10028000526851
 20
-276.9039255330264
 30
0.0
 11
-41.99813607087929
 21
-276.8017815986373
 31
0.0
  0
LINE
  5
2204
330
2184
100
AcDbEntity
  8
0
 62
     0
100
AcDbLine
 10
-36.20393861999985
 20
-271.0075841477578
 30
0.0
 11
-35.70443277119299
 21
-270.5080782989509
 31
0.0
  0
LINE
  5
2205
330
2184
100
AcDbEntity
  8
0
 62
     0
100
AcDbLine
 10
-41.99813607087929
 20
-276.8017815986372
 30
0.0
 11
-41.36614156467731
 21
-276.1697870924352
 31
0.0
  0
LINE
  5
2206
330
2184
100
AcDbEntity
  8
0
 62
     0
100
AcDbLine
 10
-40.90046140221271
 20
-275.7041069299706
 30
0.0
 11
-40.80067279597029
 21
-275.6043183237283
 31
0.0
  0
LINE
  5
2207
330
2184
100
AcDbEntity
  8
0
 62
     0
100
AcDbLine
 10
-42.14503192970343
 20
-276.8160949359889
 30
0.0
 11
-42.04288799531422
 21
-276.7139510015997
 31
0.0
  0
LINE
  5
2208
330
2184
100
AcDbEntity
  8
0
 62
     0
100
AcDbLine
 10
-36.33652114147233
 20
-271.0075841477578
 30
0.0
 11
-35.70443277119299
 21
-270.3754957774785
 31
0.0
  0
LINE
  5
2209
330
2184
100
AcDbEntity
  8
0
 62
     0
100
AcDbLine
 10
-42.04288799531422
 20
-276.7139510015996
 30
0.0
 11
-41.41089348911224
 21
-276.0819564953977
 31
0.0
  0
LINE
  5
220A
330
2184
100
AcDbEntity
  8
0
 62
     0
100
AcDbLine
 10
-40.94521332664762
 20
-275.6162763329331
 30
0.0
 11
-40.84542472040522
 21
-275.5164877266907
 31
0.0
  0
LINE
  5
220B
330
2184
100
AcDbEntity
  8
0
 62
     0
100
AcDbLine
 10
-42.18978385413836
 20
-276.7282643389513
 30
0.0
 11
-42.08763991974914
 21
-276.6261204045621
 31
0.0
  0
LINE
  5
220C
330
2184
100
AcDbEntity
  8
0
 62
     0
100
AcDbLine
 10
-36.46910366294478
 20
-271.0075841477578
 30
0.0
 11
-35.70443277119299
 21
-270.242913256006
 31
0.0
  0
LINE
  5
220D
330
2184
100
AcDbEntity
  8
0
 62
     0
100
AcDbLine
 10
-42.08763991974914
 20
-276.6261204045621
 30
0.0
 11
-41.45564541354717
 21
-275.9941258983601
 31
0.0
  0
LINE
  5
220E
330
2184
100
AcDbEntity
  8
0
 62
     0
100
AcDbLine
 10
-40.98996525108254
 20
-275.5284457358955
 30
0.0
 11
-40.89017664484013
 21
-275.4286571296531
 31
0.0
  0
LINE
  5
220F
330
2184
100
AcDbEntity
  8
0
 62
     0
100
AcDbLine
 10
-42.23453577857329
 20
-276.6404337419138
 30
0.0
 11
-42.13239184418406
 21
-276.5382898075245
 31
0.0
  0
LINE
  5
2210
330
2184
100
AcDbEntity
  8
0
 62
     0
100
AcDbLine
 10
-36.60168618441726
 20
-271.0075841477578
 30
0.0
 11
-35.7069169949642
 21
-270.1128149583047
 31
0.0
  0
LINE
  5
2211
330
2184
100
AcDbEntity
  8
0
 62
     0
100
AcDbLine
 10
-42.13239184418408
 20
-276.5382898075245
 30
0.0
 11
-41.50039733798208
 21
-275.9062953013226
 31
0.0
  0
LINE
  5
2212
330
2184
100
AcDbEntity
  8
0
 62
     0
100
AcDbLine
 10
-41.03471717551747
 20
-275.4406151388579
 30
0.0
 11
-40.93492856927506
 21
-275.3408265326156
 31
0.0
  0
LINE
  5
2213
330
2184
100
AcDbEntity
  8
0
 62
     0
100
AcDbLine
 10
-42.2792877030082
 20
-276.5526031448762
 30
0.0
 11
-42.17714376861898
 21
-276.450459210487
 31
0.0
  0
LINE
  5
2214
330
2184
100
AcDbEntity
  8
0
 62
     0
100
AcDbLine
 10
-36.73426870588975
 20
-271.0075841477578
 30
0.0
 11
-35.83949951643669
 21
-270.1128149583047
 31
0.0
  0
LINE
  5
2215
330
2184
100
AcDbEntity
  8
0
 62
     0
100
AcDbLine
 10
-42.17714376861898
 20
-276.450459210487
 30
0.0
 11
-41.54514926241701
 21
-275.818464704285
 31
0.0
  0
LINE
  5
2216
330
2184
100
AcDbEntity
  8
0
 62
     0
100
AcDbLine
 10
-41.0794690999524
 20
-275.3527845418204
 30
0.0
 11
-40.97968049370998
 21
-275.2529959355781
 31
0.0
  0
LINE
  5
2217
330
2184
100
AcDbEntity
  8
0
 62
     0
100
AcDbLine
 10
-42.32403962744313
 20
-276.4647725478386
 30
0.0
 11
-42.22189569305391
 21
-276.3626286134495
 31
0.0
  0
LINE
  5
2218
330
2184
100
AcDbEntity
  8
0
 62
     0
100
AcDbLine
 10
-36.86685122736224
 20
-271.0075841477578
 30
0.0
 11
-35.97208203790917
 21
-270.1128149583047
 31
0.0
  0
LINE
  5
2219
330
2184
100
AcDbEntity
  8
0
 62
     0
100
AcDbLine
 10
-42.22189569305391
 20
-276.3626286134494
 30
0.0
 11
-41.58990118685194
 21
-275.7306341072474
 31
0.0
  0
LINE
  5
221A
330
2184
100
AcDbEntity
  8
0
 62
     0
100
AcDbLine
 10
-41.12422102438733
 20
-275.2649539447828
 30
0.0
 11
-41.02443241814492
 21
-275.1651653385405
 31
0.0
  0
LINE
  5
221B
330
2184
100
AcDbEntity
  8
0
 62
     0
100
AcDbLine
 10
-42.36879155187804
 20
-276.3769419508011
 30
0.0
 11
-42.2684645752521
 21
-276.2766149741751
 31
0.0
  0
LINE
  5
221C
330
2184
100
AcDbEntity
  8
0
 62
     0
100
AcDbLine
 10
-36.99943374883472
 20
-271.0075841477578
 30
0.0
 11
-36.10466455938166
 21
-270.1128149583047
 31
0.0
  0
LINE
  5
221D
330
2184
100
AcDbEntity
  8
0
 62
     0
100
AcDbLine
 10
-42.26664761748884
 20
-276.2747980164119
 30
0.0
 11
-42.19792528481469
 21
-276.2060756837377
 31
0.0
  0
LINE
  5
221E
330
2184
100
AcDbEntity
  8
0
 62
     0
100
AcDbLine
 10
-41.16897294882225
 20
-275.1771233477454
 30
0.0
 11
-41.06918434257984
 21
-275.0773347415029
 31
0.0
  0
LINE
  5
221F
330
2184
100
AcDbEntity
  8
0
 62
     0
100
AcDbLine
 10
-42.1979252848146
 20
-276.2060756837377
 30
0.0
 11
-42.10043854447298
 21
-276.108588943396
 31
0.0
  0
LINE
  5
2220
330
2184
100
AcDbEntity
  8
0
 62
     0
100
AcDbLine
 10
-41.99598251496389
 20
-276.004132913887
 30
0.0
 11
-41.63465311128686
 21
-275.6428035102099
 31
0.0
  0
LINE
  5
2221
330
2184
100
AcDbEntity
  8
0
 62
     0
100
AcDbLine
 10
-42.10043854447292
 20
-276.1085889433959
 30
0.0
 11
-42.09566753742882
 21
-276.1038179363519
 31
0.0
  0
LINE
  5
2222
330
2184
100
AcDbEntity
  8
0
 62
     0
100
AcDbLine
 10
-42.09566753742871
 20
-276.1038179363518
 30
0.0
 11
-41.99598251496389
 21
-276.004132913887
 31
0.0
  0
LINE
  5
2223
330
2184
100
AcDbEntity
  8
0
 62
     0
100
AcDbLine
 10
-42.41354347631298
 20
-276.2891113537635
 30
0.0
 11
-42.31321649968703
 21
-276.1887843771376
 31
0.0
  0
LINE
  5
2224
330
2184
100
AcDbEntity
  8
0
 62
     0
100
AcDbLine
 10
-37.13201627030717
 20
-271.0075841477578
 30
0.0
 11
-36.23724708085414
 21
-270.1128149583047
 31
0.0
  0
LINE
  5
2225
330
2184
100
AcDbEntity
  8
0
 62
     0
100
AcDbLine
 10
-42.31139954192374
 20
-276.1869674193743
 30
0.0
 11
-42.1892754338011
 21
-276.0648433112517
 31
0.0
  0
LINE
  5
2226
330
2184
100
AcDbEntity
  8
0
 62
     0
100
AcDbLine
 10
-41.21372487325716
 20
-275.0892927507078
 30
0.0
 11
-41.11393626701477
 21
-274.9895041444653
 31
0.0
  0
LINE
  5
2227
330
2184
100
AcDbEntity
  8
0
 62
     0
100
AcDbLine
 10
-42.18927543380108
 20
-276.0648433112517
 30
0.0
 11
-42.14458912338753
 21
-276.0201570008381
 31
0.0
  0
LINE
  5
2228
330
2184
100
AcDbEntity
  8
0
 62
     0
100
AcDbLine
 10
-41.96714156490001
 20
-275.8427094423506
 30
0.0
 11
-41.67940503572178
 21
-275.5549729131724
 31
0.0
  0
LINE
  5
2229
330
2184
100
AcDbEntity
  8
0
 62
     0
100
AcDbLine
 10
-42.11450619999326
 20
-275.9900740774438
 30
0.0
 11
-41.96714156489998
 21
-275.8427094423506
 31
0.0
  0
LINE
  5
222A
330
2184
100
AcDbEntity
  8
0
 62
     0
100
AcDbLine
 10
-42.4582954007479
 20
-276.201280756726
 30
0.0
 11
-42.35796842412195
 21
-276.1009537801001
 31
0.0
  0
LINE
  5
222B
330
2184
100
AcDbEntity
  8
0
 62
     0
100
AcDbLine
 10
-37.26459879177965
 20
-271.0075841477578
 30
0.0
 11
-36.36982960232659
 21
-270.1128149583047
 31
0.0
  0
LINE
  5
222C
330
2184
100
AcDbEntity
  8
0
 62
     0
100
AcDbLine
 10
-42.35615146635868
 20
-276.0991368223368
 30
0.0
 11
-42.27628628029851
 21
-276.0192716362766
 31
0.0
  0
LINE
  5
222D
330
2184
100
AcDbEntity
  8
0
 62
     0
100
AcDbLine
 10
-41.2584767976921
 20
-275.0014621536702
 30
0.0
 11
-41.15868819144969
 21
-274.9016735474278
 31
0.0
  0
LINE
  5
222E
330
2184
100
AcDbEntity
  8
0
 62
     0
100
AcDbLine
 10
-42.27628628029848
 20
-276.0192716362765
 30
0.0
 11
-41.83861559237119
 21
-275.5816009483493
 31
0.0
  0
LINE
  5
222F
330
2184
100
AcDbEntity
  8
0
 62
     0
100
AcDbLine
 10
-41.83861559237118
 20
-275.5816009483492
 30
0.0
 11
-41.72415696015671
 21
-275.4671423161348
 31
0.0
  0
LINE
  5
2230
330
2184
100
AcDbEntity
  8
0
 62
     0
100
AcDbLine
 10
-42.50304732518282
 20
-276.1134501596885
 30
0.0
 11
-42.40272034855689
 21
-276.0131231830625
 31
0.0
  0
LINE
  5
2231
330
2184
100
AcDbEntity
  8
0
 62
     0
100
AcDbLine
 10
-37.39718131325214
 20
-271.0075841477578
 30
0.0
 11
-36.50241212379908
 21
-270.1128149583047
 31
0.0
  0
LINE
  5
2232
330
2184
100
AcDbEntity
  8
0
 62
     0
100
AcDbLine
 10
-42.4009033907936
 20
-276.0113062252992
 30
0.0
 11
-42.19714334742477
 21
-275.8075461819304
 31
0.0
  0
LINE
  5
2233
330
2184
100
AcDbEntity
  8
0
 62
     0
100
AcDbLine
 10
-41.30322872212701
 20
-274.9136315566326
 30
0.0
 11
-41.20344011588461
 21
-274.8138429503903
 31
0.0
  0
LINE
  5
2234
330
2184
100
AcDbEntity
  8
0
 62
     0
100
AcDbLine
 10
-42.19714334742469
 20
-275.8075461819303
 30
0.0
 11
-42.14776030776967
 21
-275.7581631422754
 31
0.0
  0
LINE
  5
2235
330
2184
100
AcDbEntity
  8
0
 62
     0
100
AcDbLine
 10
-42.14776030776969
 20
-275.7581631422754
 30
0.0
 11
-41.71008961984234
 21
-275.320492454348
 31
0.0
  0
LINE
  5
2236
330
2184
100
AcDbEntity
  8
0
 62
     0
100
AcDbLine
 10
-42.54779924961775
 20
-276.0256195626509
 30
0.0
 11
-42.44747227299181
 21
-275.925292586025
 31
0.0
  0
LINE
  5
2237
330
2184
100
AcDbEntity
  8
0
 62
     0
100
AcDbLine
 10
-37.52976383472462
 20
-271.0075841477578
 30
0.0
 11
-36.63499464527156
 21
-270.1128149583047
 31
0.0
  0
LINE
  5
2238
330
2184
100
AcDbEntity
  8
0
 62
     0
100
AcDbLine
 10
-42.44565531522854
 20
-275.9234756282617
 30
0.0
 11
-42.01923433524084
 21
-275.497054648274
 31
0.0
  0
LINE
  5
2239
330
2184
100
AcDbEntity
  8
0
 62
     0
100
AcDbLine
 10
-41.34798064656194
 20
-274.8258009595951
 30
0.0
 11
-41.24819204031953
 21
-274.7260123533527
 31
0.0
  0
LINE
  5
223A
330
2184
100
AcDbEntity
  8
0
 62
     0
100
AcDbLine
 10
-42.01923433524087
 20
-275.497054648274
 30
0.0
 11
-41.58156364731355
 21
-275.0593839603467
 31
0.0
  0
LINE
  5
223B
330
2184
100
AcDbEntity
  8
0
 62
     0
100
AcDbLine
 10
-42.59255117405266
 20
-275.9377889656133
 30
0.0
 11
-42.49040723966347
 21
-275.8356450312241
 31
0.0
  0
LINE
  5
223C
330
2184
100
AcDbEntity
  8
0
 62
     0
100
AcDbLine
 10
-37.6623463561971
 20
-271.0075841477578
 30
0.0
 11
-36.76757716674404
 21
-270.1128149583047
 31
0.0
  0
LINE
  5
223D
330
2184
100
AcDbEntity
  8
0
 62
     0
100
AcDbLine
 10
-42.49040723966347
 20
-275.8356450312241
 30
0.0
 11
-41.89070836271205
 21
-275.2359461542728
 31
0.0
  0
LINE
  5
223E
330
2184
100
AcDbEntity
  8
0
 62
     0
100
AcDbLine
 10
-41.39273257099687
 20
-274.7379703625575
 30
0.0
 11
-41.29294396475446
 21
-274.6381817563151
 31
0.0
  0
LINE
  5
223F
330
2184
100
AcDbEntity
  8
0
 62
     0
100
AcDbLine
 10
-41.89070836271203
 20
-275.2359461542727
 30
0.0
 11
-41.45303767478471
 21
-274.7982754663454
 31
0.0
  0
LINE
  5
2240
330
2184
100
AcDbEntity
  8
0
 62
     0
100
AcDbLine
 10
-42.63730309848759
 20
-275.8499583685758
 30
0.0
 11
-42.53515916409838
 21
-275.7478144341866
 31
0.0
  0
LINE
  5
2241
330
2184
100
AcDbEntity
  8
0
 62
     0
100
AcDbLine
 10
-37.79492887766956
 20
-271.0075841477578
 30
0.0
 11
-36.90015968821653
 21
-270.1128149583047
 31
0.0
  0
LINE
  5
2242
330
2184
100
AcDbEntity
  8
0
 62
     0
100
AcDbLine
 10
-42.53515916409839
 20
-275.7478144341866
 30
0.0
 11
-41.90316465789641
 21
-275.1158199279846
 31
0.0
  0
LINE
  5
2243
330
2184
100
AcDbEntity
  8
0
 62
     0
100
AcDbLine
 10
-41.76218239018321
 20
-274.9748376602715
 30
0.0
 11
-41.32451170225591
 21
-274.5371669723441
 31
0.0
  0
LINE
  5
2244
330
2184
100
AcDbEntity
  8
0
 62
     0
100
AcDbLine
 10
-42.68205502292253
 20
-275.7621277715383
 30
0.0
 11
-42.57991108853331
 21
-275.6599838371491
 31
0.0
  0
LINE
  5
2245
330
2184
100
AcDbEntity
  8
0
 62
     0
100
AcDbLine
 10
-37.92751139914204
 20
-271.0075841477578
 30
0.0
 11
-37.03274220968898
 21
-270.1128149583047
 31
0.0
  0
LINE
  5
2246
330
2184
100
AcDbEntity
  8
0
 62
     0
100
AcDbLine
 10
-42.57991108853332
 20
-275.659983837149
 30
0.0
 11
-41.94791658233133
 21
-275.027989330947
 31
0.0
  0
LINE
  5
2247
330
2184
100
AcDbEntity
  8
0
 62
     0
100
AcDbLine
 10
-41.63365641765442
 20
-274.7137291662701
 30
0.0
 11
-41.19598572972707
 21
-274.2760584783428
 31
0.0
  0
LINE
  5
2248
330
2184
100
AcDbEntity
  8
0
 62
     0
100
AcDbLine
 10
-42.72680694735743
 20
-275.6742971745007
 30
0.0
 11
-42.62466301296824
 21
-275.5721532401115
 31
0.0
  0
LINE
  5
2249
330
2184
100
AcDbEntity
  8
0
 62
     0
100
AcDbLine
 10
-38.06009392061452
 20
-271.0075841477578
 30
0.0
 11
-37.16532473116146
 21
-270.1128149583047
 31
0.0
  0
LINE
  5
224A
330
2184
100
AcDbEntity
  8
0
 62
     0
100
AcDbLine
 10
-42.62466301296824
 20
-275.5721532401115
 30
0.0
 11
-41.99266850676624
 21
-274.9401587339095
 31
0.0
  0
LINE
  5
224B
330
2184
100
AcDbEntity
  8
0
 62
     0
100
AcDbLine
 10
-41.24320808781802
 20
-274.1906983149613
 30
0.0
 11
-41.16028905131896
 21
-274.1077792784622
 31
0.0
  0
LINE
  5
224C
330
2184
100
AcDbEntity
  8
0
 62
     0
100
AcDbLine
 10
-41.52698834430164
 20
-274.4744785714449
 30
0.0
 11
-41.50513044512558
 21
-274.4526206722688
 31
0.0
  0
LINE
  5
224D
330
2184
100
AcDbEntity
  8
0
 62
     0
100
AcDbLine
 10
-41.2918472873847
 20
-274.2393375145279
 30
0.0
 11
-41.26594175883485
 21
-274.2134319859781
 31
0.0
  0
LINE
  5
224E
330
2184
100
AcDbEntity
  8
0
 62
     0
100
AcDbLine
 10
-41.50513044512556
 20
-274.4526206722688
 30
0.0
 11
-41.29184728738475
 21
-274.239337514528
 31
0.0
  0
LINE
  5
224F
330
2184
100
AcDbEntity
  8
0
 62
     0
100
AcDbLine
 10
-42.77155887179236
 20
-275.5864665774631
 30
0.0
 11
-42.66941493740316
 21
-275.484322643074
 31
0.0
  0
LINE
  5
2250
330
2184
100
AcDbEntity
  8
0
 62
     0
100
AcDbLine
 10
-38.192676442087
 20
-271.0075841477578
 30
0.0
 11
-37.29790725263395
 21
-270.1128149583047
 31
0.0
  0
LINE
  5
2251
330
2184
100
AcDbEntity
  8
0
 62
     0
100
AcDbLine
 10
-42.66941493740316
 20
-275.484322643074
 30
0.0
 11
-42.03742043120118
 21
-274.8523281368719
 31
0.0
  0
LINE
  5
2252
330
2184
100
AcDbEntity
  8
0
 62
     0
100
AcDbLine
 10
-41.39132135807054
 20
-274.2062290637413
 30
0.0
 11
-41.15044255176923
 21
-273.96535025744
 31
0.0
  0
LINE
  5
2253
330
2184
100
AcDbEntity
  8
0
 62
     0
100
AcDbLine
 10
-41.57174026873658
 20
-274.3866479744074
 30
0.0
 11
-41.47195166249413
 21
-274.2868593681649
 31
0.0
  0
LINE
  5
2254
330
2184
100
AcDbEntity
  8
0
 62
     0
100
AcDbLine
 10
-42.81631079622728
 20
-275.4986359804255
 30
0.0
 11
-42.71416686183809
 21
-275.3964920460364
 31
0.0
  0
LINE
  5
2255
330
2184
100
AcDbEntity
  8
0
 62
     0
100
AcDbLine
 10
-38.32525896355949
 20
-271.0075841477578
 30
0.0
 11
-37.43048977410643
 21
-270.1128149583047
 31
0.0
  0
LINE
  5
2256
330
2184
100
AcDbEntity
  8
0
 62
     0
100
AcDbLine
 10
-42.71416686183809
 20
-275.3964920460364
 30
0.0
 11
-42.0821723556361
 21
-274.7644975398344
 31
0.0
  0
LINE
  5
2257
330
2184
100
AcDbEntity
  8
0
 62
     0
100
AcDbLine
 10
-41.3814748585208
 20
-274.0638000427191
 30
0.0
 11
-41.1405960522195
 21
-273.8229212364178
 31
0.0
  0
LINE
  5
2258
330
2184
100
AcDbEntity
  8
0
 62
     0
100
AcDbLine
 10
-41.6164921931715
 20
-274.2988173773698
 30
0.0
 11
-41.51670358692905
 21
-274.1990287711273
 31
0.0
  0
LINE
  5
2259
330
2184
100
AcDbEntity
  8
0
 62
     0
100
AcDbLine
 10
-42.86106272066221
 20
-275.410805383388
 30
0.0
 11
-42.75891878627302
 21
-275.3086614489988
 31
0.0
  0
LINE
  5
225A
330
2184
100
AcDbEntity
  8
0
 62
     0
100
AcDbLine
 10
-38.45784148503194
 20
-271.0075841477578
 30
0.0
 11
-37.56307229557891
 21
-270.1128149583047
 31
0.0
  0
LINE
  5
225B
330
2184
100
AcDbEntity
  8
0
 62
     0
100
AcDbLine
 10
-42.75891878627301
 20
-275.3086614489988
 30
0.0
 11
-42.12692428007102
 21
-274.6766669427968
 31
0.0
  0
LINE
  5
225C
330
2184
100
AcDbEntity
  8
0
 62
     0
100
AcDbLine
 10
-41.37162835897107
 20
-273.9213710216969
 30
0.0
 11
-41.13074955266977
 21
-273.6804922153956
 31
0.0
  0
LINE
  5
225D
330
2184
100
AcDbEntity
  8
0
 62
     0
100
AcDbLine
 10
-41.66124411760642
 20
-274.2109867803322
 30
0.0
 11
-41.56145551136398
 21
-274.1111981740898
 31
0.0
  0
LINE
  5
225E
330
2184
100
AcDbEntity
  8
0
 62
     0
100
AcDbLine
 10
-42.90581464509713
 20
-275.3229747863504
 30
0.0
 11
-42.80367071070794
 21
-275.2208308519613
 31
0.0
  0
LINE
  5
225F
330
2184
100
AcDbEntity
  8
0
 62
     0
100
AcDbLine
 10
-38.59042400650442
 20
-271.0075841477578
 30
0.0
 11
-37.69565481705136
 21
-270.1128149583047
 31
0.0
  0
LINE
  5
2260
330
2184
100
AcDbEntity
  8
0
 62
     0
100
AcDbLine
 10
-42.80367071070794
 20
-275.2208308519613
 30
0.0
 11
-42.17167620450595
 21
-274.5888363457593
 31
0.0
  0
LINE
  5
2261
330
2184
100
AcDbEntity
  8
0
 62
     0
100
AcDbLine
 10
-41.36178185942134
 20
-273.7789420006746
 30
0.0
 11
-41.12090305312004
 21
-273.5380631943733
 31
0.0
  0
LINE
  5
2262
330
2184
100
AcDbEntity
  8
0
 62
     0
100
AcDbLine
 10
-41.70599604204134
 20
-274.1231561832947
 30
0.0
 11
-41.60620743579889
 21
-274.0233675770522
 31
0.0
  0
LINE
  5
2263
330
2184
100
AcDbEntity
  8
0
 62
     0
100
AcDbLine
 10
-42.95056656953206
 20
-275.2351441893129
 30
0.0
 11
-42.84842263514287
 21
-275.1330002549237
 31
0.0
  0
LINE
  5
2264
330
2184
100
AcDbEntity
  8
0
 62
     0
100
AcDbLine
 10
-38.72300652797691
 20
-271.0075841477578
 30
0.0
 11
-37.82823733852385
 21
-270.1128149583047
 31
0.0
  0
LINE
  5
2265
330
2184
100
AcDbEntity
  8
0
 62
     0
100
AcDbLine
 10
-42.84842263514287
 20
-275.1330002549237
 30
0.0
 11
-42.21642812894087
 21
-274.5010057487217
 31
0.0
  0
LINE
  5
2266
330
2184
100
AcDbEntity
  8
0
 62
     0
100
AcDbLine
 10
-41.35193535987162
 20
-273.6365129796524
 30
0.0
 11
-41.11105655357031
 21
-273.3956341733511
 31
0.0
  0
LINE
  5
2267
330
2184
100
AcDbEntity
  8
0
 62
     0
100
AcDbLine
 10
-41.75074796647627
 20
-274.0353255862571
 30
0.0
 11
-41.65095936023383
 21
-273.9355369800147
 31
0.0
  0
LINE
  5
2268
330
2184
100
AcDbEntity
  8
0
 62
     0
100
AcDbLine
 10
-42.99531849396698
 20
-275.1473135922753
 30
0.0
 11
-42.89317455957778
 21
-275.0451696578862
 31
0.0
  0
LINE
  5
2269
330
2184
100
AcDbEntity
  8
0
 62
     0
100
AcDbLine
 10
-38.85558904944939
 20
-271.0075841477578
 30
0.0
 11
-37.96081985999633
 21
-270.1128149583047
 31
0.0
  0
LINE
  5
226A
330
2184
100
AcDbEntity
  8
0
 62
     0
100
AcDbLine
 10
-42.89317455957778
 20
-275.0451696578862
 30
0.0
 11
-42.2611800533758
 21
-274.4131751516842
 31
0.0
  0
LINE
  5
226B
330
2184
100
AcDbEntity
  8
0
 62
     0
100
AcDbLine
 10
-41.34208886032189
 20
-273.4940839586302
 30
0.0
 11
-41.10121005402058
 21
-273.2532051523289
 31
0.0
  0
LINE
  5
226C
330
2184
100
AcDbEntity
  8
0
 62
     0
100
AcDbLine
 10
-41.79549989091119
 20
-273.9474949892195
 30
0.0
 11
-41.69571128466874
 21
-273.8477063829771
 31
0.0
  0
LINE
  5
226D
330
2184
100
AcDbEntity
  8
0
 62
     0
100
AcDbLine
 10
-43.0400704184019
 20
-275.0594829952378
 30
0.0
 11
-42.93792648401271
 21
-274.9573390608487
 31
0.0
  0
LINE
  5
226E
330
2184
100
AcDbEntity
  8
0
 62
     0
100
AcDbLine
 10
-38.98817157092188
 20
-271.0075841477578
 30
0.0
 11
-38.09340238146882
 21
-270.1128149583047
 31
0.0
  0
LINE
  5
226F
330
2184
100
AcDbEntity
  8
0
 62
     0
100
AcDbLine
 10
-42.93792648401271
 20
-274.9573390608486
 30
0.0
 11
-42.30593197781072
 21
-274.3253445546466
 31
0.0
  0
LINE
  5
2270
330
2184
100
AcDbEntity
  8
0
 62
     0
100
AcDbLine
 10
-41.33224236077215
 20
-273.351654937608
 30
0.0
 11
-41.09136355447085
 21
-273.1107761313067
 31
0.0
  0
LINE
  5
2271
330
2184
100
AcDbEntity
  8
0
 62
     0
100
AcDbLine
 10
-41.84025181534611
 20
-273.859664392182
 30
0.0
 11
-41.74046320910367
 21
-273.7598757859395
 31
0.0
  0
LINE
  5
2272
330
2184
100
AcDbEntity
  8
0
 62
     0
100
AcDbLine
 10
-43.08482234283682
 20
-274.9716523982002
 30
0.0
 11
-42.98267840844763
 21
-274.8695084638111
 31
0.0
  0
LINE
  5
2273
330
2184
100
AcDbEntity
  8
0
 62
     0
100
AcDbLine
 10
-39.12075409239436
 20
-271.0075841477578
 30
0.0
 11
-38.2259849029413
 21
-270.1128149583047
 31
0.0
  0
LINE
  5
2274
330
2184
100
AcDbEntity
  8
0
 62
     0
100
AcDbLine
 10
-42.98267840844764
 20
-274.8695084638111
 30
0.0
 11
-42.35068390224564
 21
-274.2375139576091
 31
0.0
  0
LINE
  5
2275
330
2184
100
AcDbEntity
  8
0
 62
     0
100
AcDbLine
 10
-41.08151705492112
 20
-272.9683471102845
 30
0.0
 11
-40.96181643366968
 21
-272.848646489033
 31
0.0
  0
LINE
  5
2276
330
2184
100
AcDbEntity
  8
0
 62
     0
100
AcDbLine
 10
-41.88500373978103
 20
-273.7718337951445
 30
0.0
 11
-41.78521513353859
 21
-273.672045188902
 31
0.0
  0
LINE
  5
2277
330
2184
100
AcDbEntity
  8
0
 62
     0
100
AcDbLine
 10
-41.32239586122242
 20
-273.2092259165858
 30
0.0
 11
-41.08151705492112
 21
-272.9683471102845
 31
0.0
  0
LINE
  5
2278
330
2184
100
AcDbEntity
  8
0
 62
     0
100
AcDbLine
 10
-43.12957426727176
 20
-274.8838218011627
 30
0.0
 11
-43.02743033288257
 21
-274.7816778667736
 31
0.0
  0
LINE
  5
2279
330
2184
100
AcDbEntity
  8
0
 62
     0
100
AcDbLine
 10
-39.25333661386681
 20
-271.0075841477578
 30
0.0
 11
-38.35856742441375
 21
-270.1128149583047
 31
0.0
  0
LINE
  5
227A
330
2184
100
AcDbEntity
  8
0
 62
     0
100
AcDbLine
 10
-43.02743033288256
 20
-274.7816778667735
 30
0.0
 11
-42.39543582668058
 21
-274.1496833605715
 31
0.0
  0
LINE
  5
227B
330
2184
100
AcDbEntity
  8
0
 62
     0
100
AcDbLine
 10
-41.07167055537138
 20
-272.8259180892623
 30
0.0
 11
-40.79761027123158
 21
-272.5518578051226
 31
0.0
  0
LINE
  5
227C
330
2184
100
AcDbEntity
  8
0
 62
     0
100
AcDbLine
 10
-41.92975566421597
 20
-273.6840031981069
 30
0.0
 11
-41.82996705797352
 21
-273.5842145918645
 31
0.0
  0
LINE
  5
227D
330
2184
100
AcDbEntity
  8
0
 62
     0
100
AcDbLine
 10
-41.3125493616727
 20
-273.0667968955636
 30
0.0
 11
-41.07167055537138
 21
-272.8259180892623
 31
0.0
  0
LINE
  5
227E
330
2184
100
AcDbEntity
  8
0
 62
     0
100
AcDbLine
 10
-43.17432619170667
 20
-274.7959912041251
 30
0.0
 11
-43.07218225731747
 21
-274.693847269736
 31
0.0
  0
LINE
  5
227F
330
2184
100
AcDbEntity
  8
0
 62
     0
100
AcDbLine
 10
-39.3859191353393
 20
-271.0075841477578
 30
0.0
 11
-38.49114994588624
 21
-270.1128149583047
 31
0.0
  0
LINE
  5
2280
330
2184
100
AcDbEntity
  8
0
 62
     0
100
AcDbLine
 10
-43.07218225731748
 20
-274.693847269736
 30
0.0
 11
-42.44018775111549
 21
-274.0618527635339
 31
0.0
  0
LINE
  5
2281
330
2184
100
AcDbEntity
  8
0
 62
     0
100
AcDbLine
 10
-41.06182405582166
 20
-272.6834890682401
 30
0.0
 11
-40.63340410879347
 21
-272.2550691212119
 31
0.0
  0
LINE
  5
2282
330
2184
100
AcDbEntity
  8
0
 62
     0
100
AcDbLine
 10
-41.97450758865088
 20
-273.5961726010693
 30
0.0
 11
-41.87471898240843
 21
-273.4963839948269
 31
0.0
  0
LINE
  5
2283
330
2184
100
AcDbEntity
  8
0
 62
     0
100
AcDbLine
 10
-41.30270286212296
 20
-272.9243678745414
 30
0.0
 11
-41.06182405582166
 21
-272.6834890682401
 31
0.0
  0
LINE
  5
2284
330
2184
100
AcDbEntity
  8
0
 62
     0
100
AcDbLine
 10
-43.2190781161416
 20
-274.7081606070876
 30
0.0
 11
-43.11693418175241
 21
-274.6060166726984
 31
0.0
  0
LINE
  5
2285
330
2184
100
AcDbEntity
  8
0
 62
     0
100
AcDbLine
 10
-39.51850165681178
 20
-271.0075841477578
 30
0.0
 11
-38.62373246735872
 21
-270.1128149583047
 31
0.0
  0
LINE
  5
2286
330
2184
100
AcDbEntity
  8
0
 62
     0
100
AcDbLine
 10
-43.11693418175241
 20
-274.6060166726984
 30
0.0
 11
-42.48493967555043
 21
-273.9740221664964
 31
0.0
  0
LINE
  5
2287
330
2184
100
AcDbEntity
  8
0
 62
     0
100
AcDbLine
 10
-41.04147028864789
 20
-272.5305527795939
 30
0.0
 11
-40.46919794635537
 21
-271.9582804373014
 31
0.0
  0
LINE
  5
2288
330
2184
100
AcDbEntity
  8
0
 62
     0
100
AcDbLine
 10
-42.0192595130858
 20
-273.5083420040318
 30
0.0
 11
-41.91947090684336
 21
-273.4085533977893
 31
0.0
  0
LINE
  5
2289
330
2184
100
AcDbEntity
  8
0
 62
     0
100
AcDbLine
 10
-41.29285636257323
 20
-272.7819388535192
 30
0.0
 11
-41.05197755627193
 21
-272.5410600472179
 31
0.0
  0
LINE
  5
228A
330
2184
100
AcDbEntity
  8
0
 62
     0
100
AcDbLine
 10
-43.26383004057651
 20
-274.62033001005
 30
0.0
 11
-43.16168610618734
 21
-274.5181860756609
 31
0.0
  0
LINE
  5
228B
330
2184
100
AcDbEntity
  8
0
 62
     0
100
AcDbLine
 10
-39.65108417828427
 20
-271.0075841477578
 30
0.0
 11
-38.7563149888312
 21
-270.1128149583047
 31
0.0
  0
LINE
  5
228C
330
2184
100
AcDbEntity
  8
0
 62
     0
100
AcDbLine
 10
-43.16168610618732
 20
-274.5181860756608
 30
0.0
 11
-42.52969159998534
 21
-273.8861915694589
 31
0.0
  0
LINE
  5
228D
330
2184
100
AcDbEntity
  8
0
 62
     0
100
AcDbLine
 10
-40.87726412620977
 20
-272.2337640956832
 30
0.0
 11
-40.30499178391731
 21
-271.6614917533908
 31
0.0
  0
LINE
  5
228E
330
2184
100
AcDbEntity
  8
0
 62
     0
100
AcDbLine
 10
-42.06401143752072
 20
-273.4205114069942
 30
0.0
 11
-41.96422283127828
 21
-273.3207228007517
 31
0.0
  0
LINE
  5
228F
330
2184
100
AcDbEntity
  8
0
 62
     0
100
AcDbLine
 10
-41.2830098630235
 20
-272.639509832497
 30
0.0
 11
-41.04213105672219
 21
-272.3986310261957
 31
0.0
  0
LINE
  5
2290
330
2184
100
AcDbEntity
  8
0
 62
     0
100
AcDbLine
 10
-43.30858196501145
 20
-274.5324994130124
 30
0.0
 11
-43.20643803062226
 21
-274.4303554786233
 31
0.0
  0
LINE
  5
2291
330
2184
100
AcDbEntity
  8
0
 62
     0
100
AcDbLine
 10
-39.78366669975674
 20
-271.0075841477578
 30
0.0
 11
-38.88889751030369
 21
-270.1128149583047
 31
0.0
  0
LINE
  5
2292
330
2184
100
AcDbEntity
  8
0
 62
     0
100
AcDbLine
 10
-43.20643803062226
 20
-274.4303554786232
 30
0.0
 11
-42.57444352442026
 21
-273.7983609724213
 31
0.0
  0
LINE
  5
2293
330
2184
100
AcDbEntity
  8
0
 62
     0
100
AcDbLine
 10
-40.71305796377171
 20
-271.9369754117727
 30
0.0
 11
-40.14078562147921
 21
-271.3647030694802
 31
0.0
  0
LINE
  5
2294
330
2184
100
AcDbEntity
  8
0
 62
     0
100
AcDbLine
 10
-42.10876336195565
 20
-273.3326808099567
 30
0.0
 11
-42.00897475571321
 21
-273.2328922037142
 31
0.0
  0
LINE
  5
2295
330
2184
100
AcDbEntity
  8
0
 62
     0
100
AcDbLine
 10
-41.27316336347377
 20
-272.4970808114748
 30
0.0
 11
-41.03228455717245
 21
-272.2562020051735
 31
0.0
  0
LINE
  5
2296
330
2184
100
AcDbEntity
  8
0
 62
     0
100
AcDbLine
 10
-43.35333388944637
 20
-274.4446688159749
 30
0.0
 11
-43.25118995505717
 21
-274.3425248815857
 31
0.0
  0
LINE
  5
2297
330
2184
100
AcDbEntity
  8
0
 62
     0
100
AcDbLine
 10
-39.9162492212292
 20
-271.0075841477578
 30
0.0
 11
-39.02148003177617
 21
-270.1128149583047
 31
0.0
  0
LINE
  5
2298
330
2184
100
AcDbEntity
  8
0
 62
     0
100
AcDbLine
 10
-43.25118995505718
 20
-274.3425248815857
 30
0.0
 11
-42.61919544885519
 21
-273.7105303753837
 31
0.0
  0
LINE
  5
2299
330
2184
100
AcDbEntity
  8
0
 62
     0
100
AcDbLine
 10
-40.5488518013336
 20
-271.6401867278622
 30
0.0
 11
-39.97657945904111
 21
-271.0679143855696
 31
0.0
  0
LINE
  5
229A
330
2184
100
AcDbEntity
  8
0
 62
     0
100
AcDbLine
 10
-42.15351528639057
 20
-273.2448502129191
 30
0.0
 11
-42.05372668014815
 21
-273.1450616066767
 31
0.0
  0
LINE
  5
229B
330
2184
100
AcDbEntity
  8
0
 62
     0
100
AcDbLine
 10
-41.26331686392403
 20
-272.3546517904526
 30
0.0
 11
-41.02243805762273
 21
-272.1137729841512
 31
0.0
  0
LINE
  5
229C
330
2184
100
AcDbEntity
  8
0
 62
     0
100
AcDbLine
 10
-43.39808581388129
 20
-274.3568382189374
 30
0.0
 11
-43.29594187949211
 21
-274.2546942845482
 31
0.0
  0
LINE
  5
229D
330
2184
100
AcDbEntity
  8
0
 62
     0
100
AcDbLine
 10
-40.04883174270166
 20
-271.0075841477577
 30
0.0
 11
-39.15406255324862
 21
-270.1128149583047
 31
0.0
  0
LINE
  5
229E
330
2184
100
AcDbEntity
  8
0
 62
     0
100
AcDbLine
 10
-43.29594187949211
 20
-274.2546942845482
 30
0.0
 11
-42.66394737329011
 21
-273.6226997783461
 31
0.0
  0
LINE
  5
229F
330
2184
100
AcDbEntity
  8
0
 62
     0
100
AcDbLine
 10
-40.38464563889553
 20
-271.3433980439516
 30
0.0
 11
-40.04883174270168
 21
-271.0075841477578
 31
0.0
  0
LINE
  5
22A0
330
2184
100
AcDbEntity
  8
0
 62
     0
100
AcDbLine
 10
-42.19826721082549
 20
-273.1570196158815
 30
0.0
 11
-42.09847860458307
 21
-273.0572310096391
 31
0.0
  0
LINE
  5
22A1
330
2184
100
AcDbEntity
  8
0
 62
     0
100
AcDbLine
 10
-41.25347036437431
 20
-272.2122227694304
 30
0.0
 11
-41.01259155807299
 21
-271.971343963129
 31
0.0
  0
LINE
  5
22A2
330
2184
100
AcDbEntity
  8
0
 62
     0
100
AcDbLine
 10
-43.44283773831622
 20
-274.2690076218998
 30
0.0
 11
-43.34069380392703
 21
-274.1668636875106
 31
0.0
  0
LINE
  5
22A3
330
2184
100
AcDbEntity
  8
0
 62
     0
100
AcDbLine
 10
-40.18141426417416
 20
-271.0075841477577
 30
0.0
 11
-39.28664507472111
 21
-270.1128149583047
 31
0.0
  0
LINE
  5
22A4
330
2184
100
AcDbEntity
  8
0
 62
     0
100
AcDbLine
 10
-43.34069380392703
 20
-274.1668636875106
 30
0.0
 11
-42.70869929772504
 21
-273.5348691813086
 31
0.0
  0
LINE
  5
22A5
330
2184
100
AcDbEntity
  8
0
 62
     0
100
AcDbLine
 10
-40.22043947645742
 20
-271.046609360041
 30
0.0
 11
-40.18141426417416
 21
-271.0075841477578
 31
0.0
  0
LINE
  5
22A6
330
2184
100
AcDbEntity
  8
0
 62
     0
100
AcDbLine
 10
-42.24301913526041
 20
-273.069189018844
 30
0.0
 11
-42.14323052901799
 21
-272.9694004126015
 31
0.0
  0
LINE
  5
22A7
330
2184
100
AcDbEntity
  8
0
 62
     0
100
AcDbLine
 10
-41.24362386482458
 20
-272.0697937484081
 30
0.0
 11
-41.00274505852326
 21
-271.8289149421068
 31
0.0
  0
LINE
  5
22A8
330
2184
100
AcDbEntity
  8
0
 62
     0
100
AcDbLine
 10
-43.48758966275113
 20
-274.1811770248623
 30
0.0
 11
-43.38544572836195
 21
-274.0790330904731
 31
0.0
  0
LINE
  5
22A9
330
2184
100
AcDbEntity
  8
0
 62
     0
100
AcDbLine
 10
-40.31399678564665
 20
-271.0075841477578
 30
0.0
 11
-39.41922759619359
 21
-270.1128149583047
 31
0.0
  0
LINE
  5
22AA
330
2184
100
AcDbEntity
  8
0
 62
     0
100
AcDbLine
 10
-43.38544572836195
 20
-274.0790330904731
 30
0.0
 11
-42.75345122215997
 21
-273.447038584271
 31
0.0
  0
LINE
  5
22AB
330
2184
100
AcDbEntity
  8
0
 62
     0
100
AcDbLine
 10
-41.23377736527484
 20
-271.9273647273859
 30
0.0
 11
-40.99289855897352
 21
-271.6864859210846
 31
0.0
  0
LINE
  5
22AC
330
2184
100
AcDbEntity
  8
0
 62
     0
100
AcDbLine
 10
-42.28777105969533
 20
-272.9813584218064
 30
0.0
 11
-42.18798245345292
 21
-272.881569815564
 31
0.0
  0
LINE
  5
22AD
330
2184
100
AcDbEntity
  8
0
 62
     0
100
AcDbLine
 10
-43.53234158718605
 20
-274.0933464278247
 30
0.0
 11
-43.43019765279687
 21
-273.9912024934355
 31
0.0
  0
LINE
  5
22AE
330
2184
100
AcDbEntity
  8
0
 62
     0
100
AcDbLine
 10
-40.44657930711912
 20
-271.0075841477578
 30
0.0
 11
-39.55181011766607
 21
-270.1128149583047
 31
0.0
  0
LINE
  5
22AF
330
2184
100
AcDbEntity
  8
0
 62
     0
100
AcDbLine
 10
-43.43019765279688
 20
-273.9912024934355
 30
0.0
 11
-42.79820314659487
 21
-273.3592079872335
 31
0.0
  0
LINE
  5
22B0
330
2184
100
AcDbEntity
  8
0
 62
     0
100
AcDbLine
 10
-41.22393086572511
 20
-271.7849357063637
 30
0.0
 11
-40.9830520594238
 21
-271.5440569000624
 31
0.0
  0
LINE
  5
22B1
330
2184
100
AcDbEntity
  8
0
 62
     0
100
AcDbLine
 10
-42.33252298413026
 20
-272.8935278247689
 30
0.0
 11
-42.23273437788784
 21
-272.7937392185264
 31
0.0
  0
LINE
  5
22B2
330
2184
100
AcDbEntity
  8
0
 62
     0
100
AcDbLine
 10
-43.57709351162099
 20
-274.0055158307872
 30
0.0
 11
-43.4749495772318
 21
-273.903371896398
 31
0.0
  0
LINE
  5
22B3
330
2184
100
AcDbEntity
  8
0
 62
     0
100
AcDbLine
 10
-40.57916182859158
 20
-271.0075841477578
 30
0.0
 11
-39.68439263913856
 21
-270.1128149583047
 31
0.0
  0
LINE
  5
22B4
330
2184
100
AcDbEntity
  8
0
 62
     0
100
AcDbLine
 10
-43.4749495772318
 20
-273.903371896398
 30
0.0
 11
-42.84295507102982
 21
-273.2713773901959
 31
0.0
  0
LINE
  5
22B5
330
2184
100
AcDbEntity
  8
0
 62
     0
100
AcDbLine
 10
-41.21408436617539
 20
-271.6425066853415
 30
0.0
 11
-40.97320555987406
 21
-271.4016278790402
 31
0.0
  0
LINE
  5
22B6
330
2184
100
AcDbEntity
  8
0
 62
     0
100
AcDbLine
 10
-42.37727490856518
 20
-272.8056972277314
 30
0.0
 11
-42.27748630232276
 21
-272.705908621489
 31
0.0
  0
LINE
  5
22B7
330
2184
100
AcDbEntity
  8
0
 62
     0
100
AcDbLine
 10
-43.6218454360559
 20
-273.9176852337496
 30
0.0
 11
-43.51970150166672
 21
-273.8155412993604
 31
0.0
  0
LINE
  5
22B8
330
2184
100
AcDbEntity
  8
0
 62
     0
100
AcDbLine
 10
-40.71174435006406
 20
-271.0075841477578
 30
0.0
 11
-39.81697516061101
 21
-270.1128149583047
 31
0.0
  0
LINE
  5
22B9
330
2184
100
AcDbEntity
  8
0
 62
     0
100
AcDbLine
 10
-43.51970150166672
 20
-273.8155412993604
 30
0.0
 11
-42.88770699546473
 21
-273.1835467931584
 31
0.0
  0
LINE
  5
22BA
330
2184
100
AcDbEntity
  8
0
 62
     0
100
AcDbLine
 10
-41.20423786662565
 20
-271.5000776643193
 30
0.0
 11
-40.96335906032432
 21
-271.259198858018
 31
0.0
  0
LINE
  5
22BB
330
2184
100
AcDbEntity
  8
0
 62
     0
100
AcDbLine
 10
-42.4220268330001
 20
-272.7178666306938
 30
0.0
 11
-42.32223822675769
 21
-272.6180780244514
 31
0.0
  0
LINE
  5
22BC
330
2184
100
AcDbEntity
  8
0
 62
     0
100
AcDbLine
 10
-43.66659736049083
 20
-273.829854636712
 30
0.0
 11
-43.56445342610165
 21
-273.7277107023229
 31
0.0
  0
LINE
  5
22BD
330
2184
100
AcDbEntity
  8
0
 62
     0
100
AcDbLine
 10
-40.84432687153655
 20
-271.0075841477578
 30
0.0
 11
-39.94955768208349
 21
-270.1128149583047
 31
0.0
  0
LINE
  5
22BE
330
2184
100
AcDbEntity
  8
0
 62
     0
100
AcDbLine
 10
-43.56445342610164
 20
-273.7277107023228
 30
0.0
 11
-42.93245891989965
 21
-273.0957161961208
 31
0.0
  0
LINE
  5
22BF
330
2184
100
AcDbEntity
  8
0
 62
     0
100
AcDbLine
 10
-41.19439136707593
 20
-271.3576486432971
 30
0.0
 11
-40.95351256077459
 21
-271.1167698369958
 31
0.0
  0
LINE
  5
22C0
330
2184
100
AcDbEntity
  8
0
 62
     0
100
AcDbLine
 10
-42.46677875743502
 20
-272.6300360336562
 30
0.0
 11
-42.36699015119261
 21
-272.5302474274138
 31
0.0
  0
LINE
  5
22C1
330
2184
100
AcDbEntity
  8
0
 62
     0
100
AcDbLine
 10
-43.71134928492576
 20
-273.7420240396744
 30
0.0
 11
-43.60920535053657
 21
-273.6398801052853
 31
0.0
  0
LINE
  5
22C2
330
2184
100
AcDbEntity
  8
0
 62
     0
100
AcDbLine
 10
-40.97690939300903
 20
-271.0075841477578
 30
0.0
 11
-40.08214020355597
 21
-270.1128149583047
 31
0.0
  0
LINE
  5
22C3
330
2184
100
AcDbEntity
  8
0
 62
     0
100
AcDbLine
 10
-43.60920535053657
 20
-273.6398801052853
 30
0.0
 11
-42.97721084433458
 21
-273.0078855990833
 31
0.0
  0
LINE
  5
22C4
330
2184
100
AcDbEntity
  8
0
 62
     0
100
AcDbLine
 10
-41.1845448675262
 20
-271.2152196222749
 30
0.0
 11
-40.97690939300904
 21
-271.0075841477578
 31
0.0
  0
LINE
  5
22C5
330
2184
100
AcDbEntity
  8
0
 62
     0
100
AcDbLine
 10
-42.51153068186996
 20
-272.5422054366187
 30
0.0
 11
-42.41174207562753
 21
-272.4424168303762
 31
0.0
  0
LINE
  5
22C6
330
2184
100
AcDbEntity
  8
0
 62
     0
100
AcDbLine
 10
-43.75610120936068
 20
-273.6541934426369
 30
0.0
 11
-43.65395727497149
 21
-273.5520495082478
 31
0.0
  0
LINE
  5
22C7
330
2184
100
AcDbEntity
  8
0
 62
     0
100
AcDbLine
 10
-41.10949191448152
 20
-271.0075841477578
 30
0.0
 11
-40.21472272502846
 21
-270.1128149583047
 31
0.0
  0
LINE
  5
22C8
330
2184
100
AcDbEntity
  8
0
 62
     0
100
AcDbLine
 10
-43.65395727497149
 20
-273.5520495082478
 30
0.0
 11
-43.02196276876951
 21
-272.9200550020458
 31
0.0
  0
LINE
  5
22C9
330
2184
100
AcDbEntity
  8
0
 62
     0
100
AcDbLine
 10
-41.17469836797646
 20
-271.0727906012527
 30
0.0
 11
-41.10949191448153
 21
-271.0075841477578
 31
0.0
  0
LINE
  5
22CA
330
2184
100
AcDbEntity
  8
0
 62
     0
100
AcDbLine
 10
-42.55628260630487
 20
-272.4543748395811
 30
0.0
 11
-42.45649400006246
 21
-272.3545862333387
 31
0.0
  0
LINE
  5
22CB
330
2184
100
AcDbEntity
  8
0
 62
     0
100
AcDbLine
 10
-43.8008531337956
 20
-273.5663628455994
 30
0.0
 11
-43.69870919940642
 21
-273.4642189112102
 31
0.0
  0
LINE
  5
22CC
330
2184
100
AcDbEntity
  8
0
 62
     0
100
AcDbLine
 10
-41.242074435954
 20
-271.0075841477578
 30
0.0
 11
-40.34730524650094
 21
-270.1128149583047
 31
0.0
  0
LINE
  5
22CD
330
2184
100
AcDbEntity
  8
0
 62
     0
100
AcDbLine
 10
-43.69870919940643
 20
-273.4642189112102
 30
0.0
 11
-43.06671469320444
 21
-272.8322244050082
 31
0.0
  0
LINE
  5
22CE
330
2184
100
AcDbEntity
  8
0
 62
     0
100
AcDbLine
 10
-42.6010345307398
 20
-272.3665442425436
 30
0.0
 11
-42.50124592449738
 21
-272.2667556363012
 31
0.0
  0
LINE
  5
22CF
330
2184
100
AcDbEntity
  8
0
 62
     0
100
AcDbLine
 10
-43.84560505823052
 20
-273.4785322485618
 30
0.0
 11
-43.74346112384134
 21
-273.3763883141727
 31
0.0
  0
LINE
  5
22D0
330
2184
100
AcDbEntity
  8
0
 62
     0
100
AcDbLine
 10
-41.37465695742645
 20
-271.0075841477578
 30
0.0
 11
-40.47988776797339
 21
-270.1128149583047
 31
0.0
  0
LINE
  5
22D1
330
2184
100
AcDbEntity
  8
0
 62
     0
100
AcDbLine
 10
-43.74346112384134
 20
-273.3763883141726
 30
0.0
 11
-43.11146661763936
 21
-272.7443938079706
 31
0.0
  0
LINE
  5
22D2
330
2184
100
AcDbEntity
  8
0
 62
     0
100
AcDbLine
 10
-42.64578645517471
 20
-272.278713645506
 30
0.0
 11
-42.5459978489323
 21
-272.1789250392636
 31
0.0
  0
LINE
  5
22D3
330
2184
100
AcDbEntity
  8
0
 62
     0
100
AcDbLine
 10
-43.89035698266545
 20
-273.3907016515242
 30
0.0
 11
-43.78821304827627
 21
-273.2885577171351
 31
0.0
  0
LINE
  5
22D4
330
2184
100
AcDbEntity
  8
0
 62
     0
100
AcDbLine
 10
-41.50723947889893
 20
-271.0075841477578
 30
0.0
 11
-40.61247028944587
 21
-270.1128149583047
 31
0.0
  0
LINE
  5
22D5
330
2184
100
AcDbEntity
  8
0
 62
     0
100
AcDbLine
 10
-43.78821304827627
 20
-273.2885577171351
 30
0.0
 11
-43.15621854207427
 21
-272.6565632109331
 31
0.0
  0
LINE
  5
22D6
330
2184
100
AcDbEntity
  8
0
 62
     0
100
AcDbLine
 10
-42.69053837960965
 20
-272.1908830484685
 30
0.0
 11
-42.59074977336722
 21
-272.0910944422261
 31
0.0
  0
LINE
  5
22D7
330
2184
100
AcDbEntity
  8
0
 62
     0
100
AcDbLine
 10
-43.93510890710039
 20
-273.3028710544867
 30
0.0
 11
-43.83296497271119
 21
-273.2007271200976
 31
0.0
  0
LINE
  5
22D8
330
2184
100
AcDbEntity
  8
0
 62
     0
100
AcDbLine
 10
-41.63982200037142
 20
-271.0075841477578
 30
0.0
 11
-40.74505281091837
 21
-270.1128149583047
 31
0.0
  0
LINE
  5
22D9
330
2184
100
AcDbEntity
  8
0
 62
     0
100
AcDbLine
 10
-43.83296497271119
 20
-273.2007271200975
 30
0.0
 11
-43.2009704665092
 21
-272.5687326138955
 31
0.0
  0
LINE
  5
22DA
330
2184
100
AcDbEntity
  8
0
 62
     0
100
AcDbLine
 10
-42.73529030404456
 20
-272.1030524514309
 30
0.0
 11
-42.63550169780215
 21
-272.0032638451885
 31
0.0
  0
LINE
  5
22DB
330
2184
100
AcDbEntity
  8
0
 62
     0
100
AcDbLine
 10
-43.97986083153529
 20
-273.2150404574491
 30
0.0
 11
-43.87771689714611
 21
-273.11289652306
 31
0.0
  0
LINE
  5
22DC
330
2184
100
AcDbEntity
  8
0
 62
     0
100
AcDbLine
 10
-41.7724045218439
 20
-271.0075841477578
 30
0.0
 11
-40.87763533239084
 21
-270.1128149583047
 31
0.0
  0
LINE
  5
22DD
330
2184
100
AcDbEntity
  8
0
 62
     0
100
AcDbLine
 10
-43.87771689714612
 20
-273.11289652306
 30
0.0
 11
-43.24572239094412
 21
-272.480902016858
 31
0.0
  0
LINE
  5
22DE
330
2184
100
AcDbEntity
  8
0
 62
     0
100
AcDbLine
 10
-42.78004222847949
 20
-272.0152218543934
 30
0.0
 11
-42.68025362223707
 21
-271.9154332481509
 31
0.0
  0
LINE
  5
22DF
330
2184
100
AcDbEntity
  8
0
 62
     0
100
AcDbLine
 10
-44.02461275597022
 20
-273.1272098604116
 30
0.0
 11
-43.92246882158103
 21
-273.0250659260224
 31
0.0
  0
LINE
  5
22E0
330
2184
100
AcDbEntity
  8
0
 62
     0
100
AcDbLine
 10
-41.90498704331639
 20
-271.0075841477578
 30
0.0
 11
-41.01021785386333
 21
-270.1128149583047
 31
0.0
  0
LINE
  5
22E1
330
2184
100
AcDbEntity
  8
0
 62
     0
100
AcDbLine
 10
-43.92246882158103
 20
-273.0250659260224
 30
0.0
 11
-43.29047431537905
 21
-272.3930714198204
 31
0.0
  0
LINE
  5
22E2
330
2184
100
AcDbEntity
  8
0
 62
     0
100
AcDbLine
 10
-42.8247941529144
 20
-271.9273912573558
 30
0.0
 11
-42.72500554667199
 21
-271.8276026511134
 31
0.0
  0
LINE
  5
22E3
330
2184
100
AcDbEntity
  8
0
 62
     0
100
AcDbLine
 10
-44.06936468040514
 20
-273.0393792633741
 30
0.0
 11
-43.96722074601596
 21
-272.9372353289849
 31
0.0
  0
LINE
  5
22E4
330
2184
100
AcDbEntity
  8
0
 62
     0
100
AcDbLine
 10
-42.03756956478883
 20
-271.0075841477578
 30
0.0
 11
-41.14280037533577
 21
-270.1128149583047
 31
0.0
  0
LINE
  5
22E5
330
2184
100
AcDbEntity
  8
0
 62
     0
100
AcDbLine
 10
-43.96722074601596
 20
-272.9372353289849
 30
0.0
 11
-43.33522623981397
 21
-272.3052408227829
 31
0.0
  0
LINE
  5
22E6
330
2184
100
AcDbEntity
  8
0
 62
     0
100
AcDbLine
 10
-42.86954607734934
 20
-271.8395606603182
 30
0.0
 11
-42.76975747110692
 21
-271.7397720540759
 31
0.0
  0
LINE
  5
22E7
330
2184
100
AcDbEntity
  8
0
 62
     0
100
AcDbLine
 10
-44.11411660484007
 20
-272.9515486663365
 30
0.0
 11
-44.01197267045088
 21
-272.8494047319474
 31
0.0
  0
LINE
  5
22E8
330
2184
100
AcDbEntity
  8
0
 62
     0
100
AcDbLine
 10
-42.17015208626132
 20
-271.0075841477578
 30
0.0
 11
-41.27538289680827
 21
-270.1128149583047
 31
0.0
  0
LINE
  5
22E9
330
2184
100
AcDbEntity
  8
0
 62
     0
100
AcDbLine
 10
-44.01197267045089
 20
-272.8494047319474
 30
0.0
 11
-43.3799781642489
 21
-272.2174102257453
 31
0.0
  0
LINE
  5
22EA
330
2184
100
AcDbEntity
  8
0
 62
     0
100
AcDbLine
 10
-42.91429800178426
 20
-271.7517300632807
 30
0.0
 11
-42.81450939554184
 21
-271.6519414570383
 31
0.0
  0
LINE
  5
22EB
330
2184
100
AcDbEntity
  8
0
 62
     0
100
AcDbLine
 10
-43.03552049306387
 20
-271.8729525545603
 30
0.0
 11
-42.91429800178426
 21
-271.7517300632807
 31
0.0
  0
LINE
  5
22EC
330
2184
100
AcDbEntity
  8
0
 62
     0
100
AcDbLine
 10
-44.15886852927499
 20
-272.8637180692989
 30
0.0
 11
-44.0567245948858
 21
-272.7615741349098
 31
0.0
  0
LINE
  5
22ED
330
2184
100
AcDbEntity
  8
0
 62
     0
100
AcDbLine
 10
-42.30273460773381
 20
-271.0075841477578
 30
0.0
 11
-41.40796541828075
 21
-270.1128149583047
 31
0.0
  0
LINE
  5
22EE
330
2184
100
AcDbEntity
  8
0
 62
     0
100
AcDbLine
 10
-44.05672459488581
 20
-272.7615741349098
 30
0.0
 11
-43.42473008868381
 21
-272.1295796287078
 31
0.0
  0
LINE
  5
22EF
330
2184
100
AcDbEntity
  8
0
 62
     0
100
AcDbLine
 10
-42.95904992621917
 20
-271.6638994662432
 30
0.0
 11
-42.85926131997678
 21
-271.5641108600007
 31
0.0
  0
LINE
  5
22F0
330
2184
100
AcDbEntity
  8
0
 62
     0
100
AcDbLine
 10
-43.30583527562661
 20
-272.0106848156506
 30
0.0
 11
-43.03567928394395
 21
-271.7405288239679
 31
0.0
  0
LINE
  5
22F1
330
2184
100
AcDbEntity
  8
0
 62
     0
100
AcDbLine
 10
-44.20362045370992
 20
-272.7758874722614
 30
0.0
 11
-44.10147651932073
 21
-272.6737435378722
 31
0.0
  0
LINE
  5
22F2
330
2184
100
AcDbEntity
  8
0
 62
     0
100
AcDbLine
 10
-42.43531712920629
 20
-271.0075841477578
 30
0.0
 11
-41.54054793975324
 21
-270.1128149583047
 31
0.0
  0
LINE
  5
22F3
330
2184
100
AcDbEntity
  8
0
 62
     0
100
AcDbLine
 10
-44.10147651932073
 20
-272.6737435378722
 30
0.0
 11
-43.57615005818931
 21
-272.1484170767408
 31
0.0
  0
LINE
  5
22F4
330
2184
100
AcDbEntity
  8
0
 62
     0
100
AcDbLine
 10
-43.00380185065409
 20
-271.5760688692056
 30
0.0
 11
-42.9040132444117
 21
-271.4762802629631
 31
0.0
  0
LINE
  5
22F5
330
2184
100
AcDbEntity
  8
0
 62
     0
100
AcDbLine
 10
-43.57615005818945
 20
-272.1484170767408
 30
0.0
 11
-43.29449434520518
 21
-271.8667613637567
 31
0.0
  0
LINE
  5
22F6
330
2184
100
AcDbEntity
  8
0
 62
     0
100
AcDbLine
 10
-44.24837237814484
 20
-272.6880568752238
 30
0.0
 11
-44.14622844375565
 21
-272.5859129408347
 31
0.0
  0
LINE
  5
22F7
330
2184
100
AcDbEntity
  8
0
 62
     0
100
AcDbLine
 10
-42.56789965067877
 20
-271.0075841477578
 30
0.0
 11
-41.67313046122571
 21
-270.1128149583047
 31
0.0
  0
LINE
  5
22F8
330
2184
100
AcDbEntity
  8
0
 62
     0
100
AcDbLine
 10
-44.14622844375567
 20
-272.5859129408347
 30
0.0
 11
-43.81389900091518
 21
-272.2535834979942
 31
0.0
  0
LINE
  5
22F9
330
2184
100
AcDbEntity
  8
0
 62
     0
100
AcDbLine
 10
-43.04855377508903
 20
-271.488238272168
 30
0.0
 11
-42.94876516884662
 21
-271.3884496659257
 31
0.0
  0
LINE
  5
22FA
330
2184
100
AcDbEntity
  8
0
 62
     0
100
AcDbLine
 10
-43.81389900091516
 20
-272.2535834979942
 30
0.0
 11
-43.5533094064665
 21
-271.9929939035455
 31
0.0
  0
LINE
  5
22FB
330
2184
100
AcDbEntity
  8
0
 62
     0
100
AcDbLine
 10
-43.55330940646641
 20
-271.9929939035454
 30
0.0
 11
-43.51423393755367
 21
-271.9539184346327
 31
0.0
  0
LINE
  5
22FC
330
2184
100
AcDbEntity
  8
0
 62
     0
100
AcDbLine
 10
-44.29312430257975
 20
-272.6002262781863
 30
0.0
 11
-44.19098036819057
 21
-272.4980823437971
 31
0.0
  0
LINE
  5
22FD
330
2184
100
AcDbEntity
  8
0
 62
     0
100
AcDbLine
 10
-42.70048217215122
 20
-271.0075841477578
 30
0.0
 11
-41.80571298269817
 21
-270.1128149583047
 31
0.0
  0
LINE
  5
22FE
330
2184
100
AcDbEntity
  8
0
 62
     0
100
AcDbLine
 10
-44.19098036819058
 20
-272.4980823437971
 30
0.0
 11
-43.85736435006013
 21
-272.1644663256667
 31
0.0
  0
LINE
  5
22FF
330
2184
100
AcDbEntity
  8
0
 62
     0
100
AcDbLine
 10
-43.09330569952394
 20
-271.4004076751304
 30
0.0
 11
-42.99351709328155
 21
-271.3006190688881
 31
0.0
  0
LINE
  5
2300
330
2184
100
AcDbEntity
  8
0
 62
     0
100
AcDbLine
 10
-43.85736435006017
 20
-272.1644663256666
 30
0.0
 11
-43.81212446772781
 21
-272.1192264433343
 31
0.0
  0
LINE
  5
2301
330
2184
100
AcDbEntity
  8
0
 62
     0
100
AcDbLine
 10
-43.81212446772774
 20
-272.1192264433343
 30
0.0
 11
-43.5589858619886
 21
-271.8660878375951
 31
0.0
  0
LINE
  5
2302
330
2184
100
AcDbEntity
  8
0
 62
     0
100
AcDbLine
 10
-44.33787622701468
 20
-272.5123956811487
 30
0.0
 11
-44.23573229262551
 21
-272.4102517467596
 31
0.0
  0
LINE
  5
2303
330
2184
100
AcDbEntity
  8
0
 62
     0
100
AcDbLine
 10
-42.83306469362371
 20
-271.0075841477578
 30
0.0
 11
-41.93829550417065
 21
-270.1128149583047
 31
0.0
  0
LINE
  5
2304
330
2184
100
AcDbEntity
  8
0
 62
     0
100
AcDbLine
 10
-44.23573229262551
 20
-272.4102517467596
 30
0.0
 11
-43.60373778642352
 21
-271.7782572405575
 31
0.0
  0
LINE
  5
2305
330
2184
100
AcDbEntity
  8
0
 62
     0
100
AcDbLine
 10
-43.13805762395886
 20
-271.3125770780929
 30
0.0
 11
-43.03826901771647
 21
-271.2127884718505
 31
0.0
  0
LINE
  5
2306
330
2184
100
AcDbEntity
  8
0
 62
     0
100
AcDbLine
 10
-44.38262815144962
 20
-272.4245650841112
 30
0.0
 11
-44.28048421706043
 21
-272.3224211497221
 31
0.0
  0
LINE
  5
2307
330
2184
100
AcDbEntity
  8
0
 62
     0
100
AcDbLine
 10
-42.9656472150962
 20
-271.0075841477578
 30
0.0
 11
-42.07087802564314
 21
-270.1128149583047
 31
0.0
  0
LINE
  5
2308
330
2184
100
AcDbEntity
  8
0
 62
     0
100
AcDbLine
 10
-44.28048421706043
 20
-272.322421149722
 30
0.0
 11
-43.64848971085844
 21
-271.69042664352
 31
0.0
  0
LINE
  5
2309
330
2184
100
AcDbEntity
  8
0
 62
     0
100
AcDbLine
 10
-43.18280954839378
 20
-271.2247464810554
 30
0.0
 11
-43.08302094215139
 21
-271.1249578748129
 31
0.0
  0
LINE
  5
230A
330
2184
100
AcDbEntity
  8
0
 62
     0
100
AcDbLine
 10
-44.42738007588452
 20
-272.3367344870736
 30
0.0
 11
-44.32523614149536
 21
-272.2345905526844
 31
0.0
  0
LINE
  5
230B
330
2184
100
AcDbEntity
  8
0
 62
     0
100
AcDbLine
 10
-43.09822973656867
 20
-271.0075841477578
 30
0.0
 11
-42.20346054711562
 21
-270.1128149583047
 31
0.0
  0
LINE
  5
230C
330
2184
100
AcDbEntity
  8
0
 62
     0
100
AcDbLine
 10
-44.32523614149537
 20
-272.2345905526844
 30
0.0
 11
-43.69324163529338
 21
-271.6025960464825
 31
0.0
  0
LINE
  5
230D
330
2184
100
AcDbEntity
  8
0
 62
     0
100
AcDbLine
 10
-43.22756147282872
 20
-271.1369158840178
 30
0.0
 11
-43.12777286658632
 21
-271.0371272777754
 31
0.0
  0
LINE
  5
230E
330
2184
100
AcDbEntity
  8
0
 62
     0
100
AcDbLine
 10
-44.47213200031946
 20
-272.2489038900361
 30
0.0
 11
-44.36998806593027
 21
-272.1467599556469
 31
0.0
  0
LINE
  5
230F
330
2184
100
AcDbEntity
  8
0
 62
     0
100
AcDbLine
 10
-43.23081225804116
 20
-271.0075841477578
 30
0.0
 11
-42.3360430685881
 21
-270.1128149583047
 31
0.0
  0
LINE
  5
2310
330
2184
100
AcDbEntity
  8
0
 62
     0
100
AcDbLine
 10
-44.36998806593028
 20
-272.1467599556469
 30
0.0
 11
-43.7379935597283
 21
-271.5147654494449
 31
0.0
  0
LINE
  5
2311
330
2184
100
AcDbEntity
  8
0
 62
     0
100
AcDbLine
 10
-43.27231339726363
 20
-271.0490852869802
 30
0.0
 11
-43.23081225804115
 21
-271.0075841477578
 31
0.0
  0
LINE
  5
2312
330
2184
100
AcDbEntity
  8
0
 62
     0
100
AcDbLine
 10
-44.51688392475437
 20
-272.1610732929985
 30
0.0
 11
-44.41473999036521
 21
-272.0589293586094
 31
0.0
  0
LINE
  5
2313
330
2184
100
AcDbEntity
  8
0
 62
     0
100
AcDbLine
 10
-43.36339477951361
 20
-271.0075841477578
 30
0.0
 11
-42.46862559006059
 21
-270.1128149583047
 31
0.0
  0
LINE
  5
2314
330
2184
100
AcDbEntity
  8
0
 62
     0
100
AcDbLine
 10
-44.4147399903652
 20
-272.0589293586093
 30
0.0
 11
-43.78274548416323
 21
-271.4269348524073
 31
0.0
  0
LINE
  5
2315
330
2184
100
AcDbEntity
  8
0
 62
     0
100
AcDbLine
 10
-44.5616358491893
 20
-272.0732426959609
 30
0.0
 11
-44.45949191480012
 21
-271.9710987615718
 31
0.0
  0
LINE
  5
2316
330
2184
100
AcDbEntity
  8
0
 62
     0
100
AcDbLine
 10
-43.4959773009861
 20
-271.0075841477578
 30
0.0
 11
-42.60120811153304
 21
-270.1128149583047
 31
0.0
  0
LINE
  5
2317
330
2184
100
AcDbEntity
  8
0
 62
     0
100
AcDbLine
 10
-44.45949191480013
 20
-271.9710987615718
 30
0.0
 11
-43.82749740859814
 21
-271.3391042553698
 31
0.0
  0
LINE
  5
2318
330
2184
100
AcDbEntity
  8
0
 62
     0
100
AcDbLine
 10
-44.60638777362423
 20
-271.9854120989233
 30
0.0
 11
-44.50424383923505
 21
-271.8832681645342
 31
0.0
  0
LINE
  5
2319
330
2184
100
AcDbEntity
  8
0
 62
     0
100
AcDbLine
 10
-43.62855982245858
 20
-271.0075841477578
 30
0.0
 11
-42.73379063300552
 21
-270.1128149583047
 31
0.0
  0
LINE
  5
231A
330
2184
100
AcDbEntity
  8
0
 62
     0
100
AcDbLine
 10
-44.50424383923506
 20
-271.8832681645342
 30
0.0
 11
-43.87224933303307
 21
-271.2512736583323
 31
0.0
  0
LINE
  5
231B
330
2184
100
AcDbEntity
  8
0
 62
     0
100
AcDbLine
 10
-44.65113969805915
 20
-271.8975815018858
 30
0.0
 11
-44.54899576366996
 21
-271.7954375674967
 31
0.0
  0
LINE
  5
231C
330
2184
100
AcDbEntity
  8
0
 62
     0
100
AcDbLine
 10
-43.76114234393106
 20
-271.0075841477578
 30
0.0
 11
-42.86637315447801
 21
-270.1128149583047
 31
0.0
  0
LINE
  5
231D
330
2184
100
AcDbEntity
  8
0
 62
     0
100
AcDbLine
 10
-44.54899576366997
 20
-271.7954375674967
 30
0.0
 11
-43.91700125746799
 21
-271.1634430612947
 31
0.0
  0
LINE
  5
231E
330
2184
100
AcDbEntity
  8
0
 62
     0
100
AcDbLine
 10
-44.69589162249408
 20
-271.8097509048483
 30
0.0
 11
-44.5937476881049
 21
-271.7076069704591
 31
0.0
  0
LINE
  5
231F
330
2184
100
AcDbEntity
  8
0
 62
     0
100
AcDbLine
 10
-43.89372486540355
 20
-271.0075841477578
 30
0.0
 11
-42.99895567595049
 21
-270.1128149583047
 31
0.0
  0
LINE
  5
2320
330
2184
100
AcDbEntity
  8
0
 62
     0
100
AcDbLine
 10
-44.59374768810491
 20
-271.7076069704591
 30
0.0
 11
-43.96175318190293
 21
-271.0756124642572
 31
0.0
  0
LINE
  5
2321
330
2184
100
AcDbEntity
  8
0
 62
     0
100
AcDbLine
 10
-44.74064354692899
 20
-271.7219203078107
 30
0.0
 11
-44.63849961253981
 21
-271.6197763734216
 31
0.0
  0
LINE
  5
2322
330
2184
100
AcDbEntity
  8
0
 62
     0
100
AcDbLine
 10
-44.02630738687596
 20
-271.0075841477577
 30
0.0
 11
-43.13153819742297
 21
-270.1128149583047
 31
0.0
  0
LINE
  5
2323
330
2184
100
AcDbEntity
  8
0
 62
     0
100
AcDbLine
 10
-44.63849961253983
 20
-271.6197763734216
 30
0.0
 11
-44.02630738687603
 21
-271.0075841477578
 31
0.0
  0
LINE
  5
2324
330
2184
100
AcDbEntity
  8
0
 62
     0
100
AcDbLine
 10
-44.78539547136391
 20
-271.6340897107732
 30
0.0
 11
-44.68325153697474
 21
-271.5319457763841
 31
0.0
  0
LINE
  5
2325
330
2184
100
AcDbEntity
  8
0
 62
     0
100
AcDbLine
 10
-44.15888990834845
 20
-271.0075841477577
 30
0.0
 11
-43.26412071889542
 21
-270.1128149583047
 31
0.0
  0
LINE
  5
2326
330
2184
100
AcDbEntity
  8
0
 62
     0
100
AcDbLine
 10
-44.68325153697477
 20
-271.531945776384
 30
0.0
 11
-44.15888990834848
 21
-271.0075841477578
 31
0.0
  0
LINE
  5
2327
330
2184
100
AcDbEntity
  8
0
 62
     0
100
AcDbLine
 10
-44.83014739579885
 20
-271.5462591137356
 30
0.0
 11
-44.72800346140967
 21
-271.4441151793465
 31
0.0
  0
LINE
  5
2328
330
2184
100
AcDbEntity
  8
0
 62
     0
100
AcDbLine
 10
-44.29147242982091
 20
-271.0075841477577
 30
0.0
 11
-43.39670324036791
 21
-270.1128149583047
 31
0.0
  0
LINE
  5
2329
330
2184
100
AcDbEntity
  8
0
 62
     0
100
AcDbLine
 10
-44.72800346140968
 20
-271.4441151793465
 30
0.0
 11
-44.29147242982097
 21
-271.0075841477578
 31
0.0
  0
LINE
  5
232A
330
2184
100
AcDbEntity
  8
0
 62
     0
100
AcDbLine
 10
-44.87489932023376
 20
-271.4584285166981
 30
0.0
 11
-44.7727553858446
 21
-271.3562845823089
 31
0.0
  0
LINE
  5
232B
330
2184
100
AcDbEntity
  8
0
 62
     0
100
AcDbLine
 10
-44.42405495129341
 20
-271.0075841477577
 30
0.0
 11
-43.5292857618404
 21
-270.1128149583047
 31
0.0
  0
LINE
  5
232C
330
2184
100
AcDbEntity
  8
0
 62
     0
100
AcDbLine
 10
-44.77275538584461
 20
-271.3562845823089
 30
0.0
 11
-44.42405495129345
 21
-271.0075841477578
 31
0.0
  0
LINE
  5
232D
330
2184
100
AcDbEntity
  8
0
 62
     0
100
AcDbLine
 10
-44.91965124466869
 20
-271.3705979196606
 30
0.0
 11
-44.81750731027952
 21
-271.2684539852714
 31
0.0
  0
LINE
  5
232E
330
2184
100
AcDbEntity
  8
0
 62
     0
100
AcDbLine
 10
-44.55663747276587
 20
-271.0075841477577
 30
0.0
 11
-43.66186828331287
 21
-270.1128149583047
 31
0.0
  0
LINE
  5
232F
330
2184
100
AcDbEntity
  8
0
 62
     0
100
AcDbLine
 10
-44.81750731027953
 20
-271.2684539852714
 30
0.0
 11
-44.55663747276593
 21
-271.0075841477578
 31
0.0
  0
LINE
  5
2330
330
2184
100
AcDbEntity
  8
0
 62
     0
100
AcDbLine
 10
-44.96440316910361
 20
-271.282767322623
 30
0.0
 11
-44.86225923471444
 21
-271.1806233882338
 31
0.0
  0
LINE
  5
2331
330
2184
100
AcDbEntity
  8
0
 62
     0
100
AcDbLine
 10
-44.68921999423836
 20
-271.0075841477577
 30
0.0
 11
-43.79445080478536
 21
-270.1128149583047
 31
0.0
  0
LINE
  5
2332
330
2184
100
AcDbEntity
  8
0
 62
     0
100
AcDbLine
 10
-44.86225923471446
 20
-271.1806233882338
 30
0.0
 11
-44.68921999423842
 21
-271.0075841477578
 31
0.0
  0
LINE
  5
2333
330
2184
100
AcDbEntity
  8
0
 62
     0
100
AcDbLine
 10
-45.00915509353854
 20
-271.1949367255854
 30
0.0
 11
-44.93619626528839
 21
-271.1219778973352
 31
0.0
  0
LINE
  5
2334
330
2184
100
AcDbEntity
  8
0
 62
     0
100
AcDbLine
 10
-44.82180251571087
 20
-271.0075841477578
 30
0.0
 11
-43.92703332625781
 21
-270.1128149583047
 31
0.0
  0
LINE
  5
2335
330
2184
100
AcDbEntity
  8
0
 62
     0
100
AcDbLine
 10
-44.95438503718335
 20
-271.0075841477578
 30
0.0
 11
-44.0596158477303
 21
-270.1128149583047
 31
0.0
  0
LINE
  5
2336
330
2184
100
AcDbEntity
  8
0
 62
     0
100
AcDbLine
 10
-45.08696755865584
 20
-271.0075841477578
 30
0.0
 11
-44.19219836920278
 21
-270.1128149583047
 31
0.0
  0
LINE
  5
2337
330
2184
100
AcDbEntity
  8
0
 62
     0
100
AcDbLine
 10
-45.21955008012832
 20
-271.0075841477578
 30
0.0
 11
-44.32478089067527
 21
-270.1128149583047
 31
0.0
  0
LINE
  5
2338
330
2184
100
AcDbEntity
  8
0
 62
     0
100
AcDbLine
 10
-45.23372463886881
 20
-270.8891761850257
 30
0.0
 11
-44.45736341214774
 21
-270.1128149583047
 31
0.0
  0
LINE
  5
2339
330
2184
100
AcDbEntity
  8
0
 62
     0
100
AcDbLine
 10
-45.23372463886881
 20
-270.7565936635533
 30
0.0
 11
-44.5899459336202
 21
-270.1128149583047
 31
0.0
  0
LINE
  5
233A
330
2184
100
AcDbEntity
  8
0
 62
     0
100
AcDbLine
 10
-45.23372463886881
 20
-270.6240111420808
 30
0.0
 11
-44.72252845509268
 21
-270.1128149583047
 31
0.0
  0
LINE
  5
233B
330
2184
100
AcDbEntity
  8
0
 62
     0
100
AcDbLine
 10
-45.23372463886881
 20
-270.4914286206083
 30
0.0
 11
-44.85511097656517
 21
-270.1128149583047
 31
0.0
  0
LINE
  5
233C
330
2184
100
AcDbEntity
  8
0
 62
     0
100
AcDbLine
 10
-45.2337246388688
 20
-270.3588460991359
 30
0.0
 11
-44.98769349803765
 21
-270.1128149583047
 31
0.0
  0
LINE
  5
233D
330
2184
100
AcDbEntity
  8
0
 62
     0
100
AcDbLine
 10
-45.2337246388688
 20
-270.2262635776634
 30
0.0
 11
-45.12027601951014
 21
-270.1128149583047
 31
0.0
  0
LINE
  5
233E
330
2184
100
AcDbEntity
  8
0
 62
     0
100
AcDbLine
 10
-39.27512850824
 20
-279.5146574163695
 30
0.0
 11
-38.5413666900566
 21
-278.7808955981861
 31
0.0
  0
LINE
  5
233F
330
2184
100
AcDbEntity
  8
0
 62
     0
100
AcDbLine
 10
-39.16241960701883
 20
-279.5345310366208
 30
0.0
 11
-38.42865778883542
 21
-278.8007692184374
 31
0.0
  0
LINE
  5
2340
330
2184
100
AcDbEntity
  8
0
 62
     0
100
AcDbLine
 10
-39.04971070579762
 20
-279.5544046568721
 30
0.0
 11
-38.31594888761424
 21
-278.8206428386887
 31
0.0
  0
LINE
  5
2341
330
2184
100
AcDbEntity
  8
0
 62
     0
100
AcDbLine
 10
-38.93700180457646
 20
-279.5742782771234
 30
0.0
 11
-38.20323998639308
 21
-278.84051645894
 31
0.0
  0
LINE
  5
2342
330
2184
100
AcDbEntity
  8
0
 62
     0
100
AcDbLine
 10
-38.82429290335529
 20
-279.5941518973747
 30
0.0
 11
-38.0905310851719
 21
-278.8603900791913
 31
0.0
  0
LINE
  5
2343
330
2184
100
AcDbEntity
  8
0
 62
     0
100
AcDbLine
 10
-38.71158400213412
 20
-279.614025517626
 30
0.0
 11
-37.97782218395072
 21
-278.8802636994426
 31
0.0
  0
LINE
  5
2344
330
2184
100
AcDbEntity
  8
0
 62
     0
100
AcDbLine
 10
-38.59887510091292
 20
-279.6338991378773
 30
0.0
 11
-37.86511328272954
 21
-278.9001373196939
 31
0.0
  0
LINE
  5
2345
330
2184
100
AcDbEntity
  8
0
 62
     0
100
AcDbLine
 10
-38.48616619969174
 20
-279.6537727581286
 30
0.0
 11
-37.75240438150836
 21
-278.9200109399452
 31
0.0
  0
LINE
  5
2346
330
2184
100
AcDbEntity
  8
0
 62
     0
100
AcDbLine
 10
-38.37345729847058
 20
-279.6736463783799
 30
0.0
 11
-37.63969548028717
 21
-278.9398845601965
 31
0.0
  0
LINE
  5
2347
330
2184
100
AcDbEntity
  8
0
 62
     0
100
AcDbLine
 10
-38.26074839724942
 20
-279.6935199986312
 30
0.0
 11
-37.526986579066
 21
-278.9597581804478
 31
0.0
  0
LINE
  5
2348
330
2184
100
AcDbEntity
  8
0
 62
     0
100
AcDbLine
 10
-38.14803949602821
 20
-279.7133936188825
 30
0.0
 11
-37.41427767784482
 21
-278.9796318006991
 31
0.0
  0
LINE
  5
2349
330
2184
100
AcDbEntity
  8
0
 62
     0
100
AcDbLine
 10
-38.03533059480704
 20
-279.7332672391338
 30
0.0
 11
-37.30156877662363
 21
-278.9995054209504
 31
0.0
  0
LINE
  5
234A
330
2184
100
AcDbEntity
  8
0
 62
     0
100
AcDbLine
 10
-37.92262169358588
 20
-279.7531408593851
 30
0.0
 11
-37.18885987540245
 21
-279.0193790412017
 31
0.0
  0
LINE
  5
234B
330
2184
100
AcDbEntity
  8
0
 62
     0
100
AcDbLine
 10
-37.80991279236471
 20
-279.7730144796364
 30
0.0
 11
-37.07615097418127
 21
-279.039252661453
 31
0.0
  0
LINE
  5
234C
330
2184
100
AcDbEntity
  8
0
 62
     0
100
AcDbLine
 10
-37.6972038911435
 20
-279.7928880998877
 30
0.0
 11
-36.96344207296009
 21
-279.0591262817043
 31
0.0
  0
LINE
  5
234D
330
2184
100
AcDbEntity
  8
0
 62
     0
100
AcDbLine
 10
-37.58449498992233
 20
-279.812761720139
 30
0.0
 11
-36.85073317173891
 21
-279.0789999019556
 31
0.0
  0
LINE
  5
234E
330
2184
100
AcDbEntity
  8
0
 62
     0
100
AcDbLine
 10
-37.47178608870117
 20
-279.8326353403903
 30
0.0
 11
-36.73802427051778
 21
-279.0988735222069
 31
0.0
  0
LINE
  5
234F
330
2184
100
AcDbEntity
  8
0
 62
     0
100
AcDbLine
 10
-37.35907718748001
 20
-279.8525089606416
 30
0.0
 11
-36.62531536929659
 21
-279.1187471424582
 31
0.0
  0
LINE
  5
2350
330
2184
100
AcDbEntity
  8
0
 62
     0
100
AcDbLine
 10
-37.24636828625879
 20
-279.8723825808929
 30
0.0
 11
-36.51260646807542
 21
-279.1386207627095
 31
0.0
  0
LINE
  5
2351
330
2184
100
AcDbEntity
  8
0
 62
     0
100
AcDbLine
 10
-37.13365938503763
 20
-279.8922562011442
 30
0.0
 11
-36.39989756685424
 21
-279.1584943829608
 31
0.0
  0
LINE
  5
2352
330
2184
100
AcDbEntity
  8
0
 62
     0
100
AcDbLine
 10
-37.02095048381647
 20
-279.9121298213955
 30
0.0
 11
-36.28718866563306
 21
-279.1783680032121
 31
0.0
  0
LINE
  5
2353
330
2184
100
AcDbEntity
  8
0
 62
     0
100
AcDbLine
 10
-36.9082415825953
 20
-279.9320034416468
 30
0.0
 11
-36.17447976441188
 21
-279.1982416234634
 31
0.0
  0
LINE
  5
2354
330
2184
100
AcDbEntity
  8
0
 62
     0
100
AcDbLine
 10
-36.79553268137409
 20
-279.9518770618981
 30
0.0
 11
-36.0617708631907
 21
-279.2181152437147
 31
0.0
  0
LINE
  5
2355
330
2184
100
AcDbEntity
  8
0
 62
     0
100
AcDbLine
 10
-36.68282378015292
 20
-279.9717506821494
 30
0.0
 11
-35.94906196196951
 21
-279.237988863966
 31
0.0
  0
LINE
  5
2356
330
2184
100
AcDbEntity
  8
0
 62
     0
100
AcDbLine
 10
-36.57011487893175
 20
-279.9916243024007
 30
0.0
 11
-35.83635306074833
 21
-279.2578624842173
 31
0.0
  0
LINE
  5
2357
330
2184
100
AcDbEntity
  8
0
 62
     0
100
AcDbLine
 10
-36.45740597771059
 20
-280.011497922652
 30
0.0
 11
-35.72364415952716
 21
-279.2777361044686
 31
0.0
  0
LINE
  5
2358
330
2184
100
AcDbEntity
  8
0
 62
     0
100
AcDbLine
 10
-36.34469707648938
 20
-280.0313715429033
 30
0.0
 11
-35.61093525830597
 21
-279.2976097247199
 31
0.0
  0
LINE
  5
2359
330
2184
100
AcDbEntity
  8
0
 62
     0
100
AcDbLine
 10
-36.23198817526822
 20
-280.0512451631546
 30
0.0
 11
-35.49822635708479
 21
-279.3174833449712
 31
0.0
  0
LINE
  5
235A
330
2184
100
AcDbEntity
  8
0
 62
     0
100
AcDbLine
 10
-36.11927927404706
 20
-280.0711187834059
 30
0.0
 11
-35.38551745586361
 21
-279.3373569652225
 31
0.0
  0
LINE
  5
235B
330
2184
100
AcDbEntity
  8
0
 62
     0
100
AcDbLine
 10
-36.00657037282589
 20
-280.0909924036572
 30
0.0
 11
-35.27280855464243
 21
-279.3572305854738
 31
0.0
  0
LINE
  5
235C
330
2184
100
AcDbEntity
  8
0
 62
     0
100
AcDbLine
 10
-35.89386147160467
 20
-280.1108660239085
 30
0.0
 11
-35.16009965342125
 21
-279.3771042057251
 31
0.0
  0
LINE
  5
235D
330
2184
100
AcDbEntity
  8
0
 62
     0
100
AcDbLine
 10
-35.78115257038351
 20
-280.1307396441598
 30
0.0
 11
-35.04739075220007
 21
-279.3969778259764
 31
0.0
  0
LINE
  5
235E
330
2184
100
AcDbEntity
  8
0
 62
     0
100
AcDbLine
 10
-35.66844366916234
 20
-280.1506132644111
 30
0.0
 11
-34.93468185097889
 21
-279.4168514462277
 31
0.0
  0
LINE
  5
235F
330
2184
100
AcDbEntity
  8
0
 62
     0
100
AcDbLine
 10
-35.55573476794118
 20
-280.1704868846624
 30
0.0
 11
-34.82197294975771
 21
-279.436725066479
 31
0.0
  0
LINE
  5
2360
330
2184
100
AcDbEntity
  8
0
 62
     0
100
AcDbLine
 10
-35.44302586671997
 20
-280.1903605049137
 30
0.0
 11
-34.70926404853658
 21
-279.4565986867303
 31
0.0
  0
LINE
  5
2361
330
2184
100
AcDbEntity
  8
0
 62
     0
100
AcDbLine
 10
-35.3303169654988
 20
-280.210234125165
 30
0.0
 11
-34.59655514731539
 21
-279.4764723069816
 31
0.0
  0
LINE
  5
2362
330
2184
100
AcDbEntity
  8
0
 62
     0
100
AcDbLine
 10
-35.21760806427764
 20
-280.2301077454163
 30
0.0
 11
-34.48384624609421
 21
-279.496345927233
 31
0.0
  0
LINE
  5
2363
330
2184
100
AcDbEntity
  8
0
 62
     0
100
AcDbLine
 10
-35.10489916305647
 20
-280.2499813656676
 30
0.0
 11
-34.65961316436878
 21
-279.80469536698
 31
0.0
  0
LINE
  5
2364
330
2184
100
AcDbEntity
  8
0
 62
     0
100
AcDbLine
 10
-34.49507239555112
 20
-279.6401545981623
 30
0.0
 11
-34.37113734487303
 21
-279.5162195474842
 31
0.0
  0
LINE
  5
2365
330
2184
100
AcDbEntity
  8
0
 62
     0
100
AcDbLine
 10
-34.65961316436874
 20
-279.8046953669799
 30
0.0
 11
-34.49507239555113
 21
-279.6401545981623
 31
0.0
  0
LINE
  5
2366
330
2184
100
AcDbEntity
  8
0
 62
     0
100
AcDbLine
 10
-34.99219026183526
 20
-280.2698549859189
 30
0.0
 11
-34.61254978408334
 21
-279.890214508167
 31
0.0
  0
LINE
  5
2367
330
2184
100
AcDbEntity
  8
0
 62
     0
100
AcDbLine
 10
-34.4505443932725
 20
-279.7282091173562
 30
0.0
 11
-34.25842844365185
 21
-279.5360931677355
 31
0.0
  0
LINE
  5
2368
330
2184
100
AcDbEntity
  8
0
 62
     0
100
AcDbLine
 10
-34.61254978408327
 20
-279.8902145081669
 30
0.0
 11
-34.45054439327251
 21
-279.7282091173562
 31
0.0
  0
LINE
  5
2369
330
2184
100
AcDbEntity
  8
0
 62
     0
100
AcDbLine
 10
-34.8794813606141
 20
-280.2897286061702
 30
0.0
 11
-34.56548640379791
 21
-279.975733649354
 31
0.0
  0
LINE
  5
236A
330
2184
100
AcDbEntity
  8
0
 62
     0
100
AcDbLine
 10
-34.40601639099387
 20
-279.81626363655
 30
0.0
 11
-34.18212969867614
 21
-279.5923769442322
 31
0.0
  0
LINE
  5
236B
330
2184
100
AcDbEntity
  8
0
 62
     0
100
AcDbLine
 10
-34.5654864037978
 20
-279.975733649354
 30
0.0
 11
-34.4060163909939
 21
-279.81626363655
 31
0.0
  0
LINE
  5
236C
330
2184
100
AcDbEntity
  8
0
 62
     0
100
AcDbLine
 10
-34.76677245939293
 20
-280.3096022264215
 30
0.0
 11
-34.51842302351247
 21
-280.0612527905411
 31
0.0
  0
LINE
  5
236D
330
2184
100
AcDbEntity
  8
0
 62
     0
100
AcDbLine
 10
-34.36148838871525
 20
-279.9043181557439
 30
0.0
 11
-34.21610863625688
 21
-279.7589384032855
 31
0.0
  0
LINE
  5
236E
330
2184
100
AcDbEntity
  8
0
 62
     0
100
AcDbLine
 10
-34.51842302351233
 20
-280.0612527905409
 30
0.0
 11
-34.36148838871528
 21
-279.9043181557439
 31
0.0
  0
LINE
  5
236F
330
2184
100
AcDbEntity
  8
0
 62
     0
100
AcDbLine
 10
-34.65406355817177
 20
-280.3294758466728
 30
0.0
 11
-34.47135964322703
 21
-280.1467719317281
 31
0.0
  0
LINE
  5
2370
330
2184
100
AcDbEntity
  8
0
 62
     0
100
AcDbLine
 10
-34.31696038643663
 20
-279.9923726749377
 30
0.0
 11
-34.25008757383762
 21
-279.9254998623387
 31
0.0
  0
LINE
  5
2371
330
2184
100
AcDbEntity
  8
0
 62
     0
100
AcDbLine
 10
-34.47135964322686
 20
-280.1467719317279
 30
0.0
 11
-34.31696038643667
 21
-279.9923726749378
 31
0.0
  0
LINE
  5
2372
330
2184
100
AcDbEntity
  8
0
 62
     0
100
AcDbLine
 10
-34.54135465695056
 20
-280.3493494669242
 30
0.0
 11
-34.4242962629416
 21
-280.2322910729151
 31
0.0
  0
LINE
  5
2373
330
2184
100
AcDbEntity
  8
0
 62
     0
100
AcDbLine
 10
-34.42429626294139
 20
-280.232291072915
 30
0.0
 11
-34.27243238415805
 21
-280.0804271941316
 31
0.0
  0
LINE
  5
2374
330
2184
100
AcDbEntity
  8
0
 62
     0
100
AcDbLine
 10
-34.42864575572939
 20
-280.3692230871754
 30
0.0
 11
-34.37723288265617
 21
-280.3178102141022
 31
0.0
  0
LINE
  5
2375
330
2184
100
AcDbEntity
  8
0
 62
     0
100
AcDbLine
 10
-34.23763487951733
 20
-280.1782122109634
 30
0.0
 11
-34.22790438187941
 21
-280.1684817133254
 31
0.0
  0
LINE
  5
2376
330
2184
100
AcDbEntity
  8
0
 62
     0
100
AcDbLine
 10
-34.37723288265592
 20
-280.317810214102
 30
0.0
 11
-34.32222178119469
 21
-280.2627991126407
 31
0.0
  0
LINE
  5
2377
330
2184
100
AcDbEntity
  8
0
 62
     0
100
AcDbLine
 10
-34.3180454489991
 20
-280.2586227804452
 30
0.0
 11
-34.23763487951734
 21
-280.1782122109634
 31
0.0
  0
LINE
  5
2378
330
2184
100
AcDbEntity
  8
0
 62
     0
100
AcDbLine
 10
-34.33279649784393
 20
-280.4059563507625
 30
0.0
 11
-34.31594377963411
 21
-280.3891036325526
 31
0.0
  0
LINE
  5
2379
330
2184
100
AcDbEntity
  8
0
 62
     0
100
AcDbLine
 10
-34.31594377963405
 20
-280.3891036325526
 30
0.0
 11
-34.12832042519916
 21
-280.2014802781177
 31
0.0
  0
LINE
  5
237A
330
2184
100
AcDbEntity
  8
0
 62
     0
100
AcDbLine
 10
-34.2886183190611
 20
-280.4943606934521
 30
0.0
 11
-34.20326302751831
 21
-280.4090054019093
 31
0.0
  0
LINE
  5
237B
330
2184
100
AcDbEntity
  8
0
 62
     0
100
AcDbLine
 10
-34.01900597088106
 20
-280.224748345272
 30
0.0
 11
-34.00684354492805
 21
-280.2125859193191
 31
0.0
  0
LINE
  5
237C
330
2184
100
AcDbEntity
  8
0
 62
     0
100
AcDbLine
 10
-34.20326302751827
 20
-280.4090054019093
 30
0.0
 11
-34.01900597088101
 21
-280.224748345272
 31
0.0
  0
LINE
  5
237D
330
2184
100
AcDbEntity
  8
0
 62
     0
100
AcDbLine
 10
-34.24444014027825
 20
-280.5827650361417
 30
0.0
 11
-34.09058227540249
 21
-280.4289071712659
 31
0.0
  0
LINE
  5
237E
330
2184
100
AcDbEntity
  8
0
 62
     0
100
AcDbLine
 10
-33.90969151656292
 20
-280.2480164124263
 30
0.0
 11
-33.73652476279732
 21
-280.0748496586608
 31
0.0
  0
LINE
  5
237F
330
2184
100
AcDbEntity
  8
0
 62
     0
100
AcDbLine
 10
-34.09058227540246
 20
-280.4289071712659
 30
0.0
 11
-33.90969151656286
 21
-280.2480164124263
 31
0.0
  0
LINE
  5
2380
330
2184
100
AcDbEntity
  8
0
 62
     0
100
AcDbLine
 10
-34.20026196149541
 20
-280.6711693788314
 30
0.0
 11
-33.9779015232867
 21
-280.4488089406227
 31
0.0
  0
LINE
  5
2381
330
2184
100
AcDbEntity
  8
0
 62
     0
100
AcDbLine
 10
-33.80037706224471
 20
-280.2712844795807
 30
0.0
 11
-33.56665993146914
 21
-280.0375673488051
 31
0.0
  0
LINE
  5
2382
330
2184
100
AcDbEntity
  8
0
 62
     0
100
AcDbLine
 10
-33.97790152328667
 20
-280.4488089406226
 30
0.0
 11
-33.80037706224476
 21
-280.2712844795808
 31
0.0
  0
LINE
  5
2383
330
2184
100
AcDbEntity
  8
0
 62
     0
100
AcDbLine
 10
-34.15608378271257
 20
-280.759573721521
 30
0.0
 11
-33.86522077117088
 21
-280.4687107099793
 31
0.0
  0
LINE
  5
2384
330
2184
100
AcDbEntity
  8
0
 62
     0
100
AcDbLine
 10
-33.69106260792654
 20
-280.294552546735
 30
0.0
 11
-33.52248175268631
 21
-280.1259716914947
 31
0.0
  0
LINE
  5
2385
330
2184
100
AcDbEntity
  8
0
 62
     0
100
AcDbLine
 10
-33.86522077117085
 20
-280.4687107099793
 30
0.0
 11
-33.69106260792662
 21
-280.2945525467351
 31
0.0
  0
LINE
  5
2386
330
2184
100
AcDbEntity
  8
0
 62
     0
100
AcDbLine
 10
-34.11190560392971
 20
-280.8479780642106
 30
0.0
 11
-33.75254001905505
 21
-280.488612479336
 31
0.0
  0
LINE
  5
2387
330
2184
100
AcDbEntity
  8
0
 62
     0
100
AcDbLine
 10
-33.59453372366715
 20
-280.330606183948
 30
0.0
 11
-33.47830357390347
 21
-280.2143760341844
 31
0.0
  0
LINE
  5
2388
330
2184
100
AcDbEntity
  8
0
 62
     0
100
AcDbLine
 10
-33.75254001905507
 20
-280.4886124793359
 30
0.0
 11
-33.59453372366719
 21
-280.3306061839481
 31
0.0
  0
LINE
  5
2389
330
2184
100
AcDbEntity
  8
0
 62
     0
100
AcDbLine
 10
-34.06772742514688
 20
-280.9363824069003
 30
0.0
 11
-33.64145204273529
 21
-280.5101070244887
 31
0.0
  0
LINE
  5
238A
330
2184
100
AcDbEntity
  8
0
 62
     0
100
AcDbLine
 10
-33.62039977625162
 20
-280.489054758005
 30
0.0
 11
-33.43412539512061
 21
-280.302780376874
 31
0.0
  0
LINE
  5
238B
330
2184
100
AcDbEntity
  8
0
 62
     0
100
AcDbLine
 10
-33.64145204273528
 20
-280.5101070244887
 30
0.0
 11
-33.62039977625164
 21
-280.489054758005
 31
0.0
  0
LINE
  5
238C
330
2184
100
AcDbEntity
  8
0
 62
     0
100
AcDbLine
 10
-34.02354924636404
 20
-281.0247867495899
 30
0.0
 11
-33.38994721633778
 21
-280.3911847195636
 31
0.0
  0
LINE
  5
238D
330
2184
100
AcDbEntity
  8
0
 62
     0
100
AcDbLine
 10
-33.97937106758119
 20
-281.1131910922795
 30
0.0
 11
-33.34576903755494
 21
-280.4795890622533
 31
0.0
  0
LINE
  5
238E
330
2184
100
AcDbEntity
  8
0
 62
     0
100
AcDbLine
 10
-33.93519288879836
 20
-281.2015954349691
 30
0.0
 11
-33.30159085877209
 21
-280.567993404943
 31
0.0
  0
LINE
  5
238F
330
2184
100
AcDbEntity
  8
0
 62
     0
100
AcDbLine
 10
-33.89101471001551
 20
-281.2899997776588
 30
0.0
 11
-33.25741267998925
 21
-280.6563977476325
 31
0.0
  0
LINE
  5
2390
330
2184
100
AcDbEntity
  8
0
 62
     0
100
AcDbLine
 10
-33.84683653123266
 20
-281.3784041203485
 30
0.0
 11
-33.21323450120642
 21
-280.7448020903222
 31
0.0
  0
LINE
  5
2391
330
2184
100
AcDbEntity
  8
0
 62
     0
100
AcDbLine
 10
-33.80265835244982
 20
-281.4668084630381
 30
0.0
 11
-33.16905632242356
 21
-280.8332064330118
 31
0.0
  0
LINE
  5
2392
330
2184
100
AcDbEntity
  8
0
 62
     0
100
AcDbLine
 10
-33.75848017366698
 20
-281.5552128057277
 30
0.0
 11
-33.12487814364072
 21
-280.9216107757015
 31
0.0
  0
LINE
  5
2393
330
2184
100
AcDbEntity
  8
0
 62
     0
100
AcDbLine
 10
-33.71430199488414
 20
-281.6436171484174
 30
0.0
 11
-33.08069996485789
 21
-281.010015118391
 31
0.0
  0
LINE
  5
2394
330
2184
100
AcDbEntity
  8
0
 62
     0
100
AcDbLine
 10
-33.6701238161013
 20
-281.732021491107
 30
0.0
 11
-33.03652178607503
 21
-281.0984194610807
 31
0.0
  0
LINE
  5
2395
330
2184
100
AcDbEntity
  8
0
 62
     0
100
AcDbLine
 10
-33.62594563731845
 20
-281.8204258337966
 30
0.0
 11
-32.9923436072922
 21
-281.1868238037704
 31
0.0
  0
LINE
  5
2396
330
2184
100
AcDbEntity
  8
0
 62
     0
100
AcDbLine
 10
-33.58176745853561
 20
-281.9088301764862
 30
0.0
 11
-32.94816542850937
 21
-281.2752281464601
 31
0.0
  0
LINE
  5
2397
330
2184
100
AcDbEntity
  8
0
 62
     0
100
AcDbLine
 10
-33.53758927975277
 20
-281.9972345191759
 30
0.0
 11
-32.90398724972653
 21
-281.3636324891497
 31
0.0
  0
LINE
  5
2398
330
2184
100
AcDbEntity
  8
0
 62
     0
100
AcDbLine
 10
-33.49341110096992
 20
-282.0856388618656
 30
0.0
 11
-32.85980907094367
 21
-281.4520368318393
 31
0.0
  0
LINE
  5
2399
330
2184
100
AcDbEntity
  8
0
 62
     0
100
AcDbLine
 10
-33.44923292218708
 20
-282.1740432045552
 30
0.0
 11
-32.81563089216084
 21
-281.5404411745289
 31
0.0
  0
LINE
  5
239A
330
2184
100
AcDbEntity
  8
0
 62
     0
100
AcDbLine
 10
-33.40505474340423
 20
-282.2624475472448
 30
0.0
 11
-32.771452713378
 21
-281.6288455172186
 31
0.0
  0
LINE
  5
239B
330
2184
100
AcDbEntity
  8
0
 62
     0
100
AcDbLine
 10
-33.36087656462139
 20
-282.3508518899345
 30
0.0
 11
-32.72727453459515
 21
-281.7172498599082
 31
0.0
  0
LINE
  5
239C
330
2184
100
AcDbEntity
  8
0
 62
     0
100
AcDbLine
 10
-33.31669838583855
 20
-282.4392562326241
 30
0.0
 11
-32.68309635581231
 21
-281.8056542025978
 31
0.0
  0
LINE
  5
239D
330
2184
100
AcDbEntity
  8
0
 62
     0
100
AcDbLine
 10
-33.27252020705571
 20
-282.5276605753137
 30
0.0
 11
-32.63891817702948
 21
-281.8940585452875
 31
0.0
  0
LINE
  5
239E
330
2184
100
AcDbEntity
  8
0
 62
     0
100
AcDbLine
 10
-33.22834202827287
 20
-282.6160649180033
 30
0.0
 11
-32.59473999824662
 21
-281.9824628879771
 31
0.0
  0
LINE
  5
239F
330
2184
100
AcDbEntity
  8
0
 62
     0
100
AcDbLine
 10
-33.18416384949003
 20
-282.704469260693
 30
0.0
 11
-32.55056181946378
 21
-282.0708672306667
 31
0.0
  0
LINE
  5
23A0
330
2184
100
AcDbEntity
  8
0
 62
     0
100
AcDbLine
 10
-33.13998567070718
 20
-282.7928736033826
 30
0.0
 11
-32.50638364068095
 21
-282.1592715733564
 31
0.0
  0
LINE
  5
23A1
330
2184
100
AcDbEntity
  8
0
 62
     0
100
AcDbLine
 10
-33.09580749192433
 20
-282.8812779460723
 30
0.0
 11
-32.46220546189811
 21
-282.247675916046
 31
0.0
  0
LINE
  5
23A2
330
2184
100
AcDbEntity
  8
0
 62
     0
100
AcDbLine
 10
-33.0516293131415
 20
-282.9696822887619
 30
0.0
 11
-32.41802728311526
 21
-282.3360802587357
 31
0.0
  0
LINE
  5
23A3
330
2184
100
AcDbEntity
  8
0
 62
     0
100
AcDbLine
 10
-33.00745113435866
 20
-283.0580866314516
 30
0.0
 11
-32.37384910433242
 21
-282.4244846014253
 31
0.0
  0
LINE
  5
23A4
330
2184
100
AcDbEntity
  8
0
 62
     0
100
AcDbLine
 10
-32.96327295557581
 20
-283.1464909741411
 30
0.0
 11
-32.32967092554959
 21
-282.5128889441149
 31
0.0
  0
LINE
  5
23A5
330
2184
100
AcDbEntity
  8
0
 62
     0
100
AcDbLine
 10
-32.91909477679296
 20
-283.2348953168308
 30
0.0
 11
-32.28549274676673
 21
-282.6012932868045
 31
0.0
  0
LINE
  5
23A6
330
2184
100
AcDbEntity
  8
0
 62
     0
100
AcDbLine
 10
-32.87491659801013
 20
-283.3232996595204
 30
0.0
 11
-32.24131456798389
 21
-282.6896976294942
 31
0.0
  0
LINE
  5
23A7
330
2184
100
AcDbEntity
  8
0
 62
     0
100
AcDbLine
 10
-32.83073841922728
 20
-283.4117040022101
 30
0.0
 11
-32.19713638920106
 21
-282.7781019721838
 31
0.0
  0
LINE
  5
23A8
330
2184
100
AcDbEntity
  8
0
 62
     0
100
AcDbLine
 10
-32.78656024044444
 20
-283.5001083448997
 30
0.0
 11
-32.1529582104182
 21
-282.8665063148735
 31
0.0
  0
LINE
  5
23A9
330
2184
100
AcDbEntity
  8
0
 62
     0
100
AcDbLine
 10
-32.7423820616616
 20
-283.5885126875893
 30
0.0
 11
-32.10878003163537
 21
-282.9549106575631
 31
0.0
  0
LINE
  5
23AA
330
2184
100
AcDbEntity
  8
0
 62
     0
100
AcDbLine
 10
-32.69820388287876
 20
-283.6769170302789
 30
0.0
 11
-32.06460185285254
 21
-283.0433150002527
 31
0.0
  0
LINE
  5
23AB
330
2184
100
AcDbEntity
  8
0
 62
     0
100
AcDbLine
 10
-32.65402570409591
 20
-283.7653213729686
 30
0.0
 11
-32.0204236740697
 21
-283.1317193429424
 31
0.0
  0
LINE
  5
23AC
330
2184
100
AcDbEntity
  8
0
 62
     0
100
AcDbLine
 10
-32.60984752531307
 20
-283.8537257156582
 30
0.0
 11
-31.97624549528684
 21
-283.220123685632
 31
0.0
  0
LINE
  5
23AD
330
2184
100
AcDbEntity
  8
0
 62
     0
100
AcDbLine
 10
-32.56566934653022
 20
-283.9421300583479
 30
0.0
 11
-31.93206731650401
 21
-283.3085280283216
 31
0.0
  0
LINE
  5
23AE
330
2184
100
AcDbEntity
  8
0
 62
     0
100
AcDbLine
 10
-32.52149116774738
 20
-284.0305344010375
 30
0.0
 11
-31.88788913772117
 21
-283.3969323710113
 31
0.0
  0
LINE
  5
23AF
330
2184
100
AcDbEntity
  8
0
 62
     0
100
AcDbLine
 10
-32.47731298896454
 20
-284.1189387437271
 30
0.0
 11
-31.84371095893832
 21
-283.4853367137009
 31
0.0
  0
LINE
  5
23B0
330
2184
100
AcDbEntity
  8
0
 62
     0
100
AcDbLine
 10
-32.43313481018169
 20
-284.2073430864168
 30
0.0
 11
-31.79953278015548
 21
-283.5737410563906
 31
0.0
  0
LINE
  5
23B1
330
2184
100
AcDbEntity
  8
0
 62
     0
100
AcDbLine
 10
-32.38895663139885
 20
-284.2957474291064
 30
0.0
 11
-31.75535460137264
 21
-283.6621453990801
 31
0.0
  0
LINE
  5
23B2
330
2184
100
AcDbEntity
  8
0
 62
     0
100
AcDbLine
 10
-32.34477845261601
 20
-284.384151771796
 30
0.0
 11
-31.71117642258979
 21
-283.7505497417698
 31
0.0
  0
LINE
  5
23B3
330
2184
100
AcDbEntity
  8
0
 62
     0
100
AcDbLine
 10
-32.30060027383317
 20
-284.4725561144857
 30
0.0
 11
-31.66699824380695
 21
-283.8389540844595
 31
0.0
  0
LINE
  5
23B4
330
2184
100
AcDbEntity
  8
0
 62
     0
100
AcDbLine
 10
-32.25642209505032
 20
-284.5609604571753
 30
0.0
 11
-31.62282006502412
 21
-283.9273584271491
 31
0.0
  0
LINE
  5
23B5
330
2184
100
AcDbEntity
  8
0
 62
     0
100
AcDbLine
 10
-32.21224391626749
 20
-284.649364799865
 30
0.0
 11
-31.57864188624126
 21
-284.0157627698387
 31
0.0
  0
LINE
  5
23B6
330
2184
100
AcDbEntity
  8
0
 62
     0
100
AcDbLine
 10
-32.16806573748464
 20
-284.7377691425545
 30
0.0
 11
-31.53446370745843
 21
-284.1041671125284
 31
0.0
  0
LINE
  5
23B7
330
2184
100
AcDbEntity
  8
0
 62
     0
100
AcDbLine
 10
-32.1238875587018
 20
-284.8261734852442
 30
0.0
 11
-31.49028552867559
 21
-284.192571455218
 31
0.0
  0
LINE
  5
23B8
330
2184
100
AcDbEntity
  8
0
 62
     0
100
AcDbLine
 10
-32.07970937991895
 20
-284.9145778279338
 30
0.0
 11
-31.44610734989275
 21
-284.2809757979077
 31
0.0
  0
LINE
  5
23B9
330
2184
100
AcDbEntity
  8
0
 62
     0
100
AcDbLine
 10
-32.03553120113612
 20
-285.0029821706235
 30
0.0
 11
-31.4019291711099
 21
-284.3693801405972
 31
0.0
  0
LINE
  5
23BA
330
2184
100
AcDbEntity
  8
0
 62
     0
100
AcDbLine
 10
-31.99135302235327
 20
-285.0913865133131
 30
0.0
 11
-31.35775099232706
 21
-284.4577844832869
 31
0.0
  0
LINE
  5
23BB
330
2184
100
AcDbEntity
  8
0
 62
     0
100
AcDbLine
 10
-31.94717484357042
 20
-285.1797908560028
 30
0.0
 11
-31.31357281354423
 21
-284.5461888259766
 31
0.0
  0
LINE
  5
23BC
330
2184
100
AcDbEntity
  8
0
 62
     0
100
AcDbLine
 10
-31.90299666478758
 20
-285.2681951986924
 30
0.0
 11
-31.26939463476138
 21
-284.6345931686662
 31
0.0
  0
LINE
  5
23BD
330
2184
100
AcDbEntity
  8
0
 62
     0
100
AcDbLine
 10
-31.85881848600474
 20
-285.356599541382
 30
0.0
 11
-31.22521645597854
 21
-284.7229975113558
 31
0.0
  0
LINE
  5
23BE
330
2184
100
AcDbEntity
  8
0
 62
     0
100
AcDbLine
 10
-31.8146403072219
 20
-285.4450038840717
 30
0.0
 11
-31.1810382771957
 21
-284.8114018540455
 31
0.0
  0
LINE
  5
23BF
330
2184
100
AcDbEntity
  8
0
 62
     0
100
AcDbLine
 10
-31.77046212843906
 20
-285.5334082267613
 30
0.0
 11
-31.13686009841285
 21
-284.8998061967351
 31
0.0
  0
LINE
  5
23C0
330
2184
100
AcDbEntity
  8
0
 62
     0
100
AcDbLine
 10
-31.72628394965622
 20
-285.6218125694509
 30
0.0
 11
-31.09268191963001
 21
-284.9882105394248
 31
0.0
  0
LINE
  5
23C1
330
2184
100
AcDbEntity
  8
0
 62
     0
100
AcDbLine
 10
-31.68210577087337
 20
-285.7102169121406
 30
0.0
 11
-31.04850374084718
 21
-285.0766148821143
 31
0.0
  0
LINE
  5
23C2
330
2184
100
AcDbEntity
  8
0
 62
     0
100
AcDbLine
 10
-31.63792759209052
 20
-285.7986212548302
 30
0.0
 11
-31.00432556206434
 21
-285.165019224804
 31
0.0
  0
LINE
  5
23C3
330
2184
100
AcDbEntity
  8
0
 62
     0
100
AcDbLine
 10
-31.59374941330769
 20
-285.8870255975199
 30
0.0
 11
-30.96014738328149
 21
-285.2534235674937
 31
0.0
  0
LINE
  5
23C4
330
2184
100
AcDbEntity
  8
0
 62
     0
100
AcDbLine
 10
-31.50332316272872
 20
-285.9291818684134
 30
0.0
 11
-30.91596920449865
 21
-285.3418279101833
 31
0.0
  0
LINE
  5
23C5
330
2184
100
AcDbEntity
  8
0
 62
     0
100
AcDbLine
 10
-31.37157195278595
 20
-285.9300131799431
 30
0.0
 11
-30.87179102571581
 21
-285.4302322528729
 31
0.0
  0
LINE
  5
23C6
330
2184
100
AcDbEntity
  8
0
 62
     0
100
AcDbLine
 10
-31.23982074284319
 20
-285.9308444914728
 30
0.0
 11
-30.82761284693296
 21
-285.5186365955626
 31
0.0
  0
LINE
  5
23C7
330
2184
100
AcDbEntity
  8
0
 62
     0
100
AcDbLine
 10
-31.25232952633624
 20
-286.0759357964383
 30
0.0
 11
-31.16460760049095
 21
-285.988213870593
 31
0.0
  0
LINE
  5
23C8
330
2184
100
AcDbEntity
  8
0
 62
     0
100
AcDbLine
 10
-31.10806953290039
 20
-285.9316758030024
 30
0.0
 11
-30.78343466815012
 21
-285.6070409382521
 31
0.0
  0
LINE
  5
23C9
330
2184
100
AcDbEntity
  8
0
 62
     0
100
AcDbLine
 10
-31.15811563536502
 20
-285.981721905467
 30
0.0
 11
-31.10806953290039
 21
-285.9316758030025
 31
0.0
  0
LINE
  5
23CA
330
2184
100
AcDbEntity
  8
0
 62
     0
100
AcDbLine
 10
-31.12177404626793
 20
-286.0779628378424
 30
0.0
 11
-31.0328563905482
 21
-285.9890451821227
 31
0.0
  0
LINE
  5
23CB
330
2184
100
AcDbEntity
  8
0
 62
     0
100
AcDbLine
 10
-30.97631832295762
 20
-285.9325071145322
 30
0.0
 11
-30.73925648936729
 21
-285.6954452809418
 31
0.0
  0
LINE
  5
23CC
330
2184
100
AcDbEntity
  8
0
 62
     0
100
AcDbLine
 10
-30.99002283632514
 20
-286.0787941493721
 30
0.0
 11
-30.93156545569635
 21
-286.0203367687433
 31
0.0
  0
LINE
  5
23CD
330
2184
100
AcDbEntity
  8
0
 62
     0
100
AcDbLine
 10
-30.84456711301486
 20
-285.9333384260619
 30
0.0
 11
-30.69507831058443
 21
-285.7838496236314
 31
0.0
  0
LINE
  5
23CE
330
2184
100
AcDbEntity
  8
0
 62
     0
100
AcDbLine
 10
-30.7128159030721
 20
-285.9341697375916
 30
0.0
 11
-30.6509001318016
 21
-285.8722539663211
 31
0.0
  0
ENDBLK
  5
23D0
330
2184
100
AcDbEntity
  8
0
100
AcDbBlockEnd
  0
BLOCK
  5
248E
330
23D1
100
AcDbEntity
  8
0
100
AcDbBlockBegin
  2
BORDER
 70
     2
 10
0.0
 20
0.0
 30
0.0
  3
BORDER
  1

  0
LINE
  5
23D2
330
23D1
100
AcDbEntity
  8
0
 62
     5
100
AcDbLine
 10
0.7091800116219247
 20
-0.3574751627549588
 30
0.0
 11
275.7091800116219
 21
-0.3574751627549588
 31
0.0
  0
LINE
  5
23D3
330
23D1
100
AcDbEntity
  8
0
 62
     5
100
AcDbLine
 10
68.20358700028487
 20
-10.66298166101244
 30
0.0
 11
220.709180011622
 21
-10.66298166101244
 31
0.0
  0
LINE
  5
23D4
330
23D1
100
AcDbEntity
  8
0
 62
     5
100
AcDbLine
 10
0.7091800116219247
 20
-15.8157349101412
 30
0.0
 11
275.7091800116219
 21
-15.8157349101412
 31
0.0
  0
LINE
  5
23D5
330
23D1
100
AcDbEntity
  8
0
 62
     5
100
AcDbLine
 10
68.20358700028487
 20
-5.510228411883719
 30
0.0
 11
275.7091800116219
 21
-5.510228411883719
 31
0.0
  0
LINE
  5
23D6
330
23D1
100
AcDbEntity
  8
0
 62
     5
100
AcDbLine
 10
275.7091800116219
 20
182.1842650898588
 30
0.0
 11
0.7091800116219247
 21
182.1842650898588
 31
0.0
  0
LINE
  5
23D7
330
23D1
100
AcDbEntity
  8
0
 62
     5
100
AcDbLine
 10
0.7091800116219247
 20
182.1842650898588
 30
0.0
 11
0.7091800116219247
 21
-15.8157349101412
 31
0.0
  0
TEXT
  5
23D8
330
23D1
100
AcDbEntity
  8
0
 62
     7
100
AcDbText
 10
15.58981648897638
 20
-12.2605421580519
 30
0.0
 40
1.424754602022191
  1
Ph: (423) 586-2265 Fax: (423) 586-2091
  7
ROMANS
100
AcDbText
  0
TEXT
  5
23D9
330
23D1
100
AcDbEntity
  8
0
 62
     7
100
AcDbText
 10
14.79177026065917
 20
-9.953796611920804
 30
0.0
 40
1.424754602022191
  1
P.O. BOX 2279 Morristown, TN 37816-2279
  7
ROMANS
100
AcDbText
  0
ATTDEF
  5
23DA
330
23D1
100
AcDbEntity
  8
0
 62
     5
100
AcDbText
 10
1.979778041115423
 20
1.137225741711414
 30
0.0
 40
2.25
  1

  7
ROMANS
100
AcDbAttributeDefinition
  3
SCALE
  2
SCALE
 70
     0
  0
POLYLINE
  5
23DB
330
23D1
100
AcDbEntity
  8
0
 62
     7
100
AcDb2dPolyline
 66
     1
 10
0.0
 20
0.0
 30
0.0
1001
ACAD
1000
ASC_BOUNDS
1002
{
1070
    19
1002
}
  0
VERTEX
  5
23DC
330
23DB
100
AcDbEntity
  8
0
 62
     7
100
AcDbVertex
100
AcDb2dVertex
 10
9.475860829008103
 20
-9.372259842905288
 30
0.0
  0
VERTEX
  5
23DD
330
23DB
100
AcDbEntity
  8
0
 62
     7
100
AcDbVertex
100
AcDb2dVertex
 10
9.703746893437722
 20
-9.25614443973866
 30
0.0
1001
ACAD
1000
ASC_BOUNDS
1002
{
1070
    19
1002
}
  0
VERTEX
  5
23DE
330
23DB
100
AcDbEntity
  8
0
 62
     7
100
AcDbVertex
100
AcDb2dVertex
 10
11.23681437771316
 20
-12.32394458406827
 30
0.0
1001
ACAD
1000
ASC_BOUNDS
1002
{
1070
    19
1002
}
  0
VERTEX
  5
23DF
330
23DB
100
AcDbEntity
  8
0
 62
     7
100
AcDbVertex
100
AcDb2dVertex
 10
10.74420770578223
 20
-12.32083638030936
 30
0.0
  0
VERTEX
  5
23E0
330
23DB
100
AcDbEntity
  8
0
 62
     7
100
AcDbVertex
100
AcDb2dVertex
 10
9.312353279627204
 20
-9.455572287063311
 30
0.0
  0
SEQEND
  5
23E1
330
23DB
100
AcDbEntity
  8
0
 62
     7
  0
TEXT
  5
23E2
330
23D1
100
AcDbEntity
  8
0
 62
     7
100
AcDbText
 10
9.724549296543047
 20
-7.530508047706282
 30
0.0
 40
2.328886132939683
  1
Precision Ladders, LLC
  7
STYLE1
100
AcDbText
  0
CIRCLE
  5
23E3
330
23D1
100
AcDbEntity
  8
0
100
AcDbCircle
 10
7.923824281957464
 20
-7.871953982288084
 30
0.0
 40
6.386783474246639
1001
ACAD
1000
ASC_BOUNDS
1002
{
1070
    19
1002
}
  0
INSERT
  5
23E4
330
23D1
100
AcDbEntity
  8
0
100
AcDbBlockReference
  2
*X12
 10
27.06021920284057
 20
135.4393105706377
 30
0.0
 41
0.5167726248169388
 42
0.5167726248169388
 43
0.5167726248169388
1001
ACAD
1000
HATCH
1002
{
1070
    19
1000
ANSI31
1040
0.8843871093750001
1040
0.0
1002
}
  0
LWPOLYLINE
  5
23E5
330
23D1
100
AcDbEntity
  8
0
 62
     7
100
AcDbPolyline
 90
        4
 70
     1
 43
0.0
 10
3.6846685909657
 20
-4.609990034696448
 10
3.6846685909657
 20
-4.14759781205738
 10
8.609145762071234
 20
-4.14759781205738
 10
8.609145762071234
 20
-4.609990034696448
1001
ACAD
1000
ASC_BOUNDS
1002
{
1070
    19
1005
0
1005
0
1002
}
  0
LINE
  5
23EB
330
23D1
100
AcDbEntity
  8
0
 62
     7
100
AcDbLine
 10
3.856497471864337
 20
-4.65989624533979
 30
0.0
 11
5.903233815122117
 21
-8.6768424946167
 31
0.0
1001
ACAD
1000
ASC_BOUNDS
1002
{
1070
    19
1002
}
  0
LWPOLYLINE
  5
23EC
330
23D1
100
AcDbEntity
  8
0
 62
     7
100
AcDbPolyline
 90
        4
 70
     0
 43
0.0
 10
3.752421509349788
 20
-4.612017623651738
 10
5.919652894764487
 20
-8.865448708527145
 10
5.909765027073967
 20
-8.87048682875668
 10
3.742533641659263
 20
-4.617055743881318
1001
ACAD
1000
ASC_BOUNDS
1002
{
1070
    19
1002
}
  0
LINE
  5
23F2
330
23D1
100
AcDbEntity
  8
0
 62
     7
100
AcDbLine
 10
3.794698298798533
 20
-4.691384496774553
 30
0.0
 11
3.856497471864337
 21
-4.65989624533979
 31
0.0
1001
ACAD
1000
ASC_BOUNDS
1002
{
1070
    19
1002
}
  0
LINE
  5
23F3
330
23D1
100
AcDbEntity
  8
0
 62
     7
100
AcDbLine
 10
3.856497471864337
 20
-4.65989624533979
 30
0.0
 11
3.954443925162904
 21
-4.609990034696448
 31
0.0
1001
ACAD
1000
ASC_BOUNDS
1002
{
1070
    19
1002
}
  0
LINE
  5
23F4
330
23D1
100
AcDbEntity
  8
0
 62
     7
100
AcDbLine
 10
3.856497471864337
 20
-4.65989624533979
 30
0.0
 11
3.982450477603276
 21
-4.907092937602961
 31
0.0
1001
ACAD
1000
ASC_BOUNDS
1002
{
1070
    19
1002
}
  0
LINE
  5
23F5
330
23D1
100
AcDbEntity
  8
0
 62
     7
100
AcDbLine
 10
5.781480884292713
 20
-6.278286831434622
 30
0.0
 11
5.304927475055466
 21
-7.24643467384234
 31
0.0
1001
ACAD
1000
ASC_BOUNDS
1002
{
1070
    19
1005
0
1002
}
  0
LWPOLYLINE
  5
23F6
330
23D1
100
AcDbEntity
  8
0
 62
     7
100
AcDbPolyline
 90
        2
 70
     0
 43
0.0
 10
5.669686431166553
 20
-6.272089378976819
 10
5.212593927759267
 20
-7.20070118276762
1001
ACAD
1000
ASC_BOUNDS
1002
{
1070
    19
1005
0
1002
}
  0
LINE
  5
23FA
330
23D1
100
AcDbEntity
  8
0
 62
     7
100
AcDbLine
 10
4.765187849836221
 20
-4.609990034696448
 30
0.0
 11
5.641375417856532
 21
-6.32960496048609
 31
0.0
1001
ACAD
1000
ASC_BOUNDS
1002
{
1070
    19
1002
}
  0
LINE
  5
23FB
330
23D1
100
AcDbEntity
  8
0
 62
     7
100
AcDbLine
 10
4.687344611304354
 20
-4.609990034696448
 30
0.0
 11
5.603125704334065
 21
-6.407311628619606
 31
0.0
1001
ACAD
1000
ASC_BOUNDS
1002
{
1070
    19
1002
}
  0
LINE
  5
23FC
330
23D1
100
AcDbEntity
  8
0
 62
     7
100
AcDbLine
 10
4.607317373536183
 20
-5.165882206510321
 30
0.0
 11
5.424627041229285
 21
-6.769942746575713
 31
0.0
1001
ACAD
1000
ASC_BOUNDS
1002
{
1070
    19
1002
}
  0
LINE
  5
23FD
330
23D1
100
AcDbEntity
  8
0
 62
     7
100
AcDbLine
 10
6.193258745145838
 20
-8.905591765253909
 30
0.0
 11
9.312353279627204
 21
-9.455572287063311
 31
0.0
1001
ACAD
1000
ASC_BOUNDS
1002
{
1070
    19
1002
}
  0
POLYLINE
  5
23FE
330
23D1
100
AcDbEntity
  8
0
 62
     7
100
AcDb2dPolyline
 66
     1
 10
0.0
 20
0.0
 30
0.0
1001
ACAD
1000
ASC_BOUNDS
1002
{
1070
    19
1002
}
  0
VERTEX
  5
23FF
330
23FE
100
AcDbEntity
  8
0
 62
     7
100
AcDbVertex
100
AcDb2dVertex
 10
6.268124573412084
 20
-8.589891344372263
 30
0.0
  0
VERTEX
  5
2400
330
23FE
100
AcDbEntity
  8
0
 62
     7
100
AcDbVertex
100
AcDb2dVertex
 10
6.29462857787217
 20
-8.477416902196605
 30
0.0
1001
ACAD
1000
ASC_BOUNDS
1002
{
1070
    19
1002
}
  0
VERTEX
  5
2401
330
23FE
100
AcDbEntity
  8
0
 62
     7
100
AcDbVertex
100
AcDb2dVertex
 10
9.400188823421752
 20
-9.025010963702662
 30
0.0
1001
ACAD
1000
ASC_BOUNDS
1002
{
1070
    19
1002
}
  0
VERTEX
  5
2402
330
23FE
100
AcDbEntity
  8
0
 62
     7
100
AcDbVertex
100
AcDb2dVertex
 10
9.345754328683732
 20
-9.291843581551438
 30
0.0
  0
SEQEND
  5
2403
330
23FE
100
AcDbEntity
  8
0
 62
     7
  0
LINE
  5
2404
330
23D1
100
AcDbEntity
  8
0
 62
     7
100
AcDbLine
 10
5.661539510944723
 20
-6.52195517914016
 30
0.0
 11
6.557162946377808
 21
-8.2797151424977
 31
0.0
1001
ACAD
1000
ASC_BOUNDS
1002
{
1070
    19
1005
0
1002
}
  0
LWPOLYLINE
  5
2405
330
23D1
100
AcDbEntity
  8
0
 62
     7
100
AcDbPolyline
 90
        2
 70
     0
 43
0.0
 10
5.699789224467164
 20
-6.444248511006687
 10
6.61689946652874
 20
-8.24417870678311
1001
ACAD
1000
ASC_BOUNDS
1002
{
1070
    19
1002
}
  0
LWPOLYLINE
  5
2409
330
23D1
100
AcDbEntity
  8
0
 62
     7
100
AcDbPolyline
 90
        3
 70
     0
 43
0.0
 10
5.213424067086186
 20
-7.315967949608214
 10
5.379662217791395
 20
-7.23488818604634
 10
5.344540605193893
 20
-7.165958140192223
1001
ACAD
1000
ASC_BOUNDS
1002
{
1070
    19
1002
}
  0
CIRCLE
  5
240E
330
23D1
100
AcDbEntity
  8
0
 62
     7
100
AcDbCircle
 10
5.279340030296048
 20
-7.183095204364175
 30
0.0
 40
0.0173397083489631
1001
ACAD
1000
ASC_BOUNDS
1002
{
1070
    19
1002
}
  0
LINE
  5
240F
330
23D1
100
AcDbEntity
  8
0
 62
     7
100
AcDbLine
 10
5.270942598157367
 20
-7.082162235698433
 30
0.0
 11
5.129455396593579
 21
-7.151170154766059
 31
0.0
1001
ACAD
1000
ASC_BOUNDS
1002
{
1070
    19
1002
}
  0
LINE
  5
2410
330
23D1
100
AcDbEntity
  8
0
 62
     7
100
AcDbLine
 10
5.106885704564564
 20
-7.116703081878117
 30
0.0
 11
5.232838710303507
 21
-7.363899774141287
 31
0.0
1001
ACAD
1000
ASC_BOUNDS
1002
{
1070
    19
1002
}
  0
LINE
  5
2411
330
23D1
100
AcDbEntity
  8
0
 62
     7
100
AcDbLine
 10
5.304854779630774
 20
-7.246537031188584
 30
0.0
 11
5.212415557346659
 21
-7.201017515091955
 31
0.0
1001
ACAD
1000
ASC_BOUNDS
1002
{
1070
    19
1002
}
  0
LWPOLYLINE
  5
2412
330
23D1
100
AcDbEntity
  8
0
 62
     1
100
AcDbPolyline
 90
        2
 70
     1
 43
0.0
 10
5.296679738645016
 20
-7.183095204364175
 42
-1.0
 10
5.262000321947093
 20
-7.183095204364175
 42
-1.0
1001
ACAD
1000
ASC_BOUNDS
1002
{
1070
    19
1002
}
  0
LINE
  5
2416
330
23D1
100
AcDbEntity
  8
0
 62
     7
100
AcDbLine
 10
6.617395421870791
 20
-8.243880706749269
 30
0.0
 11
6.55794329786903
 21
-8.279603146779439
 31
0.0
1001
ACAD
1000
ASC_BOUNDS
1002
{
1070
    19
1002
}
  0
LINE
  5
2417
330
23D1
100
AcDbEntity
  8
0
 62
     7
100
AcDbLine
 10
6.139302965970438
 20
-8.556559254418942
 30
0.0
 11
5.83997598522917
 21
-8.709073968826897
 31
0.0
1001
ACAD
1000
ASC_BOUNDS
1002
{
1070
    19
1002
}
  0
POLYLINE
  5
2418
330
23D1
100
AcDbEntity
  8
0
 62
     7
100
AcDb2dPolyline
 66
     1
 10
0.0
 20
0.0
 30
0.0
1001
ACAD
1000
ASC_BOUNDS
1002
{
1070
    19
1002
}
  0
VERTEX
  5
2419
330
2418
100
AcDbEntity
  8
0
 62
     7
100
AcDbVertex
100
AcDb2dVertex
 10
6.193712589803156
 20
-8.905671790312153
 30
0.0
  0
VERTEX
  5
241A
330
2418
100
AcDbEntity
  8
0
 62
     7
100
AcDbVertex
100
AcDb2dVertex
 10
6.255643862295799
 20
-8.64285545486636
 30
0.0
1001
ACAD
1000
ASC_BOUNDS
1002
{
1070
    19
1002
}
  0
SEQEND
  5
241B
330
2418
100
AcDbEntity
  8
0
 62
     7
  0
LINE
  5
241C
330
23D1
100
AcDbEntity
  8
0
 62
     7
100
AcDbLine
 10
5.483040847839943
 20
-6.884586297096355
 30
0.0
 11
6.048464374867866
 21
-7.994292451301141
 31
0.0
1001
ACAD
1000
ASC_BOUNDS
1002
{
1070
    19
1002
}
  0
LINE
  5
241D
330
23D1
100
AcDbEntity
  8
0
 62
     7
100
AcDbLine
 10
6.081611014389732
 20
-8.059346394248949
 30
0.0
 11
6.29462857787217
 21
-8.477416902196605
 31
0.0
1001
ACAD
1000
ASC_BOUNDS
1002
{
1070
    19
1002
}
  0
LWPOLYLINE
  5
241E
330
23D1
100
AcDbEntity
  8
0
 62
     7
100
AcDbPolyline
 90
        4
 70
     0
 43
0.0
 10
6.372572092905369
 20
-7.917435194252596
 10
5.893486984645657
 20
-8.151100614247512
 10
5.861998733210931
 20
-8.08930144118168
 10
6.336860515841586
 20
-7.847347277939056
1001
ACAD
1000
ASC_BOUNDS
1002
{
1070
    19
1005
0
1002
}
  0
LWPOLYLINE
  5
2424
330
23D1
100
AcDbEntity
  8
0
 62
     7
100
AcDbPolyline
 90
        5
 70
     0
 43
0.0
 10
6.294628577894204
 20
-8.477416902100392
 10
6.307114862039131
 20
-8.505676121580494
 10
6.460956784728575
 20
-8.816479688281518
 10
6.357355595828261
 20
-8.867760329177912
 10
6.226862912510886
 20
-8.579215050075786
1001
ACAD
1000
ASC_BOUNDS
1002
{
1070
    19
1002
}
  0
POLYLINE
  5
242B
330
23D1
100
AcDbEntity
  8
0
 62
     7
100
AcDb2dPolyline
 66
     1
 10
0.0
 20
0.0
 30
0.0
 70
     1
1001
ACAD
1000
ASC_BOUNDS
1002
{
1070
    19
1002
}
  0
VERTEX
  5
242C
330
242B
100
AcDbEntity
  8
0
 62
     7
100
AcDbVertex
100
AcDb2dVertex
 10
5.904786372410534
 20
-8.497266070735479
 30
0.0
1001
ACAD
1000
ASC_BOUNDS
1002
{
1070
    19
1002
}
  0
VERTEX
  5
242D
330
242B
100
AcDbEntity
  8
0
 62
     7
100
AcDbVertex
100
AcDb2dVertex
 10
5.926222203914861
 20
-8.394318231996329
 30
0.0
  0
VERTEX
  5
242E
330
242B
100
AcDbEntity
  8
0
 62
     7
100
AcDbVertex
100
AcDb2dVertex
 10
5.956063861987406
 20
-8.402316120521344
 30
0.0
  0
VERTEX
  5
242F
330
242B
100
AcDbEntity
  8
0
 62
     7
100
AcDbVertex
100
AcDb2dVertex
 10
6.294628577894204
 20
-8.477416902100392
 30
0.0
  0
VERTEX
  5
2430
330
242B
100
AcDbEntity
  8
0
 62
     7
100
AcDbVertex
100
AcDb2dVertex
 10
6.26959498403452
 20
-8.590271807402608
 30
0.0
  0
VERTEX
  5
2431
330
242B
100
AcDbEntity
  8
0
 62
     7
100
AcDbVertex
100
AcDb2dVertex
 10
5.933857492084015
 20
-8.503401037004177
 30
0.0
  0
SEQEND
  5
2432
330
242B
100
AcDbEntity
  8
0
 62
     7
  0
LWPOLYLINE
  5
2433
330
23D1
100
AcDbEntity
  8
0
 62
     7
100
AcDbPolyline
 90
        5
 70
     0
 43
0.0
 10
9.312353279627199
 20
-9.455572287063311
 10
9.298650785197718
 20
-9.427882353445005
 10
9.131448207950132
 20
-9.124057580898979
 10
9.232723132132111
 20
-9.068323388483221
 10
9.375631291671682
 20
-9.350925540683965
1001
ACAD
1000
ASC_BOUNDS
1002
{
1070
    19
1002
}
  0
LINE
  5
243A
330
23D1
100
AcDbEntity
  8
0
 62
     7
100
AcDbLine
 10
9.335446408015712
 20
-9.342372009704648
 30
0.0
 11
9.312353279627204
 21
-9.455572287063311
 31
0.0
1001
ACAD
1000
ASC_BOUNDS
1002
{
1070
    19
1002
}
  0
POLYLINE
  5
243B
330
23D1
100
AcDbEntity
  8
0
 62
     7
100
AcDb2dPolyline
 66
     1
 10
0.0
 20
0.0
 30
0.0
 70
     1
1001
ACAD
1000
ASC_BOUNDS
1002
{
1070
    19
1002
}
  0
VERTEX
  5
243C
330
243B
100
AcDbEntity
  8
0
 62
     7
100
AcDbVertex
100
AcDb2dVertex
 10
9.700964687989658
 20
-9.418801266375522
 30
0.0
1001
ACAD
1000
ASC_BOUNDS
1002
{
1070
    19
1002
}
  0
VERTEX
  5
243D
330
243B
100
AcDbEntity
  8
0
 62
     7
100
AcDbVertex
100
AcDb2dVertex
 10
9.684022705776339
 20
-9.52258335351977
 30
0.0
  0
VERTEX
  5
243E
330
243B
100
AcDbEntity
  8
0
 62
     7
100
AcDbVertex
100
AcDb2dVertex
 10
9.653861688173593
 20
-9.515889789854343
 30
0.0
  0
VERTEX
  5
243F
330
243B
100
AcDbEntity
  8
0
 62
     7
100
AcDbVertex
100
AcDb2dVertex
 10
9.312353279627199
 20
-9.455572287063311
 30
0.0
  0
VERTEX
  5
2440
330
243B
100
AcDbEntity
  8
0
 62
     7
100
AcDbVertex
100
AcDb2dVertex
 10
9.332459113890879
 20
-9.341736150881196
 30
0.0
  0
VERTEX
  5
2441
330
243B
100
AcDbEntity
  8
0
 62
     7
100
AcDbVertex
100
AcDb2dVertex
 10
9.671654434252287
 20
-9.413935381457166
 30
0.0
  0
SEQEND
  5
2442
330
243B
100
AcDbEntity
  8
0
 62
     7
  0
LINE
  5
2443
330
23D1
100
AcDbEntity
  8
0
 62
     1
100
AcDbLine
 10
9.400188823421752
 20
-9.025010963702662
 30
0.0
 11
9.345754328683732
 21
-9.291843581551438
 31
0.0
1001
ACAD
1000
ASC_BOUNDS
1002
{
1070
    19
1002
}
  0
LINE
  5
2444
330
23D1
100
AcDbEntity
  8
0
 62
     1
100
AcDbLine
 10
9.345754328683732
 20
-9.291843581551438
 30
0.0
 11
9.375631291671682
 21
-9.350925540683965
 31
0.0
1001
ACAD
1000
ASC_BOUNDS
1002
{
1070
    19
1002
}
  0
LINE
  5
2445
330
23D1
100
AcDbEntity
  8
0
 62
     1
100
AcDbLine
 10
9.375631291671682
 20
-9.350925540683965
 30
0.0
 11
9.475860829008119
 21
-9.372259842905288
 31
0.0
  0
LINE
  5
2446
330
23D1
100
AcDbEntity
  8
0
 62
     1
100
AcDbLine
 10
9.475860829008119
 20
-9.372259842905288
 30
0.0
 11
9.703746893437722
 21
-9.25614443973866
 31
0.0
1001
ACAD
1000
ASC_BOUNDS
1002
{
1070
    19
1002
}
  0
LINE
  5
2447
330
23D1
100
AcDbEntity
  8
0
 62
     7
100
AcDbLine
 10
4.324076164822255
 20
-4.609990034696448
 30
0.0
 11
4.577475879497985
 21
-5.107314976810968
 31
0.0
1001
ACAD
1000
ASC_BOUNDS
1002
{
1070
    19
1002
}
  0
LWPOLYLINE
  5
2448
330
23D1
100
AcDbEntity
  8
0
 62
     7
100
AcDbPolyline
 90
        4
 70
     0
 43
0.0
 10
4.868436958013641
 20
-4.965403776814618
 10
4.391215237529895
 20
-5.198160361866083
 10
4.421620148865587
 20
-5.260499668380496
 10
4.895713514509908
 20
-5.018937033148281
1001
ACAD
1000
ASC_BOUNDS
1002
{
1070
    19
1002
}
  0
LINE
  5
244E
330
23D1
100
AcDbEntity
  8
0
 62
     7
100
AcDbLine
 10
6.418666810127461
 20
-4.609990034696448
 30
0.0
 11
5.826469922231685
 21
-5.680335583029782
 31
0.0
1001
ACAD
1000
ASC_BOUNDS
1002
{
1070
    19
1002
}
  0
LINE
  5
244F
330
23D1
100
AcDbEntity
  8
0
 62
     7
100
AcDbLine
 10
6.286555136924443
 20
-4.609990034696448
 30
0.0
 11
5.845334639498304
 21
-5.407458587649442
 31
0.0
1001
ACAD
1000
ASC_BOUNDS
1002
{
1070
    19
1002
}
  0
CIRCLE
  5
2450
330
23D1
100
AcDbEntity
  8
0
 62
     7
100
AcDbCircle
 10
5.730221889836235
 20
-6.25004801811535
 30
0.0
 40
0.0173397083489631
1001
ACAD
1000
ASC_BOUNDS
1002
{
1070
    19
1002
}
  0
LWPOLYLINE
  5
2451
330
23D1
100
AcDbEntity
  8
0
 62
     1
100
AcDbPolyline
 90
        2
 70
     1
 43
0.0
 10
5.7475615981852
 20
-6.25004801811535
 42
-1.0
 10
5.712882181487275
 20
-6.25004801811535
 42
-1.0
1001
ACAD
1000
ASC_BOUNDS
1002
{
1070
    19
1002
}
  0
LINE
  5
2455
330
23D1
100
AcDbEntity
  8
0
 62
     1
100
AcDbLine
 10
5.785008558454715
 20
-6.280071704803255
 30
0.0
 11
5.780602312393248
 21
-6.280071704803255
 31
0.0
  0
LINE
  5
2456
330
23D1
100
AcDbEntity
  8
0
 62
     7
100
AcDbLine
 10
5.900465775633495
 20
-4.609990034696448
 30
0.0
 11
5.784457393067715
 21
-6.288044278822681
 31
0.0
1001
ACAD
1000
ASC_BOUNDS
1002
{
1070
    19
1005
0
1002
}
  0
LWPOLYLINE
  5
2457
330
23D1
100
AcDbEntity
  8
0
 62
     7
100
AcDbPolyline
 90
        3
 70
     0
 43
0.0
 10
5.784591808789789
 20
-4.609990034696448
 10
5.669134591611024
 20
-6.280071704803255
 10
5.784732647270778
 20
-6.280071704803255
1001
ACAD
1000
ASC_BOUNDS
1002
{
1070
    19
1005
0
1002
}
  0
TEXT
  5
245C
330
23D1
100
AcDbEntity
  8
0
 62
     7
100
AcDbText
 10
22.0794597326237
 20
-14.83518287267101
 30
0.0
 40
1.638467792325521
  1
www.PrecisionLadders.com
  7
ROMANS
100
AcDbText
  0
LWPOLYLINE
  5
245D
330
23D1
100
AcDbEntity
  8
0
 62
     7
100
AcDbPolyline
 90
        9
 70
     0
 43
0.0
 10
11.07551406403755
 20
-12.38700861173308
 10
11.07573287663963
 20
-12.35232988534997
 10
10.97169669749035
 20
-12.35167344754363
 10
10.90233924472416
 20
-12.35123582233948
 10
10.90212043212205
 20
-12.3859145487225
 42
0.4142135623730939
 10
10.91360707004905
 20
-12.39754706171767
 10
11.06388155104246
 20
-12.39849524966009
 42
0.4142135623730989
 10
11.07551406403753
 20
-12.38700861173308
 42
-0.4142135623730944
 10
11.06388155104246
 20
-12.39849524966009
1001
ACAD
1000
ASC_BOUNDS
1002
{
1070
    19
1002
}
  0
LINE
  5
2468
330
23D1
100
AcDbEntity
  8
0
 62
     7
100
AcDbLine
 10
11.02229987426554
 20
-12.3225910604074
 30
0.0
 11
11.02188924369332
 21
-12.35199014780307
 31
0.0
1001
ACAD
1000
ASC_BOUNDS
1002
{
1070
    19
1002
}
  0
LINE
  5
2469
330
23D1
100
AcDbEntity
  8
0
 62
     7
100
AcDbLine
 10
10.95872220922986
 20
-12.32218990397022
 30
0.0
 11
11.02229987426554
 21
-12.3225910604074
 31
0.0
1001
ACAD
1000
ASC_BOUNDS
1002
{
1070
    19
1002
}
  0
LINE
  5
246A
330
23D1
100
AcDbEntity
  8
0
 62
     7
100
AcDbLine
 10
10.95856008735984
 20
-12.34788394497736
 30
0.0
 11
10.95872220922986
 21
-12.32218990397022
 31
0.0
1001
ACAD
1000
ASC_BOUNDS
1002
{
1070
    19
1002
}
  0
LINE
  5
246B
330
23D1
100
AcDbEntity
  8
0
 62
     5
100
AcDbLine
 10
68.20358700028487
 20
-15.8157349101412
 30
0.0
 11
68.20358700028487
 21
-0.3574751627549588
 31
0.0
  0
TEXT
  5
246C
330
23D1
100
AcDbEntity
  8
0
100
AcDbText
 10
66.95400381081545
 20
-15.0458863393392
 30
0.0
 40
1.1055
  1
WORK ORDER: ( )
 50
90.0
 41
0.9
  7
ROMANS
100
AcDbText
  0
TEXT
  5
246D
330
23D1
100
AcDbEntity
  8
0
100
AcDbText
 10
68.61608700028489
 20
-12.31298166101246
 30
0.0
 40
1.1055
  1
CHECKED BY:
  7
ROMANS
100
AcDbText
  0
TEXT
  5
246E
330
23D1
100
AcDbEntity
  8
0
100
AcDbText
 10
68.61608700028489
 20
-2.007475162754943
 30
0.0
 40
1.1055
  1
DWG. CHECK
  7
ROMANS
100
AcDbText
  0
TEXT
  5
246F
330
23D1
100
AcDbEntity
  8
0
100
AcDbText
 10
68.61608700028489
 20
-7.160228411883704
 30
0.0
 40
1.1055
  1
BUILT BY:
  7
ROMANS
100
AcDbText
  0
ATTDEF
  5
2470
330
23D1
100
AcDbEntity
  8
0
 62
     5
100
AcDbText
 10
67.10558384847688
 20
-2.91900205731534
 30
0.0
 40
1.248161764705882
  1

 50
90.0
  7
ROMANS
 72
     4
 11
66.48150296612394
 21
-2.324639312217302
 31
0.0
100
AcDbAttributeDefinition
  3
WORK ORDER (X)
  2
X
 70
     0
  0
LINE
  5
2471
330
23D1
100
AcDbEntity
  8
0
 62
     5
100
AcDbLine
 10
99.70918001162193
 20
-15.8157349101412
 30
0.0
 11
99.70918001162193
 21
-0.3574751627549588
 31
0.0
  0
ATTDEF
  5
2472
330
23D1
100
AcDbEntity
  8
0
100
AcDbText
 10
110.1557855470704
 20
-9.800853431382623
 30
0.0
 40
1.769029714285714
  1

  7
ROMANS
 72
     1
 11
121.4859996695194
 21
-9.800853431382623
 31
0.0
100
AcDbAttributeDefinition
  3
PURCHASE ORDER
  2
PURCHASEORDER
 70
     0
  0
ATTDEF
  5
2473
330
23D1
100
AcDbEntity
  8
0
100
AcDbText
 10
115.2522759144173
 20
-14.95427586924506
 30
0.0
 40
1.769029714285714
  1
JEB
  7
ROMANS
 72
     1
 11
121.4859996695194
 21
-14.95427586924506
 31
0.0
100
AcDbAttributeDefinition
  3
WHO ARE YOU?
  2
DRAWNBY
 70
     0
  0
TEXT
  5
2474
330
23D1
100
AcDbEntity
  8
0
100
AcDbText
 10
100.1216800116219
 20
-12.31298166101246
 30
0.0
 40
1.1055
  1
DRAWN BY:
  7
ROMANS
100
AcDbText
  0
ATTDEF
  5
2475
330
23D1
100
AcDbEntity
  8
0
100
AcDbText
 10
113.6938449756418
 20
-4.647430993520281
 30
0.0
 40
1.769029714285714
  1

  7
ROMANS
 72
     1
 11
121.4859996695194
 21
-4.647430993520281
 31
0.0
100
AcDbAttributeDefinition
  3
ARCHITECT OR ENGINEER
  2
ARCHORENG
 70
     0
  0
TEXT
  5
2476
330
23D1
100
AcDbEntity
  8
0
100
AcDbText
 10
100.1216800116219
 20
-7.160228411883704
 30
0.0
 40
1.1055
  1
PURCHASE ORDER
  7
ROMANS
100
AcDbText
  0
TEXT
  5
2477
330
23D1
100
AcDbEntity
  8
0
100
AcDbText
 10
100.1216800116219
 20
-2.007475162754943
 30
0.0
 40
1.1055
  1
ARCH'T OR ENG'R.
  7
ROMANS
100
AcDbText
  0
LINE
  5
2478
330
23D1
100
AcDbEntity
  8
0
 62
     5
100
AcDbLine
 10
275.7091800116219
 20
-15.8157349101412
 30
0.0
 11
275.7091800116219
 21
182.1842650898588
 31
0.0
  0
TEXT
  5
2479
330
23D1
100
AcDbEntity
  8
0
100
AcDbText
 10
221.2616194531734
 20
-7.579661068182538
 30
0.0
 40
1.1055
  1
SERIAL#
  7
ROMANS
100
AcDbText
  0
TEXT
  5
247A
330
23D1
100
AcDbEntity
  8
0
100
AcDbText
 10
221.121680011622
 20
-2.007475162754943
 30
0.0
 40
1.1055
  1
PRECISION REP
  7
ROMANS
100
AcDbText
  0
ATTDEF
  5
247B
330
23D1
100
AcDbEntity
  8
0
100
AcDbText
 10
180.2795199144173
 20
-14.95427586924496
 30
0.0
 40
1.769029714285714
  1

  7
ROMANS
 72
     1
 11
184.7442139552337
 21
-14.95427586924496
 31
0.0
100
AcDbAttributeDefinition
  3
MODEL #
  2
MODEL
 70
     0
  0
ATTDEF
  5
247C
330
23D1
100
AcDbEntity
  8
0
100
AcDbText
 10
176.1392108531929
 20
-4.647430993520281
 30
0.0
 40
1.769029714285714
  1

  7
ROMANS
 72
     1
 11
181.9938568123766
 21
-4.647430993520281
 31
0.0
100
AcDbAttributeDefinition
  3
PROJECT
  2
PROJECT
 70
     0
  0
LINE
  5
247D
330
23D1
100
AcDbEntity
  8
0
 62
     5
100
AcDbLine
 10
143.7091800116219
 20
-15.8157349101412
 30
0.0
 11
143.7091800116219
 21
-0.3574751627549588
 31
0.0
  0
LINE
  5
247E
330
23D1
100
AcDbEntity
  8
0
 62
     5
100
AcDbLine
 10
160.2091800116219
 20
-15.8157349101412
 30
0.0
 11
160.2091800116219
 21
-5.510228411883719
 31
0.0
  0
ATTDEF
  5
247F
330
23D1
100
AcDbEntity
  8
0
100
AcDbText
 10
148.5388268531929
 20
-9.800853431382623
 30
0.0
 40
1.769029714285714
  1

  7
ROMANS
 72
     1
 11
151.739928240948
 21
-9.800853431382623
 31
0.0
100
AcDbAttributeDefinition
  3
WORK ORDER DATE?
  2
DATE
 70
     0
  0
ATTDEF
  5
2480
330
23D1
100
AcDbEntity
  8
0
100
AcDbText
 10
148.5388268531929
 20
-14.95427586924506
 30
0.0
 40
1.769029714285714
  1

  7
ROMANS
 72
     1
 11
151.739928240948
 21
-14.95427586924506
 31
0.0
100
AcDbAttributeDefinition
  3
WHAT IS TODAY'S DATE?
  2
DATE
 70
     0
  0
TEXT
  5
2481
330
23D1
100
AcDbEntity
  8
0
100
AcDbText
 10
144.1216800116219
 20
-12.31298166101246
 30
0.0
 40
1.1055
  1
DATE
  7
ROMANS
100
AcDbText
  0
TEXT
  5
2482
330
23D1
100
AcDbEntity
  8
0
100
AcDbText
 10
160.6216800116219
 20
-12.31298166101246
 30
0.0
 40
1.1055
  1
MODEL#
  7
ROMANS
100
AcDbText
  0
TEXT
  5
2483
330
23D1
100
AcDbEntity
  8
0
100
AcDbText
 10
144.1216800116219
 20
-2.007475162754943
 30
0.0
 40
1.1055
  1
PROJECT
  7
ROMANS
100
AcDbText
  0
TEXT
  5
2484
330
23D1
100
AcDbEntity
  8
0
100
AcDbText
 10
144.1216800116219
 20
-7.160228411883704
 30
0.0
 40
1.1055
  1
DATE
  7
ROMANS
100
AcDbText
  0
TEXT
  5
2485
330
23D1
100
AcDbEntity
  8
0
100
AcDbText
 10
160.6216800116219
 20
-7.160228411883704
 30
0.0
 40
1.1055
  1
PURCHASER
  7
ROMANS
100
AcDbText
  0
LINE
  5
2486
330
23D1
100
AcDbEntity
  8
0
 62
     5
100
AcDbLine
 10
220.709180011622
 20
-15.8157349101412
 30
0.0
 11
220.709180011622
 21
-0.3574751627549588
 31
0.0
  0
ATTDEF
  5
2487
330
23D1
100
AcDbEntity
  8
0
100
AcDbText
 10
182.4106537919683
 20
-9.800853431382623
 30
0.0
 40
1.769029714285714
  1

  7
ROMANS
 72
     1
 11
190.2449282409479
 21
-9.800853431382623
 31
0.0
100
AcDbAttributeDefinition
  3
PURCHASER
  2
PURCHASER
 70
     0
  0
ATTDEF
  5
2488
330
23D1
100
AcDbEntity
  8
0
100
AcDbText
 10
212.5551967307439
 20
-14.95427586924506
 30
0.0
 40
1.769029714285714
  1
1
  7
ROMANS
 72
     1
 11
214.9981425266622
 21
-14.95427586924506
 31
0.0
100
AcDbAttributeDefinition
  3
QUANTITY
  2
QTY
 70
     0
  0
LINE
  5
2489
330
23D1
100
AcDbEntity
  8
0
 62
     5
100
AcDbLine
 10
209.709180011622
 20
-15.8157349101412
 30
0.0
 11
209.709180011622
 21
-10.66298166101244
 31
0.0
  0
TEXT
  5
248A
330
23D1
100
AcDbEntity
  8
0
100
AcDbText
 10
210.121680011622
 20
-12.31298166101246
 30
0.0
 40
1.1055
  1
QTY.
  7
ROMANS
100
AcDbText
  0
ATTDEF
  5
248B
330
23D1
100
AcDbEntity
  8
0
100
AcDbText
 10
262.6630963653972
 20
1.154414359320043
 30
0.0
 40
1.7518359375
  1

  7
ROMANS
 72
     4
 11
268.2522872136114
 21
2.030332328070045
 31
0.0
100
AcDbAttributeDefinition
  3
SAVED AS
  2
SAVEDAS
 70
     0
  0
ATTDEF
  5
248C
330
23D1
100
AcDbEntity
  8
0
100
AcDbText
 10
236.6840073182527
 20
-12.6624962247139
 30
0.0
 40
3.455136160714285
  1

  7
ROMANS
 72
     1
 11
248.0365975605996
 21
-12.6624962247139
 31
0.0
100
AcDbAttributeDefinition
  3
SERIAL #
  2
L010000
 70
     0
  0
ATTDEF
  5
248D
330
23D1
100
AcDbEntity
  8
0
100
AcDbText
 10
245.3910034246215
 20
-4.648100182253863
 30
0.0
 40
1.769029714285714
  1

  7
ROMANS
 72
     1
 11
248.002428240948
 21
-4.648100182253863
 31
0.0
100
AcDbAttributeDefinition
  3
PRECISION REP
  2
REP
 70
     0
  0
ENDBLK
  5
248F
330
23D1
100
AcDbEntity
  8
0
100
AcDbBlockEnd
  0
BLOCK
  5
276F
330
2766
100
AcDbEntity
  8
0
100
AcDbBlockBegin
  2
A$C7EC6243C
 70
     0
 10
0.0
 20
0.0
 30
0.0
  3
A$C7EC6243C
  1

  0
TEXT
  5
2767
330
2766
100
AcDbEntity
  8
0
  6
ByBlock
 62
     0
100
AcDbText
 10
-6.477376547913625
 20
-10.23237600000037
 30
0.0
 40
1.485792000000056
  1
30 FT MAX
  7
ROMANS
 72
     1
 11
-0.1804485479133859
 21
-9.489480000000341
 31
0.0
100
AcDbText
 73
     2
  0
LINE
  5
2768
330
2766
100
AcDbEntity
  8
0
  6
ByBlock
 62
     0
100
AcDbLine
 10
-7.420120547913654
 20
-11.38737600000041
 30
0.0
 11
7.059223452086882
 21
-11.38737600000041
 31
0.0
  0
LINE
  5
2769
330
2766
100
AcDbEntity
  8
0
  6
ByBlock
 62
     0
100
AcDbLine
 10
7.059223452086882
 20
-11.38737600000041
 30
0.0
 11
7.059223452086882
 21
0.0
 31
0.0
  0
LINE
  5
276A
330
2766
100
AcDbEntity
  8
0
  6
ByBlock
 62
     0
100
AcDbLine
 10
7.059223452086882
 20
-7.591584000000274
 30
0.0
 11
-7.420120547913654
 21
-7.591584000000274
 31
0.0
  0
LINE
  5
276B
330
2766
100
AcDbEntity
  8
0
  6
ByBlock
 62
     0
100
AcDbLine
 10
-7.420120547913654
 20
0.0
 30
0.0
 11
-7.420120547913654
 21
-11.38737600000041
 31
0.0
  0
LINE
  5
276C
330
2766
100
AcDbEntity
  8
0
  6
ByBlock
 62
     0
100
AcDbLine
 10
7.059223452086882
 20
0.0
 30
0.0
 11
-7.420120547913654
 21
0.0
 31
0.0
  0
ENDBLK
  5
2770
330
2766
100
AcDbEntity
  8
0
100
AcDbBlockEnd
  0
BLOCK
  5
2790
330
2785
100
AcDbEntity
  8
0
100
AcDbBlockBegin
  2
*D15
 70
     1
 10
0.0
 20
0.0
 30
0.0
  3
*D15
  1

  0
LINE
  5
2792
330
2785
100
AcDbEntity
  8
0
 62
     0
370
    -2
100
AcDbLine
 10
69.309012631807
 20
15.72761425242285
 30
0.0
 11
69.309012631807
 21
9.814018342925702
 31
0.0
  0
LINE
  5
2793
330
2785
100
AcDbEntity
  8
0
 62
     0
370
    -2
100
AcDbLine
 10
14.78293829217008
 20
15.72761425242285
 30
0.0
 11
14.78293829217008
 21
9.814018342925702
 31
0.0
  0
LINE
  5
2794
330
2785
100
AcDbEntity
  8
0
 62
     0
370
    -2
100
AcDbLine
 10
67.80901263180701
 20
11.3140183429257
 30
0.0
 11
50.3455183191314
 21
11.3140183429257
 31
0.0
  0
LINE
  5
2795
330
2785
100
AcDbEntity
  8
0
 62
     0
370
    -2
100
AcDbLine
 10
16.28293829217009
 20
11.3140183429257
 30
0.0
 11
33.7464326048457
 21
11.3140183429257
 31
0.0
  0
SOLID
  5
2796
330
2785
100
AcDbEntity
  8
0
 62
     0
100
AcDbTrace
 10
67.80901263180701
 20
11.5640183429257
 30
0.0
 11
67.80901263180701
 21
11.0640183429257
 31
0.0
 12
69.309012631807
 22
11.3140183429257
 32
0.0
 13
69.309012631807
 23
11.3140183429257
 33
0.0
  0
SOLID
  5
2797
330
2785
100
AcDbEntity
  8
0
 62
     0
100
AcDbTrace
 10
16.28293829217009
 20
11.5640183429257
 30
0.0
 11
16.28293829217009
 21
11.0640183429257
 31
0.0
 12
14.78293829217008
 22
11.3140183429257
 32
0.0
 13
14.78293829217008
 23
11.3140183429257
 33
0.0
  0
MTEXT
  5
2798
330
2785
100
AcDbEntity
  8
0
 62
     0
100
AcDbMText
 10
42.04597546198854
 20
11.3140183429257
 30
0.0
 40
1.929599999999999
 41
0.0
 71
     5
 72
     1
  1
\A1;AS REQ'D
  7
ROMANS
 73
     1
 44
1.0
1001
ACAD
1000
MTEXTBEGIN
1070
    73
1070
     1
1070
    44
1040
1.0
1070
    74
1070
     0
1000
MTEXTEND
  0
POINT
  5
2799
330
2785
100
AcDbEntity
  8
DEFPOINTS
 62
     0
100
AcDbPoint
 10
69.309012631807
 20
17.22761425242285
 30
0.0
  0
POINT
  5
279A
330
2785
100
AcDbEntity
  8
DEFPOINTS
 62
     0
100
AcDbPoint
 10
14.78293829217008
 20
17.22761425242285
 30
0.0
  0
POINT
  5
279B
330
2785
100
AcDbEntity
  8
DEFPOINTS
 62
     0
100
AcDbPoint
 10
14.78293829217008
 20
11.3140183429257
 30
0.0
  0
ENDBLK
  5
2791
330
2785
100
AcDbEntity
  8
0
100
AcDbBlockEnd
  0
BLOCK
  5
2808
330
27FD
100
AcDbEntity
  8
0
100
AcDbBlockBegin
  2
*D16
 70
     1
 10
0.0
 20
0.0
 30
0.0
  3
*D16
  1

  0
LINE
  5
280A
330
27FD
100
AcDbEntity
  8
0
 62
     0
370
    -2
100
AcDbLine
 10
17.52094605629237
 20
58.53262568299111
 30
0.0
 11
10.55347315677667
 21
44.85819017357917
 31
0.0
  0
LINE
  5
280B
330
27FD
100
AcDbEntity
  8
0
 62
     0
370
    -2
100
AcDbLine
 10
32.05548998211514
 20
51.12690565598977
 30
0.0
 11
25.08801708259943
 21
37.45247014657781
 31
0.0
  0
LINE
  5
280C
330
27FD
100
AcDbEntity
  8
0
 62
     0
370
    -2
100
AcDbLine
 10
12.57096869266854
 20
45.5137142102524
 30
0.0
 11
16.30557798847788
 21
43.61083573011907
 31
0.0
  0
LINE
  5
280D
330
27FD
100
AcDbEntity
  8
0
 62
     0
370
    -2
100
AcDbLine
 10
24.43249304592619
 20
39.46996568246968
 30
0.0
 11
20.69788375011686
 21
41.37284416260301
 31
0.0
  0
SOLID
  5
280E
330
27FD
100
AcDbEntity
  8
0
 62
     0
100
AcDbTrace
 10
12.68446631760342
 20
45.73646584129948
 30
0.0
 11
12.45747106773365
 21
45.29096257920531
 31
0.0
 12
11.23445890638599
 22
46.19469995986172
 32
0.0
 13
11.23445890638599
 23
46.19469995986172
 33
0.0
  0
SOLID
  5
280F
330
27FD
100
AcDbEntity
  8
0
 62
     0
100
AcDbTrace
 10
24.54599067086108
 20
39.69271731351677
 30
0.0
 11
24.31899542099131
 21
39.24721405142259
 31
0.0
 12
25.76900283220875
 22
38.78897993286037
 32
0.0
 13
25.76900283220875
 23
38.78897993286037
 33
0.0
  0
MTEXT
  5
2810
330
27FD
100
AcDbEntity
  8
0
 62
     0
100
AcDbMText
 10
18.50173086929737
 20
42.49183994636104
 30
0.0
 40
1.929599999999999
 41
0.0
 71
     5
 72
     1
  1
\A1;VARIES
  7
ROMANS
 11
0.453990499739547
 21
0.891006524188368
 31
0.0
 73
     1
 44
1.0
1001
ACAD
1000
MTEXTBEGIN
1070
    73
1070
     1
1070
    44
1040
1.0
1070
    74
1070
     0
1000
MTEXTEND
  0
POINT
  5
2811
330
27FD
100
AcDbEntity
  8
DEFPOINTS
 62
     0
100
AcDbPoint
 10
18.20193180590169
 20
59.86913546927367
 30
0.0
  0
POINT
  5
2812
330
27FD
100
AcDbEntity
  8
DEFPOINTS
 62
     0
100
AcDbPoint
 10
32.73647573172445
 20
52.46341544227232
 30
0.0
  0
POINT
  5
2813
330
27FD
100
AcDbEntity
  8
DEFPOINTS
 62
     0
100
AcDbPoint
 10
25.76900283220875
 20
38.78897993286037
 30
0.0
  0
ENDBLK
  5
2809
330
27FD
100
AcDbEntity
  8
0
100
AcDbBlockEnd
  0
BLOCK
  5
2820
330
2815
100
AcDbEntity
  8
0
100
AcDbBlockBegin
  2
*D17
 70
     1
 10
0.0
 20
0.0
 30
0.0
  3
*D17
  1

  0
LINE
  5
2816
330
2815
100
AcDbEntity
  8
0
 62
     0
370
    -2
100
AcDbLine
 10
153.5717829298218
 20
112.2276142524229
 30
0.0
 11
153.5717829298218
 21
118.0535711325906
 31
0.0
  0
LINE
  5
2817
330
2815
100
AcDbEntity
  8
0
 62
     0
370
    -2
100
AcDbLine
 10
129.8217829298218
 20
112.2276142524229
 30
0.0
 11
129.8217829298218
 21
118.0535711325906
 31
0.0
  0
LINE
  5
2818
330
2815
100
AcDbEntity
  8
0
 62
     0
370
    -2
100
AcDbLine
 10
155.0717829298218
 20
116.5535711325906
 30
0.0
 11
156.5717829298218
 21
116.5535711325906
 31
0.0
  0
LINE
  5
2819
330
2815
100
AcDbEntity
  8
0
 62
     0
370
    -2
100
AcDbLine
 10
128.3217829298218
 20
116.5535711325906
 30
0.0
 11
126.8217829298218
 21
116.5535711325906
 31
0.0
  0
SOLID
  5
281A
330
2815
100
AcDbEntity
  8
0
 62
     0
100
AcDbTrace
 10
155.0717829298218
 20
116.8035711325906
 30
0.0
 11
155.0717829298218
 21
116.3035711325906
 31
0.0
 12
153.5717829298218
 22
116.5535711325906
 32
0.0
 13
153.5717829298218
 23
116.5535711325906
 33
0.0
  0
SOLID
  5
281B
330
2815
100
AcDbEntity
  8
0
 62
     0
100
AcDbTrace
 10
128.3217829298218
 20
116.8035711325906
 30
0.0
 11
128.3217829298218
 21
116.3035711325906
 31
0.0
 12
129.8217829298218
 22
116.5535711325906
 32
0.0
 13
129.8217829298218
 23
116.5535711325906
 33
0.0
  0
MTEXT
  5
281C
330
2815
100
AcDbEntity
  8
0
 62
     0
100
AcDbMText
 10
141.6967829298218
 20
116.5535711325906
 30
0.0
 40
1.929599999999999
 41
0.0
 71
     5
 72
     1
  1
\A1;1'-11 3/4"
  7
ROMANS
 73
     1
 44
1.0
1001
ACAD
1000
MTEXTBEGIN
1070
    73
1070
     1
1070
    44
1040
1.0
1070
    74
1070
     0
1000
MTEXTEND
  0
POINT
  5
281D
330
2815
100
AcDbEntity
  8
DEFPOINTS
 62
     0
100
AcDbPoint
 10
153.5717829298218
 20
110.7276142524229
 30
0.0
  0
POINT
  5
281E
330
2815
100
AcDbEntity
  8
DEFPOINTS
 62
     0
100
AcDbPoint
 10
129.8217829298218
 20
110.7276142524229
 30
0.0
  0
POINT
  5
281F
330
2815
100
AcDbEntity
  8
DEFPOINTS
 62
     0
100
AcDbPoint
 10
129.8217829298218
 20
116.5535711325906
 30
0.0
  0
ENDBLK
  5
2821
330
2815
100
AcDbEntity
  8
0
100
AcDbBlockEnd
  0
BLOCK
  5
282E
330
2823
100
AcDbEntity
  8
0
100
AcDbBlockBegin
  2
*D18
 70
     1
 10
0.0
 20
0.0
 30
0.0
  3
*D18
  1

  0
LINE
  5
283A
330
2823
100
AcDbEntity
  8
0
 62
     0
370
    -2
100
AcDbLine
 10
156.6967829298218
 20
15.72761425242871
 30
0.0
 11
156.6967829298218
 21
9.814018342925702
 31
0.0
  0
LINE
  5
283B
330
2823
100
AcDbEntity
  8
0
 62
     0
370
    -2
100
AcDbLine
 10
126.6967829298218
 20
15.7276142524287
 30
0.0
 11
126.6967829298218
 21
9.814018342925702
 31
0.0
  0
LINE
  5
283C
330
2823
100
AcDbEntity
  8
0
 62
     0
370
    -2
100
AcDbLine
 10
155.1967829298217
 20
11.3140183429257
 30
0.0
 11
150.6395257869646
 21
11.3140183429257
 31
0.0
  0
LINE
  5
283D
330
2823
100
AcDbEntity
  8
0
 62
     0
370
    -2
100
AcDbLine
 10
128.1967829298217
 20
11.3140183429257
 30
0.0
 11
132.7540400726789
 21
11.3140183429257
 31
0.0
  0
SOLID
  5
283E
330
2823
100
AcDbEntity
  8
0
 62
     0
100
AcDbTrace
 10
155.1967829298217
 20
11.5640183429257
 30
0.0
 11
155.1967829298217
 21
11.0640183429257
 31
0.0
 12
156.6967829298218
 22
11.3140183429257
 32
0.0
 13
156.6967829298218
 23
11.3140183429257
 33
0.0
  0
SOLID
  5
283F
330
2823
100
AcDbEntity
  8
0
 62
     0
100
AcDbTrace
 10
128.1967829298217
 20
11.5640183429257
 30
0.0
 11
128.1967829298217
 21
11.0640183429257
 31
0.0
 12
126.6967829298218
 22
11.3140183429257
 32
0.0
 13
126.6967829298218
 23
11.3140183429257
 33
0.0
  0
MTEXT
  5
2840
330
2823
100
AcDbEntity
  8
0
 62
     0
100
AcDbMText
 10
141.6967829298218
 20
11.3140183429257
 30
0.0
 40
1.929599999999999
 41
0.0
 71
     5
 72
     1
  1
\A1;2'-6" STD
  7
ROMANS
 73
     1
 44
1.0
1001
ACAD
1000
MTEXTBEGIN
1070
    73
1070
     1
1070
    44
1040
1.0
1070
    74
1070
     0
1000
MTEXTEND
  0
POINT
  5
2841
330
2823
100
AcDbEntity
  8
DEFPOINTS
 62
     0
100
AcDbPoint
 10
156.6967829298218
 20
17.22761425242871
 30
0.0
  0
POINT
  5
2842
330
2823
100
AcDbEntity
  8
DEFPOINTS
 62
     0
100
AcDbPoint
 10
126.6967829298218
 20
17.2276142524287
 30
0.0
  0
POINT
  5
2843
330
2823
100
AcDbEntity
  8
DEFPOINTS
 62
     0
100
AcDbPoint
 10
126.6967829298218
 20
11.3140183429257
 30
0.0
  0
ENDBLK
  5
282F
330
2823
100
AcDbEntity
  8
0
100
AcDbBlockEnd
  0
BLOCK
  5
28CB
330
28C0
100
AcDbEntity
  8
0
100
AcDbBlockBegin
  2
*D19
 70
     1
 10
0.0
 20
0.0
 30
0.0
  3
*D19
  1

  0
LINE
  5
28CD
330
28C0
100
AcDbEntity
  8
0
 62
     0
370
    -2
100
AcDbLine
 10
42.3322447692159
 20
83.37098974398056
 30
0.0
 11
39.69571338246714
 21
84.7143695839199
 31
0.0
  0
LINE
  5
28CE
330
28C0
100
AcDbEntity
  8
0
 62
     0
370
    -2
100
AcDbLine
 10
58.27866107256751
 20
114.6675939060969
 30
0.0
 11
55.64212968581874
 21
116.0109737460363
 31
0.0
  0
LINE
  5
28CF
330
28C0
100
AcDbEntity
  8
0
 62
     0
370
    -2
100
AcDbLine
 10
41.713208918359
 20
85.36989362059312
 30
0.0
 11
46.23868350344132
 21
94.2516375836722
 31
0.0
  0
LINE
  5
28D0
330
28C0
100
AcDbEntity
  8
0
 62
     0
370
    -2
100
AcDbLine
 10
56.29765372249196
 20
113.9934782101444
 30
0.0
 11
51.77217913740964
 21
105.1117342470653
 31
0.0
  0
SOLID
  5
28D1
330
28C0
100
AcDbEntity
  8
0
 62
     0
100
AcDbTrace
 10
41.49045728731191
 20
85.48339124552802
 30
0.0
 11
41.9359605494061
 21
85.25639599565824
 31
0.0
 12
41.03222316874968
 22
84.03338383431057
 32
0.0
 13
41.03222316874968
 23
84.03338383431057
 33
0.0
  0
SOLID
  5
28D2
330
28C0
100
AcDbEntity
  8
0
 62
     0
100
AcDbTrace
 10
56.07490209144487
 20
114.1069758350793
 30
0.0
 11
56.52040535353906
 21
113.8799805852095
 31
0.0
 12
56.97863947210129
 22
115.3299879964269
 32
0.0
 13
56.97863947210129
 23
115.3299879964269
 33
0.0
  0
MTEXT
  5
28D3
330
28C0
100
AcDbEntity
  8
0
 62
     0
100
AcDbMText
 10
49.00543132042548
 20
99.68168591536876
 30
0.0
 40
1.929599999999999
 41
0.0
 71
     5
 72
     1
  1
\A1;VARIES
  7
ROMANS
 11
0.453990499739547
 21
0.891006524188368
 31
0.0
 73
     1
 44
1.0
1001
ACAD
1000
MTEXTBEGIN
1070
    73
1070
     1
1070
    44
1040
1.0
1070
    74
1070
     0
1000
MTEXTEND
  0
POINT
  5
28D4
330
28C0
100
AcDbEntity
  8
DEFPOINTS
 62
     0
100
AcDbPoint
 10
43.66875455549845
 20
82.69000399437123
 30
0.0
  0
POINT
  5
28D5
330
28C0
100
AcDbEntity
  8
DEFPOINTS
 62
     0
100
AcDbPoint
 10
59.61517085885006
 20
113.9866081564876
 30
0.0
  0
POINT
  5
28D6
330
28C0
100
AcDbEntity
  8
DEFPOINTS
 62
     0
100
AcDbPoint
 10
56.97863947210129
 20
115.3299879964269
 30
0.0
  0
ENDBLK
  5
28CC
330
28C0
100
AcDbEntity
  8
0
100
AcDbBlockEnd
  0
ENDSEC
  0
SECTION
  2
ENTITIES
  0
TEXT
  5
B9D
330
10B4
100
AcDbEntity
  8
0
 62
     5
100
AcDbText
 10
10.83308316513861
 20
177.3265624212789
 30
0.0
 40
4.402775
  1
ALUMINUM SHIPS STAIR w/WALK-THRU
  7
ROMANC
100
AcDbText
  0
TEXT
  5
B9E
330
10B4
100
AcDbEntity
  8
0
 62
     5
100
AcDbText
 10
199.7581984364817
 20
11.98917581959332
 30
0.0
 40
2.948
  1
FACTORY FINISH
  7
ROMANS
 72
     1
 11
217.5163889126721
 21
11.98917581959332
 31
0.0
100
AcDbText
  0
TEXT
  5
B9F
330
10B4
100
AcDbEntity
  8
0
 62
     5
100
AcDbText
 10
192.1284936745769
 20
7.216223438640938
 30
0.0
 40
2.948
  1
%%OALUMINUM-MILL FINISH
  7
ROMANS
 72
     1
 11
217.5163889126721
 21
7.216223438640938
 31
0.0
100
AcDbText
  0
LINE
  5
BA1
330
10B4
100
AcDbEntity
  8
0
 62
     7
100
AcDbLine
 10
14.78293829217008
 20
17.22761425242285
 30
0.0
 11
63.69738144363521
 21
113.2276142524228
 31
0.0
  0
LINE
  5
BA2
330
10B4
100
AcDbEntity
  8
0
 62
     7
100
AcDbLine
 10
20.39456948034189
 20
17.22761425242285
 30
0.0
 11
69.30901263180702
 21
113.2276142524228
 31
0.0
  0
LINE
  5
BA3
330
10B4
100
AcDbEntity
  8
0
 62
     7
100
AcDbLine
 10
14.99337446172649
 20
17.22761425242285
 30
0.0
 11
63.90781761319165
 21
113.2276142524228
 31
0.0
  0
LINE
  5
BA4
330
10B4
100
AcDbEntity
  8
0
 62
     7
100
AcDbLine
 10
20.18413331078548
 20
17.22761425242285
 30
0.0
 11
69.09857646225056
 21
113.2276142524228
 31
0.0
  0
LINE
  5
BA5
330
10B4
100
AcDbEntity
  8
0
 62
     7
100
AcDbLine
 10
63.69738144363521
 20
113.2276142524228
 30
0.0
 11
69.30901263180704
 21
113.2276142524229
 31
0.0
  0
LINE
  5
BA6
330
10B4
100
AcDbEntity
  8
0
 62
     7
100
AcDbLine
 10
14.78293829217008
 20
17.22761425242285
 30
0.0
 11
20.39456948034189
 21
17.22761425242285
 31
0.0
  0
LINE
  5
BAE
330
10B4
100
AcDbEntity
  8
0
 62
     7
100
AcDbLine
 10
154.6967829298218
 20
113.2276142524228
 30
0.0
 11
128.6967829298217
 21
113.2276142524228
 31
0.0
  0
LINE
  5
BAF
330
10B4
100
AcDbEntity
  8
0
 62
     7
100
AcDbLine
 10
154.6967829298218
 20
112.1026142524228
 30
0.0
 11
128.6967829298217
 21
112.1026142524228
 31
0.0
  0
LINE
  5
BCF
330
10B4
100
AcDbEntity
  8
0
 62
     6
100
AcDbLine
 10
69.30901263180704
 20
113.2276142524229
 30
0.0
 11
69.30901263180704
 21
17.22761425242285
 31
0.0
  0
LINE
  5
BD0
330
10B4
100
AcDbEntity
  8
0
  6
CENTER
 62
     7
100
AcDbLine
 10
68.30901263180703
 20
110.7276142524229
 30
0.0
 11
70.30901263180703
 21
110.7276142524229
 31
0.0
  0
LINE
  5
BD6
330
10B4
100
AcDbEntity
  8
0
 62
     6
100
AcDbLine
 10
20.39456948034189
 20
17.22761425242285
 30
0.0
 11
69.309012631807
 21
17.22761425242285
 31
0.0
  0
LINE
  5
BD7
330
10B4
100
AcDbEntity
  8
0
  6
CENTER
 62
     7
100
AcDbLine
 10
68.30901263180703
 20
108.2276142524229
 30
0.0
 11
70.30901263180703
 21
108.2276142524229
 31
0.0
  0
LINE
  5
BD8
330
10B4
100
AcDbEntity
  8
0
 62
     7
100
AcDbLine
 10
16.85486130958168
 20
17.22761425242285
 30
0.0
 11
16.85486130958168
 21
20.22761425242285
 31
0.0
  0
LINE
  5
BD9
330
10B4
100
AcDbEntity
  8
0
 62
     7
100
AcDbLine
 10
16.85486130958168
 20
20.22761425242285
 30
0.0
 11
19.85486130958168
 21
20.22761425242285
 31
0.0
  0
LINE
  5
BDA
330
10B4
100
AcDbEntity
  8
0
 62
     7
100
AcDbLine
 10
19.85486130958168
 20
20.22761425242285
 30
0.0
 11
19.85486130958168
 21
17.22761425242285
 31
0.0
  0
LINE
  5
BDB
330
10B4
100
AcDbEntity
  8
0
 62
     7
100
AcDbLine
 10
19.85486130958168
 20
17.47761425242285
 30
0.0
 11
16.85486130958168
 21
17.47761425242285
 31
0.0
  0
LINE
  5
BDC
330
10B4
100
AcDbEntity
  8
0
 62
     7
100
AcDbLine
 10
152.6967829298218
 20
106.9776142524228
 30
0.0
 11
154.6967829298218
 21
106.9776142524228
 31
0.0
  0
LINE
  5
BDD
330
10B4
100
AcDbEntity
  8
0
 62
     7
100
AcDbLine
 10
152.6967829298218
 20
111.9776142524228
 30
0.0
 11
154.6967829298218
 21
111.9776142524228
 31
0.0
  0
LINE
  5
BDE
330
10B4
100
AcDbEntity
  8
0
 62
     7
100
AcDbLine
 10
152.6967829298218
 20
106.9776142524228
 30
0.0
 11
152.6967829298218
 21
111.9776142524228
 31
0.0
  0
LINE
  5
BDF
330
10B4
100
AcDbEntity
  8
0
 62
     7
100
AcDbLine
 10
154.4467829298218
 20
106.9776142524228
 30
0.0
 11
154.4467829298218
 21
111.9776142524228
 31
0.0
  0
CIRCLE
  5
BE0
330
10B4
100
AcDbEntity
  8
0
 62
     7
100
AcDbCircle
 10
153.5717829298218
 20
110.7276142524229
 30
0.0
 40
0.1875
  0
CIRCLE
  5
BE1
330
10B4
100
AcDbEntity
  8
0
 62
     7
100
AcDbCircle
 10
153.5717829298218
 20
108.2276142524229
 30
0.0
 40
0.1875
  0
LINE
  5
BE2
330
10B4
100
AcDbEntity
  8
0
 62
     7
100
AcDbLine
 10
128.9467829298217
 20
106.9776142524228
 30
0.0
 11
128.9467829298217
 21
111.9776142524228
 31
0.0
  0
LINE
  5
BE3
330
10B4
100
AcDbEntity
  8
0
 62
     7
100
AcDbLine
 10
130.6967829298218
 20
106.9776142524228
 30
0.0
 11
130.6967829298218
 21
111.9776142524228
 31
0.0
  0
LINE
  5
BE4
330
10B4
100
AcDbEntity
  8
0
 62
     7
100
AcDbLine
 10
130.6967829298218
 20
106.9776142524228
 30
0.0
 11
128.6967829298217
 21
106.9776142524228
 31
0.0
  0
LINE
  5
BE5
330
10B4
100
AcDbEntity
  8
0
 62
     7
100
AcDbLine
 10
130.6967829298218
 20
111.9776142524228
 30
0.0
 11
128.6967829298217
 21
111.9776142524228
 31
0.0
  0
CIRCLE
  5
BE6
330
10B4
100
AcDbEntity
  8
0
 62
     7
100
AcDbCircle
 10
129.8217829298218
 20
108.2276142524229
 30
0.0
 40
0.1875
  0
CIRCLE
  5
BE7
330
10B4
100
AcDbEntity
  8
0
 62
     7
100
AcDbCircle
 10
129.8217829298218
 20
110.7276142524229
 30
0.0
 40
0.1875
  0
LINE
  5
BE8
330
10B4
100
AcDbEntity
  8
0
 62
     7
100
AcDbLine
 10
225.242654951705
 20
129.2959780758609
 30
0.0
 11
225.242654951705
 21
149.2959780758609
 31
0.0
  0
LINE
  5
BE9
330
10B4
100
AcDbEntity
  8
0
 62
     7
100
AcDbLine
 10
225.242654951705
 20
149.2959780758609
 30
0.0
 11
208.7881722798007
 21
158.7959780758609
 31
0.0
  0
LINE
  5
BEA
330
10B4
100
AcDbEntity
  8
0
 62
     7
100
AcDbLine
 10
208.7881722798007
 20
158.7959780758609
 30
0.0
 11
201.8599690495253
 21
154.7959780758609
 31
0.0
  0
LINE
  5
BEB
330
10B4
100
AcDbEntity
  8
0
 62
     7
100
AcDbLine
 10
201.8599690495253
 20
134.7959780758609
 30
0.0
 11
201.8599690495253
 21
154.7959780758609
 31
0.0
  0
LINE
  5
BEC
330
10B4
100
AcDbEntity
  8
0
 62
     7
100
AcDbLine
 10
202.7259944533097
 20
134.2959780758609
 30
0.0
 11
202.7259944533097
 21
154.2959780758609
 31
0.0
  0
LINE
  5
BED
330
10B4
100
AcDbEntity
  8
0
 62
     7
100
AcDbLine
 10
207.4891341741241
 20
157.0459780758609
 30
0.0
 11
202.7259944533097
 21
154.2959780758609
 31
0.0
  0
LINE
  5
BEE
330
10B4
100
AcDbEntity
  8
0
 62
     7
100
AcDbLine
 10
224.3766295479206
 20
148.7959780758609
 30
0.0
 11
210.0872103854774
 21
157.0459780758609
 31
0.0
  0
LINE
  5
BEF
330
10B4
100
AcDbEntity
  8
0
 62
     7
100
AcDbLine
 10
224.3766295479206
 20
128.7959780758609
 30
0.0
 11
224.3766295479206
 21
148.7959780758609
 31
0.0
  0
LINE
  5
BF0
330
10B4
100
AcDbEntity
  8
0
 62
     7
100
AcDbLine
 10
224.3766295479206
 20
128.7959780758609
 30
0.0
 11
210.0872103854774
 21
137.0459780758609
 31
0.0
  0
LINE
  5
BF1
330
10B4
100
AcDbEntity
  8
0
 62
     7
100
AcDbLine
 10
224.3766295479206
 20
128.7959780758609
 30
0.0
 11
225.242654951705
 21
129.2959780758609
 31
0.0
  0
LINE
  5
BF2
330
10B4
100
AcDbEntity
  8
0
 62
     7
100
AcDbLine
 10
224.3766295479206
 20
148.7959780758609
 30
0.0
 11
225.242654951705
 21
149.2959780758609
 31
0.0
  0
LINE
  5
BF3
330
10B4
100
AcDbEntity
  8
0
 62
     7
100
AcDbLine
 10
202.7259944533097
 20
154.2959780758609
 30
0.0
 11
201.8599690495253
 21
154.7959780758609
 31
0.0
  0
LINE
  5
BF4
330
10B4
100
AcDbEntity
  8
0
 62
     7
100
AcDbLine
 10
201.8599690495253
 20
134.7959780758609
 30
0.0
 11
202.7259944533097
 21
134.2959780758609
 31
0.0
  0
LINE
  5
BF5
330
10B4
100
AcDbEntity
  8
0
 62
     7
100
AcDbLine
 10
207.4891341741241
 20
137.0459780758609
 30
0.0
 11
202.7259944533097
 21
134.2959780758609
 31
0.0
  0
LWPOLYLINE
  5
BF7
330
10B4
100
AcDbEntity
  8
0
 62
     7
100
AcDbPolyline
 90
       16
 70
     1
 43
0.0
 10
205.2978040397834
 20
141.3111431188059
 42
0.0587518675353787
 10
205.1510529428908
 20
140.9699855045739
 42
0.0723410840577285
 10
205.1075643137169
 20
140.6709780758609
 42
0.1066170543908141
 10
205.1671494072794
 20
140.3947193738892
 42
0.1568512196706985
 10
205.2978040397834
 20
140.250482947026
 42
0.1568512196704384
 10
205.4880437658496
 20
140.209450929587
 42
0.1066170543909636
 10
205.7570833665552
 20
140.2959780758609
 42
0.0723410840576176
 10
205.9942870811537
 20
140.4831440478575
 42
0.058751867535388
 10
206.216362693327
 20
140.7808130329159
 42
0.0587518675353589
 10
206.3631137902197
 20
141.1219706471481
 42
0.0723410840575958
 10
206.4066024193935
 20
141.4209780758609
 42
0.1066170543910831
 10
206.3470173258309
 20
141.697236777833
 42
0.1568512196705393
 10
206.216362693327
 20
141.8414732046958
 42
0.1568512196708571
 10
206.0261229672605
 20
141.8825052221348
 42
0.1066170543910327
 10
205.7570833665552
 20
141.7959780758609
 42
0.0723410840576803
 10
205.5198796519564
 20
141.6088121038641
 42
0.0587518675353255
  0
LWPOLYLINE
  5
C09
330
10B4
100
AcDbEntity
  8
0
 62
     7
100
AcDbPolyline
 90
        3
 70
     0
 43
0.0
 10
205.1697397676666
 20
141.0286691210852
 42
0.0490135540736306
 10
205.3503372895426
 20
141.2808130329159
 42
0.0490135540736366
 10
205.4784015616596
 20
141.5632870306366
 42
0.0723410840575958
  0
LWPOLYLINE
  5
C0E
330
10B4
100
AcDbEntity
  8
0
 62
     7
100
AcDbPolyline
 90
        3
 70
     0
 43
0.0
 10
205.1697397676666
 20
151.0286691210852
 42
0.0490135540736306
 10
205.3503372895426
 20
151.2808130329159
 42
0.0490135540736366
 10
205.4784015616596
 20
151.5632870306366
 42
0.0723410840575958
  0
LWPOLYLINE
  5
C13
330
10B4
100
AcDbEntity
  8
0
 62
     7
100
AcDbPolyline
 90
       16
 70
     1
 43
0.0
 10
205.2978040397834
 20
151.3111431188059
 42
0.0587518675353787
 10
205.1510529428908
 20
150.9699855045739
 42
0.0723410840577285
 10
205.1075643137169
 20
150.6709780758609
 42
0.1066170543908141
 10
205.1671494072794
 20
150.3947193738892
 42
0.1568512196706985
 10
205.2978040397834
 20
150.250482947026
 42
0.1568512196704384
 10
205.4880437658496
 20
150.2094509295869
 42
0.1066170543909636
 10
205.7570833665552
 20
150.2959780758609
 42
0.0723410840576176
 10
205.9942870811537
 20
150.4831440478575
 42
0.058751867535388
 10
206.216362693327
 20
150.7808130329159
 42
0.0587518675353589
 10
206.3631137902197
 20
151.1219706471481
 42
0.0723410840575958
 10
206.4066024193935
 20
151.4209780758609
 42
0.1066170543910831
 10
206.3470173258309
 20
151.697236777833
 42
0.1568512196705393
 10
206.216362693327
 20
151.8414732046958
 42
0.1568512196708571
 10
206.0261229672605
 20
151.8825052221348
 42
0.1066170543910327
 10
205.7570833665552
 20
151.7959780758609
 42
0.0723410840576803
 10
205.5198796519564
 20
151.6088121038641
 42
0.0587518675353255
  0
LINE
  5
C31
330
10B4
100
AcDbEntity
  8
0
 62
     7
100
AcDbLine
 10
229.2018882800172
 20
63.94941617678468
 30
0.0
 11
229.2018882800174
 21
55.19941617678468
 31
0.0
  0
LINE
  5
C32
330
10B4
100
AcDbEntity
  8
0
 62
     7
100
AcDbLine
 10
201.2018882800172
 20
63.94941617678468
 30
0.0
 11
201.201888280017
 21
55.19941617678468
 31
0.0
  0
LINE
  5
C33
330
10B4
100
AcDbEntity
  8
0
 62
     7
100
AcDbLine
 10
201.201888280017
 20
55.19941617678468
 30
0.0
 11
229.2018882800174
 21
55.19941617678468
 31
0.0
  0
CIRCLE
  5
C34
330
10B4
100
AcDbEntity
  8
0
 62
     7
100
AcDbCircle
 10
223.9518882800172
 20
58.69941617678468
 30
0.0
 40
1.3125
  0
CIRCLE
  5
C35
330
10B4
100
AcDbEntity
  8
0
 62
     7
100
AcDbCircle
 10
206.451888280017
 20
58.69941617678468
 30
0.0
 40
1.3125
  0
LINE
  5
C51
330
10B4
100
AcDbEntity
  8
0
 62
     7
100
AcDbLine
 10
5.602336541154343
 20
20.88793098319526
 30
0.0
 11
9.066438156292107
 21
22.88793098319526
 31
0.0
  0
LINE
  5
C52
330
10B4
100
AcDbEntity
  8
0
 62
     7
100
AcDbLine
 10
9.066438156292107
 20
22.88793098319526
 30
0.0
 11
9.066438156292107
 21
28.88793098319526
 31
0.0
  0
LINE
  5
C53
330
10B4
100
AcDbEntity
  8
0
 62
     7
100
AcDbLine
 10
9.066438156292107
 20
28.88793098319526
 30
0.0
 11
3.870285733585475
 21
31.88793098319526
 31
0.0
  0
LINE
  5
C54
330
10B4
100
AcDbEntity
  8
0
 62
     7
100
AcDbLine
 10
8.633425454399883
 20
23.13793098319526
 30
0.0
 11
8.633425454399883
 21
28.63793098319526
 31
0.0
  0
LINE
  5
C55
330
10B4
100
AcDbEntity
  8
0
 62
     7
100
AcDbLine
 10
5.602336541154343
 20
21.38793098319526
 30
0.0
 11
8.633425454399883
 21
23.13793098319526
 31
0.0
  0
LINE
  5
C56
330
10B4
100
AcDbEntity
  8
0
 62
     7
100
AcDbLine
 10
8.633425454399883
 20
28.63793098319526
 30
0.0
 11
3.437273031693251
 21
31.63793098319526
 31
0.0
  0
LINE
  5
C5B
330
10B4
100
AcDbEntity
  8
0
 62
     7
100
AcDbLine
 10
8.633425454399883
 20
28.63793098319526
 30
0.0
 11
9.066438156292107
 21
28.88793098319526
 31
0.0
  0
LINE
  5
C5C
330
10B4
100
AcDbEntity
  8
0
 62
     7
100
AcDbLine
 10
3.437273031693251
 20
31.63793098319526
 30
0.0
 11
3.870285733585475
 21
31.88793098319526
 31
0.0
  0
LINE
  5
C5D
330
10B4
100
AcDbEntity
  8
0
 62
     7
100
AcDbLine
 10
3.437273031693251
 20
26.13793098319526
 30
0.0
 11
3.437273031693251
 21
31.63793098319526
 31
0.0
  0
LINE
  5
C5E
330
10B4
100
AcDbEntity
  8
0
 62
     7
100
AcDbLine
 10
0.4061841184477118
 20
24.38793098319526
 30
0.0
 11
3.437273031693251
 21
26.13793098319526
 31
0.0
  0
LINE
  5
C5F
330
10B4
100
AcDbEntity
  8
0
 62
     7
100
AcDbLine
 10
8.633425454399883
 20
23.13793098319526
 30
0.0
 11
3.437273031693251
 21
26.13793098319526
 31
0.0
  0
LINE
  5
C60
330
10B4
100
AcDbEntity
  8
0
 62
     7
100
AcDbLine
 10
5.602336541154343
 20
21.38793098319526
 30
0.0
 11
0.4061841184477118
 21
24.38793098319526
 31
0.0
  0
LINE
  5
C61
330
10B4
100
AcDbEntity
  8
0
 62
     7
100
AcDbLine
 10
5.602336541154343
 20
20.88793098319526
 30
0.0
 11
0.4061841184477118
 21
23.88793098319526
 31
0.0
  0
LINE
  5
C62
330
10B4
100
AcDbEntity
  8
0
 62
     7
100
AcDbLine
 10
5.602336541154343
 20
20.88793098319526
 30
0.0
 11
5.602336541154343
 21
21.38793098319526
 31
0.0
  0
LINE
  5
C63
330
10B4
100
AcDbEntity
  8
0
 62
     7
100
AcDbLine
 10
0.4061841184477118
 20
23.88793098319526
 30
0.0
 11
0.4061841184477118
 21
24.38793098319526
 31
0.0
  0
LWPOLYLINE
  5
C64
330
10B4
100
AcDbEntity
  8
0
 62
     7
100
AcDbPolyline
 90
       16
 70
     1
 43
0.0
 10
4.519804786423804
 20
24.0280960261402
 42
0.0587518675353691
 10
4.335391431890869
 20
24.00635171155331
 42
0.0723410840576782
 10
4.195045260004633
 20
23.95043098319526
 42
0.1066170543910112
 10
4.090318006433221
 20
23.85556520534628
 42
0.1568512196707664
 10
4.060525459651955
 20
23.76293098319526
 42
0.1568512196707728
 10
4.090318006433221
 20
23.67029676104421
 42
0.1066170543910009
 10
4.195045260004633
 20
23.57543098319526
 42
0.072341084057652
 10
4.335391431890855
 20
23.51951025483721
 42
0.0587518675353623
 10
4.519804786423804
 20
23.4977659402503
 42
0.058751867535364
 10
4.704218140956768
 20
23.51951025483721
 42
0.0723410840576324
 10
4.844564312842962
 20
23.57543098319526
 42
0.1066170543910291
 10
4.949291566414373
 20
23.67029676104423
 42
0.15685121967079
 10
4.979084113195639
 20
23.76293098319526
 42
0.1568512196707785
 10
4.949291566414373
 20
23.85556520534629
 42
0.1066170543910104
 10
4.844564312842962
 20
23.95043098319526
 42
0.072341084057674
 10
4.70421814095674
 20
24.00635171155329
 42
0.0587518675353814
  0
LWPOLYLINE
  5
C76
330
10B4
100
AcDbEntity
  8
0
 62
     7
100
AcDbPolyline
 90
        2
 70
     0
 43
0.0
 10
4.519804786423804
 20
23.52809602614021
 42
0.04901355407364
 10
4.365473889427278
 20
23.51293098319526
 42
0.0723410840576782
  0
LWPOLYLINE
  5
C7A
330
10B4
100
AcDbEntity
  8
0
 62
     7
100
AcDbPolyline
 90
        2
 70
     0
 43
0.0
 10
4.674135683420317
 20
23.51293098319525
 42
0.0490135540736445
 10
4.519804786423804
 20
23.52809602614021
 42
0.0587518675353691
  0
CIRCLE
  5
C85
330
10B4
100
AcDbEntity
  8
0
  6
PHANTOM
 62
     7
100
AcDbCircle
 10
49.75840473077744
 20
80.87630325181338
 30
0.0
 40
3.699140214117444
  0
LINE
  5
C86
330
10B4
100
AcDbEntity
  8
0
 62
     7
100
AcDbLine
 10
53.45754494489487
 20
80.87630325181338
 30
0.0
 11
56.86658367774929
 21
80.87630325181338
 31
0.0
  0
TEXT
  5
C87
330
10B4
100
AcDbEntity
  8
0
 62
     7
100
AcDbText
 10
58.21103420277722
 20
79.43393016564806
 30
0.0
 40
2.948
  1
B
  7
ROMANS
 72
     1
 11
59.7552246789677
 21
79.43393016564806
 31
0.0
100
AcDbText
  0
CIRCLE
  5
C88
330
10B4
100
AcDbEntity
  8
0
 62
     7
100
AcDbCircle
 10
59.55534021428196
 20
80.87630325181338
 30
0.0
 40
2.688756536532666
  0
CIRCLE
  5
C89
330
10B4
100
AcDbEntity
  8
0
 62
     7
100
AcDbCircle
 10
119.8908166121404
 20
109.5883606114965
 30
0.0
 40
2.688756536532666
  0
LINE
  5
C8A
330
10B4
100
AcDbEntity
  8
0
 62
     7
100
AcDbLine
 10
125.9886118815275
 20
109.5883606114965
 30
0.0
 11
122.5795731486731
 21
109.5883606114965
 31
0.0
  0
TEXT
  5
C8B
330
10B4
100
AcDbEntity
  8
0
 62
     7
100
AcDbText
 10
118.6943059590666
 20
108.3320159093604
 30
0.0
 40
2.948
  1
A
  7
ROMANS
 72
     1
 11
119.9577345304952
 21
108.3320159093604
 31
0.0
100
AcDbText
  0
CIRCLE
  5
C8C
330
10B4
100
AcDbEntity
  8
0
  6
PHANTOM
 62
     7
100
AcDbCircle
 10
129.6877520956449
 20
109.5883606114965
 30
0.0
 40
3.699140214117444
  0
DIMENSION
  5
C8D
330
10B4
100
AcDbEntity
  8
0
 62
     7
100
AcDbDimension
  2
*D9
 10
73.69031561259575
 20
113.2276142524229
 30
0.0
 11
81.19922989831003
 21
115.9776142524229
 31
0.0
 12
1.05221781700753
 22
-6.601537634796699
 32
0.0
  1
2-1/2"
 71
     5
 42
-1.0
100
AcDbAlignedDimension
 13
70.30901263180703
 23
110.7276142524229
 33
0.0
 14
69.30901263180704
 24
113.2276142524229
 34
0.0
 50
90.0
100
AcDbRotatedDimension
  0
TEXT
  5
C8E
330
10B4
100
AcDbEntity
  8
0
 62
     7
100
AcDbText
 10
82.04127732871633
 20
62.38292250874483
 30
0.0
 40
1.768799999999999
  1
NOTE:
  7
ROMANS
100
AcDbText
  0
TEXT
  5
C8F
330
10B4
100
AcDbEntity
  8
0
 62
     7
100
AcDbText
 10
82.04127732871633
 20
59.5191510801734
 30
0.0
 40
1.768799999999999
  1
ALL BOLTS/FASTENERS
  7
ROMANS
100
AcDbText
  0
TEXT
  5
C90
330
10B4
100
AcDbEntity
  8
0
 62
     7
100
AcDbText
 10
82.04127732871633
 20
56.65537965160197
 30
0.0
 40
1.768799999999999
  1
NECESSARY TO ANCHOR
  7
ROMANS
100
AcDbText
  0
TEXT
  5
C91
330
10B4
100
AcDbEntity
  8
0
 62
     7
100
AcDbText
 10
82.04127732871633
 20
53.79160822303055
 30
0.0
 40
1.768799999999999
  1
LADDER ARE BY OTHERS.
  7
ROMANS
100
AcDbText
  0
TEXT
  5
C92
330
10B4
100
AcDbEntity
  8
0
 62
     7
100
AcDbText
 10
75.13030653354201
 20
90.55490713987532
 30
0.0
 40
1.768799999999999
  1
5" x 2" x 3/16"
  7
ROMANS
 72
     1
 11
87.04864939068487
 21
90.55490713987532
 31
0.0
100
AcDbText
  0
TEXT
  5
C93
330
10B4
100
AcDbEntity
  8
0
 62
     7
100
AcDbText
 10
73.61419224782773
 20
87.6911357113039
 30
0.0
 40
1.768799999999999
  1
ALUMINUM CHANNEL
  7
ROMANS
 72
     1
 11
87.04864939068487
 21
87.6911357113039
 31
0.0
100
AcDbText
  0
TEXT
  5
C94
330
10B4
100
AcDbEntity
  8
0
 62
     7
100
AcDbText
 10
80.81573510497058
 20
84.82736428273247
 30
0.0
 40
1.768799999999999
  1
STRINGER
  7
ROMANS
 72
     1
 11
87.04864939068487
 21
84.82736428273247
 31
0.0
100
AcDbText
  0
TEXT
  5
C95
330
10B4
100
AcDbEntity
  8
0
 62
     7
100
AcDbText
 10
79.88922081925629
 20
81.96359285416106
 30
0.0
 40
1.768799999999999
  1
(6005-T5)
  7
ROMANS
 72
     1
 11
87.04864939068487
 21
81.96359285416106
 31
0.0
100
AcDbText
  0
SOLID
  5
C96
330
10B4
100
AcDbEntity
  8
0
 62
     7
100
AcDbTrace
 10
62.24816285582221
 20
96.5807911541124
 30
0.0
 11
62.48116304696823
 21
96.97548135587874
 31
0.0
 12
61.18059234609617
 22
97.47713682843361
 32
0.0
 13
61.18059234609617
 23
97.47713682843361
 33
0.0
  0
LINE
  5
C97
330
10B4
100
AcDbEntity
  8
0
 62
     7
100
AcDbLine
 10
62.36466295139523
 20
96.77813625499556
 30
0.0
 11
70.94995969197881
 21
91.70991877037348
 31
0.0
  0
LINE
  5
C98
330
10B4
100
AcDbEntity
  8
0
 62
     7
100
AcDbLine
 10
70.94995969197881
 20
91.70991877037348
 30
0.0
 11
74.48505494829908
 21
91.70991877037346
 31
0.0
  0
TEXT
  5
C99
330
10B4
100
AcDbEntity
  8
0
 62
     7
100
AcDbText
 10
-2.659892670634143
 20
70.29373210865691
 30
0.0
 40
1.768799999999999
  1
INTERNAL
  7
ROMANS
 72
     1
 11
3.488793043651568
 21
70.29373210865691
 31
0.0
100
AcDbText
  0
TEXT
  5
C9A
330
10B4
100
AcDbEntity
  8
0
 62
     7
100
AcDbText
 10
-2.99680695634843
 20
67.42996068008547
 30
0.0
 40
1.768799999999999
  1
ALUMINUM
  7
ROMANS
 72
     1
 11
3.488793043651568
 21
67.42996068008547
 31
0.0
100
AcDbText
  0
TEXT
  5
C9B
330
10B4
100
AcDbEntity
  8
0
 62
     7
100
AcDbText
 10
-1.986064099205573
 20
64.56618925151402
 30
0.0
 40
1.768799999999999
  1
FITTINGS
  7
ROMANS
 72
     1
 11
3.488793043651568
 21
64.56618925151402
 31
0.0
100
AcDbText
  0
TEXT
  5
C9C
330
10B4
100
AcDbEntity
  8
0
 62
     7
100
AcDbText
 10
14.5902989156066
 20
115.3641768363103
 30
0.0
 40
1.768799999999999
  1
ALUMINUM PIPE
  7
ROMANS
 72
     1
 11
24.95041320132088
 21
115.3641768363103
 31
0.0
100
AcDbText
  0
TEXT
  5
C9D
330
10B4
100
AcDbEntity
  8
0
 62
     7
100
AcDbText
 10
17.79098462989231
 20
109.6366339791675
 30
0.0
 40
1.768799999999999
  1
(6005-T5)
  7
ROMANS
 72
     1
 11
24.95041320132088
 21
109.6366339791675
 31
0.0
100
AcDbText
  0
TEXT
  5
C9E
330
10B4
100
AcDbEntity
  8
0
 62
     7
100
AcDbText
 10
18.63327034417803
 20
112.5004054077389
 30
0.0
 40
1.768799999999999
  1
HANDRAIL
  7
ROMANS
 72
     1
 11
24.95041320132088
 21
112.5004054077389
 31
0.0
100
AcDbText
  0
TEXT
  5
C9F
330
10B4
100
AcDbEntity
  8
0
 62
     7
100
AcDbText
 10
13.57955605846374
 20
118.2279482648818
 30
0.0
 40
1.768799999999999
  1
1-1/4" SCH 40
  7
ROMANS
 72
     1
 11
24.95041320132088
 21
118.2279482648818
 31
0.0
100
AcDbText
  0
SOLID
  5
CA0
330
10B4
100
AcDbEntity
  8
0
 62
     7
100
AcDbTrace
 10
40.56205528690911
 20
106.6445274007858
 30
0.0
 11
40.28485447673616
 21
106.2795217086605
 31
0.0
 12
41.51847195819864
 22
105.6304221242043
 32
0.0
 13
41.51847195819864
 23
105.6304221242043
 33
0.0
  0
LINE
  5
CA1
330
10B4
100
AcDbEntity
  8
0
 62
     7
100
AcDbLine
 10
40.42345488182263
 20
106.4620245547232
 30
0.0
 11
35.34806400140523
 21
110.3164917434514
 31
0.0
  0
LINE
  5
CA2
330
10B4
100
AcDbEntity
  8
0
 62
     7
100
AcDbLine
 10
35.34806400140523
 20
110.3164917434514
 30
0.0
 11
32.6510406686371
 21
110.3164917434515
 31
0.0
  0
LINE
  5
CA3
330
10B4
100
AcDbEntity
  8
0
 62
     7
100
AcDbLine
 10
17.54099902697977
 20
61.55240696902139
 30
0.0
 11
12.46560814656236
 21
65.40687415774967
 31
0.0
  0
SOLID
  5
CA4
330
10B4
100
AcDbEntity
  8
0
 62
     7
100
AcDbTrace
 10
17.67959943206624
 20
61.73490981508407
 30
0.0
 11
17.40239862189328
 21
61.36990412295872
 31
0.0
 12
18.6360161033558
 22
60.72080453850252
 32
0.0
 13
18.6360161033558
 23
60.72080453850252
 33
0.0
  0
LINE
  5
CA5
330
10B4
100
AcDbEntity
  8
0
 62
     7
100
AcDbLine
 10
12.46560814656236
 20
65.40687415774967
 30
0.0
 11
9.76858481379422
 21
65.4068741577497
 31
0.0
  0
CIRCLE
  5
CA6
330
10B4
100
AcDbEntity
  8
0
 62
     5
100
AcDbCircle
 10
192.1409807099893
 20
176.4119426671473
 30
0.0
 40
2.688756536532666
  0
TEXT
  5
CA7
330
10B4
100
AcDbEntity
  8
0
 62
     5
100
AcDbText
 10
190.9444700569155
 20
175.1555979650113
 30
0.0
 40
2.948
  1
A
  7
ROMANS
 72
     1
 11
192.2078986283441
 21
175.1555979650113
 31
0.0
100
AcDbText
  0
TEXT
  5
CA8
330
10B4
100
AcDbEntity
  8
0
 62
     5
100
AcDbText
 10
196.9013513672154
 20
175.1555979650113
 30
0.0
 40
2.948
  1
MOUNTING BRACKET
  7
ROMANS
100
AcDbText
  0
TEXT
  5
CA9
330
10B4
100
AcDbEntity
  8
0
 62
     7
100
AcDbText
 10
208.8407440343991
 20
170.8916034283823
 30
0.0
 40
1.768799999999999
  1
(6005-T5)
  7
ROMANS
100
AcDbText
  0
DIMENSION
  5
CAA
330
10B4
100
AcDbEntity
  8
0
 62
     7
100
AcDbDimension
  2
*D7
 10
234.2468958609938
 20
154.494578988687
 30
0.0
 11
234.2468958609938
 21
144.494578988687
 31
0.0
 12
0.6120313921148864
 22
6.726176684467361
 32
0.0
  1
5"
 71
     5
 42
-1.0
100
AcDbAlignedDimension
 13
225.242654951705
 23
129.2959780758609
 33
0.0
 14
225.242654951705
 24
149.2959780758609
 34
0.0
 50
90.0
100
AcDbRotatedDimension
  0
DIMENSION
  5
CAB
330
10B4
100
AcDbEntity
  8
0
 62
     7
100
AcDbDimension
  2
*D6
 10
217.7924131890895
 20
163.994578988687
 30
0.0
 11
226.0196545250416
 21
159.244578988687
 31
0.0
 12
0.6120313921148864
 22
6.726176684467361
 32
0.0
 70
     1
  1
4-3/4"
 71
     5
 42
-1.0
100
AcDbAlignedDimension
 13
225.242654951705
 23
149.2959780758609
 33
0.0
 14
208.7881722798007
 24
158.7959780758609
 34
0.0
  0
DIMENSION
  5
CAC
330
10B4
100
AcDbEntity
  8
0
 62
     7
100
AcDbDimension
  2
*D5
 10
204.6121941570653
 20
161.2069801691522
 30
0.0
 11
201.1480925419276
 21
159.2069801691522
 31
0.0
 12
0.6120313921148864
 22
6.726176684467361
 32
0.0
 70
     1
  1
2"
 71
     5
 42
-1.0
100
AcDbAlignedDimension
 13
201.8599690495253
 23
154.795978075861
 33
0.0
 14
208.7881722798007
 24
158.7959780758609
 34
0.0
  0
DIMENSION
  5
CAD
330
10B4
100
AcDbEntity
  8
0
 62
     7
100
AcDbDimension
  2
*D4
 10
196.6258448692975
 20
145.7740550714345
 30
0.0
 11
196.6258448692975
 21
140.7740550714345
 31
0.0
 12
0.6120313921148864
 22
6.726176684467361
 32
0.0
 70
     1
  1
2-1/2"
 71
     5
 42
-1.0
100
AcDbAlignedDimension
 13
205.1075643137169
 23
140.6709780758609
 33
0.0
 14
205.1075643137169
 24
150.6709780758609
 34
0.0
  0
SOLID
  5
CAE
330
10B4
100
AcDbEntity
  8
0
 62
     7
100
AcDbTrace
 10
206.4693807570712
 20
139.212761544126
 30
0.0
 11
206.8773117779156
 21
139.4217154306112
 31
0.0
 12
206.0464846080378
 22
140.5410315499019
 32
0.0
 13
206.0464846080378
 23
140.5410315499019
 33
0.0
  0
LINE
  5
CAF
330
10B4
100
AcDbEntity
  8
0
 62
     7
100
AcDbLine
 10
206.6733462674934
 20
139.3172384873686
 30
0.0
 11
212.3752999643329
 21
128.1855776626537
 31
0.0
  0
LINE
  5
CB0
330
10B4
100
AcDbEntity
  8
0
 62
     7
100
AcDbLine
 10
212.3752999643329
 20
128.1855776626537
 30
0.0
 11
209.8070173092947
 21
128.1855776626537
 31
0.0
  0
TEXT
  5
CB1
330
10B4
100
AcDbEntity
  8
0
 62
     7
100
AcDbText
 10
200.8541313183303
 20
127.3011776626537
 30
0.0
 40
1.768799999999999
  1
%%C3/8"
  7
ROMANS
 72
     2
 11
208.6873884611875
 21
128.1855776626537
 31
0.0
100
AcDbText
 73
     2
  0
DIMENSION
  5
CB2
330
10B4
100
AcDbEntity
  8
0
 62
     7
100
AcDbDimension
  2
*D8
 10
225.2426549517051
 20
125.2132878741962
 30
0.0
 11
233.0695390978266
 21
126.5882878741963
 31
0.0
 12
0.6120313921148864
 22
6.726176684467361
 32
0.0
 70
     1
  1
1/4"
 71
     5
 42
-1.0
100
AcDbAlignedDimension
 13
224.3766295479206
 23
128.7959780758609
 33
0.0
 14
225.242654951705
 24
129.2959780758609
 34
0.0
  0
DIMENSION
  5
CB3
330
10B4
100
AcDbEntity
  8
0
 62
     7
100
AcDbDimension
  2
*D3
 10
200.233275163448
 20
71.68400344984546
 30
0.0
 11
218.5309151116493
 21
71.68400344984546
 31
0.0
  1
5-3/16"
 71
     5
 42
-1.0
100
AcDbAlignedDimension
 13
236.8285550598506
 23
64.38691617678468
 33
0.0
 14
200.233275163448
 24
64.58553702042074
 34
0.0
100
AcDbRotatedDimension
  0
DIMENSION
  5
CB4
330
10B4
100
AcDbEntity
  8
0
 62
     7
100
AcDbDimension
  2
*D2
 10
229.2018882800174
 20
49.77798049971472
 30
0.0
 11
215.2018882800172
 21
49.77798049971472
 31
0.0
  1
4"
 71
     5
 42
-1.0
100
AcDbAlignedDimension
 13
201.201888280017
 23
55.19941617678468
 33
0.0
 14
229.2018882800174
 24
55.19941617678468
 34
0.0
100
AcDbRotatedDimension
  0
TEXT
  5
CB5
330
10B4
100
AcDbEntity
  8
0
 62
     5
100
AcDbText
 10
196.9013513672154
 20
83.74471341733666
 30
0.0
 40
2.948
  1
ALUMINUM TREAD
  7
ROMANS
100
AcDbText
  0
CIRCLE
  5
CB6
330
10B4
100
AcDbEntity
  8
0
 62
     5
100
AcDbCircle
 10
192.1409807099893
 20
85.00105811947269
 30
0.0
 40
2.688756536532666
  0
TEXT
  5
CB7
330
10B4
100
AcDbEntity
  8
0
 62
     5
100
AcDbText
 10
190.7769366628586
 20
83.45051688346435
 30
0.0
 40
2.948
  1
B
  7
ROMANS
 72
     1
 11
192.3211271390491
 21
83.45051688346435
 31
0.0
100
AcDbText
  0
TEXT
  5
CB8
330
10B4
100
AcDbEntity
  8
0
 62
     7
100
AcDbText
 10
208.8226487045127
 20
79.55431953674278
 30
0.0
 40
1.768799999999999
  1
(6005-T5)
  7
ROMANS
100
AcDbText
  0
TEXT
  5
CB9
330
10B4
100
AcDbEntity
  8
0
 62
     7
100
AcDbText
 10
202.1310121016631
 20
115.8371217322391
 30
0.0
 40
1.768799999999999
  1
BRACKET WELDED TO
  7
ROMANS
100
AcDbText
  0
TEXT
  5
CBA
330
10B4
100
AcDbEntity
  8
0
 62
     7
100
AcDbText
 10
202.1310121016631
 20
112.9733503036676
 30
0.0
 40
1.768799999999999
  1
INSIDE OF STRINGER
  7
ROMANS
100
AcDbText
  0
DIMENSION
  5
CBB
330
10B4
100
AcDbEntity
  8
0
 62
     7
100
AcDbDimension
  2
*D1
 10
243.2245185220583
 20
64.82441617678468
 30
0.0
 11
243.2245185220583
 21
60.88691617678468
 31
0.0
  1
1-1/8"
 71
     5
 42
-1.0
100
AcDbAlignedDimension
 13
232.8243769133897
 23
56.94941617678468
 33
0.0
 14
236.3910550598506
 24
64.82441617678468
 34
0.0
 50
90.0
100
AcDbRotatedDimension
  0
TEXT
  5
CBC
330
10B4
100
AcDbEntity
  8
0
 62
     7
100
AcDbText
 10
196.8491684184607
 20
43.8197509706141
 30
0.0
 40
1.768799999999999
  1
1-1/4" x 1-1/4" x 1/4"
  7
ROMANS
100
AcDbText
  0
TEXT
  5
CBD
330
10B4
100
AcDbEntity
  8
0
 62
     7
100
AcDbText
 10
196.8491684184607
 20
40.95597954204268
 30
0.0
 40
1.768799999999999
  1
ANGLE WELDED TO TREAD
  7
ROMANS
100
AcDbText
  0
TEXT
  5
CBE
330
10B4
100
AcDbEntity
  8
0
 62
     7
100
AcDbText
 10
196.8491684184607
 20
34.66364573935522
 30
0.0
 40
1.768799999999999
  1
TREAD WELDED AND BOLTED
  7
ROMANS
100
AcDbText
  0
TEXT
  5
CBF
330
10B4
100
AcDbEntity
  8
0
 62
     7
100
AcDbText
 10
199.5565981634228
 20
31.79987431078379
 30
0.0
 40
1.768799999999999
  1
TO STRINGER WITH 1/4"
  7
ROMANS
100
AcDbText
  0
TEXT
  5
CC0
330
10B4
100
AcDbEntity
  8
0
 62
     7
100
AcDbText
 10
202.0178982808161
 20
28.93610288221236
 30
0.0
 40
1.768799999999999
  1
ROUND HEAD BOLTS
  7
ROMANS
100
AcDbText
  0
CIRCLE
  5
CC1
330
10B4
100
AcDbEntity
  8
0
  6
PHANTOM
 62
     7
100
AcDbCircle
 10
18.38246636690321
 20
18.91234813231645
 30
0.0
 40
3.699140214117444
  0
TEXT
  5
CC2
330
10B4
100
AcDbEntity
  8
0
 62
     7
100
AcDbText
 10
-8.002187991717962
 20
15.59864747780227
 30
0.0
 40
1.768799999999999
  1
1/4" x 2" x 3"
  7
ROMANS
 72
     1
 11
3.200212008282036
 21
15.59864747780227
 31
0.0
100
AcDbText
  0
TEXT
  5
CC3
330
10B4
100
AcDbEntity
  8
0
 62
     7
100
AcDbText
 10
-7.791616563146533
 20
12.73487604923083
 30
0.0
 40
1.768799999999999
  1
FLOOR BRACKET
  7
ROMANS
 72
     1
 11
3.200212008282036
 21
12.73487604923083
 31
0.0
100
AcDbText
  0
LINE
  5
CC4
330
10B4
100
AcDbEntity
  8
0
 62
     7
100
AcDbLine
 10
14.932678792923
 20
20.24749007911933
 30
0.0
 11
10.71129133849861
 21
22.22754669220943
 31
0.0
  0
CIRCLE
  5
CC5
330
10B4
100
AcDbEntity
  8
0
 62
     7
100
AcDbCircle
 10
5.255116766585715
 20
26.07759792503169
 30
0.0
 40
6.677779230743183
  0
SOLID
  5
CC6
330
10B4
100
AcDbEntity
  8
0
 62
     7
100
AcDbTrace
 10
3.432942772751985
 20
25.11762512301711
 30
0.0
 11
3.095588051039641
 21
24.8073651736475
 31
0.0
 12
4.195045260004633
 22
23.95043098319526
 32
0.0
 13
4.195045260004633
 23
23.95043098319526
 33
0.0
  0
LINE
  5
CC7
330
10B4
100
AcDbEntity
  8
0
 62
     7
100
AcDbLine
 10
3.264265411895806
 20
24.96249514833229
 30
0.0
 11
-2.341407888179901
 21
31.05770775956283
 31
0.0
  0
LINE
  5
CC8
330
10B4
100
AcDbEntity
  8
0
 62
     7
100
AcDbLine
 10
-2.341407888179901
 20
31.05770775956283
 30
0.0
 11
-3.290112610003902
 21
31.05770775956282
 31
0.0
  0
TEXT
  5
CC9
330
10B4
100
AcDbEntity
  8
0
 62
     7
100
AcDbText
 10
-11.26744419853903
 20
30.17330775956282
 30
0.0
 40
1.768799999999999
  1
%%c3/8"
  7
ROMANS
 72
     2
 11
-3.434187055681888
 21
31.05770775956282
 31
0.0
100
AcDbText
 73
     2
  0
LINE
  5
CDA
330
10B4
100
AcDbEntity
  8
0
 62
     7
100
AcDbLine
 10
-1.350055612979691
 20
159.5255915187162
 30
0.0
 11
24.64994438702031
 21
159.5255915187162
 31
0.0
  0
LINE
  5
CDB
330
10B4
100
AcDbEntity
  8
0
 62
     7
100
AcDbLine
 10
-1.350055612979691
 20
159.0255915187162
 30
0.0
 11
24.64994438702031
 21
159.0255915187162
 31
0.0
  0
LINE
  5
CDC
330
10B4
100
AcDbEntity
  8
0
 62
     7
100
AcDbLine
 10
-1.350055612979691
 20
158.5255915187162
 30
0.0
 11
24.64994438702031
 21
158.5255915187162
 31
0.0
  0
LINE
  5
CDD
330
10B4
100
AcDbEntity
  8
0
 62
     7
100
AcDbLine
 10
-1.350055612979691
 20
158.0255915187162
 30
0.0
 11
24.64994438702031
 21
158.0255915187162
 31
0.0
  0
LINE
  5
CDE
330
10B4
100
AcDbEntity
  8
0
 62
     7
100
AcDbLine
 10
-1.350055612979691
 20
157.5255915187162
 30
0.0
 11
24.64994438702031
 21
157.5255915187162
 31
0.0
  0
LINE
  5
CDF
330
10B4
100
AcDbEntity
  8
0
 62
     7
100
AcDbLine
 10
-1.350055612979691
 20
160.0255915187162
 30
0.0
 11
24.64994438702031
 21
160.0255915187162
 31
0.0
  0
LINE
  5
CE0
330
10B4
100
AcDbEntity
  8
0
 62
     7
100
AcDbLine
 10
-1.350055612979691
 20
160.5255915187162
 30
0.0
 11
24.64994438702031
 21
160.5255915187162
 31
0.0
  0
LINE
  5
CE1
330
10B4
100
AcDbEntity
  8
0
 62
     7
100
AcDbLine
 10
-1.350055612979691
 20
161.0255915187162
 30
0.0
 11
24.64994438702031
 21
161.0255915187162
 31
0.0
  0
LINE
  5
CE2
330
10B4
100
AcDbEntity
  8
0
 62
     7
100
AcDbLine
 10
-1.350055612979691
 20
161.5255915187162
 30
0.0
 11
24.64994438702031
 21
161.5255915187162
 31
0.0
  0
LINE
  5
CE3
330
10B4
100
AcDbEntity
  8
0
 62
     7
100
AcDbLine
 10
-1.350055612979691
 20
156.9503603633654
 30
0.0
 11
24.64994438702031
 21
156.9503603633654
 31
0.0
  0
LINE
  5
CE4
330
10B4
100
AcDbEntity
  8
0
 62
     7
100
AcDbLine
 10
-1.350055612979691
 20
162.0619915515372
 30
0.0
 11
24.64994438702031
 21
162.0619915515372
 31
0.0
  0
DIMENSION
  5
CE5
330
10B4
100
AcDbEntity
  8
0
 62
     7
100
AcDbDimension
  2
*D0
 10
-1.350055612979691
 20
152.2990525441493
 30
0.0
 11
11.64994438702031
 21
152.2990525441493
 31
0.0
  1
26"
 71
     5
 42
-1.0
100
AcDbAlignedDimension
 13
24.64994438702031
 23
156.7003603633654
 33
0.0
 14
-1.350055612979691
 24
156.7003603633654
 34
0.0
100
AcDbRotatedDimension
  0
TEXT
  5
CE6
330
10B4
100
AcDbEntity
  8
0
 62
     5
100
AcDbText
 10
5.3953928248664
 20
144.5329501660633
 30
0.0
 40
2.948
  1
PLAN
  7
ROMANS
100
AcDbText
  0
LINE
  5
CE8
330
10B4
100
AcDbEntity
  8
0
 62
     7
100
AcDbLine
 10
31.28377844680066
 20
49.61233648956206
 30
0.0
 11
21.94380255699596
 21
54.37129190308191
 31
0.0
  0
LINE
  5
CE9
330
10B4
100
AcDbEntity
  8
0
 62
     7
100
AcDbLine
 10
18.98646948569562
 20
57.75241318239032
 30
0.0
 11
33.40751359540555
 21
86.05530585246022
 31
0.0
  0
ARC
  5
CEA
330
10B4
100
AcDbEntity
  8
0
 62
     7
100
AcDbCircle
 10
49.65619343766475
 20
118.1294298262853
 30
0.0
 40
0.8299999999999982
100
AcDbArc
 50
63.0
 51
243.0
  0
LINE
  5
CEB
330
10B4
100
AcDbEntity
  8
0
 62
     7
100
AcDbLine
 10
53.08351591911378
 20
117.3146525755992
 30
0.0
 11
50.03300555244859
 21
118.8689652413617
 31
0.0
  0
LINE
  5
CEC
330
10B4
100
AcDbEntity
  8
0
 62
     7
100
AcDbLine
 10
62.40940299442712
 20
110.6998142171428
 30
0.0
 11
49.27938132288095
 21
117.389894411209
 31
0.0
  0
LINE
  5
CED
330
10B4
100
AcDbEntity
  8
0
 62
     7
100
AcDbLine
 10
63.1630272239948
 20
112.1788850472955
 30
0.0
 11
54.56258674926643
 21
116.5610283460316
 31
0.0
  0
LINE
  5
D03
330
10B4
100
AcDbEntity
  8
0
 62
     7
100
AcDbLine
 10
17.50739865554293
 20
58.50603741195797
 30
0.0
 11
65.82548205106826
 21
153.3356154898898
 31
0.0
  0
LINE
  5
D08
330
10B4
100
AcDbEntity
  8
0
 62
     7
100
AcDbLine
 10
34.37544265282968
 20
85.56212136439745
 30
0.0
 11
35.12906688239734
 21
87.04119219455014
 31
0.0
  0
ARC
  5
D09
330
10B4
100
AcDbEntity
  8
0
 62
     7
100
AcDbCircle
 10
33.70977713431312
 20
86.83282566416904
 30
0.0
 40
0.8299999999999982
100
AcDbArc
 50
63.0
 51
243.0
  0
LINE
  5
D0A
330
10B4
100
AcDbEntity
  8
0
 62
     7
100
AcDbLine
 10
46.46298669107558
 20
79.40321005502645
 30
0.0
 11
33.33296501952931
 21
86.09329024909273
 31
0.0
  0
LINE
  5
D0B
330
10B4
100
AcDbEntity
  8
0
 62
     7
100
AcDbLine
 10
47.21661092064324
 20
80.88228088517917
 30
0.0
 11
34.08658924909695
 21
87.57236107924539
 31
0.0
  0
LINE
  5
D0C
330
10B4
100
AcDbEntity
  8
0
 62
     7
100
AcDbLine
 10
53.08351591911379
 20
117.3146525755992
 30
0.0
 11
70.1831829867122
 21
150.874638803108
 31
0.0
  0
LINE
  5
D0D
330
10B4
100
AcDbEntity
  8
0
 62
     7
100
AcDbLine
 10
55.09375563396173
 20
117.603505979332
 30
0.0
 11
71.66225381686491
 21
150.1210145735403
 31
0.0
  0
INSERT
  5
D23
330
10B4
100
AcDbEntity
  8
0
100
AcDbBlockReference
  2
LINETYPE
 10
0.0
 20
0.0
 30
0.0
  0
LINE
  5
D26
330
10B4
100
AcDbEntity
  8
0
 62
     7
100
AcDbLine
 10
50.10755412832475
 20
118.8309808447292
 30
0.0
 11
67.20722119592285
 21
152.3909670722382
 31
0.0
  0
LINE
  5
D27
330
10B4
100
AcDbEntity
  8
0
 62
     7
100
AcDbLine
 10
33.39761852392771
 20
86.035885681225
 30
0.0
 11
33.40751359540558
 21
86.0553058524602
 31
0.0
  0
LINE
  5
D28
330
10B4
100
AcDbEntity
  8
0
  6
ByBlock
 62
     7
100
AcDbLine
 10
30.530154217233
 20
48.13326565940935
 30
0.0
 11
20.82330356670606
 21
53.07915310029436
 31
0.0
  0
POINT
  5
D29
330
10B4
100
AcDbEntity
  8
DEFPOINTS
  6
ByBlock
 62
     7
100
AcDbPoint
 10
37.85021294677401
 20
62.85456040743341
 30
0.0
  0
POINT
  5
D2A
330
10B4
100
AcDbEntity
  8
DEFPOINTS
  6
ByBlock
 62
     7
100
AcDbPoint
 10
26.88312578800676
 20
41.33043993484611
 30
0.0
  0
POINT
  5
D2B
330
10B4
100
AcDbEntity
  8
DEFPOINTS
  6
ByBlock
 62
     7
100
AcDbPoint
 10
22.04843753746506
 20
52.45491616315248
 30
0.0
  0
DIMENSION
  5
D2C
330
10B4
100
AcDbEntity
  8
0
 62
     7
100
AcDbDimension
  2
*D11
 10
169.5943947805531
 20
155.2276142524228
 30
0.0
 11
169.5943947805531
 21
134.2276142524228
 31
0.0
 12
-5.343131002333393
 22
-12.61764770151893
 32
0.0
 70
    32
  1
42"
 71
     5
 42
-1.0
  3
STANDARD
100
AcDbAlignedDimension
 13
156.6967829298218
 23
113.2276142524228
 33
0.0
 14
156.3967829298217
 24
155.2276142524228
 34
0.0
 50
90.0
100
AcDbRotatedDimension
  0
POINT
  5
D2D
330
10B4
100
AcDbEntity
  8
DEFPOINTS
  6
ByBlock
 62
     7
100
AcDbPoint
 10
62.334854418551
 20
110.7377986137753
 30
0.0
  0
POINT
  5
D2E
330
10B4
100
AcDbEntity
  8
DEFPOINTS
  6
ByBlock
 62
     7
100
AcDbPoint
 10
46.2076225211135
 20
79.4411944516589
 30
0.0
  0
LINE
  5
D2F
330
10B4
100
AcDbEntity
  8
0
 62
     7
100
AcDbLine
 10
34.16113782497321
 20
87.53437668261286
 30
0.0
 11
49.3539298987571
 21
117.3519100145765
 31
0.0
  0
INSERT
  5
D34
330
10B4
100
AcDbEntity
  8
0
100
AcDbBlockReference
  2
LINETYPE
 10
366.4915936255496
 20
-10.07509205607868
 30
0.0
  0
INSERT
  5
EEE
330
10B4
100
AcDbEntity
  8
0
100
AcDbBlockReference
  2
LINETYPE
 10
485.7839502796453
 20
44.61284761683169
 30
0.0
  0
INSERT
  5
EF4
330
10B4
100
AcDbEntity
  8
0
100
AcDbBlockReference
  2
LINETYPE
 10
852.275543905195
 20
34.53775556075302
 30
0.0
  0
LINE
  5
1121
330
10B4
100
AcDbEntity
  8
0
  6
ByBlock
 62
     7
100
AcDbLine
 10
31.04543343443734
 20
49.14455806436302
 30
0.0
 11
28.01259535010387
 21
43.19227817855401
 31
0.0
  0
POINT
  5
1127
330
10B4
100
AcDbEntity
  8
DEFPOINTS
  6
ByBlock
 62
     7
100
AcDbPoint
 10
31.48885477749332
 20
50.369692035122
 30
0.0
  0
POINT
  5
1128
330
10B4
100
AcDbEntity
  8
DEFPOINTS
  6
ByBlock
 62
     7
100
AcDbPoint
 10
17.13512644575634
 20
57.77541206212347
 30
0.0
  0
LWPOLYLINE
  5
1347
330
10B4
100
AcDbEntity
  8
0
  6
HIDDEN
 62
     7
100
AcDbPolyline
 90
       12
 70
     1
 43
0.0
 10
68.37416531295398
 20
112.1026142524228
 10
68.94738144363521
 20
113.2276142524228
 10
63.69738144363521
 20
113.2276142524228
 10
63.12416531295394
 20
112.1026142524227
 10
63.62416531295394
 20
112.1026142524228
 10
63.62416531295394
 20
112.2276142524229
 10
63.32814677384506
 20
112.2276142524228
 10
63.7739815421527
 20
113.1026142524228
 10
68.74339998274411
 20
113.1026142524227
 10
68.29756521443648
 20
112.2276142524228
 10
67.87416531295398
 20
112.2276142524229
 10
67.87416531295398
 20
112.1026142524229
  0
LWPOLYLINE
  5
1355
330
10B4
100
AcDbEntity
  8
0
 62
     7
100
AcDbPolyline
 90
        8
 70
     1
 43
0.0
 10
17.5073986555428
 20
58.50603741195804
 10
18.64237490489166
 20
60.73355372242897
 10
20.12144573504439
 20
59.9799294928613
 10
18.98646948569554
 20
57.75241318239037
 42
0.4142135623730951
 10
19.71628624652506
 20
55.50626815243076
 10
21.94380255699595
 20
54.3712919030819
 10
21.19017832742834
 20
52.8922210729292
 10
18.96266201695742
 20
54.02719732227807
 42
-0.4142135623730951
  0
LWPOLYLINE
  5
135F
330
10B4
100
AcDbEntity
  8
0
 62
     7
100
AcDbPolyline
 90
        6
 70
     1
 43
0.0
 10
67.30455288122097
 20
152.5819912603222
 42
-0.4142135623730951
 10
69.55069791118059
 20
153.3118080211516
 10
70.30432214074822
 20
154.7908788513044
 42
0.4142135623730951
 10
65.82548205106828
 20
153.3356154898898
 10
64.6905058017194
 20
151.1080991794189
 10
66.16957663187212
 20
150.3544749498512
  0
LWPOLYLINE
  5
1367
330
10B4
100
AcDbEntity
  8
0
 62
     7
100
AcDbPolyline
 90
        6
 70
     0
 43
0.0
 10
69.55069791118059
 20
153.3118080211517
 42
-0.4142135623730951
 10
70.28051467201011
 20
151.0656629911921
 10
69.14553842266126
 20
148.8381466807212
 10
70.62460925281397
 20
148.0845224511535
 10
71.75958550216282
 20
150.3120387616244
 42
0.4142135623730951
 10
70.30432214074824
 20
154.7908788513044
 42
0.4142135623730951
  0
LWPOLYLINE
  5
137B
330
10B4
100
AcDbEntity
  8
0
  6
HIDDEN
 62
     7
100
AcDbPolyline
 90
       12
 70
     1
 43
0.0
 10
58.32842830068102
 20
102.4151142524228
 10
57.88259353237339
 20
101.5401142524228
 10
58.17861207148228
 20
101.5401142524229
 10
58.17861207148228
 20
101.4151142524228
 10
57.67861207148226
 20
101.4151142524227
 10
58.25182820216354
 20
102.5401142524228
 10
63.50182820216353
 20
102.5401142524228
 10
62.92861207148231
 20
101.4151142524228
 10
62.4286120714823
 20
101.4151142524229
 10
62.4286120714823
 20
101.5401142524229
 10
62.85201197296482
 20
101.5401142524228
 10
63.29784674127243
 20
102.4151142524228
  0
LWPOLYLINE
  5
1393
330
10B4
100
AcDbEntity
  8
0
 62
     7
100
AcDbPolyline
 90
       43
 70
     1
 43
0.0
 10
229.4825809157399
 20
64.82441617678468
 10
232.4773994301991
 20
64.82441617678468
 10
232.7299901729695
 20
65.26191617678468
 10
232.9825809157399
 20
64.82441617678468
 10
236.3910550598506
 20
64.82441617678468
 42
-0.5600269084740766
 10
236.7808704141831
 20
64.18829533314862
 10
233.2141922677221
 20
57.18829533314863
 42
-0.2820291683021519
 10
232.8243769133897
 20
56.94941617678468
 10
229.5924772582009
 20
56.94941617678468
 10
229.5924772582009
 20
57.82441617678468
 10
232.5562765685784
 20
57.82441617678478
 10
235.6771199467316
 20
63.94941617678468
 10
200.891190862592
 20
63.94941617678468
 10
197.7703474844386
 20
57.82441617678468
 10
199.8424772582009
 20
57.82441617678468
 10
199.8424772582009
 20
56.94941617678468
 10
197.0564123713197
 20
56.94941617678468
 42
-0.5600269084740766
 10
196.6665970169873
 20
57.58553702042075
 10
200.233275163448
 20
64.58553702042074
 42
-0.2820291683021519
 10
200.6230905177805
 20
64.82441617678468
 10
204.4773994301991
 20
64.82441617678468
 10
204.7299901729695
 20
65.26191617678468
 10
204.9825809157399
 20
64.82441617678468
 10
207.9773994301991
 20
64.82441617678458
 10
208.2299901729695
 20
65.26191617678468
 10
208.4825809157399
 20
64.82441617678468
 10
211.4773994301991
 20
64.82441617678458
 10
211.7299901729695
 20
65.26191617678468
 10
211.9825809157399
 20
64.82441617678468
 10
214.9773994301991
 20
64.82441617678468
 10
215.2299901729695
 20
65.26191617678468
 10
215.4825809157399
 20
64.82441617678468
 10
218.4773994301991
 20
64.82441617678468
 10
218.7299901729695
 20
65.26191617678468
 10
218.9825809157399
 20
64.82441617678468
 10
221.9773994301991
 20
64.82441617678468
 10
222.2299901729695
 20
65.26191617678468
 10
222.4825809157399
 20
64.82441617678468
 10
225.4773994301991
 20
64.82441617678458
 10
225.7299901729695
 20
65.26191617678468
 10
225.9825809157399
 20
64.82441617678468
 10
228.9773994301991
 20
64.82441617678468
 10
229.2299901729695
 20
65.26191617678468
  0
LWPOLYLINE
  5
13C6
330
10B4
100
AcDbEntity
  8
0
 62
     7
100
AcDbPolyline
 90
        4
 70
     1
 43
0.0
 10
54.56258674926643
 20
116.5610283460316
 10
55.09375563396173
 20
117.603505979332
 10
53.61468480380899
 20
118.3571302088996
 10
53.08351591911374
 20
117.3146525755992
 42
1.0
  0
LWPOLYLINE
  5
13CC
330
10B4
100
AcDbEntity
  8
0
 62
     7
100
AcDbPolyline
 90
        2
 70
     0
 43
0.0
 10
50.32185895618134
 20
116.8587255265137
 10
51.07548318574899
 20
118.3377963566665
  0
LWPOLYLINE
  5
13D0
330
10B4
100
AcDbEntity
  8
0
 62
     7
100
AcDbPolyline
 90
        8
 70
     1
 43
0.0
 10
-1.350055612979691
 20
162.3119915515372
 10
-3.350055612979691
 20
162.3119915515372
 10
-3.350055612979691
 20
162.1015553819808
 10
-1.537555612979691
 20
162.1015553819808
 10
-1.537555612979691
 20
156.8811759574513
 10
-3.350055612979719
 20
156.8811759574513
 10
-3.350055612979691
 20
156.7003603633654
 10
-1.350055612979691
 20
156.7003603633654
  0
LWPOLYLINE
  5
13DA
330
10B4
100
AcDbEntity
  8
0
 62
     7
100
AcDbPolyline
 90
        8
 70
     1
 43
0.0
 10
24.64994438702031
 20
156.7003603633654
 10
24.64994438702031
 20
162.3119915515372
 10
26.64994438702031
 20
162.3119915515372
 10
26.64994438702031
 20
162.1015553819808
 10
24.83744438702031
 20
162.1015553819808
 10
24.83744438702031
 20
156.8811759574513
 10
26.64994438702034
 20
156.8811759574513
 10
26.64994438702031
 20
156.7003603633654
  0
LWPOLYLINE
  5
13EB
330
10B4
100
AcDbEntity
  8
0
 62
     7
100
AcDbPolyline
 90
        4
 70
     1
 43
0.0
 10
128.3967829298217
 20
48.89984765379598
 10
128.3967829298217
 20
154.4538271257571
 42
1.0
 10
126.9967829298217
 20
154.4538271257571
 10
126.9967829298217
 20
48.89984765379598
 42
1.0
  0
LWPOLYLINE
  5
13F1
330
10B4
100
AcDbEntity
  8
0
 62
     7
100
AcDbPolyline
 90
        4
 70
     1
 43
0.0
 10
156.3967829298217
 20
48.89984765379598
 10
156.3967829298217
 20
154.4538271257571
 42
1.0
 10
154.9967829298218
 20
154.4538271257571
 10
154.9967829298218
 20
48.89984765379598
 42
1.0
  0
LWPOLYLINE
  5
13F7
330
10B4
100
AcDbEntity
  8
0
 62
     7
100
AcDbPolyline
 90
        6
 70
     0
 43
0.0
 10
128.3967829298217
 20
113.2276142524228
 10
128.6967829298217
 20
113.2276142524228
 10
128.6967829298218
 20
17.22761425242871
 10
126.6967829298218
 20
17.22761425242871
 10
126.6967829298217
 20
113.2276142524228
 10
126.9967829298217
 20
113.2276142524228
  0
LWPOLYLINE
  5
13FF
330
10B4
100
AcDbEntity
  8
0
 62
     7
100
AcDbPolyline
 90
        6
 70
     0
 43
0.0
 10
154.9967829298218
 20
113.2276142524228
 10
154.6967829298218
 20
113.2276142524228
 10
154.6967829298218
 20
17.22761425242871
 10
156.6967829298218
 20
17.22761425242871
 10
156.6967829298218
 20
113.2276142524228
 10
156.3967829298217
 20
113.2276142524228
  0
LWPOLYLINE
  5
1409
330
10B4
100
AcDbEntity
  8
0
 62
     7
100
AcDbPolyline
 90
        4
 70
     0
 43
0.0
 10
66.12447857246689
 20
106.9776142524229
 10
69.30901263180702
 20
106.9776142524228
 10
69.30901263180705
 20
111.9776142524228
 10
68.67210581993899
 20
111.9776142524228
  0
LWPOLYLINE
  5
140F
330
10B4
100
AcDbEntity
  8
0
  6
HIDDEN
 62
     7
100
AcDbPolyline
 90
        4
 70
     0
 43
0.0
 10
68.67210581993899
 20
111.9776142524228
 10
64.55901263180705
 20
111.9776142524228
 10
64.55901263180705
 20
106.9776142524229
 10
66.12447857246689
 20
106.9776142524229
  0
INSERT
  5
207A
330
10B4
100
AcDbEntity
  8
0
100
AcDbBlockReference
  2
LINETYPE
 10
-28.27487889612053
 20
-25.62907022286493
 30
0.0
 50
0.0000000000016284
  0
INSERT
  5
2490
330
10B4
100
AcDbEntity
  8
0
100
AcDbBlockReference
 66
     1
  2
BORDER
 10
-20.93050219074189
 20
2.058601217093553
 30
0.0
 50
0.0000000000016284
  0
ATTRIB
  5
2491
330
2490
100
AcDbEntity
  8
0
 62
     5
100
AcDbText
 10
-18.9507241496265
 20
3.195826958805024
 30
0.0
 40
2.25
  1

 50
0.0000000000016284
  7
ROMANS
100
AcDbAttribute
  2
SCALE
 70
     0
  0
ATTRIB
  5
2492
330
2490
100
AcDbEntity
  8
0
 62
     5
100
AcDbText
 10
45.55100077538212
 20
-0.2660380951218593
 30
0.0
 40
1.248161764705882
  1

 50
90.00000000000161
  7
ROMANS
 72
     4
 11
45.55100077538212
 21
-0.2660380951218593
 31
0.0
100
AcDbAttribute
  2
X
 70
     0
  0
ATTRIB
  5
2493
330
2490
100
AcDbEntity
  8
0
100
AcDbText
 10
100.5554974787778
 20
-7.742252214285617
 30
0.0
 40
1.769029714285714
  1

 50
0.0000000000016284
  7
ROMANS
 72
     1
 11
100.5554974787778
 21
-7.742252214285617
 31
0.0
100
AcDbAttribute
  2
PURCHASEORDER
 70
     0
  0
ATTRIB
  5
2494
330
2490
100
AcDbEntity
  8
0
100
AcDbText
 10
97.81771339714529
 20
-12.89567465214814
 30
0.0
 40
1.769029714285714
  1
DNH
 50
0.0000000000016284
  7
ROMANS
 72
     1
 11
100.5554974787779
 21
-12.89567465214806
 31
0.0
100
AcDbAttribute
  2
DRAWNBY
 70
     0
  0
ATTRIB
  5
2495
330
2490
100
AcDbEntity
  8
0
100
AcDbText
 10
100.5554974787776
 20
-2.588829776423274
 30
0.0
 40
1.769029714285714
  1

 50
0.0000000000016284
  7
ROMANS
 72
     1
 11
100.5554974787776
 21
-2.588829776423274
 31
0.0
100
AcDbAttribute
  2
ARCHORENG
 70
     0
  0
ATTRIB
  5
2496
330
2490
100
AcDbEntity
  8
0
100
AcDbText
 10
161.2022869481657
 20
-12.89567465214623
 30
0.0
 40
1.769029714285714
  1
SL-
 50
0.0000000000016284
  7
ROMANS
 72
     1
 11
163.8137117644922
 21
-12.89567465214616
 31
0.0
100
AcDbAttribute
  2
MODEL
 70
     0
  0
ATTRIB
  5
2497
330
2490
100
AcDbEntity
  8
0
100
AcDbText
 10
161.0633546216348
 20
-2.588829776421555
 30
0.0
 40
1.769029714285714
  1

 50
0.0000000000016284
  7
ROMANS
 72
     1
 11
161.0633546216348
 21
-2.588829776421555
 31
0.0
100
AcDbAttribute
  2
PROJECT
 70
     0
  0
ATTRIB
  5
2498
330
2490
100
AcDbEntity
  8
0
100
AcDbText
 10
130.8094260502064
 20
-7.742252214284757
 30
0.0
 40
1.769029714285714
  1

 50
0.0000000000016284
  7
ROMANS
 72
     1
 11
130.8094260502064
 21
-7.742252214284757
 31
0.0
100
AcDbAttribute
  2
DATE
 70
     0
  0
ATTRIB
  5
2499
330
2490
100
AcDbEntity
  8
0
100
AcDbText
 10
124.9968998461249
 20
-12.89567465214736
 30
0.0
 40
1.769029714285714
  1
8/31/21
 50
0.0000000000016284
  7
ROMANS
 72
     1
 11
130.8094260502066
 21
-12.8956746521472
 31
0.0
100
AcDbAttribute
  2
DATE
 70
     0
  0
ATTRIB
  5
249A
330
2490
100
AcDbEntity
  8
0
100
AcDbText
 10
169.3144260502063
 20
-7.742252214283663
 30
0.0
 40
1.769029714285714
  1

 50
0.0000000000016284
  7
ROMANS
 72
     1
 11
169.3144260502063
 21
-7.742252214283663
 31
0.0
100
AcDbAttribute
  2
PURCHASER
 70
     0
  0
ATTRIB
  5
249B
330
2490
100
AcDbEntity
  8
0
100
AcDbText
 10
194.0676403359207
 20
-12.8956746521454
 30
0.0
 40
1.769029714285714
  1

 50
0.0000000000016284
  7
ROMANS
 72
     1
 11
194.0676403359207
 21
-12.8956746521454
 31
0.0
100
AcDbAttribute
  2
QTY
 70
     0
  0
ATTRIB
  5
249C
330
2490
100
AcDbEntity
  8
0
100
AcDbText
 10
243.0256159380481
 20
3.213015576421101
 30
0.0
 40
1.751835937499999
  1
SL-02
 50
0.0000000000016284
  7
ROMANS
 72
     4
 11
247.3217850228695
 21
4.088933545171222
 31
0.0
100
AcDbAttribute
  2
SAVEDAS
 70
     0
  0
ATTRIB
  5
249D
330
2490
100
AcDbEntity
  8
0
100
AcDbText
 10
227.1060953698581
 20
-10.60389500761329
 30
0.0
 40
3.455136160714285
  1

 50
0.0000000000016284
  7
ROMANS
 72
     1
 11
227.1060953698581
 21
-10.60389500761329
 31
0.0
100
AcDbAttribute
  2
L010000
 70
     0
  0
ATTRIB
  5
249E
330
2490
100
AcDbEntity
  8
0
100
AcDbText
 10
227.0719260502063
 20
-2.589498965153261
 30
0.0
 40
1.769029714285714
  1

 50
0.0000000000016284
  7
ROMANS
 72
     1
 11
227.0719260502063
 21
-2.589498965153261
 31
0.0
100
AcDbAttribute
  2
REP
 70
     0
  0
SEQEND
  5
249F
330
2490
100
AcDbEntity
  8
0
  0
LINE
  5
25A8
330
10B4
100
AcDbEntity
  8
0
 62
     7
100
AcDbLine
 10
154.6967829298218
 20
101.4151142524228
 30
0.0
 11
128.6967829298217
 21
101.4151142524228
 31
0.0
  0
LINE
  5
25A9
330
10B4
100
AcDbEntity
  8
0
 62
     7
100
AcDbLine
 10
154.6967829298218
 20
102.5401142524228
 30
0.0
 11
128.6967829298217
 21
102.5401142524228
 31
0.0
  0
LINE
  5
25AA
330
10B4
100
AcDbEntity
  8
0
 62
     7
100
AcDbLine
 10
154.6967829298218
 20
90.72761425242285
 30
0.0
 11
128.6967829298217
 21
90.72761425242285
 31
0.0
  0
LINE
  5
25AB
330
10B4
100
AcDbEntity
  8
0
 62
     7
100
AcDbLine
 10
154.6967829298218
 20
91.85261425242286
 30
0.0
 11
128.6967829298217
 21
91.85261425242286
 31
0.0
  0
LINE
  5
25AC
330
10B4
100
AcDbEntity
  8
0
 62
     7
100
AcDbLine
 10
154.6967829298218
 20
80.04011425242286
 30
0.0
 11
128.6967829298217
 21
80.04011425242286
 31
0.0
  0
LINE
  5
25AD
330
10B4
100
AcDbEntity
  8
0
 62
     7
100
AcDbLine
 10
154.6967829298218
 20
81.16511425242284
 30
0.0
 11
128.6967829298217
 21
81.16511425242284
 31
0.0
  0
LINE
  5
25AE
330
10B4
100
AcDbEntity
  8
0
 62
     7
100
AcDbLine
 10
154.6967829298218
 20
69.35261425242285
 30
0.0
 11
128.6967829298217
 21
69.35261425242285
 31
0.0
  0
LINE
  5
25AF
330
10B4
100
AcDbEntity
  8
0
 62
     7
100
AcDbLine
 10
154.6967829298218
 20
70.47761425242285
 30
0.0
 11
128.6967829298217
 21
70.47761425242285
 31
0.0
  0
LINE
  5
25B0
330
10B4
100
AcDbEntity
  8
0
 62
     7
100
AcDbLine
 10
154.6967829298218
 20
58.66511425242285
 30
0.0
 11
128.6967829298217
 21
58.66511425242285
 31
0.0
  0
LINE
  5
25B1
330
10B4
100
AcDbEntity
  8
0
 62
     7
100
AcDbLine
 10
154.6967829298218
 20
59.79011425242285
 30
0.0
 11
128.6967829298217
 21
59.79011425242285
 31
0.0
  0
LINE
  5
25B2
330
10B4
100
AcDbEntity
  8
0
 62
     7
100
AcDbLine
 10
154.6967829298218
 20
47.97761425242285
 30
0.0
 11
128.6967829298217
 21
47.97761425242285
 31
0.0
  0
LINE
  5
25B3
330
10B4
100
AcDbEntity
  8
0
 62
     7
100
AcDbLine
 10
154.6967829298218
 20
49.10261425242286
 30
0.0
 11
128.6967829298217
 21
49.10261425242286
 31
0.0
  0
LINE
  5
25B4
330
10B4
100
AcDbEntity
  8
0
 62
     7
100
AcDbLine
 10
154.6967829298218
 20
37.29011425242286
 30
0.0
 11
128.6967829298217
 21
37.29011425242286
 31
0.0
  0
LINE
  5
25B5
330
10B4
100
AcDbEntity
  8
0
 62
     7
100
AcDbLine
 10
154.6967829298218
 20
38.41511425242286
 30
0.0
 11
128.6967829298217
 21
38.41511425242286
 31
0.0
  0
LINE
  5
25B6
330
10B4
100
AcDbEntity
  8
0
 62
     7
100
AcDbLine
 10
154.6967829298218
 20
26.60261425242286
 30
0.0
 11
128.6967829298217
 21
26.60261425242286
 31
0.0
  0
LINE
  5
25B7
330
10B4
100
AcDbEntity
  8
0
 62
     7
100
AcDbLine
 10
154.6967829298218
 20
27.72761425242285
 30
0.0
 11
128.6967829298217
 21
27.72761425242285
 31
0.0
  0
LWPOLYLINE
  5
25E1
330
10B4
100
AcDbEntity
  8
0
  6
HIDDEN
 62
     7
100
AcDbPolyline
 90
       12
 70
     1
 43
0.0
 10
52.88054230380643
 20
91.72303596216243
 10
52.43470753549879
 20
90.84803596216243
 10
52.73072607460768
 20
90.84803596216248
 10
52.73072607460768
 20
90.72303596216242
 10
52.23072607460767
 20
90.72303596216237
 10
52.80394220528894
 20
91.84803596216243
 10
58.05394220528893
 20
91.84803596216243
 10
57.4807260746077
 20
90.72303596216242
 10
56.9807260746077
 20
90.72303596216249
 10
56.9807260746077
 20
90.84803596216248
 10
57.40412597609021
 20
90.84803596216243
 10
57.84996074439783
 20
91.72303596216236
  0
LWPOLYLINE
  5
25EF
330
10B4
100
AcDbEntity
  8
0
  6
HIDDEN
 62
     7
100
AcDbPolyline
 90
       12
 70
     1
 43
0.0
 10
47.43265630693183
 20
81.03095767190202
 10
46.98682153862419
 20
80.15595767190204
 10
47.28284007773307
 20
80.15595767190209
 10
47.28284007773307
 20
80.03095767190202
 10
46.78284007773306
 20
80.03095767190197
 10
47.35605620841433
 20
81.15595767190203
 10
52.60605620841434
 20
81.15595767190203
 10
52.0328400777331
 20
80.03095767190202
 10
51.53284007773311
 20
80.03095767190208
 10
51.53284007773311
 20
80.15595767190209
 10
51.95623997921561
 20
80.15595767190204
 10
52.40207474752324
 20
81.03095767190197
  0
LWPOLYLINE
  5
25FD
330
10B4
100
AcDbEntity
  8
0
  6
HIDDEN
 62
     7
100
AcDbPolyline
 90
       12
 70
     1
 43
0.0
 10
41.98477031005722
 20
70.33887938164165
 10
41.53893554174959
 20
69.46387938164164
 10
41.83495408085848
 20
69.4638793816417
 10
41.83495408085848
 20
69.33887938164165
 10
41.33495408085846
 20
69.33887938164159
 10
41.90817021153974
 20
70.46387938164165
 10
47.15817021153974
 20
70.46387938164165
 10
46.5849540808585
 20
69.33887938164165
 10
46.0849540808585
 20
69.3388793816417
 10
46.0849540808585
 20
69.4638793816417
 10
46.50835398234102
 20
69.46387938164164
 10
46.95418875064864
 20
70.33887938164159
  0
LWPOLYLINE
  5
260B
330
10B4
100
AcDbEntity
  8
0
  6
HIDDEN
 62
     7
100
AcDbPolyline
 90
       12
 70
     1
 43
0.0
 10
36.53688431318263
 20
59.64680109138125
 10
36.09104954487499
 20
58.77180109138125
 10
36.38706808398388
 20
58.7718010913813
 10
36.38706808398388
 20
58.64680109138125
 10
35.88706808398387
 20
58.64680109138119
 10
36.46028421466514
 20
59.77180109138124
 10
41.71028421466513
 20
59.77180109138124
 10
41.1370680839839
 20
58.64680109138125
 10
40.6370680839839
 20
58.64680109138131
 10
40.6370680839839
 20
58.7718010913813
 10
41.06046798546642
 20
58.77180109138125
 10
41.50630275377404
 20
59.64680109138119
  0
LWPOLYLINE
  5
2619
330
10B4
100
AcDbEntity
  8
0
  6
HIDDEN
 62
     7
100
AcDbPolyline
 90
       12
 70
     1
 43
0.0
 10
31.08899831630802
 20
48.95472280112085
 10
30.64316354800039
 20
48.07972280112085
 10
30.93918208710929
 20
48.07972280112091
 10
30.93918208710929
 20
47.95472280112085
 10
30.43918208710926
 20
47.95472280112079
 10
31.01239821779055
 20
49.07972280112085
 10
36.26239821779055
 20
49.07972280112085
 10
35.68918208710932
 20
47.95472280112085
 10
35.18918208710932
 20
47.95472280112091
 10
35.18918208710932
 20
48.07972280112091
 10
35.61258198859182
 20
48.07972280112085
 10
36.05841675689945
 20
48.9547228011208
  0
LWPOLYLINE
  5
2627
330
10B4
100
AcDbEntity
  8
0
  6
HIDDEN
 62
     7
100
AcDbPolyline
 90
       12
 70
     1
 43
0.0
 10
25.64111231943343
 20
38.26264451086045
 10
25.1952775511258
 20
37.38764451086046
 10
25.49129609023469
 20
37.38764451086051
 10
25.49129609023469
 20
37.26264451086045
 10
24.99129609023467
 20
37.2626445108604
 10
25.56451222091594
 20
38.38764451086046
 10
30.81451222091594
 20
38.38764451086046
 10
30.24129609023471
 20
37.26264451086045
 10
29.74129609023471
 20
37.26264451086051
 10
29.74129609023471
 20
37.38764451086051
 10
30.16469599171723
 20
37.38764451086046
 10
30.61053076002484
 20
38.2626445108604
  0
LWPOLYLINE
  5
2635
330
10B4
100
AcDbEntity
  8
0
  6
HIDDEN
 62
     7
100
AcDbPolyline
 90
       12
 70
     1
 43
0.0
 10
20.19322632255884
 20
27.57056622060006
 10
19.74739155425121
 20
26.69556622060006
 10
20.04341009336008
 20
26.69556622060011
 10
20.04341009336008
 20
26.57056622060006
 10
19.54341009336008
 20
26.5705662206
 10
20.11662622404134
 20
27.69556622060006
 10
25.36662622404134
 20
27.69556622060006
 10
24.79341009336011
 20
26.57056622060006
 10
24.29341009336011
 20
26.57056622060011
 10
24.29341009336011
 20
26.69556622060011
 10
24.71680999484263
 20
26.69556622060006
 10
25.16264476315024
 20
27.5705662206
  0
LINE
  5
2742
330
10B4
100
AcDbEntity
  8
0
100
AcDbLine
 10
158.0717829298226
 20
17.22761425242398
 30
0.0
 11
170.9693947805539
 21
17.22761425242361
 31
0.0
  0
LINE
  5
2743
330
10B4
100
AcDbEntity
  8
0
100
AcDbLine
 10
158.0717829298253
 20
113.2276142524181
 30
0.0
 11
170.9693947805567
 21
113.2276142524177
 31
0.0
  0
LINE
  5
2744
330
10B4
100
AcDbEntity
  8
0
100
AcDbLine
 10
169.594394780554
 20
18.60261425242365
 30
0.0
 11
169.594394780555
 21
56.26809539527745
 31
0.0
  0
LINE
  5
2745
330
10B4
100
AcDbEntity
  8
0
100
AcDbLine
 10
169.5943947805566
 20
111.8526142524178
 30
0.0
 11
169.5943947805553
 21
67.65547139527786
 31
0.0
  0
SOLID
  5
2746
330
10B4
100
AcDbEntity
  8
0
100
AcDbTrace
 10
169.3652281138873
 20
18.60261425242366
 30
0.0
 11
169.8235614472206
 21
18.60261425242364
 31
0.0
 12
169.5943947805539
 22
17.22761425242365
 32
0.0
 13
169.5943947805539
 23
17.22761425242365
 33
0.0
  0
SOLID
  5
2747
330
10B4
100
AcDbEntity
  8
0
100
AcDbTrace
 10
169.3652281138899
 20
111.8526142524178
 30
0.0
 11
169.8235614472233
 21
111.8526142524178
 31
0.0
 12
169.5943947805567
 22
113.2276142524178
 32
0.0
 13
169.5943947805567
 23
113.2276142524178
 33
0.0
  0
LINE
  5
274B
330
10B4
100
AcDbEntity
  8
0
100
AcDbLine
 10
53.94109550706544
 20
116.877693950571
 30
0.0
 11
53.94109550706544
 21
116.877693950571
 31
0.0
  0
LINE
  5
274C
330
10B4
100
AcDbEntity
  8
0
100
AcDbLine
 10
41.83714483927616
 20
83.6232557583278
 30
0.0
 11
41.83714483927616
 21
83.6232557583278
 31
0.0
  0
LINE
  5
2752
330
10B4
100
AcDbEntity
  8
0
100
AcDbLine
 10
43.05566363919479
 20
59.77180109138124
 30
0.0
 11
51.36360001296196
 21
59.77180109138124
 31
0.0
  0
LINE
  5
2753
330
10B4
100
AcDbEntity
  8
0
100
AcDbLine
 10
37.43341675689944
 20
48.9547228011208
 30
0.0
 11
51.36360001296196
 21
48.9547228011208
 31
0.0
  0
LINE
  5
2755
330
10B4
100
AcDbEntity
  8
0
100
AcDbLine
 10
49.98860001296197
 20
50.3297228011208
 30
0.0
 11
49.98860001296197
 21
58.39680109138125
 31
0.0
  0
SOLID
  5
2756
330
10B4
100
AcDbEntity
  8
0
100
AcDbTrace
 10
49.7594333462953
 20
58.39680109138125
 30
0.0
 11
50.21776667962863
 21
58.39680109138125
 31
0.0
 12
49.98860001296197
 22
59.77180109138124
 32
0.0
 13
49.98860001296197
 23
59.77180109138124
 33
0.0
  0
SOLID
  5
2757
330
10B4
100
AcDbEntity
  8
0
100
AcDbTrace
 10
49.7594333462953
 20
50.3297228011208
 30
0.0
 11
50.21776667962863
 21
50.3297228011208
 31
0.0
 12
49.98860001296197
 22
48.9547228011208
 32
0.0
 13
49.98860001296197
 23
48.9547228011208
 33
0.0
  0
MTEXT
  5
2758
330
10B4
100
AcDbEntity
  8
0
100
AcDbMText
 10
59.27594917860409
 20
54.36326194625102
 30
0.0
 40
1.768799999999999
 41
0.0
 71
     5
 72
     5
  1
\A1;6-1/2" MIN\P12" MAX
  7
ROMANS
 73
     1
 44
1.0
1001
ACAD
1000
MTEXTBEGIN
1070
    73
1070
     1
1070
    44
1040
1.0
1070
    74
1070
     0
1000
MTEXTEND
  0
ARC
  5
2760
330
10B4
100
AcDbEntity
  8
0
 62
     7
100
AcDbCircle
 10
20.39456948034189
 20
17.22761425242285
 30
0.0
 40
13.14424477126149
100
AcDbArc
 50
5.996362931350008
 51
20.52437568926267
  0
ARC
  5
2761
330
10B4
100
AcDbEntity
  8
0
 62
     7
100
AcDbCircle
 10
20.39456948034189
 20
17.22761425242285
 30
0.0
 40
13.14424477126149
100
AcDbArc
 50
43.97873038158468
 51
57.00363706864994
  0
SOLID
  5
2762
330
10B4
100
AcDbEntity
  8
0
 62
     7
100
AcDbTrace
 10
33.69574887595793
 20
18.61271853903443
 30
0.0
 11
33.23804291141609
 21
18.58874575306231
 31
0.0
 12
33.53881425160338
 22
17.22761425242284
 32
0.0
 13
33.53881425160338
 23
17.22761425242284
 33
0.0
  0
SOLID
  5
2763
330
10B4
100
AcDbEntity
  8
0
 62
     7
100
AcDbTrace
 10
27.43816144905493
 20
28.05329210256337
 30
0.0
 11
27.66731551733518
 21
28.45022768604644
 31
0.0
 12
26.36193173274582
 22
28.93922209914568
 32
0.0
 13
26.36193173274582
 23
28.93922209914568
 33
0.0
  0
MTEXT
  5
2764
330
10B4
100
AcDbEntity
  8
0
 62
     7
100
AcDbMText
 10
31.60188050242071
 20
24.0954632796821
 30
0.0
 40
1.768799999999999
 41
0.0
 71
     5
 72
     1
  1
\A1;63° TYP
  7
ROMANS
 73
     1
 44
1.0
1001
ACAD
1000
MTEXTBEGIN
1070
    73
1070
     1
1070
    44
1040
1.0
1070
    74
1070
     0
1000
MTEXTEND
  0
TEXT
  5
2772
330
10B4
100
AcDbEntity
  8
0
  6
ByBlock
 62
     0
100
AcDbText
 10
163.1170182326417
 20
57.42309539527749
 30
0.0
 40
1.485792000000056
  1
20 FT MAX
  7
ROMANS
 72
     1
 11
169.413946232642
 21
58.16599139527752
 31
0.0
100
AcDbText
 73
     2
  0
LINE
  5
2773
330
10B4
100
AcDbEntity
  8
0
  6
ByBlock
 62
     0
100
AcDbLine
 10
162.1742742326417
 20
56.26809539527744
 30
0.0
 11
176.6536182326422
 21
56.26809539527744
 31
0.0
  0
LINE
  5
2774
330
10B4
100
AcDbEntity
  8
0
  6
ByBlock
 62
     0
100
AcDbLine
 10
176.6536182326422
 20
56.26809539527744
 30
0.0
 11
176.6536182326422
 21
67.65547139527786
 31
0.0
  0
LINE
  5
2775
330
10B4
100
AcDbEntity
  8
0
  6
ByBlock
 62
     0
100
AcDbLine
 10
176.6536182326422
 20
60.06388739527758
 30
0.0
 11
162.1742742326417
 21
60.06388739527758
 31
0.0
  0
LINE
  5
2776
330
10B4
100
AcDbEntity
  8
0
  6
ByBlock
 62
     0
100
AcDbLine
 10
162.1742742326417
 20
67.65547139527786
 30
0.0
 11
162.1742742326417
 21
56.26809539527744
 31
0.0
  0
LINE
  5
2777
330
10B4
100
AcDbEntity
  8
0
  6
ByBlock
 62
     0
100
AcDbLine
 10
176.6536182326422
 20
67.65547139527786
 30
0.0
 11
162.1742742326417
 21
67.65547139527786
 31
0.0
  0
ELLIPSE
  5
2781
330
10B4
100
AcDbEntity
  8
0
100
AcDbEllipse
 10
208.7881722798007
 20
156.2959780758609
 30
0.0
 11
-1.837117307087383
 21
0.0
 31
0.0
210
0.0
220
0.0
230
1.0
 40
0.5773502691896306
 41
3.926990816987237
 42
5.497787143782142
  0
ELLIPSE
  5
2783
330
10B4
100
AcDbEntity
  8
0
100
AcDbEllipse
 10
208.7881722798007
 20
136.2959780758609
 30
0.0
 11
-1.837117307087383
 21
0.0
 31
0.0
210
0.0
220
0.0
230
1.0
 40
0.5773502691896306
 41
3.926990816987237
 42
5.497787143782142
  0
DIMENSION
  5
2784
330
10B4
100
AcDbEntity
  8
0
100
AcDbDimension
  2
*D15
 10
14.78293829217008
 20
11.3140183429257
 30
0.0
 11
42.04597546198854
 21
11.3140183429257
 31
0.0
 70
    32
  1
AS REQ'D
 71
     5
 42
54.52607433963692
  3
STANDARD$0
100
AcDbAlignedDimension
 13
69.309012631807
 23
17.22761425242285
 33
0.0
 14
14.78293829217008
 24
17.22761425242285
 34
0.0
100
AcDbRotatedDimension
  0
MTEXT
  5
27BF
330
10B4
100
AcDbEntity
  8
0
 62
     7
100
AcDbMText
 10
54.68627932398383
 20
24.0954632796821
 30
0.0
 40
1.768799999999999
 41
0.0
 71
     5
 72
     1
  1
\A1;(AVAILABLE RANGE\P60%%D TO 70%%D)
  7
ROMANS
 73
     1
 44
1.0
1001
ACAD
1000
MTEXTBEGIN
1070
    73
1070
     1
1070
    44
1040
1.0
1070
    74
1070
     0
1000
MTEXTEND
  0
TEXT
  5
27C2
330
10B4
100
AcDbEntity
  8
0
 62
     7
100
AcDbText
 10
16.90658462989231
 20
106.5685453299581
 30
0.0
 40
1.768799999999999
  1
BOTH SIDES
  7
ROMANS
 72
     1
 11
24.95041320132088
 21
106.5685453299581
 31
0.0
100
AcDbText
  0
TEXT
  5
27C3
330
10B4
100
AcDbEntity
  8
0
 62
     7
100
AcDbText
 10
-6.612416563146535
 20
3.397505532768278
 30
0.0
 40
1.768799999999999
  1
OSHA 1910.25
  7
ROMANS
 72
     1
 11
3.200212008282036
 21
3.397505532768278
 31
0.0
100
AcDbText
  0
DIMENSION
  5
27FC
330
10B4
100
AcDbEntity
  8
0
100
AcDbDimension
  2
*D16
 10
25.76900283220875
 20
38.78897993286037
 30
0.0
 11
18.50173086929737
 21
42.49183994636104
 31
0.0
 70
    33
  1
VARIES
 71
     5
 42
16.3125
 53
63.0
  3
STANDARD$0
100
AcDbAlignedDimension
 13
18.20193180590169
 23
59.86913546927367
 33
0.0
 14
32.73647573172445
 24
52.46341544227231
 34
0.0
  0
DIMENSION
  5
2814
330
10B4
100
AcDbEntity
  8
0
100
AcDbDimension
  2
*D17
 10
129.8217829298218
 20
116.5535711325906
 30
0.0
 11
141.6967829298218
 21
116.5535711325906
 31
0.0
 70
    32
 71
     5
 42
23.75
  3
STANDARD$0
100
AcDbAlignedDimension
 13
153.5717829298218
 23
110.7276142524229
 33
0.0
 14
129.8217829298218
 24
110.7276142524229
 34
0.0
100
AcDbRotatedDimension
  0
DIMENSION
  5
2822
330
10B4
100
AcDbEntity
  8
0
100
AcDbDimension
  2
*D18
 10
126.6967829298218
 20
11.3140183429257
 30
0.0
 11
141.6967829298218
 21
11.3140183429257
 31
0.0
 70
    32
  1
<> STD
 71
     5
 42
30.0
  3
STANDARD$0
100
AcDbAlignedDimension
 13
156.6967829298218
 23
17.22761425242871
 33
0.0
 14
126.6967829298218
 24
17.2276142524287
 34
0.0
100
AcDbRotatedDimension
  0
TEXT
  5
2844
330
10B4
100
AcDbEntity
  8
0
 62
     7
100
AcDbText
 10
116.4751715408417
 20
3.32718670138956
 30
0.0
 40
1.768799999999999
  1
(AVAILABLE FROM 28" UP TO 48" WIDE)
  7
ROMANS
100
AcDbText
  0
DIMENSION
  5
28BF
330
10B4
100
AcDbEntity
  8
0
100
AcDbDimension
  2
*D19
 10
56.97863947210129
 20
115.3299879964269
 30
0.0
 11
49.00543132042548
 21
99.68168591536876
 31
0.0
 70
    33
  1
VARIES
 71
     5
 42
35.12499999999997
 53
63.0
  3
STANDARD$0
100
AcDbAlignedDimension
 13
43.66875455549845
 23
82.69000399437123
 33
0.0
 14
59.61517085885006
 24
113.9866081564876
 34
0.0
  0
ENDSEC
  0
SECTION
  2
OBJECTS
  0
DICTIONARY
  5
10A8
330
0
100
AcDbDictionary
281
     1
  3
ACAD_COLOR
350
2705
  3
ACAD_GROUP
350
10A9
  3
ACAD_LAYOUT
350
268B
  3
ACAD_MATERIAL
350
26F0
  3
ACAD_MLINESTYLE
350
10AA
  3
ACAD_PLOTSETTINGS
350
268C
  3
ACAD_PLOTSTYLENAME
350
2689
  3
ACAD_TABLESTYLE
350
2706
  3
ACAD_VISUALSTYLE
350
26F4
  3
AcDbVariableDictionary
350
270D
  3
DWGPROPS
350
28F5
  0
DICTIONARY
  5
27DD
330
10A4
100
AcDbDictionary
280
     1
281
     1
  0
DICTIONARY
  5
271F
330
109E
100
AcDbDictionary
280
     1
281
     1
  3
ACAD_LAYERFILTERS
360
2732
  3
ACLYDICTIONARY
360
2731
  0
DICTIONARY
  5
2749
330
10B4
100
AcDbDictionary
280
     1
281
     1
  3
ACAD_SORTENTS
360
274A
  0
DICTIONARY
  5
276D
330
2766
100
AcDbDictionary
280
     1
281
     1
  3
ACAD_SORTENTS
360
276E
  0
DICTIONARY
  5
2705
102
{ACAD_REACTORS
330
10A8
102
}
330
10A8
100
AcDbDictionary
281
     1
  0
DICTIONARY
  5
10A9
102
{ACAD_REACTORS
330
10A8
102
}
330
10A8
100
AcDbDictionary
281
     1
  0
DICTIONARY
  5
268B
102
{ACAD_REACTORS
330
10A8
102
}
330
10A8
100
AcDbDictionary
281
     1
  3
Layout1
350
268E
  3
Model
350
268D
  0
DICTIONARY
  5
26F0
102
{ACAD_REACTORS
330
10A8
102
}
330
10A8
100
AcDbDictionary
281
     1
  3
ByBlock
350
26F2
  3
ByLayer
350
26F1
  3
Global
350
26F3
  0
DICTIONARY
  5
10AA
102
{ACAD_REACTORS
330
10A8
102
}
330
10A8
100
AcDbDictionary
281
     1
  3
STANDARD
350
10B7
  0
DICTIONARY
  5
268C
102
{ACAD_REACTORS
330
10A8
102
}
330
10A8
100
AcDbDictionary
281
     1
  0
ACDBDICTIONARYWDFLT
  5
2689
102
{ACAD_REACTORS
330
10A8
102
}
330
10A8
100
AcDbDictionary
281
     1
  3
Normal
350
268A
100
AcDbDictionaryWithDefault
340
268A
  0
DICTIONARY
  5
2706
102
{ACAD_REACTORS
330
10A8
102
}
330
10A8
100
AcDbDictionary
281
     1
  3
Standard
350
2707
  0
DICTIONARY
  5
26F4
102
{ACAD_REACTORS
330
10A8
102
}
330
10A8
100
AcDbDictionary
281
     1
  3
2dWireframe
350
26FA
  3
3D Hidden
350
26FC
  3
3dWireframe
350
26FB
  3
Basic
350
26F9
  3
Brighten
350
2700
  3
ColorChange
350
2704
  3
Conceptual
350
26FD
  3
Dim
350
26FF
  3
Facepattern
350
2703
  3
Flat
350
26F5
  3
FlatWithEdges
350
26F6
  3
Gouraud
350
26F7
  3
GouraudWithEdges
350
26F8
  3
Linepattern
350
2702
  3
Realistic
350
26FE
  3
Thicken
350
2701
  0
DICTIONARY
  5
270D
102
{ACAD_REACTORS
330
10A8
102
}
330
10A8
100
AcDbDictionary
281
     1
  3
CTABLESTYLE
350
270E
  3
DIMASSOC
350
27F3
  3
INDEXCTL
350
27F2
  3
SORTENTS
350
27F1
  0
XRECORD
  5
28F5
102
{ACAD_REACTORS
330
10A8
102
}
330
10A8
100
AcDbXrecord
280
     1
  1
DWGPROPS COOKIE
  2

  3

  4

  6

  7

  8
XPMUser
  9

300
=
301
=
302
=
303
=
304
=
305
=
306
=
307
=
308
=
309
=
 40
0.2940112847222222
 41
2450857.457151736
 42
2459458.663506274
  1

 90
        0
  0
DICTIONARY
  5
2732
102
{ACAD_REACTORS
330
271F
102
}
330
271F
100
AcDbDictionary
281
     1
  0
DICTIONARY
  5
2731
102
{ACAD_REACTORS
330
271F
102
}
330
271F
100
AcDbDictionary
281
     1
1001
ACAD
1000
<All
  0
SORTENTSTABLE
  5
274A
102
{ACAD_REACTORS
330
2749
102
}
330
2749
100
AcDbSortentsTable
330
10B4
331
25B2
  5
2627
331
C92
  5
C92
331
C33
  5
C33
331
CC9
  5
CC9
331
C53
  5
C53
331
BDC
  5
BDC
331
C9A
  5
C9A
331
2775
  5
2775
331
CE1
  5
CE1
331
BE4
  5
BE4
331
C5B
  5
C5B
331
CA2
  5
CA2
331
2746
  5
25AF
331
CE9
  5
CE9
331
BEC
  5
BEC
331
C63
  5
C63
331
CAA
  5
CAA
331
13F1
  5
1CF2
331
1409
  5
25A8
331
25AB
  5
25B7
331
CB2
  5
CB2
331
B9D
  5
B9D
331
BF4
  5
BF4
331
2756
  5
275B
331
D09
  5
D09
331
BA5
  5
BA5
331
CBA
  5
CBA
331
CC2
  5
CC2
331
D29
  5
D29
331
C8B
  5
C8B
331
1127
  5
1127
331
25B3
  5
2650
331
13DA
  5
1409
331
C34
  5
C34
331
C93
  5
C93
331
C9B
  5
C9B
331
BDD
  5
BDD
331
C54
  5
C54
331
CDA
  5
CDA
331
2776
  5
2776
331
CA3
  5
CA3
331
BE5
  5
BE5
331
C5C
  5
C5C
331
CE2
  5
CE2
331
1347
  5
1393
331
2747
  5
25B0
331
C64
  5
C64
331
BED
  5
BED
331
CAB
  5
CAB
331
CEA
  5
CEA
331
135F
  5
13CC
331
260B
  5
2752
331
25AC
  5
25C7
331
B9E
  5
B9E
331
BF5
  5
BF5
331
CB3
  5
CB3
331
2757
  5
275C
331
1367
  5
13D0
331
D0A
  5
D0A
331
BA6
  5
BA6
331
CBB
  5
CBB
331
BAE
  5
BAE
331
CC3
  5
CC3
331
1128
  5
1128
331
C8C
  5
C8C
331
D2A
  5
D2A
331
25B4
  5
265D
331
C94
  5
C94
331
BD6
  5
BD6
331
C35
  5
C35
331
C55
  5
C55
331
2777
  5
2777
331
BDE
  5
BDE
331
C9C
  5
C9C
331
CDB
  5
CDB
331
CE3
  5
CE3
331
BE6
  5
BE6
331
C5D
  5
C5D
331
CA4
  5
CA4
331
CAC
  5
CAC
331
BEE
  5
BEE
331
CEB
  5
CEB
331
13EB
  5
140F
331
207A
  5
25B2
331
25AD
  5
25E1
331
D03
  5
D03
331
2758
  5
275D
331
B9F
  5
B9F
331
CB4
  5
CB4
331
D0B
  5
D0B
331
C0E
  5
C0E
331
CBC
  5
CBC
331
D23
  5
D23
331
BAF
  5
BAF
331
C85
  5
C85
331
CC4
  5
CC4
331
1121
  5
1121
331
D2B
  5
D2B
331
C8D
  5
C8D
331
BCF
  5
BCF
331
13CC
  5
13F7
331
25B5
  5
2742
331
25FD
  5
2751
331
2760
  5
1347
331
BD7
  5
BD7
331
C95
  5
C95
331
C9D
  5
C9D
331
BDF
  5
BDF
331
C56
  5
C56
331
CDC
  5
CDC
331
CA5
  5
CA5
331
BE7
  5
BE7
331
C5E
  5
C5E
331
CE4
  5
CE4
331
CAD
  5
CAD
331
BEF
  5
BEF
331
CEC
  5
CEC
331
25AE
  5
25EF
331
C76
  5
C76
331
BF7
  5
BF7
331
CB5
  5
CB5
331
D0C
  5
D0C
331
CBD
  5
CBD
331
C86
  5
C86
331
CC5
  5
CC5
331
C8E
  5
C8E
331
D2C
  5
D2C
331
25B6
  5
2743
331
2761
  5
1355
331
BD0
  5
BD0
331
D34
  5
D34
331
C96
  5
C96
331
BD8
  5
BD8
331
C9E
  5
C9E
331
BE0
  5
BE0
331
CDD
  5
CDD
331
2742
  5
25AB
331
CE5
  5
CE5
331
BE8
  5
BE8
331
C5F
  5
C5F
331
CA6
  5
CA6
331
EF4
  5
EF4
331
CAE
  5
CAE
331
CED
  5
CED
331
25AF
  5
25FD
331
BF0
  5
BF0
331
2752
  5
2756
331
BA1
  5
BA1
331
CB6
  5
CB6
331
D0D
  5
D0D
331
CBE
  5
CBE
331
C87
  5
C87
331
CC6
  5
CC6
331
C8F
  5
C8F
331
D2D
  5
D2D
331
13C6
  5
13F1
331
25B7
  5
2744
331
25EF
  5
274F
331
2762
  5
135F
331
C97
  5
C97
331
BD9
  5
BD9
331
2772
  5
2772
331
C9F
  5
C9F
331
BE1
  5
BE1
331
CDE
  5
CDE
331
2743
  5
25AC
331
C60
  5
C60
331
BE9
  5
BE9
331
CA7
  5
CA7
331
CE6
  5
CE6
331
CAF
  5
CAF
331
2490
  5
25B3
331
2627
  5
2754
331
25A8
  5
25B4
331
274B
  5
2745
331
BF1
  5
BF1
331
2753
  5
2757
331
CB7
  5
CB7
331
BA2
  5
BA2
331
C09
  5
C09
331
137B
  5
13DA
331
CBF
  5
CBF
331
1393
  5
13EB
331
D26
  5
D26
331
C88
  5
C88
331
CC7
  5
CC7
331
D2E
  5
D2E
331
25B0
  5
260B
331
2635
  5
2755
331
2763
  5
1367
331
C90
  5
C90
331
C31
  5
C31
331
C51
  5
C51
331
BDA
  5
BDA
331
C98
  5
C98
331
2773
  5
2773
331
CDF
  5
CDF
331
CA0
  5
CA0
331
BE2
  5
BE2
331
EEE
  5
EEE
331
2744
  5
25AD
331
BEA
  5
BEA
331
C61
  5
C61
331
CA8
  5
CA8
331
13F7
  5
207A
331
13FF
  5
2490
331
140F
  5
25A9
331
25A9
  5
25B5
331
274C
  5
2746
331
CB0
  5
CB0
331
BF2
  5
BF2
331
BA3
  5
BA3
331
CB8
  5
CB8
331
CC0
  5
CC0
331
D27
  5
D27
331
C89
  5
C89
331
D2F
  5
D2F
331
13D0
  5
13FF
331
25B1
  5
2619
331
25E1
  5
274E
331
2764
  5
137B
331
CC8
  5
CC8
331
C32
  5
C32
331
C91
  5
C91
331
BDB
  5
BDB
331
C52
  5
C52
331
C99
  5
C99
331
2774
  5
2774
331
CA1
  5
CA1
331
BE3
  5
BE3
331
CE0
  5
CE0
331
2745
  5
25AE
331
C62
  5
C62
331
BEB
  5
BEB
331
CA9
  5
CA9
331
CE8
  5
CE8
331
1355
  5
13C6
331
2619
  5
2753
331
25AA
  5
25B6
331
BF3
  5
BF3
331
CB1
  5
CB1
331
2755
  5
275A
331
D08
  5
D08
331
BA4
  5
BA4
331
C7A
  5
C7A
331
CB9
  5
CB9
331
C13
  5
C13
331
CC1
  5
CC1
331
C8A
  5
C8A
331
D28
  5
D28
  0
SORTENTSTABLE
  5
276E
102
{ACAD_REACTORS
330
276D
102
}
330
276D
100
AcDbSortentsTable
330
2766
  0
LAYOUT
  5
268E
102
{ACAD_XDICTIONARY
360
28F8
102
}
102
{ACAD_REACTORS
330
268B
102
}
330
268B
100
AcDbPlotSettings
  1

  2
HP LaserJet 2100 Series PCL 6
  4

  6

 40
0.0
 41
0.0
 42
0.0
 43
0.0
 44
0.0
 45
0.0
 46
0.0
 47
0.0
 48
0.0
 49
0.0
140
0.0
141
0.0
142
1.0
143
1.0
 70
   688
 72
     0
 73
     0
 74
     5
  7
acad.ctb
 75
    16
147
1.0
148
0.0
149
0.0
100
AcDbLayout
  1
Layout1
 70
     1
 71
     1
 10
0.0
 20
0.0
 11
12.0
 21
9.0
 12
0.0
 22
0.0
 32
0.0
 14
1.000000000000000E+20
 24
1.000000000000000E+20
 34
1.000000000000000E+20
 15
-1.000000000000000E+20
 25
-1.000000000000000E+20
 35
-1.000000000000000E+20
146
0.0
 13
0.0
 23
0.0
 33
0.0
 16
1.0
 26
0.0
 36
0.0
 17
0.0
 27
1.0
 37
0.0
 76
     0
330
10B1
  0
LAYOUT
  5
268D
102
{ACAD_XDICTIONARY
360
28F6
102
}
102
{ACAD_REACTORS
330
268B
102
}
330
268B
100
AcDbPlotSettings
  1

  2
PDF Pro 10
  4
Letter
  6

 40
3.174999952316284
 41
3.174999952316284
 42
3.175003051757812
 43
3.17498779296875
 44
215.8999938964844
 45
279.3999938964844
 46
6.476993231771652
 47
0.0
 48
0.0
 49
0.0
140
0.0
141
0.0
142
1.0
143
25.58295530305524
 70
  3764
 72
     0
 73
     1
 74
     1
  7
acad.ctb
 75
     0
147
0.0390885254715109
148
513.8343094945177
149
349.5843586276269
100
AcDbLayout
  1
Model
 70
     1
 71
     0
 10
0.0
 20
0.0
 11
12.0
 21
9.0
 12
0.0
 22
0.0
 32
0.0
 14
0.0
 24
0.0
 34
0.0
 15
0.0
 25
0.0
 35
0.0
146
0.0
 13
0.0
 23
0.0
 33
0.0
 16
1.0
 26
0.0
 36
0.0
 17
0.0
 27
1.0
 37
0.0
 76
     0
330
10B4
331
26EE
1001
ACAD_PSEXT
1000
PDF Pro 10
1000
Visage PDF
1000
VSP1:
1000

1070
     0
  0
MATERIAL
  5
26F2
102
{ACAD_XDICTIONARY
360
28FC
102
}
102
{ACAD_REACTORS
330
26F0
102
}
330
26F0
100
AcDbMaterial
  1
ByBlock
  0
MATERIAL
  5
26F1
102
{ACAD_XDICTIONARY
360
28FA
102
}
102
{ACAD_REACTORS
330
26F0
102
}
330
26F0
100
AcDbMaterial
  1
ByLayer
  0
MATERIAL
  5
26F3
102
{ACAD_XDICTIONARY
360
28FE
102
}
102
{ACAD_REACTORS
330
26F0
102
}
330
26F0
100
AcDbMaterial
  1
Global
  0
MLINESTYLE
  5
10B7
102
{ACAD_REACTORS
330
10AA
102
}
330
10AA
100
AcDbMlineStyle
  2
STANDARD
 70
     0
  3

 62
     0
 51
90.0
 52
90.0
 71
     2
 49
0.5
 62
   256
  6
BYLAYER
 49
-0.5
 62
   256
  6
BYLAYER
  0
ACDBPLACEHOLDER
  5
268A
102
{ACAD_REACTORS
330
2689
102
}
330
2689
  0
TABLESTYLE
  5
2707
102
{ACAD_XDICTIONARY
360
2900
102
}
102
{ACAD_REACTORS
330
2706
102
}
330
2706
100
AcDbTableStyle
  3
Standard
 70
     0
 71
     0
 40
0.06
 41
0.06
280
     0
281
     0
  7
STANDARD
140
0.18
170
     2
 62
     0
 63
     7
283
     0
274
    -2
284
     1
 64
     0
275
    -2
285
     1
 65
     0
276
    -2
286
     1
 66
     0
277
    -2
287
     1
 67
     0
278
    -2
288
     1
 68
     0
279
    -2
289
     1
 69
     0
  7
STANDARD
140
0.25
170
     5
 62
     0
 63
     7
283
     0
274
    -2
284
     1
 64
     0
275
    -2
285
     1
 65
     0
276
    -2
286
     1
 66
     0
277
    -2
287
     1
 67
     0
278
    -2
288
     1
 68
     0
279
    -2
289
     1
 69
     0
  7
STANDARD
140
0.18
170
     5
 62
     0
 63
     7
283
     0
274
    -2
284
     1
 64
     0
275
    -2
285
     1
 65
     0
276
    -2
286
     1
 66
     0
277
    -2
287
     1
 67
     0
278
    -2
288
     1
 68
     0
279
    -2
289
     1
 69
     0
  0
VISUALSTYLE
  5
26FA
102
{ACAD_REACTORS
330
26F4
102
}
330
26F4
100
AcDbVisualStyle
  2
2dWireframe
 70
     4
 71
     0
 72
     2
 73
     0
 90
        0
 40
-0.6
 41
-30.0
 62
     5
 63
     7
 74
     1
 91
        4
 64
     7
 65
   257
 75
     1
175
     1
 42
1.0
 92
        0
 66
   257
 43
1.0
 76
     1
 77
     6
 78
     2
 67
     7
 79
     5
170
     0
171
     0
290
     0
174
     0
 93
        1
 44
0.0
173
     0
291
     0
 45
0.0
1001
ACAD
1000
AcDbSavedByObjectVersion
1070
     0
  0
VISUALSTYLE
  5
26FC
102
{ACAD_REACTORS
330
26F4
102
}
330
26F4
100
AcDbVisualStyle
  2
3D Hidden
 70
     6
 71
     1
 72
     2
 73
     2
 90
        0
 40
-0.6
 41
-30.0
 62
     5
 63
     7
 74
     2
 91
        2
 64
     7
 65
   257
 75
     2
175
     1
 42
40.0
 92
        0
 66
   257
 43
1.0
 76
     1
 77
     6
 78
     2
 67
     7
 79
     3
170
     0
171
     0
290
     0
174
     0
 93
        1
 44
0.0
173
     0
291
     0
 45
0.0
1001
ACAD
1000
AcDbSavedByObjectVersion
1070
     0
  0
VISUALSTYLE
  5
26FB
102
{ACAD_REACTORS
330
26F4
102
}
330
26F4
100
AcDbVisualStyle
  2
3dWireframe
 70
     5
 71
     0
 72
     2
 73
     0
 90
        0
 40
-0.6
 41
-30.0
 62
     5
 63
     7
 74
     1
 91
        4
 64
     7
 65
   257
 75
     1
175
     1
 42
1.0
 92
        0
 66
   257
 43
1.0
 76
     1
 77
     6
 78
     2
 67
     7
 79
     5
170
     0
171
     0
290
     0
174
     0
 93
        1
 44
0.0
173
     0
291
     0
 45
0.0
1001
ACAD
1000
AcDbSavedByObjectVersion
1070
     0
  0
VISUALSTYLE
  5
26F9
102
{ACAD_REACTORS
330
26F4
102
}
330
26F4
100
AcDbVisualStyle
  2
Basic
 70
     7
 71
     1
 72
     0
 73
     1
 90
        0
 40
-0.6
 41
-30.0
 62
     5
 63
     7
 74
     0
 91
        4
 64
     7
 65
   257
 75
     1
175
     1
 42
1.0
 92
        8
 66
     7
 43
1.0
 76
     1
 77
     6
 78
     2
 67
     7
 79
     5
170
     0
171
     0
290
     0
174
     0
 93
        1
 44
0.0
173
     0
291
     1
 45
0.0
1001
ACAD
1000
AcDbSavedByObjectVersion
1070
     0
  0
VISUALSTYLE
  5
2700
102
{ACAD_REACTORS
330
26F4
102
}
330
26F4
100
AcDbVisualStyle
  2
Brighten
 70
    12
 71
     2
 72
     2
 73
     0
 90
        0
 40
-0.6
 41
-30.0
 62
     5
 63
     7
 74
     1
 91
        4
 64
     7
 65
   257
 75
     1
175
     1
 42
1.0
 92
        8
 66
     7
 43
1.0
 76
     1
 77
     6
 78
     2
 67
     7
 79
     5
170
     0
171
     0
290
     0
174
     0
 93
        1
 44
50.0
173
     0
291
     1
 45
0.0
1001
ACAD
1000
AcDbSavedByObjectVersion
1070
     0
  0
VISUALSTYLE
  5
2704
102
{ACAD_REACTORS
330
26F4
102
}
330
26F4
100
AcDbVisualStyle
  2
ColorChange
 70
    16
 71
     2
 72
     2
 73
     3
 90
        0
 40
-0.6
 41
-30.0
 62
     5
 63
     8
 74
     1
 91
        4
 64
     7
 65
   257
 75
     1
175
     1
 42
1.0
 92
        8
 66
     8
 43
1.0
 76
     1
 77
     6
 78
     2
 67
     7
 79
     5
170
     0
171
     0
290
     0
174
     0
 93
        1
 44
0.0
173
     0
291
     1
 45
0.0
1001
ACAD
1000
AcDbSavedByObjectVersion
1070
     0
  0
VISUALSTYLE
  5
26FD
102
{ACAD_REACTORS
330
26F4
102
}
330
26F4
100
AcDbVisualStyle
  2
Conceptual
 70
     9
 71
     3
 72
     2
 73
     0
 90
        0
 40
-0.6
 41
-30.0
 62
     5
 63
     7
 74
     2
 91
        2
 64
     7
 65
   257
 75
     1
175
     1
 42
40.0
 92
        8
 66
     7
 43
1.0
 76
     1
 77
     6
 78
     2
 67
     7
 79
     3
170
     0
171
     0
290
     0
174
     0
 93
        1
 44
0.0
173
     0
291
     0
 45
0.0
1001
ACAD
1000
AcDbSavedByObjectVersion
1070
     0
  0
VISUALSTYLE
  5
26FF
102
{ACAD_REACTORS
330
26F4
102
}
330
26F4
100
AcDbVisualStyle
  2
Dim
 70
    11
 71
     2
 72
     2
 73
     0
 90
        0
 40
-0.6
 41
-30.0
 62
     5
 63
     7
 74
     1
 91
        4
 64
     7
 65
   257
 75
     1
175
     1
 42
1.0
 92
        8
 66
     7
 43
1.0
 76
     1
 77
     6
 78
     2
 67
     7
 79
     5
170
     0
171
     0
290
     0
174
     0
 93
        1
 44
-50.0
173
     0
291
     1
 45
0.0
1001
ACAD
1000
AcDbSavedByObjectVersion
1070
     0
  0
VISUALSTYLE
  5
2703
102
{ACAD_REACTORS
330
26F4
102
}
330
26F4
100
AcDbVisualStyle
  2
Facepattern
 70
    15
 71
     2
 72
     2
 73
     0
 90
        0
 40
-0.6
 41
-30.0
 62
     5
 63
     7
 74
     1
 91
        4
 64
     7
 65
   257
 75
     1
175
     1
 42
1.0
 92
        8
 66
     7
 43
1.0
 76
     1
 77
     6
 78
     2
 67
     7
 79
     5
170
     0
171
     0
290
     0
174
     0
 93
        1
 44
0.0
173
     0
291
     1
 45
0.0
1001
ACAD
1000
AcDbSavedByObjectVersion
1070
     0
  0
VISUALSTYLE
  5
26F5
102
{ACAD_REACTORS
330
26F4
102
}
330
26F4
100
AcDbVisualStyle
  2
Flat
 70
     0
 71
     2
 72
     1
 73
     1
 90
        2
 40
-0.6
 41
30.0
 62
     5
 63
     7
 74
     0
 91
        4
 64
     7
 65
   257
 75
     1
175
     1
 42
1.0
 92
        8
 66
     7
 43
1.0
 76
     1
 77
     6
 78
     2
 67
     7
 79
     5
170
     0
171
     0
290
     0
174
     0
 93
       13
 44
0.0
173
     0
291
     1
 45
0.0
1001
ACAD
1000
AcDbSavedByObjectVersion
1070
     0
  0
VISUALSTYLE
  5
26F6
102
{ACAD_REACTORS
330
26F4
102
}
330
26F4
100
AcDbVisualStyle
  2
FlatWithEdges
 70
     1
 71
     2
 72
     1
 73
     1
 90
        2
 40
-0.6
 41
30.0
 62
     5
 63
     7
 74
     1
 91
        4
 64
     7
 65
   257
 75
     1
175
     1
 42
1.0
 92
        0
 66
   257
 43
1.0
 76
     1
 77
     6
 78
     2
 67
     7
 79
     5
170
     0
171
     0
290
     0
174
     0
 93
       13
 44
0.0
173
     0
291
     1
 45
0.0
1001
ACAD
1000
AcDbSavedByObjectVersion
1070
     0
  0
VISUALSTYLE
  5
26F7
102
{ACAD_REACTORS
330
26F4
102
}
330
26F4
100
AcDbVisualStyle
  2
Gouraud
 70
     2
 71
     2
 72
     2
 73
     1
 90
        2
 40
-0.6
 41
30.0
 62
     5
 63
     7
 74
     0
 91
        4
 64
     7
 65
   257
 75
     1
175
     1
 42
1.0
 92
        0
 66
     7
 43
1.0
 76
     1
 77
     6
 78
     2
 67
     7
 79
     5
170
     0
171
     0
290
     0
174
     0
 93
       13
 44
0.0
173
     0
291
     1
 45
0.0
1001
ACAD
1000
AcDbSavedByObjectVersion
1070
     0
  0
VISUALSTYLE
  5
26F8
102
{ACAD_REACTORS
330
26F4
102
}
330
26F4
100
AcDbVisualStyle
  2
GouraudWithEdges
 70
     3
 71
     2
 72
     2
 73
     1
 90
        2
 40
-0.6
 41
30.0
 62
     5
 63
     7
 74
     1
 91
        4
 64
     7
 65
   257
 75
     1
175
     1
 42
1.0
 92
        0
 66
   257
 43
1.0
 76
     1
 77
     6
 78
     2
 67
     7
 79
     5
170
     0
171
     0
290
     0
174
     0
 93
       13
 44
0.0
173
     0
291
     1
 45
0.0
1001
ACAD
1000
AcDbSavedByObjectVersion
1070
     0
  0
VISUALSTYLE
  5
2702
102
{ACAD_REACTORS
330
26F4
102
}
330
26F4
100
AcDbVisualStyle
  2
Linepattern
 70
    14
 71
     2
 72
     2
 73
     0
 90
        0
 40
-0.6
 41
-30.0
 62
     5
 63
     7
 74
     1
 91
        4
 64
     7
 65
   257
 75
     7
175
     7
 42
1.0
 92
        8
 66
     7
 43
1.0
 76
     1
 77
     6
 78
     2
 67
     7
 79
     5
170
     0
171
     0
290
     0
174
     0
 93
        1
 44
0.0
173
     0
291
     1
 45
0.0
1001
ACAD
1000
AcDbSavedByObjectVersion
1070
     0
  0
VISUALSTYLE
  5
26FE
102
{ACAD_REACTORS
330
26F4
102
}
330
26F4
100
AcDbVisualStyle
  2
Realistic
 70
     8
 71
     2
 72
     2
 73
     0
 90
        0
 40
-0.6
 41
-30.0
 62
     5
 63
     7
 74
     1
 91
        0
 64
     7
 65
   257
 75
     1
175
     1
 42
1.0
 92
        8
 66
     8
 43
1.0
 76
     1
 77
     6
 78
     2
 67
     7
 79
     5
170
     0
171
     0
290
     0
174
     0
 93
       13
 44
0.0
173
     0
291
     0
 45
0.0
1001
ACAD
1000
AcDbSavedByObjectVersion
1070
     0
  0
VISUALSTYLE
  5
2701
102
{ACAD_REACTORS
330
26F4
102
}
330
26F4
100
AcDbVisualStyle
  2
Thicken
 70
    13
 71
     2
 72
     2
 73
     0
 90
        0
 40
-0.6
 41
-30.0
 62
     5
 63
     7
 74
     1
 91
        4
 64
     7
 65
   257
 75
     1
175
     1
 42
1.0
 92
       12
 66
     7
 43
1.0
 76
     1
 77
     6
 78
     2
 67
     7
 79
     5
170
     0
171
     0
290
     0
174
     0
 93
        1
 44
0.0
173
     0
291
     1
 45
0.0
1001
ACAD
1000
AcDbSavedByObjectVersion
1070
     0
  0
DICTIONARYVAR
  5
270E
102
{ACAD_REACTORS
330
270D
102
}
330
270D
100
DictionaryVariables
280
     0
  1
STANDARD
  0
DICTIONARYVAR
  5
27F3
102
{ACAD_REACTORS
330
270D
102
}
330
270D
100
DictionaryVariables
280
     0
  1
1
  0
DICTIONARYVAR
  5
27F2
102
{ACAD_REACTORS
330
270D
102
}
330
270D
100
DictionaryVariables
280
     0
  1
0
  0
DICTIONARYVAR
  5
27F1
102
{ACAD_REACTORS
330
270D
102
}
330
270D
100
DictionaryVariables
280
     0
  1
127
  0
DICTIONARY
  5
28F8
330
268E
100
AcDbDictionary
280
     1
281
     1
  3
ACAD_XREC_ROUNDTRIP
360
28F9
  0
DICTIONARY
  5
28F6
330
268D
100
AcDbDictionary
280
     1
281
     1
  3
ACAD_XREC_ROUNDTRIP
360
28F7
  0
DICTIONARY
  5
28FC
330
26F2
100
AcDbDictionary
280
     1
281
     1
  3
ACAD_XREC_ROUNDTRIP
360
28FD
  0
DICTIONARY
  5
28FA
330
26F1
100
AcDbDictionary
280
     1
281
     1
  3
ACAD_XREC_ROUNDTRIP
360
28FB
  0
DICTIONARY
  5
28FE
330
26F3
100
AcDbDictionary
280
     1
281
     1
  3
ACAD_XREC_ROUNDTRIP
360
28FF
  0
DICTIONARY
  5
2900
330
2707
100
AcDbDictionary
280
     1
281
     1
  3
ACAD_XREC_ROUNDTRIP
360
2901
  0
XRECORD
  5
28F9
102
{ACAD_REACTORS
330
28F8
102
}
330
28F8
100
AcDbXrecord
280
     1
102
SHADEPLOT
 70
     0
102
SHADEPLOTRESLEVEL
 70
     2
102
SHADEPLOTCUSTOMDPI
 70
   300
  0
XRECORD
  5
28F7
102
{ACAD_REACTORS
330
28F6
102
}
330
28F6
100
AcDbXrecord
280
     1
102
SHADEPLOT
 70
     0
102
SHADEPLOTRESLEVEL
 70
     2
102
SHADEPLOTCUSTOMDPI
 70
   300
  0
XRECORD
  5
28FD
102
{ACAD_REACTORS
330
28FC
102
}
330
28FC
100
AcDbXrecord
280
     1
102
MATERIAL
148
0.0
149
0.0
149
0.0
 93
        0
 94
       63
282
     0
 72
     1
 77
     1
171
     1
175
     1
179
     1
273
     0
  0
XRECORD
  5
28FB
102
{ACAD_REACTORS
330
28FA
102
}
330
28FA
100
AcDbXrecord
280
     1
102
MATERIAL
148
0.0
149
0.0
149
0.0
 93
        0
 94
       63
282
     0
 72
     1
 77
     1
171
     1
175
     1
179
     1
273
     0
  0
XRECORD
  5
28FF
102
{ACAD_REACTORS
330
28FE
102
}
330
28FE
100
AcDbXrecord
280
     1
102
MATERIAL
148
0.0
149
0.0
149
0.0
 93
        0
 94
       63
282
     0
 72
     1
 77
     1
171
     1
175
     1
179
     1
273
     0
  0
XRECORD
  5
2901
102
{ACAD_REACTORS
330
2900
102
}
330
2900
100
AcDbXrecord
280
     1
102
ACAD_ROUNDTRIP_PRE2007_TABLESTYLE
 90
      512
 91
        0
  1

 92
      512
 93
        0
  2

 94
      512
 95
        0
  3

  0
ENDSEC
  0
EOF
